  0
SECTION
  2
HEADER
  9
$ACADVER
  1
AC1014
  9
$ACADMAINTVER
 70
             0
  9
$DWGCODEPAGE
  3
ANSI_1252
  9
$INSBASE
 10
0.0
 20
0.0
 30
0.0
  9
$EXTMIN
 10
-31.6865619760582
 20
-142.82799656071211
 30
0.0
  9
$EXTMAX
 10
1018.83958065452
 20
258.90530703231337
 30
0.0
  9
$LIMMIN
 10
0.0
 20
0.0
  9
$LIMMAX
 10
0.0
 20
0.0
  9
$ORTHOMODE
 70
             0
  9
$REGENMODE
 70
             1
  9
$FILLMODE
 70
             1
  9
$QTEXTMODE
 70
             0
  9
$MIRRTEXT
 70
             1
  9
$DRAGMODE
 70
             2
  9
$LTSCALE
 40
1.0
  9
$OSMODE
 70
             0
  9
$ATTMODE
 70
             1
  9
$TEXTSIZE
 40
0.2
  9
$TRACEWID
 40
0.05
  9
$TEXTSTYLE
  7
STANDARD
  9
$CLAYER
  8
0
  9
$CELTYPE
  6
CONTINUOUS
  9
$CECOLOR
 62
           256
  9
$CELTSCALE
 40
1.0
  9
$DELOBJ
 70
             1
  9
$DISPSILH
 70
             0
  9
$DIMSCALE
 40
1.0
  9
$DIMASZ
 40
0.18
  9
$DIMEXO
 40
0.0625
  9
$DIMDLI
 40
0.38
  9
$DIMRND
 40
0.0
  9
$DIMDLE
 40
0.0
  9
$DIMEXE
 40
0.18
  9
$DIMTP
 40
0.0
  9
$DIMTM
 40
0.0
  9
$DIMTXT
 40
0.18
  9
$DIMCEN
 40
0.09
  9
$DIMTSZ
 40
0.0
  9
$DIMTOL
 70
             0
  9
$DIMLIM
 70
             0
  9
$DIMTIH
 70
             1
  9
$DIMTOH
 70
             1
  9
$DIMSE1
 70
             0
  9
$DIMSE2
 70
             0
  9
$DIMTAD
 70
             0
  9
$DIMZIN
 70
             0
  9
$DIMBLK
  1

  9
$DIMASO
 70
             1
  9
$DIMSHO
 70
             1
  9
$DIMPOST
  1

  9
$DIMAPOST
  1

  9
$DIMALT
 70
             0
  9
$DIMALTD
 70
             2
  9
$DIMALTF
 40
25.4
  9
$DIMLFAC
 40
1.0
  9
$DIMTOFL
 70
             0
  9
$DIMTVP
 40
0.0
  9
$DIMTIX
 70
             0
  9
$DIMSOXD
 70
             0
  9
$DIMSAH
 70
             0
  9
$DIMBLK1
  1

  9
$DIMBLK2
  1

  9
$DIMSTYLE
  2
STANDARD
  9
$DIMCLRD
 70
             0
  9
$DIMCLRE
 70
             0
  9
$DIMCLRT
 70
             0
  9
$DIMTFAC
 40
1.0
  9
$DIMGAP
 40
0.09
  9
$DIMJUST
 70
             0
  9
$DIMSD1
 70
             0
  9
$DIMSD2
 70
             0
  9
$DIMTOLJ
 70
             1
  9
$DIMTZIN
 70
             0
  9
$DIMALTZ
 70
             0
  9
$DIMALTTZ
 70
             0
  9
$DIMFIT
 70
             3
  9
$DIMUPT
 70
             0
  9
$DIMUNIT
 70
             2
  9
$DIMDEC
 70
             4
  9
$DIMTDEC
 70
             4
  9
$DIMALTU
 70
             2
  9
$DIMALTTD
 70
             2
  9
$DIMTXSTY
  7
STANDARD
  9
$DIMAUNIT
 70
             0
  9
$LUNITS
 70
             2
  9
$LUPREC
 70
             4
  9
$SKETCHINC
 40
0.1
  9
$FILLETRAD
 40
0.0
  9
$AUNITS
 70
             0
  9
$AUPREC
 70
             0
  9
$MENU
  1
acad
  9
$ELEVATION
 40
0.0
  9
$PELEVATION
 40
0.0
  9
$THICKNESS
 40
0.0
  9
$LIMCHECK
 70
             0
  9
$BLIPMODE
 70
             1
  9
$CHAMFERA
 40
0.0
  9
$CHAMFERB
 40
0.0
  9
$CHAMFERC
 40
0.0
  9
$CHAMFERD
 40
0.0
  9
$SKPOLY
 70
             0
  9
$TDCREATE
 40
0.000000000
  9
$TDUPDATE
 40
0.000000000
  9
$TDINDWG
 40
0.0000000000
  9
$TDUSRTIMER
 40
0.0000000000
  9
$USRTIMER
 70
             1
  9
$ANGBASE
 50
0.0
  9
$ANGDIR
 70
             0
  9
$PDMODE
 70
             0
  9
$PDSIZE
 40
0.0
  9
$PLINEWID
 40
0.0
  9
$COORDS
 70
             0
  9
$SPLFRAME
 70
             0
  9
$SPLINETYPE
 70
             6
  9
$SPLINESEGS
 70
             8
  9
$ATTDIA
 70
             0
  9
$ATTREQ
 70
             1
  9
$HANDLING
 70
             1
  9
$HANDSEED
  5
3C6
  9
$SURFTAB1
 70
             6
  9
$SURFTAB2
 70
             6
  9
$SURFTYPE
 70
             6
  9
$SURFU
 70
             6
  9
$SURFV
 70
             6
  9
$UCSNAME
  2

  9
$UCSORG
 10
0.0
 20
0.0
 30
0.0
  9
$UCSXDIR
 10
1.0
 20
0.0
 30
0.0
  9
$UCSYDIR
 10
0.0
 20
1.0
 30
0.0
  9
$PUCSNAME
  2

  9
$PUCSORG
 10
0.0
 20
0.0
 30
0.0
  9
$PUCSXDIR
 10
1.0
 20
0.0
 30
0.0
  9
$PUCSYDIR
 10
0.0
 20
1.0
 30
0.0
  9
$USERI1
 70
             0
  9
$USERI2
 70
             0
  9
$USERI3
 70
             0
  9
$USERI4
 70
             0
  9
$USERI5
 70
             0
  9
$USERR1
 40
12.01
  9
$USERR2
 40
0.0
  9
$USERR3
 40
0.0
  9
$USERR4
 40
0.0
  9
$USERR5
 40
0.0
  9
$WORLDVIEW
 70
             1
  9
$SHADEDGE
 70
             3
  9
$SHADEDIF
 70
            70
  9
$TILEMODE
 70
             1
  9
$MAXACTVP
 70
            16
  9
$PINSBASE
 10
0.0
 20
0.0
 30
0.0
  9
$PLIMCHECK
 70
             0
  9
$PEXTMIN
 10
1.00000000000000E+20
 20
1.00000000000000E+20
 30
1.00000000000000E+20
  9
$PEXTMAX
 10
-1.00000000000000E+20
 20
-1.00000000000000E+20
 30
-1.00000000000000E+20
  9
$PLIMMIN
 10
0.0
 20
0.0
  9
$PLIMMAX
 10
12.0
 20
9.0
  9
$UNITMODE
 70
             0
  9
$VISRETAIN
 70
             0
  9
$PLINEGEN
 70
             1
  9
$PSLTSCALE
 70
             0
  9
$TREEDEPTH
 70
          3020
  9
$PICKSTYLE
 70
             1
  9
$CMLSTYLE
  2
STANDARD
  9
$CMLJUST
 70
             0
  9
$CMLSCALE
 40
1.0
  9
$PROXYGRAPHICS
 70
             0
  9
$MEASUREMENT
 70
             1
  0
ENDSEC
  0
SECTION
  2
CLASSES
  0
CLASS
  1
LWPOLYLINE
  2
AcDbPolyline
  3
"AutoCAD"
 90
        0
280
             0
281
             1
  0
CLASS
  1
IMAGE
  2
AcDbRasterImage
  3
ISM
 90
      127
280
             0
281
             1
  0
CLASS
  1
OLE2FRAME
  2
AcDbOle2Frame
  3
""
 90
        0
280
             0
281
             1
  0
CLASS
  1
HATCH
  2
AcDbHatch
  3
"ACAD_SEDONA"
 90
        0
280
             0
281
             1
  0
CLASS
  1
DICTIONARYVAR
  2
AcDbDictionaryVar
  3
"AutoCAD"
 90
        0
280
             0
281
             0
  0
CLASS
  1
RASTERVARIABLES
  2
AcDbRasterVariables
  3
ISM
 90
        0
280
             0
281
             0
  0
CLASS
  1
IMAGEDEF
  2
AcDbRasterImageDef
  3
ISM
 90
        0
280
             0
281
             0
  0
CLASS
  1
IMAGEDEF_REACTOR
  2
AcDbRasterImageDefReactor
  3
ISM
 90
        1
280
             0
281
             0
  0
CLASS
  1
IDBUFFER
  2
AcDbIdBuffer
  3
"Acad"
 90
        0
280
             0
281
             0
  0
CLASS
  1
SPATIAL_FILTER
  2
AcDbSpatialFilter
  3
"Acad"
 90
        0
280
             0
281
             0
  0
CLASS
  1
XRECORD
  2
AcDbXrecord
  3
"<Built In>"
 90
        0
280
             0
281
             0
  0
CLASS
  1
SORTENTSTABLE
  2
AcDbSortentsTable
  3
"AutoCAD"
 90
        0
280
             0
281
             0
  0
CLASS
  1
LAYER_INDEX
  2
AcDbLayerIndex
  3
"Acad"
 90
        0
280
             0
281
             0
  0
CLASS
  1
SPATIAL_INDEX
  2
AcDbSpatialIndex
  3
"Acad"
 90
        0
280
             0
281
             0
  0
CLASS
  1
OBJECT_PTR
  2
CAseDLPNTableRecord
  3
"ASE-LPNTableRecord"
 90
        1
280
             0
281
             0
  0
CLASS
  1
LAYOUT
  2
AcDbLayout
  3
"AutoCAD 2000"
 90
        0
280
             0
281
             0
  0
CLASS
  1
PLOTSETTINGS
  2
AcDbPlotSettings
  3
"AutoCAD 2000"
 90
        0
280
             0
281
             0
  0
CLASS
  1
ACDBDICTIONARYWDFLT
  2
AcDbDictionaryWithDefault
  3
"AutoCAD 2000"
 90
        0
280
             0
281
             0
  0
CLASS
  1
ACDBPLACEHOLDER
  2
AcDbPlaceHolder
  3
"AutoCAD 2000"
 90
        0
280
             0
281
             0
  0
ENDSEC
  0
SECTION
  2
TABLES
  0
TABLE
  2
VPORT
  5
7
100
AcDbSymbolTable
 70
             1
  0
VPORT
  5
15
100
AcDbSymbolTableRecord
100
AcDbViewportTableRecord
  2
*ACTIVE
 70
             0
 10
0.0
 20
0.0
 11
1.0
 21
1.0
 12
493.57650933923088
 22
58.03865523580063
 13
0.0
 23
0.0
 14
1.0
 24
1.0
 15
0.0
 25
0.0
 16
0.0
 26
0.0
 36
1.0
 17
0.0
 27
0.0
 37
0.0
 40
721.02964218433021
 41
1.60267857142857
 42
50.0
 43
0.0
 44
0.0
 50
0.0
 51
0.0
 71
             0
 72
           100
 73
             1
 74
             1
 75
             0
 76
             0
 77
             0
 78
             0
  0
ENDTAB
  0
TABLE
  2
LTYPE
  5
4
100
AcDbSymbolTable
 70
            11
  0
LTYPE
  5
11
100
AcDbSymbolTableRecord
100
AcDbLinetypeTableRecord
  2
BYBLOCK
 70
            64
  3

 72
            65
 73
             0
 40
0.0
  0
LTYPE
  5
12
100
AcDbSymbolTableRecord
100
AcDbLinetypeTableRecord
  2
BYLAYER
 70
            64
  3

 72
            65
 73
             0
 40
0.0
  0
LTYPE
  5
13
100
AcDbSymbolTableRecord
100
AcDbLinetypeTableRecord
  2
CONTINUOUS
 70
            64
  3
Solid line
 72
            65
 73
             0
 40
0.0
  0
LTYPE
  5
1D
100
AcDbSymbolTableRecord
100
AcDbLinetypeTableRecord
  2
DASHED
 70
            64
  3
Dashed
 72
            65
 73
             2
 40
15.0
 49
7.0
 74
             0
 49
-8.0
 74
             0
  0
LTYPE
  5
1E
100
AcDbSymbolTableRecord
100
AcDbLinetypeTableRecord
  2
DOTTED
 70
            64
  3
Dotted
 72
            65
 73
             2
 40
1.0
 49
0.0
 74
             0
 49
-1.0
 74
             0
  0
LTYPE
  5
1F
100
AcDbSymbolTableRecord
100
AcDbLinetypeTableRecord
  2
DOT_CENTER
 70
            64
  3
Dot_Center
 72
            65
 73
             4
 40
14.0
 49
12.0
 74
             0
 49
-1.0
 74
             0
 49
0.0
 74
             0
 49
-1.0
 74
             0
  0
LTYPE
  5
20
100
AcDbSymbolTableRecord
100
AcDbLinetypeTableRecord
  2
LONG_DASHED
 70
            64
  3
Long_Dashed
 72
            65
 73
             2
 40
15.0
 49
10.0
 74
             0
 49
-5.0
 74
             0
  0
LTYPE
  5
21
100
AcDbSymbolTableRecord
100
AcDbLinetypeTableRecord
  2
DASH_CENTER
 70
            64
  3
Dash_Center
 72
            65
 73
             4
 40
14.0
 49
11.0
 74
             0
 49
-1.0
 74
             0
 49
1.0
 74
             0
 49
-1.0
 74
             0
  0
LTYPE
  5
22
100
AcDbSymbolTableRecord
100
AcDbLinetypeTableRecord
  2
PHANTOM
 70
            64
  3
Phantom
 72
            65
 73
             6
 40
13.0
 49
10.0
 74
             0
 49
-1.0
 74
             0
 49
0.0
 74
             0
 49
-1.0
 74
             0
 49
0.0
 74
             0
 49
-1.0
 74
             0
  0
LTYPE
  5
23
100
AcDbSymbolTableRecord
100
AcDbLinetypeTableRecord
  2
CENTER_DASH_DASH
 70
            64
  3
Center_Dash_Dash
 72
            65
 73
             6
 40
14.0
 49
9.0
 74
             0
 49
-1.0
 74
             0
 49
1.0
 74
             0
 49
-1.0
 74
             0
 49
1.0
 74
             0
 49
-1.0
 74
             0
  0
LTYPE
  5
24
100
AcDbSymbolTableRecord
100
AcDbLinetypeTableRecord
  2
DASHDOT
 70
            64
  3
DASHDOT
 72
            65
 73
             4
 40
16.0
 49
10.0
 74
             0
 49
-3.0
 74
             0
 49
0.0
 74
             0
 49
-3.0
 74
             0
  0
ENDTAB
  0
TABLE
  2
LAYER
  5
2
100
AcDbSymbolTable
 70
            10
  0
LAYER
  5
14
100
AcDbSymbolTableRecord
100
AcDbLayerTableRecord
  2
0
 70
             0
 62
             7
  6
CONTINUOUS
  0
LAYER
  5
25
100
AcDbSymbolTableRecord
100
AcDbLayerTableRecord
  2
1
 70
             0
 62
             7
  6
CONTINUOUS
  0
LAYER
  5
26
100
AcDbSymbolTableRecord
100
AcDbLayerTableRecord
  2
LC-001-002-----0
 70
             0
 62
             7
  6
CONTINUOUS
  0
LAYER
  5
27
100
AcDbSymbolTableRecord
100
AcDbLayerTableRecord
  2
LC-002-002-RND-0
 70
             0
 62
             7
  6
CONTINUOUS
  0
LAYER
  5
28
100
AcDbSymbolTableRecord
100
AcDbLayerTableRecord
  2
LC-003-005-----0
 70
             0
 62
             7
  6
CONTINUOUS
  0
LAYER
  5
29
100
AcDbSymbolTableRecord
100
AcDbLayerTableRecord
  2
LC-005-003-----0
 70
             0
 62
             7
  6
CONTINUOUS
  0
LAYER
  5
2A
100
AcDbSymbolTableRecord
100
AcDbLayerTableRecord
  2
LC-006-002-RND-0
 70
             0
 62
             7
  6
CONTINUOUS
  0
LAYER
  5
2B
100
AcDbSymbolTableRecord
100
AcDbLayerTableRecord
  2
LC-007-002-----0
 70
             0
 62
             7
  6
CONTINUOUS
  0
LAYER
  5
2C
100
AcDbSymbolTableRecord
100
AcDbLayerTableRecord
  2
LC-009-006-MLN-0
 70
             0
 62
             7
  6
CONTINUOUS
  0
LAYER
  5
2D
100
AcDbSymbolTableRecord
100
AcDbLayerTableRecord
  2
LC-010-006-MLN-0
 70
             0
 62
             7
  6
CONTINUOUS
  0
ENDTAB
  0
TABLE
  2
STYLE
  5
3
100
AcDbSymbolTable
 70
             2
  0
STYLE
  5
17
100
AcDbSymbolTableRecord
100
AcDbTextStyleTableRecord
  2
STANDARD
 70
             0
 40
0.0
 41
1.0
 50
0.0
 71
             0
 42
0.0
  3
txt
  4

  0
STYLE
  5
37C
100
AcDbSymbolTableRecord
100
AcDbTextStyleTableRecord
  2
CONVERTER_1
 70
             0
 40
0.0
 41
0.9
 50
0.0
 71
             0
 42
0.0
  3
txt.shx
  4

  0
ENDTAB
  0
TABLE
  2
VIEW
  5
5
100
AcDbSymbolTable
 70
             0
  0
ENDTAB
  0
TABLE
  2
UCS
  5
6
100
AcDbSymbolTable
 70
             0
  0
ENDTAB
  0
TABLE
  2
APPID
  5
8
100
AcDbSymbolTable
 70
             1
  0
APPID
  5
16
100
AcDbSymbolTableRecord
100
AcDbRegAppTableRecord
  2
ACAD
 70
             0
  0
ENDTAB
  0
TABLE
  2
DIMSTYLE
  5
9
100
AcDbSymbolTable
 70
             8
  0
DIMSTYLE
105
18
100
AcDbSymbolTableRecord
100
AcDbDimStyleTableRecord
  2
STANDARD
 70
             0
  3

  4

  5

  6

  7

 40
1.0
 41
0.18
 42
0.0625
 43
0.38
 44
0.18
 45
0.0
 46
0.0
 47
0.0
 48
0.0
 71
             0
 72
             0
 73
             1
 74
             1
 75
             0
 76
             0
 77
             0
 78
             0
140
0.18
141
0.09
142
0.0
143
25.4
144
1.0
145
0.0
146
1.0
147
0.09
170
             0
171
             2
172
             0
173
             0
174
             0
175
             0
176
             0
177
             0
178
             0
270
             2
271
             4
272
             4
273
             2
274
             2
275
             0
280
             0
281
             0
282
             0
283
             1
284
             0
285
             0
286
             0
287
             3
288
             0
340
17
  0
DIMSTYLE
105
37F
100
AcDbSymbolTableRecord
100
AcDbDimStyleTableRecord
  2
ME10_DIM_0
 70
             0
  3

  4

  5

  6

  7

 40
1.0
 41
12.0
 42
0.0
 43
0.38
 44
2.0
 45
0.0
 46
0.0
 47
0.0
 48
0.0
 71
             0
 72
             0
 73
             0
 74
             0
 75
             0
 76
             0
 77
             1
 78
             8
140
12.0
141
0.09
142
0.0
143
25.4
144
1.0
145
0.0
146
1.0
147
0.625
170
             0
171
             2
172
             1
173
             1
174
             0
175
             0
176
             4
177
             4
178
             1
270
             2
271
             2
272
             4
273
             2
274
             2
275
             0
280
             0
281
             0
282
             0
283
             1
284
             0
285
             0
286
             0
287
             3
288
             0
340
37C
  0
DIMSTYLE
105
38A
100
AcDbSymbolTableRecord
100
AcDbDimStyleTableRecord
  2
ME10_DIM_1
 70
             0
  3
DN<>
  4

  5

  6

  7

 40
1.0
 41
12.0
 42
0.0
 43
0.38
 44
2.0
 45
0.0
 46
0.0
 47
0.0
 48
0.0
 71
             0
 72
             0
 73
             0
 74
             0
 75
             0
 76
             0
 77
             1
 78
             8
140
12.0
141
0.09
142
0.0
143
25.4
144
1.0
145
0.0
146
1.0
147
0.625
170
             0
171
             2
172
             1
173
             1
174
             0
175
             0
176
             4
177
             4
178
             1
270
             2
271
             2
272
             4
273
             2
274
             2
275
             0
280
             0
281
             0
282
             0
283
             1
284
             0
285
             0
286
             0
287
             3
288
             0
340
37C
  0
DIMSTYLE
105
395
100
AcDbSymbolTableRecord
100
AcDbDimStyleTableRecord
  2
ME10_DIM_2
 70
             0
  3
DN<>
  4

  5

  6

  7

 40
1.0
 41
12.0
 42
0.0
 43
0.38
 44
2.0
 45
0.0
 46
0.0
 47
0.0
 48
0.0
 71
             0
 72
             0
 73
             0
 74
             0
 75
             0
 76
             0
 77
             1
 78
             8
140
12.0
141
0.09
142
0.0
143
25.4
144
1.0
145
0.0
146
1.0
147
0.625
170
             0
171
             2
172
             1
173
             1
174
             0
175
             0
176
             4
177
             4
178
             1
270
             2
271
             2
272
             4
273
             2
274
             2
275
             0
280
             0
281
             0
282
             0
283
             1
284
             0
285
             0
286
             0
287
             3
288
             0
340
37C
  0
DIMSTYLE
105
3A2
100
AcDbSymbolTableRecord
100
AcDbDimStyleTableRecord
  2
ME10_DIM_3
 70
             0
  3

  4

  5

  6

  7

 40
1.0
 41
12.0
 42
0.0
 43
0.38
 44
2.0
 45
0.0
 46
0.0
 47
0.0
 48
0.0
 71
             0
 72
             0
 73
             0
 74
             0
 75
             0
 76
             0
 77
             1
 78
             8
140
12.0
141
0.09
142
0.0
143
25.4
144
1.0
145
0.0
146
1.0
147
0.625
170
             0
171
             2
172
             1
173
             1
174
             0
175
             0
176
             4
177
             4
178
             1
270
             2
271
             2
272
             4
273
             2
274
             2
275
             0
280
             0
281
             0
282
             0
283
             1
284
             0
285
             0
286
             0
287
             3
288
             0
340
37C
  0
DIMSTYLE
105
3AD
100
AcDbSymbolTableRecord
100
AcDbDimStyleTableRecord
  2
ME10_DIM_4
 70
             0
  3

  4

  5

  6

  7

 40
1.0
 41
12.0
 42
0.0
 43
0.38
 44
2.0
 45
0.0
 46
0.0
 47
0.0
 48
0.0
 71
             0
 72
             0
 73
             0
 74
             0
 75
             0
 76
             0
 77
             1
 78
             8
140
12.0
141
0.09
142
0.0
143
25.4
144
1.0
145
0.0
146
1.0
147
0.625
170
             0
171
             2
172
             1
173
             1
174
             0
175
             0
176
             4
177
             4
178
             1
270
             2
271
             2
272
             4
273
             2
274
             2
275
             0
280
             0
281
             0
282
             0
283
             1
284
             0
285
             0
286
             0
287
             3
288
             0
340
37C
  0
DIMSTYLE
105
3B8
100
AcDbSymbolTableRecord
100
AcDbDimStyleTableRecord
  2
ME10_DIM_5
 70
             0
  3

  4

  5

  6

  7

 40
1.0
 41
12.0
 42
0.0
 43
0.38
 44
2.0
 45
0.0
 46
0.0
 47
0.0
 48
0.0
 71
             0
 72
             0
 73
             0
 74
             0
 75
             0
 76
             0
 77
             1
 78
             8
140
12.0
141
0.09
142
0.0
143
25.4
144
1.0
145
0.0
146
1.0
147
0.625
170
             0
171
             2
172
             1
173
             1
174
             0
175
             0
176
             4
177
             4
178
             1
270
             2
271
             2
272
             4
273
             2
274
             2
275
             0
280
             0
281
             0
282
             0
283
             1
284
             0
285
             0
286
             0
287
             3
288
             0
340
37C
  0
DIMSTYLE
105
3C3
100
AcDbSymbolTableRecord
100
AcDbDimStyleTableRecord
  2
ME10_DIM_6
 70
             0
  3
265-<>
  4

  5

  6

  7

 40
1.0
 41
12.0
 42
0.0
 43
0.38
 44
2.0
 45
0.0
 46
0.0
 47
0.0
 48
0.0
 71
             0
 72
             0
 73
             0
 74
             0
 75
             0
 76
             0
 77
             1
 78
             8
140
12.0
141
0.09
142
0.0
143
25.4
144
1.0
145
0.0
146
1.0
147
0.625
170
             0
171
             2
172
             1
173
             1
174
             0
175
             0
176
             4
177
             4
178
             1
270
             2
271
             2
272
             4
273
             2
274
             2
275
             0
280
             0
281
             0
282
             0
283
             1
284
             0
285
             0
286
             0
287
             3
288
             0
340
37C
  0
ENDTAB
  0
TABLE
  2
BLOCK_RECORD
  5
1
100
AcDbSymbolTable
 70
             9
  0
BLOCK_RECORD
  5
A
100
AcDbSymbolTableRecord
100
AcDbBlockTableRecord
  2
*MODEL_SPACE
  0
BLOCK_RECORD
  5
B
100
AcDbSymbolTableRecord
100
AcDbBlockTableRecord
  2
*PAPER_SPACE
  0
BLOCK_RECORD
  5
2E
100
AcDbSymbolTableRecord
100
AcDbBlockTableRecord
  2
HL_715_2_R_CKSTAUVERSCS__1
  0
BLOCK_RECORD
  5
30
100
AcDbSymbolTableRecord
100
AcDbBlockTableRecord
  2
HL_715_2_R_CKSTAUVERSCS__2
  0
BLOCK_RECORD
  5
375
100
AcDbSymbolTableRecord
100
AcDbBlockTableRecord
  2
*D2
  0
BLOCK_RECORD
  5
381
100
AcDbSymbolTableRecord
100
AcDbBlockTableRecord
  2
*D3
  0
BLOCK_RECORD
  5
38C
100
AcDbSymbolTableRecord
100
AcDbBlockTableRecord
  2
*D4
  0
BLOCK_RECORD
  5
397
100
AcDbSymbolTableRecord
100
AcDbBlockTableRecord
  2
*D5
  0
BLOCK_RECORD
  5
3A4
100
AcDbSymbolTableRecord
100
AcDbBlockTableRecord
  2
*D6
  0
BLOCK_RECORD
  5
3AF
100
AcDbSymbolTableRecord
100
AcDbBlockTableRecord
  2
*D7
  0
BLOCK_RECORD
  5
3BA
100
AcDbSymbolTableRecord
100
AcDbBlockTableRecord
  2
*D8
  0
ENDTAB
  0
ENDSEC
  0
SECTION
  2
BLOCKS
  0
BLOCK
  5
D
100
AcDbEntity
  8
0
100
AcDbBlockBegin
  2
*MODEL_SPACE
 70
             0
 10
0.0
 20
0.0
 30
0.0
  3
*MODEL_SPACE
  1

  0
ENDBLK
  5
E
100
AcDbEntity
  8
0
100
AcDbBlockEnd
  0
BLOCK
  5
F
100
AcDbEntity
 67
             1
  8
0
100
AcDbBlockBegin
  2
*PAPER_SPACE
 70
             0
 10
0.0
 20
0.0
 30
0.0
  3
*PAPER_SPACE
  1

  0
ENDBLK
  5
10
100
AcDbEntity
 67
             1
  8
0
100
AcDbBlockEnd
  0
BLOCK
  5
2F
100
AcDbEntity
  8
0
100
AcDbBlockBegin
  2
HL_715_2_R_CKSTAUVERSCS__1
 70
             0
 10
1691.96028698071
 20
2494.9778657681259
 30
0.0
  3
HL_715_2_R_CKSTAUVERSCS__1
  1

  0
CIRCLE
  5
178
100
AcDbEntity
  8
LC-007-002-----0
  6
CONTINUOUS
 62
             5
100
AcDbCircle
 10
968.08947965452171
 20
-94.96575899999971
 40
6.5
  0
CIRCLE
  5
177
100
AcDbEntity
  8
LC-007-002-----0
  6
CONTINUOUS
 62
             5
100
AcDbCircle
 10
794.58947965452171
 20
-94.96575899999971
 40
6.5
  0
CIRCLE
  5
176
100
AcDbEntity
  8
LC-007-002-----0
  6
CONTINUOUS
 62
             5
100
AcDbCircle
 10
994.83947965452171
 20
72.49547799999982
 40
6.50000000000034
  0
CIRCLE
  5
175
100
AcDbEntity
  8
LC-007-002-----0
  6
CONTINUOUS
 62
             5
100
AcDbCircle
 10
767.83947965452171
 20
72.49547799999982
 40
6.5
  0
CIRCLE
  5
174
100
AcDbEntity
  8
LC-007-002-----0
  6
CONTINUOUS
 62
             7
100
AcDbCircle
 10
881.33947965452171
 20
0.26413899999898
 40
80.23586099999739
  0
CIRCLE
  5
173
100
AcDbEntity
  8
LC-007-002-----0
  6
CONTINUOUS
 62
             7
100
AcDbCircle
 10
881.33947965452171
 20
0.26413899999898
 40
78.62816499999826
  0
CIRCLE
  5
172
100
AcDbEntity
  8
LC-007-002-----0
  6
CONTINUOUS
 62
             7
100
AcDbCircle
 10
881.33947965452171
 20
-1.43910600000163
 40
73.66555599999992
  0
CIRCLE
  5
171
100
AcDbEntity
  8
LC-007-002-----0
  6
CONTINUOUS
 62
             7
100
AcDbCircle
 10
881.33947965452171
 20
0.0
 40
93.74869399999807
  0
CIRCLE
  5
170
100
AcDbEntity
  8
LC-007-002-----0
  6
CONTINUOUS
 62
             7
100
AcDbCircle
 10
881.33947965452171
 20
0.0
 40
92.96188999999868
  0
CIRCLE
  5
16F
100
AcDbEntity
  8
LC-007-002-----0
  6
CONTINUOUS
 62
             7
100
AcDbCircle
 10
881.33947965452171
 20
0.0
 40
86.2545629999986
  0
CIRCLE
  5
16E
100
AcDbEntity
  8
LC-007-002-----0
  6
CONTINUOUS
 62
             7
100
AcDbCircle
 10
881.33947965452171
 20
0.0
 40
86.5
  0
CIRCLE
  5
16D
100
AcDbEntity
  8
LC-007-002-----0
  6
CONTINUOUS
 62
             7
100
AcDbCircle
 10
881.33947965452171
 20
0.0
 40
82.5
  0
ARC
  5
16C
100
AcDbEntity
  8
LC-007-002-----0
  6
CONTINUOUS
 62
             7
100
AcDbCircle
 10
881.33947965452171
 20
-12.78397300000233
 40
97.80169299999747
100
AcDbArc
 50
-105.63730299999925
 51
-74.3626969999987
  0
ARC
  5
16B
100
AcDbEntity
  8
LC-007-002-----0
  6
CONTINUOUS
 62
             7
100
AcDbCircle
 10
764.58937765451969
 20
57.11568103278044
 40
69.58178065746411
100
AcDbArc
 50
97.63934902198082
 51
106.12534402198092
  0
ARC
  5
16A
100
AcDbEntity
  8
LC-007-002-----0
  6
CONTINUOUS
 62
             7
100
AcDbCircle
 10
745.83937765451992
 20
122.1559219999972
 40
2.00000000000072
100
AcDbArc
 50
106.72680099995014
 51
180.0
  0
ARC
  5
169
100
AcDbEntity
  8
LC-007-002-----0
  6
CONTINUOUS
 62
             7
100
AcDbCircle
 10
745.83937765451992
 20
120.0954589999992
 40
2.0
100
AcDbArc
 50
180.0
 51
-106.72680099995014
  0
ARC
  5
168
100
AcDbEntity
  8
LC-007-002-----0
  6
CONTINUOUS
 62
             7
100
AcDbCircle
 10
764.58937765451981
 20
185.16001566313469
 40
69.71219980816818
100
AcDbArc
 50
-106.09435620151294
 51
-97.93585020151231
  0
ARC
  5
167
100
AcDbEntity
  8
LC-007-002-----0
  6
CONTINUOUS
 62
             7
100
AcDbCircle
 10
753.08937765452026
 20
81.34293457318888
 40
43.18117088121019
100
AcDbArc
 50
87.01319069780674
 51
100.1491076978087
  0
ARC
  5
166
100
AcDbEntity
  8
LC-007-002-----0
  6
CONTINUOUS
 62
             7
100
AcDbCircle
 10
745.83937765451992
 20
121.99234299999721
 40
1.99999999999995
100
AcDbArc
 50
100.33987199996508
 51
180.0
  0
ARC
  5
165
100
AcDbEntity
  8
LC-007-002-----0
  6
CONTINUOUS
 62
             7
100
AcDbCircle
 10
753.08937765452004
 20
160.7630504601936
 40
43.25743410088775
100
AcDbArc
 50
-100.13102572507623
 51
-87.44390072508016
  0
ARC
  5
164
100
AcDbEntity
  8
LC-007-002-----0
  6
CONTINUOUS
 62
             7
100
AcDbCircle
 10
745.83937765451992
 20
120.25903799999919
 40
2.0
100
AcDbArc
 50
180.0
 51
-100.34004299999239
  0
ARC
  5
163
100
AcDbEntity
  8
LC-007-002-----0
  6
CONTINUOUS
 62
             7
100
AcDbCircle
 10
745.83937765451992
 20
122.1559219999972
 40
2.00000000000032
100
AcDbArc
 50
106.72678199997607
 51
180.0
  0
ARC
  5
162
100
AcDbEntity
  8
LC-007-002-----0
  6
CONTINUOUS
 62
             7
100
AcDbCircle
 10
745.83937765451992
 20
120.0954589999992
 40
2.0
100
AcDbArc
 50
180.0
 51
-106.72695299996323
  0
ARC
  5
161
100
AcDbEntity
  8
LC-007-002-----0
  6
CONTINUOUS
 62
             7
100
AcDbCircle
 10
764.58937765451969
 20
57.22710760785413
 40
69.58178816269236
100
AcDbArc
 50
97.63934819306785
 51
106.125324193068
  0
ARC
  5
160
100
AcDbEntity
  8
LC-007-002-----0
  6
CONTINUOUS
 62
             7
100
AcDbCircle
 10
764.58937765451958
 20
185.04851598552841
 40
69.71213490563706
100
AcDbArc
 50
-106.09451563746117
 51
-97.93585763746098
  0
ARC
  5
15F
100
AcDbEntity
  8
LC-007-002-----0
  6
CONTINUOUS
 62
             7
100
AcDbCircle
 10
1016.83958065452
 20
122.1559219999972
 40
2.0
100
AcDbArc
 50
0.0
 51
73.27319899986271
  0
ARC
  5
15E
100
AcDbEntity
  8
LC-007-002-----0
  6
CONTINUOUS
 62
             7
100
AcDbCircle
 10
1016.83958065452
 20
120.0954589999992
 40
2.00000000000268
100
AcDbArc
 50
-73.27319899986271
 51
0.0
  0
ARC
  5
15D
100
AcDbEntity
  8
LC-007-002-----0
  6
CONTINUOUS
 62
             7
100
AcDbCircle
 10
1009.589580654519
 20
81.45436872070113
 40
43.18117088121249
100
AcDbArc
 50
79.85089230218098
 51
92.98680930218852
  0
ARC
  5
15C
100
AcDbEntity
  8
LC-007-002-----0
  6
CONTINUOUS
 62
             7
100
AcDbCircle
 10
1016.83958065452
 20
121.99234299999721
 40
2.0
100
AcDbArc
 50
0.0
 51
79.66012800003813
  0
ARC
  5
15B
100
AcDbEntity
  8
LC-007-002-----0
  6
CONTINUOUS
 62
             7
100
AcDbCircle
 10
1009.589580654519
 20
160.87448460770409
 40
43.25743410088634
100
AcDbArc
 50
-92.55609927490967
 51
-79.86897427490847
  0
ARC
  5
15A
100
AcDbEntity
  8
LC-007-002-----0
  6
CONTINUOUS
 62
             7
100
AcDbCircle
 10
1016.83958065452
 20
120.25903799999919
 40
2.00000000000025
100
AcDbArc
 50
-79.65995700003005
 51
0.0
  0
ARC
  5
159
100
AcDbEntity
  8
LC-007-002-----0
  6
CONTINUOUS
 62
             7
100
AcDbCircle
 10
1016.83958065452
 20
122.1559219999972
 40
2.0
100
AcDbArc
 50
0.0
 51
73.27321800003017
  0
ARC
  5
158
100
AcDbEntity
  8
LC-007-002-----0
  6
CONTINUOUS
 62
             7
100
AcDbCircle
 10
1016.83958065452
 20
120.0954589999992
 40
2.0000000000009
100
AcDbArc
 50
-73.27304699984028
 51
0.0
  0
ARC
  5
157
100
AcDbEntity
  8
LC-007-002-----0
  6
CONTINUOUS
 62
             7
100
AcDbCircle
 10
998.08958065451941
 20
57.22710760785549
 40
69.5817881626914
100
AcDbArc
 50
73.87467580692838
 51
82.36065180693193
  0
ARC
  5
156
100
AcDbEntity
  8
LC-007-002-----0
  6
CONTINUOUS
 62
             7
100
AcDbCircle
 10
1007.3400166545219
 20
83.87579099999766
 40
0.5
100
AcDbArc
 50
-90.0
 51
0.0
  0
ARC
  5
155
100
AcDbEntity
  8
LC-007-002-----0
  6
CONTINUOUS
 62
             7
100
AcDbCircle
 10
755.34001665452161
 20
83.87579099999766
 40
0.5
100
AcDbArc
 50
180.0
 51
-90.0
  0
ARC
  5
154
100
AcDbEntity
  8
LC-007-002-----0
  6
CONTINUOUS
 62
             7
100
AcDbCircle
 10
881.33947965452171
 20
0.26314999999886
 40
97.8016930000006
100
AcDbArc
 50
-177.39502645977495
 51
-2.80792713827006
  0
ARC
  5
153
100
AcDbEntity
  8
LC-007-002-----0
  6
CONTINUOUS
 62
             7
100
AcDbCircle
 10
881.33947965452171
 20
-10.03909600000043
 40
76.10000100000012
100
AcDbArc
 50
19.73511100000175
 51
160.26488899999919
  0
ARC
  5
152
100
AcDbEntity
  8
LC-007-002-----0
  6
CONTINUOUS
 62
             7
100
AcDbCircle
 10
794.58947965452171
 20
-94.96575899999971
 40
11.99999999999877
100
AcDbArc
 50
-178.08640099999238
 51
-90.0
  0
ARC
  5
151
100
AcDbEntity
  8
LC-007-002-----0
  6
CONTINUOUS
 62
             7
100
AcDbCircle
 10
968.08947965452171
 20
-94.96575899999971
 40
11.99999999999999
100
AcDbArc
 50
-90.0
 51
-1.91359900000764
  0
ARC
  5
150
100
AcDbEntity
  8
LC-007-002-----0
  6
CONTINUOUS
 62
             7
100
AcDbCircle
 10
994.83947965452171
 20
72.49547799999982
 40
10.5000000000051
100
AcDbArc
 50
-14.9999999999973
 51
90.0
  0
ARC
  5
14F
100
AcDbEntity
  8
LC-007-002-----0
  6
CONTINUOUS
 62
             7
100
AcDbCircle
 10
767.83947965452171
 20
72.49547799999982
 40
10.5
100
AcDbArc
 50
90.0
 51
-164.99999999999724
  0
ARC
  5
14E
100
AcDbEntity
  8
LC-006-002-RND-0
  6
CONTINUOUS
 62
             7
100
AcDbCircle
 10
1007.3394796545221
 20
95.39972399999806
 40
0.5
100
AcDbArc
 50
-90.0
 51
0.0
  0
ARC
  5
14D
100
AcDbEntity
  8
LC-006-002-RND-0
  6
CONTINUOUS
 62
             7
100
AcDbCircle
 10
755.33947965452171
 20
95.39972399999806
 40
0.5
100
AcDbArc
 50
180.0
 51
-90.0
  0
ARC
  5
14C
100
AcDbEntity
  8
LC-006-002-RND-0
  6
CONTINUOUS
 62
             7
100
AcDbCircle
 10
920.88823265452083
 20
227.900654
 40
2.00000000000057
100
AcDbArc
 50
-142.72420900001808
 51
-90.0
  0
ARC
  5
14B
100
AcDbEntity
  8
LC-006-002-RND-0
  6
CONTINUOUS
 62
             7
100
AcDbCircle
 10
901.79072565452225
 20
227.900654
 40
2.0
100
AcDbArc
 50
-90.0
 51
-37.27579100004506
  0
ARC
  5
14A
100
AcDbEntity
  8
LC-006-002-RND-0
  6
CONTINUOUS
 62
             7
100
AcDbCircle
 10
841.79072565452225
 20
227.900654
 40
2.0
100
AcDbArc
 50
-90.0
 51
-37.27579100004506
  0
ARC
  5
149
100
AcDbEntity
  8
LC-006-002-RND-0
  6
CONTINUOUS
 62
             7
100
AcDbCircle
 10
900.88823265452083
 20
227.900654
 40
2.00000000000057
100
AcDbArc
 50
-142.72420900001808
 51
-90.0
  0
ARC
  5
148
100
AcDbEntity
  8
LC-006-002-RND-0
  6
CONTINUOUS
 62
             7
100
AcDbCircle
 10
881.79072565452225
 20
227.900654
 40
2.0
100
AcDbArc
 50
-90.0
 51
-37.27579100004506
  0
ARC
  5
147
100
AcDbEntity
  8
LC-006-002-RND-0
  6
CONTINUOUS
 62
             7
100
AcDbCircle
 10
880.88823265452083
 20
227.900654
 40
2.00000000000057
100
AcDbArc
 50
-142.72420900001808
 51
-90.0
  0
ARC
  5
146
100
AcDbEntity
  8
LC-006-002-RND-0
  6
CONTINUOUS
 62
             7
100
AcDbCircle
 10
861.79072565452225
 20
227.900654
 40
2.0
100
AcDbArc
 50
-90.0
 51
-37.27579100004506
  0
ARC
  5
145
100
AcDbEntity
  8
LC-006-002-RND-0
  6
CONTINUOUS
 62
             7
100
AcDbCircle
 10
860.88823265452083
 20
227.900654
 40
2.00000000000057
100
AcDbArc
 50
-142.72420900001808
 51
-90.0
  0
ARC
  5
144
100
AcDbEntity
  8
LC-006-002-RND-0
  6
CONTINUOUS
 62
             7
100
AcDbCircle
 10
923.33947965452171
 20
208.900654
 40
2.0
100
AcDbArc
 50
180.0
 51
-90.0
  0
ARC
  5
143
100
AcDbEntity
  8
LC-006-002-RND-0
  6
CONTINUOUS
 62
             7
100
AcDbCircle
 10
839.33947965452171
 20
208.900654
 40
2.0
100
AcDbArc
 50
-90.0
 51
0.0
  0
ARC
  5
142
100
AcDbEntity
  8
LC-006-002-RND-0
  6
CONTINUOUS
 62
             7
100
AcDbCircle
 10
929.33947965452171
 20
242.400654
 40
2.0
100
AcDbArc
 50
0.0
 51
90.0
  0
ARC
  5
141
100
AcDbEntity
  8
LC-007-002-----0
  6
CONTINUOUS
 62
             7
100
AcDbCircle
 10
833.33947965452171
 20
242.400654
 40
2.0
100
AcDbArc
 50
90.0
 51
180.0
  0
ARC
  5
140
100
AcDbEntity
  8
LC-007-002-----0
  6
CONTINUOUS
 62
             7
100
AcDbCircle
 10
871.33947965452171
 20
220.63282700000039
 40
10.00000000000011
100
AcDbArc
 50
37.27579099999574
 51
142.72420900000427
  0
ARC
  5
13F
100
AcDbEntity
  8
LC-007-002-----0
  6
CONTINUOUS
 62
             7
100
AcDbCircle
 10
911.33947965452171
 20
220.63282700000039
 40
10.00000000000011
100
AcDbArc
 50
37.27579099999574
 51
142.72420900000427
  0
ARC
  5
13E
100
AcDbEntity
  8
LC-007-002-----0
  6
CONTINUOUS
 62
             7
100
AcDbCircle
 10
891.33947965452171
 20
220.63282700000039
 40
10.00000000000011
100
AcDbArc
 50
37.27579099999574
 51
142.72420900000427
  0
ARC
  5
13D
100
AcDbEntity
  8
LC-007-002-----0
  6
CONTINUOUS
 62
             7
100
AcDbCircle
 10
851.33947965452171
 20
220.63282700000039
 40
10.00000000000011
100
AcDbArc
 50
37.27579099999574
 51
142.72420900000427
  0
ARC
  5
13C
100
AcDbEntity
  8
LC-007-002-----0
  6
CONTINUOUS
 62
             7
100
AcDbCircle
 10
997.58958065451986
 20
201.6093093499907
 40
69.58185225538391
100
AcDbArc
 50
-106.12532697698369
 51
-97.63951897698716
  0
ARC
  5
13B
100
AcDbEntity
  8
LC-007-002-----0
  6
CONTINUOUS
 62
             7
100
AcDbCircle
 10
978.83958065451952
 20
136.68042900007941
 40
2.0
100
AcDbArc
 50
180.0
 51
-106.72680100004995
  0
ARC
  5
13A
100
AcDbEntity
  8
LC-007-002-----0
  6
CONTINUOUS
 62
             7
100
AcDbCircle
 10
978.83958065451952
 20
138.740892000081
 40
1.99999999999822
100
AcDbArc
 50
106.72680100008041
 51
180.0
  0
ARC
  5
139
100
AcDbEntity
  8
LC-007-002-----0
  6
CONTINUOUS
 62
             7
100
AcDbCircle
 10
997.83958065451952
 20
75.51805512947657
 40
68.0161121222483
100
AcDbArc
 50
73.27319899999574
 51
106.72680100000409
  0
ARC
  5
138
100
AcDbEntity
  8
LC-007-002-----0
  6
CONTINUOUS
 62
             7
100
AcDbCircle
 10
1016.83958065452
 20
138.740892000081
 40
2.0
100
AcDbArc
 50
0.0
 51
73.27319899983226
  0
ARC
  5
137
100
AcDbEntity
  8
LC-007-002-----0
  6
CONTINUOUS
 62
             7
100
AcDbCircle
 10
1016.83958065452
 20
136.68042900007941
 40
2.00000000000268
100
AcDbArc
 50
-73.27319899986271
 51
0.0
  0
ARC
  5
136
100
AcDbEntity
  8
LC-007-002-----0
  6
CONTINUOUS
 62
             7
100
AcDbCircle
 10
998.08958065451918
 20
201.60923481978679
 40
69.58178065746289
100
AcDbArc
 50
-82.36065097801877
 51
-73.8746559780153
  0
ARC
  5
135
100
AcDbEntity
  8
LC-007-002-----0
  6
CONTINUOUS
 62
             7
100
AcDbCircle
 10
1002.33958065452
 20
136.84400800007941
 40
2.0
100
AcDbArc
 50
180.0
 51
-100.33994899991701
  0
ARC
  5
134
100
AcDbEntity
  8
LC-007-002-----0
  6
CONTINUOUS
 62
             7
100
AcDbCircle
 10
1009.58958065452
 20
98.84042243635837
 40
42.39285712872322
100
AcDbArc
 50
79.66010899998965
 51
100.33989100000643
  0
ARC
  5
133
100
AcDbEntity
  8
LC-007-002-----0
  6
CONTINUOUS
 62
             7
100
AcDbCircle
 10
1016.83958065452
 20
138.57731200008061
 40
2.0
100
AcDbArc
 50
0.0
 51
79.66012800001964
  0
ARC
  5
132
100
AcDbEntity
  8
LC-007-002-----0
  6
CONTINUOUS
 62
             7
100
AcDbCircle
 10
1009.58958065452
 20
176.58089363602099
 40
42.39285326472896
100
AcDbArc
 50
-100.33994804717805
 51
-79.66010804717011
  0
ARC
  5
131
100
AcDbEntity
  8
LC-007-002-----0
  6
CONTINUOUS
 62
             7
100
AcDbCircle
 10
1016.83958065452
 20
136.84400800007941
 40
2.00000000000026
100
AcDbArc
 50
-79.65995700003012
 51
0.0
  0
ARC
  5
130
100
AcDbEntity
  8
LC-007-002-----0
  6
CONTINUOUS
 62
             7
100
AcDbCircle
 10
1016.83958065452
 20
138.740892000081
 40
2.0
100
AcDbArc
 50
0.0
 51
73.27321800003006
  0
ARC
  5
12F
100
AcDbEntity
  8
LC-007-002-----0
  6
CONTINUOUS
 62
             7
100
AcDbCircle
 10
1016.83958065452
 20
136.68042900007941
 40
2.00000000000093
100
AcDbArc
 50
-73.27304699984052
 51
0.0
  0
ARC
  5
12E
100
AcDbEntity
  8
LC-007-002-----0
  6
CONTINUOUS
 62
             7
100
AcDbCircle
 10
986.08938765451967
 20
98.84058714966379
 40
42.39285839452278
100
AcDbArc
 50
79.66016347219671
 51
100.33992647220043
  0
ARC
  5
12D
100
AcDbEntity
  8
LC-007-002-----0
  6
CONTINUOUS
 62
             7
100
AcDbCircle
 10
993.33936265452212
 20
138.57748300008029
 40
2.00000000000042
100
AcDbArc
 50
0.00003700001854
 51
79.66016500007309
  0
ARC
  5
12C
100
AcDbEntity
  8
LC-007-002-----0
  6
CONTINUOUS
 62
             7
100
AcDbCircle
 10
993.33936365452246
 20
136.84417900007909
 40
1.99999999999949
100
AcDbArc
 50
-79.65999500015877
 51
0.00003700001854
  0
ARC
  5
12B
100
AcDbEntity
  8
LC-007-002-----0
  6
CONTINUOUS
 62
             7
100
AcDbCircle
 10
986.08933865452138
 20
176.58105333807109
 40
42.392847069054
100
AcDbArc
 50
-100.33985672912597
 51
-79.65992372912999
  0
ARC
  5
12A
100
AcDbEntity
  8
LC-007-002-----0
  6
CONTINUOUS
 62
             7
100
AcDbCircle
 10
978.83936265452212
 20
138.57747400008091
 40
1.9999999999983
100
AcDbArc
 50
100.34000299989511
 51
-179.99996299998065
  0
ARC
  5
129
100
AcDbEntity
  8
LC-007-002-----0
  6
CONTINUOUS
 62
             7
100
AcDbCircle
 10
997.83958065451941
 20
75.5180541286383
 40
68.01611308073879
100
AcDbArc
 50
73.27321775734666
 51
106.72680075735506
  0
ARC
  5
128
100
AcDbEntity
  8
LC-007-002-----0
  6
CONTINUOUS
 62
             7
100
AcDbCircle
 10
978.83958065451952
 20
138.740892000081
 40
1.99999999999822
100
AcDbArc
 50
106.72680100008041
 51
180.0
  0
ARC
  5
127
100
AcDbEntity
  8
LC-007-002-----0
  6
CONTINUOUS
 62
             7
100
AcDbCircle
 10
978.83936365452246
 20
136.84417000007971
 40
2.00000000000042
100
AcDbArc
 50
-179.99996299997821
 51
-100.33991200006177
  0
ARC
  5
126
100
AcDbEntity
  8
LC-007-002-----0
  6
CONTINUOUS
 62
             7
100
AcDbCircle
 10
997.83958065451941
 20
199.90325686401761
 40
68.01610445436096
100
AcDbArc
 50
-106.72680294117612
 51
-73.27304894117974
  0
ARC
  5
125
100
AcDbEntity
  8
LC-007-002-----0
  6
CONTINUOUS
 62
             7
100
AcDbCircle
 10
978.83958065451952
 20
136.68042900007941
 40
2.0
100
AcDbArc
 50
180.0
 51
-106.72685999988768
  0
ARC
  5
124
100
AcDbEntity
  8
LC-007-002-----0
  6
CONTINUOUS
 62
             7
100
AcDbCircle
 10
1002.33958065452
 20
138.57731200008061
 40
1.9999999999988
100
AcDbArc
 50
100.3398910000404
 51
180.0
  0
ARC
  5
123
100
AcDbEntity
  8
LC-007-002-----0
  6
CONTINUOUS
 62
             7
100
AcDbCircle
 10
999.33958065451952
 20
139.21066000008
 40
1.00000000000397
100
AcDbArc
 50
0.00015199984692
 51
90.0
  0
ARC
  5
122
100
AcDbEntity
  8
LC-007-002-----0
  6
CONTINUOUS
 62
             7
100
AcDbCircle
 10
996.33958065451952
 20
139.21066000008
 40
1.0
100
AcDbArc
 50
90.0
 51
180.0
  0
ARC
  5
121
100
AcDbEntity
  8
LC-007-002-----0
  6
CONTINUOUS
 62
             7
100
AcDbCircle
 10
996.33958065451952
 20
136.21066000008
 40
1.0
100
AcDbArc
 50
180.0
 51
-90.00005799991205
  0
ARC
  5
120
100
AcDbEntity
  8
LC-007-002-----0
  6
CONTINUOUS
 62
             7
100
AcDbCircle
 10
999.33958065451952
 20
136.21066000008
 40
1.00000000000051
100
AcDbArc
 50
-90.00005799991205
 51
0.0
  0
ARC
  5
11F
100
AcDbEntity
  8
LC-007-002-----0
  6
CONTINUOUS
 62
             7
100
AcDbCircle
 10
765.08937765452026
 20
201.60930934998919
 40
69.58185225538213
100
AcDbArc
 50
-82.36048102301027
 51
-73.87467302300985
  0
ARC
  5
11E
100
AcDbEntity
  8
LC-007-002-----0
  6
CONTINUOUS
 62
             7
100
AcDbCircle
 10
783.83937765451992
 20
136.68042900007941
 40
2.00000000000176
100
AcDbArc
 50
-73.27319899995005
 51
0.0
  0
ARC
  5
11D
100
AcDbEntity
  8
LC-007-002-----0
  6
CONTINUOUS
 62
             7
100
AcDbCircle
 10
783.83937765451992
 20
138.740892000081
 40
2.0
100
AcDbArc
 50
0.0
 51
73.2731989999196
  0
ARC
  5
11C
100
AcDbEntity
  8
LC-007-002-----0
  6
CONTINUOUS
 62
             7
100
AcDbCircle
 10
764.83937765451992
 20
75.51805512947622
 40
68.01611212224751
100
AcDbArc
 50
73.27319899999894
 51
106.72680100000107
  0
ARC
  5
11B
100
AcDbEntity
  8
LC-007-002-----0
  6
CONTINUOUS
 62
             7
100
AcDbCircle
 10
745.83937765451992
 20
138.740892000081
 40
1.99999999999718
100
AcDbArc
 50
106.72680099998061
 51
180.0
  0
ARC
  5
11A
100
AcDbEntity
  8
LC-007-002-----0
  6
CONTINUOUS
 62
             7
100
AcDbCircle
 10
745.83937765451992
 20
136.68042900007941
 40
2.0
100
AcDbArc
 50
180.0
 51
-106.72680099995014
  0
ARC
  5
119
100
AcDbEntity
  8
LC-007-002-----0
  6
CONTINUOUS
 62
             7
100
AcDbCircle
 10
764.58937765452083
 20
201.6092348197885
 40
69.58178065746675
100
AcDbArc
 50
-106.12534402197801
 51
-97.63934902197873
  0
ARC
  5
118
100
AcDbEntity
  8
LC-007-002-----0
  6
CONTINUOUS
 62
             7
100
AcDbCircle
 10
760.33937765451992
 20
136.84400800007941
 40
1.99999999999938
100
AcDbArc
 50
-79.66005099998368
 51
0.0
  0
ARC
  5
117
100
AcDbEntity
  8
LC-007-002-----0
  6
CONTINUOUS
 62
             7
100
AcDbCircle
 10
753.08937765451992
 20
98.84042243635732
 40
42.39285712872299
100
AcDbArc
 50
79.66010899999927
 51
100.33989100000073
  0
ARC
  5
116
100
AcDbEntity
  8
LC-007-002-----0
  6
CONTINUOUS
 62
             7
100
AcDbCircle
 10
745.83937765451992
 20
138.57731200008061
 40
1.99999999999641
100
AcDbArc
 50
100.33987199998357
 51
180.0
  0
ARC
  5
115
100
AcDbEntity
  8
LC-007-002-----0
  6
CONTINUOUS
 62
             7
100
AcDbCircle
 10
753.08937765451969
 20
176.58089363602161
 40
42.39285326472714
100
AcDbArc
 50
-100.33989195281524
 51
-79.66005195281713
  0
ARC
  5
114
100
AcDbEntity
  8
LC-007-002-----0
  6
CONTINUOUS
 62
             7
100
AcDbCircle
 10
745.83937765451992
 20
136.84400800007941
 40
2.0
100
AcDbArc
 50
180.0
 51
-100.34004299999231
  0
ARC
  5
113
100
AcDbEntity
  8
LC-007-002-----0
  6
CONTINUOUS
 62
             7
100
AcDbCircle
 10
745.83937765451992
 20
138.740892000081
 40
2.00000000000031
100
AcDbArc
 50
106.72678199997618
 51
180.0
  0
ARC
  5
112
100
AcDbEntity
  8
LC-007-002-----0
  6
CONTINUOUS
 62
             7
100
AcDbCircle
 10
745.83937765451992
 20
136.68042900007941
 40
2.0
100
AcDbArc
 50
180.0
 51
-106.72695299996299
  0
ARC
  5
111
100
AcDbEntity
  8
LC-007-002-----0
  6
CONTINUOUS
 62
             7
100
AcDbCircle
 10
776.58957065451989
 20
98.84058714966345
 40
42.39285839452278
100
AcDbArc
 50
79.66007352780464
 51
100.33983652780336
  0
ARC
  5
110
100
AcDbEntity
  8
LC-007-002-----0
  6
CONTINUOUS
 62
             7
100
AcDbCircle
 10
769.33959565452096
 20
138.57748300008029
 40
1.99999999999764
100
AcDbArc
 50
100.33983500002945
 51
179.99996299998145
  0
ARC
  5
10F
100
AcDbEntity
  8
LC-007-002-----0
  6
CONTINUOUS
 62
             7
100
AcDbCircle
 10
769.33959465452062
 20
136.84417900007909
 40
2.00000000000042
100
AcDbArc
 50
179.99996299998145
 51
-100.34000500004629
  0
ARC
  5
10E
100
AcDbEntity
  8
LC-007-002-----0
  6
CONTINUOUS
 62
             7
100
AcDbCircle
 10
776.58961965452204
 20
176.5810533380708
 40
42.39284706905433
100
AcDbArc
 50
-100.34007627088022
 51
-79.6601432708791
  0
ARC
  5
10D
100
AcDbEntity
  8
LC-007-002-----0
  6
CONTINUOUS
 62
             7
100
AcDbCircle
 10
783.83959565452096
 20
138.57747400008091
 40
2.00000000000042
100
AcDbArc
 50
-0.00003700001936
 51
79.65999700000236
  0
ARC
  5
10C
100
AcDbEntity
  8
LC-007-002-----0
  6
CONTINUOUS
 62
             7
100
AcDbCircle
 10
764.83937765451969
 20
75.51805412863791
 40
68.01611308073839
100
AcDbArc
 50
73.27319924264769
 51
106.72678224264986
  0
ARC
  5
10B
100
AcDbEntity
  8
LC-007-002-----0
  6
CONTINUOUS
 62
             7
100
AcDbCircle
 10
783.83937765451992
 20
138.740892000081
 40
2.0
100
AcDbArc
 50
0.0
 51
73.2731989999196
  0
ARC
  5
10A
100
AcDbEntity
  8
LC-007-002-----0
  6
CONTINUOUS
 62
             7
100
AcDbCircle
 10
783.83959465452062
 20
136.84417000007971
 40
1.99999999999896
100
AcDbArc
 50
-79.66008799993823
 51
-0.0000370000218
  0
ARC
  5
109
100
AcDbEntity
  8
LC-007-002-----0
  6
CONTINUOUS
 62
             7
100
AcDbCircle
 10
764.83937765452004
 20
199.90325686401749
 40
68.0161044543613
100
AcDbArc
 50
-106.72695105881479
 51
-73.27319705881702
  0
ARC
  5
108
100
AcDbEntity
  8
LC-007-002-----0
  6
CONTINUOUS
 62
             7
100
AcDbCircle
 10
783.83937765451992
 20
136.68042900007941
 40
2.00000000000097
100
AcDbArc
 50
-73.27314000001253
 51
0.0
  0
ARC
  5
107
100
AcDbEntity
  8
LC-007-002-----0
  6
CONTINUOUS
 62
             7
100
AcDbCircle
 10
760.33937765451992
 20
138.57731200008061
 40
2.0
100
AcDbArc
 50
0.0
 51
79.6601089999596
  0
ARC
  5
106
100
AcDbEntity
  8
LC-007-002-----0
  6
CONTINUOUS
 62
             7
100
AcDbCircle
 10
763.33937765451992
 20
139.21066000008
 40
1.0
100
AcDbArc
 50
90.0
 51
179.99984800015309
  0
ARC
  5
105
100
AcDbEntity
  8
LC-007-002-----0
  6
CONTINUOUS
 62
             7
100
AcDbCircle
 10
766.33937765451992
 20
139.21066000008
 40
1.0
100
AcDbArc
 50
0.0
 51
90.0
  0
ARC
  5
104
100
AcDbEntity
  8
LC-007-002-----0
  6
CONTINUOUS
 62
             7
100
AcDbCircle
 10
766.33937765451992
 20
136.21066000008
 40
1.00000000000051
100
AcDbArc
 50
-89.99994199987953
 51
0.0
  0
ARC
  5
103
100
AcDbEntity
  8
LC-007-002-----0
  6
CONTINUOUS
 62
             7
100
AcDbCircle
 10
763.33937765451992
 20
136.21066000008
 40
1.0
100
AcDbArc
 50
180.0
 51
-89.99994199987953
  0
ARC
  5
102
100
AcDbEntity
  8
LC-006-002-RND-0
  6
CONTINUOUS
 62
             7
100
AcDbCircle
 10
917.33947965452171
 20
225.400654
 40
0.5
100
AcDbArc
 50
90.0
 51
180.0
  0
ARC
  5
101
100
AcDbEntity
  8
LC-007-002-----0
  6
CONTINUOUS
 62
             7
100
AcDbCircle
 10
893.67282765452183
 20
176.43626499999939
 40
2.00000000000163
100
AcDbArc
 50
-147.61065300000681
 51
-32.38934700004904
  0
ARC
  5
100
100
AcDbEntity
  8
LC-007-002-----0
  6
CONTINUOUS
 62
             7
100
AcDbCircle
 10
881.33949465451951
 20
168.61250999999811
 40
15.10000000000154
100
AcDbArc
 50
35.23654700000284
 51
144.76345299999716
  0
ARC
  5
FF
100
AcDbEntity
  8
LC-007-002-----0
  6
CONTINUOUS
 62
             7
100
AcDbCircle
 10
856.67282765452183
 20
168.61250999999811
 40
15.10000000000154
100
AcDbArc
 50
35.23654700000284
 51
127.64491399999834
  0
ARC
  5
FE
100
AcDbEntity
  8
LC-007-002-----0
  6
CONTINUOUS
 62
             7
100
AcDbCircle
 10
846.83949465451951
 20
181.3606690000006
 40
1.0
100
AcDbArc
 50
180.0
 51
-52.35508600006832
  0
ARC
  5
FD
100
AcDbEntity
  8
LC-007-002-----0
  6
CONTINUOUS
 62
             7
100
AcDbCircle
 10
906.0061606545205
 20
168.61250999999811
 40
15.10000000000085
100
AcDbArc
 50
52.35508600000166
 51
144.76345299999716
  0
ARC
  5
FC
100
AcDbEntity
  8
LC-007-002-----0
  6
CONTINUOUS
 62
             7
100
AcDbCircle
 10
845.33949465451951
 20
225.40066899999781
 40
0.5
100
AcDbArc
 50
0.0
 51
90.0
  0
ARC
  5
FB
100
AcDbEntity
  8
LC-007-002-----0
  6
CONTINUOUS
 62
             7
100
AcDbCircle
 10
869.0061606545205
 20
176.43626499999939
 40
1.99999999999856
100
AcDbArc
 50
-147.61065299995096
 51
-32.38934699999321
  0
ARC
  5
FA
100
AcDbEntity
  8
LC-007-002-----0
  6
CONTINUOUS
 62
             7
100
AcDbCircle
 10
856.67282765452183
 20
168.61250999999811
 40
12.60555600000039
100
AcDbArc
 50
32.38934700001541
 51
149.25033799999844
  0
ARC
  5
F9
100
AcDbEntity
  8
LC-007-002-----0
  6
CONTINUOUS
 62
             7
100
AcDbCircle
 10
842.73949465452097
 20
225.40066899999781
 40
0.5
100
AcDbArc
 50
90.0
 51
180.0
  0
ARC
  5
F8
100
AcDbEntity
  8
LC-007-002-----0
  6
CONTINUOUS
 62
             7
100
AcDbCircle
 10
915.83949465451951
 20
181.3606690000006
 40
1.00000000000187
100
AcDbArc
 50
-127.64491399976664
 51
0.0
  0
ARC
  5
F7
100
AcDbEntity
  8
LC-007-002-----0
  6
CONTINUOUS
 62
             7
100
AcDbCircle
 10
881.33949465451951
 20
168.61250999999811
 40
12.60555600000346
100
AcDbArc
 50
32.38934700000655
 51
147.61065299999845
  0
ARC
  5
F6
100
AcDbEntity
  8
LC-007-002-----0
  6
CONTINUOUS
 62
             7
100
AcDbCircle
 10
906.0061606545205
 20
168.61250999999811
 40
12.6055560000009
100
AcDbArc
 50
30.74966200000157
 51
147.61065299999845
  0
ARC
  5
F5
100
AcDbEntity
  8
LC-007-002-----0
  6
CONTINUOUS
 62
             7
100
AcDbCircle
 10
919.9394946545217
 20
225.40066899999781
 40
0.5
100
AcDbArc
 50
0.0
 51
90.0
  0
ARC
  5
F4
100
AcDbEntity
  8
LC-006-002-RND-0
  6
CONTINUOUS
 62
             7
100
AcDbCircle
 10
991.58086465451925
 20
117.399343
 40
5.00000000000288
100
AcDbArc
 50
-177.99999999999784
 51
-89.99539099993243
  0
ARC
  5
F3
100
AcDbEntity
  8
LC-006-002-RND-0
  6
CONTINUOUS
 62
             7
100
AcDbCircle
 10
771.09809465452054
 20
117.399343
 40
5.00000000000288
100
AcDbArc
 50
-90.0046089999842
 51
-2.00000000000363
  0
ARC
  5
F2
100
AcDbEntity
  8
LC-006-002-RND-0
  6
CONTINUOUS
 62
             7
100
AcDbCircle
 10
1006.59901765452
 20
111.4005509999979
 40
1.00000000000383
100
AcDbArc
 50
1.99999999999762
 51
90.00460900027863
  0
ARC
  5
F1
100
AcDbEntity
  8
LC-006-002-RND-0
  6
CONTINUOUS
 62
             7
100
AcDbCircle
 10
756.07994065451931
 20
111.4005509999979
 40
1.00000000000127
100
AcDbArc
 50
89.99539099989073
 51
177.99999999999443
  0
ARC
  5
F0
100
AcDbEntity
  8
LC-006-002-RND-0
  6
CONTINUOUS
 62
             7
100
AcDbCircle
 10
788.83972665452166
 20
125.9006289999988
 40
2.0
100
AcDbArc
 50
90.0
 51
180.0
  0
ARC
  5
EF
100
AcDbEntity
  8
LC-006-002-RND-0
  6
CONTINUOUS
 62
             7
100
AcDbCircle
 10
983.07563865452175
 20
117.4006289999988
 40
3.50000000000317
100
AcDbArc
 50
2.00000000003163
 51
90.0
  0
ARC
  5
EE
100
AcDbEntity
  8
LC-006-002-RND-0
  6
CONTINUOUS
 62
             7
100
AcDbCircle
 10
779.60332065452167
 20
117.4006289999988
 40
3.5
100
AcDbArc
 50
90.0
 51
177.99999999996629
  0
ARC
  5
ED
100
AcDbEntity
  8
LC-006-002-RND-0
  6
CONTINUOUS
 62
             7
100
AcDbCircle
 10
973.83923165452143
 20
125.9006289999988
 40
2.0
100
AcDbArc
 50
0.0
 51
90.0
  0
ARC
  5
EC
100
AcDbEntity
  8
LC-006-002-RND-0
  6
CONTINUOUS
 62
             7
100
AcDbCircle
 10
933.83947965452171
 20
132.90062899999879
 40
1.0
100
AcDbArc
 50
0.0
 51
90.0
  0
ARC
  5
EB
100
AcDbEntity
  8
LC-006-002-RND-0
  6
CONTINUOUS
 62
             7
100
AcDbCircle
 10
913.83947965452171
 20
132.90062899999879
 40
1.0
100
AcDbArc
 50
90.0
 51
180.0
  0
ARC
  5
EA
100
AcDbEntity
  8
LC-006-002-RND-0
  6
CONTINUOUS
 62
             7
100
AcDbCircle
 10
848.83947965452171
 20
132.90062899999879
 40
1.0
100
AcDbArc
 50
0.0
 51
90.0
  0
ARC
  5
E9
100
AcDbEntity
  8
LC-006-002-RND-0
  6
CONTINUOUS
 62
             7
100
AcDbCircle
 10
828.83947965452171
 20
132.90062899999879
 40
1.0
100
AcDbArc
 50
90.0
 51
180.0
  0
ARC
  5
E8
100
AcDbEntity
  8
LC-007-002-----0
  6
CONTINUOUS
 62
             7
100
AcDbCircle
 10
998.08958065451918
 20
185.16001566313491
 40
69.71219980816967
100
AcDbArc
 50
-82.06414979848105
 51
-73.90564379848084
  0
LINE
  5
E7
100
AcDbEntity
  8
LC-007-002-----0
  6
CONTINUOUS
 62
             7
100
AcDbLine
 10
743.83937765451992
 20
120.0954589999992
 11
743.83937765451992
 21
122.1559219999972
  0
LINE
  5
E6
100
AcDbEntity
  8
LC-007-002-----0
  6
CONTINUOUS
 62
             7
100
AcDbLine
 10
755.33937765451992
 20
91.37568999999985
 11
755.33937765451992
 21
94.89982599999985
  0
LINE
  5
E5
100
AcDbEntity
  8
LC-007-002-----0
  6
CONTINUOUS
 62
             7
100
AcDbLine
 10
755.33937765451992
 20
91.37568999999985
 11
758.86351265451958
 21
91.37568999999985
  0
LINE
  5
E4
100
AcDbEntity
  8
LC-007-002-----0
  6
CONTINUOUS
 62
             7
100
AcDbLine
 10
755.33937765451992
 20
91.37568999999985
 11
755.33937765451992
 21
94.89982599999985
  0
LINE
  5
E3
100
AcDbEntity
  8
LC-007-002-----0
  6
CONTINUOUS
 62
             7
100
AcDbLine
 10
743.83937765451992
 20
120.0954589999992
 11
743.83937765451992
 21
122.1559219999972
  0
LINE
  5
E2
100
AcDbEntity
  8
LC-007-002-----0
  6
CONTINUOUS
 62
             7
100
AcDbLine
 10
1018.83958065452
 20
120.0954589999992
 11
1018.83958065452
 21
122.1559219999972
  0
LINE
  5
E1
100
AcDbEntity
  8
LC-007-002-----0
  6
CONTINUOUS
 62
             7
100
AcDbLine
 10
1007.33958065452
 20
91.37568999999985
 11
1007.33958065452
 21
94.89982599999985
  0
LINE
  5
E0
100
AcDbEntity
  8
LC-007-002-----0
  6
CONTINUOUS
 62
             7
100
AcDbLine
 10
1007.33958065452
 20
91.37568999999985
 11
1003.81544565452
 21
91.37568999999985
  0
LINE
  5
DF
100
AcDbEntity
  8
LC-007-002-----0
  6
CONTINUOUS
 62
             7
100
AcDbLine
 10
1007.33958065452
 20
91.37568999999985
 11
1007.33958065452
 21
94.89982599999985
  0
LINE
  5
DE
100
AcDbEntity
  8
LC-007-002-----0
  6
CONTINUOUS
 62
             7
100
AcDbLine
 10
1018.83958065452
 20
120.0954589999992
 11
1018.83958065452
 21
122.1559219999972
  0
LINE
  5
DD
100
AcDbEntity
  8
LC-007-002-----0
  6
CONTINUOUS
 62
             7
100
AcDbLine
 10
767.84001665452161
 20
82.99547799999982
 11
780.53455065451999
 21
82.99547799999982
  0
LINE
  5
DC
100
AcDbEntity
  8
LC-007-002-----0
  6
CONTINUOUS
 62
             7
100
AcDbLine
 10
1007.8400166545219
 20
83.87579099999766
 11
1007.8400166545219
 21
91.37579099999766
  0
LINE
  5
DB
100
AcDbEntity
  8
0
  6
CONTINUOUS
 62
             7
100
AcDbLine
 10
1003.815545654521
 20
91.37579099999766
 11
1007.8400166545219
 21
91.37579099999766
  0
LINE
  5
DA
100
AcDbEntity
  8
LC-007-002-----0
  6
CONTINUOUS
 62
             7
100
AcDbLine
 10
995.81554565452097
 20
83.37579099999766
 11
1007.3400166545219
 21
83.37579099999766
  0
LINE
  5
D9
100
AcDbEntity
  8
LC-007-002-----0
  6
CONTINUOUS
 62
             7
100
AcDbLine
 10
1003.030182654522
 20
79.06595699999798
 11
1007.3400166545219
 21
83.37579099999766
  0
LINE
  5
D8
100
AcDbEntity
  8
0
  6
CONTINUOUS
 62
             7
100
AcDbLine
 10
758.86341265452211
 20
91.37579099999766
 11
754.84001665452161
 21
91.37579099999766
  0
LINE
  5
D7
100
AcDbEntity
  8
LC-007-002-----0
  6
CONTINUOUS
 62
             7
100
AcDbLine
 10
759.64985065452129
 20
79.06595699999798
 11
755.34001665452161
 21
83.37579099999766
  0
LINE
  5
D6
100
AcDbEntity
  8
LC-007-002-----0
  6
CONTINUOUS
 62
             7
100
AcDbLine
 10
766.86341265452211
 20
83.37579099999766
 11
755.34001665452161
 21
83.37579099999766
  0
LINE
  5
D5
100
AcDbEntity
  8
LC-007-002-----0
  6
CONTINUOUS
 62
             7
100
AcDbLine
 10
754.84001665452161
 20
83.87579099999766
 11
754.84001665452161
 21
91.37579099999766
  0
LINE
  5
D4
100
AcDbEntity
  8
LC-010-006-MLN-0
  6
CONTINUOUS
 62
             5
100
AcDbLine
 10
777.34503265452076
 20
72.49547799999982
 11
758.33392565452232
 21
72.49547799999982
  0
LINE
  5
D3
100
AcDbEntity
  8
LC-007-002-----0
  6
CONTINUOUS
 62
             7
100
AcDbLine
 10
982.08013467073897
 20
82.99547799999982
 11
979.0237489284832
 21
-4.52795530864796
  0
LINE
  5
D2
100
AcDbEntity
  8
LC-007-002-----0
  6
CONTINUOUS
 62
             7
100
AcDbLine
 10
780.59455065451994
 20
82.99547799999982
 11
783.63885215543269
 21
-4.18190792432733
  0
LINE
  5
D1
100
AcDbEntity
  8
LC-007-002-----0
  6
CONTINUOUS
 62
             7
100
AcDbLine
 10
982.14440765451945
 20
82.99547799999982
 11
994.83947965452171
 21
82.99547799999982
  0
LINE
  5
D0
100
AcDbEntity
  8
LC-010-006-MLN-0
  6
CONTINUOUS
 62
             2
100
AcDbLine
 10
994.83947965452171
 20
78.99547799999982
 11
994.83947965452171
 21
65.99547799999982
  0
LINE
  5
CF
100
AcDbEntity
  8
LC-010-006-MLN-0
  6
CONTINUOUS
 62
             2
100
AcDbLine
 10
1001.3394796545221
 20
72.49547799999982
 11
988.33947965452171
 21
72.49547799999982
  0
LINE
  5
CE
100
AcDbEntity
  8
LC-010-006-MLN-0
  6
CONTINUOUS
 62
             2
100
AcDbLine
 10
968.08947965452171
 20
-88.46575899999971
 11
968.08947965452171
 21
-101.46575899999969
  0
LINE
  5
CD
100
AcDbEntity
  8
LC-010-006-MLN-0
  6
CONTINUOUS
 62
             2
100
AcDbLine
 10
974.58947965452171
 20
-94.96575899999971
 11
961.58947965452171
 21
-94.96575899999971
  0
LINE
  5
CC
100
AcDbEntity
  8
LC-007-002-----0
  6
CONTINUOUS
 62
             7
100
AcDbLine
 10
782.59617165452073
 20
-95.36646800000108
 11
779.83947965452171
 21
-12.85801600000286
  0
LINE
  5
CB
100
AcDbEntity
  8
LC-007-002-----0
  6
CONTINUOUS
 62
             7
100
AcDbLine
 10
881.33947965452171
 20
-106.96575899999969
 11
794.58947965452171
 21
-106.96575899999969
  0
LINE
  5
CA
100
AcDbEntity
  8
LC-007-002-----0
  6
CONTINUOUS
 62
             7
100
AcDbLine
 10
881.33947965452171
 20
-106.96575899999969
 11
968.08947965452171
 21
-106.96575899999969
  0
LINE
  5
C9
100
AcDbEntity
  8
LC-007-002-----0
  6
CONTINUOUS
 62
             7
100
AcDbLine
 10
980.08278665452235
 20
-95.36646800000108
 11
982.83947965452171
 21
-12.85801600000286
  0
LINE
  5
C8
100
AcDbEntity
  8
LC-007-002-----0
  6
CONTINUOUS
 62
             7
100
AcDbLine
 10
1004.98170065452
 20
69.77787799999987
 11
982.83947965452171
 21
-12.85801600000286
  0
LINE
  5
C7
100
AcDbEntity
  8
LC-010-006-MLN-0
  6
CONTINUOUS
 62
             2
100
AcDbLine
 10
794.58947965452171
 20
-88.46575899999971
 11
794.58947965452171
 21
-101.46575899999969
  0
LINE
  5
C6
100
AcDbEntity
  8
LC-010-006-MLN-0
  6
CONTINUOUS
 62
             2
100
AcDbLine
 10
801.08947965452171
 20
-94.96575899999971
 11
788.08947965452171
 21
-94.96575899999971
  0
LINE
  5
C5
100
AcDbEntity
  8
LC-010-006-MLN-0
  6
CONTINUOUS
 62
             2
100
AcDbLine
 10
767.83947965452171
 20
78.99547799999982
 11
767.83947965452171
 21
65.99547799999982
  0
LINE
  5
C4
100
AcDbEntity
  8
LC-007-002-----0
  6
CONTINUOUS
 62
             7
100
AcDbLine
 10
757.69725765451949
 20
69.77787799999987
 11
779.83947965452171
 21
-12.85801600000286
  0
LINE
  5
C3
100
AcDbEntity
  8
LC-010-006-MLN-0
  6
CONTINUOUS
 62
             2
100
AcDbLine
 10
774.33947965452171
 20
72.49547799999982
 11
761.33947965452171
 21
72.49547799999982
  0
LINE
  5
C2
100
AcDbEntity
  8
LC-007-002-----0
  6
CONTINUOUS
 62
             7
100
AcDbLine
 10
980.83940365452145
 20
102.8999079999985
 11
980.76075465452232
 21
104.4006289999988
  0
LINE
  5
C1
100
AcDbEntity
  8
LC-010-006-MLN-0
  6
CONTINUOUS
 62
             2
100
AcDbLine
 10
764.83947965452171
 20
92.89972399999806
 11
764.83947965452171
 21
145.46066000008
  0
LINE
  5
C0
100
AcDbEntity
  8
LC-007-002-----0
  6
CONTINUOUS
 62
             7
100
AcDbLine
 10
1007.8394796545221
 20
95.39972399999806
 11
1007.8394796545221
 21
102.8997239999981
  0
LINE
  5
BF
100
AcDbEntity
  8
0
  6
CONTINUOUS
 62
             7
100
AcDbLine
 10
881.33947965452171
 20
102.8997239999981
 11
1007.8394796545221
 21
102.8997239999981
  0
LINE
  5
BE
100
AcDbEntity
  8
LC-007-002-----0
  6
CONTINUOUS
 62
             7
100
AcDbLine
 10
982.56011265452253
 20
94.89972399999806
 11
1007.3394796545221
 21
94.89972399999806
  0
LINE
  5
BD
100
AcDbEntity
  8
LC-007-002-----0
  6
CONTINUOUS
 62
             7
100
AcDbLine
 10
995.41921665452173
 20
82.97946099999808
 11
1007.3394796545221
 21
94.89972399999806
  0
LINE
  5
BC
100
AcDbEntity
  8
LC-010-006-MLN-0
  6
CONTINUOUS
 62
             2
100
AcDbLine
 10
997.83947965452171
 20
92.89972399999806
 11
997.83947965452171
 21
133.96053800007871
  0
LINE
  5
BB
100
AcDbEntity
  8
0
  6
CONTINUOUS
 62
             7
100
AcDbLine
 10
881.33947965452171
 20
102.8997239999981
 11
754.83947965452171
 21
102.8997239999981
  0
LINE
  5
BA
100
AcDbEntity
  8
LC-007-002-----0
  6
CONTINUOUS
 62
             7
100
AcDbLine
 10
767.25974165452135
 20
82.97946099999808
 11
755.33947965452171
 21
94.89972399999806
  0
LINE
  5
B9
100
AcDbEntity
  8
LC-007-002-----0
  6
CONTINUOUS
 62
             7
100
AcDbLine
 10
780.11884565452056
 20
94.89972399999806
 11
755.33947965452171
 21
94.89972399999806
  0
LINE
  5
B8
100
AcDbEntity
  8
LC-007-002-----0
  6
CONTINUOUS
 62
             7
100
AcDbLine
 10
754.83947965452171
 20
95.39972399999806
 11
754.83947965452171
 21
102.8997239999981
  0
LINE
  5
B7
100
AcDbEntity
  8
LC-007-002-----0
  6
CONTINUOUS
 62
             7
100
AcDbLine
 10
982.83947965452171
 20
102.8997239999981
 11
982.14440765451945
 21
82.99547799999982
  0
LINE
  5
B6
100
AcDbEntity
  8
LC-007-002-----0
  6
CONTINUOUS
 62
             7
100
AcDbLine
 10
781.83955465452163
 20
102.8999079999985
 11
781.91820365452077
 21
104.4006289999988
  0
LINE
  5
B5
100
AcDbEntity
  8
LC-007-002-----0
  6
CONTINUOUS
 62
             7
100
AcDbLine
 10
779.83947965452171
 20
102.8997239999981
 11
780.53455065451999
 21
82.99547799999982
  0
LINE
  5
B4
100
AcDbEntity
  8
LC-010-006-MLN-0
  6
CONTINUOUS
 62
             2
100
AcDbLine
 10
923.83947965452171
 20
242.90062899999879
 11
923.83947965452171
 21
125.9006289999988
  0
LINE
  5
B3
100
AcDbEntity
  8
LC-010-006-MLN-0
  6
CONTINUOUS
 62
             2
100
AcDbLine
 10
838.83947965452171
 20
242.90062899999879
 11
838.83947965452171
 21
125.9006289999988
  0
LINE
  5
B2
100
AcDbEntity
  8
LC-007-002-----0
  6
CONTINUOUS
 62
             7
100
AcDbLine
 10
921.33947965452171
 20
225.900654
 11
920.88823265452083
 21
225.900654
  0
LINE
  5
B1
100
AcDbEntity
  8
LC-007-002-----0
  6
CONTINUOUS
 62
             7
100
AcDbLine
 10
841.79072565452225
 20
225.900654
 11
841.33947965452171
 21
225.900654
  0
LINE
  5
B0
100
AcDbEntity
  8
LC-007-002-----0
  6
CONTINUOUS
 62
             7
100
AcDbLine
 10
861.79072565452225
 20
225.900654
 11
860.88823265452083
 21
225.900654
  0
LINE
  5
AF
100
AcDbEntity
  8
LC-007-002-----0
  6
CONTINUOUS
 62
             7
100
AcDbLine
 10
881.79072565452225
 20
225.900654
 11
880.88823265452083
 21
225.900654
  0
LINE
  5
AE
100
AcDbEntity
  8
LC-007-002-----0
  6
CONTINUOUS
 62
             7
100
AcDbLine
 10
839.33947965452171
 20
206.900654
 11
831.33947965452171
 21
206.900654
  0
LINE
  5
AD
100
AcDbEntity
  8
LC-007-002-----0
  6
CONTINUOUS
 62
             7
100
AcDbLine
 10
921.33947965452171
 20
225.900654
 11
920.88823265452083
 21
225.900654
  0
LINE
  5
AC
100
AcDbEntity
  8
LC-007-002-----0
  6
CONTINUOUS
 62
             7
100
AcDbLine
 10
921.21978665452116
 20
225.900654
 11
920.5590236545213
 21
225.900654
  0
LINE
  5
AB
100
AcDbEntity
  8
LC-007-002-----0
  6
CONTINUOUS
 62
             7
100
AcDbLine
 10
901.79072565452225
 20
225.900654
 11
900.88823265452083
 21
225.900654
  0
LINE
  5
AA
100
AcDbEntity
  8
LC-007-002-----0
  6
CONTINUOUS
 62
             7
100
AcDbLine
 10
921.33947965452171
 20
208.900654
 11
921.33947965452171
 21
225.900654
  0
LINE
  5
A9
100
AcDbEntity
  8
LC-007-002-----0
  6
CONTINUOUS
 62
             7
100
AcDbLine
 10
841.33947965452171
 20
208.900654
 11
841.33947965452171
 21
225.900654
  0
LINE
  5
A8
100
AcDbEntity
  8
LC-007-002-----0
  6
CONTINUOUS
 62
             7
100
AcDbLine
 10
931.33947965452171
 20
206.900654
 11
923.33947965452171
 21
206.900654
  0
LINE
  5
A7
100
AcDbEntity
  8
LC-007-002-----0
  6
CONTINUOUS
 62
             7
100
AcDbLine
 10
929.33947965452171
 20
244.400654
 11
833.33947965452171
 21
244.400654
  0
LINE
  5
A6
100
AcDbEntity
  8
LC-007-002-----0
  6
CONTINUOUS
 62
             7
100
AcDbLine
 10
831.33947965452171
 20
206.900654
 11
831.33947965452171
 21
242.400654
  0
LINE
  5
A5
100
AcDbEntity
  8
LC-007-002-----0
  6
CONTINUOUS
 62
             7
100
AcDbLine
 10
931.33947965452171
 20
206.900654
 11
931.33947965452171
 21
242.400654
  0
LINE
  5
A4
100
AcDbEntity
  8
LC-010-006-MLN-0
  6
CONTINUOUS
 62
             2
100
AcDbLine
 10
997.83947965452171
 20
92.90089799999896
 11
997.83947965452171
 21
145.46066000008
  0
LINE
  5
A3
100
AcDbEntity
  8
LC-007-002-----0
  6
CONTINUOUS
 62
             7
100
AcDbLine
 10
988.33936665451984
 20
132.6450600000783
 11
988.33937665451958
 21
113.65207899999859
  0
LINE
  5
A2
100
AcDbEntity
  8
LC-007-002-----0
  6
CONTINUOUS
 62
             7
100
AcDbLine
 10
976.83958065451952
 20
138.740892000081
 11
976.83958065451952
 21
136.68042900007941
  0
LINE
  5
A1
100
AcDbEntity
  8
LC-007-002-----0
  6
CONTINUOUS
 62
             7
100
AcDbLine
 10
1018.83958065452
 20
136.68042900007941
 11
1018.83958065452
 21
138.740892000081
  0
LINE
  5
A0
100
AcDbEntity
  8
LC-007-002-----0
  6
CONTINUOUS
 62
             7
100
AcDbLine
 10
1007.33958065452
 20
112.3998459999993
 11
1007.33958065452
 21
132.64502900007869
  0
LINE
  5
9F
100
AcDbEntity
  8
LC-007-002-----0
  6
CONTINUOUS
 62
             7
100
AcDbLine
 10
1006.6025636545201
 20
112.3998459999993
 11
1007.33958065452
 21
112.3998459999993
  0
LINE
  5
9E
100
AcDbEntity
  8
LC-007-002-----0
  6
CONTINUOUS
 62
             7
100
AcDbLine
 10
991.57867565452034
 20
112.3998459999993
 11
997.83947965452171
 21
112.3998459999993
  0
LINE
  5
9D
100
AcDbEntity
  8
LC-007-002-----0
  6
CONTINUOUS
 62
             7
100
AcDbLine
 10
997.83947965452171
 20
112.3998459999993
 11
991.57867565452034
 21
112.3998459999993
  0
LINE
  5
9C
100
AcDbEntity
  8
LC-007-002-----0
  6
CONTINUOUS
 62
             7
100
AcDbLine
 10
1007.33958065452
 20
112.3998459999993
 11
1006.6025636545201
 21
112.3998459999993
  0
LINE
  5
9B
100
AcDbEntity
  8
LC-007-002-----0
  6
CONTINUOUS
 62
             7
100
AcDbLine
 10
1007.33958065452
 20
112.3998459999993
 11
1007.33958065452
 21
132.64502900007869
  0
LINE
  5
9A
100
AcDbEntity
  8
LC-007-002-----0
  6
CONTINUOUS
 62
             7
100
AcDbLine
 10
1018.83958065452
 20
136.68042900007941
 11
1018.83958065452
 21
138.740892000081
  0
LINE
  5
99
100
AcDbEntity
  8
LC-007-002-----0
  6
CONTINUOUS
 62
             7
100
AcDbLine
 10
988.33937665451958
 20
113.65207899999859
 11
988.33936665451995
 21
132.645197000081
  0
LINE
  5
98
100
AcDbEntity
  8
LC-007-002-----0
  6
CONTINUOUS
 62
             7
100
AcDbLine
 10
976.83958065451952
 20
136.68042900007941
 11
976.83958065451952
 21
138.740892000081
  0
LINE
  5
97
100
AcDbEntity
  8
LC-007-002-----0
  6
CONTINUOUS
 62
             7
100
AcDbLine
 10
996.33958065451952
 20
140.21066000008
 11
999.33958065451952
 21
140.21066000008
  0
LINE
  5
96
100
AcDbEntity
  8
LC-007-002-----0
  6
CONTINUOUS
 62
             7
100
AcDbLine
 10
995.33958065451952
 20
136.21066000008
 11
995.33958065451952
 21
139.21066000008
  0
LINE
  5
95
100
AcDbEntity
  8
LC-007-002-----0
  6
CONTINUOUS
 62
             7
100
AcDbLine
 10
1000.33958065452
 20
139.21066000008
 11
1000.33958065452
 21
136.21066000008
  0
LINE
  5
94
100
AcDbEntity
  8
LC-007-002-----0
  6
CONTINUOUS
 62
             7
100
AcDbLine
 10
999.33958065451952
 20
135.21066000008
 11
996.33958065451952
 21
135.21066000008
  0
LINE
  5
93
100
AcDbEntity
  8
LC-007-002-----0
  6
CONTINUOUS
 62
             7
100
AcDbLine
 10
774.33959165451961
 20
132.6450600000783
 11
774.33958165451986
 21
113.65207899999859
  0
LINE
  5
92
100
AcDbEntity
  8
LC-007-002-----0
  6
CONTINUOUS
 62
             7
100
AcDbLine
 10
785.83937765451992
 20
138.740892000081
 11
785.83937765451992
 21
136.68042900007941
  0
LINE
  5
91
100
AcDbEntity
  8
LC-007-002-----0
  6
CONTINUOUS
 62
             7
100
AcDbLine
 10
743.83937765451992
 20
136.68042900007941
 11
743.83937765451992
 21
138.740892000081
  0
LINE
  5
90
100
AcDbEntity
  8
LC-007-002-----0
  6
CONTINUOUS
 62
             7
100
AcDbLine
 10
755.33937765451992
 20
112.3998459999993
 11
755.33937765451992
 21
132.64502900007869
  0
LINE
  5
8F
100
AcDbEntity
  8
LC-007-002-----0
  6
CONTINUOUS
 62
             7
100
AcDbLine
 10
756.07639465451939
 20
112.3998459999993
 11
755.33937765451992
 21
112.3998459999993
  0
LINE
  5
8E
100
AcDbEntity
  8
LC-007-002-----0
  6
CONTINUOUS
 62
             7
100
AcDbLine
 10
771.10028265452274
 20
112.3998459999993
 11
764.83947965452171
 21
112.3998459999993
  0
LINE
  5
8D
100
AcDbEntity
  8
LC-007-002-----0
  6
CONTINUOUS
 62
             7
100
AcDbLine
 10
764.83947965452171
 20
112.3998459999993
 11
771.10028265452274
 21
112.3998459999993
  0
LINE
  5
8C
100
AcDbEntity
  8
LC-007-002-----0
  6
CONTINUOUS
 62
             7
100
AcDbLine
 10
755.33937765451992
 20
112.3998459999993
 11
756.07639465451939
 21
112.3998459999993
  0
LINE
  5
8B
100
AcDbEntity
  8
LC-007-002-----0
  6
CONTINUOUS
 62
             7
100
AcDbLine
 10
755.33937765451992
 20
112.3998459999993
 11
755.33937765451992
 21
132.64502900007869
  0
LINE
  5
8A
100
AcDbEntity
  8
LC-007-002-----0
  6
CONTINUOUS
 62
             7
100
AcDbLine
 10
743.83937765451992
 20
136.68042900007941
 11
743.83937765451992
 21
138.740892000081
  0
LINE
  5
89
100
AcDbEntity
  8
LC-007-002-----0
  6
CONTINUOUS
 62
             7
100
AcDbLine
 10
774.33958165451986
 20
113.65207899999859
 11
774.33959165451961
 21
132.645197000081
  0
LINE
  5
88
100
AcDbEntity
  8
LC-007-002-----0
  6
CONTINUOUS
 62
             7
100
AcDbLine
 10
785.83937765451992
 20
136.68042900007941
 11
785.83937765451992
 21
138.740892000081
  0
LINE
  5
87
100
AcDbEntity
  8
LC-007-002-----0
  6
CONTINUOUS
 62
             7
100
AcDbLine
 10
766.33937765451992
 20
140.21066000008
 11
763.33937765451992
 21
140.21066000008
  0
LINE
  5
86
100
AcDbEntity
  8
LC-007-002-----0
  6
CONTINUOUS
 62
             7
100
AcDbLine
 10
767.33937765451992
 20
136.21066000008
 11
767.33937765451992
 21
139.21066000008
  0
LINE
  5
85
100
AcDbEntity
  8
LC-007-002-----0
  6
CONTINUOUS
 62
             7
100
AcDbLine
 10
762.33937765451992
 20
139.21066000008
 11
762.33937765451992
 21
136.21066000008
  0
LINE
  5
84
100
AcDbEntity
  8
LC-007-002-----0
  6
CONTINUOUS
 62
             7
100
AcDbLine
 10
763.33937765451992
 20
135.21066000008
 11
766.33937765451992
 21
135.21066000008
  0
LINE
  5
83
100
AcDbEntity
  8
LC-010-006-MLN-0
  6
CONTINUOUS
 62
             2
100
AcDbLine
 10
829.58949465451951
 20
229.400654
 11
933.08949465451951
 21
229.400654
  0
LINE
  5
82
100
AcDbEntity
  8
LC-007-002-----0
  6
CONTINUOUS
 62
             7
100
AcDbLine
 10
860.88823265452083
 20
225.900654
 11
845.33947965452171
 21
225.900654
  0
LINE
  5
81
100
AcDbEntity
  8
LC-007-002-----0
  6
CONTINUOUS
 62
             7
100
AcDbLine
 10
880.88823265452083
 20
225.900654
 11
861.79072565452225
 21
225.900654
  0
LINE
  5
80
100
AcDbEntity
  8
LC-007-002-----0
  6
CONTINUOUS
 62
             7
100
AcDbLine
 10
900.88823265452083
 20
225.900654
 11
881.79072565452225
 21
225.900654
  0
LINE
  5
7F
100
AcDbEntity
  8
LC-007-002-----0
  6
CONTINUOUS
 62
             7
100
AcDbLine
 10
917.33947965452171
 20
225.900654
 11
901.79072565452225
 21
225.900654
  0
LINE
  5
7E
100
AcDbEntity
  8
LC-007-002-----0
  6
CONTINUOUS
 62
             7
100
AcDbLine
 10
920.43947965452026
 20
133.90062899999879
 11
920.43947965452026
 21
222.900654
  0
LINE
  5
7D
100
AcDbEntity
  8
LC-007-002-----0
  6
CONTINUOUS
 62
             7
100
AcDbLine
 10
845.83947965452171
 20
133.90062899999879
 11
845.83947965452171
 21
175.05756399999791
  0
LINE
  5
7C
100
AcDbEntity
  8
LC-007-002-----0
  6
CONTINUOUS
 62
             7
100
AcDbLine
 10
842.23947965451953
 20
223.900654
 11
841.33947965452171
 21
223.900654
  0
LINE
  5
7B
100
AcDbEntity
  8
LC-007-002-----0
  6
CONTINUOUS
 62
             7
100
AcDbLine
 10
831.58947965452171
 20
206.900654
 11
831.58947965452171
 21
133.90062899999879
  0
LINE
  5
7A
100
AcDbEntity
  8
LC-007-002-----0
  6
CONTINUOUS
 62
             7
100
AcDbLine
 10
928.33947965452171
 20
206.900654
 11
928.33947965452171
 21
133.90062899999879
  0
LINE
  5
79
100
AcDbEntity
  8
LC-007-002-----0
  6
CONTINUOUS
 62
             7
100
AcDbLine
 10
917.33947965452171
 20
225.900654
 11
919.93947965452026
 21
225.900654
  0
LINE
  5
78
100
AcDbEntity
  8
LC-007-002-----0
  6
CONTINUOUS
 62
             7
100
AcDbLine
 10
842.23947965451953
 20
222.900654
 11
842.23947965451953
 21
225.400654
  0
LINE
  5
77
100
AcDbEntity
  8
LC-007-002-----0
  6
CONTINUOUS
 62
             7
100
AcDbLine
 10
920.43947965452026
 20
223.400654
 11
921.33947965452171
 21
223.400654
  0
LINE
  5
76
100
AcDbEntity
  8
LC-007-002-----0
  6
CONTINUOUS
 62
             7
100
AcDbLine
 10
845.83947965452171
 20
181.36065399999919
 11
845.83947965452171
 21
225.39679599999999
  0
LINE
  5
75
100
AcDbEntity
  8
LC-007-002-----0
  6
CONTINUOUS
 62
             7
100
AcDbLine
 10
917.33947965452171
 20
228.44585099999949
 11
917.33947965452171
 21
225.900654
  0
LINE
  5
74
100
AcDbEntity
  8
LC-007-002-----0
  6
CONTINUOUS
 62
             7
100
AcDbLine
 10
920.43947965452026
 20
225.400654
 11
920.43947965452026
 21
225.93949100000009
  0
LINE
  5
73
100
AcDbEntity
  8
LC-007-002-----0
  6
CONTINUOUS
 62
             7
100
AcDbLine
 10
842.23947965451953
 20
225.97002399999749
 11
842.23947965451953
 21
225.400654
  0
LINE
  5
72
100
AcDbEntity
  8
LC-007-002-----0
  6
CONTINUOUS
 62
             7
100
AcDbLine
 10
920.43947965452026
 20
225.400654
 11
920.43947965452026
 21
222.900654
  0
LINE
  5
71
100
AcDbEntity
  8
LC-007-002-----0
  6
CONTINUOUS
 62
             7
100
AcDbLine
 10
842.73947965451953
 20
225.900654
 11
845.33947965452171
 21
225.900654
  0
LINE
  5
70
100
AcDbEntity
  8
LC-007-002-----0
  6
CONTINUOUS
 62
             7
100
AcDbLine
 10
842.23947965451953
 20
222.900654
 11
842.23947965451953
 21
133.90062899999879
  0
LINE
  5
6F
100
AcDbEntity
  8
LC-007-002-----0
  6
CONTINUOUS
 62
             7
100
AcDbLine
 10
916.83947965452171
 20
225.400654
 11
916.83947965452171
 21
181.36065399999919
  0
LINE
  5
6E
100
AcDbEntity
  8
LC-007-002-----0
  6
CONTINUOUS
 62
             7
100
AcDbLine
 10
834.33947965452171
 20
133.90062899999879
 11
834.33947965452171
 21
206.900654
  0
LINE
  5
6D
100
AcDbEntity
  8
LC-007-002-----0
  6
CONTINUOUS
 62
             7
100
AcDbLine
 10
841.33947965452171
 20
223.400654
 11
842.23947965451953
 21
223.400654
  0
LINE
  5
6C
100
AcDbEntity
  8
LC-007-002-----0
  6
CONTINUOUS
 62
             7
100
AcDbLine
 10
916.83947965452171
 20
175.05756399999791
 11
916.83947965452171
 21
133.90062899999879
  0
LINE
  5
6B
100
AcDbEntity
  8
LC-007-002-----0
  6
CONTINUOUS
 62
             7
100
AcDbLine
 10
921.33947965452171
 20
223.900654
 11
920.43947965452026
 21
223.900654
  0
LINE
  5
6A
100
AcDbEntity
  8
LC-007-002-----0
  6
CONTINUOUS
 62
             7
100
AcDbLine
 10
931.08947965452171
 20
133.90062899999879
 11
931.08947965452171
 21
206.900654
  0
LINE
  5
69
100
AcDbEntity
  8
LC-007-002-----0
  6
CONTINUOUS
 62
             7
100
AcDbLine
 10
845.33947965452171
 20
228.46283200000019
 11
845.33947965452171
 21
225.900654
  0
LINE
  5
68
100
AcDbEntity
  8
LC-007-002-----0
  6
CONTINUOUS
 62
             7
100
AcDbLine
 10
973.83923165452143
 20
127.9006289999988
 11
788.83972665452166
 21
127.9006289999988
  0
LINE
  5
67
100
AcDbEntity
  8
LC-007-002-----0
  6
CONTINUOUS
 62
             7
100
AcDbLine
 10
1006.598937654522
 20
112.4005509999979
 11
986.75243365452116
 21
112.39895399999931
  0
LINE
  5
66
100
AcDbEntity
  8
LC-007-002-----0
  6
CONTINUOUS
 62
             7
100
AcDbLine
 10
1007.8440696545219
 20
104.4006289999988
 11
1007.598408654521
 21
111.43545
  0
LINE
  5
65
100
AcDbEntity
  8
LC-007-002-----0
  6
CONTINUOUS
 62
             7
100
AcDbLine
 10
987.03174165452219
 20
104.4006289999988
 11
986.57350565451998
 21
117.5227769999974
  0
LINE
  5
64
100
AcDbEntity
  8
LC-007-002-----0
  6
CONTINUOUS
 62
             7
100
AcDbLine
 10
756.08002065452092
 20
112.4005509999979
 11
775.92652465452193
 21
112.39895399999931
  0
LINE
  5
63
100
AcDbEntity
  8
LC-007-002-----0
  6
CONTINUOUS
 62
             7
100
AcDbLine
 10
754.83488865452091
 20
104.4006289999988
 11
755.08054965452175
 21
111.43545
  0
LINE
  5
62
100
AcDbEntity
  8
LC-007-002-----0
  6
CONTINUOUS
 62
             7
100
AcDbLine
 10
775.64721665452089
 20
104.4006289999988
 11
776.10545265451947
 21
117.5227769999974
  0
LINE
  5
61
100
AcDbEntity
  8
LC-007-002-----0
  6
CONTINUOUS
 62
             7
100
AcDbLine
 10
786.83972665452166
 20
120.9006289999988
 11
786.83972665452166
 21
125.9006289999988
  0
LINE
  5
60
100
AcDbEntity
  8
LC-007-002-----0
  6
CONTINUOUS
 62
             7
100
AcDbLine
 10
881.33947965452171
 20
120.9006289999988
 11
983.07563865452175
 21
120.9006289999988
  0
LINE
  5
5F
100
AcDbEntity
  8
LC-007-002-----0
  6
CONTINUOUS
 62
             7
100
AcDbLine
 10
975.83923165452143
 20
120.9006289999988
 11
975.83923165452143
 21
125.9006289999988
  0
LINE
  5
5E
100
AcDbEntity
  8
LC-007-002-----0
  6
CONTINUOUS
 62
             7
100
AcDbLine
 10
881.33947965452171
 20
104.4006289999988
 11
754.83488865452091
 21
104.4006289999988
  0
LINE
  5
5D
100
AcDbEntity
  8
LC-007-002-----0
  6
CONTINUOUS
 62
             7
100
AcDbLine
 10
973.83923165452143
 20
127.9006289999988
 11
788.83972665452166
 21
127.9006289999988
  0
LINE
  5
5C
100
AcDbEntity
  8
LC-007-002-----0
  6
CONTINUOUS
 62
             7
100
AcDbLine
 10
881.33947965452171
 20
120.9006289999988
 11
779.60332065452167
 21
120.9006289999988
  0
LINE
  5
5B
100
AcDbEntity
  8
LC-007-002-----0
  6
CONTINUOUS
 62
             7
100
AcDbLine
 10
881.33947965452171
 20
104.4006289999988
 11
1007.8440696545219
 21
104.4006289999988
  0
LINE
  5
5A
100
AcDbEntity
  8
LC-007-002-----0
  6
CONTINUOUS
 62
             7
100
AcDbLine
 10
933.83947965452171
 20
133.90062899999879
 11
913.83947965452171
 21
133.90062899999879
  0
LINE
  5
59
100
AcDbEntity
  8
LC-007-002-----0
  6
CONTINUOUS
 62
             7
100
AcDbLine
 10
934.83947965452171
 20
127.9006289999988
 11
934.83947965452171
 21
132.90062899999879
  0
LINE
  5
58
100
AcDbEntity
  8
LC-007-002-----0
  6
CONTINUOUS
 62
             7
100
AcDbLine
 10
912.83947965452171
 20
127.9006289999988
 11
912.83947965452171
 21
132.90062899999879
  0
LINE
  5
57
100
AcDbEntity
  8
LC-007-002-----0
  6
CONTINUOUS
 62
             7
100
AcDbLine
 10
848.83947965452171
 20
133.90062899999879
 11
828.83947965452171
 21
133.90062899999879
  0
LINE
  5
56
100
AcDbEntity
  8
LC-007-002-----0
  6
CONTINUOUS
 62
             7
100
AcDbLine
 10
849.83947965452171
 20
127.9006289999988
 11
849.83947965452171
 21
132.90062899999879
  0
LINE
  5
55
100
AcDbEntity
  8
LC-007-002-----0
  6
CONTINUOUS
 62
             7
100
AcDbLine
 10
827.83947965452171
 20
127.9006289999988
 11
827.83947965452171
 21
132.90062899999879
  0
LINE
  5
54
100
AcDbEntity
  8
LC-007-002-----0
  6
CONTINUOUS
 62
             7
100
AcDbLine
 10
775.34503265452076
 20
72.49547799999982
 11
771.59225565451925
 21
78.99547799999982
  0
LINE
  5
53
100
AcDbEntity
  8
LC-007-002-----0
  6
CONTINUOUS
 62
             7
100
AcDbLine
 10
771.59225565451925
 20
78.99547799999982
 11
764.0867026545202
 21
78.99547799999982
  0
LINE
  5
52
100
AcDbEntity
  8
LC-007-002-----0
  6
CONTINUOUS
 62
             7
100
AcDbLine
 10
764.0867026545202
 20
78.99547799999982
 11
760.33392565452232
 21
72.49547799999982
  0
LINE
  5
51
100
AcDbEntity
  8
LC-007-002-----0
  6
CONTINUOUS
 62
             7
100
AcDbLine
 10
760.33392565452232
 20
72.49547799999982
 11
764.0867026545202
 21
65.99547799999982
  0
LINE
  5
50
100
AcDbEntity
  8
LC-007-002-----0
  6
CONTINUOUS
 62
             7
100
AcDbLine
 10
764.0867026545202
 20
65.99547799999982
 11
771.59225565451925
 21
65.99547799999982
  0
LINE
  5
4F
100
AcDbEntity
  8
LC-007-002-----0
  6
CONTINUOUS
 62
             7
100
AcDbLine
 10
771.59225565451925
 20
65.99547799999982
 11
775.34503265452076
 21
72.49547799999982
  0
LINE
  5
4E
100
AcDbEntity
  8
LC-007-002-----0
  6
CONTINUOUS
 62
             7
100
AcDbLine
 10
987.33392565452232
 20
72.49547799999982
 11
991.0867026545202
 21
78.99547799999982
  0
LINE
  5
4D
100
AcDbEntity
  8
LC-007-002-----0
  6
CONTINUOUS
 62
             7
100
AcDbLine
 10
991.0867026545202
 20
78.99547799999982
 11
998.59225565451925
 21
78.99547799999982
  0
LINE
  5
4C
100
AcDbEntity
  8
LC-007-002-----0
  6
CONTINUOUS
 62
             7
100
AcDbLine
 10
998.59225565451925
 20
78.99547799999982
 11
1002.345032654521
 21
72.49547799999982
  0
LINE
  5
4B
100
AcDbEntity
  8
LC-007-002-----0
  6
CONTINUOUS
 62
             7
100
AcDbLine
 10
1002.345032654521
 20
72.49547799999982
 11
998.59225565451925
 21
65.99547799999982
  0
LINE
  5
4A
100
AcDbEntity
  8
LC-007-002-----0
  6
CONTINUOUS
 62
             7
100
AcDbLine
 10
998.59225565451925
 20
65.99547799999982
 11
991.0867026545202
 21
65.99547799999982
  0
LINE
  5
49
100
AcDbEntity
  8
LC-007-002-----0
  6
CONTINUOUS
 62
             7
100
AcDbLine
 10
991.0867026545202
 20
65.99547799999982
 11
987.33392565452232
 21
72.49547799999982
  0
LINE
  5
48
100
AcDbEntity
  8
LC-007-002-----0
  6
CONTINUOUS
 62
             7
100
AcDbLine
 10
802.09503265452076
 20
-94.96575899999971
 11
798.34225565451925
 21
-88.46575899999971
  0
LINE
  5
47
100
AcDbEntity
  8
LC-007-002-----0
  6
CONTINUOUS
 62
             7
100
AcDbLine
 10
798.34225565451925
 20
-88.46575899999971
 11
790.8367026545202
 21
-88.46575899999971
  0
LINE
  5
46
100
AcDbEntity
  8
LC-007-002-----0
  6
CONTINUOUS
 62
             7
100
AcDbLine
 10
790.8367026545202
 20
-88.46575899999971
 11
787.08392565452232
 21
-94.96575899999971
  0
LINE
  5
45
100
AcDbEntity
  8
LC-007-002-----0
  6
CONTINUOUS
 62
             7
100
AcDbLine
 10
787.08392565452232
 20
-94.96575899999971
 11
790.8367026545202
 21
-101.46575899999969
  0
LINE
  5
44
100
AcDbEntity
  8
LC-007-002-----0
  6
CONTINUOUS
 62
             7
100
AcDbLine
 10
790.8367026545202
 20
-101.46575899999969
 11
798.34225565451925
 21
-101.46575899999969
  0
LINE
  5
43
100
AcDbEntity
  8
LC-007-002-----0
  6
CONTINUOUS
 62
             7
100
AcDbLine
 10
798.34225565451925
 20
-101.46575899999969
 11
802.09503265452076
 21
-94.96575899999971
  0
LINE
  5
42
100
AcDbEntity
  8
LC-007-002-----0
  6
CONTINUOUS
 62
             7
100
AcDbLine
 10
960.58392565452232
 20
-94.96575899999971
 11
964.3367026545202
 21
-88.46575899999971
  0
LINE
  5
41
100
AcDbEntity
  8
LC-007-002-----0
  6
CONTINUOUS
 62
             7
100
AcDbLine
 10
964.3367026545202
 20
-88.46575899999971
 11
971.84225565451925
 21
-88.46575899999971
  0
LINE
  5
40
100
AcDbEntity
  8
LC-007-002-----0
  6
CONTINUOUS
 62
             7
100
AcDbLine
 10
971.84225565451925
 20
-88.46575899999971
 11
975.59503265452076
 21
-94.96575899999971
  0
LINE
  5
3F
100
AcDbEntity
  8
LC-007-002-----0
  6
CONTINUOUS
 62
             7
100
AcDbLine
 10
975.59503265452076
 20
-94.96575899999971
 11
971.84225565451925
 21
-101.46575899999969
  0
LINE
  5
3E
100
AcDbEntity
  8
LC-007-002-----0
  6
CONTINUOUS
 62
             7
100
AcDbLine
 10
971.84225565451925
 20
-101.46575899999969
 11
964.3367026545202
 21
-101.46575899999969
  0
LINE
  5
3D
100
AcDbEntity
  8
LC-007-002-----0
  6
CONTINUOUS
 62
             7
100
AcDbLine
 10
964.3367026545202
 20
-101.46575899999969
 11
960.58392565452232
 21
-94.96575899999971
  0
LINE
  5
3C
100
AcDbEntity
  8
1
  6
PHANTOM
 62
             2
100
AcDbLine
 10
984.46304305452213
 20
0.0
 11
778.21591625452129
 21
0.0
  0
LINE
  5
3B
100
AcDbEntity
  8
1
  6
PHANTOM
 62
             2
100
AcDbLine
 10
881.33947965452171
 20
258.90530703231337
 11
881.33947965452171
 21
-120.9397975677675
  0
LINE
  5
3A
100
AcDbEntity
  8
1
  6
DOT_CENTER
 62
             2
100
AcDbLine
 10
818.66825683721618
 20
-22.99996995702168
 11
944.66825683721618
 21
-22.99996995702168
  0
POINT
  5
39
100
AcDbEntity
  8
0
 62
             7
100
AcDbPoint
 10
1018.83958065452
 20
138.57731200008061
  0
POINT
  5
38
100
AcDbEntity
  8
0
 62
             7
100
AcDbPoint
 10
743.83937765451992
 20
136.84400800007941
  0
POINT
  5
37
100
AcDbEntity
  8
1
 62
             3
 60
             1
100
AcDbPoint
 10
1766.289166163406
 20
2607.3025553178909
  0
POINT
  5
36
100
AcDbEntity
  8
1
 62
             3
 60
             1
100
AcDbPoint
 10
1892.289166163406
 20
2607.3025553178909
  0
ENDBLK
  5
179
100
AcDbEntity
  8
0
100
AcDbBlockEnd
  0
BLOCK
  5
31
100
AcDbEntity
  8
0
100
AcDbBlockBegin
  2
HL_715_2_R_CKSTAUVERSCS__2
 70
             0
 10
-482.11402685452902
 20
-143.880247928074
 30
0.0
  3
HL_715_2_R_CKSTAUVERSCS__2
  1

  0
ARC
  5
372
100
AcDbEntity
  8
1
  6
CONTINUOUS
 62
             7
100
AcDbCircle
 10
309.44618853201092
 20
-107.0994174625389
 40
3.5
100
AcDbArc
 50
180.0
 51
-89.99967754366475
  0
CIRCLE
  5
371
100
AcDbEntity
  8
LC-002-002-RND-0
  6
CONTINUOUS
 62
             7
100
AcDbCircle
 10
375.70907799999992
 20
229.400654
 40
2.5
  0
ARC
  5
370
100
AcDbEntity
  8
LC-001-002-----0
  6
CONTINUOUS
 62
             7
100
AcDbCircle
 10
313.41153700000001
 20
-90.55479000000014
 40
0.51454300000001
100
AcDbArc
 50
13.82490799997619
 51
74.78725300001709
  0
ARC
  5
36F
100
AcDbEntity
  8
LC-001-002-----0
  6
CONTINUOUS
 62
             7
100
AcDbCircle
 10
309.50532099999992
 20
-92.28885200000013
 40
4.78121800000025
100
AcDbArc
 50
9.54956000000723
 51
22.85484099999921
  0
ARC
  5
36E
100
AcDbEntity
  8
LC-001-002-----0
  6
CONTINUOUS
 62
             7
100
AcDbCircle
 10
295.22064199999988
 20
-94.76987699999995
 40
19.2797040000005
100
AcDbArc
 50
-0.58212400000003
 51
9.77781600000058
  0
ARC
  5
36D
100
AcDbEntity
  8
LC-001-002-----0
  6
CONTINUOUS
 62
             7
100
AcDbCircle
 10
295.22064199999988
 20
-95.16163299999994
 40
19.27970400000045
100
AcDbArc
 50
-9.77781600000125
 51
0.58212400000003
  0
ARC
  5
36C
100
AcDbEntity
  8
LC-001-002-----0
  6
CONTINUOUS
 62
             7
100
AcDbCircle
 10
309.50532099999992
 20
-97.64265799999998
 40
4.78121799999971
100
AcDbArc
 50
-22.85484099999669
 51
-9.54956000000454
  0
ARC
  5
36B
100
AcDbEntity
  8
LC-001-002-----0
  6
CONTINUOUS
 62
             7
100
AcDbCircle
 10
313.41153700000001
 20
-99.37671999999998
 40
0.51454299999965
100
AcDbArc
 50
-74.78725300001045
 51
-13.82490799995161
  0
ARC
  5
36A
100
AcDbEntity
  8
LC-001-002-----0
  6
CONTINUOUS
 62
             7
100
AcDbCircle
 10
313.32398699999987
 20
-86.03458000000001
 40
0.91137299999967
100
AcDbArc
 50
10.43749999997149
 51
75.8651840000212
  0
ARC
  5
369
100
AcDbEntity
  8
LC-001-002-----0
  6
CONTINUOUS
 62
             7
100
AcDbCircle
 10
309.50349299999999
 20
-87.51810500000011
 40
4.99660499999994
100
AcDbArc
 50
-0.99106399999701
 51
19.26577000000518
  0
ARC
  5
368
100
AcDbEntity
  8
LC-001-002-----0
  6
CONTINUOUS
 62
             7
100
AcDbCircle
 10
309.50345199999998
 20
-87.69096600000012
 40
4.99664600000032
100
AcDbArc
 50
-19.26551100000074
 51
0.99120999999891
  0
ARC
  5
367
100
AcDbEntity
  8
LC-001-002-----0
  6
CONTINUOUS
 62
             7
100
AcDbCircle
 10
313.32397099999997
 20
-89.1744819999999
 40
0.9113940000001
100
AcDbArc
 50
-75.86400200000524
 51
-10.43739500000273
  0
ARC
  5
366
100
AcDbEntity
  8
LC-001-002-----0
  6
CONTINUOUS
 62
             7
100
AcDbCircle
 10
313.32397099999997
 20
-100.75702800000001
 40
0.91139399999999
100
AcDbArc
 50
10.43738699998823
 51
75.86399799997776
  0
ARC
  5
365
100
AcDbEntity
  8
LC-001-002-----0
  6
CONTINUOUS
 62
             7
100
AcDbCircle
 10
309.50345099999998
 20
-102.240544
 40
4.99664699999981
100
AcDbArc
 50
-0.99121600000439
 51
19.26550499999683
  0
ARC
  5
364
100
AcDbEntity
  8
LC-001-002-----0
  6
CONTINUOUS
 62
             7
100
AcDbCircle
 10
309.50349499999999
 20
-102.4134039999999
 40
4.99660299999991
100
AcDbArc
 50
-19.26578399999474
 51
0.99106000000125
  0
ARC
  5
363
100
AcDbEntity
  8
LC-001-002-----0
  6
CONTINUOUS
 62
             7
100
AcDbCircle
 10
313.32398799999987
 20
-103.8969299999999
 40
0.91137100000029
100
AcDbArc
 50
-75.86527000002133
 51
-10.43750000001411
  0
ARC
  5
362
100
AcDbEntity
  8
LC-001-002-----0
  6
CONTINUOUS
 62
             7
100
AcDbCircle
 10
278.67471299999988
 20
-103.897025
 40
0.91137099999976
100
AcDbArc
 50
-169.56249999998332
 51
-104.13472999996441
  0
ARC
  5
361
100
AcDbEntity
  8
LC-001-002-----0
  6
CONTINUOUS
 62
             7
100
AcDbCircle
 10
282.495206
 20
-102.413499
 40
4.99660300000037
100
AcDbArc
 50
179.00893999999633
 51
-160.73421600000549
  0
ARC
  5
360
100
AcDbEntity
  8
LC-001-002-----0
  6
CONTINUOUS
 62
             7
100
AcDbCircle
 10
282.49525
 20
-102.2406390000001
 40
4.99664699999998
100
AcDbArc
 50
160.73449499999973
 51
-179.00878399999561
  0
ARC
  5
35F
100
AcDbEntity
  8
LC-001-002-----0
  6
CONTINUOUS
 62
             7
100
AcDbCircle
 10
278.67473000000001
 20
-100.75712299999989
 40
0.91139400000018
100
AcDbArc
 50
104.13600199996661
 51
169.56261300001265
  0
ARC
  5
35E
100
AcDbEntity
  8
LC-001-002-----0
  6
CONTINUOUS
 62
             7
100
AcDbCircle
 10
278.58716299999998
 20
-99.37681500000008
 40
0.51454300000018
100
AcDbArc
 50
-166.17509200005446
 51
-105.21274700002064
  0
ARC
  5
35D
100
AcDbEntity
  8
LC-001-002-----0
  6
CONTINUOUS
 62
             7
100
AcDbCircle
 10
282.49338
 20
-97.64275300000008
 40
4.78121800000016
100
AcDbArc
 50
-170.45043999999533
 51
-157.1451590000058
  0
ARC
  5
35C
100
AcDbEntity
  8
LC-001-002-----0
  6
CONTINUOUS
 62
             7
100
AcDbCircle
 10
296.77805899999993
 20
-95.16172800000004
 40
19.27970400000032
100
AcDbArc
 50
179.41787600000063
 51
-170.22218399999937
  0
ARC
  5
35B
100
AcDbEntity
  8
LC-001-002-----0
  6
CONTINUOUS
 62
             7
100
AcDbCircle
 10
296.77805899999993
 20
-94.76997200000005
 40
19.2797040000003
100
AcDbArc
 50
170.22218399999937
 51
-179.41787600000063
  0
ARC
  5
35A
100
AcDbEntity
  8
LC-001-002-----0
  6
CONTINUOUS
 62
             7
100
AcDbCircle
 10
282.49338
 20
-92.28894700000001
 40
4.78121799999979
100
AcDbArc
 50
157.1451590000008
 51
170.45043999999533
  0
ARC
  5
359
100
AcDbEntity
  8
LC-001-002-----0
  6
CONTINUOUS
 62
             7
100
AcDbCircle
 10
278.58716299999998
 20
-90.55488500000001
 40
0.51454299999971
100
AcDbArc
 50
105.21274700001399
 51
166.17509200005446
  0
ARC
  5
358
100
AcDbEntity
  8
LC-001-002-----0
  6
CONTINUOUS
 62
             7
100
AcDbCircle
 10
278.67473000000001
 20
-89.174577
 40
0.91139399999951
100
AcDbArc
 50
-169.56260500001071
 51
-104.13599800000863
  0
ARC
  5
357
100
AcDbEntity
  8
LC-001-002-----0
  6
CONTINUOUS
 62
             7
100
AcDbCircle
 10
282.495249
 20
-87.69106099999999
 40
4.99664600000045
100
AcDbArc
 50
179.0087900000037
 51
-160.73448899999681
  0
ARC
  5
356
100
AcDbEntity
  8
LC-001-002-----0
  6
CONTINUOUS
 62
             7
100
AcDbCircle
 10
282.49520799999999
 20
-87.51819999999998
 40
4.99660499999994
100
AcDbArc
 50
160.73422999999462
 51
-179.00893600000043
  0
ARC
  5
355
100
AcDbEntity
  8
LC-001-002-----0
  6
CONTINUOUS
 62
             7
100
AcDbCircle
 10
278.67471399999988
 20
-86.03467499999988
 40
0.9113730000002
100
AcDbArc
 50
104.13481599996148
 51
169.5625000000253
  0
ARC
  5
354
100
AcDbEntity
  8
LC-001-002-----0
  6
CONTINUOUS
 62
             7
100
AcDbCircle
 10
283.32397099999997
 20
-100.75712299999989
 40
0.91139399999999
100
AcDbArc
 50
10.43738699998735
 51
75.86399799997449
  0
ARC
  5
353
100
AcDbEntity
  8
LC-001-002-----0
  6
CONTINUOUS
 62
             7
100
AcDbCircle
 10
279.50345099999998
 20
-102.2406390000001
 40
4.99664699999981
100
AcDbArc
 50
-0.99121600000439
 51
19.26550500000007
  0
ARC
  5
352
100
AcDbEntity
  8
LC-001-002-----0
  6
CONTINUOUS
 62
             7
100
AcDbCircle
 10
279.50349499999999
 20
-102.413499
 40
4.99660299999991
100
AcDbArc
 50
-19.26578399999474
 51
0.99106000000369
  0
ARC
  5
351
100
AcDbEntity
  8
LC-001-002-----0
  6
CONTINUOUS
 62
             7
100
AcDbCircle
 10
283.32398799999987
 20
-103.897025
 40
0.9113710000001
100
AcDbArc
 50
-75.86527000001827
 51
-10.43750000001411
  0
ARC
  5
350
100
AcDbEntity
  8
LC-001-002-----0
  6
CONTINUOUS
 62
             7
100
AcDbCircle
 10
283.41153700000001
 20
-90.55488500000001
 40
0.51454299999996
100
AcDbArc
 50
13.82490799995161
 51
74.78725300001045
  0
ARC
  5
34F
100
AcDbEntity
  8
LC-001-002-----0
  6
CONTINUOUS
 62
             7
100
AcDbCircle
 10
279.50532099999992
 20
-92.28894700000001
 40
4.78121800000022
100
AcDbArc
 50
9.54956000000454
 51
22.85484099999921
  0
ARC
  5
34E
100
AcDbEntity
  8
LC-001-002-----0
  6
CONTINUOUS
 62
             7
100
AcDbCircle
 10
265.22064199999988
 20
-94.76997200000005
 40
19.27970400000049
100
AcDbArc
 50
-0.58212399999935
 51
9.77781600000058
  0
ARC
  5
34D
100
AcDbEntity
  8
LC-001-002-----0
  6
CONTINUOUS
 62
             7
100
AcDbCircle
 10
265.22064199999988
 20
-95.16172800000004
 40
19.27970400000041
100
AcDbArc
 50
-9.77781600000058
 51
0.58212399999935
  0
ARC
  5
34C
100
AcDbEntity
  8
LC-001-002-----0
  6
CONTINUOUS
 62
             7
100
AcDbCircle
 10
279.50532099999992
 20
-97.64275300000008
 40
4.78121799999962
100
AcDbArc
 50
-22.85484099999418
 51
-9.54956000000454
  0
ARC
  5
34B
100
AcDbEntity
  8
LC-001-002-----0
  6
CONTINUOUS
 62
             7
100
AcDbCircle
 10
283.41153700000001
 20
-99.37681500000008
 40
0.51454299999943
100
AcDbArc
 50
-74.7872530000038
 51
-13.82490799995161
  0
ARC
  5
34A
100
AcDbEntity
  8
LC-001-002-----0
  6
CONTINUOUS
 62
             7
100
AcDbCircle
 10
283.32398699999987
 20
-86.03467499999988
 40
0.91137299999967
100
AcDbArc
 50
10.43749999997149
 51
75.8651840000212
  0
ARC
  5
349
100
AcDbEntity
  8
LC-001-002-----0
  6
CONTINUOUS
 62
             7
100
AcDbCircle
 10
279.50349299999999
 20
-87.51819999999998
 40
4.99660499999994
100
AcDbArc
 50
-0.99106399999961
 51
19.26577000000518
  0
ARC
  5
348
100
AcDbEntity
  8
LC-001-002-----0
  6
CONTINUOUS
 62
             7
100
AcDbCircle
 10
279.50345199999998
 20
-87.69106099999999
 40
4.9966460000004
100
AcDbArc
 50
-19.2655110000032
 51
0.99120999999631
  0
ARC
  5
347
100
AcDbEntity
  8
LC-001-002-----0
  6
CONTINUOUS
 62
             7
100
AcDbCircle
 10
283.32397099999997
 20
-89.174577
 40
0.9113940000001
100
AcDbArc
 50
-75.86400200000524
 51
-10.43739499998867
  0
ARC
  5
346
100
AcDbEntity
  8
LC-001-002-----0
  6
CONTINUOUS
 62
             7
100
AcDbCircle
 10
278.67471299999988
 20
63.5643070000001
 40
0.91137099999977
100
AcDbArc
 50
-169.56249999998113
 51
-104.13472999996114
  0
ARC
  5
345
100
AcDbEntity
  8
LC-001-002-----0
  6
CONTINUOUS
 62
             7
100
AcDbCircle
 10
282.495206
 20
65.04783300000008
 40
4.99660300000036
100
AcDbArc
 50
179.00893999999877
 51
-160.73421600000518
  0
ARC
  5
344
100
AcDbEntity
  8
LC-001-002-----0
  6
CONTINUOUS
 62
             7
100
AcDbCircle
 10
282.49525
 20
65.22069400000009
 40
4.99664699999989
100
AcDbArc
 50
160.73449500000265
 51
-179.00878399999579
  0
ARC
  5
343
100
AcDbEntity
  8
LC-001-002-----0
  6
CONTINUOUS
 62
             7
100
AcDbCircle
 10
278.67473000000001
 20
66.70420899999999
 40
0.91139400000038
100
AcDbArc
 50
104.13600199996355
 51
169.56261300001529
  0
ARC
  5
342
100
AcDbEntity
  8
LC-001-002-----0
  6
CONTINUOUS
 62
             7
100
AcDbCircle
 10
278.58716299999998
 20
68.08451800000012
 40
0.51454300000018
100
AcDbArc
 50
-166.17509200005446
 51
-105.21274700000734
  0
ARC
  5
341
100
AcDbEntity
  8
LC-001-002-----0
  6
CONTINUOUS
 62
             7
100
AcDbCircle
 10
282.49338
 20
69.818579
 40
4.78121800000001
100
AcDbArc
 50
-170.4504400000061
 51
-157.14515900000333
  0
ARC
  5
340
100
AcDbEntity
  8
LC-001-002-----0
  6
CONTINUOUS
 62
             7
100
AcDbCircle
 10
296.77805899999993
 20
72.29960500000016
 40
19.27970400000032
100
AcDbArc
 50
179.41787600000063
 51
-170.22218399999872
  0
ARC
  5
33F
100
AcDbEntity
  8
LC-001-002-----0
  6
CONTINUOUS
 62
             7
100
AcDbCircle
 10
296.77805899999993
 20
72.69136000000003
 40
19.2797040000003
100
AcDbArc
 50
170.22218399999937
 51
-179.41787599999998
  0
ARC
  5
33E
100
AcDbEntity
  8
LC-001-002-----0
  6
CONTINUOUS
 62
             7
100
AcDbCircle
 10
282.49338
 20
75.17238599999996
 40
4.78121799999971
100
AcDbArc
 50
157.14515900000333
 51
170.4504400000061
  0
ARC
  5
33D
100
AcDbEntity
  8
LC-001-002-----0
  6
CONTINUOUS
 62
             7
100
AcDbCircle
 10
278.58716299999998
 20
76.90644699999984
 40
0.51454299999993
100
AcDbArc
 50
105.21274700000734
 51
166.17509200002988
  0
ARC
  5
33C
100
AcDbEntity
  8
LC-001-002-----0
  6
CONTINUOUS
 62
             7
100
AcDbCircle
 10
278.67473000000001
 20
78.28675599999997
 40
0.91139399999951
100
AcDbArc
 50
-169.56260500001071
 51
-104.13599800001211
  0
ARC
  5
33B
100
AcDbEntity
  8
LC-001-002-----0
  6
CONTINUOUS
 62
             7
100
AcDbCircle
 10
282.495249
 20
79.77027099999987
 40
4.99664600000045
100
AcDbArc
 50
179.00879000000108
 51
-160.73448899999929
  0
ARC
  5
33A
100
AcDbEntity
  8
LC-001-002-----0
  6
CONTINUOUS
 62
             7
100
AcDbCircle
 10
282.49520799999999
 20
79.94313199999988
 40
4.99660499999994
100
AcDbArc
 50
160.73422999999462
 51
-179.00893600000302
  0
ARC
  5
339
100
AcDbEntity
  8
LC-001-002-----0
  6
CONTINUOUS
 62
             7
100
AcDbCircle
 10
278.67471399999988
 20
81.42665699999998
 40
0.9113730000002
100
AcDbArc
 50
104.13481599996148
 51
169.5625000000253
  0
ARC
  5
338
100
AcDbEntity
  8
LC-001-002-----0
  6
CONTINUOUS
 62
             7
100
AcDbCircle
 10
283.32397099999997
 20
66.70420899999999
 40
0.91139399999998
100
AcDbArc
 50
10.43738699998472
 51
75.86399799997754
  0
ARC
  5
337
100
AcDbEntity
  8
LC-001-002-----0
  6
CONTINUOUS
 62
             7
100
AcDbCircle
 10
279.50345099999998
 20
65.22069400000009
 40
4.99664699999981
100
AcDbArc
 50
-0.99121600000423
 51
19.26550499999714
  0
ARC
  5
336
100
AcDbEntity
  8
LC-001-002-----0
  6
CONTINUOUS
 62
             7
100
AcDbCircle
 10
279.50349499999999
 20
65.04783300000008
 40
4.99660299999992
100
AcDbArc
 50
-19.26578399999505
 51
0.99106000000125
  0
ARC
  5
335
100
AcDbEntity
  8
LC-001-002-----0
  6
CONTINUOUS
 62
             7
100
AcDbCircle
 10
283.32398799999987
 20
63.5643070000001
 40
0.91137100000031
100
AcDbArc
 50
-75.86527000002155
 51
-10.43750000001631
  0
ARC
  5
334
100
AcDbEntity
  8
LC-001-002-----0
  6
CONTINUOUS
 62
             7
100
AcDbCircle
 10
283.32398699999987
 20
81.42665699999998
 40
0.91137299999967
100
AcDbArc
 50
10.43749999997149
 51
75.8651840000212
  0
ARC
  5
333
100
AcDbEntity
  8
LC-001-002-----0
  6
CONTINUOUS
 62
             7
100
AcDbCircle
 10
279.50349299999999
 20
79.94313199999988
 40
4.99660499999994
100
AcDbArc
 50
-0.99106399999701
 51
19.26577000000518
  0
ARC
  5
332
100
AcDbEntity
  8
LC-001-002-----0
  6
CONTINUOUS
 62
             7
100
AcDbCircle
 10
279.50345199999998
 20
79.77027099999987
 40
4.99664600000032
100
AcDbArc
 50
-19.26551100000074
 51
0.99120999999891
  0
ARC
  5
331
100
AcDbEntity
  8
LC-001-002-----0
  6
CONTINUOUS
 62
             7
100
AcDbCircle
 10
283.32397099999997
 20
78.28675599999997
 40
0.91139399999988
100
AcDbArc
 50
-75.86400200000176
 51
-10.43739499998867
  0
ARC
  5
330
100
AcDbEntity
  8
LC-001-002-----0
  6
CONTINUOUS
 62
             7
100
AcDbCircle
 10
313.32397099999997
 20
66.70420899999999
 40
0.91139399999998
100
AcDbArc
 50
10.43738699998472
 51
75.86399799997754
  0
ARC
  5
32F
100
AcDbEntity
  8
LC-001-002-----0
  6
CONTINUOUS
 62
             7
100
AcDbCircle
 10
309.50345099999998
 20
65.22069400000009
 40
4.99664699999981
100
AcDbArc
 50
-0.99121600000423
 51
19.26550499999714
  0
ARC
  5
32E
100
AcDbEntity
  8
LC-001-002-----0
  6
CONTINUOUS
 62
             7
100
AcDbCircle
 10
309.50349499999999
 20
65.04783300000008
 40
4.99660299999992
100
AcDbArc
 50
-19.26578399999505
 51
0.99106000000125
  0
ARC
  5
32D
100
AcDbEntity
  8
LC-001-002-----0
  6
CONTINUOUS
 62
             7
100
AcDbCircle
 10
313.32398799999987
 20
63.5643070000001
 40
0.91137100000031
100
AcDbArc
 50
-75.86527000002155
 51
-10.43750000001631
  0
ARC
  5
32C
100
AcDbEntity
  8
LC-001-002-----0
  6
CONTINUOUS
 62
             7
100
AcDbCircle
 10
313.41153700000001
 20
76.90644699999984
 40
0.51454300000001
100
AcDbArc
 50
13.82490799997619
 51
74.78725300001709
  0
ARC
  5
32B
100
AcDbEntity
  8
LC-001-002-----0
  6
CONTINUOUS
 62
             7
100
AcDbCircle
 10
309.50532099999992
 20
75.17238599999996
 40
4.78121800000007
100
AcDbArc
 50
9.5495599999938
 51
22.85484099999669
  0
ARC
  5
32A
100
AcDbEntity
  8
LC-001-002-----0
  6
CONTINUOUS
 62
             7
100
AcDbCircle
 10
295.22064199999988
 20
72.69136000000003
 40
19.2797040000005
100
AcDbArc
 50
-0.58212400000003
 51
9.77781600000058
  0
ARC
  5
329
100
AcDbEntity
  8
LC-001-002-----0
  6
CONTINUOUS
 62
             7
100
AcDbCircle
 10
295.22064199999988
 20
72.29960500000016
 40
19.27970400000045
100
AcDbArc
 50
-9.77781600000125
 51
0.58212399999935
  0
ARC
  5
328
100
AcDbEntity
  8
LC-001-002-----0
  6
CONTINUOUS
 62
             7
100
AcDbCircle
 10
309.50532099999992
 20
69.818579
 40
4.78121799999971
100
AcDbArc
 50
-22.85484099999669
 51
-9.5495599999938
  0
ARC
  5
327
100
AcDbEntity
  8
LC-001-002-----0
  6
CONTINUOUS
 62
             7
100
AcDbCircle
 10
313.41153700000001
 20
68.08451800000012
 40
0.51454299999987
100
AcDbArc
 50
-74.78725300001709
 51
-13.82490799995161
  0
ARC
  5
326
100
AcDbEntity
  8
LC-001-002-----0
  6
CONTINUOUS
 62
             7
100
AcDbCircle
 10
313.32398699999987
 20
81.42665699999998
 40
0.91137299999967
100
AcDbArc
 50
10.43749999997149
 51
75.8651840000212
  0
ARC
  5
325
100
AcDbEntity
  8
LC-001-002-----0
  6
CONTINUOUS
 62
             7
100
AcDbCircle
 10
309.50349299999999
 20
79.94313199999988
 40
4.99660499999994
100
AcDbArc
 50
-0.99106399999701
 51
19.26577000000518
  0
ARC
  5
324
100
AcDbEntity
  8
LC-001-002-----0
  6
CONTINUOUS
 62
             7
100
AcDbCircle
 10
309.50345199999998
 20
79.77027099999987
 40
4.99664600000032
100
AcDbArc
 50
-19.26551100000074
 51
0.99120999999891
  0
ARC
  5
323
100
AcDbEntity
  8
LC-001-002-----0
  6
CONTINUOUS
 62
             7
100
AcDbCircle
 10
313.32397099999997
 20
78.28675599999997
 40
0.91139399999988
100
AcDbArc
 50
-75.86400200000176
 51
-10.43739499998867
  0
ARC
  5
322
100
AcDbEntity
  8
LC-002-002-RND-0
  6
CONTINUOUS
 62
             7
100
AcDbCircle
 10
474.49958800000002
 20
95.02102400000013
 40
0.5
100
AcDbArc
 50
-90.0
 51
0.0
  0
ARC
  5
321
100
AcDbEntity
  8
LC-002-002-RND-0
  6
CONTINUOUS
 62
             7
100
AcDbCircle
 10
455.49958800000002
 20
95.02102400000013
 40
0.5
100
AcDbArc
 50
180.0
 51
-90.0
  0
ARC
  5
320
100
AcDbEntity
  8
LC-002-002-RND-0
  6
CONTINUOUS
 62
             7
100
AcDbCircle
 10
474.49958800000002
 20
102.0210240000001
 40
0.5
100
AcDbArc
 50
0.0
 51
90.0
  0
ARC
  5
31F
100
AcDbEntity
  8
LC-002-002-RND-0
  6
CONTINUOUS
 62
             7
100
AcDbCircle
 10
455.49958800000002
 20
102.0210240000001
 40
0.5
100
AcDbArc
 50
90.0
 51
180.0
  0
ARC
  5
31E
100
AcDbEntity
  8
LC-002-002-RND-0
  6
CONTINUOUS
 62
             7
100
AcDbCircle
 10
474.49958800000002
 20
94.02102400000013
 40
0.5
100
AcDbArc
 50
0.0
 51
90.0
  0
ARC
  5
31D
100
AcDbEntity
  8
LC-002-002-RND-0
  6
CONTINUOUS
 62
             7
100
AcDbCircle
 10
455.49958800000002
 20
94.02102400000013
 40
0.5
100
AcDbArc
 50
90.0
 51
180.0
  0
ARC
  5
31C
100
AcDbEntity
  8
LC-002-002-RND-0
  6
CONTINUOUS
 62
             7
100
AcDbCircle
 10
455.49958800000002
 20
87.02102400000013
 40
0.5
100
AcDbArc
 50
180.0
 51
-90.0
  0
ARC
  5
31B
100
AcDbEntity
  8
LC-002-002-RND-0
  6
CONTINUOUS
 62
             7
100
AcDbCircle
 10
474.49958800000002
 20
87.02102400000013
 40
0.5
100
AcDbArc
 50
-90.0
 51
0.0
  0
ARC
  5
31A
100
AcDbEntity
  8
LC-002-002-RND-0
  6
CONTINUOUS
 62
             7
100
AcDbCircle
 10
351.49957899999998
 20
95.02000799999996
 40
0.5
100
AcDbArc
 50
-90.0
 51
0.0
  0
ARC
  5
319
100
AcDbEntity
  8
LC-002-002-RND-0
  6
CONTINUOUS
 62
             7
100
AcDbCircle
 10
332.49957899999998
 20
95.02000799999996
 40
0.5
100
AcDbArc
 50
180.0
 51
-90.0
  0
ARC
  5
318
100
AcDbEntity
  8
LC-002-002-RND-0
  6
CONTINUOUS
 62
             7
100
AcDbCircle
 10
351.49957899999998
 20
102.020008
 40
0.5
100
AcDbArc
 50
0.0
 51
90.0
  0
ARC
  5
317
100
AcDbEntity
  8
LC-002-002-RND-0
  6
CONTINUOUS
 62
             7
100
AcDbCircle
 10
332.49957899999998
 20
102.020008
 40
0.5
100
AcDbArc
 50
90.0
 51
180.0
  0
ARC
  5
316
100
AcDbEntity
  8
LC-002-002-RND-0
  6
CONTINUOUS
 62
             7
100
AcDbCircle
 10
351.49957899999998
 20
94.02000799999996
 40
0.5
100
AcDbArc
 50
0.0
 51
90.0
  0
ARC
  5
315
100
AcDbEntity
  8
LC-002-002-RND-0
  6
CONTINUOUS
 62
             7
100
AcDbCircle
 10
332.49957899999998
 20
94.02000799999996
 40
0.5
100
AcDbArc
 50
90.0
 51
180.0
  0
ARC
  5
314
100
AcDbEntity
  8
LC-002-002-RND-0
  6
CONTINUOUS
 62
             7
100
AcDbCircle
 10
332.49957899999998
 20
87.02000799999996
 40
0.5
100
AcDbArc
 50
180.0
 51
-90.0
  0
ARC
  5
313
100
AcDbEntity
  8
LC-002-002-RND-0
  6
CONTINUOUS
 62
             7
100
AcDbCircle
 10
351.49957899999998
 20
87.02000799999996
 40
0.5
100
AcDbArc
 50
-90.0
 51
0.0
  0
ARC
  5
312
100
AcDbEntity
  8
LC-002-002-RND-0
  6
CONTINUOUS
 62
             7
100
AcDbCircle
 10
260.49981999999989
 20
104.9615159999999
 40
0.5
100
AcDbArc
 50
-90.0
 51
0.0
  0
ARC
  5
311
100
AcDbEntity
  8
LC-002-002-RND-0
  6
CONTINUOUS
 62
             7
100
AcDbCircle
 10
241.49981999999989
 20
104.9615159999999
 40
0.5
100
AcDbArc
 50
180.0
 51
-90.0
  0
ARC
  5
310
100
AcDbEntity
  8
LC-002-002-RND-0
  6
CONTINUOUS
 62
             7
100
AcDbCircle
 10
260.49981999999989
 20
111.9615159999999
 40
0.5
100
AcDbArc
 50
0.0
 51
90.0
  0
ARC
  5
30F
100
AcDbEntity
  8
LC-002-002-RND-0
  6
CONTINUOUS
 62
             7
100
AcDbCircle
 10
241.49981999999989
 20
111.9615159999999
 40
0.5
100
AcDbArc
 50
90.0
 51
180.0
  0
ARC
  5
30E
100
AcDbEntity
  8
LC-002-002-RND-0
  6
CONTINUOUS
 62
             7
100
AcDbCircle
 10
260.49981999999989
 20
103.9615159999999
 40
0.5
100
AcDbArc
 50
0.0
 51
90.0
  0
ARC
  5
30D
100
AcDbEntity
  8
LC-002-002-RND-0
  6
CONTINUOUS
 62
             7
100
AcDbCircle
 10
241.49981999999989
 20
103.9615159999999
 40
0.5
100
AcDbArc
 50
90.0
 51
180.0
  0
ARC
  5
30C
100
AcDbEntity
  8
LC-002-002-RND-0
  6
CONTINUOUS
 62
             7
100
AcDbCircle
 10
241.49981999999989
 20
96.96151599999985
 40
0.5
100
AcDbArc
 50
180.0
 51
-90.0
  0
ARC
  5
30B
100
AcDbEntity
  8
LC-002-002-RND-0
  6
CONTINUOUS
 62
             7
100
AcDbCircle
 10
260.49981999999989
 20
96.96151599999985
 40
0.5
100
AcDbArc
 50
-90.0
 51
0.0
  0
ARC
  5
30A
100
AcDbEntity
  8
LC-002-002-RND-0
  6
CONTINUOUS
 62
             7
100
AcDbCircle
 10
297.99934999999999
 20
-87.21575500000017
 40
1.0
100
AcDbArc
 50
90.0
 51
180.0
  0
ARC
  5
309
100
AcDbEntity
  8
LC-002-002-RND-0
  6
CONTINUOUS
 62
             7
100
AcDbCircle
 10
297.99934999999999
 20
-102.7157549999999
 40
1.0
100
AcDbArc
 50
180.0
 51
-90.0
  0
ARC
  5
308
100
AcDbEntity
  8
LC-002-002-RND-0
  6
CONTINUOUS
 62
             7
100
AcDbCircle
 10
297.99934999999999
 20
80.24548200000004
 40
1.0
100
AcDbArc
 50
90.0
 51
180.0
  0
ARC
  5
307
100
AcDbEntity
  8
LC-002-002-RND-0
  6
CONTINUOUS
 62
             7
100
AcDbCircle
 10
297.99934999999999
 20
64.74548200000004
 40
1.0
100
AcDbArc
 50
180.0
 51
-90.0
  0
ARC
  5
306
100
AcDbEntity
  8
LC-002-002-RND-0
  6
CONTINUOUS
 62
             7
100
AcDbCircle
 10
301.99934999999999
 20
81.99250200000006
 40
1.0
100
AcDbArc
 50
90.0
 51
180.0
  0
ARC
  5
305
100
AcDbEntity
  8
LC-002-002-RND-0
  6
CONTINUOUS
 62
             7
100
AcDbCircle
 10
301.99934999999999
 20
-105.9657549999999
 40
1.0
100
AcDbArc
 50
180.0
 51
-90.0
  0
ARC
  5
304
100
AcDbEntity
  8
LC-002-002-RND-0
  6
CONTINUOUS
 62
             7
100
AcDbCircle
 10
291.99934999999999
 20
-105.9657569999999
 40
1.0
100
AcDbArc
 50
-90.0
 51
0.0
  0
ARC
  5
303
100
AcDbEntity
  8
LC-002-002-RND-0
  6
CONTINUOUS
 62
             7
100
AcDbCircle
 10
295.99934999999999
 20
-102.7157549999999
 40
1.0
100
AcDbArc
 50
-90.0
 51
0.0
  0
ARC
  5
302
100
AcDbEntity
  8
LC-002-002-RND-0
  6
CONTINUOUS
 62
             7
100
AcDbCircle
 10
295.99934999999999
 20
-87.21575500000017
 40
1.0
100
AcDbArc
 50
0.0
 51
90.0
  0
ARC
  5
301
100
AcDbEntity
  8
LC-002-002-RND-0
  6
CONTINUOUS
 62
             7
100
AcDbCircle
 10
295.99934999999999
 20
64.74548200000004
 40
1.0
100
AcDbArc
 50
-90.0
 51
0.0
  0
ARC
  5
300
100
AcDbEntity
  8
LC-002-002-RND-0
  6
CONTINUOUS
 62
             7
100
AcDbCircle
 10
291.99934999999999
 20
81.99548200000004
 40
1.0
100
AcDbArc
 50
0.0
 51
90.0
  0
ARC
  5
2FF
100
AcDbEntity
  8
LC-002-002-RND-0
  6
CONTINUOUS
 62
             7
100
AcDbCircle
 10
295.99934999999999
 20
80.24548200000004
 40
1.0
100
AcDbArc
 50
0.0
 51
90.0
  0
LINE
  5
2FE
100
AcDbEntity
  8
LC-001-002-----0
  6
CONTINUOUS
 62
             7
100
AcDbLine
 10
107.697822226572
 20
135.82785950469091
 11
107.691815077649
 21
135.82535542899501
  0
ARC
  5
2FD
100
AcDbEntity
  8
LC-002-002-RND-0
  6
CONTINUOUS
 62
             7
100
AcDbCircle
 10
137.49981099999999
 20
104.9605000000001
 40
0.5
100
AcDbArc
 50
-90.0
 51
0.0
  0
ARC
  5
2FC
100
AcDbEntity
  8
LC-002-002-RND-0
  6
CONTINUOUS
 62
             7
100
AcDbCircle
 10
118.49981099999999
 20
104.9605000000001
 40
0.5
100
AcDbArc
 50
180.0
 51
-90.0
  0
ARC
  5
2FB
100
AcDbEntity
  8
LC-002-002-RND-0
  6
CONTINUOUS
 62
             7
100
AcDbCircle
 10
137.49981099999999
 20
111.9605000000001
 40
0.5
100
AcDbArc
 50
0.0
 51
90.0
  0
ARC
  5
2FA
100
AcDbEntity
  8
LC-002-002-RND-0
  6
CONTINUOUS
 62
             7
100
AcDbCircle
 10
118.49981099999999
 20
111.9605000000001
 40
0.5
100
AcDbArc
 50
90.0
 51
180.0
  0
ARC
  5
2F9
100
AcDbEntity
  8
LC-002-002-RND-0
  6
CONTINUOUS
 62
             7
100
AcDbCircle
 10
137.49981099999999
 20
103.9605000000001
 40
0.5
100
AcDbArc
 50
0.0
 51
90.0
  0
ARC
  5
2F8
100
AcDbEntity
  8
LC-002-002-RND-0
  6
CONTINUOUS
 62
             7
100
AcDbCircle
 10
118.49981099999999
 20
103.9605000000001
 40
0.5
100
AcDbArc
 50
90.0
 51
180.0
  0
ARC
  5
2F7
100
AcDbEntity
  8
LC-002-002-RND-0
  6
CONTINUOUS
 62
             7
100
AcDbCircle
 10
118.49981099999999
 20
96.96050000000014
 40
0.5
100
AcDbArc
 50
180.0
 51
-90.0
  0
ARC
  5
2F6
100
AcDbEntity
  8
LC-002-002-RND-0
  6
CONTINUOUS
 62
             7
100
AcDbCircle
 10
137.49981099999999
 20
96.96050000000014
 40
0.5
100
AcDbArc
 50
-90.0
 51
0.0
  0
ARC
  5
2F5
100
AcDbEntity
  8
LC-001-002-----0
  6
CONTINUOUS
 62
             7
100
AcDbCircle
 10
246.49981999999989
 20
136.845024
 40
2.00000000000038
100
AcDbArc
 50
-79.66005099999966
 51
0.0
  0
ARC
  5
2F4
100
AcDbEntity
  8
LC-001-002-----0
  6
CONTINUOUS
 62
             7
100
AcDbCircle
 10
239.49981999999989
 20
100.2116759999999
 40
41.0000000000006
100
AcDbArc
 50
79.66010899999934
 51
100.33989100000035
  0
ARC
  5
2F3
100
AcDbEntity
  8
LC-001-002-----0
  6
CONTINUOUS
 62
             7
100
AcDbCircle
 10
232.49981999999989
 20
138.57832800000011
 40
1.99999999999918
100
AcDbArc
 50
100.33987199999225
 51
180.0
  0
ARC
  5
2F2
100
AcDbEntity
  8
LC-001-002-----0
  6
CONTINUOUS
 62
             7
100
AcDbCircle
 10
239.49981999999989
 20
175.2116759999999
 40
41.00000000000006
100
AcDbArc
 50
-100.33989100000048
 51
-79.66005099999941
  0
ARC
  5
2F1
100
AcDbEntity
  8
LC-001-002-----0
  6
CONTINUOUS
 62
             7
100
AcDbCircle
 10
232.49981999999989
 20
136.845024
 40
2.0
100
AcDbArc
 50
180.0
 51
-100.34004300000099
  0
ARC
  5
2F0
100
AcDbEntity
  8
LC-001-002-----0
  6
CONTINUOUS
 62
             7
100
AcDbCircle
 10
232.49981999999989
 20
138.741908
 40
2.00000000000002
100
AcDbArc
 50
106.72678199999733
 51
180.0
  0
ARC
  5
2EF
100
AcDbEntity
  8
LC-001-002-----0
  6
CONTINUOUS
 62
             7
100
AcDbCircle
 10
232.49981999999989
 20
136.6814439999998
 40
2.0
100
AcDbArc
 50
180.0
 51
-106.72695299998473
  0
ARC
  5
2EE
100
AcDbEntity
  8
LC-001-002-----0
  6
CONTINUOUS
 62
             7
100
AcDbCircle
 10
262.50001300000002
 20
100.2118420000002
 40
40.99999999999969
100
AcDbArc
 50
79.66007200000054
 51
100.33983499999945
  0
ARC
  5
2ED
100
AcDbEntity
  8
LC-001-002-----0
  6
CONTINUOUS
 62
             7
100
AcDbCircle
 10
255.50003799999999
 20
138.57849899999999
 40
1.99999999999981
100
AcDbArc
 50
100.33983500000815
 51
179.99996299998716
  0
ARC
  5
2EC
100
AcDbEntity
  8
LC-001-002-----0
  6
CONTINUOUS
 62
             7
100
AcDbCircle
 10
255.50003699999999
 20
136.84519399999999
 40
2.00000000000042
100
AcDbArc
 50
179.99996299999285
 51
-100.34000499998804
  0
ARC
  5
2EB
100
AcDbEntity
  8
LC-001-002-----0
  6
CONTINUOUS
 62
             7
100
AcDbCircle
 10
262.50006200000001
 20
175.21184200000019
 40
40.99999999999974
100
AcDbArc
 50
-100.34008000000078
 51
-79.66014699999944
  0
ARC
  5
2EA
100
AcDbEntity
  8
LC-001-002-----0
  6
CONTINUOUS
 62
             7
100
AcDbCircle
 10
269.50003800000002
 20
138.5784899999999
 40
2.00000000000042
100
AcDbArc
 50
-0.00003700000714
 51
79.65999700000268
  0
ARC
  5
2E9
100
AcDbEntity
  8
LC-001-002-----0
  6
CONTINUOUS
 62
             7
100
AcDbCircle
 10
250.99981999999989
 20
77.18282999999997
 40
66.27884599999943
100
AcDbArc
 50
73.27319900000026
 51
106.72678199999955
  0
ARC
  5
2E8
100
AcDbEntity
  8
LC-001-002-----0
  6
CONTINUOUS
 62
             7
100
AcDbCircle
 10
269.49981999999989
 20
138.741908
 40
2.0
100
AcDbArc
 50
0.0
 51
73.27319899998857
  0
ARC
  5
2E7
100
AcDbEntity
  8
LC-001-002-----0
  6
CONTINUOUS
 62
             7
100
AcDbCircle
 10
269.50003700000002
 20
136.8451850000001
 40
1.9999999999999
100
AcDbArc
 50
-79.66008799999447
 51
-0.00003700001284
  0
ARC
  5
2E6
100
AcDbEntity
  8
LC-001-002-----0
  6
CONTINUOUS
 62
             7
100
AcDbCircle
 10
250.99981999999989
 20
198.24052200000011
 40
66.278846
100
AcDbArc
 50
-106.72695300000007
 51
-73.2731990000005
  0
ARC
  5
2E5
100
AcDbEntity
  8
LC-001-002-----0
  6
CONTINUOUS
 62
             7
100
AcDbCircle
 10
269.49981999999989
 20
136.6814439999998
 40
2.00000000000012
100
AcDbArc
 50
-73.27313999999495
 51
0.0
  0
ARC
  5
2E4
100
AcDbEntity
  8
LC-001-002-----0
  6
CONTINUOUS
 62
             7
100
AcDbCircle
 10
246.49981999999989
 20
138.57832800000011
 40
2.0
100
AcDbArc
 50
0.0
 51
79.66010899999078
  0
ARC
  5
2E3
100
AcDbEntity
  8
LC-001-002-----0
  6
CONTINUOUS
 62
             7
100
AcDbCircle
 10
249.49981999999989
 20
139.2116759999999
 40
1.0
100
AcDbArc
 50
90.0
 51
179.99984800002119
  0
ARC
  5
2E2
100
AcDbEntity
  8
LC-001-002-----0
  6
CONTINUOUS
 62
             7
100
AcDbCircle
 10
252.49981999999989
 20
139.2116759999999
 40
1.0
100
AcDbArc
 50
0.0
 51
90.0
  0
ARC
  5
2E1
100
AcDbEntity
  8
LC-001-002-----0
  6
CONTINUOUS
 62
             7
100
AcDbCircle
 10
252.49981999999989
 20
136.2116759999999
 40
0.9999999999994
100
AcDbArc
 50
-89.99994199999188
 51
0.0
  0
ARC
  5
2E0
100
AcDbEntity
  8
LC-001-002-----0
  6
CONTINUOUS
 62
             7
100
AcDbCircle
 10
249.49981999999989
 20
136.2116759999999
 40
1.0
100
AcDbArc
 50
180.0
 51
-89.99994199999188
  0
ARC
  5
2DF
100
AcDbEntity
  8
LC-001-002-----0
  6
CONTINUOUS
 62
             7
100
AcDbCircle
 10
123.49981099999999
 20
136.844008
 40
2.00000000000016
100
AcDbArc
 50
-79.66005100000143
 51
0.0
  0
ARC
  5
2DE
100
AcDbEntity
  8
LC-001-002-----0
  6
CONTINUOUS
 62
             7
100
AcDbCircle
 10
116.49981099999999
 20
100.21066
 40
41.00000000000029
100
AcDbArc
 50
79.66010899999944
 51
100.33989100000055
  0
ARC
  5
2DD
100
AcDbEntity
  8
LC-001-002-----0
  6
CONTINUOUS
 62
             7
100
AcDbCircle
 10
109.49981099999999
 20
138.57731199999989
 40
2.0000000000006
100
AcDbArc
 50
100.33987199998815
 51
180.0
  0
ARC
  5
2DC
100
AcDbEntity
  8
LC-001-002-----0
  6
CONTINUOUS
 62
             7
100
AcDbCircle
 10
116.49981099999999
 20
175.21065999999999
 40
41.00000000000036
100
AcDbArc
 50
-100.33989100000053
 51
-79.66005099999939
  0
ARC
  5
2DB
100
AcDbEntity
  8
LC-001-002-----0
  6
CONTINUOUS
 62
             7
100
AcDbCircle
 10
109.49981099999999
 20
136.844008
 40
2.0
100
AcDbArc
 50
180.0
 51
-100.34004300000095
  0
ARC
  5
2DA
100
AcDbEntity
  8
LC-001-002-----0
  6
CONTINUOUS
 62
             7
100
AcDbCircle
 10
109.49981099999999
 20
138.740892
 40
2.00000000000033
100
AcDbArc
 50
106.72678199999811
 51
180.0
  0
ARC
  5
2D9
100
AcDbEntity
  8
LC-001-002-----0
  6
CONTINUOUS
 62
             7
100
AcDbCircle
 10
109.49981099999999
 20
136.68042800000009
 40
2.0
100
AcDbArc
 50
180.0
 51
-106.72695299998364
  0
ARC
  5
2D8
100
AcDbEntity
  8
LC-001-002-----0
  6
CONTINUOUS
 62
             7
100
AcDbCircle
 10
139.5000039999999
 20
100.210826
 40
41.00000000000001
100
AcDbArc
 50
79.66007200000033
 51
100.33983500000059
  0
ARC
  5
2D7
100
AcDbEntity
  8
LC-001-002-----0
  6
CONTINUOUS
 62
             7
100
AcDbCircle
 10
132.50002900000001
 20
138.577483
 40
1.99999999999981
100
AcDbArc
 50
100.33983500000815
 51
179.99996299999285
  0
ARC
  5
2D6
100
AcDbEntity
  8
LC-001-002-----0
  6
CONTINUOUS
 62
             7
100
AcDbCircle
 10
132.50002799999999
 20
136.8441779999998
 40
2.00000000000042
100
AcDbArc
 50
179.99996299997821
 51
-100.34000499998788
  0
ARC
  5
2D5
100
AcDbEntity
  8
LC-001-002-----0
  6
CONTINUOUS
 62
             7
100
AcDbCircle
 10
139.50005299999989
 20
175.210826
 40
40.99999999999975
100
AcDbArc
 50
-100.34008000000061
 51
-79.66014700000066
  0
ARC
  5
2D4
100
AcDbEntity
  8
LC-001-002-----0
  6
CONTINUOUS
 62
             7
100
AcDbCircle
 10
146.50002900000001
 20
138.57747399999991
 40
2.00000000000042
100
AcDbArc
 50
-0.00003700001366
 51
79.65999700000414
  0
ARC
  5
2D3
100
AcDbEntity
  8
LC-001-002-----0
  6
CONTINUOUS
 62
             7
100
AcDbCircle
 10
127.99981099999999
 20
77.18181400000003
 40
66.27884600000033
100
AcDbArc
 50
73.27319900000049
 51
106.72678199999964
  0
ARC
  5
2D2
100
AcDbEntity
  8
LC-001-002-----0
  6
CONTINUOUS
 62
             7
100
AcDbCircle
 10
146.49981099999999
 20
138.740892
 40
2.0
100
AcDbArc
 50
0.0
 51
73.2731989999955
  0
ARC
  5
2D1
100
AcDbEntity
  8
LC-001-002-----0
  6
CONTINUOUS
 62
             7
100
AcDbCircle
 10
146.50002799999999
 20
136.84416899999999
 40
1.9999999999999
100
AcDbArc
 50
-79.66008799999368
 51
-0.00003700000714
  0
ARC
  5
2D0
100
AcDbEntity
  8
LC-001-002-----0
  6
CONTINUOUS
 62
             7
100
AcDbCircle
 10
127.99981099999999
 20
198.23950599999989
 40
66.27884599999973
100
AcDbArc
 50
-106.72695300000024
 51
-73.27319900000026
  0
ARC
  5
2CF
100
AcDbEntity
  8
LC-001-002-----0
  6
CONTINUOUS
 62
             7
100
AcDbCircle
 10
146.49981099999999
 20
136.68042800000009
 40
2.00000000000058
100
AcDbArc
 50
-73.27313999999895
 51
0.0
  0
ARC
  5
2CE
100
AcDbEntity
  8
LC-001-002-----0
  6
CONTINUOUS
 62
             7
100
AcDbCircle
 10
123.49981099999999
 20
138.57731199999989
 40
2.0
100
AcDbArc
 50
0.0
 51
79.66010899999516
  0
ARC
  5
2CD
100
AcDbEntity
  8
LC-001-002-----0
  6
CONTINUOUS
 62
             7
100
AcDbCircle
 10
126.49981099999999
 20
139.21065999999999
 40
1.0
100
AcDbArc
 50
90.0
 51
179.99984800003747
  0
ARC
  5
2CC
100
AcDbEntity
  8
LC-001-002-----0
  6
CONTINUOUS
 62
             7
100
AcDbCircle
 10
129.49981099999999
 20
139.21065999999999
 40
1.0
100
AcDbArc
 50
0.0
 51
90.0
  0
ARC
  5
2CB
100
AcDbEntity
  8
LC-001-002-----0
  6
CONTINUOUS
 62
             7
100
AcDbCircle
 10
129.49981099999999
 20
136.21065999999999
 40
0.9999999999994
100
AcDbArc
 50
-89.9999419999984
 51
0.0
  0
ARC
  5
2CA
100
AcDbEntity
  8
LC-001-002-----0
  6
CONTINUOUS
 62
             7
100
AcDbCircle
 10
126.49981099999999
 20
136.21065999999999
 40
1.0
100
AcDbArc
 50
180.0
 51
-89.99994199999759
  0
ARC
  5
2C9
100
AcDbEntity
  8
LC-002-002-RND-0
  6
CONTINUOUS
 62
             7
100
AcDbCircle
 10
97.00343699999985
 20
123.9605000000001
 40
2.0
100
AcDbArc
 50
90.00000000000041
 51
180.0
  0
ARC
  5
2C8
100
AcDbEntity
  8
LC-002-002-RND-0
  6
CONTINUOUS
 62
             7
100
AcDbCircle
 10
291.23580800000002
 20
117.4605000000001
 40
3.50000000000004
100
AcDbArc
 50
2.00000000000409
 51
90.0
  0
ARC
  5
2C7
100
AcDbEntity
  8
LC-002-002-RND-0
  6
CONTINUOUS
 62
             7
100
AcDbCircle
 10
87.76348999999999
 20
117.4605000000001
 40
3.5
100
AcDbArc
 50
90.0
 51
177.99999999999599
  0
ARC
  5
2C6
100
AcDbEntity
  8
LC-002-002-RND-0
  6
CONTINUOUS
 62
             7
100
AcDbCircle
 10
282.0029419999999
 20
123.9605000000001
 40
2.0
100
AcDbArc
 50
0.0
 51
90.0
  0
ARC
  5
2C5
100
AcDbEntity
  8
LC-002-002-RND-0
  6
CONTINUOUS
 62
             7
100
AcDbCircle
 10
360.70909499999999
 20
221.4006210000002
 40
1.99999999999983
100
AcDbArc
 50
90.00012600000747
 51
-179.99987399998602
  0
ARC
  5
2C4
100
AcDbEntity
  8
LC-002-002-RND-0
  6
CONTINUOUS
 62
             7
100
AcDbCircle
 10
374.70908400000002
 20
226.58708900000011
 40
2.99999999999946
100
AcDbArc
 50
-84.99987399999945
 51
-11.59436199999429
  0
ARC
  5
2C3
100
AcDbEntity
  8
LC-002-002-RND-0
  6
CONTINUOUS
 62
             7
100
AcDbCircle
 10
373.20908500000002
 20
225.90064900000019
 40
0.5000000000003
100
AcDbArc
 50
-89.99987400006418
 51
0.0001259999293
  0
ARC
  5
2C2
100
AcDbEntity
  8
LC-002-002-RND-0
  6
CONTINUOUS
 62
             7
100
AcDbCircle
 10
360.709091
 20
223.4006210000002
 40
1.99999999999983
100
AcDbArc
 50
90.00012600000747
 51
-179.99987399998602
  0
ARC
  5
2C1
100
AcDbEntity
  8
LC-002-002-RND-0
  6
CONTINUOUS
 62
             7
100
AcDbCircle
 10
370.709293
 20
128.70261400000001
 40
1.99999999999985
100
AcDbArc
 50
-89.99987399999417
 51
0.00012600000747
  0
ARC
  5
2C0
100
AcDbEntity
  8
LC-002-002-RND-0
  6
CONTINUOUS
 62
             7
100
AcDbCircle
 10
360.709293
 20
128.7025920000001
 40
1.99999999999983
100
AcDbArc
 50
-179.99987399999171
 51
-89.99987399999417
  0
ARC
  5
2BF
100
AcDbEntity
  8
LC-002-002-RND-0
  6
CONTINUOUS
 62
             7
100
AcDbCircle
 10
375.70907799999992
 20
229.400654
 40
2.49999999999962
100
AcDbArc
 50
-39.14826200000685
 51
180.0
  0
ARC
  5
2BE
100
AcDbEntity
  8
LC-002-002-RND-0
  6
CONTINUOUS
 62
             7
100
AcDbCircle
 10
375.70907799999992
 20
229.400654
 40
4.00000000000013
100
AcDbArc
 50
-56.43861999999395
 51
85.90395600000275
  0
ARC
  5
2BD
100
AcDbEntity
  8
LC-002-002-RND-0
  6
CONTINUOUS
 62
             7
100
AcDbCircle
 10
371.20907799999992
 20
227.900654
 40
2.0
100
AcDbArc
 50
-90.0
 51
0.0
  0
ARC
  5
2BC
100
AcDbEntity
  8
LC-002-002-RND-0
  6
CONTINUOUS
 62
             7
100
AcDbCircle
 10
360.20907799999992
 20
223.900654
 40
2.0
100
AcDbArc
 50
90.0
 51
180.0
  0
ARC
  5
2BB
100
AcDbEntity
  8
LC-002-002-RND-0
  6
CONTINUOUS
 62
             7
100
AcDbCircle
 10
350.20907799999992
 20
208.900654
 40
2.0
100
AcDbArc
 50
180.0
 51
-90.0
  0
ARC
  5
2BA
100
AcDbEntity
  8
LC-002-002-RND-0
  6
CONTINUOUS
 62
             7
100
AcDbCircle
 10
350.20907799999992
 20
242.400654
 40
2.0
100
AcDbArc
 50
90.0
 51
180.0
  0
ARC
  5
2B9
100
AcDbEntity
  8
LC-002-002-RND-0
  6
CONTINUOUS
 62
             7
100
AcDbCircle
 10
371.20907799999992
 20
242.400654
 40
2.0
100
AcDbArc
 50
0.0
 51
90.0
  0
ARC
  5
2B8
100
AcDbEntity
  8
LC-002-002-RND-0
  6
CONTINUOUS
 62
             7
100
AcDbCircle
 10
377.64398299999999
 20
226.48412500000001
 40
0.49999999999959
100
AcDbArc
 50
-89.55486999996103
 51
-56.43862000001219
  0
ARC
  5
2B7
100
AcDbEntity
  8
LC-002-002-RND-0
  6
CONTINUOUS
 62
             7
100
AcDbCircle
 10
376.20907799999992
 20
236.38277400000021
 40
3.0
100
AcDbArc
 50
180.0
 51
-94.09604400000733
  0
ARC
  5
2B6
100
AcDbEntity
  8
LC-002-002-RND-0
  6
CONTINUOUS
 62
             7
100
AcDbCircle
 10
355.70907799999992
 20
211.17945400000011
 40
1.0
100
AcDbArc
 50
90.0
 51
180.0
  0
ARC
  5
2B5
100
AcDbEntity
  8
LC-002-002-RND-0
  6
CONTINUOUS
 62
             7
100
AcDbCircle
 10
460.49958800000002
 20
126.904532
 40
2.00000000000017
100
AcDbArc
 50
-79.6600510000027
 51
0.0
  0
ARC
  5
2B4
100
AcDbEntity
  8
LC-002-002-RND-0
  6
CONTINUOUS
 62
             7
100
AcDbCircle
 10
453.49958800000002
 20
90.27118399999995
 40
41.00000000000033
100
AcDbArc
 50
79.66010899999947
 51
100.33989100000068
  0
ARC
  5
2B3
100
AcDbEntity
  8
LC-002-002-RND-0
  6
CONTINUOUS
 62
             7
100
AcDbCircle
 10
446.49958800000002
 20
128.63783699999999
 40
1.99999999999942
100
AcDbArc
 50
100.3398719999943
 51
180.0
  0
ARC
  5
2B2
100
AcDbEntity
  8
LC-002-002-RND-0
  6
CONTINUOUS
 62
             7
100
AcDbCircle
 10
453.49958800000002
 20
165.27118400000001
 40
41.00000000000041
100
AcDbArc
 50
-100.33989100000066
 51
-79.66005099999941
  0
ARC
  5
2B1
100
AcDbEntity
  8
LC-002-002-RND-0
  6
CONTINUOUS
 62
             7
100
AcDbCircle
 10
446.49958800000002
 20
126.904532
 40
2.0
100
AcDbArc
 50
180.0
 51
-100.34004300000129
  0
ARC
  5
2B0
100
AcDbEntity
  8
LC-002-002-RND-0
  6
CONTINUOUS
 62
             7
100
AcDbCircle
 10
446.49958800000002
 20
128.80141599999999
 40
2.00000000000035
100
AcDbArc
 50
106.72678199999787
 51
180.0
  0
ARC
  5
2AF
100
AcDbEntity
  8
LC-002-002-RND-0
  6
CONTINUOUS
 62
             7
100
AcDbCircle
 10
446.49958800000002
 20
126.740953
 40
2.0
100
AcDbArc
 50
180.0
 51
-106.72695299998364
  0
ARC
  5
2AE
100
AcDbEntity
  8
LC-002-002-RND-0
  6
CONTINUOUS
 62
             7
100
AcDbCircle
 10
476.49978099999993
 20
90.27135099999987
 40
41.00000000000002
100
AcDbArc
 50
79.66007200000054
 51
100.33983500000052
  0
ARC
  5
2AD
100
AcDbEntity
  8
LC-002-002-RND-0
  6
CONTINUOUS
 62
             7
100
AcDbCircle
 10
469.49980599999998
 20
128.63800699999999
 40
1.99999999999984
100
AcDbArc
 50
100.33983500000801
 51
179.99996299999205
  0
ARC
  5
2AC
100
AcDbEntity
  8
LC-002-002-RND-0
  6
CONTINUOUS
 62
             7
100
AcDbCircle
 10
469.49980499999998
 20
126.9047030000002
 40
2.00000000000042
100
AcDbArc
 50
179.99996299999572
 51
-100.34000499998643
  0
ARC
  5
2AB
100
AcDbEntity
  8
LC-002-002-RND-0
  6
CONTINUOUS
 62
             7
100
AcDbCircle
 10
476.49982999999992
 20
165.2713509999999
 40
40.99999999999974
100
AcDbArc
 50
-100.34008000000063
 51
-79.66014700000069
  0
ARC
  5
2AA
100
AcDbEntity
  8
LC-002-002-RND-0
  6
CONTINUOUS
 62
             7
100
AcDbCircle
 10
483.49980599999998
 20
128.63799800000021
 40
2.00000000000042
100
AcDbArc
 50
-0.0000370000218
 51
79.65999700000107
  0
ARC
  5
2A9
100
AcDbEntity
  8
LC-002-002-RND-0
  6
CONTINUOUS
 62
             7
100
AcDbCircle
 10
464.99958800000002
 20
67.24233800000002
 40
66.27884600000033
100
AcDbArc
 50
73.27319900000049
 51
106.7267819999997
  0
ARC
  5
2A8
100
AcDbEntity
  8
LC-002-002-RND-0
  6
CONTINUOUS
 62
             7
100
AcDbCircle
 10
483.49958800000002
 20
128.80141599999999
 40
2.0
100
AcDbArc
 50
0.0
 51
73.27319899999574
  0
ARC
  5
2A7
100
AcDbEntity
  8
LC-002-002-RND-0
  6
CONTINUOUS
 62
             7
100
AcDbCircle
 10
483.49980499999998
 20
126.90469399999979
 40
1.99999999999991
100
AcDbArc
 50
-79.66008799999287
 51
-0.00003700000429
  0
ARC
  5
2A6
100
AcDbEntity
  8
LC-002-002-RND-0
  6
CONTINUOUS
 62
             7
100
AcDbCircle
 10
464.99958800000002
 20
188.30003099999999
 40
66.27884599999973
100
AcDbArc
 50
-106.72695300000024
 51
-73.27319900000049
  0
ARC
  5
2A5
100
AcDbEntity
  8
LC-002-002-RND-0
  6
CONTINUOUS
 62
             7
100
AcDbCircle
 10
483.49958800000002
 20
126.740953
 40
2.0000000000004
100
AcDbArc
 50
-73.27313999999743
 51
0.0
  0
ARC
  5
2A4
100
AcDbEntity
  8
LC-002-002-RND-0
  6
CONTINUOUS
 62
             7
100
AcDbCircle
 10
460.49958800000002
 20
128.63783699999999
 40
2.0
100
AcDbArc
 50
0.0
 51
79.66010899999414
  0
ARC
  5
2A3
100
AcDbEntity
  8
LC-002-002-RND-0
  6
CONTINUOUS
 62
             7
100
AcDbCircle
 10
463.49958800000002
 20
129.27118400000001
 40
1.0
100
AcDbArc
 50
90.0
 51
179.99984800002608
  0
ARC
  5
2A2
100
AcDbEntity
  8
LC-002-002-RND-0
  6
CONTINUOUS
 62
             7
100
AcDbCircle
 10
466.49958800000002
 20
129.27118400000001
 40
1.0
100
AcDbArc
 50
0.0
 51
90.0
  0
ARC
  5
2A1
100
AcDbEntity
  8
LC-002-002-RND-0
  6
CONTINUOUS
 62
             7
100
AcDbCircle
 10
466.49958800000002
 20
126.27118400000001
 40
0.99999999999942
100
AcDbArc
 50
-89.99994200000002
 51
0.0
  0
ARC
  5
2A0
100
AcDbEntity
  8
LC-002-002-RND-0
  6
CONTINUOUS
 62
             7
100
AcDbCircle
 10
463.49958800000002
 20
126.27118400000001
 40
1.0
100
AcDbArc
 50
180.0
 51
-89.99994200000002
  0
ARC
  5
29F
100
AcDbEntity
  8
LC-001-002-----0
  6
CONTINUOUS
 62
             7
100
AcDbCircle
 10
337.49957899999998
 20
126.9035159999999
 40
2.00000000000016
100
AcDbArc
 50
-79.66005100000102
 51
0.0
  0
ARC
  5
29E
100
AcDbEntity
  8
LC-001-002-----0
  6
CONTINUOUS
 62
             7
100
AcDbCircle
 10
330.49957899999998
 20
90.27016800000001
 40
41.00000000000028
100
AcDbArc
 50
79.66010899999938
 51
100.33989100000069
  0
ARC
  5
29D
100
AcDbEntity
  8
LC-001-002-----0
  6
CONTINUOUS
 62
             7
100
AcDbCircle
 10
323.49957899999998
 20
128.63682100000011
 40
1.9999999999992
100
AcDbArc
 50
100.33987199999547
 51
180.0
  0
ARC
  5
29C
100
AcDbEntity
  8
LC-001-002-----0
  6
CONTINUOUS
 62
             7
100
AcDbCircle
 10
330.49957899999998
 20
165.27016800000001
 40
41.00000000000031
100
AcDbArc
 50
-100.33989100000069
 51
-79.66005099999943
  0
ARC
  5
29B
100
AcDbEntity
  8
LC-001-002-----0
  6
CONTINUOUS
 62
             7
100
AcDbCircle
 10
323.49957899999998
 20
126.9035159999999
 40
2.0
100
AcDbArc
 50
180.0
 51
-100.34004300000187
  0
ARC
  5
29A
100
AcDbEntity
  8
LC-001-002-----0
  6
CONTINUOUS
 62
             7
100
AcDbCircle
 10
323.49957899999998
 20
128.80040000000011
 40
2.00000000000007
100
AcDbArc
 50
106.726782000002
 51
180.0
  0
ARC
  5
299
100
AcDbEntity
  8
LC-001-002-----0
  6
CONTINUOUS
 62
             7
100
AcDbCircle
 10
323.49957899999998
 20
126.7399369999998
 40
2.0
100
AcDbArc
 50
180.0
 51
-106.72695299998786
  0
ARC
  5
298
100
AcDbEntity
  8
LC-001-002-----0
  6
CONTINUOUS
 62
             7
100
AcDbCircle
 10
353.49977200000001
 20
90.27033500000016
 40
40.99999999999992
100
AcDbArc
 50
82.70020299999958
 51
100.33983500000082
  0
ARC
  5
297
100
AcDbEntity
  8
LC-001-002-----0
  6
CONTINUOUS
 62
             7
100
AcDbCircle
 10
346.499797
 20
128.63699099999991
 40
1.99999999999981
100
AcDbArc
 50
100.33983500000815
 51
179.99996299998716
  0
ARC
  5
296
100
AcDbEntity
  8
LC-001-002-----0
  6
CONTINUOUS
 62
             7
100
AcDbCircle
 10
346.499796
 20
126.90368700000001
 40
2.00000000000042
100
AcDbArc
 50
179.99996299999285
 51
-100.34000499998788
  0
ARC
  5
295
100
AcDbEntity
  8
LC-001-002-----0
  6
CONTINUOUS
 62
             7
100
AcDbCircle
 10
353.49982099999988
 20
165.27033500000019
 40
40.99999999999974
100
AcDbArc
 50
-100.3400800000007
 51
-79.87240428168961
  0
ARC
  5
294
100
AcDbEntity
  8
LC-001-002-----0
  6
CONTINUOUS
 62
             7
100
AcDbCircle
 10
341.99957899999998
 20
67.24132199999986
 40
66.27884599999963
100
AcDbArc
 50
75.39747100000017
 51
106.72678199999959
  0
ARC
  5
293
100
AcDbEntity
  8
LC-001-002-----0
  6
CONTINUOUS
 62
             7
100
AcDbCircle
 10
341.99957899999998
 20
188.29901500000011
 40
66.27884600000006
100
AcDbArc
 50
-106.72695300000025
 51
-73.60319712280725
  0
ARC
  5
292
100
AcDbEntity
  8
LC-001-002-----0
  6
CONTINUOUS
 62
             7
100
AcDbCircle
 10
337.49957899999998
 20
128.63682100000011
 40
2.0
100
AcDbArc
 50
0.0
 51
79.66010899999399
  0
ARC
  5
291
100
AcDbEntity
  8
LC-001-002-----0
  6
CONTINUOUS
 62
             7
100
AcDbCircle
 10
340.49957899999998
 20
129.27016800000001
 40
1.0
100
AcDbArc
 50
90.0
 51
179.99984800002119
  0
ARC
  5
290
100
AcDbEntity
  8
LC-001-002-----0
  6
CONTINUOUS
 62
             7
100
AcDbCircle
 10
343.49957899999998
 20
129.27016800000001
 40
1.0
100
AcDbArc
 50
0.0
 51
90.0
  0
ARC
  5
28F
100
AcDbEntity
  8
LC-001-002-----0
  6
CONTINUOUS
 62
             7
100
AcDbCircle
 10
343.49957899999998
 20
126.270168
 40
0.99999999999962
100
AcDbArc
 50
-89.99994199999676
 51
0.0
  0
ARC
  5
28E
100
AcDbEntity
  8
LC-001-002-----0
  6
CONTINUOUS
 62
             7
100
AcDbCircle
 10
340.49957899999998
 20
126.270168
 40
1.0
100
AcDbArc
 50
180.0
 51
-89.99994199999676
  0
ARC
  5
28D
100
AcDbEntity
  8
LC-002-002-RND-0
  6
CONTINUOUS
 62
             7
100
AcDbCircle
 10
495.94792599999982
 20
114.020008
 40
2.0
100
AcDbArc
 50
0.0
 51
90.0
  0
ARC
  5
28C
100
AcDbEntity
  8
LC-002-002-RND-0
  6
CONTINUOUS
 62
             7
100
AcDbCircle
 10
310.94842099999983
 20
114.020008
 40
2.0
100
AcDbArc
 50
90.0
 51
180.0
  0
ARC
  5
28B
100
AcDbEntity
  8
LC-002-002-RND-0
  6
CONTINUOUS
 62
             7
100
AcDbCircle
 10
375.70907799999992
 20
121.020008
 40
1.0
100
AcDbArc
 50
0.0
 51
90.0
  0
ARC
  5
28A
100
AcDbEntity
  8
LC-002-002-RND-0
  6
CONTINUOUS
 62
             7
100
AcDbCircle
 10
355.70907799999992
 20
121.020008
 40
1.0
100
AcDbArc
 50
90.0
 51
180.0
  0
ARC
  5
289
100
AcDbEntity
  8
LC-002-002-RND-0
  6
CONTINUOUS
 62
             7
100
AcDbCircle
 10
301.76325800000001
 20
107.520008
 40
3.5
100
AcDbArc
 50
90.0
 51
177.99999999999784
  0
ARC
  5
288
100
AcDbEntity
  8
LC-002-002-RND-0
  6
CONTINUOUS
 62
             7
100
AcDbCircle
 10
505.23557599999998
 20
107.520008
 40
3.50000000000021
100
AcDbArc
 50
2.00000000000214
 51
90.0
  0
ARC
  5
287
100
AcDbEntity
  8
LC-002-002-RND-0
  6
CONTINUOUS
 62
             7
100
AcDbCircle
 10
15.0
 20
87.5
 40
6.0
100
AcDbArc
 50
90.0
 51
180.0
  0
ARC
  5
286
100
AcDbEntity
  8
LC-002-002-RND-0
  6
CONTINUOUS
 62
             7
100
AcDbCircle
 10
23.0
 20
87.5
 40
6.0
100
AcDbArc
 50
0.0
 51
90.0
  0
ARC
  5
285
100
AcDbEntity
  8
LC-002-002-RND-0
  6
CONTINUOUS
 62
             7
100
AcDbCircle
 10
15.0
 20
-87.5
 40
6.0
100
AcDbArc
 50
180.0
 51
-90.0
  0
ARC
  5
284
100
AcDbEntity
  8
LC-002-002-RND-0
  6
CONTINUOUS
 62
             7
100
AcDbCircle
 10
23.0
 20
-87.5
 40
6.0
100
AcDbArc
 50
-90.0
 51
0.0
  0
ARC
  5
283
100
AcDbEntity
  8
LC-002-002-RND-0
  6
CONTINUOUS
 62
             7
100
AcDbCircle
 10
95.45554499999997
 20
-93.53854200000001
 40
3.99999999999948
100
AcDbArc
 50
-179.00027299999712
 51
-89.99967699999941
  0
ARC
  5
282
100
AcDbEntity
  8
LC-002-002-RND-0
  6
CONTINUOUS
 62
             7
100
AcDbCircle
 10
130.509208
 20
-93.03913899999998
 40
0.50000000000015
100
AcDbArc
 50
89.9999550000085
 51
180.0
  0
ARC
  5
281
100
AcDbEntity
  8
LC-002-002-RND-0
  6
CONTINUOUS
 62
             7
100
AcDbCircle
 10
126.009208
 20
-93.53837799999997
 40
4.0000000000004
100
AcDbArc
 50
-89.99965999999753
 51
0.0
  0
ARC
  5
280
100
AcDbEntity
  8
LC-002-002-RND-0
  6
CONTINUOUS
 62
             7
100
AcDbCircle
 10
344.50897600000002
 20
-106.10001441111849
 40
0.50000000000015
100
AcDbArc
 50
89.9999550000085
 51
180.0
  0
ARC
  5
27F
100
AcDbEntity
  8
LC-002-002-RND-0
  6
CONTINUOUS
 62
             7
100
AcDbCircle
 10
340.00897600000002
 20
-106.5992534111188
 40
4.00000000000033
100
AcDbArc
 50
-89.99965999999753
 51
0.0
  0
ARC
  5
27E
100
AcDbEntity
  8
LC-002-002-RND-0
  6
CONTINUOUS
 62
             7
100
AcDbCircle
 10
500.578866
 20
-104.6001364111187
 40
1.00000000000031
100
AcDbArc
 50
-90.0000449999915
 51
-0.99972700000488
  0
LINE
  5
27D
100
AcDbEntity
  8
1
  6
DOT_CENTER
 62
             2
100
AcDbLine
 10
-6.0
 20
-80.0
 11
-3.0
 21
-80.0
  0
LINE
  5
27C
100
AcDbEntity
  8
1
  6
DOT_CENTER
 62
             2
100
AcDbLine
 10
-6.0
 20
80.0
 11
-3.0
 21
80.0
  0
LINE
  5
27B
100
AcDbEntity
  8
LC-002-002-RND-0
  6
CONTINUOUS
 62
             7
100
AcDbLine
 10
501.55248985129498
 20
-102.99998142169279
 11
501.55074482092749
 21
-103.0999814220315
  0
LINE
  5
27A
100
AcDbEntity
  8
1
  6
CONTINUOUS
 62
             7
100
AcDbLine
 10
305.94618853201092
 20
-106.9795060779679
 11
305.94618853201092
 21
-107.0994174625389
  0
LINE
  5
279
100
AcDbEntity
  8
1
  6
PHANTOM
 62
             2
100
AcDbLine
 10
495.64910619109321
 20
-22.9999809527144
 11
596.93862741374323
 21
-22.99997111789321
  0
LINE
  5
278
100
AcDbEntity
  8
1
  6
PHANTOM
 62
             2
100
AcDbLine
 10
152.91188926786199
 20
0.0
 11
-14.83911075268401
 21
0.0
  0
LINE
  5
277
100
AcDbEntity
  8
LC-001-002-----0
  6
CONTINUOUS
 62
             7
100
AcDbLine
 10
583.99944600000003
 20
57.00002066265347
 11
583.99944600000003
 21
-102.9999654111302
  0
LINE
  5
276
100
AcDbEntity
  8
LC-003-005-----0
  6
DASHDOT
 62
             2
100
AcDbLine
 10
464.99958800000002
 20
122.02118400000001
 11
464.99958800000002
 21
133.52118400000001
  0
LINE
  5
275
100
AcDbEntity
  8
LC-002-002-RND-0
  6
CONTINUOUS
 62
             7
100
AcDbLine
 10
455.49958800000002
 20
111.020008
 11
351.49978199999993
 21
111.020008
  0
LINE
  5
274
100
AcDbEntity
  8
LC-001-002-----0
  6
CONTINUOUS
 62
             7
100
AcDbLine
 10
454.99958800000002
 20
95.02102400000013
 11
454.99958800000002
 21
102.0210240000001
  0
LINE
  5
273
100
AcDbEntity
  8
LC-001-002-----0
  6
CONTINUOUS
 62
             7
100
AcDbLine
 10
474.99958800000002
 20
95.02102400000013
 11
474.99958800000002
 21
102.0210240000001
  0
LINE
  5
272
100
AcDbEntity
  8
LC-001-002-----0
  6
CONTINUOUS
 62
             7
100
AcDbLine
 10
455.49958800000002
 20
102.5210240000001
 11
474.49958800000002
 21
102.5210240000001
  0
LINE
  5
271
100
AcDbEntity
  8
LC-001-002-----0
  6
CONTINUOUS
 62
             7
100
AcDbLine
 10
463.49604599999992
 20
61.08834999999999
 11
466.49604599999992
 21
61.08834999999999
  0
LINE
  5
270
100
AcDbEntity
  8
LC-001-002-----0
  6
CONTINUOUS
 62
             7
100
AcDbLine
 10
466.49604599999992
 20
86.52102400000013
 11
466.49604599999992
 21
61.08834999999999
  0
LINE
  5
26F
100
AcDbEntity
  8
LC-001-002-----0
  6
CONTINUOUS
 62
             7
100
AcDbLine
 10
455.49991199999988
 20
102.5210299999999
 11
474.49958800000002
 21
102.5210179999999
  0
LINE
  5
26E
100
AcDbEntity
  8
LC-001-002-----0
  6
CONTINUOUS
 62
             7
100
AcDbLine
 10
474.99958800000002
 20
87.02102400000013
 11
474.99958800000002
 21
94.02102400000013
  0
LINE
  5
26D
100
AcDbEntity
  8
LC-001-002-----0
  6
CONTINUOUS
 62
             7
100
AcDbLine
 10
454.99958800000002
 20
94.02102400000013
 11
454.99958800000002
 21
87.02102400000013
  0
LINE
  5
26C
100
AcDbEntity
  8
LC-001-002-----0
  6
CONTINUOUS
 62
             7
100
AcDbLine
 10
455.49958800000002
 20
86.52102400000013
 11
474.49958800000002
 21
86.52102400000013
  0
LINE
  5
26B
100
AcDbEntity
  8
LC-001-002-----0
  6
CONTINUOUS
 62
             7
100
AcDbLine
 10
463.49604599999992
 20
86.52102400000013
 11
463.49604599999992
 21
61.08834999999999
  0
LINE
  5
26A
100
AcDbEntity
  8
LC-001-002-----0
  6
CONTINUOUS
 62
             7
100
AcDbLine
 10
370.70929699999988
 20
126.702614
 11
370.70929699999988
 21
122.020008
  0
LINE
  5
269
100
AcDbEntity
  8
LC-001-002-----0
  6
CONTINUOUS
 62
             7
100
AcDbLine
 10
360.70929699999988
 20
126.7025920000001
 11
360.70929699999988
 21
122.020008
  0
LINE
  5
268
100
AcDbEntity
  8
LC-002-002-RND-0
  6
CONTINUOUS
 62
             7
100
AcDbLine
 10
332.49957899999998
 20
111.020008
 11
301.76325800000001
 21
111.020008
  0
LINE
  5
267
100
AcDbEntity
  8
LC-001-002-----0
  6
CONTINUOUS
 62
             7
100
AcDbLine
 10
331.99957899999998
 20
95.02000799999996
 11
331.99957899999998
 21
102.020008
  0
LINE
  5
266
100
AcDbEntity
  8
LC-001-002-----0
  6
CONTINUOUS
 62
             7
100
AcDbLine
 10
351.99957899999998
 20
95.02000799999996
 11
351.99957899999998
 21
102.020008
  0
LINE
  5
265
100
AcDbEntity
  8
LC-001-002-----0
  6
CONTINUOUS
 62
             7
100
AcDbLine
 10
332.49957899999998
 20
102.520008
 11
351.49957899999998
 21
102.520008
  0
LINE
  5
264
100
AcDbEntity
  8
LC-001-002-----0
  6
CONTINUOUS
 62
             7
100
AcDbLine
 10
340.49603699999989
 20
61.08733399999983
 11
343.49603699999989
 21
61.08733399999983
  0
LINE
  5
263
100
AcDbEntity
  8
LC-001-002-----0
  6
CONTINUOUS
 62
             7
100
AcDbLine
 10
343.49603699999989
 20
86.52000799999996
 11
343.49603699999989
 21
61.08733399999983
  0
LINE
  5
262
100
AcDbEntity
  8
LC-001-002-----0
  6
CONTINUOUS
 62
             7
100
AcDbLine
 10
332.49990200000002
 20
102.520014
 11
351.49957899999998
 21
102.52000200000001
  0
LINE
  5
261
100
AcDbEntity
  8
LC-001-002-----0
  6
CONTINUOUS
 62
             7
100
AcDbLine
 10
351.99957899999998
 20
87.02000799999996
 11
351.99957899999998
 21
94.02000799999996
  0
LINE
  5
260
100
AcDbEntity
  8
LC-001-002-----0
  6
CONTINUOUS
 62
             7
100
AcDbLine
 10
331.99957899999998
 20
94.02000799999996
 11
331.99957899999998
 21
87.02000799999996
  0
LINE
  5
25F
100
AcDbEntity
  8
LC-001-002-----0
  6
CONTINUOUS
 62
             7
100
AcDbLine
 10
332.49957899999998
 20
86.52000799999996
 11
351.49957899999998
 21
86.52000799999996
  0
LINE
  5
25E
100
AcDbEntity
  8
LC-001-002-----0
  6
CONTINUOUS
 62
             7
100
AcDbLine
 10
340.49603699999989
 20
86.52000799999996
 11
340.49603699999989
 21
61.08733399999983
  0
LINE
  5
25D
100
AcDbEntity
  8
LC-002-002-RND-0
  6
CONTINUOUS
 62
             7
100
AcDbLine
 10
241.49981999999989
 20
120.9605000000001
 11
137.49981099999999
 21
120.9605000000001
  0
LINE
  5
25C
100
AcDbEntity
  8
LC-001-002-----0
  6
CONTINUOUS
 62
             7
100
AcDbLine
 10
240.99981999999989
 20
104.9615159999999
 11
240.99981999999989
 21
111.9615159999999
  0
LINE
  5
25B
100
AcDbEntity
  8
LC-001-002-----0
  6
CONTINUOUS
 62
             7
100
AcDbLine
 10
260.99981999999989
 20
104.9615159999999
 11
260.99981999999989
 21
111.9615159999999
  0
LINE
  5
25A
100
AcDbEntity
  8
LC-001-002-----0
  6
CONTINUOUS
 62
             7
100
AcDbLine
 10
241.49981999999989
 20
112.4615159999999
 11
260.49981999999989
 21
112.4615159999999
  0
LINE
  5
259
100
AcDbEntity
  8
LC-001-002-----0
  6
CONTINUOUS
 62
             7
100
AcDbLine
 10
249.49627799999999
 20
71.02884199999994
 11
252.49627799999999
 21
71.02884199999994
  0
LINE
  5
258
100
AcDbEntity
  8
LC-001-002-----0
  6
CONTINUOUS
 62
             7
100
AcDbLine
 10
252.49627799999999
 20
96.46151599999985
 11
252.49627799999999
 21
71.02884199999994
  0
LINE
  5
257
100
AcDbEntity
  8
LC-001-002-----0
  6
CONTINUOUS
 62
             7
100
AcDbLine
 10
241.50014399999989
 20
112.4615220000001
 11
260.49981999999989
 21
112.46150900000001
  0
LINE
  5
256
100
AcDbEntity
  8
LC-001-002-----0
  6
CONTINUOUS
 62
             7
100
AcDbLine
 10
260.99981999999989
 20
96.96151599999985
 11
260.99981999999989
 21
103.9615159999999
  0
LINE
  5
255
100
AcDbEntity
  8
LC-001-002-----0
  6
CONTINUOUS
 62
             7
100
AcDbLine
 10
240.99981999999989
 20
103.9615159999999
 11
240.99981999999989
 21
96.96151599999985
  0
LINE
  5
254
100
AcDbEntity
  8
LC-001-002-----0
  6
CONTINUOUS
 62
             7
100
AcDbLine
 10
241.49981999999989
 20
96.46151599999985
 11
260.49981999999989
 21
96.46151599999985
  0
LINE
  5
253
100
AcDbEntity
  8
LC-001-002-----0
  6
CONTINUOUS
 62
             7
100
AcDbLine
 10
249.49627799999999
 20
96.46151599999985
 11
249.49627799999999
 21
71.02884199999994
  0
LINE
  5
252
100
AcDbEntity
  8
LC-001-002-----0
  6
CONTINUOUS
 62
             7
100
AcDbLine
 10
344.50897600000002
 20
-105.60001541111799
 11
344.50897600000002
 21
-12.00749799999994
  0
LINE
  5
251
100
AcDbEntity
  8
LC-001-002-----0
  6
CONTINUOUS
 62
             7
100
AcDbLine
 10
313.54656399999988
 20
-99.87323199999992
 11
307.49934999999999
 21
-99.87323199999992
  0
LINE
  5
250
100
AcDbEntity
  8
LC-001-002-----0
  6
CONTINUOUS
 62
             7
100
AcDbLine
 10
313.54656399999988
 20
-90.05827700000009
 11
307.49934999999999
 21
-90.05827700000009
  0
LINE
  5
24F
100
AcDbEntity
  8
LC-001-002-----0
  6
CONTINUOUS
 62
             7
100
AcDbLine
 10
307.49934999999999
 20
-104.7807090000001
 11
313.54655600000001
 21
-104.7807090000001
  0
LINE
  5
24E
100
AcDbEntity
  8
LC-001-002-----0
  6
CONTINUOUS
 62
             7
100
AcDbLine
 10
307.49934999999999
 20
-85.15079999999989
 11
313.54655600000001
 21
-85.15079999999989
  0
LINE
  5
24D
100
AcDbEntity
  8
LC-001-002-----0
  6
CONTINUOUS
 62
             7
100
AcDbLine
 10
314.49934999999999
 20
-102.326992
 11
314.49934999999999
 21
-87.60453899999993
  0
LINE
  5
24C
100
AcDbEntity
  8
LC-001-002-----0
  6
CONTINUOUS
 62
             7
100
AcDbLine
 10
307.49934999999999
 20
-104.7807090000001
 11
307.49934999999999
 21
-85.15079999999989
  0
LINE
  5
24B
100
AcDbEntity
  8
LC-001-002-----0
  6
CONTINUOUS
 62
             7
100
AcDbLine
 10
286.49934999999999
 20
-103.4658500000001
 11
284.49934999999999
 21
-103.4658500000001
  0
LINE
  5
24A
100
AcDbEntity
  8
LC-001-002-----0
  6
CONTINUOUS
 62
             7
100
AcDbLine
 10
286.49934999999999
 20
-86.46585000000005
 11
284.49934999999999
 21
-86.46585000000005
  0
LINE
  5
249
100
AcDbEntity
  8
LC-001-002-----0
  6
CONTINUOUS
 62
             7
100
AcDbLine
 10
283.54656399999988
 20
-99.87332700000002
 11
278.45214499999992
 21
-99.87332700000002
  0
LINE
  5
248
100
AcDbEntity
  8
LC-001-002-----0
  6
CONTINUOUS
 62
             7
100
AcDbLine
 10
283.54656399999988
 20
-90.05837299999985
 11
278.45214499999992
 21
-90.05837299999985
  0
LINE
  5
247
100
AcDbEntity
  8
LC-001-002-----0
  6
CONTINUOUS
 62
             7
100
AcDbLine
 10
278.45214499999992
 20
-104.780804
 11
283.54655600000001
 21
-104.780804
  0
LINE
  5
246
100
AcDbEntity
  8
LC-001-002-----0
  6
CONTINUOUS
 62
             7
100
AcDbLine
 10
278.45215300000001
 20
-85.15089499999999
 11
283.54655600000001
 21
-85.15089499999999
  0
LINE
  5
245
100
AcDbEntity
  8
LC-001-002-----0
  6
CONTINUOUS
 62
             7
100
AcDbLine
 10
284.49934999999999
 20
-102.32708700000011
 11
284.49934999999999
 21
-87.60463400000003
  0
LINE
  5
244
100
AcDbEntity
  8
LC-001-002-----0
  6
CONTINUOUS
 62
             7
100
AcDbLine
 10
277.49934999999999
 20
-102.32715999999979
 11
277.49934999999999
 21
-87.60469499999999
  0
LINE
  5
243
100
AcDbEntity
  8
LC-001-002-----0
  6
CONTINUOUS
 62
             7
100
AcDbLine
 10
277.49934999999999
 20
-98.96585000000005
 11
272.88054399999987
 21
-98.96585000000005
  0
LINE
  5
242
100
AcDbEntity
  8
LC-001-002-----0
  6
CONTINUOUS
 62
             7
100
AcDbLine
 10
272.88054399999987
 20
-90.96585000000005
 11
272.88054399999987
 21
-98.96585000000005
  0
LINE
  5
241
100
AcDbEntity
  8
LC-001-002-----0
  6
CONTINUOUS
 62
             7
100
AcDbLine
 10
272.88054399999987
 20
-98.96585000000005
 11
271.88054399999987
 21
-97.96585000000005
  0
LINE
  5
240
100
AcDbEntity
  8
LC-001-002-----0
  6
CONTINUOUS
 62
             7
100
AcDbLine
 10
272.88054399999987
 20
-90.96585000000005
 11
271.88054399999987
 21
-91.96585000000005
  0
LINE
  5
23F
100
AcDbEntity
  8
LC-001-002-----0
  6
CONTINUOUS
 62
             7
100
AcDbLine
 10
271.88054399999987
 20
-97.96585000000005
 11
271.88054399999987
 21
-91.96585000000005
  0
LINE
  5
23E
100
AcDbEntity
  8
LC-001-002-----0
  6
CONTINUOUS
 62
             7
100
AcDbLine
 10
277.49934999999999
 20
-90.96585000000005
 11
272.88054399999987
 21
-90.96585000000005
  0
LINE
  5
23D
100
AcDbEntity
  8
LC-005-003-----0
  6
CONTINUOUS
 62
             2
100
AcDbLine
 10
271.88054399999987
 20
-97.96585000000005
 11
277.49934999999999
 21
-97.96585000000005
  0
LINE
  5
23C
100
AcDbEntity
  8
LC-005-003-----0
  6
CONTINUOUS
 62
             2
100
AcDbLine
 10
271.88054399999987
 20
-91.96585000000005
 11
277.49934999999999
 21
-91.96585000000005
  0
LINE
  5
23B
100
AcDbEntity
  8
LC-001-002-----0
  6
CONTINUOUS
 62
             7
100
AcDbLine
 10
277.49934999999999
 20
76.49548200000004
 11
272.88054399999987
 21
76.49548200000004
  0
LINE
  5
23A
100
AcDbEntity
  8
LC-001-002-----0
  6
CONTINUOUS
 62
             7
100
AcDbLine
 10
283.54656399999988
 20
67.58800500000007
 11
278.45214499999992
 21
67.58800500000007
  0
LINE
  5
239
100
AcDbEntity
  8
LC-001-002-----0
  6
CONTINUOUS
 62
             7
100
AcDbLine
 10
283.54656399999988
 20
77.40295999999989
 11
278.45214499999992
 21
77.40295999999989
  0
LINE
  5
238
100
AcDbEntity
  8
LC-001-002-----0
  6
CONTINUOUS
 62
             7
100
AcDbLine
 10
278.45214499999992
 20
62.68052799999987
 11
283.54655600000001
 21
62.68052799999987
  0
LINE
  5
237
100
AcDbEntity
  8
LC-001-002-----0
  6
CONTINUOUS
 62
             7
100
AcDbLine
 10
278.45215300000001
 20
82.31043700000009
 11
283.54655600000001
 21
82.31043700000009
  0
LINE
  5
236
100
AcDbEntity
  8
LC-001-002-----0
  6
CONTINUOUS
 62
             7
100
AcDbLine
 10
284.49934999999999
 20
65.13424600000008
 11
284.49934999999999
 21
79.85669800000005
  0
LINE
  5
235
100
AcDbEntity
  8
LC-001-002-----0
  6
CONTINUOUS
 62
             7
100
AcDbLine
 10
277.49934999999999
 20
65.13417200000004
 11
277.49934999999999
 21
79.85663699999986
  0
LINE
  5
234
100
AcDbEntity
  8
LC-001-002-----0
  6
CONTINUOUS
 62
             7
100
AcDbLine
 10
272.88054399999987
 20
76.49548200000004
 11
272.88054399999987
 21
68.49548200000004
  0
LINE
  5
233
100
AcDbEntity
  8
LC-001-002-----0
  6
CONTINUOUS
 62
             7
100
AcDbLine
 10
272.88054399999987
 20
68.49548200000004
 11
271.88054399999987
 21
69.49548200000004
  0
LINE
  5
232
100
AcDbEntity
  8
LC-001-002-----0
  6
CONTINUOUS
 62
             7
100
AcDbLine
 10
272.88054399999987
 20
76.49548200000004
 11
271.88054399999987
 21
75.49548200000004
  0
LINE
  5
231
100
AcDbEntity
  8
LC-001-002-----0
  6
CONTINUOUS
 62
             7
100
AcDbLine
 10
271.88054399999987
 20
69.49548200000004
 11
271.88054399999987
 21
75.49548200000004
  0
LINE
  5
230
100
AcDbEntity
  8
LC-005-003-----0
  6
CONTINUOUS
 62
             2
100
AcDbLine
 10
271.88054399999987
 20
75.49548200000004
 11
277.49934999999999
 21
75.49548200000004
  0
LINE
  5
22F
100
AcDbEntity
  8
LC-005-003-----0
  6
CONTINUOUS
 62
             2
100
AcDbLine
 10
271.88054399999987
 20
69.49548200000004
 11
277.49934999999999
 21
69.49548200000004
  0
LINE
  5
22E
100
AcDbEntity
  8
LC-001-002-----0
  6
CONTINUOUS
 62
             7
100
AcDbLine
 10
286.49934999999999
 20
63.99548200000004
 11
284.49934999999999
 21
63.99548200000004
  0
LINE
  5
22D
100
AcDbEntity
  8
LC-001-002-----0
  6
CONTINUOUS
 62
             7
100
AcDbLine
 10
286.49934999999999
 20
80.99548200000004
 11
284.49934999999999
 21
80.99548200000004
  0
LINE
  5
22C
100
AcDbEntity
  8
LC-001-002-----0
  6
CONTINUOUS
 62
             7
100
AcDbLine
 10
277.49934999999999
 20
68.49548200000004
 11
272.88054399999987
 21
68.49548200000004
  0
LINE
  5
22B
100
AcDbEntity
  8
LC-001-002-----0
  6
CONTINUOUS
 62
             7
100
AcDbLine
 10
313.54656399999988
 20
67.58800500000007
 11
307.49934999999999
 21
67.58800500000007
  0
LINE
  5
22A
100
AcDbEntity
  8
LC-001-002-----0
  6
CONTINUOUS
 62
             7
100
AcDbLine
 10
313.54656399999988
 20
77.40295999999989
 11
307.49934999999999
 21
77.40295999999989
  0
LINE
  5
229
100
AcDbEntity
  8
LC-001-002-----0
  6
CONTINUOUS
 62
             7
100
AcDbLine
 10
307.49934999999999
 20
62.68052799999987
 11
313.54655600000001
 21
62.68052799999987
  0
LINE
  5
228
100
AcDbEntity
  8
LC-001-002-----0
  6
CONTINUOUS
 62
             7
100
AcDbLine
 10
307.49934999999999
 20
82.31043700000009
 11
313.54655600000001
 21
82.31043700000009
  0
LINE
  5
227
100
AcDbEntity
  8
LC-001-002-----0
  6
CONTINUOUS
 62
             7
100
AcDbLine
 10
314.49934999999999
 20
65.13424600000008
 11
314.49934999999999
 21
79.85669800000005
  0
LINE
  5
226
100
AcDbEntity
  8
LC-001-002-----0
  6
CONTINUOUS
 62
             7
100
AcDbLine
 10
307.49934999999999
 20
62.68052799999987
 11
307.49934999999999
 21
82.31043700000009
  0
LINE
  5
225
100
AcDbEntity
  8
LC-001-002-----0
  6
CONTINUOUS
 62
             7
100
AcDbLine
 10
296.99934999999999
 20
-87.21575500000017
 11
296.99934999999999
 21
-102.7157549999999
  0
LINE
  5
224
100
AcDbEntity
  8
LC-001-002-----0
  6
CONTINUOUS
 62
             7
100
AcDbLine
 10
300.99934999999999
 20
-103.7157549999999
 11
297.99934999999999
 21
-103.7157549999999
  0
LINE
  5
223
100
AcDbEntity
  8
LC-001-002-----0
  6
CONTINUOUS
 62
             7
100
AcDbLine
 10
300.99934999999999
 20
-86.21575500000017
 11
297.99934999999999
 21
-86.21575500000017
  0
LINE
  5
222
100
AcDbEntity
  8
LC-001-002-----0
  6
CONTINUOUS
 62
             7
100
AcDbLine
 10
300.99934999999999
 20
81.24548200000004
 11
297.99934999999999
 21
81.24548200000004
  0
LINE
  5
221
100
AcDbEntity
  8
LC-001-002-----0
  6
CONTINUOUS
 62
             7
100
AcDbLine
 10
300.99934999999999
 20
63.74548200000004
 11
297.99934999999999
 21
63.74548200000004
  0
LINE
  5
220
100
AcDbEntity
  8
LC-001-002-----0
  6
CONTINUOUS
 62
             7
100
AcDbLine
 10
296.99934999999999
 20
80.24548200000004
 11
296.99934999999999
 21
64.74548200000004
  0
LINE
  5
21F
100
AcDbEntity
  8
LC-009-006-MLN-0
  6
DASHDOT
 62
             2
100
AcDbLine
 10
317.49934999999999
 20
-94.96575499999995
 11
276.49934999999999
 21
-94.96575499999995
  0
LINE
  5
21E
100
AcDbEntity
  8
LC-009-006-MLN-0
  6
DASHDOT
 62
             2
100
AcDbLine
 10
276.49934999999999
 20
72.49548200000004
 11
317.49934999999999
 21
72.49548200000004
  0
LINE
  5
21D
100
AcDbEntity
  8
LC-001-002-----0
  6
CONTINUOUS
 62
             7
100
AcDbLine
 10
300.99934999999999
 20
81.99250200000006
 11
300.99934999999999
 21
-105.9657549999999
  0
LINE
  5
21C
100
AcDbEntity
  8
LC-001-002-----0
  6
CONTINUOUS
 62
             7
100
AcDbLine
 10
307.49934999999999
 20
-106.9657549999999
 11
301.99934999999999
 21
-106.9657549999999
  0
LINE
  5
21B
100
AcDbEntity
  8
LC-001-002-----0
  6
CONTINUOUS
 62
             7
100
AcDbLine
 10
307.49934999999999
 20
82.99250200000006
 11
301.99934999999999
 21
82.99250200000006
  0
LINE
  5
21A
100
AcDbEntity
  8
LC-001-002-----0
  6
CONTINUOUS
 62
             7
100
AcDbLine
 10
307.49934999999999
 20
82.99250200000006
 11
307.49934999999999
 21
-107.0074979999999
  0
LINE
  5
219
100
AcDbEntity
  8
LC-001-002-----0
  6
CONTINUOUS
 62
             7
100
AcDbLine
 10
286.49934999999999
 20
-106.9657569999999
 11
291.99934999999999
 21
-106.9657569999999
  0
LINE
  5
218
100
AcDbEntity
  8
LC-001-002-----0
  6
CONTINUOUS
 62
             7
100
AcDbLine
 10
296.99934999999999
 20
-87.21575500000017
 11
296.99934999999999
 21
-102.7157549999999
  0
LINE
  5
217
100
AcDbEntity
  8
LC-001-002-----0
  6
CONTINUOUS
 62
             7
100
AcDbLine
 10
292.99934999999999
 20
-103.7157549999999
 11
295.99934999999999
 21
-103.7157549999999
  0
LINE
  5
216
100
AcDbEntity
  8
LC-001-002-----0
  6
CONTINUOUS
 62
             7
100
AcDbLine
 10
292.99934999999999
 20
-86.21575500000017
 11
295.99934999999999
 21
-86.21575500000017
  0
LINE
  5
215
100
AcDbEntity
  8
LC-001-002-----0
  6
CONTINUOUS
 62
             7
100
AcDbLine
 10
292.99934999999999
 20
63.74548200000004
 11
295.99934999999999
 21
63.74548200000004
  0
LINE
  5
214
100
AcDbEntity
  8
LC-001-002-----0
  6
CONTINUOUS
 62
             7
100
AcDbLine
 10
286.49934999999999
 20
82.99548200000004
 11
291.99934999999999
 21
82.99548200000004
  0
LINE
  5
213
100
AcDbEntity
  8
LC-001-002-----0
  6
CONTINUOUS
 62
             7
100
AcDbLine
 10
292.99934999999999
 20
86.75000300000011
 11
292.99934999999999
 21
81.99548200000004
  0
LINE
  5
212
100
AcDbEntity
  8
LC-001-002-----0
  6
CONTINUOUS
 62
             7
100
AcDbLine
 10
296.99934999999999
 20
80.24548200000004
 11
296.99934999999999
 21
64.74548200000004
  0
LINE
  5
211
100
AcDbEntity
  8
LC-001-002-----0
  6
CONTINUOUS
 62
             7
100
AcDbLine
 10
292.99934999999999
 20
81.24548200000004
 11
295.99934999999999
 21
81.24548200000004
  0
LINE
  5
210
100
AcDbEntity
  8
LC-001-002-----0
  6
CONTINUOUS
 62
             7
100
AcDbLine
 10
292.99934999999999
 20
81.99548200000004
 11
292.99934999999999
 21
-105.9657569999999
  0
LINE
  5
20F
100
AcDbEntity
  8
LC-001-002-----0
  6
CONTINUOUS
 62
             7
100
AcDbLine
 10
286.49934999999999
 20
82.99548200000004
 11
286.49934999999999
 21
-94.10015299999986
  0
LINE
  5
20E
100
AcDbEntity
  8
LC-002-002-RND-0
  6
CONTINUOUS
 62
             7
100
AcDbLine
 10
118.50012700000001
 20
120.9605000000001
 11
87.76348999999999
 21
120.9605000000001
  0
LINE
  5
20D
100
AcDbEntity
  8
LC-001-002-----0
  6
CONTINUOUS
 62
             5
100
AcDbLine
 10
137.49981099999999
 20
120.96066
 11
137.50001399999999
 21
120.96066
  0
LINE
  5
20C
100
AcDbEntity
  8
LC-001-002-----0
  6
CONTINUOUS
 62
             5
100
AcDbLine
 10
137.50001399999999
 20
120.96066
 11
137.50001399999999
 21
120.96066
  0
LINE
  5
20B
100
AcDbEntity
  8
LC-001-002-----0
  6
CONTINUOUS
 62
             7
100
AcDbLine
 10
118.50012099999999
 20
112.4605059999999
 11
118.50012700000001
 21
120.96066
  0
LINE
  5
20A
100
AcDbEntity
  8
LC-001-002-----0
  6
CONTINUOUS
 62
             7
100
AcDbLine
 10
137.49981099999999
 20
112.460493
 11
137.49981099999999
 21
120.96066
  0
LINE
  5
209
100
AcDbEntity
  8
LC-001-002-----0
  6
CONTINUOUS
 62
             7
100
AcDbLine
 10
117.99981099999999
 20
104.9605000000001
 11
117.99981099999999
 21
111.9605000000001
  0
LINE
  5
208
100
AcDbEntity
  8
LC-001-002-----0
  6
CONTINUOUS
 62
             7
100
AcDbLine
 10
137.99981099999999
 20
104.9605000000001
 11
137.99981099999999
 21
111.9605000000001
  0
LINE
  5
207
100
AcDbEntity
  8
LC-001-002-----0
  6
CONTINUOUS
 62
             7
100
AcDbLine
 10
118.49981099999999
 20
112.4605000000001
 11
137.49981099999999
 21
112.4605000000001
  0
LINE
  5
206
100
AcDbEntity
  8
LC-001-002-----0
  6
CONTINUOUS
 62
             7
100
AcDbLine
 10
126.496269
 20
71.02782600000001
 11
129.49626900000001
 21
71.02782600000001
  0
LINE
  5
205
100
AcDbEntity
  8
LC-001-002-----0
  6
CONTINUOUS
 62
             7
100
AcDbLine
 10
129.49626900000001
 20
96.46050000000014
 11
129.49626900000001
 21
71.02782600000001
  0
LINE
  5
204
100
AcDbEntity
  8
LC-001-002-----0
  6
CONTINUOUS
 62
             7
100
AcDbLine
 10
118.500134
 20
112.4605059999999
 11
137.49981099999999
 21
112.460493
  0
LINE
  5
203
100
AcDbEntity
  8
LC-001-002-----0
  6
CONTINUOUS
 62
             7
100
AcDbLine
 10
137.99981099999999
 20
96.96050000000014
 11
137.99981099999999
 21
103.9605000000001
  0
LINE
  5
202
100
AcDbEntity
  8
LC-001-002-----0
  6
CONTINUOUS
 62
             7
100
AcDbLine
 10
117.99981099999999
 20
103.9605000000001
 11
117.99981099999999
 21
96.96050000000014
  0
LINE
  5
201
100
AcDbEntity
  8
LC-001-002-----0
  6
CONTINUOUS
 62
             7
100
AcDbLine
 10
118.49981099999999
 20
96.46050000000014
 11
137.49981099999999
 21
96.46050000000014
  0
LINE
  5
200
100
AcDbEntity
  8
LC-001-002-----0
  6
CONTINUOUS
 62
             7
100
AcDbLine
 10
126.496269
 20
96.46050000000014
 11
126.496269
 21
71.02782600000001
  0
LINE
  5
1FF
100
AcDbEntity
  8
LC-003-005-----0
  6
DASHDOT
 62
             2
100
AcDbLine
 10
127.99981099999999
 20
71.02782600000001
 11
127.99981099999999
 21
120.96066
  0
LINE
  5
1FE
100
AcDbEntity
  8
LC-001-002-----0
  6
CONTINUOUS
 62
             7
100
AcDbLine
 10
29.0
 20
84.75
 11
29.0
 21
-84.75
  0
LINE
  5
1FD
100
AcDbEntity
  8
LC-001-002-----0
  6
CONTINUOUS
 62
             7
100
AcDbLine
 10
9.0
 20
85.0
 11
9.0
 21
-87.5
  0
LINE
  5
1FC
100
AcDbEntity
  8
LC-001-002-----0
  6
CONTINUOUS
 62
             7
100
AcDbLine
 10
130.509209
 20
-92.53913899999998
 11
130.509209
 21
0.0
  0
LINE
  5
1FB
100
AcDbEntity
  8
LC-003-005-----0
  6
DASHDOT
 62
             2
100
AcDbLine
 10
250.99981999999989
 20
71.02884199999994
 11
250.99981999999989
 21
148.4616759999999
  0
LINE
  5
1FA
100
AcDbEntity
  8
LC-001-002-----0
  6
CONTINUOUS
 62
             7
100
AcDbLine
 10
241.49981999999989
 20
112.4615220000001
 11
241.49981999999989
 21
132.64604489184899
  0
LINE
  5
1F9
100
AcDbEntity
  8
LC-001-002-----0
  6
CONTINUOUS
 62
             7
100
AcDbLine
 10
230.49981999999989
 20
136.6814439999998
 11
230.49981999999989
 21
138.741908
  0
LINE
  5
1F8
100
AcDbEntity
  8
LC-001-002-----0
  6
CONTINUOUS
 62
             7
100
AcDbLine
 10
260.50001800000001
 20
112.4615159999999
 11
260.50003082338088
 21
132.6460754255904
  0
LINE
  5
1F7
100
AcDbEntity
  8
LC-001-002-----0
  6
CONTINUOUS
 62
             7
100
AcDbLine
 10
271.49981999999989
 20
136.6814439999998
 11
271.49981999999989
 21
138.741908
  0
LINE
  5
1F6
100
AcDbEntity
  8
LC-001-002-----0
  6
CONTINUOUS
 62
             7
100
AcDbLine
 10
252.49981999999989
 20
140.2116759999999
 11
249.49981999999989
 21
140.2116759999999
  0
LINE
  5
1F5
100
AcDbEntity
  8
LC-001-002-----0
  6
CONTINUOUS
 62
             7
100
AcDbLine
 10
253.49981999999989
 20
136.2116759999999
 11
253.49981999999989
 21
139.2116759999999
  0
LINE
  5
1F4
100
AcDbEntity
  8
LC-001-002-----0
  6
CONTINUOUS
 62
             7
100
AcDbLine
 10
248.49981999999989
 20
139.2116759999999
 11
248.49981999999989
 21
136.2116759999999
  0
LINE
  5
1F3
100
AcDbEntity
  8
LC-001-002-----0
  6
CONTINUOUS
 62
             7
100
AcDbLine
 10
249.49981999999989
 20
135.2116759999999
 11
252.49981999999989
 21
135.2116759999999
  0
LINE
  5
1F2
100
AcDbEntity
  8
LC-001-002-----0
  6
CONTINUOUS
 62
             5
100
AcDbLine
 10
118.49981099999999
 20
120.96066
 11
118.50012700000001
 21
120.96066
  0
LINE
  5
1F1
100
AcDbEntity
  8
LC-003-005-----0
  6
DASHDOT
 62
             2
100
AcDbLine
 10
127.99981099999999
 20
120.96066
 11
127.99981099999999
 21
143.46065999999999
  0
LINE
  5
1F0
100
AcDbEntity
  8
LC-001-002-----0
  6
CONTINUOUS
 62
             7
100
AcDbLine
 10
118.49981099999999
 20
120.96066
 11
118.49981099999999
 21
132.64502899999999
  0
LINE
  5
1EF
100
AcDbEntity
  8
LC-001-002-----0
  6
CONTINUOUS
 62
             7
100
AcDbLine
 10
107.49981099999999
 20
136.68042800000009
 11
107.49981099999999
 21
138.740892
  0
LINE
  5
1EE
100
AcDbEntity
  8
LC-001-002-----0
  6
CONTINUOUS
 62
             7
100
AcDbLine
 10
137.50001399999999
 20
120.9608269999999
 11
137.50002499999999
 21
132.64519599999969
  0
LINE
  5
1ED
100
AcDbEntity
  8
LC-001-002-----0
  6
CONTINUOUS
 62
             7
100
AcDbLine
 10
148.49981099999999
 20
136.68042800000009
 11
148.49981099999999
 21
138.740892
  0
LINE
  5
1EC
100
AcDbEntity
  8
LC-001-002-----0
  6
CONTINUOUS
 62
             7
100
AcDbLine
 10
129.49981099999999
 20
140.21065999999999
 11
126.49981099999999
 21
140.21065999999999
  0
LINE
  5
1EB
100
AcDbEntity
  8
LC-001-002-----0
  6
CONTINUOUS
 62
             7
100
AcDbLine
 10
130.49981099999999
 20
136.21065999999999
 11
130.49981099999999
 21
139.21065999999999
  0
LINE
  5
1EA
100
AcDbEntity
  8
LC-001-002-----0
  6
CONTINUOUS
 62
             7
100
AcDbLine
 10
125.49981099999999
 20
139.21065999999999
 11
125.49981099999999
 21
136.21065999999999
  0
LINE
  5
1E9
100
AcDbEntity
  8
LC-001-002-----0
  6
CONTINUOUS
 62
             7
100
AcDbLine
 10
126.49981099999999
 20
135.21065999999999
 11
129.49981099999999
 21
135.21065999999999
  0
LINE
  5
1E8
100
AcDbEntity
  8
LC-002-002-RND-0
  6
CONTINUOUS
 62
             7
100
AcDbLine
 10
83.99738699999993
 20
104.4605000000001
 11
84.26562199999995
 21
117.58264800000011
  0
LINE
  5
1E7
100
AcDbEntity
  8
LC-002-002-RND-0
  6
CONTINUOUS
 62
             7
100
AcDbLine
 10
95.00343699999985
 20
120.9605000000001
 11
95.00343699999985
 21
123.9605000000001
  0
LINE
  5
1E6
100
AcDbEntity
  8
LC-002-002-RND-0
  6
CONTINUOUS
 62
             7
100
AcDbLine
 10
284.0029419999999
 20
120.9605000000001
 11
291.23580800000002
 21
120.9605000000001
  0
LINE
  5
1E5
100
AcDbEntity
  8
LC-002-002-RND-0
  6
CONTINUOUS
 62
             7
100
AcDbLine
 10
284.0029419999999
 20
120.9605000000001
 11
284.0029419999999
 21
123.9605000000001
  0
LINE
  5
1E4
100
AcDbEntity
  8
LC-002-002-RND-0
  6
CONTINUOUS
 62
             7
100
AcDbLine
 10
292.19192900000002
 20
104.4605000000001
 11
83.99738699999993
 21
104.4605000000001
  0
LINE
  5
1E3
100
AcDbEntity
  8
LC-002-002-RND-0
  6
CONTINUOUS
 62
             7
100
AcDbLine
 10
118.49981099999999
 20
125.9605000000001
 11
97.00343699999984
 21
125.9605000000001
  0
LINE
  5
1E2
100
AcDbEntity
  8
LC-002-002-RND-0
  6
CONTINUOUS
 62
             7
100
AcDbLine
 10
241.49981999999989
 20
125.9605000000001
 11
137.50001700000001
 21
125.9605000000001
  0
LINE
  5
1E1
100
AcDbEntity
  8
LC-002-002-RND-0
  6
CONTINUOUS
 62
             7
100
AcDbLine
 10
282.0029419999999
 20
125.9605000000001
 11
260.50002699999999
 21
125.9605000000001
  0
LINE
  5
1E0
100
AcDbEntity
  8
LC-002-002-RND-0
  6
CONTINUOUS
 62
             7
100
AcDbLine
 10
284.0029419999999
 20
120.9605000000001
 11
260.500023
 21
120.9605000000001
  0
LINE
  5
1DF
100
AcDbEntity
  8
LC-002-002-RND-0
  6
CONTINUOUS
 62
             7
100
AcDbLine
 10
292.19192900000002
 20
104.4605000000001
 11
295.17445099999992
 21
104.4605000000001
  0
LINE
  5
1DE
100
AcDbEntity
  8
LC-002-002-RND-0
  6
CONTINUOUS
 62
             7
100
AcDbLine
 10
295.191911
 20
104.4605000000001
 11
294.733676
 21
117.58264800000011
  0
LINE
  5
1DD
100
AcDbEntity
  8
LC-002-002-RND-0
  6
CONTINUOUS
 62
             7
100
AcDbLine
 10
370.70929699999988
 20
126.702614
 11
360.70929699999988
 21
126.7025920000001
  0
LINE
  5
1DC
100
AcDbEntity
  8
LC-002-002-RND-0
  6
CONTINUOUS
 62
             7
100
AcDbLine
 10
377.64786900000001
 20
225.98414399999999
 11
377.64786500000002
 21
227.8223310000001
  0
LINE
  5
1DB
100
AcDbEntity
  8
LC-002-002-RND-0
  6
CONTINUOUS
 62
             7
100
AcDbLine
 10
372.709091
 20
223.4006480000001
 11
372.709293
 21
128.70261900000011
  0
LINE
  5
1DA
100
AcDbEntity
  8
LC-002-002-RND-0
  6
CONTINUOUS
 62
             7
100
AcDbLine
 10
373.70908100000003
 20
227.90065000000001
 11
373.70908500000002
 21
225.90065000000001
  0
LINE
  5
1D9
100
AcDbEntity
  8
LC-002-002-RND-0
  6
CONTINUOUS
 62
             7
100
AcDbLine
 10
372.709091
 20
223.4006480000001
 11
374.97055799999993
 21
223.5985049999999
  0
LINE
  5
1D8
100
AcDbEntity
  8
LC-002-002-RND-0
  6
CONTINUOUS
 62
             7
100
AcDbLine
 10
372.709091
 20
223.4006480000001
 11
361.709091
 21
223.400623
  0
LINE
  5
1D7
100
AcDbEntity
  8
LC-002-002-RND-0
  6
CONTINUOUS
 62
             7
100
AcDbLine
 10
373.20908600000001
 20
225.40064900000019
 11
360.70908600000001
 21
225.4006210000002
  0
LINE
  5
1D6
100
AcDbEntity
  8
LC-002-002-RND-0
  6
CONTINUOUS
 62
             7
100
AcDbLine
 10
358.709091
 20
223.40061700000001
 11
358.709293
 21
128.70258800000011
  0
LINE
  5
1D5
100
AcDbEntity
  8
LC-002-002-RND-0
  6
CONTINUOUS
 62
             7
100
AcDbLine
 10
361.70908600000001
 20
225.400623
 11
360.70908600000001
 21
225.4006210000002
  0
LINE
  5
1D4
100
AcDbEntity
  8
LC-002-002-RND-0
  6
CONTINUOUS
 62
             7
100
AcDbLine
 10
361.709091
 20
223.400623
 11
360.709091
 21
223.4006210000002
  0
LINE
  5
1D3
100
AcDbEntity
  8
LC-002-002-RND-0
  6
CONTINUOUS
 62
             7
100
AcDbLine
 10
360.20907799999992
 20
225.900654
 11
369.70907799999992
 21
225.900654
  0
LINE
  5
1D2
100
AcDbEntity
  8
LC-002-002-RND-0
  6
CONTINUOUS
 62
             7
100
AcDbLine
 10
373.20907799999992
 20
229.400654
 11
373.20907799999992
 21
227.900654
  0
LINE
  5
1D1
100
AcDbEntity
  8
LC-002-002-RND-0
  6
CONTINUOUS
 62
             7
100
AcDbLine
 10
348.20907799999992
 20
208.900654
 11
348.20907799999992
 21
242.400654
  0
LINE
  5
1D0
100
AcDbEntity
  8
LC-002-002-RND-0
  6
CONTINUOUS
 62
             7
100
AcDbLine
 10
354.70907799999992
 20
206.900654
 11
350.20907799999992
 21
206.900654
  0
LINE
  5
1CF
100
AcDbEntity
  8
LC-002-002-RND-0
  6
CONTINUOUS
 62
             7
100
AcDbLine
 10
358.20907799999992
 20
223.900654
 11
358.20907799999992
 21
212.17945400000011
  0
LINE
  5
1CE
100
AcDbEntity
  8
LC-002-002-RND-0
  6
CONTINUOUS
 62
             7
100
AcDbLine
 10
371.20907799999992
 20
225.900654
 11
369.70907799999992
 21
225.900654
  0
LINE
  5
1CD
100
AcDbEntity
  8
LC-002-002-RND-0
  6
CONTINUOUS
 62
             7
100
AcDbLine
 10
373.20907799999992
 20
242.400654
 11
373.20907799999992
 21
236.38277400000021
  0
LINE
  5
1CC
100
AcDbEntity
  8
LC-002-002-RND-0
  6
CONTINUOUS
 62
             7
100
AcDbLine
 10
350.20907799999992
 20
244.400654
 11
371.20907799999992
 21
244.400654
  0
LINE
  5
1CB
100
AcDbEntity
  8
LC-002-002-RND-0
  6
CONTINUOUS
 62
             7
100
AcDbLine
 10
358.20907799999992
 20
212.17945400000011
 11
355.70907799999992
 21
212.17945400000011
  0
LINE
  5
1CA
100
AcDbEntity
  8
LC-002-002-RND-0
  6
CONTINUOUS
 62
             7
100
AcDbLine
 10
354.70907799999992
 20
206.900654
 11
354.70907799999992
 21
211.17945400000011
  0
LINE
  5
1C9
100
AcDbEntity
  8
LC-003-005-----0
  6
DASHDOT
 62
             2
100
AcDbLine
 10
464.99958800000002
 20
61.08834999999999
 11
464.99958800000002
 21
122.02118400000001
  0
LINE
  5
1C8
100
AcDbEntity
  8
LC-002-002-RND-0
  6
CONTINUOUS
 62
             7
100
AcDbLine
 10
455.49958800000002
 20
102.5210299999999
 11
455.49958800000002
 21
122.70555299999999
  0
LINE
  5
1C7
100
AcDbEntity
  8
LC-002-002-RND-0
  6
CONTINUOUS
 62
             7
100
AcDbLine
 10
444.49958800000002
 20
126.740953
 11
444.49958800000002
 21
128.80141599999999
  0
LINE
  5
1C6
100
AcDbEntity
  8
LC-002-002-RND-0
  6
CONTINUOUS
 62
             7
100
AcDbLine
 10
474.49978599999997
 20
102.5210240000001
 11
474.49980199999999
 21
122.705721
  0
LINE
  5
1C5
100
AcDbEntity
  8
LC-002-002-RND-0
  6
CONTINUOUS
 62
             7
100
AcDbLine
 10
485.49958800000002
 20
126.740953
 11
485.49958800000002
 21
128.80141599999999
  0
LINE
  5
1C4
100
AcDbEntity
  8
LC-002-002-RND-0
  6
CONTINUOUS
 62
             7
100
AcDbLine
 10
466.49958800000002
 20
130.27118400000001
 11
463.49958800000002
 21
130.27118400000001
  0
LINE
  5
1C3
100
AcDbEntity
  8
LC-002-002-RND-0
  6
CONTINUOUS
 62
             7
100
AcDbLine
 10
467.49958800000002
 20
126.27118400000001
 11
467.49958800000002
 21
129.27118400000001
  0
LINE
  5
1C2
100
AcDbEntity
  8
LC-002-002-RND-0
  6
CONTINUOUS
 62
             7
100
AcDbLine
 10
462.49958800000002
 20
129.27118400000001
 11
462.49958800000002
 21
126.27118400000001
  0
LINE
  5
1C1
100
AcDbEntity
  8
LC-002-002-RND-0
  6
CONTINUOUS
 62
             7
100
AcDbLine
 10
463.49958800000002
 20
125.27118400000001
 11
466.49958800000002
 21
125.27118400000001
  0
LINE
  5
1C0
100
AcDbEntity
  8
LC-003-005-----0
  6
DASHDOT
 62
             2
100
AcDbLine
 10
341.99957899999998
 20
61.08733399999983
 11
341.99957899999998
 21
138.52016800000001
  0
LINE
  5
1BF
100
AcDbEntity
  8
LC-001-002-----0
  6
CONTINUOUS
 62
             7
100
AcDbLine
 10
332.49957899999998
 20
102.520014
 11
332.49957899999998
 21
122.7045378918492
  0
LINE
  5
1BE
100
AcDbEntity
  8
LC-001-002-----0
  6
CONTINUOUS
 62
             7
100
AcDbLine
 10
321.49957899999998
 20
126.7399369999998
 11
321.49957899999998
 21
128.80040000000011
  0
LINE
  5
1BD
100
AcDbEntity
  8
LC-001-002-----0
  6
CONTINUOUS
 62
             7
100
AcDbLine
 10
351.49977699999988
 20
102.52000200000001
 11
351.49978982338178
 21
122.70456842559091
  0
LINE
  5
1BC
100
AcDbEntity
  8
LC-001-002-----0
  6
CONTINUOUS
 62
             7
100
AcDbLine
 10
343.49957899999998
 20
130.27016800000001
 11
340.49957899999998
 21
130.27016800000001
  0
LINE
  5
1BB
100
AcDbEntity
  8
LC-001-002-----0
  6
CONTINUOUS
 62
             7
100
AcDbLine
 10
344.49957899999998
 20
126.270168
 11
344.49957899999998
 21
129.27016800000001
  0
LINE
  5
1BA
100
AcDbEntity
  8
LC-001-002-----0
  6
CONTINUOUS
 62
             7
100
AcDbLine
 10
339.49957899999998
 20
129.27016800000001
 11
339.49957899999998
 21
126.270168
  0
LINE
  5
1B9
100
AcDbEntity
  8
LC-001-002-----0
  6
CONTINUOUS
 62
             7
100
AcDbLine
 10
340.49957899999998
 20
125.270168
 11
343.49957899999998
 21
125.270168
  0
LINE
  5
1B8
100
AcDbEntity
  8
LC-002-002-RND-0
  6
CONTINUOUS
 62
             7
100
AcDbLine
 10
297.80715500000002
 20
94.52000799999996
 11
298.26539000000002
 21
107.6421559999999
  0
LINE
  5
1B7
100
AcDbEntity
  8
LC-002-002-RND-0
  6
CONTINUOUS
 62
             7
100
AcDbLine
 10
308.94842099999983
 20
111.020008
 11
308.94842099999983
 21
114.020008
  0
LINE
  5
1B6
100
AcDbEntity
  8
LC-002-002-RND-0
  6
CONTINUOUS
 62
             7
100
AcDbLine
 10
497.94792599999982
 20
111.020008
 11
505.23557599999998
 21
111.020008
  0
LINE
  5
1B5
100
AcDbEntity
  8
LC-002-002-RND-0
  6
CONTINUOUS
 62
             7
100
AcDbLine
 10
497.94792599999982
 20
111.020008
 11
497.94792599999982
 21
114.020008
  0
LINE
  5
1B4
100
AcDbEntity
  8
LC-002-002-RND-0
  6
CONTINUOUS
 62
             7
100
AcDbLine
 10
506.17421999999988
 20
94.52000799999996
 11
297.82461499999988
 21
94.52000799999996
  0
LINE
  5
1B3
100
AcDbEntity
  8
LC-002-002-RND-0
  6
CONTINUOUS
 62
             7
100
AcDbLine
 10
455.49958800000002
 20
116.020008
 11
376.70907799999992
 21
116.020008
  0
LINE
  5
1B2
100
AcDbEntity
  8
LC-002-002-RND-0
  6
CONTINUOUS
 62
             7
100
AcDbLine
 10
495.94792599999982
 20
116.020008
 11
474.49979500000001
 21
116.020008
  0
LINE
  5
1B1
100
AcDbEntity
  8
LC-002-002-RND-0
  6
CONTINUOUS
 62
             7
100
AcDbLine
 10
332.49957899999998
 20
116.020008
 11
310.94842099999983
 21
116.020008
  0
LINE
  5
1B0
100
AcDbEntity
  8
LC-002-002-RND-0
  6
CONTINUOUS
 62
             7
100
AcDbLine
 10
376.70907799999992
 20
116.020008
 11
351.49978499999992
 21
116.020008
  0
LINE
  5
1AF
100
AcDbEntity
  8
LC-002-002-RND-0
  6
CONTINUOUS
 62
             7
100
AcDbLine
 10
497.94792599999982
 20
111.020008
 11
474.49979100000002
 21
111.020008
  0
LINE
  5
1AE
100
AcDbEntity
  8
LC-002-002-RND-0
  6
CONTINUOUS
 62
             7
100
AcDbLine
 10
375.70907799999992
 20
122.020008
 11
355.70907799999992
 21
122.020008
  0
LINE
  5
1AD
100
AcDbEntity
  8
LC-002-002-RND-0
  6
CONTINUOUS
 62
             7
100
AcDbLine
 10
376.70907799999992
 20
116.020008
 11
376.70907799999992
 21
121.020008
  0
LINE
  5
1AC
100
AcDbEntity
  8
LC-002-002-RND-0
  6
CONTINUOUS
 62
             7
100
AcDbLine
 10
354.70907799999992
 20
116.020008
 11
354.70907799999992
 21
121.020008
  0
LINE
  5
1AB
100
AcDbEntity
  8
LC-002-002-RND-0
  6
CONTINUOUS
 62
             7
100
AcDbLine
 10
506.17421999999988
 20
94.52000799999996
 11
508.98421899999988
 21
94.52000799999996
  0
LINE
  5
1AA
100
AcDbEntity
  8
LC-002-002-RND-0
  6
CONTINUOUS
 62
             7
100
AcDbLine
 10
509.00167900000002
 20
94.52000799999996
 11
508.73344400000002
 21
107.6421559999999
  0
LINE
  5
1A9
100
AcDbEntity
  8
LC-002-002-RND-0
  6
CONTINUOUS
 62
             7
100
AcDbLine
 10
292.99934999999999
 20
-103.939104
 11
292.99934999999999
 21
-104.40486300000001
  0
LINE
  5
1A8
100
AcDbEntity
  8
LC-002-002-RND-0
  6
CONTINUOUS
 62
             7
100
AcDbLine
 10
286.49934999999999
 20
-92.53925900000013
 11
286.49934999999999
 21
-106.9657569999999
  0
LINE
  5
1A7
100
AcDbEntity
  8
LC-002-002-RND-0
  6
CONTINUOUS
 62
             7
100
AcDbLine
 10
130.509209
 20
-92.53913999999986
 11
271.88054399999987
 21
-92.53924899999993
  0
LINE
  5
1A6
100
AcDbEntity
  8
LC-002-002-RND-0
  6
CONTINUOUS
 62
             7
100
AcDbLine
 10
87.99979199999996
 20
104.46049600000021
 11
91.30157299999996
 21
-84.75
  0
LINE
  5
1A5
100
AcDbEntity
  8
LC-002-002-RND-0
  6
CONTINUOUS
 62
             7
100
AcDbLine
 10
9.0
 20
85.0
 11
0.0
 21
85.0
  0
LINE
  5
1A4
100
AcDbEntity
  8
LC-002-002-RND-0
  6
CONTINUOUS
 62
             7
100
AcDbLine
 10
292.99934999999999
 20
88.31089699999984
 11
292.99934999999999
 21
84.06089599999996
  0
LINE
  5
1A3
100
AcDbEntity
  8
LC-002-002-RND-0
  6
CONTINUOUS
 62
             7
100
AcDbLine
 10
290.71769
 20
88.31089699999984
 11
292.99934999999999
 21
88.31089699999984
  0
LINE
  5
1A2
100
AcDbEntity
  8
LC-002-002-RND-0
  6
CONTINUOUS
 62
             7
100
AcDbLine
 10
0.0
 20
85.0
 11
0.0
 21
81.0
  0
LINE
  5
1A1
100
AcDbEntity
  8
LC-002-002-RND-0
  6
CONTINUOUS
 62
             7
100
AcDbLine
 10
9.0
 20
-85.0
 11
0.0
 21
-85.0
  0
LINE
  5
1A0
100
AcDbEntity
  8
LC-002-002-RND-0
  6
CONTINUOUS
 62
             7
100
AcDbLine
 10
88.34833699999996
 20
84.75
 11
29.0
 21
84.75
  0
LINE
  5
19F
100
AcDbEntity
  8
LC-002-002-RND-0
  6
CONTINUOUS
 62
             7
100
AcDbLine
 10
23.0
 20
93.5
 11
15.0
 21
93.5
  0
LINE
  5
19E
100
AcDbEntity
  8
LC-002-002-RND-0
  6
CONTINUOUS
 62
             7
100
AcDbLine
 10
91.30157299999996
 20
-84.75
 11
91.45615399999997
 21
-93.60833200000002
  0
LINE
  5
19D
100
AcDbEntity
  8
LC-002-002-RND-0
  6
CONTINUOUS
 62
             7
100
AcDbLine
 10
23.0
 20
-93.5
 11
15.0
 21
-93.5
  0
LINE
  5
19C
100
AcDbEntity
  8
LC-002-002-RND-0
  6
CONTINUOUS
 62
             7
100
AcDbLine
 10
0.0
 20
-85.0
 11
0.0
 21
-81.0
  0
LINE
  5
19B
100
AcDbEntity
  8
LC-002-002-RND-0
  6
CONTINUOUS
 62
             7
100
AcDbLine
 10
29.0
 20
-84.75
 11
29.0
 21
-87.5
  0
LINE
  5
19A
100
AcDbEntity
  8
LC-002-002-RND-0
  6
CONTINUOUS
 62
             7
100
AcDbLine
 10
290.99952300000001
 20
104.4614940000001
 11
290.62493499999999
 21
82.99548200000004
  0
LINE
  5
199
100
AcDbEntity
  8
LC-002-002-RND-0
  6
CONTINUOUS
 62
             7
100
AcDbLine
 10
29.0
 20
84.75
 11
29.0
 21
87.5
  0
LINE
  5
198
100
AcDbEntity
  8
LC-002-002-RND-0
  6
CONTINUOUS
 62
             7
100
AcDbLine
 10
95.45556699999997
 20
-97.53854200000001
 11
126.017454
 21
-97.53836899999988
  0
LINE
  5
197
100
AcDbEntity
  8
LC-002-002-RND-0
  6
CONTINUOUS
 62
             7
100
AcDbLine
 10
130.009208
 20
-93.03913899999998
 11
130.009208
 21
-93.53837799999997
  0
LINE
  5
196
100
AcDbEntity
  8
LC-002-002-RND-0
  6
CONTINUOUS
 62
             7
100
AcDbLine
 10
9.0
 20
-87.5
 11
9.0
 21
-85.0
  0
LINE
  5
195
100
AcDbEntity
  8
LC-002-002-RND-0
  6
CONTINUOUS
 62
             7
100
AcDbLine
 10
9.0
 20
87.5
 11
9.0
 21
85.0
  0
LINE
  5
194
100
AcDbEntity
  8
LC-002-002-RND-0
  6
CONTINUOUS
 62
             7
100
AcDbLine
 10
91.30157299999996
 20
-84.75
 11
29.0
 21
-84.75
  0
LINE
  5
193
100
AcDbEntity
  8
LC-002-002-RND-0
  6
CONTINUOUS
 62
             7
100
AcDbLine
 10
0.0
 20
81.0
 11
0.0
 21
-81.0
  0
LINE
  5
192
100
AcDbEntity
  8
LC-002-002-RND-0
  6
CONTINUOUS
 62
             7
100
AcDbLine
 10
301.99955999999992
 20
94.52000499999986
 11
302.20071899999999
 21
82.99250200000006
  0
LINE
  5
191
100
AcDbEntity
  8
LC-002-002-RND-0
  6
CONTINUOUS
 62
             7
100
AcDbLine
 10
501.55248985129498
 20
-102.99998142169279
 11
583.99944600000003
 21
-102.9999654111302
  0
LINE
  5
190
100
AcDbEntity
  8
LC-002-002-RND-0
  6
CONTINUOUS
 62
             7
100
AcDbLine
 10
589.99944600000003
 20
55.39232566265355
 11
589.99944600000003
 21
-101.3922864111187
  0
LINE
  5
18F
100
AcDbEntity
  8
LC-002-002-RND-0
  6
CONTINUOUS
 62
             7
100
AcDbLine
 10
501.60519599999992
 20
-103.0999814111187
 11
501.57871399999988
 21
-104.6175834111186
  0
LINE
  5
18E
100
AcDbEntity
  8
LC-002-002-RND-0
  6
CONTINUOUS
 62
             7
100
AcDbLine
 10
504.99929100000003
 20
94.52100299999984
 11
501.55248985129498
 21
-102.99998142169279
  0
LINE
  5
18D
100
AcDbEntity
  8
LC-002-002-RND-0
  6
CONTINUOUS
 62
             7
100
AcDbLine
 10
309.44620822974753
 20
-110.5994174624834
 11
340.017222
 21
-110.5992454111188
  0
LINE
  5
18C
100
AcDbEntity
  8
LC-002-002-RND-0
  6
CONTINUOUS
 62
             7
100
AcDbLine
 10
344.50897700000002
 20
-105.6000154111187
 11
500.57886500000001
 21
-105.6001364111187
  0
LINE
  5
18B
100
AcDbEntity
  8
LC-002-002-RND-0
  6
CONTINUOUS
 62
             7
100
AcDbLine
 10
344.00897600000002
 20
-106.10001441111849
 11
344.00897600000002
 21
-106.5992534111188
  0
LINE
  5
18A
100
AcDbEntity
  8
LC-002-002-RND-0
  6
CONTINUOUS
 62
             7
100
AcDbLine
 10
504.400735
 20
57.00002066265347
 11
583.99944600000003
 21
57.00002066265347
  0
LINE
  5
189
100
AcDbEntity
  8
LC-002-002-RND-0
  6
CONTINUOUS
 62
             7
100
AcDbLine
 10
583.99944600000003
 20
-102.9999814111188
 11
589.99944600000003
 21
-101.3922864111187
  0
LINE
  5
188
100
AcDbEntity
  8
LC-002-002-RND-0
  6
CONTINUOUS
 62
             7
100
AcDbLine
 10
583.99944600000003
 20
57.00002066265347
 11
589.99944600000003
 21
55.39232566265355
  0
LINE
  5
187
100
AcDbEntity
  8
LC-001-002-----0
  6
CONTINUOUS
 62
             7
100
AcDbLine
 10
223.66023899999999
 20
141.50718499999991
 11
235.0228747060564
 21
141.50718499999991
  0
LINE
  5
186
100
AcDbEntity
  8
LC-001-002-----0
  6
CONTINUOUS
 62
             7
100
AcDbLine
 10
223.66023899999999
 20
136.1166410000001
 11
223.66023899999999
 21
141.50718499999991
  0
LINE
  5
185
100
AcDbEntity
  8
LC-001-002-----0
  6
CONTINUOUS
 62
             7
100
AcDbLine
 10
220.00934599999999
 20
136.1166410000001
 11
230.49981999999989
 21
136.1166410000001
  0
LINE
  5
184
100
AcDbEntity
  8
LC-001-002-----0
  6
CONTINUOUS
 62
             7
100
AcDbLine
 10
234.84543363680791
 20
133.96050000000011
 11
218.95961199999991
 21
133.96050000000011
  0
LINE
  5
183
100
AcDbEntity
  8
LC-001-002-----0
  6
CONTINUOUS
 62
             7
100
AcDbLine
 10
220.00934599999999
 20
133.96050000000011
 11
220.00934599999999
 21
136.1166410000001
  0
LINE
  5
182
100
AcDbEntity
  8
LC-001-002-----0
  6
CONTINUOUS
 62
             7
100
AcDbLine
 10
218.95961199999991
 20
125.9605000000001
 11
218.95961199999991
 21
133.96050000000011
  0
POINT
  5
181
100
AcDbEntity
  8
LC-005-003-----0
 62
             7
100
AcDbPoint
 10
0.0
 20
-81.0
  0
POINT
  5
180
100
AcDbEntity
  8
LC-005-003-----0
 62
             7
100
AcDbPoint
 10
0.0
 20
85.0
  0
POINT
  5
17F
100
AcDbEntity
  8
LC-005-003-----0
 62
             7
100
AcDbPoint
 10
509.00167900000002
 20
94.52000799999996
  0
POINT
  5
17E
100
AcDbEntity
  8
LC-005-003-----0
 62
             7
100
AcDbPoint
 10
83.99738699999993
 20
104.4605000000001
  0
POINT
  5
17D
100
AcDbEntity
  8
LC-005-003-----0
 62
             7
100
AcDbPoint
 10
350.20907799999992
 20
244.400654
  0
POINT
  5
17C
100
AcDbEntity
  8
LC-005-003-----0
 62
             7
100
AcDbPoint
 10
583.99944600000003
 20
57.00002066265347
  0
POINT
  5
17B
100
AcDbEntity
  8
LC-005-003-----0
 62
             7
100
AcDbPoint
 10
583.99946399999999
 20
-102.9999624111188
  0
POINT
  5
17A
100
AcDbEntity
  8
LC-005-003-----0
 62
             7
100
AcDbPoint
 10
0.0
 20
-81.0
  0
ENDBLK
  5
373
100
AcDbEntity
  8
0
100
AcDbBlockEnd
  0
BLOCK
  5
376
100
AcDbEntity
  8
0
100
AcDbBlockBegin
  2
*D2
 70
             1
 10
0.0
 20
0.0
 30
0.0
  3
*D2
  1

  0
LINE
  5
377
100
AcDbEntity
  8
0
  6
CONTINUOUS
 62
             4
100
AcDbLine
 10
1018.83958065452
 20
-140.82799656071211
 11
743.83937765451992
 21
-140.82799656071211
  0
LINE
  5
378
100
AcDbEntity
  8
0
  6
CONTINUOUS
 62
             4
100
AcDbLine
 10
743.83937765451992
 20
136.68042900007941
 11
743.83937765451992
 21
-142.82799656071211
  0
LINE
  5
379
100
AcDbEntity
  8
0
  6
CONTINUOUS
 62
             4
100
AcDbLine
 10
1018.83958065452
 20
136.68042900007941
 11
1018.83958065452
 21
-142.82799656071211
  0
SOLID
  5
37A
100
AcDbEntity
  8
0
 62
             4
100
AcDbTrace
 10
1006.83958065452
 20
-142.40782653176086
 11
1006.83958065452
 21
-139.24816658966336
 12
1018.83958065452
 22
-140.82799656071211
 13
1018.83958065452
 23
-140.82799656071211
  0
SOLID
  5
37B
100
AcDbEntity
  8
0
 62
             4
100
AcDbTrace
 10
755.83937765451992
 20
-139.24816658966336
 11
755.83937765451992
 21
-142.40782653176086
 12
743.83937765451992
 22
-140.82799656071211
 13
743.83937765451992
 23
-140.82799656071211
  0
MTEXT
  5
37D
100
AcDbEntity
  8
0
 62
             1
100
AcDbMText
 10
861.98815556804618
 20
-138.82799656071211
 30
0.0
 40
12.0
 41
0.0
 71
             7
 72
             1
  1
275
  7
CONVERTER_1
 11
0.99999999999706
 21
0.00000242406841
 31
0.0
  0
ENDBLK
  5
37E
100
AcDbEntity
  8
0
100
AcDbBlockEnd
  0
BLOCK
  5
382
100
AcDbEntity
  8
0
100
AcDbBlockBegin
  2
*D3
 70
             1
 10
0.0
 20
0.0
 30
0.0
  3
*D3
  1

  0
LINE
  5
383
100
AcDbEntity
  8
0
  6
CONTINUOUS
 62
             4
100
AcDbLine
 10
-17.6865619760582
 20
80.0
 11
-17.6865619760582
 21
-80.0
  0
LINE
  5
384
100
AcDbEntity
  8
0
  6
CONTINUOUS
 62
             4
100
AcDbLine
 10
-6.0
 20
80.0
 11
-19.6865619760582
 21
80.0
  0
LINE
  5
385
100
AcDbEntity
  8
0
  6
CONTINUOUS
 62
             4
100
AcDbLine
 10
-6.0
 20
-80.0
 11
-19.6865619760582
 21
-80.0
  0
SOLID
  5
386
100
AcDbEntity
  8
0
 62
             4
100
AcDbTrace
 10
-16.10673200500946
 20
68.0
 11
-19.26639194710695
 21
68.0
 12
-17.6865619760582
 22
80.0
 13
-17.6865619760582
 23
80.0
  0
SOLID
  5
387
100
AcDbEntity
  8
0
 62
             4
100
AcDbTrace
 10
-19.26639194710695
 20
-68.0
 11
-16.10673200500945
 21
-68.0
 12
-17.6865619760582
 22
-80.0
 13
-17.6865619760582
 23
-80.0
  0
MTEXT
  5
388
100
AcDbEntity
  8
0
 62
             1
100
AcDbMText
 10
-19.6865619760582
 20
-18.84157049596009
 30
0.0
 40
12.0
 41
0.0
 71
             7
 72
             1
  1
\C1;DN\C1;160
  7
CONVERTER_1
 11
0.0
 21
1.0
 31
0.0
  0
ENDBLK
  5
389
100
AcDbEntity
  8
0
100
AcDbBlockEnd
  0
BLOCK
  5
38D
100
AcDbEntity
  8
0
100
AcDbBlockBegin
  2
*D4
 70
             1
 10
0.0
 20
0.0
 30
0.0
  3
*D4
  1

  0
LINE
  5
38E
100
AcDbEntity
  8
0
  6
CONTINUOUS
 62
             4
100
AcDbLine
 10
618.66259646550998
 20
57.00002066265347
 11
618.66259646550998
 21
-102.99996541113023
  0
LINE
  5
38F
100
AcDbEntity
  8
0
  6
CONTINUOUS
 62
             4
100
AcDbLine
 10
583.99944600000003
 20
57.00002066265347
 11
620.66259646550998
 21
57.00002066265347
  0
LINE
  5
390
100
AcDbEntity
  8
0
  6
CONTINUOUS
 62
             4
100
AcDbLine
 10
583.99944600000003
 20
-102.99996541113023
 11
620.66259646550998
 21
-102.99996541113023
  0
SOLID
  5
391
100
AcDbEntity
  8
0
 62
             4
100
AcDbTrace
 10
620.24242643655873
 20
45.00002066265347
 11
617.08276649446123
 21
45.00002066265347
 12
618.66259646550998
 22
57.00002066265347
 13
618.66259646550998
 23
57.00002066265347
  0
SOLID
  5
392
100
AcDbEntity
  8
0
 62
             4
100
AcDbTrace
 10
617.08276649446123
 20
-90.99996541113023
 11
620.24242643655873
 21
-90.99996541113023
 12
618.66259646550998
 22
-102.99996541113023
 13
618.66259646550998
 23
-102.99996541113023
  0
MTEXT
  5
393
100
AcDbEntity
  8
0
 62
             1
100
AcDbMText
 10
616.66259646550998
 20
-34.45290078615001
 30
0.0
 40
12.0
 41
0.0
 71
             7
 72
             1
  1
\C1;DN\C1;160
  7
CONVERTER_1
 11
0.0
 21
1.0
 31
0.0
  0
ENDBLK
  5
394
100
AcDbEntity
  8
0
100
AcDbBlockEnd
  0
BLOCK
  5
398
100
AcDbEntity
  8
0
100
AcDbBlockBegin
  2
*D5
 70
             1
 10
0.0
 20
0.0
 30
0.0
  3
*D5
  1

  0
LINE
  5
399
100
AcDbEntity
  8
0
  6
CONTINUOUS
 62
             4
100
AcDbLine
 10
548.87503607669998
 20
86.93855636293006
 11
548.87503607669998
 21
0.0
  0
LINE
  5
39A
100
AcDbEntity
  8
0
  6
CONTINUOUS
 62
             4
100
AcDbLine
 10
548.87503607669998
 20
0.0
 11
548.87503607669998
 21
-22.99998095271444
  0
LINE
  5
39B
100
AcDbEntity
  8
0
  6
CONTINUOUS
 62
             4
100
AcDbLine
 10
548.87503607669998
 20
-22.99998095271444
 11
548.87503607669998
 21
-46.99998095271444
  0
LINE
  5
39C
100
AcDbEntity
  8
0
  6
CONTINUOUS
 62
             4
100
AcDbLine
 10
152.91188926786197
 20
0.0
 11
550.87503607669998
 21
0.0
  0
LINE
  5
39D
100
AcDbEntity
  8
0
  6
CONTINUOUS
 62
             4
100
AcDbLine
 10
495.64910619109321
 20
-22.99998095271444
 11
550.87503607669998
 21
-22.99998095271444
  0
SOLID
  5
39E
100
AcDbEntity
  8
0
 62
             4
100
AcDbTrace
 10
547.29520610565123
 20
12.0
 11
550.45486604774874
 21
12.0
 12
548.87503607669998
 22
0.0
 13
548.87503607669998
 23
0.0
  0
SOLID
  5
39F
100
AcDbEntity
  8
0
 62
             4
100
AcDbTrace
 10
550.45486604774874
 20
-34.99998095271444
 11
547.29520610565123
 21
-34.99998095271444
 12
548.87503607669998
 22
-22.99998095271444
 13
548.87503607669998
 23
-22.99998095271444
  0
MTEXT
  5
3A0
100
AcDbEntity
  8
0
 62
             1
100
AcDbMText
 10
546.87503607669998
 20
68.93855636293006
 30
0.0
 40
12.0
 41
0.0
 71
             7
 72
             1
  1
23
  7
CONVERTER_1
 11
0.0
 21
1.0
 31
0.0
  0
ENDBLK
  5
3A1
100
AcDbEntity
  8
0
100
AcDbBlockEnd
  0
BLOCK
  5
3A5
100
AcDbEntity
  8
0
100
AcDbBlockBegin
  2
*D6
 70
             1
 10
0.0
 20
0.0
 30
0.0
  3
*D6
  1

  0
LINE
  5
3A6
100
AcDbEntity
  8
0
  6
CONTINUOUS
 62
             4
100
AcDbLine
 10
0.0
 20
-138.63999491148999
 11
589.99944600000003
 21
-138.63999491148999
  0
LINE
  5
3A7
100
AcDbEntity
  8
0
  6
CONTINUOUS
 62
             4
100
AcDbLine
 10
0.0
 20
-80.99999999999997
 11
0.0
 21
-140.63999491148999
  0
LINE
  5
3A8
100
AcDbEntity
  8
0
  6
CONTINUOUS
 62
             4
100
AcDbLine
 10
589.99944600000003
 20
-101.39228641111865
 11
589.99944600000003
 21
-140.63999491148999
  0
SOLID
  5
3A9
100
AcDbEntity
  8
0
 62
             4
100
AcDbTrace
 10
12.0
 20
-137.06016494044124
 11
12.0
 21
-140.21982488253875
 12
0.0
 22
-138.63999491148999
 13
0.0
 23
-138.63999491148999
  0
SOLID
  5
3AA
100
AcDbEntity
  8
0
 62
             4
100
AcDbTrace
 10
577.99944600000003
 20
-140.21982488253875
 11
577.99944600000003
 21
-137.06016494044124
 12
589.99944600000003
 22
-138.63999491148999
 13
589.99944600000003
 23
-138.63999491148999
  0
MTEXT
  5
3AB
100
AcDbEntity
  8
0
 62
             1
100
AcDbMText
 10
284.178899445887
 20
-136.63999491148999
 30
0.0
 40
12.0
 41
0.0
 71
             7
 72
             1
  1
590
  7
CONVERTER_1
 11
0.99999999999706
 21
0.00000242406841
 31
0.0
  0
ENDBLK
  5
3AC
100
AcDbEntity
  8
0
100
AcDbBlockEnd
  0
BLOCK
  5
3B0
100
AcDbEntity
  8
0
100
AcDbBlockBegin
  2
*D7
 70
             1
 10
0.0
 20
0.0
 30
0.0
  3
*D7
  1

  0
LINE
  5
3B1
100
AcDbEntity
  8
0
  6
CONTINUOUS
 62
             4
100
AcDbLine
 10
509.00167899999997
 20
160.71349394398001
 11
83.99738699999989
 21
160.71349394398001
  0
LINE
  5
3B2
100
AcDbEntity
  8
0
  6
CONTINUOUS
 62
             4
100
AcDbLine
 10
509.00167899999997
 20
94.52000799999999
 11
509.00167899999997
 21
162.71349394398001
  0
LINE
  5
3B3
100
AcDbEntity
  8
0
  6
CONTINUOUS
 62
             4
100
AcDbLine
 10
83.99738699999989
 20
104.46050000000017
 11
83.99738699999989
 21
162.71349394398001
  0
SOLID
  5
3B4
100
AcDbEntity
  8
0
 62
             4
100
AcDbTrace
 10
497.00167899999997
 20
159.13366397293126
 11
497.00167899999997
 21
162.29332391502876
 12
509.00167899999997
 22
160.71349394398001
 13
509.00167899999997
 23
160.71349394398001
  0
SOLID
  5
3B5
100
AcDbEntity
  8
0
 62
             4
100
AcDbTrace
 10
95.99738699999989
 20
162.29332391502876
 11
95.99738699999989
 21
159.13366397293126
 12
83.99738699999989
 22
160.71349394398001
 13
83.99738699999989
 23
160.71349394398001
  0
MTEXT
  5
3B6
100
AcDbEntity
  8
0
 62
             1
100
AcDbMText
 10
405.60860218418702
 20
162.71349394398001
 30
0.0
 40
12.0
 41
0.0
 71
             7
 72
             1
  1
425
  7
CONVERTER_1
 11
0.99999999999706
 21
0.00000242406841
 31
0.0
  0
ENDBLK
  5
3B7
100
AcDbEntity
  8
0
100
AcDbBlockEnd
  0
BLOCK
  5
3BB
100
AcDbEntity
  8
0
100
AcDbBlockBegin
  2
*D8
 70
             1
 10
0.0
 20
0.0
 30
0.0
  3
*D8
  1

  0
LINE
  5
3BC
100
AcDbEntity
  8
0
  6
CONTINUOUS
 62
             4
100
AcDbLine
 10
645.32301279382
 20
-110.59924541111874
 11
645.32301279382
 21
244.40065400000003
  0
LINE
  5
3BD
100
AcDbEntity
  8
0
  6
CONTINUOUS
 62
             4
100
AcDbLine
 10
371.20907799999992
 20
244.40065400000003
 11
647.32301279382
 21
244.40065400000003
  0
LINE
  5
3BE
100
AcDbEntity
  8
0
  6
CONTINUOUS
 62
             4
100
AcDbLine
 10
340.017222
 20
-110.59924541111874
 11
647.32301279382
 21
-110.59924541111874
  0
SOLID
  5
3BF
100
AcDbEntity
  8
0
 62
             4
100
AcDbTrace
 10
643.74318282277125
 20
-98.59924541111874
 11
646.90284276486875
 21
-98.59924541111874
 12
645.32301279382
 22
-110.59924541111874
 13
645.32301279382
 23
-110.59924541111874
  0
SOLID
  5
3C0
100
AcDbEntity
  8
0
 62
             4
100
AcDbTrace
 10
646.90284276486875
 20
232.40065400000003
 11
643.74318282277125
 21
232.40065400000003
 12
645.32301279382
 22
244.40065400000003
 13
645.32301279382
 23
244.40065400000003
  0
MTEXT
  5
3C1
100
AcDbEntity
  8
0
 62
             1
100
AcDbMText
 10
643.32301279382
 20
27.69233288165906
 30
0.0
 40
12.0
 41
0.0
 71
             7
 72
             1
  1
\C1;265-\C1;355
  7
CONVERTER_1
 11
0.0
 21
1.0
 31
0.0
  0
ENDBLK
  5
3C2
100
AcDbEntity
  8
0
100
AcDbBlockEnd
  0
ENDSEC
  0
SECTION
  2
ENTITIES
  0
DIMENSION
  5
3C4
100
AcDbEntity
  8
1
100
AcDbDimension
  2
*D8
 10
645.32301279382
 20
-110.59924541111874
 11
637.32301279382
 21
59.25233288165904
 31
0.0
 53
90.0
  1
<>
  3
ME10_DIM_6
100
AcDbAlignedDimension
 13
371.20907799999992
 23
244.400654
 14
340.017222
 24
-110.5992454111188
 50
90.0
100
AcDbRotatedDimension
  0
DIMENSION
  5
3B9
100
AcDbEntity
  8
1
100
AcDbDimension
  2
*D7
 10
509.00167899999997
 20
160.71349394398001
 11
420.008602184187
 21
168.71349394398001
 31
0.0
 53
0.00013888888889
  1
<>
  3
ME10_DIM_5
100
AcDbAlignedDimension
 13
83.99738699999993
 23
104.4605000000001
 14
509.00167900000002
 24
94.52000799999996
100
AcDbRotatedDimension
  0
DIMENSION
  5
3AE
100
AcDbEntity
  8
1
100
AcDbDimension
  2
*D6
 10
0.0
 20
-138.63999491148999
 11
298.57889944588698
 21
-130.63999491148999
 31
0.0
 53
0.00013888888889
  1
<>
  3
ME10_DIM_4
100
AcDbAlignedDimension
 13
589.99944600000003
 23
-101.3922864111187
 14
0.0
 24
-81.0
100
AcDbRotatedDimension
  0
DIMENSION
  5
3A3
100
AcDbEntity
  8
1
100
AcDbDimension
  2
*D5
 10
548.87503607669998
 20
0.0
 11
540.87503607669998
 21
77.93855636293006
 31
0.0
 53
90.0
  1
<>
  3
ME10_DIM_3
100
AcDbAlignedDimension
 13
495.64910619109321
 23
-22.9999809527144
 14
152.91188926786199
 24
0.0
 50
90.0
100
AcDbRotatedDimension
  0
DIMENSION
  5
396
100
AcDbEntity
  8
1
100
AcDbDimension
  2
*D4
 10
618.66259646550998
 20
57.00002066265347
 11
610.66259646550998
 21
-15.37290078615001
 31
0.0
 53
90.0
  1
<>
  3
ME10_DIM_2
100
AcDbAlignedDimension
 13
583.99944600000003
 23
-102.9999654111302
 14
583.99944600000003
 24
57.00002066265347
 50
90.0
100
AcDbRotatedDimension
  0
DIMENSION
  5
38B
100
AcDbEntity
  8
1
100
AcDbDimension
  2
*D3
 10
-17.6865619760582
 20
80.0
 11
-25.6865619760582
 21
0.23842950403991
 31
0.0
 53
90.0
  1
<>
  3
ME10_DIM_1
100
AcDbAlignedDimension
 13
-6.0
 23
-80.0
 14
-6.0
 24
80.0
 50
90.0
100
AcDbRotatedDimension
  0
DIMENSION
  5
380
100
AcDbEntity
  8
1
100
AcDbDimension
  2
*D2
 10
1018.83958065452
 20
-140.82799656071211
 11
876.38815556804616
 21
-132.82799656071211
 31
0.0
 53
0.00013888888889
  1
<>
  3
ME10_DIM_0
100
AcDbAlignedDimension
 13
743.83937765451992
 23
136.68042900007941
 14
1018.83958065452
 24
136.68042900007941
100
AcDbRotatedDimension
  0
INSERT
  5
34
100
AcDbEntity
  8
1
100
AcDbBlockReference
  2
HL_715_2_R_CKSTAUVERSCS__1
 10
1691.96028698071
 20
2494.9778657681259
  0
INSERT
  5
35
100
AcDbEntity
  8
0
100
AcDbBlockReference
  2
HL_715_2_R_CKSTAUVERSCS__2
 10
-482.11402685452902
 20
-143.880247928074
  0
ENDSEC
  0
SECTION
  2
OBJECTS
  0
DICTIONARY
  5
19
100
AcDbDictionary
  3
ACAD_GROUP
350
1A
  3
ACAD_MLINESTYLE
350
1B
  0
DICTIONARY
  5
1A
102
{ACAD_REACTORS
330
19
102
}
100
AcDbDictionary
  0
DICTIONARY
  5
1B
102
{ACAD_REACTORS
330
19
102
}
100
AcDbDictionary
  3
STANDARD
350
1C
  0
MLINESTYLE
  5
1C
102
{ACAD_REACTORS
330
1B
102
}
100
AcDbMlineStyle
  2
STANDARD
 70
             0
  3

 62
             0
 51
90.0
 52
90.0
 71
             2
 49
0.5
 62
           256
  6
BYLAYER
 49
-0.5
 62
           256
  6
BYLAYER
  0
ENDSEC
  0
EOF
