  0
SECTION
  2
HEADER
  9
$ACADVER
  1
AC1014
  9
$ACADMAINTVER
 70
             0
  9
$DWGCODEPAGE
  3
ANSI_1252
  9
$INSBASE
 10
0.0
 20
0.0
 30
0.0
  9
$EXTMIN
 10
-234.02437958587211
 20
-251.4028229011542
 30
0.0
  9
$EXTMAX
 10
239.28811752111599
 20
25.088364109266
 30
0.0
  9
$LIMMIN
 10
0.0
 20
0.0
  9
$LIMMAX
 10
0.0
 20
0.0
  9
$ORTHOMODE
 70
             0
  9
$REGENMODE
 70
             1
  9
$FILLMODE
 70
             1
  9
$QTEXTMODE
 70
             0
  9
$MIRRTEXT
 70
             1
  9
$DRAGMODE
 70
             2
  9
$LTSCALE
 40
1.0
  9
$OSMODE
 70
             0
  9
$ATTMODE
 70
             1
  9
$TEXTSIZE
 40
0.2
  9
$TRACEWID
 40
0.05
  9
$TEXTSTYLE
  7
STANDARD
  9
$CLAYER
  8
0
  9
$CELTYPE
  6
CONTINUOUS
  9
$CECOLOR
 62
           256
  9
$CELTSCALE
 40
1.0
  9
$DELOBJ
 70
             1
  9
$DISPSILH
 70
             0
  9
$DIMSCALE
 40
1.0
  9
$DIMASZ
 40
0.18
  9
$DIMEXO
 40
0.0625
  9
$DIMDLI
 40
0.38
  9
$DIMRND
 40
0.0
  9
$DIMDLE
 40
0.0
  9
$DIMEXE
 40
0.18
  9
$DIMTP
 40
0.0
  9
$DIMTM
 40
0.0
  9
$DIMTXT
 40
0.18
  9
$DIMCEN
 40
0.09
  9
$DIMTSZ
 40
0.0
  9
$DIMTOL
 70
             0
  9
$DIMLIM
 70
             0
  9
$DIMTIH
 70
             1
  9
$DIMTOH
 70
             1
  9
$DIMSE1
 70
             0
  9
$DIMSE2
 70
             0
  9
$DIMTAD
 70
             0
  9
$DIMZIN
 70
             0
  9
$DIMBLK
  1

  9
$DIMASO
 70
             1
  9
$DIMSHO
 70
             1
  9
$DIMPOST
  1

  9
$DIMAPOST
  1

  9
$DIMALT
 70
             0
  9
$DIMALTD
 70
             2
  9
$DIMALTF
 40
25.4
  9
$DIMLFAC
 40
1.0
  9
$DIMTOFL
 70
             0
  9
$DIMTVP
 40
0.0
  9
$DIMTIX
 70
             0
  9
$DIMSOXD
 70
             0
  9
$DIMSAH
 70
             0
  9
$DIMBLK1
  1

  9
$DIMBLK2
  1

  9
$DIMSTYLE
  2
STANDARD
  9
$DIMCLRD
 70
             0
  9
$DIMCLRE
 70
             0
  9
$DIMCLRT
 70
             0
  9
$DIMTFAC
 40
1.0
  9
$DIMGAP
 40
0.09
  9
$DIMJUST
 70
             0
  9
$DIMSD1
 70
             0
  9
$DIMSD2
 70
             0
  9
$DIMTOLJ
 70
             1
  9
$DIMTZIN
 70
             0
  9
$DIMALTZ
 70
             0
  9
$DIMALTTZ
 70
             0
  9
$DIMFIT
 70
             3
  9
$DIMUPT
 70
             0
  9
$DIMUNIT
 70
             2
  9
$DIMDEC
 70
             4
  9
$DIMTDEC
 70
             4
  9
$DIMALTU
 70
             2
  9
$DIMALTTD
 70
             2
  9
$DIMTXSTY
  7
STANDARD
  9
$DIMAUNIT
 70
             0
  9
$LUNITS
 70
             2
  9
$LUPREC
 70
             4
  9
$SKETCHINC
 40
0.1
  9
$FILLETRAD
 40
0.0
  9
$AUNITS
 70
             0
  9
$AUPREC
 70
             0
  9
$MENU
  1
acad
  9
$ELEVATION
 40
0.0
  9
$PELEVATION
 40
0.0
  9
$THICKNESS
 40
0.0
  9
$LIMCHECK
 70
             0
  9
$BLIPMODE
 70
             1
  9
$CHAMFERA
 40
0.0
  9
$CHAMFERB
 40
0.0
  9
$CHAMFERC
 40
0.0
  9
$CHAMFERD
 40
0.0
  9
$SKPOLY
 70
             0
  9
$TDCREATE
 40
0.000000000
  9
$TDUPDATE
 40
0.000000000
  9
$TDINDWG
 40
0.0000000000
  9
$TDUSRTIMER
 40
0.0000000000
  9
$USRTIMER
 70
             1
  9
$ANGBASE
 50
0.0
  9
$ANGDIR
 70
             0
  9
$PDMODE
 70
             0
  9
$PDSIZE
 40
0.0
  9
$PLINEWID
 40
0.0
  9
$COORDS
 70
             0
  9
$SPLFRAME
 70
             0
  9
$SPLINETYPE
 70
             6
  9
$SPLINESEGS
 70
             8
  9
$ATTDIA
 70
             0
  9
$ATTREQ
 70
             1
  9
$HANDLING
 70
             1
  9
$HANDSEED
  5
FF
  9
$SURFTAB1
 70
             6
  9
$SURFTAB2
 70
             6
  9
$SURFTYPE
 70
             6
  9
$SURFU
 70
             6
  9
$SURFV
 70
             6
  9
$UCSNAME
  2

  9
$UCSORG
 10
0.0
 20
0.0
 30
0.0
  9
$UCSXDIR
 10
1.0
 20
0.0
 30
0.0
  9
$UCSYDIR
 10
0.0
 20
1.0
 30
0.0
  9
$PUCSNAME
  2

  9
$PUCSORG
 10
0.0
 20
0.0
 30
0.0
  9
$PUCSXDIR
 10
1.0
 20
0.0
 30
0.0
  9
$PUCSYDIR
 10
0.0
 20
1.0
 30
0.0
  9
$USERI1
 70
             0
  9
$USERI2
 70
             0
  9
$USERI3
 70
             0
  9
$USERI4
 70
             0
  9
$USERI5
 70
             0
  9
$USERR1
 40
12.01
  9
$USERR2
 40
0.0
  9
$USERR3
 40
0.0
  9
$USERR4
 40
0.0
  9
$USERR5
 40
0.0
  9
$WORLDVIEW
 70
             1
  9
$SHADEDGE
 70
             3
  9
$SHADEDIF
 70
            70
  9
$TILEMODE
 70
             1
  9
$MAXACTVP
 70
            16
  9
$PINSBASE
 10
0.0
 20
0.0
 30
0.0
  9
$PLIMCHECK
 70
             0
  9
$PEXTMIN
 10
1.00000000000000E+20
 20
1.00000000000000E+20
 30
1.00000000000000E+20
  9
$PEXTMAX
 10
-1.00000000000000E+20
 20
-1.00000000000000E+20
 30
-1.00000000000000E+20
  9
$PLIMMIN
 10
0.0
 20
0.0
  9
$PLIMMAX
 10
12.0
 20
9.0
  9
$UNITMODE
 70
             0
  9
$VISRETAIN
 70
             0
  9
$PLINEGEN
 70
             1
  9
$PSLTSCALE
 70
             0
  9
$TREEDEPTH
 70
          3020
  9
$PICKSTYLE
 70
             1
  9
$CMLSTYLE
  2
STANDARD
  9
$CMLJUST
 70
             0
  9
$CMLSCALE
 40
1.0
  9
$PROXYGRAPHICS
 70
             0
  9
$MEASUREMENT
 70
             1
  0
ENDSEC
  0
SECTION
  2
CLASSES
  0
CLASS
  1
LWPOLYLINE
  2
AcDbPolyline
  3
"AutoCAD"
 90
        0
280
             0
281
             1
  0
CLASS
  1
IMAGE
  2
AcDbRasterImage
  3
ISM
 90
      127
280
             0
281
             1
  0
CLASS
  1
OLE2FRAME
  2
AcDbOle2Frame
  3
""
 90
        0
280
             0
281
             1
  0
CLASS
  1
HATCH
  2
AcDbHatch
  3
"ACAD_SEDONA"
 90
        0
280
             0
281
             1
  0
CLASS
  1
DICTIONARYVAR
  2
AcDbDictionaryVar
  3
"AutoCAD"
 90
        0
280
             0
281
             0
  0
CLASS
  1
RASTERVARIABLES
  2
AcDbRasterVariables
  3
ISM
 90
        0
280
             0
281
             0
  0
CLASS
  1
IMAGEDEF
  2
AcDbRasterImageDef
  3
ISM
 90
        0
280
             0
281
             0
  0
CLASS
  1
IMAGEDEF_REACTOR
  2
AcDbRasterImageDefReactor
  3
ISM
 90
        1
280
             0
281
             0
  0
CLASS
  1
IDBUFFER
  2
AcDbIdBuffer
  3
"Acad"
 90
        0
280
             0
281
             0
  0
CLASS
  1
SPATIAL_FILTER
  2
AcDbSpatialFilter
  3
"Acad"
 90
        0
280
             0
281
             0
  0
CLASS
  1
XRECORD
  2
AcDbXrecord
  3
"<Built In>"
 90
        0
280
             0
281
             0
  0
CLASS
  1
SORTENTSTABLE
  2
AcDbSortentsTable
  3
"AutoCAD"
 90
        0
280
             0
281
             0
  0
CLASS
  1
LAYER_INDEX
  2
AcDbLayerIndex
  3
"Acad"
 90
        0
280
             0
281
             0
  0
CLASS
  1
SPATIAL_INDEX
  2
AcDbSpatialIndex
  3
"Acad"
 90
        0
280
             0
281
             0
  0
CLASS
  1
OBJECT_PTR
  2
CAseDLPNTableRecord
  3
"ASE-LPNTableRecord"
 90
        1
280
             0
281
             0
  0
CLASS
  1
LAYOUT
  2
AcDbLayout
  3
"AutoCAD 2000"
 90
        0
280
             0
281
             0
  0
CLASS
  1
PLOTSETTINGS
  2
AcDbPlotSettings
  3
"AutoCAD 2000"
 90
        0
280
             0
281
             0
  0
CLASS
  1
ACDBDICTIONARYWDFLT
  2
AcDbDictionaryWithDefault
  3
"AutoCAD 2000"
 90
        0
280
             0
281
             0
  0
CLASS
  1
ACDBPLACEHOLDER
  2
AcDbPlaceHolder
  3
"AutoCAD 2000"
 90
        0
280
             0
281
             0
  0
ENDSEC
  0
SECTION
  2
TABLES
  0
TABLE
  2
VPORT
  5
7
100
AcDbSymbolTable
 70
             1
  0
VPORT
  5
15
100
AcDbSymbolTableRecord
100
AcDbViewportTableRecord
  2
*ACTIVE
 70
             0
 10
0.0
 20
0.0
 11
1.0
 21
1.0
 12
2.63186896762194
 22
-113.1572293959441
 13
0.0
 23
0.0
 14
1.0
 24
1.0
 15
0.0
 25
0.0
 16
0.0
 26
0.0
 36
1.0
 17
0.0
 27
0.0
 37
0.0
 40
324.85849383610565
 41
1.60267857142857
 42
50.0
 43
0.0
 44
0.0
 50
0.0
 51
0.0
 71
             0
 72
           100
 73
             1
 74
             1
 75
             0
 76
             0
 77
             0
 78
             0
  0
ENDTAB
  0
TABLE
  2
LTYPE
  5
4
100
AcDbSymbolTable
 70
            10
  0
LTYPE
  5
11
100
AcDbSymbolTableRecord
100
AcDbLinetypeTableRecord
  2
BYBLOCK
 70
            64
  3

 72
            65
 73
             0
 40
0.0
  0
LTYPE
  5
12
100
AcDbSymbolTableRecord
100
AcDbLinetypeTableRecord
  2
BYLAYER
 70
            64
  3

 72
            65
 73
             0
 40
0.0
  0
LTYPE
  5
13
100
AcDbSymbolTableRecord
100
AcDbLinetypeTableRecord
  2
CONTINUOUS
 70
            64
  3
Solid line
 72
            65
 73
             0
 40
0.0
  0
LTYPE
  5
1D
100
AcDbSymbolTableRecord
100
AcDbLinetypeTableRecord
  2
DASHED
 70
            64
  3
Dashed
 72
            65
 73
             2
 40
15.0
 49
7.0
 74
             0
 49
-8.0
 74
             0
  0
LTYPE
  5
1E
100
AcDbSymbolTableRecord
100
AcDbLinetypeTableRecord
  2
DOTTED
 70
            64
  3
Dotted
 72
            65
 73
             2
 40
1.0
 49
0.0
 74
             0
 49
-1.0
 74
             0
  0
LTYPE
  5
1F
100
AcDbSymbolTableRecord
100
AcDbLinetypeTableRecord
  2
DOT_CENTER
 70
            64
  3
Dot_Center
 72
            65
 73
             4
 40
14.0
 49
12.0
 74
             0
 49
-1.0
 74
             0
 49
0.0
 74
             0
 49
-1.0
 74
             0
  0
LTYPE
  5
20
100
AcDbSymbolTableRecord
100
AcDbLinetypeTableRecord
  2
LONG_DASHED
 70
            64
  3
Long_Dashed
 72
            65
 73
             2
 40
15.0
 49
10.0
 74
             0
 49
-5.0
 74
             0
  0
LTYPE
  5
21
100
AcDbSymbolTableRecord
100
AcDbLinetypeTableRecord
  2
DASH_CENTER
 70
            64
  3
Dash_Center
 72
            65
 73
             4
 40
14.0
 49
11.0
 74
             0
 49
-1.0
 74
             0
 49
1.0
 74
             0
 49
-1.0
 74
             0
  0
LTYPE
  5
22
100
AcDbSymbolTableRecord
100
AcDbLinetypeTableRecord
  2
PHANTOM
 70
            64
  3
Phantom
 72
            65
 73
             6
 40
13.0
 49
10.0
 74
             0
 49
-1.0
 74
             0
 49
0.0
 74
             0
 49
-1.0
 74
             0
 49
0.0
 74
             0
 49
-1.0
 74
             0
  0
LTYPE
  5
23
100
AcDbSymbolTableRecord
100
AcDbLinetypeTableRecord
  2
CENTER_DASH_DASH
 70
            64
  3
Center_Dash_Dash
 72
            65
 73
             6
 40
14.0
 49
9.0
 74
             0
 49
-1.0
 74
             0
 49
1.0
 74
             0
 49
-1.0
 74
             0
 49
1.0
 74
             0
 49
-1.0
 74
             0
  0
ENDTAB
  0
TABLE
  2
LAYER
  5
2
100
AcDbSymbolTable
 70
             5
  0
LAYER
  5
14
100
AcDbSymbolTableRecord
100
AcDbLayerTableRecord
  2
0
 70
             0
 62
             7
  6
CONTINUOUS
  0
LAYER
  5
24
100
AcDbSymbolTableRecord
100
AcDbLayerTableRecord
  2
1
 70
             0
 62
             7
  6
CONTINUOUS
  0
LAYER
  5
25
100
AcDbSymbolTableRecord
100
AcDbLayerTableRecord
  2
LC-001-002-----0
 70
             0
 62
             7
  6
CONTINUOUS
  0
LAYER
  5
26
100
AcDbSymbolTableRecord
100
AcDbLayerTableRecord
  2
LC-002-003-----0
 70
             0
 62
             7
  6
CONTINUOUS
  0
LAYER
  5
27
100
AcDbSymbolTableRecord
100
AcDbLayerTableRecord
  2
LC-005-002-RND-0
 70
             0
 62
             7
  6
CONTINUOUS
  0
ENDTAB
  0
TABLE
  2
STYLE
  5
3
100
AcDbSymbolTable
 70
             2
  0
STYLE
  5
17
100
AcDbSymbolTableRecord
100
AcDbTextStyleTableRecord
  2
STANDARD
 70
             0
 40
0.0
 41
1.0
 50
0.0
 71
             0
 42
0.0
  3
txt
  4

  0
STYLE
  5
AC
100
AcDbSymbolTableRecord
100
AcDbTextStyleTableRecord
  2
CONVERTER_1
 70
             0
 40
0.0
 41
0.9
 50
0.0
 71
             0
 42
0.0
  3
txt.shx
  4

  0
ENDTAB
  0
TABLE
  2
VIEW
  5
5
100
AcDbSymbolTable
 70
             0
  0
ENDTAB
  0
TABLE
  2
UCS
  5
6
100
AcDbSymbolTable
 70
             0
  0
ENDTAB
  0
TABLE
  2
APPID
  5
8
100
AcDbSymbolTable
 70
             1
  0
APPID
  5
16
100
AcDbSymbolTableRecord
100
AcDbRegAppTableRecord
  2
ACAD
 70
             0
  0
ENDTAB
  0
TABLE
  2
DIMSTYLE
  5
9
100
AcDbSymbolTable
 70
             9
  0
DIMSTYLE
105
18
100
AcDbSymbolTableRecord
100
AcDbDimStyleTableRecord
  2
STANDARD
 70
             0
  3

  4

  5

  6

  7

 40
1.0
 41
0.18
 42
0.0625
 43
0.38
 44
0.18
 45
0.0
 46
0.0
 47
0.0
 48
0.0
 71
             0
 72
             0
 73
             1
 74
             1
 75
             0
 76
             0
 77
             0
 78
             0
140
0.18
141
0.09
142
0.0
143
25.4
144
1.0
145
0.0
146
1.0
147
0.09
170
             0
171
             2
172
             0
173
             0
174
             0
175
             0
176
             0
177
             0
178
             0
270
             2
271
             4
272
             4
273
             2
274
             2
275
             0
280
             0
281
             0
282
             0
283
             1
284
             0
285
             0
286
             0
287
             3
288
             0
340
17
  0
DIMSTYLE
105
AF
100
AcDbSymbolTableRecord
100
AcDbDimStyleTableRecord
  2
ME10_DIM_0
 70
             0
  3
DN<>
  4

  5

  6

  7

 40
1.0
 41
10.0
 42
0.0
 43
0.38
 44
2.0
 45
0.0
 46
0.0
 47
0.0
 48
0.0
 71
             0
 72
             0
 73
             0
 74
             0
 75
             0
 76
             0
 77
             1
 78
             8
140
10.0
141
0.09
142
0.0
143
25.4
144
1.0
145
0.0
146
1.0
147
0.625
170
             0
171
             2
172
             1
173
             1
174
             0
175
             0
176
             4
177
             4
178
             1
270
             2
271
             2
272
             4
273
             2
274
             2
275
             0
280
             0
281
             0
282
             0
283
             1
284
             0
285
             0
286
             0
287
             3
288
             0
340
AC
  0
DIMSTYLE
105
BA
100
AcDbSymbolTableRecord
100
AcDbDimStyleTableRecord
  2
ME10_DIM_1
 70
             0
  3

  4

  5

  6

  7

 40
1.0
 41
10.0
 42
0.0
 43
0.38
 44
2.0
 45
0.0
 46
0.0
 47
0.0
 48
0.0
 71
             0
 72
             0
 73
             0
 74
             0
 75
             0
 76
             0
 77
             1
 78
             8
140
10.0
141
0.09
142
0.0
143
25.4
144
1.0
145
0.0
146
1.0
147
0.625
170
             0
171
             2
172
             1
173
             1
174
             0
175
             0
176
             4
177
             4
178
             1
270
             2
271
             2
272
             4
273
             2
274
             2
275
             0
280
             0
281
             0
282
             0
283
             1
284
             0
285
             0
286
             0
287
             3
288
             0
340
AC
  0
DIMSTYLE
105
C5
100
AcDbSymbolTableRecord
100
AcDbDimStyleTableRecord
  2
ME10_DIM_2
 70
             0
  3

  4

  5

  6

  7

 40
1.0
 41
10.0
 42
0.0
 43
0.38
 44
2.0
 45
0.0
 46
0.0
 47
0.0
 48
0.0
 71
             0
 72
             0
 73
             0
 74
             0
 75
             0
 76
             0
 77
             1
 78
             8
140
10.0
141
0.09
142
0.0
143
25.4
144
1.0
145
0.0
146
1.0
147
0.625
170
             0
171
             2
172
             1
173
             1
174
             0
175
             0
176
             4
177
             4
178
             1
270
             2
271
             2
272
             4
273
             2
274
             2
275
             0
280
             0
281
             0
282
             0
283
             1
284
             0
285
             0
286
             0
287
             3
288
             0
340
AC
  0
DIMSTYLE
105
D0
100
AcDbSymbolTableRecord
100
AcDbDimStyleTableRecord
  2
ME10_DIM_3
 70
             0
  3
x240
  4

  5

  6

  7

 40
1.0
 41
10.0
 42
0.0
 43
0.38
 44
2.0
 45
0.0
 46
0.0
 47
0.0
 48
0.0
 71
             0
 72
             0
 73
             0
 74
             0
 75
             0
 76
             0
 77
             1
 78
             8
140
10.0
141
0.09
142
0.0
143
25.4
144
1.0
145
0.0
146
1.0
147
0.625
170
             0
171
             2
172
             1
173
             1
174
             0
175
             0
176
             4
177
             4
178
             1
270
             2
271
             2
272
             4
273
             2
274
             2
275
             0
280
             0
281
             0
282
             0
283
             1
284
             0
285
             0
286
             0
287
             3
288
             0
340
AC
  0
DIMSTYLE
105
DB
100
AcDbSymbolTableRecord
100
AcDbDimStyleTableRecord
  2
ME10_DIM_4
 70
             0
  3

  4

  5

  6

  7

 40
1.0
 41
10.0
 42
0.0
 43
0.38
 44
2.0
 45
0.0
 46
0.0
 47
0.0
 48
0.0
 71
             0
 72
             0
 73
             0
 74
             0
 75
             0
 76
             0
 77
             1
 78
             8
140
10.0
141
0.09
142
0.0
143
25.4
144
1.0
145
0.0
146
1.0
147
0.625
170
             0
171
             2
172
             1
173
             1
174
             0
175
             0
176
             4
177
             4
178
             1
270
             2
271
             2
272
             4
273
             2
274
             2
275
             0
280
             0
281
             0
282
             0
283
             1
284
             0
285
             0
286
             0
287
             3
288
             0
340
AC
  0
DIMSTYLE
105
E6
100
AcDbSymbolTableRecord
100
AcDbDimStyleTableRecord
  2
ME10_DIM_5
 70
             0
  3
DN<>
  4

  5

  6

  7

 40
1.0
 41
10.0
 42
0.0
 43
0.38
 44
2.0
 45
0.0
 46
0.0
 47
0.0
 48
0.0
 71
             0
 72
             0
 73
             0
 74
             0
 75
             0
 76
             0
 77
             1
 78
             8
140
10.0
141
0.09
142
0.0
143
25.4
144
1.0
145
0.0
146
1.0
147
0.625
170
             0
171
             2
172
             1
173
             1
174
             0
175
             0
176
             4
177
             4
178
             1
270
             2
271
             2
272
             4
273
             2
274
             2
275
             0
280
             0
281
             0
282
             0
283
             1
284
             0
285
             0
286
             0
287
             3
288
             0
340
AC
  0
DIMSTYLE
105
F1
100
AcDbSymbolTableRecord
100
AcDbDimStyleTableRecord
  2
ME10_DIM_6
 70
             0
  3

  4

  5

  6

  7

 40
1.0
 41
10.0
 42
0.0
 43
0.38
 44
2.0
 45
0.0
 46
0.0
 47
0.0
 48
0.0
 71
             0
 72
             0
 73
             0
 74
             0
 75
             0
 76
             0
 77
             1
 78
             8
140
10.0
141
0.09
142
0.0
143
25.4
144
1.0
145
0.0
146
1.0
147
0.625
170
             0
171
             2
172
             1
173
             1
174
             0
175
             0
176
             4
177
             4
178
             1
270
             2
271
             2
272
             4
273
             2
274
             2
275
             0
280
             0
281
             0
282
             0
283
             1
284
             0
285
             0
286
             0
287
             3
288
             0
340
AC
  0
DIMSTYLE
105
FC
100
AcDbSymbolTableRecord
100
AcDbDimStyleTableRecord
  2
ME10_DIM_7
 70
             0
  3

  4

  5

  6

  7

 40
1.0
 41
10.0
 42
0.0
 43
0.38
 44
2.0
 45
0.0
 46
0.0
 47
0.0
 48
0.0
 71
             0
 72
             0
 73
             0
 74
             0
 75
             0
 76
             0
 77
             1
 78
             8
140
10.0
141
0.09
142
0.0
143
25.4
144
1.0
145
0.0
146
1.0
147
0.625
170
             0
171
             2
172
             1
173
             1
174
             0
175
             0
176
             4
177
             4
178
             1
270
             2
271
             2
272
             4
273
             2
274
             2
275
             0
280
             0
281
             0
282
             0
283
             1
284
             0
285
             0
286
             0
287
             3
288
             0
340
AC
  0
ENDTAB
  0
TABLE
  2
BLOCK_RECORD
  5
1
100
AcDbSymbolTable
 70
            10
  0
BLOCK_RECORD
  5
A
100
AcDbSymbolTableRecord
100
AcDbBlockTableRecord
  2
*MODEL_SPACE
  0
BLOCK_RECORD
  5
B
100
AcDbSymbolTableRecord
100
AcDbBlockTableRecord
  2
*PAPER_SPACE
  0
BLOCK_RECORD
  5
28
100
AcDbSymbolTableRecord
100
AcDbBlockTableRecord
  2
071_1_1E_ANSCHLU_MUFFEDN75
  0
BLOCK_RECORD
  5
2A
100
AcDbSymbolTableRecord
100
AcDbBlockTableRecord
  2
HL71_1_5_KELLERABLAUF
  0
BLOCK_RECORD
  5
A4
100
AcDbSymbolTableRecord
100
AcDbBlockTableRecord
  2
*D2
  0
BLOCK_RECORD
  5
B1
100
AcDbSymbolTableRecord
100
AcDbBlockTableRecord
  2
*D3
  0
BLOCK_RECORD
  5
BC
100
AcDbSymbolTableRecord
100
AcDbBlockTableRecord
  2
*D4
  0
BLOCK_RECORD
  5
C7
100
AcDbSymbolTableRecord
100
AcDbBlockTableRecord
  2
*D5
  0
BLOCK_RECORD
  5
D2
100
AcDbSymbolTableRecord
100
AcDbBlockTableRecord
  2
*D6
  0
BLOCK_RECORD
  5
DD
100
AcDbSymbolTableRecord
100
AcDbBlockTableRecord
  2
*D7
  0
BLOCK_RECORD
  5
E8
100
AcDbSymbolTableRecord
100
AcDbBlockTableRecord
  2
*D8
  0
BLOCK_RECORD
  5
F3
100
AcDbSymbolTableRecord
100
AcDbBlockTableRecord
  2
*D9
  0
ENDTAB
  0
ENDSEC
  0
SECTION
  2
BLOCKS
  0
BLOCK
  5
D
100
AcDbEntity
  8
0
100
AcDbBlockBegin
  2
*MODEL_SPACE
 70
             0
 10
0.0
 20
0.0
 30
0.0
  3
*MODEL_SPACE
  1

  0
ENDBLK
  5
E
100
AcDbEntity
  8
0
100
AcDbBlockEnd
  0
BLOCK
  5
F
100
AcDbEntity
 67
             1
  8
0
100
AcDbBlockBegin
  2
*PAPER_SPACE
 70
             0
 10
0.0
 20
0.0
 30
0.0
  3
*PAPER_SPACE
  1

  0
ENDBLK
  5
10
100
AcDbEntity
 67
             1
  8
0
100
AcDbBlockEnd
  0
BLOCK
  5
29
100
AcDbEntity
  8
0
100
AcDbBlockBegin
  2
071_1_1E_ANSCHLU_MUFFEDN75
 70
             0
 10
-171.84688461747001
 20
-117.5
 30
0.0
  3
071_1_1E_ANSCHLU_MUFFEDN75
  1

  0
ARC
  5
71
100
AcDbEntity
  8
LC-005-002-RND-0
  6
CONTINUOUS
 62
             7
100
AcDbCircle
 10
-97.03723400000004
 20
-95.0
 40
1.0
100
AcDbArc
 50
90.0
 51
180.0
  0
ARC
  5
70
100
AcDbEntity
  8
LC-005-002-RND-0
  6
CONTINUOUS
 62
             7
100
AcDbCircle
 10
-97.03723400000004
 20
-96.0
 40
1.0
100
AcDbArc
 50
180.0
 51
-90.0
  0
ARC
  5
6F
100
AcDbEntity
  8
LC-005-002-RND-0
  6
CONTINUOUS
 62
             7
100
AcDbCircle
 10
-97.03723400000004
 20
-65.0
 40
1.0
100
AcDbArc
 50
180.0
 51
-90.0
  0
ARC
  5
6E
100
AcDbEntity
  8
LC-005-002-RND-0
  6
CONTINUOUS
 62
             7
100
AcDbCircle
 10
-97.03723400000004
 20
-64.0
 40
1.0
100
AcDbArc
 50
90.0
 51
180.0
  0
ARC
  5
6D
100
AcDbEntity
  8
LC-005-002-RND-0
  6
CONTINUOUS
 62
             7
100
AcDbCircle
 10
-97.03723400000004
 20
-80.5
 40
1.0
100
AcDbArc
 50
180.0
 51
-90.0
  0
ARC
  5
6C
100
AcDbEntity
  8
LC-005-002-RND-0
  6
CONTINUOUS
 62
             7
100
AcDbCircle
 10
-97.03723400000004
 20
-79.5
 40
1.0
100
AcDbArc
 50
90.0
 51
180.0
  0
ARC
  5
6B
100
AcDbEntity
  8
LC-005-002-RND-0
  6
CONTINUOUS
 62
             7
100
AcDbCircle
 10
-102.287234
 20
-109.0
 40
2.0
100
AcDbArc
 50
180.0
 51
-90.0
  0
ARC
  5
6A
100
AcDbEntity
  8
LC-005-002-RND-0
  6
CONTINUOUS
 62
             7
100
AcDbCircle
 10
-102.287234
 20
-51.0
 40
2.0
100
AcDbArc
 50
90.0
 51
180.0
  0
ARC
  5
69
100
AcDbEntity
  8
LC-005-002-RND-0
  6
CONTINUOUS
 62
             7
100
AcDbCircle
 10
-155.49723399999999
 20
-111.5
 40
2.0
100
AcDbArc
 50
-90.0
 51
0.0
  0
ARC
  5
68
100
AcDbEntity
  8
LC-005-002-RND-0
  6
CONTINUOUS
 62
             7
100
AcDbCircle
 10
-163.99723399999999
 20
-111.5
 40
2.0
100
AcDbArc
 50
180.0
 51
-90.0
  0
ARC
  5
67
100
AcDbEntity
  8
LC-005-002-RND-0
  6
CONTINUOUS
 62
             7
100
AcDbCircle
 10
-163.99723399999999
 20
-48.5
 40
2.0
100
AcDbArc
 50
90.0
 51
180.0
  0
ARC
  5
66
100
AcDbEntity
  8
LC-005-002-RND-0
  6
CONTINUOUS
 62
             7
100
AcDbCircle
 10
-155.49723399999999
 20
-48.5
 40
2.0
100
AcDbArc
 50
0.0
 51
90.0
  0
ARC
  5
65
100
AcDbEntity
  8
LC-005-002-RND-0
  6
CONTINUOUS
 62
             7
100
AcDbCircle
 10
-95.53723400000004
 20
-111.3000000000001
 40
2.5
100
AcDbArc
 50
180.0
 51
-90.0
  0
ARC
  5
64
100
AcDbEntity
  8
LC-005-002-RND-0
  6
CONTINUOUS
 62
             7
100
AcDbCircle
 10
-95.53723400000004
 20
-48.69999999999999
 40
2.5
100
AcDbArc
 50
90.0
 51
180.0
  0
LINE
  5
63
100
AcDbEntity
  8
1
  6
DOT_CENTER
 62
             2
100
AcDbLine
 10
-172.99723399999999
 20
-55.0
 11
-175.99723399999999
 21
-55.0
  0
LINE
  5
62
100
AcDbEntity
  8
1
  6
DOT_CENTER
 62
             2
100
AcDbLine
 10
-175.99723399999999
 20
-105.0
 11
-172.99723399999999
 21
-105.0
  0
LINE
  5
61
100
AcDbEntity
  8
1
  6
PHANTOM
 62
             2
100
AcDbLine
 10
-64.28513218466202
 20
-80.0
 11
-174.11320958312189
 21
-80.0
  0
LINE
  5
60
100
AcDbEntity
  8
1
  6
CONTINUOUS
 62
             7
100
AcDbLine
 10
-79.53723400000001
 20
-117.5
 11
-73.78723400000001
 21
-117.5
  0
LINE
  5
5F
100
AcDbEntity
  8
LC-001-002-----0
  6
CONTINUOUS
 62
             7
100
AcDbLine
 10
-79.53723400000001
 20
-42.5
 11
-73.78723400000001
 21
-42.5
  0
LINE
  5
5E
100
AcDbEntity
  8
LC-001-002-----0
  6
CONTINUOUS
 62
             7
100
AcDbLine
 10
-73.78723400000001
 20
-42.5
 11
-73.78723400000001
 21
-109.5
  0
LINE
  5
5D
100
AcDbEntity
  8
LC-001-002-----0
  6
CONTINUOUS
 62
             7
100
AcDbLine
 10
-73.78723400000001
 20
-109.5
 11
-73.78723400000001
 21
-117.5
  0
LINE
  5
5C
100
AcDbEntity
  8
LC-001-002-----0
  6
CONTINUOUS
 62
             7
100
AcDbLine
 10
-79.53723400000001
 20
-111.0
 11
-79.53723400000001
 21
-42.5
  0
LINE
  5
5B
100
AcDbEntity
  8
LC-001-002-----0
  6
CONTINUOUS
 62
             7
100
AcDbLine
 10
-76.78723400000001
 20
-109.0
 11
-76.78723400000001
 21
-42.5
  0
LINE
  5
5A
100
AcDbEntity
  8
LC-001-002-----0
  6
CONTINUOUS
 62
             7
100
AcDbLine
 10
-79.53723400000001
 20
-94.0
 11
-97.03723400000004
 21
-94.0
  0
LINE
  5
59
100
AcDbEntity
  8
LC-001-002-----0
  6
CONTINUOUS
 62
             7
100
AcDbLine
 10
-79.53723400000001
 20
-97.0
 11
-97.03723400000004
 21
-97.0
  0
LINE
  5
58
100
AcDbEntity
  8
LC-001-002-----0
  6
CONTINUOUS
 62
             7
100
AcDbLine
 10
-98.03723400000004
 20
-96.0
 11
-98.03723400000004
 21
-95.0
  0
LINE
  5
57
100
AcDbEntity
  8
LC-001-002-----0
  6
CONTINUOUS
 62
             7
100
AcDbLine
 10
-79.53723400000001
 20
-66.0
 11
-97.03723400000004
 21
-66.0
  0
LINE
  5
56
100
AcDbEntity
  8
LC-001-002-----0
  6
CONTINUOUS
 62
             7
100
AcDbLine
 10
-79.53723400000001
 20
-63.0
 11
-97.03723400000004
 21
-63.0
  0
LINE
  5
55
100
AcDbEntity
  8
LC-001-002-----0
  6
CONTINUOUS
 62
             7
100
AcDbLine
 10
-98.03723400000004
 20
-64.0
 11
-98.03723400000004
 21
-65.0
  0
LINE
  5
54
100
AcDbEntity
  8
LC-001-002-----0
  6
CONTINUOUS
 62
             7
100
AcDbLine
 10
-79.53723400000001
 20
-81.5
 11
-97.03723400000004
 21
-81.5
  0
LINE
  5
53
100
AcDbEntity
  8
LC-001-002-----0
  6
CONTINUOUS
 62
             7
100
AcDbLine
 10
-79.53723400000001
 20
-78.5
 11
-97.03723400000004
 21
-78.5
  0
LINE
  5
52
100
AcDbEntity
  8
LC-001-002-----0
  6
CONTINUOUS
 62
             7
100
AcDbLine
 10
-98.03723400000004
 20
-79.5
 11
-98.03723400000004
 21
-80.5
  0
LINE
  5
51
100
AcDbEntity
  8
LC-001-002-----0
  6
CONTINUOUS
 62
             7
100
AcDbLine
 10
-112.787234
 20
-55.0
 11
-112.787234
 21
-105.0
  0
LINE
  5
50
100
AcDbEntity
  8
LC-001-002-----0
  6
CONTINUOUS
 62
             7
100
AcDbLine
 10
-116.787234
 20
-51.0
 11
-116.787234
 21
-109.0
  0
LINE
  5
4F
100
AcDbEntity
  8
LC-001-002-----0
  6
CONTINUOUS
 62
             7
100
AcDbLine
 10
-149.49723399999999
 20
-48.5
 11
-149.49723399999999
 21
-111.5
  0
LINE
  5
4E
100
AcDbEntity
  8
LC-001-002-----0
  6
CONTINUOUS
 62
             7
100
AcDbLine
 10
-146.99723399999999
 20
-51.0
 11
-146.99723399999999
 21
-109.0
  0
LINE
  5
4D
100
AcDbEntity
  8
LC-001-002-----0
  6
CONTINUOUS
 62
             7
100
AcDbLine
 10
-153.49723399999999
 20
-48.5
 11
-153.49723399999999
 21
-111.5
  0
LINE
  5
4C
100
AcDbEntity
  8
LC-001-002-----0
  6
CONTINUOUS
 62
             7
100
AcDbLine
 10
-165.99723399999999
 20
-48.5
 11
-165.99723399999999
 21
-111.5
  0
LINE
  5
4B
100
AcDbEntity
  8
LC-001-002-----0
  6
CONTINUOUS
 62
             7
100
AcDbLine
 10
-104.287234
 20
-109.0
 11
-104.287234
 21
-105.0
  0
LINE
  5
4A
100
AcDbEntity
  8
LC-001-002-----0
  6
CONTINUOUS
 62
             7
100
AcDbLine
 10
-104.287234
 20
-51.0
 11
-104.287234
 21
-105.0
  0
LINE
  5
49
100
AcDbEntity
  8
LC-001-002-----0
  6
CONTINUOUS
 62
             7
100
AcDbLine
 10
-112.787234
 20
-105.0
 11
-116.787234
 21
-109.0
  0
LINE
  5
48
100
AcDbEntity
  8
LC-001-002-----0
  6
CONTINUOUS
 62
             7
100
AcDbLine
 10
-112.787234
 20
-55.0
 11
-116.787234
 21
-51.0
  0
LINE
  5
47
100
AcDbEntity
  8
LC-001-002-----0
  6
CONTINUOUS
 62
             7
100
AcDbLine
 10
-104.287234
 20
-105.0
 11
-112.787234
 21
-105.0
  0
LINE
  5
46
100
AcDbEntity
  8
LC-001-002-----0
  6
CONTINUOUS
 62
             7
100
AcDbLine
 10
-104.287234
 20
-55.0
 11
-112.787234
 21
-55.0
  0
LINE
  5
45
100
AcDbEntity
  8
LC-001-002-----0
  6
CONTINUOUS
 62
             7
100
AcDbLine
 10
-146.99723399999999
 20
-109.0
 11
-149.49723399999999
 21
-111.5
  0
LINE
  5
44
100
AcDbEntity
  8
LC-001-002-----0
  6
CONTINUOUS
 62
             7
100
AcDbLine
 10
-146.99723399999999
 20
-51.0
 11
-149.49723399999999
 21
-48.5
  0
LINE
  5
43
100
AcDbEntity
  8
LC-001-002-----0
  6
CONTINUOUS
 62
             7
100
AcDbLine
 10
-165.99723399999999
 20
-111.5
 11
-169.99723399999999
 21
-111.5
  0
LINE
  5
42
100
AcDbEntity
  8
LC-001-002-----0
  6
CONTINUOUS
 62
             7
100
AcDbLine
 10
-165.99723399999999
 20
-48.5
 11
-169.99723399999999
 21
-48.5
  0
LINE
  5
41
100
AcDbEntity
  8
LC-001-002-----0
  6
CONTINUOUS
 62
             7
100
AcDbLine
 10
-155.49723399999999
 20
-113.5
 11
-163.99723399999999
 21
-113.5
  0
LINE
  5
40
100
AcDbEntity
  8
LC-001-002-----0
  6
CONTINUOUS
 62
             7
100
AcDbLine
 10
-155.49723399999999
 20
-46.5
 11
-163.99723399999999
 21
-46.5
  0
LINE
  5
3F
100
AcDbEntity
  8
LC-001-002-----0
  6
CONTINUOUS
 62
             7
100
AcDbLine
 10
-149.49723399999999
 20
-111.5
 11
-153.49723399999999
 21
-111.5
  0
LINE
  5
3E
100
AcDbEntity
  8
LC-001-002-----0
  6
CONTINUOUS
 62
             7
100
AcDbLine
 10
-149.49723399999999
 20
-48.5
 11
-153.49723399999999
 21
-48.5
  0
LINE
  5
3D
100
AcDbEntity
  8
LC-001-002-----0
  6
CONTINUOUS
 62
             7
100
AcDbLine
 10
-169.99723399999999
 20
-111.5
 11
-169.99723399999999
 21
-48.5
  0
LINE
  5
3C
100
AcDbEntity
  8
LC-001-002-----0
  6
CONTINUOUS
 62
             7
100
AcDbLine
 10
-116.787234
 20
-109.0
 11
-146.99723399999999
 21
-109.0
  0
LINE
  5
3B
100
AcDbEntity
  8
LC-001-002-----0
  6
CONTINUOUS
 62
             7
100
AcDbLine
 10
-98.03723400000004
 20
-111.3000000000001
 11
-98.03723400000004
 21
-111.0
  0
LINE
  5
3A
100
AcDbEntity
  8
LC-001-002-----0
  6
CONTINUOUS
 62
             7
100
AcDbLine
 10
-95.53723400000004
 20
-113.8000000000001
 11
-79.53723400000001
 21
-113.8000000000001
  0
LINE
  5
39
100
AcDbEntity
  8
LC-001-002-----0
  6
CONTINUOUS
 62
             7
100
AcDbLine
 10
-95.53723400000004
 20
-46.19999999999999
 11
-79.53723400000001
 21
-46.19999999999999
  0
LINE
  5
38
100
AcDbEntity
  8
LC-001-002-----0
  6
CONTINUOUS
 62
             7
100
AcDbLine
 10
-98.03723400000004
 20
-49.0
 11
-98.03723400000004
 21
-48.69999999999999
  0
LINE
  5
37
100
AcDbEntity
  8
LC-001-002-----0
  6
CONTINUOUS
 62
             7
100
AcDbLine
 10
-102.287234
 20
-111.0
 11
-79.53723400000001
 21
-111.0
  0
LINE
  5
36
100
AcDbEntity
  8
LC-001-002-----0
  6
CONTINUOUS
 62
             7
100
AcDbLine
 10
-102.287234
 20
-49.0
 11
-79.53723400000001
 21
-49.0
  0
LINE
  5
35
100
AcDbEntity
  8
LC-001-002-----0
  6
CONTINUOUS
 62
             7
100
AcDbLine
 10
-79.53723400000001
 20
-117.5
 11
-79.53723400000001
 21
-111.0
  0
LINE
  5
34
100
AcDbEntity
  8
LC-001-002-----0
  6
CONTINUOUS
 62
             7
100
AcDbLine
 10
-76.78723400000001
 20
-117.5
 11
-76.78723400000001
 21
-109.0
  0
LINE
  5
33
100
AcDbEntity
  8
LC-001-002-----0
  6
CONTINUOUS
 62
             7
100
AcDbLine
 10
-116.787234
 20
-51.0
 11
-146.99723399999999
 21
-51.0
  0
POINT
  5
32
100
AcDbEntity
  8
LC-002-003-----0
 62
             7
100
AcDbPoint
 10
-112.99386699999999
 20
-80.0
  0
POINT
  5
31
100
AcDbEntity
  8
LC-002-003-----0
 62
             7
100
AcDbPoint
 10
-169.99723399999999
 20
-105.5
  0
POINT
  5
30
100
AcDbEntity
  8
LC-002-003-----0
 62
             7
100
AcDbPoint
 10
-169.99723399999999
 20
-54.5
  0
ENDBLK
  5
72
100
AcDbEntity
  8
0
100
AcDbBlockEnd
  0
BLOCK
  5
2B
100
AcDbEntity
  8
0
100
AcDbBlockBegin
  2
HL71_1_5_KELLERABLAUF
 70
             0
 10
-376.9476580000001
 20
-432.55545899999998
 30
0.0
  3
HL71_1_5_KELLERABLAUF
  1

  0
ARC
  5
A1
100
AcDbEntity
  8
1
  6
CONTINUOUS
 62
             7
100
AcDbCircle
 10
-49.8298586376734
 20
-205.0
 40
15.00000000000005
100
AcDbArc
 50
-176.95522154121238
 51
-90.0
  0
ARC
  5
A0
100
AcDbEntity
  8
1
  6
CONTINUOUS
 62
             7
100
AcDbCircle
 10
97.86887244514367
 20
-205.0
 40
15.0
100
AcDbArc
 50
-90.0
 51
-2.99704226003026
  0
ARC
  5
9F
100
AcDbEntity
  8
LC-001-002-----0
  6
CONTINUOUS
 62
             7
100
AcDbCircle
 10
242.2759530000001
 20
-92.44796700000001
 40
135.06409800000003
100
AcDbArc
 50
152.938018
 51
-158.9321029999999
  0
ARC
  5
9E
100
AcDbEntity
  8
LC-001-002-----0
  6
CONTINUOUS
 62
             7
100
AcDbCircle
 10
93.78041200000001
 20
-21.0
 40
0.99999999999954
100
AcDbArc
 50
-90.00005800000324
 51
11.29999999997239
  0
ARC
  5
9D
100
AcDbEntity
  8
LC-001-002-----0
  6
CONTINUOUS
 62
             7
100
AcDbCircle
 10
92.94430499999987
 20
-16.81569400000001
 40
0.99999999999985
100
AcDbArc
 50
11.30001900002219
 51
119.34234699997982
  0
ARC
  5
9C
100
AcDbEntity
  8
LC-001-002-----0
  6
CONTINUOUS
 62
             7
100
AcDbCircle
 10
-93.78041100000004
 20
-21.0
 40
1.00000000000028
100
AcDbArc
 50
168.70000000002761
 51
-89.99994199999676
  0
ARC
  5
9B
100
AcDbEntity
  8
LC-001-002-----0
  6
CONTINUOUS
 62
             7
100
AcDbCircle
 10
-92.94430400000002
 20
-16.81569400000001
 40
1.00000000000017
100
AcDbArc
 50
60.65765300001451
 51
168.69998099997653
  0
LINE
  5
9A
100
AcDbEntity
  8
1
  6
DOT_CENTER
 62
             2
100
AcDbLine
 10
-68.50673921983901
 20
-80.0
 11
-82.64383040140399
 21
-80.0
  0
LINE
  5
99
100
AcDbEntity
  8
1
  6
CONTINUOUS
 62
             7
100
AcDbLine
 10
110.1060271239501
 20
-205.78426626274199
 11
-62.07106381164931
 21
-205.78426626274199
  0
LINE
  5
98
100
AcDbEntity
  8
1
  6
PHANTOM
 62
             2
100
AcDbLine
 10
0.0
 20
8.92244832659486
 11
-0.00000000000023
 21
-223.19232093970231
  0
LINE
  5
97
100
AcDbEntity
  8
1
  6
PHANTOM
 62
             2
100
AcDbLine
 10
101.46005877744901
 20
-86.0
 11
196.07752370816101
 21
-86.0
  0
LINE
  5
96
100
AcDbEntity
  8
LC-001-002-----0
  6
CONTINUOUS
 62
             7
100
AcDbLine
 10
-73.78723400000001
 20
-117.5
 11
-69.50531900000001
 21
-117.5
  0
LINE
  5
95
100
AcDbEntity
  8
LC-001-002-----0
  6
CONTINUOUS
 62
             7
100
AcDbLine
 10
-74.365591
 20
-26.12688200000002
 11
122.36585599999999
 21
-26.12688200000002
  0
LINE
  5
94
100
AcDbEntity
  8
LC-001-002-----0
  6
CONTINUOUS
 62
             7
100
AcDbLine
 10
94.76102700000001
 20
-20.80405400000001
 11
93.92491999999999
 21
-16.6197479999999
  0
LINE
  5
93
100
AcDbEntity
  8
LC-001-002-----0
  6
CONTINUOUS
 62
             7
100
AcDbLine
 10
-92.94430400000002
 20
-15.81569400000001
 11
93.237662
 21
-15.81569400000001
  0
LINE
  5
92
100
AcDbEntity
  8
LC-001-002-----0
  6
CONTINUOUS
 62
             7
100
AcDbLine
 10
-89.5
 20
-22.0
 11
90.500271
 21
-21.72711200000003
  0
LINE
  5
91
100
AcDbEntity
  8
LC-001-002-----0
  6
CONTINUOUS
 62
             7
100
AcDbLine
 10
183.93375900000001
 20
-31.0
 11
178.5357579999999
 21
-141.0
  0
LINE
  5
90
100
AcDbEntity
  8
LC-001-002-----0
  6
CONTINUOUS
 62
             7
100
AcDbLine
 10
-69.50531900000001
 20
-117.5
 11
-64.8086835513891
 21
-205.79674600987471
  0
LINE
  5
8F
100
AcDbEntity
  8
LC-001-002-----0
  6
CONTINUOUS
 62
             7
100
AcDbLine
 10
-78.0
 20
0.0
 11
-85.0
 21
0.0
  0
LINE
  5
8E
100
AcDbEntity
  8
LC-001-002-----0
  6
CONTINUOUS
 62
             7
100
AcDbLine
 10
77.25027499999987
 20
0.0
 11
-77.25
 21
0.0
  0
LINE
  5
8D
100
AcDbEntity
  8
LC-001-002-----0
  6
CONTINUOUS
 62
             7
100
AcDbLine
 10
-78.25
 20
0.0
 11
-85.0
 21
0.0
  0
LINE
  5
8C
100
AcDbEntity
  8
LC-001-002-----0
  6
CONTINUOUS
 62
             7
100
AcDbLine
 10
-49.8298586376734
 20
-220.0
 11
97.86887244514367
 21
-220.0
  0
LINE
  5
8B
100
AcDbEntity
  8
LC-001-002-----0
  6
CONTINUOUS
 62
             7
100
AcDbLine
 10
116.240202
 20
-141.0
 11
112.84835597204049
 21
-205.78426606928369
  0
LINE
  5
8A
100
AcDbEntity
  8
LC-001-002-----0
  6
CONTINUOUS
 62
             7
100
AcDbLine
 10
189.995937
 20
-34.5
 11
183.93375900000001
 21
-31.0
  0
LINE
  5
89
100
AcDbEntity
  8
LC-001-002-----0
  6
CONTINUOUS
 62
             7
100
AcDbLine
 10
184.597936
 20
-137.5
 11
178.5357579999999
 21
-141.0
  0
LINE
  5
88
100
AcDbEntity
  8
LC-001-002-----0
  6
CONTINUOUS
 62
             7
100
AcDbLine
 10
189.995937
 20
-34.5
 11
184.597936
 21
-137.5
  0
LINE
  5
87
100
AcDbEntity
  8
LC-001-002-----0
  6
CONTINUOUS
 62
             7
100
AcDbLine
 10
116.240202
 20
-141.0
 11
178.5357579999999
 21
-141.0
  0
LINE
  5
86
100
AcDbEntity
  8
LC-001-002-----0
  6
CONTINUOUS
 62
             7
100
AcDbLine
 10
121.999364
 20
-31.0
 11
183.93375900000001
 21
-31.0
  0
LINE
  5
85
100
AcDbEntity
  8
LC-001-002-----0
  6
CONTINUOUS
 62
             7
100
AcDbLine
 10
122.36585599999999
 20
-24.0
 11
121.999364
 21
-31.0
  0
LINE
  5
84
100
AcDbEntity
  8
LC-001-002-----0
  6
CONTINUOUS
 62
             7
100
AcDbLine
 10
90.500271
 20
-21.72711200000003
 11
122.36585599999999
 21
-24.0
  0
LINE
  5
83
100
AcDbEntity
  8
LC-001-002-----0
  6
CONTINUOUS
 62
             7
100
AcDbLine
 10
85.0
 20
0.0
 11
85.0
 21
-15.81569400000001
  0
LINE
  5
82
100
AcDbEntity
  8
LC-001-002-----0
  6
CONTINUOUS
 62
             7
100
AcDbLine
 10
78.0
 20
0.0
 11
85.0
 21
0.0
  0
LINE
  5
81
100
AcDbEntity
  8
LC-001-002-----0
  6
CONTINUOUS
 62
             7
100
AcDbLine
 10
-93.78041100000004
 20
-22.0
 11
-89.5
 21
-22.0
  0
LINE
  5
80
100
AcDbEntity
  8
LC-001-002-----0
  6
CONTINUOUS
 62
             7
100
AcDbLine
 10
-94.76102600000004
 20
-20.80405400000001
 11
-93.92491900000002
 21
-16.6197479999999
  0
LINE
  5
7F
100
AcDbEntity
  8
LC-001-002-----0
  6
CONTINUOUS
 62
             7
100
AcDbLine
 10
-89.5
 20
-22.0
 11
-74.365591
 21
-26.12688200000002
  0
LINE
  5
7E
100
AcDbEntity
  8
LC-001-002-----0
  6
CONTINUOUS
 62
             7
100
AcDbLine
 10
-74.365591
 20
-26.12688200000002
 11
-69.50531900000001
 21
-117.5
  0
LINE
  5
7D
100
AcDbEntity
  8
LC-001-002-----0
  6
CONTINUOUS
 62
             7
100
AcDbLine
 10
-85.0
 20
0.0
 11
-85.0
 21
-15.81569400000001
  0
POINT
  5
7C
100
AcDbEntity
  8
LC-002-003-----0
 62
             7
100
AcDbPoint
 10
-85.0
 20
0.0
  0
POINT
  5
7B
100
AcDbEntity
  8
LC-002-003-----0
 62
             7
100
AcDbPoint
 10
178.5357579999999
 20
-141.0
  0
POINT
  5
7A
100
AcDbEntity
  8
LC-002-003-----0
 62
             7
100
AcDbPoint
 10
183.93375900000001
 20
-31.0
  0
POINT
  5
79
100
AcDbEntity
  8
LC-002-003-----0
 62
             7
100
AcDbPoint
 10
187.2969360000001
 20
-86.0
  0
POINT
  5
78
100
AcDbEntity
  8
LC-002-003-----0
 62
             7
100
AcDbPoint
 10
85.0
 20
0.0
  0
POINT
  5
77
100
AcDbEntity
  8
LC-002-003-----0
 62
             7
100
AcDbPoint
 10
189.995937
 20
-34.5
  0
POINT
  5
76
100
AcDbEntity
  8
LC-002-003-----0
 62
             7
100
AcDbPoint
 10
85.0
 20
0.0
  0
POINT
  5
75
100
AcDbEntity
  8
LC-002-003-----0
 62
             7
100
AcDbPoint
 10
85.0
 20
0.0
  0
POINT
  5
74
100
AcDbEntity
  8
LC-002-003-----0
 62
             7
100
AcDbPoint
 10
-85.0
 20
0.0
  0
POINT
  5
73
100
AcDbEntity
  8
LC-002-003-----0
 62
             7
100
AcDbPoint
 10
-85.0
 20
0.0
  0
ENDBLK
  5
A2
100
AcDbEntity
  8
0
100
AcDbBlockEnd
  0
BLOCK
  5
A5
100
AcDbEntity
  8
0
100
AcDbBlockBegin
  2
*D2
 70
             1
 10
0.0
 20
0.0
 30
0.0
  3
*D2
  1

  0
LINE
  5
A6
100
AcDbEntity
  8
0
  6
CONTINUOUS
 62
             4
100
AcDbLine
 10
-185.99723399999999
 20
-105.00000000000001
 11
-185.99723399999999
 21
-146.42928446009608
  0
LINE
  5
A7
100
AcDbEntity
  8
0
  6
CONTINUOUS
 62
             4
100
AcDbLine
 10
-185.99723399999999
 20
-55.00000000000001
 11
-185.99723399999999
 21
-105.00000000000001
  0
LINE
  5
A8
100
AcDbEntity
  8
0
  6
CONTINUOUS
 62
             4
100
AcDbLine
 10
-175.99723399999999
 20
-105.00000000000001
 11
-187.99723399999999
 21
-105.00000000000001
  0
LINE
  5
A9
100
AcDbEntity
  8
0
  6
CONTINUOUS
 62
             4
100
AcDbLine
 10
-175.99723399999999
 20
-55.00000000000001
 11
-187.99723399999999
 21
-55.00000000000001
  0
SOLID
  5
AA
100
AcDbEntity
  8
0
 62
             4
100
AcDbTrace
 10
-184.68070902412603
 20
-65.00000000000001
 11
-187.31375897587395
 21
-65.00000000000001
 12
-185.99723399999999
 22
-55.00000000000001
 13
-185.99723399999999
 23
-55.00000000000001
  0
SOLID
  5
AB
100
AcDbEntity
  8
0
 62
             4
100
AcDbTrace
 10
-187.31375897587395
 20
-95.00000000000001
 11
-184.68070902412603
 21
-95.00000000000001
 12
-185.99723399999999
 22
-105.00000000000001
 13
-185.99723399999999
 23
-105.00000000000001
  0
MTEXT
  5
AD
100
AcDbEntity
  8
0
 62
             1
100
AcDbMText
 10
-187.99723399999999
 20
-140.82928446009609
 30
0.0
 40
10.0
 41
0.0
 71
             7
 72
             1
  1
\C1;DN\C1;50
  7
CONVERTER_1
 11
0.0
 21
1.0
 31
0.0
  0
ENDBLK
  5
AE
100
AcDbEntity
  8
0
100
AcDbBlockEnd
  0
BLOCK
  5
B2
100
AcDbEntity
  8
0
100
AcDbBlockBegin
  2
*D3
 70
             1
 10
0.0
 20
0.0
 30
0.0
  3
*D3
  1

  0
LINE
  5
B3
100
AcDbEntity
  8
0
  6
CONTINUOUS
 62
             4
100
AcDbLine
 10
-0.00000000000023
 20
-248.402822901154
 11
-169.99723399999999
 21
-248.402822901154
  0
LINE
  5
B4
100
AcDbEntity
  8
0
  6
CONTINUOUS
 62
             4
100
AcDbLine
 10
-169.99723399999999
 20
-111.5
 11
-169.99723399999999
 21
-250.402822901154
  0
LINE
  5
B5
100
AcDbEntity
  8
0
  6
CONTINUOUS
 62
             4
100
AcDbLine
 10
-0.00000000000023
 20
-223.19232093970231
 11
-0.00000000000023
 21
-250.402822901154
  0
SOLID
  5
B6
100
AcDbEntity
  8
0
 62
             4
100
AcDbTrace
 10
-10.00000000000023
 20
-249.71934787702796
 11
-10.00000000000023
 21
-247.08629792528004
 12
-0.00000000000023
 22
-248.402822901154
 13
-0.00000000000023
 23
-248.402822901154
  0
SOLID
  5
B7
100
AcDbEntity
  8
0
 62
             4
100
AcDbTrace
 10
-159.99723399999999
 20
-247.08629792528004
 11
-159.99723399999999
 21
-249.71934787702796
 12
-169.99723399999999
 22
-248.402822901154
 13
-169.99723399999999
 23
-248.402822901154
  0
MTEXT
  5
B8
100
AcDbEntity
  8
0
 62
             1
100
AcDbMText
 10
-86.00070289936539
 20
-246.402822901154
 30
0.0
 40
10.0
 41
0.0
 71
             7
 72
             1
  1
170
  7
CONVERTER_1
 11
0.99999999999706
 21
0.00000242406841
 31
0.0
  0
ENDBLK
  5
B9
100
AcDbEntity
  8
0
100
AcDbBlockEnd
  0
BLOCK
  5
BD
100
AcDbEntity
  8
0
100
AcDbBlockBegin
  2
*D4
 70
             1
 10
0.0
 20
0.0
 30
0.0
  3
*D4
  1

  0
LINE
  5
BE
100
AcDbEntity
  8
0
  6
CONTINUOUS
 62
             4
100
AcDbLine
 10
-0.00000000000023
 20
-249.4028229011542
 11
189.99593699999997
 21
-249.4028229011542
  0
LINE
  5
BF
100
AcDbEntity
  8
0
  6
CONTINUOUS
 62
             4
100
AcDbLine
 10
189.99593699999997
 20
-34.5
 11
189.99593699999997
 21
-251.4028229011542
  0
LINE
  5
C0
100
AcDbEntity
  8
0
  6
CONTINUOUS
 62
             4
100
AcDbLine
 10
-0.00000000000023
 20
-223.19232093970234
 11
-0.00000000000023
 21
-251.4028229011542
  0
SOLID
  5
C1
100
AcDbEntity
  8
0
 62
             4
100
AcDbTrace
 10
9.99999999999977
 20
-248.08629792528023
 11
9.99999999999977
 21
-250.71934787702816
 12
-0.00000000000023
 22
-249.4028229011542
 13
-0.00000000000023
 23
-249.4028229011542
  0
SOLID
  5
C2
100
AcDbEntity
  8
0
 62
             4
100
AcDbTrace
 10
179.99593699999997
 20
-250.71934787702816
 11
179.99593699999997
 21
-248.08629792528023
 12
189.99593699999997
 22
-249.4028229011542
 13
189.99593699999997
 23
-249.4028229011542
  0
MTEXT
  5
C3
100
AcDbEntity
  8
0
 62
             1
100
AcDbMText
 10
76.75889801409818
 20
-247.4028229011542
 30
0.0
 40
10.0
 41
0.0
 71
             7
 72
             1
  1
190
  7
CONVERTER_1
 11
0.99999999999706
 21
0.00000242406841
 31
0.0
  0
ENDBLK
  5
C4
100
AcDbEntity
  8
0
100
AcDbBlockEnd
  0
BLOCK
  5
C8
100
AcDbEntity
  8
0
100
AcDbBlockBegin
  2
*D5
 70
             1
 10
0.0
 20
0.0
 30
0.0
  3
*D5
  1

  0
LINE
  5
C9
100
AcDbEntity
  8
0
  6
CONTINUOUS
 62
             4
100
AcDbLine
 10
85.0
 20
13.088364109266
 11
-85.0
 21
13.088364109266
  0
LINE
  5
CA
100
AcDbEntity
  8
0
  6
CONTINUOUS
 62
             4
100
AcDbLine
 10
-85.0
 20
0.0
 11
-85.0
 21
15.088364109266
  0
LINE
  5
CB
100
AcDbEntity
  8
0
  6
CONTINUOUS
 62
             4
100
AcDbLine
 10
85.0
 20
0.0
 11
85.0
 21
15.088364109266
  0
SOLID
  5
CC
100
AcDbEntity
  8
0
 62
             4
100
AcDbTrace
 10
75.0
 20
11.77183913339204
 11
75.0
 21
14.40488908513996
 12
85.0
 22
13.088364109266
 13
85.0
 23
13.088364109266
  0
SOLID
  5
CD
100
AcDbEntity
  8
0
 62
             4
100
AcDbTrace
 10
-75.0
 20
14.40488908513996
 11
-75.0
 21
11.77183913339204
 12
-85.0
 22
13.088364109266
 13
-85.0
 23
13.088364109266
  0
MTEXT
  5
CE
100
AcDbEntity
  8
0
 62
             1
100
AcDbMText
 10
-30.64841202891702
 20
15.088364109266
 30
0.0
 40
10.0
 41
0.0
 71
             7
 72
             1
  1
\C1;170\C1;x240
  7
CONVERTER_1
 11
0.99999999999706
 21
0.00000242406841
 31
0.0
  0
ENDBLK
  5
CF
100
AcDbEntity
  8
0
100
AcDbBlockEnd
  0
BLOCK
  5
D3
100
AcDbEntity
  8
0
100
AcDbBlockBegin
  2
*D6
 70
             1
 10
0.0
 20
0.0
 30
0.0
  3
*D6
  1

  0
LINE
  5
D4
100
AcDbEntity
  8
0
  6
CONTINUOUS
 62
             4
100
AcDbLine
 10
214.90744213605799
 20
-86.0
 11
214.90744213605799
 21
0.0
  0
LINE
  5
D5
100
AcDbEntity
  8
0
  6
CONTINUOUS
 62
             4
100
AcDbLine
 10
85.0
 20
0.0
 11
216.90744213605799
 21
0.0
  0
LINE
  5
D6
100
AcDbEntity
  8
0
  6
CONTINUOUS
 62
             4
100
AcDbLine
 10
196.07752370816101
 20
-86.0
 11
216.90744213605799
 21
-86.0
  0
SOLID
  5
D7
100
AcDbEntity
  8
0
 62
             4
100
AcDbTrace
 10
213.59091716018403
 20
-76.0
 11
216.22396711193196
 21
-76.0
 12
214.90744213605799
 22
-86.0
 13
214.90744213605799
 23
-86.0
  0
SOLID
  5
D8
100
AcDbEntity
  8
0
 62
             4
100
AcDbTrace
 10
216.22396711193196
 20
-10.0
 11
213.59091716018403
 21
-10.0
 12
214.90744213605799
 22
0.0
 13
214.90744213605799
 23
0.0
  0
MTEXT
  5
D9
100
AcDbEntity
  8
0
 62
             1
100
AcDbMText
 10
212.90744213605799
 20
-54.55366204590814
 30
0.0
 40
10.0
 41
0.0
 71
             7
 72
             1
  1
86
  7
CONVERTER_1
 11
0.0
 21
1.0
 31
0.0
  0
ENDBLK
  5
DA
100
AcDbEntity
  8
0
100
AcDbBlockEnd
  0
BLOCK
  5
DE
100
AcDbEntity
  8
0
100
AcDbBlockBegin
  2
*D7
 70
             1
 10
0.0
 20
0.0
 30
0.0
  3
*D7
  1

  0
LINE
  5
DF
100
AcDbEntity
  8
0
  6
CONTINUOUS
 62
             4
100
AcDbLine
 10
237.28811752111599
 20
-31.0
 11
237.28811752111599
 21
-141.0
  0
LINE
  5
E0
100
AcDbEntity
  8
0
  6
CONTINUOUS
 62
             4
100
AcDbLine
 10
178.5357579999999
 20
-141.0
 11
239.28811752111599
 21
-141.0
  0
LINE
  5
E1
100
AcDbEntity
  8
0
  6
CONTINUOUS
 62
             4
100
AcDbLine
 10
183.93375900000004
 20
-31.0
 11
239.28811752111599
 21
-31.0
  0
SOLID
  5
E2
100
AcDbEntity
  8
0
 62
             4
100
AcDbTrace
 10
238.60464249698995
 20
-41.0
 11
235.97159254524203
 21
-41.0
 12
237.28811752111599
 22
-31.0
 13
237.28811752111599
 23
-31.0
  0
SOLID
  5
E3
100
AcDbEntity
  8
0
 62
             4
100
AcDbTrace
 10
235.97159254524203
 20
-131.0
 11
238.60464249698995
 21
-131.0
 12
237.28811752111599
 22
-141.0
 13
237.28811752111599
 23
-141.0
  0
MTEXT
  5
E4
100
AcDbEntity
  8
0
 62
             1
100
AcDbMText
 10
235.28811752111599
 20
-96.04197855008911
 30
0.0
 40
10.0
 41
0.0
 71
             7
 72
             1
  1
\C1;DN\C1;110
  7
CONVERTER_1
 11
0.0
 21
1.0
 31
0.0
  0
ENDBLK
  5
E5
100
AcDbEntity
  8
0
100
AcDbBlockEnd
  0
BLOCK
  5
E9
100
AcDbEntity
  8
0
100
AcDbBlockBegin
  2
*D8
 70
             1
 10
0.0
 20
0.0
 30
0.0
  3
*D8
  1

  0
LINE
  5
EA
100
AcDbEntity
  8
0
  6
CONTINUOUS
 62
             4
100
AcDbLine
 10
-204.9535871034854
 20
0.0
 11
-204.9535871034854
 21
-80.0
  0
LINE
  5
EB
100
AcDbEntity
  8
0
  6
CONTINUOUS
 62
             4
100
AcDbLine
 10
-174.11320958312189
 20
-80.0
 11
-206.9535871034854
 21
-80.0
  0
LINE
  5
EC
100
AcDbEntity
  8
0
  6
CONTINUOUS
 62
             4
100
AcDbLine
 10
-77.25
 20
0.0
 11
-206.9535871034854
 21
0.0
  0
SOLID
  5
ED
100
AcDbEntity
  8
0
 62
             4
100
AcDbTrace
 10
-203.63706212761144
 20
-10.0
 11
-206.27011207935936
 21
-10.0
 12
-204.9535871034854
 22
0.0
 13
-204.9535871034854
 23
0.0
  0
SOLID
  5
EE
100
AcDbEntity
  8
0
 62
             4
100
AcDbTrace
 10
-206.27011207935936
 20
-70.0
 11
-203.63706212761144
 21
-70.0
 12
-204.9535871034854
 22
-80.0
 13
-204.9535871034854
 23
-80.0
  0
MTEXT
  5
EF
100
AcDbEntity
  8
0
 62
             1
100
AcDbMText
 10
-206.9535871034854
 20
-56.5526777492351
 30
0.0
 40
10.0
 41
0.0
 71
             7
 72
             1
  1
80
  7
CONVERTER_1
 11
0.0
 21
1.0
 31
0.0
  0
ENDBLK
  5
F0
100
AcDbEntity
  8
0
100
AcDbBlockEnd
  0
BLOCK
  5
F4
100
AcDbEntity
  8
0
100
AcDbBlockBegin
  2
*D9
 70
             1
 10
0.0
 20
0.0
 30
0.0
  3
*D9
  1

  0
LINE
  5
F5
100
AcDbEntity
  8
0
  6
CONTINUOUS
 62
             4
100
AcDbLine
 10
-222.02437958587211
 20
0.0
 11
-222.02437958587211
 21
-220.0
  0
LINE
  5
F6
100
AcDbEntity
  8
0
  6
CONTINUOUS
 62
             4
100
AcDbLine
 10
-49.82985863767343
 20
-220.0
 11
-224.02437958587211
 21
-220.0
  0
LINE
  5
F7
100
AcDbEntity
  8
0
  6
CONTINUOUS
 62
             4
100
AcDbLine
 10
-77.25
 20
0.0
 11
-224.02437958587211
 21
0.0
  0
SOLID
  5
F8
100
AcDbEntity
  8
0
 62
             4
100
AcDbTrace
 10
-220.70785460999815
 20
-10.0
 11
-223.34090456174607
 21
-10.0
 12
-222.02437958587211
 22
0.0
 13
-222.02437958587211
 23
0.0
  0
SOLID
  5
F9
100
AcDbEntity
  8
0
 62
             4
100
AcDbTrace
 10
-223.34090456174607
 20
-210.0
 11
-220.70785460999815
 21
-210.0
 12
-222.02437958587211
 22
-220.0
 13
-222.02437958587211
 23
-220.0
  0
MTEXT
  5
FA
100
AcDbEntity
  8
0
 62
             1
100
AcDbMText
 10
-224.02437958587211
 20
-134.84276732712812
 30
0.0
 40
10.0
 41
0.0
 71
             7
 72
             1
  1
220
  7
CONVERTER_1
 11
0.0
 21
1.0
 31
0.0
  0
ENDBLK
  5
FB
100
AcDbEntity
  8
0
100
AcDbBlockEnd
  0
ENDSEC
  0
SECTION
  2
ENTITIES
  0
DIMENSION
  5
FD
100
AcDbEntity
  8
1
100
AcDbDimension
  2
*D9
 10
-222.02437958587211
 20
0.0
 11
-229.02437958587211
 21
-122.8427673271281
 31
0.0
 53
90.0
  1
<>
  3
ME10_DIM_7
100
AcDbAlignedDimension
 13
-49.8298586376734
 23
-220.0
 14
-77.25
 24
0.0
 50
90.0
100
AcDbRotatedDimension
  0
DIMENSION
  5
F2
100
AcDbEntity
  8
1
100
AcDbDimension
  2
*D8
 10
-204.9535871034854
 20
0.0
 11
-211.9535871034854
 21
-49.0526777492351
 31
0.0
 53
90.0
  1
<>
  3
ME10_DIM_6
100
AcDbAlignedDimension
 13
-174.11320958312189
 23
-80.0
 14
-77.25
 24
0.0
 50
90.0
100
AcDbRotatedDimension
  0
DIMENSION
  5
E7
100
AcDbEntity
  8
1
100
AcDbDimension
  2
*D7
 10
237.28811752111599
 20
-31.0
 11
230.28811752111599
 21
-81.64197855008911
 31
0.0
 53
90.0
  1
<>
  3
ME10_DIM_5
100
AcDbAlignedDimension
 13
178.5357579999999
 23
-141.0
 14
183.93375900000001
 24
-31.0
 50
90.0
100
AcDbRotatedDimension
  0
DIMENSION
  5
DC
100
AcDbEntity
  8
1
100
AcDbDimension
  2
*D6
 10
214.90744213605799
 20
-86.0
 11
207.90744213605799
 21
-47.05366204590814
 31
0.0
 53
90.0
  1
<>
  3
ME10_DIM_4
100
AcDbAlignedDimension
 13
85.0
 23
0.0
 14
196.07752370816101
 24
-86.0
 50
90.0
100
AcDbRotatedDimension
  0
DIMENSION
  5
D1
100
AcDbEntity
  8
1
100
AcDbDimension
  2
*D5
 10
85.0
 20
13.088364109266
 11
-1.14841202891702
 21
20.088364109266
 31
0.0
 53
179.99999999999994
  1
<>
  3
ME10_DIM_3
100
AcDbAlignedDimension
 13
-85.0
 23
0.0
 14
85.0
 24
0.0
 50
179.99999999999994
100
AcDbRotatedDimension
  0
DIMENSION
  5
C6
100
AcDbEntity
  8
1
100
AcDbDimension
  2
*D4
 10
-0.00000000000023
 20
-249.4028229011542
 11
87.25889801409818
 21
-242.4028229011542
 31
0.0
 53
179.99999999999994
  1
<>
  3
ME10_DIM_2
100
AcDbAlignedDimension
 13
189.995937
 23
-34.5
 14
-0.00000000000023
 24
-223.19232093970231
 50
179.99999999999994
100
AcDbRotatedDimension
  0
DIMENSION
  5
BB
100
AcDbEntity
  8
1
100
AcDbDimension
  2
*D3
 10
-0.00000000000023
 20
-248.402822901154
 11
-75.50070289936539
 21
-241.402822901154
 31
0.0
 53
179.99999999999994
  1
<>
  3
ME10_DIM_1
100
AcDbAlignedDimension
 13
-169.99723399999999
 23
-111.5
 14
-0.00000000000023
 24
-223.19232093970231
 50
179.99999999999994
100
AcDbRotatedDimension
  0
DIMENSION
  5
B0
100
AcDbEntity
  8
1
100
AcDbDimension
  2
*D2
 10
-185.99723399999999
 20
-55.00000000000001
 11
-192.99723399999999
 21
-127.9292844600961
 31
0.0
 53
90.0
  1
<>
  3
ME10_DIM_0
100
AcDbAlignedDimension
 13
-175.99723399999999
 23
-105.0
 14
-175.99723399999999
 24
-55.0
 50
90.0
100
AcDbRotatedDimension
  0
INSERT
  5
2E
100
AcDbEntity
  8
1
100
AcDbBlockReference
  2
071_1_1E_ANSCHLU_MUFFEDN75
 10
-171.84688461747001
 20
-117.5
  0
INSERT
  5
2F
100
AcDbEntity
  8
0
100
AcDbBlockReference
  2
HL71_1_5_KELLERABLAUF
 10
-376.9476580000001
 20
-432.55545899999998
  0
ENDSEC
  0
SECTION
  2
OBJECTS
  0
DICTIONARY
  5
19
100
AcDbDictionary
  3
ACAD_GROUP
350
1A
  3
ACAD_MLINESTYLE
350
1B
  0
DICTIONARY
  5
1A
102
{ACAD_REACTORS
330
19
102
}
100
AcDbDictionary
  0
DICTIONARY
  5
1B
102
{ACAD_REACTORS
330
19
102
}
100
AcDbDictionary
  3
STANDARD
350
1C
  0
MLINESTYLE
  5
1C
102
{ACAD_REACTORS
330
1B
102
}
100
AcDbMlineStyle
  2
STANDARD
 70
             0
  3

 62
             0
 51
90.0
 52
90.0
 71
             2
 49
0.5
 62
           256
  6
BYLAYER
 49
-0.5
 62
           256
  6
BYLAYER
  0
ENDSEC
  0
EOF
