  0
SECTION
  2
HEADER
  9
$ACADVER
  1
AC1014
  9
$ACADMAINTVER
 70
             0
  9
$DWGCODEPAGE
  3
ANSI_1252
  9
$INSBASE
 10
0.0
 20
0.0
 30
0.0
  9
$EXTMIN
 10
-29.70189329089203
 20
-121.00582799999989
 30
0.0
  9
$EXTMAX
 10
289.30743699999982
 20
175.10604660026499
 30
0.0
  9
$LIMMIN
 10
0.0
 20
0.0
  9
$LIMMAX
 10
0.0
 20
0.0
  9
$ORTHOMODE
 70
             0
  9
$REGENMODE
 70
             1
  9
$FILLMODE
 70
             1
  9
$QTEXTMODE
 70
             0
  9
$MIRRTEXT
 70
             1
  9
$DRAGMODE
 70
             2
  9
$LTSCALE
 40
1.0
  9
$OSMODE
 70
             0
  9
$ATTMODE
 70
             1
  9
$TEXTSIZE
 40
0.2
  9
$TRACEWID
 40
0.05
  9
$TEXTSTYLE
  7
STANDARD
  9
$CLAYER
  8
0
  9
$CELTYPE
  6
CONTINUOUS
  9
$CECOLOR
 62
           256
  9
$CELTSCALE
 40
1.0
  9
$DELOBJ
 70
             1
  9
$DISPSILH
 70
             0
  9
$DIMSCALE
 40
1.0
  9
$DIMASZ
 40
0.18
  9
$DIMEXO
 40
0.0625
  9
$DIMDLI
 40
0.38
  9
$DIMRND
 40
0.0
  9
$DIMDLE
 40
0.0
  9
$DIMEXE
 40
0.18
  9
$DIMTP
 40
0.0
  9
$DIMTM
 40
0.0
  9
$DIMTXT
 40
0.18
  9
$DIMCEN
 40
0.09
  9
$DIMTSZ
 40
0.0
  9
$DIMTOL
 70
             0
  9
$DIMLIM
 70
             0
  9
$DIMTIH
 70
             1
  9
$DIMTOH
 70
             1
  9
$DIMSE1
 70
             0
  9
$DIMSE2
 70
             0
  9
$DIMTAD
 70
             0
  9
$DIMZIN
 70
             0
  9
$DIMBLK
  1

  9
$DIMASO
 70
             1
  9
$DIMSHO
 70
             1
  9
$DIMPOST
  1

  9
$DIMAPOST
  1

  9
$DIMALT
 70
             0
  9
$DIMALTD
 70
             2
  9
$DIMALTF
 40
25.4
  9
$DIMLFAC
 40
1.0
  9
$DIMTOFL
 70
             0
  9
$DIMTVP
 40
0.0
  9
$DIMTIX
 70
             0
  9
$DIMSOXD
 70
             0
  9
$DIMSAH
 70
             0
  9
$DIMBLK1
  1

  9
$DIMBLK2
  1

  9
$DIMSTYLE
  2
STANDARD
  9
$DIMCLRD
 70
             0
  9
$DIMCLRE
 70
             0
  9
$DIMCLRT
 70
             0
  9
$DIMTFAC
 40
1.0
  9
$DIMGAP
 40
0.09
  9
$DIMJUST
 70
             0
  9
$DIMSD1
 70
             0
  9
$DIMSD2
 70
             0
  9
$DIMTOLJ
 70
             1
  9
$DIMTZIN
 70
             0
  9
$DIMALTZ
 70
             0
  9
$DIMALTTZ
 70
             0
  9
$DIMFIT
 70
             3
  9
$DIMUPT
 70
             0
  9
$DIMUNIT
 70
             2
  9
$DIMDEC
 70
             4
  9
$DIMTDEC
 70
             4
  9
$DIMALTU
 70
             2
  9
$DIMALTTD
 70
             2
  9
$DIMTXSTY
  7
STANDARD
  9
$DIMAUNIT
 70
             0
  9
$LUNITS
 70
             2
  9
$LUPREC
 70
             4
  9
$SKETCHINC
 40
0.1
  9
$FILLETRAD
 40
0.0
  9
$AUNITS
 70
             0
  9
$AUPREC
 70
             0
  9
$MENU
  1
acad
  9
$ELEVATION
 40
0.0
  9
$PELEVATION
 40
0.0
  9
$THICKNESS
 40
0.0
  9
$LIMCHECK
 70
             0
  9
$BLIPMODE
 70
             1
  9
$CHAMFERA
 40
0.0
  9
$CHAMFERB
 40
0.0
  9
$CHAMFERC
 40
0.0
  9
$CHAMFERD
 40
0.0
  9
$SKPOLY
 70
             0
  9
$TDCREATE
 40
0.000000000
  9
$TDUPDATE
 40
0.000000000
  9
$TDINDWG
 40
0.0000000000
  9
$TDUSRTIMER
 40
0.0000000000
  9
$USRTIMER
 70
             1
  9
$ANGBASE
 50
0.0
  9
$ANGDIR
 70
             0
  9
$PDMODE
 70
             0
  9
$PDSIZE
 40
0.0
  9
$PLINEWID
 40
0.0
  9
$COORDS
 70
             0
  9
$SPLFRAME
 70
             0
  9
$SPLINETYPE
 70
             6
  9
$SPLINESEGS
 70
             8
  9
$ATTDIA
 70
             0
  9
$ATTREQ
 70
             1
  9
$HANDLING
 70
             1
  9
$HANDSEED
  5
11B
  9
$SURFTAB1
 70
             6
  9
$SURFTAB2
 70
             6
  9
$SURFTYPE
 70
             6
  9
$SURFU
 70
             6
  9
$SURFV
 70
             6
  9
$UCSNAME
  2

  9
$UCSORG
 10
0.0
 20
0.0
 30
0.0
  9
$UCSXDIR
 10
1.0
 20
0.0
 30
0.0
  9
$UCSYDIR
 10
0.0
 20
1.0
 30
0.0
  9
$PUCSNAME
  2

  9
$PUCSORG
 10
0.0
 20
0.0
 30
0.0
  9
$PUCSXDIR
 10
1.0
 20
0.0
 30
0.0
  9
$PUCSYDIR
 10
0.0
 20
1.0
 30
0.0
  9
$USERI1
 70
             0
  9
$USERI2
 70
             0
  9
$USERI3
 70
             0
  9
$USERI4
 70
             0
  9
$USERI5
 70
             0
  9
$USERR1
 40
12.01
  9
$USERR2
 40
0.0
  9
$USERR3
 40
0.0
  9
$USERR4
 40
0.0
  9
$USERR5
 40
0.0
  9
$WORLDVIEW
 70
             1
  9
$SHADEDGE
 70
             3
  9
$SHADEDIF
 70
            70
  9
$TILEMODE
 70
             1
  9
$MAXACTVP
 70
            16
  9
$PINSBASE
 10
0.0
 20
0.0
 30
0.0
  9
$PLIMCHECK
 70
             0
  9
$PEXTMIN
 10
1.00000000000000E+20
 20
1.00000000000000E+20
 30
1.00000000000000E+20
  9
$PEXTMAX
 10
-1.00000000000000E+20
 20
-1.00000000000000E+20
 30
-1.00000000000000E+20
  9
$PLIMMIN
 10
0.0
 20
0.0
  9
$PLIMMAX
 10
12.0
 20
9.0
  9
$UNITMODE
 70
             0
  9
$VISRETAIN
 70
             0
  9
$PLINEGEN
 70
             1
  9
$PSLTSCALE
 70
             0
  9
$TREEDEPTH
 70
          3020
  9
$PICKSTYLE
 70
             1
  9
$CMLSTYLE
  2
STANDARD
  9
$CMLJUST
 70
             0
  9
$CMLSCALE
 40
1.0
  9
$PROXYGRAPHICS
 70
             0
  9
$MEASUREMENT
 70
             1
  0
ENDSEC
  0
SECTION
  2
CLASSES
  0
CLASS
  1
LWPOLYLINE
  2
AcDbPolyline
  3
"AutoCAD"
 90
        0
280
             0
281
             1
  0
CLASS
  1
IMAGE
  2
AcDbRasterImage
  3
ISM
 90
      127
280
             0
281
             1
  0
CLASS
  1
OLE2FRAME
  2
AcDbOle2Frame
  3
""
 90
        0
280
             0
281
             1
  0
CLASS
  1
HATCH
  2
AcDbHatch
  3
"ACAD_SEDONA"
 90
        0
280
             0
281
             1
  0
CLASS
  1
DICTIONARYVAR
  2
AcDbDictionaryVar
  3
"AutoCAD"
 90
        0
280
             0
281
             0
  0
CLASS
  1
RASTERVARIABLES
  2
AcDbRasterVariables
  3
ISM
 90
        0
280
             0
281
             0
  0
CLASS
  1
IMAGEDEF
  2
AcDbRasterImageDef
  3
ISM
 90
        0
280
             0
281
             0
  0
CLASS
  1
IMAGEDEF_REACTOR
  2
AcDbRasterImageDefReactor
  3
ISM
 90
        1
280
             0
281
             0
  0
CLASS
  1
IDBUFFER
  2
AcDbIdBuffer
  3
"Acad"
 90
        0
280
             0
281
             0
  0
CLASS
  1
SPATIAL_FILTER
  2
AcDbSpatialFilter
  3
"Acad"
 90
        0
280
             0
281
             0
  0
CLASS
  1
XRECORD
  2
AcDbXrecord
  3
"<Built In>"
 90
        0
280
             0
281
             0
  0
CLASS
  1
SORTENTSTABLE
  2
AcDbSortentsTable
  3
"AutoCAD"
 90
        0
280
             0
281
             0
  0
CLASS
  1
LAYER_INDEX
  2
AcDbLayerIndex
  3
"Acad"
 90
        0
280
             0
281
             0
  0
CLASS
  1
SPATIAL_INDEX
  2
AcDbSpatialIndex
  3
"Acad"
 90
        0
280
             0
281
             0
  0
CLASS
  1
OBJECT_PTR
  2
CAseDLPNTableRecord
  3
"ASE-LPNTableRecord"
 90
        1
280
             0
281
             0
  0
CLASS
  1
LAYOUT
  2
AcDbLayout
  3
"AutoCAD 2000"
 90
        0
280
             0
281
             0
  0
CLASS
  1
PLOTSETTINGS
  2
AcDbPlotSettings
  3
"AutoCAD 2000"
 90
        0
280
             0
281
             0
  0
CLASS
  1
ACDBDICTIONARYWDFLT
  2
AcDbDictionaryWithDefault
  3
"AutoCAD 2000"
 90
        0
280
             0
281
             0
  0
CLASS
  1
ACDBPLACEHOLDER
  2
AcDbPlaceHolder
  3
"AutoCAD 2000"
 90
        0
280
             0
281
             0
  0
ENDSEC
  0
SECTION
  2
TABLES
  0
TABLE
  2
VPORT
  5
7
100
AcDbSymbolTable
 70
             1
  0
VPORT
  5
15
100
AcDbSymbolTableRecord
100
AcDbViewportTableRecord
  2
*ACTIVE
 70
             0
 10
0.0
 20
0.0
 11
1.0
 21
1.0
 12
129.8027718545539
 22
27.05010930013255
 13
0.0
 23
0.0
 14
1.0
 24
1.0
 15
0.0
 25
0.0
 16
0.0
 26
0.0
 36
1.0
 17
0.0
 27
0.0
 37
0.0
 40
325.72306206029134
 41
1.60267857142857
 42
50.0
 43
0.0
 44
0.0
 50
0.0
 51
0.0
 71
             0
 72
           100
 73
             1
 74
             1
 75
             0
 76
             0
 77
             0
 78
             0
  0
ENDTAB
  0
TABLE
  2
LTYPE
  5
4
100
AcDbSymbolTable
 70
            11
  0
LTYPE
  5
11
100
AcDbSymbolTableRecord
100
AcDbLinetypeTableRecord
  2
BYBLOCK
 70
            64
  3

 72
            65
 73
             0
 40
0.0
  0
LTYPE
  5
12
100
AcDbSymbolTableRecord
100
AcDbLinetypeTableRecord
  2
BYLAYER
 70
            64
  3

 72
            65
 73
             0
 40
0.0
  0
LTYPE
  5
13
100
AcDbSymbolTableRecord
100
AcDbLinetypeTableRecord
  2
CONTINUOUS
 70
            64
  3
Solid line
 72
            65
 73
             0
 40
0.0
  0
LTYPE
  5
1D
100
AcDbSymbolTableRecord
100
AcDbLinetypeTableRecord
  2
DASHED
 70
            64
  3
Dashed
 72
            65
 73
             2
 40
15.0
 49
7.0
 74
             0
 49
-8.0
 74
             0
  0
LTYPE
  5
1E
100
AcDbSymbolTableRecord
100
AcDbLinetypeTableRecord
  2
DOTTED
 70
            64
  3
Dotted
 72
            65
 73
             2
 40
1.0
 49
0.0
 74
             0
 49
-1.0
 74
             0
  0
LTYPE
  5
1F
100
AcDbSymbolTableRecord
100
AcDbLinetypeTableRecord
  2
DOT_CENTER
 70
            64
  3
Dot_Center
 72
            65
 73
             4
 40
14.0
 49
12.0
 74
             0
 49
-1.0
 74
             0
 49
0.0
 74
             0
 49
-1.0
 74
             0
  0
LTYPE
  5
20
100
AcDbSymbolTableRecord
100
AcDbLinetypeTableRecord
  2
LONG_DASHED
 70
            64
  3
Long_Dashed
 72
            65
 73
             2
 40
15.0
 49
10.0
 74
             0
 49
-5.0
 74
             0
  0
LTYPE
  5
21
100
AcDbSymbolTableRecord
100
AcDbLinetypeTableRecord
  2
DASH_CENTER
 70
            64
  3
Dash_Center
 72
            65
 73
             4
 40
14.0
 49
11.0
 74
             0
 49
-1.0
 74
             0
 49
1.0
 74
             0
 49
-1.0
 74
             0
  0
LTYPE
  5
22
100
AcDbSymbolTableRecord
100
AcDbLinetypeTableRecord
  2
PHANTOM
 70
            64
  3
Phantom
 72
            65
 73
             6
 40
13.0
 49
10.0
 74
             0
 49
-1.0
 74
             0
 49
0.0
 74
             0
 49
-1.0
 74
             0
 49
0.0
 74
             0
 49
-1.0
 74
             0
  0
LTYPE
  5
23
100
AcDbSymbolTableRecord
100
AcDbLinetypeTableRecord
  2
CENTER_DASH_DASH
 70
            64
  3
Center_Dash_Dash
 72
            65
 73
             6
 40
14.0
 49
9.0
 74
             0
 49
-1.0
 74
             0
 49
1.0
 74
             0
 49
-1.0
 74
             0
 49
1.0
 74
             0
 49
-1.0
 74
             0
  0
LTYPE
  5
24
100
AcDbSymbolTableRecord
100
AcDbLinetypeTableRecord
  2
DASHDOT
 70
            64
  3
DASHDOT
 72
            65
 73
             4
 40
16.0
 49
10.0
 74
             0
 49
-3.0
 74
             0
 49
0.0
 74
             0
 49
-3.0
 74
             0
  0
ENDTAB
  0
TABLE
  2
LAYER
  5
2
100
AcDbSymbolTable
 70
             7
  0
LAYER
  5
14
100
AcDbSymbolTableRecord
100
AcDbLayerTableRecord
  2
0
 70
             0
 62
             7
  6
CONTINUOUS
  0
LAYER
  5
25
100
AcDbSymbolTableRecord
100
AcDbLayerTableRecord
  2
1
 70
             0
 62
             7
  6
CONTINUOUS
  0
LAYER
  5
26
100
AcDbSymbolTableRecord
100
AcDbLayerTableRecord
  2
LC-001-002-----0
 70
             0
 62
             7
  6
CONTINUOUS
  0
LAYER
  5
27
100
AcDbSymbolTableRecord
100
AcDbLayerTableRecord
  2
LC-002-002-RND-0
 70
             0
 62
             7
  6
CONTINUOUS
  0
LAYER
  5
28
100
AcDbSymbolTableRecord
100
AcDbLayerTableRecord
  2
LC-003-003-----0
 70
             0
 62
             7
  6
CONTINUOUS
  0
LAYER
  5
29
100
AcDbSymbolTableRecord
100
AcDbLayerTableRecord
  2
LC-009-201-----0
 70
             0
 62
             7
  6
CONTINUOUS
  0
LAYER
  5
2A
100
AcDbSymbolTableRecord
100
AcDbLayerTableRecord
  2
LC-010-001-----0
 70
             0
 62
             7
  6
CONTINUOUS
  0
ENDTAB
  0
TABLE
  2
STYLE
  5
3
100
AcDbSymbolTable
 70
             2
  0
STYLE
  5
17
100
AcDbSymbolTableRecord
100
AcDbTextStyleTableRecord
  2
STANDARD
 70
             0
 40
0.0
 41
1.0
 50
0.0
 71
             0
 42
0.0
  3
txt
  4

  0
STYLE
  5
F4
100
AcDbSymbolTableRecord
100
AcDbTextStyleTableRecord
  2
CONVERTER_1
 70
             0
 40
0.0
 41
0.9
 50
0.0
 71
             0
 42
0.0
  3
txt.shx
  4

  0
ENDTAB
  0
TABLE
  2
VIEW
  5
5
100
AcDbSymbolTable
 70
             0
  0
ENDTAB
  0
TABLE
  2
UCS
  5
6
100
AcDbSymbolTable
 70
             0
  0
ENDTAB
  0
TABLE
  2
APPID
  5
8
100
AcDbSymbolTable
 70
             1
  0
APPID
  5
16
100
AcDbSymbolTableRecord
100
AcDbRegAppTableRecord
  2
ACAD
 70
             0
  0
ENDTAB
  0
TABLE
  2
DIMSTYLE
  5
9
100
AcDbSymbolTable
 70
             5
  0
DIMSTYLE
105
18
100
AcDbSymbolTableRecord
100
AcDbDimStyleTableRecord
  2
STANDARD
 70
             0
  3

  4

  5

  6

  7

 40
1.0
 41
0.18
 42
0.0625
 43
0.38
 44
0.18
 45
0.0
 46
0.0
 47
0.0
 48
0.0
 71
             0
 72
             0
 73
             1
 74
             1
 75
             0
 76
             0
 77
             0
 78
             0
140
0.18
141
0.09
142
0.0
143
25.4
144
1.0
145
0.0
146
1.0
147
0.09
170
             0
171
             2
172
             0
173
             0
174
             0
175
             0
176
             0
177
             0
178
             0
270
             2
271
             4
272
             4
273
             2
274
             2
275
             0
280
             0
281
             0
282
             0
283
             1
284
             0
285
             0
286
             0
287
             3
288
             0
340
17
  0
DIMSTYLE
105
F7
100
AcDbSymbolTableRecord
100
AcDbDimStyleTableRecord
  2
ME10_DIM_0
 70
             0
  3

  4

  5

  6

  7

 40
1.0
 41
12.0
 42
0.0
 43
0.38
 44
2.0
 45
0.0
 46
0.0
 47
0.0
 48
0.0
 71
             0
 72
             0
 73
             0
 74
             0
 75
             0
 76
             0
 77
             1
 78
             8
140
12.0
141
0.09
142
0.0
143
25.4
144
1.0
145
0.0
146
1.0
147
0.625
170
             0
171
             2
172
             1
173
             1
174
             0
175
             0
176
             4
177
             4
178
             1
270
             2
271
             2
272
             4
273
             2
274
             2
275
             0
280
             0
281
             0
282
             0
283
             1
284
             0
285
             0
286
             0
287
             3
288
             0
340
F4
  0
DIMSTYLE
105
102
100
AcDbSymbolTableRecord
100
AcDbDimStyleTableRecord
  2
ME10_DIM_1
 70
             0
  3
DN<>
  4

  5

  6

  7

 40
1.0
 41
12.0
 42
0.0
 43
0.38
 44
2.0
 45
0.0
 46
0.0
 47
0.0
 48
0.0
 71
             0
 72
             0
 73
             0
 74
             0
 75
             0
 76
             0
 77
             1
 78
             8
140
12.0
141
0.09
142
0.0
143
25.4
144
1.0
145
0.0
146
1.0
147
0.625
170
             0
171
             2
172
             1
173
             1
174
             0
175
             0
176
             4
177
             4
178
             1
270
             2
271
             2
272
             4
273
             2
274
             2
275
             0
280
             0
281
             0
282
             0
283
             1
284
             0
285
             0
286
             0
287
             3
288
             0
340
F4
  0
DIMSTYLE
105
10D
100
AcDbSymbolTableRecord
100
AcDbDimStyleTableRecord
  2
ME10_DIM_2
 70
             0
  3

  4

  5

  6

  7

 40
1.0
 41
12.0
 42
0.0
 43
0.38
 44
2.0
 45
0.0
 46
0.0
 47
0.0
 48
0.0
 71
             0
 72
             0
 73
             0
 74
             0
 75
             0
 76
             0
 77
             1
 78
             8
140
12.0
141
0.09
142
0.0
143
25.4
144
1.0
145
0.0
146
1.0
147
0.625
170
             0
171
             2
172
             1
173
             1
174
             0
175
             0
176
             4
177
             4
178
             1
270
             2
271
             2
272
             4
273
             2
274
             2
275
             0
280
             0
281
             0
282
             0
283
             1
284
             0
285
             0
286
             0
287
             3
288
             0
340
F4
  0
DIMSTYLE
105
118
100
AcDbSymbolTableRecord
100
AcDbDimStyleTableRecord
  2
ME10_DIM_3
 70
             0
  3

  4

  5

  6

  7

 40
1.0
 41
12.0
 42
0.0
 43
0.38
 44
2.0
 45
0.0
 46
0.0
 47
0.0
 48
0.0
 71
             0
 72
             0
 73
             0
 74
             0
 75
             0
 76
             0
 77
             1
 78
             8
140
12.0
141
0.09
142
0.0
143
25.4
144
1.0
145
0.0
146
1.0
147
0.625
170
             0
171
             2
172
             1
173
             1
174
             0
175
             0
176
             4
177
             4
178
             1
270
             2
271
             2
272
             4
273
             2
274
             2
275
             0
280
             0
281
             0
282
             0
283
             1
284
             0
285
             0
286
             0
287
             3
288
             0
340
F4
  0
ENDTAB
  0
TABLE
  2
BLOCK_RECORD
  5
1
100
AcDbSymbolTable
 70
             5
  0
BLOCK_RECORD
  5
A
100
AcDbSymbolTableRecord
100
AcDbBlockTableRecord
  2
*MODEL_SPACE
  0
BLOCK_RECORD
  5
B
100
AcDbSymbolTableRecord
100
AcDbBlockTableRecord
  2
*PAPER_SPACE
  0
BLOCK_RECORD
  5
2B
100
AcDbSymbolTableRecord
100
AcDbBlockTableRecord
  2
HL_720_0_FROSCHKLAPPE__1
  0
BLOCK_RECORD
  5
ED
100
AcDbSymbolTableRecord
100
AcDbBlockTableRecord
  2
*D1
  0
BLOCK_RECORD
  5
F9
100
AcDbSymbolTableRecord
100
AcDbBlockTableRecord
  2
*D2
  0
BLOCK_RECORD
  5
104
100
AcDbSymbolTableRecord
100
AcDbBlockTableRecord
  2
*D3
  0
BLOCK_RECORD
  5
10F
100
AcDbSymbolTableRecord
100
AcDbBlockTableRecord
  2
*D4
  0
ENDTAB
  0
ENDSEC
  0
SECTION
  2
BLOCKS
  0
BLOCK
  5
D
100
AcDbEntity
  8
0
100
AcDbBlockBegin
  2
*MODEL_SPACE
 70
             0
 10
0.0
 20
0.0
 30
0.0
  3
*MODEL_SPACE
  1

  0
ENDBLK
  5
E
100
AcDbEntity
  8
0
100
AcDbBlockEnd
  0
BLOCK
  5
F
100
AcDbEntity
 67
             1
  8
0
100
AcDbBlockBegin
  2
*PAPER_SPACE
 70
             0
 10
0.0
 20
0.0
 30
0.0
  3
*PAPER_SPACE
  1

  0
ENDBLK
  5
10
100
AcDbEntity
 67
             1
  8
0
100
AcDbBlockEnd
  0
BLOCK
  5
2C
100
AcDbEntity
  8
0
100
AcDbBlockBegin
  2
HL_720_0_FROSCHKLAPPE__1
 70
             0
 10
-239.42721227299401
 20
-1138.9307570000001
 30
0.0
  3
HL_720_0_FROSCHKLAPPE__1
  1

  0
ARC
  5
EA
100
AcDbEntity
  8
LC-002-002-RND-0
  6
CONTINUOUS
 62
             7
100
AcDbCircle
 10
154.9978439999997
 20
-101.00582799999999
 40
19.99999999999991
100
AcDbArc
 50
-54.22685300000074
 51
0.0
  0
ARC
  5
E9
100
AcDbEntity
  8
LC-002-002-RND-0
  6
CONTINUOUS
 62
             7
100
AcDbCircle
 10
154.9978439999997
 20
-101.00582799999999
 40
19.99999999999983
100
AcDbArc
 50
-99.79984900000073
 51
-54.22685300000074
  0
ARC
  5
E8
100
AcDbEntity
  8
LC-002-002-RND-0
  6
CONTINUOUS
 62
             7
100
AcDbCircle
 10
29.75
 20
106.27500000000001
 40
1.0
100
AcDbArc
 50
180.0
 51
-90.0
  0
ARC
  5
E7
100
AcDbEntity
  8
LC-002-002-RND-0
  6
CONTINUOUS
 62
             7
100
AcDbCircle
 10
102.02583899999981
 20
66.27499999999998
 40
1.5
100
AcDbArc
 50
-90.0
 51
0.0
  0
ARC
  5
E6
100
AcDbEntity
  8
LC-002-002-RND-0
  6
DASHDOT
 62
             7
100
AcDbCircle
 10
186.4602379999998
 20
58.83999800000004
 40
1.30000000000036
100
AcDbArc
 50
-97.00000000001209
 51
-52.00000000002012
  0
ARC
  5
E5
100
AcDbEntity
  8
LC-002-002-RND-0
  6
DASHDOT
 62
             7
100
AcDbCircle
 10
189.1017449999998
 20
56.71600899999999
 40
2.0000000000003
100
AcDbArc
 50
53.00000000000987
 51
128.00000000000051
  0
ARC
  5
E4
100
AcDbEntity
  8
LC-002-002-RND-0
  6
DASHDOT
 62
             7
100
AcDbCircle
 10
193.1872649999998
 20
59.02153199999998
 40
2.30000000000032
100
AcDbArc
 50
-127.00000000000311
 51
-97.00000000000436
  0
ARC
  5
E3
100
AcDbEntity
  8
LC-001-002-----0
  6
DASHDOT
 62
             7
100
AcDbCircle
 10
168.9811959999997
 20
-79.67841699999997
 40
140.00000000000006
100
AcDbArc
 50
39.64236299999983
 51
74.10449200000012
  0
ARC
  5
E2
100
AcDbEntity
  8
LC-002-002-RND-0
  6
DASHDOT
 62
             7
100
AcDbCircle
 10
287.00354099999981
 20
4.21869900000002
 40
2.00000000000043
100
AcDbArc
 50
-112.00000000000159
 51
-21.99999999999948
  0
ARC
  5
E1
100
AcDbEntity
  8
LC-002-002-RND-0
  6
DASHDOT
 62
             7
100
AcDbCircle
 10
283.55358499999983
 20
3.88691600000004
 40
0.70000000000014
100
AcDbArc
 50
-111.9999999999836
 51
-56.84990499995645
  0
ARC
  5
E0
100
AcDbEntity
  8
LC-002-002-RND-0
  6
DASHDOT
 62
             7
100
AcDbCircle
 10
283.2280619999998
 20
4.01843600000007
 40
0.69999999999955
100
AcDbArc
 50
-167.15009500003026
 51
-111.9999999999801
  0
ARC
  5
DF
100
AcDbEntity
  8
LC-002-002-RND-0
  6
CONTINUOUS
 62
             7
100
AcDbCircle
 10
24.75
 20
109.3250000000001
 40
4.0
100
AcDbArc
 50
0.0
 51
90.0
  0
ARC
  5
DE
100
AcDbEntity
  8
LC-002-002-RND-0
  6
CONTINUOUS
 62
             7
100
AcDbCircle
 10
9.75
 20
109.3250000000001
 40
4.0
100
AcDbArc
 50
90.0
 51
180.0
  0
ARC
  5
DD
100
AcDbEntity
  8
LC-002-002-RND-0
  6
CONTINUOUS
 62
             7
100
AcDbCircle
 10
9.75
 20
-109.3249999999999
 40
4.0
100
AcDbArc
 50
180.0
 51
-90.0
  0
ARC
  5
DC
100
AcDbEntity
  8
LC-002-002-RND-0
  6
CONTINUOUS
 62
             7
100
AcDbCircle
 10
24.75
 20
-109.3249999999999
 40
4.0
100
AcDbArc
 50
-90.0
 51
0.0
  0
ARC
  5
DB
100
AcDbEntity
  8
LC-002-002-RND-0
  6
CONTINUOUS
 62
             7
100
AcDbCircle
 10
102.02583899999981
 20
-102.175
 40
1.5
100
AcDbArc
 50
0.0
 51
90.0
  0
ARC
  5
DA
100
AcDbEntity
  8
LC-002-002-RND-0
  6
CONTINUOUS
 62
             7
100
AcDbCircle
 10
29.75
 20
-106.27500000000001
 40
1.0
100
AcDbArc
 50
90.0
 51
180.0
  0
ARC
  5
D9
100
AcDbEntity
  8
LC-002-002-RND-0
  6
CONTINUOUS
 62
             7
100
AcDbCircle
 10
77.75034799999978
 20
-101.675
 40
1.0
100
AcDbArc
 50
90.0
 51
161.84729400002485
  0
ARC
  5
D8
100
AcDbEntity
  8
LC-002-002-RND-0
  6
CONTINUOUS
 62
             7
100
AcDbCircle
 10
74.30133099999975
 20
-104.27500000000001
 40
1.0
100
AcDbArc
 50
-90.0
 51
-18.15270599997616
  0
ARC
  5
D7
100
AcDbEntity
  8
LC-002-002-RND-0
  6
CONTINUOUS
 62
             7
100
AcDbCircle
 10
94.29764199999974
 20
65.77499999999998
 40
0.9999999999996
100
AcDbArc
 50
-156.08922600000781
 51
-90.0
  0
ARC
  5
D6
100
AcDbEntity
  8
LC-001-002-----0
  6
CONTINUOUS
 62
             7
100
AcDbCircle
 10
119.9978439999997
 20
92.51853200000005
 40
5.0
100
AcDbArc
 50
89.99999999999886
 51
179.99984800000425
  0
ARC
  5
D5
100
AcDbEntity
  8
LC-001-002-----0
  6
CONTINUOUS
 62
             7
100
AcDbCircle
 10
140.4978439999997
 20
102.01853200000011
 40
2.00000000000011
100
AcDbArc
 50
89.9999810000002
 51
180.0
  0
ARC
  5
D4
100
AcDbEntity
  8
LC-001-002-----0
  6
CONTINUOUS
 62
             7
100
AcDbCircle
 10
153.9978439999997
 20
120.13518500000001
 40
2.0
100
AcDbArc
 50
0.0
 51
79.66010899999458
  0
ARC
  5
D3
100
AcDbEntity
  8
LC-001-002-----0
  6
CONTINUOUS
 62
             7
100
AcDbCircle
 10
153.9978439999997
 20
118.40188000000001
 40
2.00000000000029
100
AcDbArc
 50
-79.6600509999992
 51
0.0
  0
ARC
  5
D2
100
AcDbEntity
  8
LC-001-002-----0
  6
CONTINUOUS
 62
             7
100
AcDbCircle
 10
146.9978439999997
 20
81.76853200000005
 40
41.00000000000035
100
AcDbArc
 50
79.66010899999932
 51
100.33989100000042
  0
ARC
  5
D1
100
AcDbEntity
  8
LC-001-002-----0
  6
CONTINUOUS
 62
             7
100
AcDbCircle
 10
139.9978439999997
 20
120.13518500000001
 40
1.99999999999941
100
AcDbArc
 50
100.33987199999437
 51
180.0
  0
ARC
  5
D0
100
AcDbEntity
  8
LC-001-002-----0
  6
CONTINUOUS
 62
             7
100
AcDbCircle
 10
146.9978439999997
 20
156.76853200000011
 40
41.00000000000037
100
AcDbArc
 50
-100.33989100000041
 51
-79.6600509999993
  0
ARC
  5
CF
100
AcDbEntity
  8
LC-001-002-----0
  6
CONTINUOUS
 62
             7
100
AcDbCircle
 10
139.9978439999997
 20
118.40188000000001
 40
2.0
100
AcDbArc
 50
180.0
 51
-100.34004300000178
  0
ARC
  5
CE
100
AcDbEntity
  8
LC-001-002-----0
  6
CONTINUOUS
 62
             7
100
AcDbCircle
 10
139.9978439999997
 20
120.29876400000001
 40
2.00000000000025
100
AcDbArc
 50
106.72678199999881
 51
180.0
  0
ARC
  5
CD
100
AcDbEntity
  8
LC-001-002-----0
  6
CONTINUOUS
 62
             7
100
AcDbCircle
 10
139.9978439999997
 20
118.23830100000001
 40
2.0
100
AcDbArc
 50
180.0
 51
-106.72695299998529
  0
ARC
  5
CC
100
AcDbEntity
  8
LC-001-002-----0
  6
CONTINUOUS
 62
             7
100
AcDbCircle
 10
169.9980379999997
 20
81.76869900000008
 40
40.99999999999992
100
AcDbArc
 50
79.66007200000043
 51
100.33983500000073
  0
ARC
  5
CB
100
AcDbEntity
  8
LC-001-002-----0
  6
CONTINUOUS
 62
             7
100
AcDbCircle
 10
162.9980629999998
 20
120.135355
 40
1.99999999999983
100
AcDbArc
 50
100.33983500001135
 51
179.99996299999
  0
ARC
  5
CA
100
AcDbEntity
  8
LC-001-002-----0
  6
CONTINUOUS
 62
             7
100
AcDbCircle
 10
162.99806199999981
 20
118.402051
 40
2.00000000000042
100
AcDbArc
 50
179.99996299999
 51
-100.34000499998739
  0
ARC
  5
C9
100
AcDbEntity
  8
LC-001-002-----0
  6
CONTINUOUS
 62
             7
100
AcDbCircle
 10
169.99808699999971
 20
156.76869900000011
 40
40.99999999999977
100
AcDbArc
 50
-100.34008000000078
 51
-79.66014700000073
  0
ARC
  5
C8
100
AcDbEntity
  8
LC-001-002-----0
  6
CONTINUOUS
 62
             7
100
AcDbCircle
 10
176.9980629999998
 20
120.135346
 40
2.00000000000042
100
AcDbArc
 50
-0.00003700000714
 51
79.65999700000319
  0
ARC
  5
C7
100
AcDbEntity
  8
LC-001-002-----0
  6
CONTINUOUS
 62
             7
100
AcDbCircle
 10
158.4978439999997
 20
58.73968600000001
 40
66.2788459999995
100
AcDbArc
 50
73.27319900000016
 51
106.72678199999969
  0
ARC
  5
C6
100
AcDbEntity
  8
LC-001-002-----0
  6
CONTINUOUS
 62
             7
100
AcDbCircle
 10
176.99784399999979
 20
120.29876400000001
 40
2.0
100
AcDbArc
 50
0.0
 51
73.2731989999955
  0
ARC
  5
C5
100
AcDbEntity
  8
LC-001-002-----0
  6
CONTINUOUS
 62
             7
100
AcDbCircle
 10
176.99806199999981
 20
118.40204200000009
 40
1.99999999999988
100
AcDbArc
 50
-79.66008799999688
 51
-0.00003700000999
  0
ARC
  5
C4
100
AcDbEntity
  8
LC-001-002-----0
  6
CONTINUOUS
 62
             7
100
AcDbCircle
 10
158.4978439999997
 20
179.79737900000001
 40
66.27884599999975
100
AcDbArc
 50
-106.72695300000024
 51
-73.2731990000004
  0
ARC
  5
C3
100
AcDbEntity
  8
LC-001-002-----0
  6
CONTINUOUS
 62
             7
100
AcDbCircle
 10
176.99784399999979
 20
118.23830100000001
 40
2.00000000000041
100
AcDbArc
 50
-73.27313999999663
 51
0.0
  0
ARC
  5
C2
100
AcDbEntity
  8
LC-001-002-----0
  6
CONTINUOUS
 62
             7
100
AcDbCircle
 10
156.9978439999997
 20
120.76853200000011
 40
1.0
100
AcDbArc
 50
90.0
 51
179.99984800003259
  0
ARC
  5
C1
100
AcDbEntity
  8
LC-001-002-----0
  6
CONTINUOUS
 62
             7
100
AcDbCircle
 10
156.9978439999997
 20
117.76853200000011
 40
0.99999999999943
100
AcDbArc
 50
179.99984800003259
 51
-90.0
  0
ARC
  5
C0
100
AcDbEntity
  8
LC-001-002-----0
  6
CONTINUOUS
 62
             7
100
AcDbCircle
 10
159.9978439999997
 20
120.76853200000011
 40
1.0
100
AcDbArc
 50
0.0
 51
90.0
  0
ARC
  5
BF
100
AcDbEntity
  8
LC-001-002-----0
  6
CONTINUOUS
 62
             7
100
AcDbCircle
 10
159.9978439999997
 20
117.76853200000011
 40
1.0
100
AcDbArc
 50
-90.0
 51
0.0
  0
ARC
  5
BE
100
AcDbEntity
  8
LC-009-201-----0
  6
CONTINUOUS
 62
             7
100
AcDbCircle
 10
100.55708899999981
 20
53.57500000000005
 40
2.03124999999967
100
AcDbArc
 50
120.51020000000796
 51
-120.51056000000062
  0
ARC
  5
BD
100
AcDbEntity
  8
LC-009-201-----0
  6
CONTINUOUS
 62
             7
100
AcDbCircle
 10
106.05708899999981
 20
48.07500000000005
 40
7.53125000000056
100
AcDbArc
 50
150.13712800000033
 51
-150.13748799999993
  0
ARC
  5
BC
100
AcDbEntity
  8
LC-009-201-----0
  6
CONTINUOUS
 62
             7
100
AcDbCircle
 10
100.5583699999998
 20
42.57426900000007
 40
2.03253100000011
100
AcDbArc
 50
120.53083000000767
 51
-120.53126599999433
  0
ARC
  5
BB
100
AcDbEntity
  8
LC-009-201-----0
  6
CONTINUOUS
 62
             7
100
AcDbCircle
 10
130.2945219999998
 20
53.57518100000004
 40
2.03125000000052
100
AcDbArc
 50
-59.48949599999782
 51
59.48976300000618
  0
ARC
  5
BA
100
AcDbEntity
  8
LC-009-201-----0
  6
CONTINUOUS
 62
             7
100
AcDbCircle
 10
124.7945179999997
 20
48.07518500000003
 40
7.53125000000033
100
AcDbArc
 50
-29.86256800000083
 51
29.8628340000031
  0
ARC
  5
B9
100
AcDbEntity
  8
LC-009-201-----0
  6
CONTINUOUS
 62
             7
100
AcDbCircle
 10
130.2932339999997
 20
42.57445000000007
 40
2.0325309999998
100
AcDbArc
 50
-59.46878999998219
 51
59.46913300000453
  0
ARC
  5
B8
100
AcDbEntity
  8
LC-009-201-----0
  6
CONTINUOUS
 62
             7
100
AcDbCircle
 10
100.55708899999981
 20
-89.22500000000002
 40
2.03124999999989
100
AcDbArc
 50
120.51055999999909
 51
-120.51020000000786
  0
ARC
  5
B7
100
AcDbEntity
  8
LC-009-201-----0
  6
CONTINUOUS
 62
             7
100
AcDbCircle
 10
106.05708899999981
 20
-83.72500000000002
 40
7.53124999999956
100
AcDbArc
 50
150.13748799999919
 51
-150.13712800000098
  0
ARC
  5
B6
100
AcDbEntity
  8
LC-009-201-----0
  6
CONTINUOUS
 62
             7
100
AcDbCircle
 10
100.5583699999998
 20
-78.22426799999994
 40
2.03253099999986
100
AcDbArc
 50
120.53126599999605
 51
-120.53083000000767
  0
ARC
  5
B5
100
AcDbEntity
  8
LC-009-201-----0
  6
CONTINUOUS
 62
             7
100
AcDbCircle
 10
130.2945219999998
 20
-89.22518000000002
 40
2.03125000000033
100
AcDbArc
 50
-59.48976300000618
 51
59.48949599999782
  0
ARC
  5
B4
100
AcDbEntity
  8
LC-009-201-----0
  6
CONTINUOUS
 62
             7
100
AcDbCircle
 10
124.7945179999997
 20
-83.72518400000001
 40
7.53125000000018
100
AcDbArc
 50
-29.86283400000306
 51
29.86256800000083
  0
ARC
  5
B3
100
AcDbEntity
  8
LC-009-201-----0
  6
CONTINUOUS
 62
             7
100
AcDbCircle
 10
130.2932339999997
 20
-78.22444899999994
 40
2.03253099999977
100
AcDbArc
 50
-59.46913300000453
 51
59.46878999999532
  0
ARC
  5
B2
100
AcDbEntity
  8
LC-002-002-RND-0
  6
CONTINUOUS
 62
             7
100
AcDbCircle
 10
167.99784399999979
 20
74.01853200000005
 40
0.5
100
AcDbArc
 50
-90.0
 51
0.0
  0
ARC
  5
B1
100
AcDbEntity
  8
LC-002-002-RND-0
  6
CONTINUOUS
 62
             7
100
AcDbCircle
 10
148.9978439999997
 20
74.01853200000005
 40
0.5
100
AcDbArc
 50
180.0
 51
-90.0
  0
ARC
  5
B0
100
AcDbEntity
  8
LC-002-002-RND-0
  6
CONTINUOUS
 62
             7
100
AcDbCircle
 10
148.9978439999997
 20
83.01853200000005
 40
0.5
100
AcDbArc
 50
90.0
 51
180.0
  0
ARC
  5
AF
100
AcDbEntity
  8
LC-002-002-RND-0
  6
CONTINUOUS
 62
             7
100
AcDbCircle
 10
167.99784399999979
 20
83.01853200000005
 40
0.5
100
AcDbArc
 50
0.0
 51
90.0
  0
ARC
  5
AE
100
AcDbEntity
  8
LC-002-002-RND-0
  6
CONTINUOUS
 62
             7
100
AcDbCircle
 10
148.9978439999997
 20
91.01853200000005
 40
0.5
100
AcDbArc
 50
90.0
 51
180.0
  0
ARC
  5
AD
100
AcDbEntity
  8
LC-002-002-RND-0
  6
CONTINUOUS
 62
             7
100
AcDbCircle
 10
167.99784399999979
 20
91.01853200000005
 40
0.5
100
AcDbArc
 50
0.0
 51
90.0
  0
ARC
  5
AC
100
AcDbEntity
  8
LC-002-002-RND-0
  6
CONTINUOUS
 62
             7
100
AcDbCircle
 10
148.9978439999997
 20
84.01853200000005
 40
0.5
100
AcDbArc
 50
180.0
 51
-90.0
  0
ARC
  5
AB
100
AcDbEntity
  8
LC-002-002-RND-0
  6
CONTINUOUS
 62
             7
100
AcDbCircle
 10
167.99784399999979
 20
84.01853200000005
 40
0.5
100
AcDbArc
 50
-90.0
 51
0.0
  0
LINE
  5
AA
100
AcDbEntity
  8
LC-001-002-----0
  6
CONTINUOUS
 62
             7
100
AcDbLine
 10
174.99784399999979
 20
58.93763999999999
 11
174.99784399999979
 21
97.51853200000005
  0
LINE
  5
A9
100
AcDbEntity
  8
LC-001-002-----0
  6
CONTINUOUS
 62
             7
100
AcDbLine
 10
174.99784399999979
 20
-30.52395100000001
 11
174.99784399999979
 21
58.93763999999999
  0
LINE
  5
A8
100
AcDbEntity
  8
LC-001-002-----0
  6
CONTINUOUS
 62
             7
100
AcDbLine
 10
0.0
 20
101.27500000000001
 11
0.0
 21
-101.27500000000001
  0
LINE
  5
A7
100
AcDbEntity
  8
LC-001-002-----0
  6
CONTINUOUS
 62
             7
100
AcDbLine
 10
113.8258389999998
 20
-114.72499999999999
 11
103.52583899999981
 21
-114.72499999999999
  0
LINE
  5
A6
100
AcDbEntity
  8
LC-001-002-----0
  6
CONTINUOUS
 62
             7
100
AcDbLine
 10
103.52583899999981
 20
-114.72499999999999
 11
103.52583899999981
 21
-102.175
  0
LINE
  5
A5
100
AcDbEntity
  8
LC-001-002-----0
  6
CONTINUOUS
 62
             7
100
AcDbLine
 10
5.75
 20
105.27500000000001
 11
0.0
 21
105.27500000000001
  0
LINE
  5
A4
100
AcDbEntity
  8
LC-001-002-----0
  6
CONTINUOUS
 62
             7
100
AcDbLine
 10
0.0
 20
105.27500000000001
 11
0.0
 21
101.27500000000001
  0
LINE
  5
A3
100
AcDbEntity
  8
LC-001-002-----0
  6
CONTINUOUS
 62
             7
100
AcDbLine
 10
28.75
 20
109.3250000000001
 11
28.75
 21
-105.27500000000001
  0
LINE
  5
A2
100
AcDbEntity
  8
LC-001-002-----0
  6
CONTINUOUS
 62
             7
100
AcDbLine
 10
102.02583899999981
 20
64.77499999999998
 11
94.29764199999974
 21
64.77499999999998
  0
LINE
  5
A1
100
AcDbEntity
  8
LC-001-002-----0
  6
CONTINUOUS
 62
             7
100
AcDbLine
 10
93.38346499999975
 20
65.369687
 11
75.02583899999976
 21
105.27500000000001
  0
LINE
  5
A0
100
AcDbEntity
  8
LC-001-002-----0
  6
DASHDOT
 62
             7
100
AcDbLine
 10
289.30743699999982
 20
4.58210600000007
 11
174.99784399999979
 21
50.76618000000008
  0
LINE
  5
9F
100
AcDbEntity
  8
LC-001-002-----0
  6
DASHDOT
 62
             7
100
AcDbLine
 10
174.99784399999979
 20
47.31486800000005
 11
282.54559299999983
 21
3.86275799999998
  0
LINE
  5
9E
100
AcDbEntity
  8
LC-001-002-----0
  6
DASHDOT
 62
             7
100
AcDbLine
 10
174.99784399999979
 20
58.93763999999999
 11
186.3018079999998
 21
57.54968800000006
  0
LINE
  5
9D
100
AcDbEntity
  8
LC-001-002-----0
  6
DASHDOT
 62
             7
100
AcDbLine
 10
190.3053749999998
 20
58.31328000000008
 11
191.8030899999998
 21
57.18467099999998
  0
LINE
  5
9C
100
AcDbEntity
  8
LC-001-002-----0
  6
DASHDOT
 62
             7
100
AcDbLine
 10
192.90696499999979
 20
56.73867600000006
 11
207.32493099999979
 21
54.96837300000004
  0
LINE
  5
9B
100
AcDbEntity
  8
LC-001-002-----0
  6
DASHDOT
 62
             7
100
AcDbLine
 10
288.85790899999978
 20
3.46948600000007
 11
289.30743699999982
 21
4.58210600000007
  0
LINE
  5
9A
100
AcDbEntity
  8
LC-001-002-----0
  6
DASHDOT
 62
             7
100
AcDbLine
 10
283.93636899999979
 20
3.30084799999997
 11
286.25432799999982
 21
2.36433099999999
  0
LINE
  5
99
100
AcDbEntity
  8
LC-001-002-----0
  6
CONTINUOUS
 62
             7
100
AcDbLine
 10
5.75
 20
109.3250000000001
 11
5.75
 21
-105.27500000000001
  0
LINE
  5
98
100
AcDbEntity
  8
LC-001-002-----0
  6
CONTINUOUS
 62
             7
100
AcDbLine
 10
24.75
 20
113.3250000000001
 11
9.75
 21
113.3250000000001
  0
LINE
  5
97
100
AcDbEntity
  8
LC-001-002-----0
  6
CONTINUOUS
 62
             7
100
AcDbLine
 10
24.75
 20
-113.3249999999999
 11
9.75
 21
-113.3249999999999
  0
LINE
  5
96
100
AcDbEntity
  8
LC-001-002-----0
  6
CONTINUOUS
 62
             7
100
AcDbLine
 10
5.75
 20
-109.3249999999999
 11
5.75
 21
-105.27500000000001
  0
LINE
  5
95
100
AcDbEntity
  8
LC-001-002-----0
  6
CONTINUOUS
 62
             7
100
AcDbLine
 10
74.30133099999975
 20
-105.27500000000001
 11
29.75
 21
-105.27500000000001
  0
LINE
  5
94
100
AcDbEntity
  8
LC-001-002-----0
  6
CONTINUOUS
 62
             7
100
AcDbLine
 10
76.80011799999974
 20
-101.363449
 11
75.25155999999973
 21
-104.58655
  0
LINE
  5
93
100
AcDbEntity
  8
LC-001-002-----0
  6
CONTINUOUS
 62
             7
100
AcDbLine
 10
102.02583899999981
 20
-100.675
 11
77.75034799999978
 21
-100.675
  0
LINE
  5
92
100
AcDbEntity
  8
LC-001-002-----0
  6
CONTINUOUS
 62
             7
100
AcDbLine
 10
28.75
 20
-109.3249999999999
 11
28.75
 21
-106.27500000000001
  0
LINE
  5
91
100
AcDbEntity
  8
LC-001-002-----0
  6
CONTINUOUS
 62
             7
100
AcDbLine
 10
0.0
 20
-105.27500000000001
 11
0.0
 21
-101.27500000000001
  0
LINE
  5
90
100
AcDbEntity
  8
LC-001-002-----0
  6
CONTINUOUS
 62
             7
100
AcDbLine
 10
5.75
 20
-105.27500000000001
 11
0.0
 21
-105.27500000000001
  0
LINE
  5
8F
100
AcDbEntity
  8
LC-001-002-----0
  6
CONTINUOUS
 62
             7
100
AcDbLine
 10
75.02583899999976
 20
105.27500000000001
 11
29.75
 21
105.27500000000001
  0
LINE
  5
8E
100
AcDbEntity
  8
LC-001-002-----0
  6
CONTINUOUS
 62
             7
100
AcDbLine
 10
174.99784399999979
 20
83.51853200000005
 11
114.9978439999997
 21
83.51853200000005
  0
LINE
  5
8D
100
AcDbEntity
  8
LC-001-002-----0
  6
CONTINUOUS
 62
             7
100
AcDbLine
 10
113.8258389999998
 20
79.07500000000005
 11
103.52583899999981
 21
79.07500000000005
  0
LINE
  5
8C
100
AcDbEntity
  8
LC-001-002-----0
  6
CONTINUOUS
 62
             7
100
AcDbLine
 10
113.8258389999998
 20
79.07500000000005
 11
113.8258389999998
 21
77.07500000000005
  0
LINE
  5
8B
100
AcDbEntity
  8
LC-001-002-----0
  6
CONTINUOUS
 62
             7
100
AcDbLine
 10
103.52583899999981
 20
79.07500000000005
 11
103.52583899999981
 21
66.27499999999998
  0
LINE
  5
8A
100
AcDbEntity
  8
LC-001-002-----0
  6
CONTINUOUS
 62
             7
100
AcDbLine
 10
114.9978439999997
 20
83.51853200000005
 11
114.9978439999997
 21
92.51853200000005
  0
LINE
  5
89
100
AcDbEntity
  8
LC-001-002-----0
  6
CONTINUOUS
 62
             7
100
AcDbLine
 10
174.99784399999979
 20
97.51853200000005
 11
167.9980479999997
 21
97.51853200000005
  0
LINE
  5
88
100
AcDbEntity
  8
LC-001-002-----0
  6
CONTINUOUS
 62
             7
100
AcDbLine
 10
138.4978439999997
 20
97.51853200000005
 11
138.4978439999997
 21
102.01853200000011
  0
LINE
  5
87
100
AcDbEntity
  8
LC-001-002-----0
  6
CONTINUOUS
 62
             7
100
AcDbLine
 10
140.4978439999997
 20
104.01853200000011
 11
148.9978439999997
 21
104.01853200000011
  0
LINE
  5
86
100
AcDbEntity
  8
LC-001-002-----0
  6
DASHDOT
 62
             2
100
AcDbLine
 10
158.4978439999997
 20
48.08585900000003
 11
158.4978439999997
 21
125.01853200000011
  0
LINE
  5
85
100
AcDbEntity
  8
LC-001-002-----0
  6
CONTINUOUS
 62
             7
100
AcDbLine
 10
148.9978439999997
 20
91.51853900000003
 11
148.9978439999997
 21
114.202901
  0
LINE
  5
84
100
AcDbEntity
  8
LC-001-002-----0
  6
CONTINUOUS
 62
             7
100
AcDbLine
 10
137.9978439999997
 20
118.23830100000001
 11
137.9978439999997
 21
120.29876400000001
  0
LINE
  5
83
100
AcDbEntity
  8
LC-001-002-----0
  6
CONTINUOUS
 62
             7
100
AcDbLine
 10
167.99804399999971
 20
91.51853200000005
 11
167.99805899999981
 21
114.203069
  0
LINE
  5
82
100
AcDbEntity
  8
LC-001-002-----0
  6
CONTINUOUS
 62
             7
100
AcDbLine
 10
178.99784399999979
 20
118.23830100000001
 11
178.99784399999979
 21
120.29876400000001
  0
LINE
  5
81
100
AcDbEntity
  8
LC-001-002-----0
  6
CONTINUOUS
 62
             7
100
AcDbLine
 10
155.9978439999997
 20
120.76853200000011
 11
155.9978439999997
 21
117.76853200000011
  0
LINE
  5
80
100
AcDbEntity
  8
LC-001-002-----0
  6
CONTINUOUS
 62
             7
100
AcDbLine
 10
159.9978439999997
 20
121.76853200000011
 11
156.9978439999997
 21
121.76853200000011
  0
LINE
  5
7F
100
AcDbEntity
  8
LC-001-002-----0
  6
CONTINUOUS
 62
             7
100
AcDbLine
 10
156.9978439999997
 20
116.76853200000011
 11
159.9978439999997
 21
116.76853200000011
  0
LINE
  5
7E
100
AcDbEntity
  8
LC-001-002-----0
  6
CONTINUOUS
 62
             7
100
AcDbLine
 10
160.9978439999997
 20
117.76853200000011
 11
160.9978439999997
 21
120.76853200000011
  0
LINE
  5
7D
100
AcDbEntity
  8
LC-001-002-----0
  6
CONTINUOUS
 62
             7
100
AcDbLine
 10
174.99784399999979
 20
-101.00582799999999
 11
174.99784399999979
 21
-30.52395100000001
  0
LINE
  5
7C
100
AcDbEntity
  8
LC-001-002-----0
  6
CONTINUOUS
 62
             7
100
AcDbLine
 10
75.02583899999976
 20
105.27500000000001
 11
75.02583899999976
 21
-104.27500000000001
  0
LINE
  5
7B
100
AcDbEntity
  8
LC-001-002-----0
  6
DASHDOT
 62
             2
100
AcDbLine
 10
103.8258389999998
 20
48.07500000000005
 11
133.8258389999998
 21
48.07500000000005
  0
LINE
  5
7A
100
AcDbEntity
  8
LC-009-201-----0
  6
CONTINUOUS
 62
             7
100
AcDbLine
 10
103.52583899999981
 20
55.32500000000005
 11
99.52583899999976
 21
55.32500000000005
  0
LINE
  5
79
100
AcDbEntity
  8
LC-009-201-----0
  6
CONTINUOUS
 62
             7
100
AcDbLine
 10
103.52583899999981
 20
51.82500000000005
 11
99.52583899999976
 21
51.82500000000005
  0
LINE
  5
78
100
AcDbEntity
  8
LC-009-201-----0
  6
CONTINUOUS
 62
             7
100
AcDbLine
 10
103.52583899999981
 20
44.32500000000005
 11
99.52583899999976
 21
44.32500000000005
  0
LINE
  5
77
100
AcDbEntity
  8
LC-009-201-----0
  6
CONTINUOUS
 62
             7
100
AcDbLine
 10
103.52468499999981
 20
40.82351600000004
 11
99.52583899999976
 21
40.82353699999999
  0
LINE
  5
76
100
AcDbEntity
  8
LC-009-201-----0
  6
CONTINUOUS
 62
             7
100
AcDbLine
 10
98.52583899999976
 20
42.57426900000007
 11
98.52583899999976
 21
53.57500000000005
  0
LINE
  5
75
100
AcDbEntity
  8
LC-010-001-----0
  6
DASHED
 62
             2
100
AcDbLine
 10
132.3257709999998
 20
52.07500000000005
 11
103.52583899999981
 21
52.07500000000005
  0
LINE
  5
74
100
AcDbEntity
  8
LC-010-001-----0
  6
DASHED
 62
             2
100
AcDbLine
 10
103.52583899999981
 20
44.07500000000005
 11
132.3257659999997
 21
44.07500000000005
  0
LINE
  5
73
100
AcDbEntity
  8
LC-009-201-----0
  6
CONTINUOUS
 62
             7
100
AcDbLine
 10
127.3257729999998
 20
55.32518300000004
 11
131.3257729999998
 21
55.32518100000004
  0
LINE
  5
72
100
AcDbEntity
  8
LC-009-201-----0
  6
CONTINUOUS
 62
             7
100
AcDbLine
 10
127.3257709999998
 20
51.82518300000004
 11
131.3257709999998
 21
51.82518100000004
  0
LINE
  5
71
100
AcDbEntity
  8
LC-009-201-----0
  6
CONTINUOUS
 62
             7
100
AcDbLine
 10
127.3257659999997
 20
44.32518300000004
 11
131.3257659999997
 21
44.32518100000004
  0
LINE
  5
70
100
AcDbEntity
  8
LC-009-201-----0
  6
CONTINUOUS
 62
             7
100
AcDbLine
 10
127.32691799999979
 20
40.82369800000004
 11
131.32576399999971
 21
40.82371699999999
  0
LINE
  5
6F
100
AcDbEntity
  8
LC-009-201-----0
  6
CONTINUOUS
 62
             7
100
AcDbLine
 10
132.32576499999971
 20
42.57444800000008
 11
132.3257719999998
 21
53.57518000000005
  0
LINE
  5
6E
100
AcDbEntity
  8
LC-001-002-----0
  6
DASHED
 62
             2
100
AcDbLine
 10
133.0131309999997
 20
44.07500000000005
 11
132.3257659999997
 21
44.07500000000005
  0
LINE
  5
6D
100
AcDbEntity
  8
LC-001-002-----0
  6
DASHED
 62
             2
100
AcDbLine
 10
132.3257709999998
 20
52.07500000000005
 11
133.0131309999997
 21
52.07500000000005
  0
LINE
  5
6C
100
AcDbEntity
  8
LC-009-201-----0
  6
CONTINUOUS
 62
             7
100
AcDbLine
 10
133.0131309999997
 20
44.07500000000005
 11
133.0131309999997
 21
52.07500000000005
  0
LINE
  5
6B
100
AcDbEntity
  8
LC-009-201-----0
  6
CONTINUOUS
 62
             7
100
AcDbLine
 10
133.8256309999997
 20
51.32500000000005
 11
133.0131309999997
 21
52.07500000000005
  0
LINE
  5
6A
100
AcDbEntity
  8
LC-009-201-----0
  6
CONTINUOUS
 62
             7
100
AcDbLine
 10
133.8256309999997
 20
44.82500000000005
 11
133.8256309999997
 21
51.32500000000005
  0
LINE
  5
69
100
AcDbEntity
  8
LC-009-201-----0
  6
CONTINUOUS
 62
             7
100
AcDbLine
 10
133.0131309999997
 20
44.07500000000005
 11
133.8256309999997
 21
44.82500000000005
  0
LINE
  5
68
100
AcDbEntity
  8
LC-001-002-----0
  6
CONTINUOUS
 62
             7
100
AcDbLine
 10
127.3258389999998
 20
79.07500000000005
 11
119.52583899999981
 21
79.07500000000005
  0
LINE
  5
67
100
AcDbEntity
  8
LC-009-201-----0
  6
CONTINUOUS
 62
             7
100
AcDbLine
 10
127.3258389999998
 20
79.07500000000005
 11
127.3258389999998
 21
-114.72499999999999
  0
LINE
  5
66
100
AcDbEntity
  8
LC-001-002-----0
  6
CONTINUOUS
 62
             7
100
AcDbLine
 10
119.52583899999981
 20
75.82500000000005
 11
114.02583899999981
 21
75.82500000000005
  0
LINE
  5
65
100
AcDbEntity
  8
LC-001-002-----0
  6
CONTINUOUS
 62
             7
100
AcDbLine
 10
113.8258389999998
 20
79.07500000000005
 11
113.8258389999998
 21
-114.72499999999999
  0
LINE
  5
64
100
AcDbEntity
  8
LC-001-002-----0
  6
CONTINUOUS
 62
             7
100
AcDbLine
 10
103.52583899999981
 20
79.07500000000005
 11
103.52583899999981
 21
-102.175
  0
LINE
  5
63
100
AcDbEntity
  8
LC-001-002-----0
  6
DASHDOT
 62
             2
100
AcDbLine
 10
103.8258389999998
 20
-83.72500000000002
 11
133.8258389999998
 21
-83.72500000000002
  0
LINE
  5
62
100
AcDbEntity
  8
LC-009-201-----0
  6
CONTINUOUS
 62
             7
100
AcDbLine
 10
103.52583899999981
 20
-90.97500000000002
 11
99.52583899999976
 21
-90.97500000000002
  0
LINE
  5
61
100
AcDbEntity
  8
LC-009-201-----0
  6
CONTINUOUS
 62
             7
100
AcDbLine
 10
103.52583899999981
 20
-87.47500000000002
 11
99.52583899999976
 21
-87.47500000000002
  0
LINE
  5
60
100
AcDbEntity
  8
LC-009-201-----0
  6
CONTINUOUS
 62
             7
100
AcDbLine
 10
103.52583899999981
 20
-79.97500000000002
 11
99.52583899999976
 21
-79.97500000000002
  0
LINE
  5
5F
100
AcDbEntity
  8
LC-009-201-----0
  6
CONTINUOUS
 62
             7
100
AcDbLine
 10
103.52468499999981
 20
-76.47351500000002
 11
99.52583899999976
 21
-76.47353599999997
  0
LINE
  5
5E
100
AcDbEntity
  8
LC-009-201-----0
  6
CONTINUOUS
 62
             7
100
AcDbLine
 10
98.52583899999976
 20
-78.22426799999994
 11
98.52583899999976
 21
-89.22500000000002
  0
LINE
  5
5D
100
AcDbEntity
  8
LC-010-001-----0
  6
DASHED
 62
             2
100
AcDbLine
 10
132.3257709999998
 20
-87.72500000000002
 11
103.52583899999981
 21
-87.72500000000002
  0
LINE
  5
5C
100
AcDbEntity
  8
LC-010-001-----0
  6
DASHED
 62
             2
100
AcDbLine
 10
103.52583899999981
 20
-79.72500000000002
 11
132.3257659999997
 21
-79.72500000000002
  0
LINE
  5
5B
100
AcDbEntity
  8
LC-009-201-----0
  6
CONTINUOUS
 62
             7
100
AcDbLine
 10
127.3257729999998
 20
-90.97518200000002
 11
131.3257729999998
 21
-90.97518000000002
  0
LINE
  5
5A
100
AcDbEntity
  8
LC-009-201-----0
  6
CONTINUOUS
 62
             7
100
AcDbLine
 10
127.3257709999998
 20
-87.47518200000002
 11
131.3257709999998
 21
-87.47518000000002
  0
LINE
  5
59
100
AcDbEntity
  8
LC-009-201-----0
  6
CONTINUOUS
 62
             7
100
AcDbLine
 10
127.3257659999997
 20
-79.97518200000002
 11
131.3257659999997
 21
-79.97518000000002
  0
LINE
  5
58
100
AcDbEntity
  8
LC-009-201-----0
  6
CONTINUOUS
 62
             7
100
AcDbLine
 10
127.32691799999979
 20
-76.47369800000001
 11
131.32576399999971
 21
-76.47371599999997
  0
LINE
  5
57
100
AcDbEntity
  8
LC-009-201-----0
  6
CONTINUOUS
 62
             7
100
AcDbLine
 10
132.32576499999971
 20
-78.22444699999994
 11
132.3257719999998
 21
-89.22517900000003
  0
LINE
  5
56
100
AcDbEntity
  8
LC-001-002-----0
  6
DASHED
 62
             2
100
AcDbLine
 10
133.0131309999997
 20
-79.72500000000002
 11
132.3257659999997
 21
-79.72500000000002
  0
LINE
  5
55
100
AcDbEntity
  8
LC-001-002-----0
  6
DASHED
 62
             2
100
AcDbLine
 10
132.3257709999998
 20
-87.72500000000002
 11
133.0131309999997
 21
-87.72500000000002
  0
LINE
  5
54
100
AcDbEntity
  8
LC-009-201-----0
  6
CONTINUOUS
 62
             7
100
AcDbLine
 10
133.0131309999997
 20
-79.72500000000002
 11
133.0131309999997
 21
-87.72500000000002
  0
LINE
  5
53
100
AcDbEntity
  8
LC-009-201-----0
  6
CONTINUOUS
 62
             7
100
AcDbLine
 10
133.8256309999997
 20
-86.97500000000002
 11
133.0131309999997
 21
-87.72500000000002
  0
LINE
  5
52
100
AcDbEntity
  8
LC-009-201-----0
  6
CONTINUOUS
 62
             7
100
AcDbLine
 10
133.8256309999997
 20
-80.47500000000002
 11
133.8256309999997
 21
-86.97500000000002
  0
LINE
  5
51
100
AcDbEntity
  8
LC-009-201-----0
  6
CONTINUOUS
 62
             7
100
AcDbLine
 10
133.0131309999997
 20
-79.72500000000002
 11
133.8256309999997
 21
-80.47500000000002
  0
LINE
  5
50
100
AcDbEntity
  8
LC-001-002-----0
  6
CONTINUOUS
 62
             7
100
AcDbLine
 10
119.52583899999981
 20
-100.425
 11
127.3258389999998
 21
-100.425
  0
LINE
  5
4F
100
AcDbEntity
  8
LC-001-002-----0
  6
CONTINUOUS
 62
             7
100
AcDbLine
 10
127.3258389999998
 20
-114.72499999999999
 11
119.52583899999981
 21
-114.72499999999999
  0
LINE
  5
4E
100
AcDbEntity
  8
LC-001-002-----0
  6
CONTINUOUS
 62
             7
100
AcDbLine
 10
119.52583899999981
 20
-112.175
 11
113.8258389999998
 21
-112.175
  0
LINE
  5
4D
100
AcDbEntity
  8
LC-001-002-----0
  6
CONTINUOUS
 62
             7
100
AcDbLine
 10
119.52583899999981
 20
83.51853200000005
 11
119.52583899999981
 21
-115.175
  0
LINE
  5
4C
100
AcDbEntity
  8
LC-001-002-----0
  6
CONTINUOUS
 62
             7
100
AcDbLine
 10
149.05702699999981
 20
91.51853200000005
 11
168.0572309999998
 21
91.51853200000005
  0
LINE
  5
4B
100
AcDbEntity
  8
LC-001-002-----0
  6
CONTINUOUS
 62
             7
100
AcDbLine
 10
168.0572309999998
 20
91.51853200000005
 11
149.05702699999981
 21
91.51853200000005
  0
LINE
  5
4A
100
AcDbEntity
  8
LC-001-002-----0
  6
CONTINUOUS
 62
             7
100
AcDbLine
 10
156.9943029999998
 20
73.51853200000005
 11
156.9943029999998
 21
48.08585900000003
  0
LINE
  5
49
100
AcDbEntity
  8
LC-001-002-----0
  6
CONTINUOUS
 62
             7
100
AcDbLine
 10
148.9978439999997
 20
73.51853200000005
 11
167.99784399999979
 21
73.51853200000005
  0
LINE
  5
48
100
AcDbEntity
  8
LC-001-002-----0
  6
CONTINUOUS
 62
             7
100
AcDbLine
 10
148.4978439999997
 20
83.01853200000005
 11
148.4978439999997
 21
74.01853200000005
  0
LINE
  5
47
100
AcDbEntity
  8
LC-001-002-----0
  6
CONTINUOUS
 62
             7
100
AcDbLine
 10
168.49784399999979
 20
74.01853200000005
 11
168.49784399999979
 21
83.01853200000005
  0
LINE
  5
46
100
AcDbEntity
  8
LC-001-002-----0
  6
CONTINUOUS
 62
             7
100
AcDbLine
 10
148.99816799999979
 20
91.51853900000003
 11
167.99784399999979
 21
91.51852600000007
  0
LINE
  5
45
100
AcDbEntity
  8
LC-001-002-----0
  6
CONTINUOUS
 62
             7
100
AcDbLine
 10
159.9943029999998
 20
73.51853200000005
 11
159.9943029999998
 21
48.08585900000003
  0
LINE
  5
44
100
AcDbEntity
  8
LC-001-002-----0
  6
CONTINUOUS
 62
             7
100
AcDbLine
 10
156.9943029999998
 20
48.08585900000003
 11
159.9943029999998
 21
48.08585900000003
  0
LINE
  5
43
100
AcDbEntity
  8
LC-001-002-----0
  6
CONTINUOUS
 62
             7
100
AcDbLine
 10
148.9978439999997
 20
91.51853200000005
 11
167.99784399999979
 21
91.51853200000005
  0
LINE
  5
42
100
AcDbEntity
  8
LC-001-002-----0
  6
CONTINUOUS
 62
             7
100
AcDbLine
 10
168.49784399999979
 20
84.01853200000005
 11
168.49784399999979
 21
91.01853200000005
  0
LINE
  5
41
100
AcDbEntity
  8
LC-001-002-----0
  6
CONTINUOUS
 62
             7
100
AcDbLine
 10
148.4978439999997
 20
84.01853200000005
 11
148.4978439999997
 21
91.01853200000005
  0
LINE
  5
40
100
AcDbEntity
  8
LC-001-002-----0
  6
CONTINUOUS
 62
             7
100
AcDbLine
 10
93.75235099999978
 20
64.93675400000006
 11
77.75034799999978
 21
-100.675
  0
LINE
  5
3F
100
AcDbEntity
  8
LC-001-002-----0
  6
CONTINUOUS
 62
             7
100
AcDbLine
 10
119.52583899999981
 20
-115.175
 11
151.59370599999971
 21
-120.713995
  0
LINE
  5
3E
100
AcDbEntity
  8
LC-001-002-----0
  6
CONTINUOUS
 62
             7
100
AcDbLine
 10
148.9978439999997
 20
97.51853200000005
 11
119.9978439999998
 21
97.51853200000005
  0
LINE
  5
3D
100
AcDbEntity
  8
1
  6
DOT_CENTER
 62
             2
100
AcDbLine
 10
151.34161084165979
 20
-120.9857959567702
 11
162.34161084165979
 21
-120.9857959567702
  0
LINE
  5
3C
100
AcDbEntity
  8
1
  6
DOT_CENTER
 62
             2
100
AcDbLine
 10
-1.70189329089203
 20
100.0
 11
-5.70189329089203
 21
100.0
  0
LINE
  5
3B
100
AcDbEntity
  8
1
  6
DOT_CENTER
 62
             2
100
AcDbLine
 10
-1.70189329089203
 20
-100.0
 11
-5.70189329089203
 21
-100.0
  0
LINE
  5
3A
100
AcDbEntity
  8
1
  6
PHANTOM
 62
             2
100
AcDbLine
 10
84.5854457273454
 20
0.0
 11
-5.701893290892
 21
0.0
  0
POINT
  5
39
100
AcDbEntity
  8
LC-003-003-----0
 62
             7
100
AcDbPoint
 10
0.0
 20
101.27500000000001
  0
POINT
  5
38
100
AcDbEntity
  8
LC-003-003-----0
 62
             7
100
AcDbPoint
 10
0.0
 20
-101.27500000000001
  0
POINT
  5
37
100
AcDbEntity
  8
LC-003-003-----0
 62
             7
100
AcDbPoint
 10
114.9978439999997
 20
90.81969900000001
  0
POINT
  5
36
100
AcDbEntity
  8
LC-003-003-----0
 62
             7
100
AcDbPoint
 10
174.99784399999979
 20
97.51853200000005
  0
POINT
  5
35
100
AcDbEntity
  8
LC-003-003-----0
 62
             7
100
AcDbPoint
 10
0.0
 20
105.27500000000001
  0
POINT
  5
34
100
AcDbEntity
  8
LC-003-003-----0
 62
             7
100
AcDbPoint
 10
174.99784399999979
 20
97.51853200000005
  0
POINT
  5
33
100
AcDbEntity
  8
LC-003-003-----0
 62
             7
100
AcDbPoint
 10
174.99784399999979
 20
97.51853200000005
  0
POINT
  5
32
100
AcDbEntity
  8
LC-003-003-----0
 62
             7
100
AcDbPoint
 10
151.59370599999971
 20
-120.713995
  0
POINT
  5
31
100
AcDbEntity
  8
LC-003-003-----0
 62
             7
100
AcDbPoint
 10
0.0
 20
105.27500000000001
  0
POINT
  5
30
100
AcDbEntity
  8
LC-003-003-----0
 62
             7
100
AcDbPoint
 10
289.30743699999982
 20
4.58210600000007
  0
ENDBLK
  5
EB
100
AcDbEntity
  8
0
100
AcDbBlockEnd
  0
BLOCK
  5
EE
100
AcDbEntity
  8
0
100
AcDbBlockBegin
  2
*D1
 70
             1
 10
0.0
 20
0.0
 30
0.0
  3
*D1
  1

  0
LINE
  5
EF
100
AcDbEntity
  8
0
  6
CONTINUOUS
 62
             4
100
AcDbLine
 10
213.80369810234501
 20
-120.98579595677018
 11
213.80369810234501
 21
104.01853200000006
  0
LINE
  5
F0
100
AcDbEntity
  8
0
  6
CONTINUOUS
 62
             4
100
AcDbLine
 10
148.99784399999973
 20
104.01853200000006
 11
215.80369810234501
 21
104.01853200000006
  0
LINE
  5
F1
100
AcDbEntity
  8
0
  6
CONTINUOUS
 62
             4
100
AcDbLine
 10
162.34161084165976
 20
-120.98579595677018
 11
215.80369810234501
 21
-120.98579595677018
  0
SOLID
  5
F2
100
AcDbEntity
  8
0
 62
             4
100
AcDbTrace
 10
212.22386813129626
 20
-108.98579595677018
 11
215.38352807339376
 21
-108.98579595677018
 12
213.80369810234501
 22
-120.98579595677018
 13
213.80369810234501
 23
-120.98579595677018
  0
SOLID
  5
F3
100
AcDbEntity
  8
0
 62
             4
100
AcDbTrace
 10
215.38352807339376
 20
92.01853200000006
 11
212.22386813129626
 21
92.01853200000006
 12
213.80369810234501
 22
104.01853200000006
 13
213.80369810234501
 23
104.01853200000006
  0
MTEXT
  5
F5
100
AcDbEntity
  8
0
 62
             1
100
AcDbMText
 10
211.80369810234501
 20
-36.05157793595404
 30
0.0
 40
12.0
 41
0.0
 71
             7
 72
             1
  1
225
  7
CONVERTER_1
 11
0.0
 21
1.0
 31
0.0
  0
ENDBLK
  5
F6
100
AcDbEntity
  8
0
100
AcDbBlockEnd
  0
BLOCK
  5
FA
100
AcDbEntity
  8
0
100
AcDbBlockBegin
  2
*D2
 70
             1
 10
0.0
 20
0.0
 30
0.0
  3
*D2
  1

  0
LINE
  5
FB
100
AcDbEntity
  8
0
  6
CONTINUOUS
 62
             4
100
AcDbLine
 10
-15.70189329089203
 20
100.0
 11
-15.70189329089203
 21
-100.00000000000003
  0
LINE
  5
FC
100
AcDbEntity
  8
0
  6
CONTINUOUS
 62
             4
100
AcDbLine
 10
-5.70189329089203
 20
-100.00000000000003
 11
-17.70189329089203
 21
-100.00000000000003
  0
LINE
  5
FD
100
AcDbEntity
  8
0
  6
CONTINUOUS
 62
             4
100
AcDbLine
 10
-5.70189329089203
 20
100.0
 11
-17.70189329089203
 21
100.0
  0
SOLID
  5
FE
100
AcDbEntity
  8
0
 62
             4
100
AcDbTrace
 10
-14.12206331984329
 20
88.0
 11
-17.28172326194078
 21
88.0
 12
-15.70189329089203
 22
100.0
 13
-15.70189329089203
 23
100.0
  0
SOLID
  5
FF
100
AcDbEntity
  8
0
 62
             4
100
AcDbTrace
 10
-17.28172326194078
 20
-88.00000000000003
 11
-14.12206331984328
 21
-88.00000000000003
 12
-15.70189329089203
 22
-100.00000000000003
 13
-15.70189329089203
 23
-100.00000000000003
  0
MTEXT
  5
100
100
AcDbEntity
  8
0
 62
             1
100
AcDbMText
 10
-17.70189329089203
 20
-2.68664330697903
 30
0.0
 40
12.0
 41
0.0
 71
             7
 72
             1
  1
\C1;DN\C1;200
  7
CONVERTER_1
 11
0.0
 21
1.0
 31
0.0
  0
ENDBLK
  5
101
100
AcDbEntity
  8
0
100
AcDbBlockEnd
  0
BLOCK
  5
105
100
AcDbEntity
  8
0
100
AcDbBlockBegin
  2
*D3
 70
             1
 10
0.0
 20
0.0
 30
0.0
  3
*D3
  1

  0
LINE
  5
106
100
AcDbEntity
  8
0
  6
CONTINUOUS
 62
             4
100
AcDbLine
 10
174.99784399999979
 20
139.79133255432899
 11
114.99784399999977
 21
139.79133255432899
  0
LINE
  5
107
100
AcDbEntity
  8
0
  6
CONTINUOUS
 62
             4
100
AcDbLine
 10
114.99784399999977
 20
92.51853200000002
 11
114.99784399999977
 21
141.79133255432899
  0
LINE
  5
108
100
AcDbEntity
  8
0
  6
CONTINUOUS
 62
             4
100
AcDbLine
 10
174.99784399999979
 20
97.51853200000002
 11
174.99784399999979
 21
141.79133255432899
  0
SOLID
  5
109
100
AcDbEntity
  8
0
 62
             4
100
AcDbTrace
 10
162.99784399999979
 20
138.21150258328024
 11
162.99784399999979
 21
141.37116252537774
 12
174.99784399999979
 22
139.79133255432899
 13
174.99784399999979
 23
139.79133255432899
  0
SOLID
  5
10A
100
AcDbEntity
  8
0
 62
             4
100
AcDbTrace
 10
126.99784399999977
 20
141.37116252537774
 11
126.99784399999977
 21
138.21150258328024
 12
114.99784399999977
 22
139.79133255432899
 13
114.99784399999977
 23
139.79133255432899
  0
MTEXT
  5
10B
100
AcDbEntity
  8
0
 62
             1
100
AcDbMText
 10
138.33702234905749
 20
141.79133255432899
 30
0.0
 40
12.0
 41
0.0
 71
             7
 72
             1
  1
60
  7
CONVERTER_1
 11
0.99999999999706
 21
0.00000242406841
 31
0.0
  0
ENDBLK
  5
10C
100
AcDbEntity
  8
0
100
AcDbBlockEnd
  0
BLOCK
  5
110
100
AcDbEntity
  8
0
100
AcDbBlockBegin
  2
*D4
 70
             1
 10
0.0
 20
0.0
 30
0.0
  3
*D4
  1

  0
LINE
  5
111
100
AcDbEntity
  8
0
  6
CONTINUOUS
 62
             4
100
AcDbLine
 10
174.99784399999976
 20
161.10604660026499
 11
0.0
 21
161.10604660026499
  0
LINE
  5
112
100
AcDbEntity
  8
0
  6
CONTINUOUS
 62
             4
100
AcDbLine
 10
0.0
 20
105.27499999999995
 11
0.0
 21
163.10604660026499
  0
LINE
  5
113
100
AcDbEntity
  8
0
  6
CONTINUOUS
 62
             4
100
AcDbLine
 10
174.99784399999976
 20
97.51853200000002
 11
174.99784399999976
 21
163.10604660026499
  0
SOLID
  5
114
100
AcDbEntity
  8
0
 62
             4
100
AcDbTrace
 10
162.99784399999976
 20
159.52621662921624
 11
162.99784399999976
 21
162.68587657131374
 12
174.99784399999976
 22
161.10604660026499
 13
174.99784399999976
 23
161.10604660026499
  0
SOLID
  5
115
100
AcDbEntity
  8
0
 62
             4
100
AcDbTrace
 10
12.0
 20
162.68587657131374
 11
12.0
 21
159.52621662921624
 12
0.0
 22
161.10604660026499
 13
0.0
 23
161.10604660026499
  0
MTEXT
  5
116
100
AcDbEntity
  8
0
 62
             1
100
AcDbMText
 10
69.68440075252211
 20
163.10604660026499
 30
0.0
 40
12.0
 41
0.0
 71
             7
 72
             1
  1
175
  7
CONVERTER_1
 11
0.99999999999706
 21
0.00000242406841
 31
0.0
  0
ENDBLK
  5
117
100
AcDbEntity
  8
0
100
AcDbBlockEnd
  0
ENDSEC
  0
SECTION
  2
ENTITIES
  0
DIMENSION
  5
119
100
AcDbEntity
  8
1
100
AcDbDimension
  2
*D4
 10
174.99784399999976
 20
161.10604660026499
 11
82.2844007525221
 21
169.10604660026499
 31
0.0
 53
0.00013888888889
  1
<>
  3
ME10_DIM_3
100
AcDbAlignedDimension
 13
0.0
 23
105.27500000000001
 14
174.99784399999979
 24
97.51853200000005
100
AcDbRotatedDimension
  0
DIMENSION
  5
10E
100
AcDbEntity
  8
1
100
AcDbDimension
  2
*D3
 10
174.99784399999979
 20
139.79133255432899
 11
147.33702234905749
 21
147.79133255432899
 31
0.0
 53
0.00013888888889
  1
<>
  3
ME10_DIM_2
100
AcDbAlignedDimension
 13
114.9978439999997
 23
92.51853200000005
 14
174.99784399999979
 24
97.51853200000005
100
AcDbRotatedDimension
  0
DIMENSION
  5
103
100
AcDbEntity
  8
1
100
AcDbDimension
  2
*D2
 10
-15.70189329089203
 20
100.0
 11
-23.70189329089203
 21
18.19335669302097
 31
0.0
 53
90.0
  1
<>
  3
ME10_DIM_1
100
AcDbAlignedDimension
 13
-5.70189329089203
 23
-100.0
 14
-5.70189329089203
 24
100.0
 50
90.0
100
AcDbRotatedDimension
  0
DIMENSION
  5
F8
100
AcDbEntity
  8
1
100
AcDbDimension
  2
*D1
 10
213.80369810234501
 20
-120.98579595677018
 11
205.80369810234501
 21
-21.65157793595404
 31
0.0
 53
90.0
  1
<>
  3
ME10_DIM_0
100
AcDbAlignedDimension
 13
148.9978439999997
 23
104.01853200000011
 14
162.34161084165979
 24
-120.9857959567702
 50
90.0
100
AcDbRotatedDimension
  0
INSERT
  5
2F
100
AcDbEntity
  8
0
100
AcDbBlockReference
  2
HL_720_0_FROSCHKLAPPE__1
 10
-239.42721227299401
 20
-1138.9307570000001
  0
ENDSEC
  0
SECTION
  2
OBJECTS
  0
DICTIONARY
  5
19
100
AcDbDictionary
  3
ACAD_GROUP
350
1A
  3
ACAD_MLINESTYLE
350
1B
  0
DICTIONARY
  5
1A
102
{ACAD_REACTORS
330
19
102
}
100
AcDbDictionary
  0
DICTIONARY
  5
1B
102
{ACAD_REACTORS
330
19
102
}
100
AcDbDictionary
  3
STANDARD
350
1C
  0
MLINESTYLE
  5
1C
102
{ACAD_REACTORS
330
1B
102
}
100
AcDbMlineStyle
  2
STANDARD
 70
             0
  3

 62
             0
 51
90.0
 52
90.0
 71
             2
 49
0.5
 62
           256
  6
BYLAYER
 49
-0.5
 62
           256
  6
BYLAYER
  0
ENDSEC
  0
EOF
