  0
SECTION
  2
HEADER
  9
$ACADVER
  1
AC1014
  9
$ACADMAINTVER
 70
             0
  9
$DWGCODEPAGE
  3
ANSI_1252
  9
$INSBASE
 10
0.0
 20
0.0
 30
0.0
  9
$EXTMIN
 10
-35.00004522933197
 20
-193.9518350082883
 30
0.0
  9
$EXTMAX
 10
699.62683372351853
 20
189.32740299999969
 30
0.0
  9
$LIMMIN
 10
0.0
 20
0.0
  9
$LIMMAX
 10
0.0
 20
0.0
  9
$ORTHOMODE
 70
             0
  9
$REGENMODE
 70
             1
  9
$FILLMODE
 70
             1
  9
$QTEXTMODE
 70
             0
  9
$MIRRTEXT
 70
             1
  9
$DRAGMODE
 70
             2
  9
$LTSCALE
 40
1.0
  9
$OSMODE
 70
             0
  9
$ATTMODE
 70
             1
  9
$TEXTSIZE
 40
0.2
  9
$TRACEWID
 40
0.05
  9
$TEXTSTYLE
  7
STANDARD
  9
$CLAYER
  8
0
  9
$CELTYPE
  6
CONTINUOUS
  9
$CECOLOR
 62
           256
  9
$CELTSCALE
 40
1.0
  9
$DELOBJ
 70
             1
  9
$DISPSILH
 70
             0
  9
$DIMSCALE
 40
1.0
  9
$DIMASZ
 40
0.18
  9
$DIMEXO
 40
0.0625
  9
$DIMDLI
 40
0.38
  9
$DIMRND
 40
0.0
  9
$DIMDLE
 40
0.0
  9
$DIMEXE
 40
0.18
  9
$DIMTP
 40
0.0
  9
$DIMTM
 40
0.0
  9
$DIMTXT
 40
0.18
  9
$DIMCEN
 40
0.09
  9
$DIMTSZ
 40
0.0
  9
$DIMTOL
 70
             0
  9
$DIMLIM
 70
             0
  9
$DIMTIH
 70
             1
  9
$DIMTOH
 70
             1
  9
$DIMSE1
 70
             0
  9
$DIMSE2
 70
             0
  9
$DIMTAD
 70
             0
  9
$DIMZIN
 70
             0
  9
$DIMBLK
  1

  9
$DIMASO
 70
             1
  9
$DIMSHO
 70
             1
  9
$DIMPOST
  1

  9
$DIMAPOST
  1

  9
$DIMALT
 70
             0
  9
$DIMALTD
 70
             2
  9
$DIMALTF
 40
25.4
  9
$DIMLFAC
 40
1.0
  9
$DIMTOFL
 70
             0
  9
$DIMTVP
 40
0.0
  9
$DIMTIX
 70
             0
  9
$DIMSOXD
 70
             0
  9
$DIMSAH
 70
             0
  9
$DIMBLK1
  1

  9
$DIMBLK2
  1

  9
$DIMSTYLE
  2
STANDARD
  9
$DIMCLRD
 70
             0
  9
$DIMCLRE
 70
             0
  9
$DIMCLRT
 70
             0
  9
$DIMTFAC
 40
1.0
  9
$DIMGAP
 40
0.09
  9
$DIMJUST
 70
             0
  9
$DIMSD1
 70
             0
  9
$DIMSD2
 70
             0
  9
$DIMTOLJ
 70
             1
  9
$DIMTZIN
 70
             0
  9
$DIMALTZ
 70
             0
  9
$DIMALTTZ
 70
             0
  9
$DIMFIT
 70
             3
  9
$DIMUPT
 70
             0
  9
$DIMUNIT
 70
             2
  9
$DIMDEC
 70
             4
  9
$DIMTDEC
 70
             4
  9
$DIMALTU
 70
             2
  9
$DIMALTTD
 70
             2
  9
$DIMTXSTY
  7
STANDARD
  9
$DIMAUNIT
 70
             0
  9
$LUNITS
 70
             2
  9
$LUPREC
 70
             4
  9
$SKETCHINC
 40
0.1
  9
$FILLETRAD
 40
0.0
  9
$AUNITS
 70
             0
  9
$AUPREC
 70
             0
  9
$MENU
  1
acad
  9
$ELEVATION
 40
0.0
  9
$PELEVATION
 40
0.0
  9
$THICKNESS
 40
0.0
  9
$LIMCHECK
 70
             0
  9
$BLIPMODE
 70
             1
  9
$CHAMFERA
 40
0.0
  9
$CHAMFERB
 40
0.0
  9
$CHAMFERC
 40
0.0
  9
$CHAMFERD
 40
0.0
  9
$SKPOLY
 70
             0
  9
$TDCREATE
 40
0.000000000
  9
$TDUPDATE
 40
0.000000000
  9
$TDINDWG
 40
0.0000000000
  9
$TDUSRTIMER
 40
0.0000000000
  9
$USRTIMER
 70
             1
  9
$ANGBASE
 50
0.0
  9
$ANGDIR
 70
             0
  9
$PDMODE
 70
             0
  9
$PDSIZE
 40
0.0
  9
$PLINEWID
 40
0.0
  9
$COORDS
 70
             0
  9
$SPLFRAME
 70
             0
  9
$SPLINETYPE
 70
             6
  9
$SPLINESEGS
 70
             8
  9
$ATTDIA
 70
             0
  9
$ATTREQ
 70
             1
  9
$HANDLING
 70
             1
  9
$HANDSEED
  5
285
  9
$SURFTAB1
 70
             6
  9
$SURFTAB2
 70
             6
  9
$SURFTYPE
 70
             6
  9
$SURFU
 70
             6
  9
$SURFV
 70
             6
  9
$UCSNAME
  2

  9
$UCSORG
 10
0.0
 20
0.0
 30
0.0
  9
$UCSXDIR
 10
1.0
 20
0.0
 30
0.0
  9
$UCSYDIR
 10
0.0
 20
1.0
 30
0.0
  9
$PUCSNAME
  2

  9
$PUCSORG
 10
0.0
 20
0.0
 30
0.0
  9
$PUCSXDIR
 10
1.0
 20
0.0
 30
0.0
  9
$PUCSYDIR
 10
0.0
 20
1.0
 30
0.0
  9
$USERI1
 70
             0
  9
$USERI2
 70
             0
  9
$USERI3
 70
             0
  9
$USERI4
 70
             0
  9
$USERI5
 70
             0
  9
$USERR1
 40
12.01
  9
$USERR2
 40
0.0
  9
$USERR3
 40
0.0
  9
$USERR4
 40
0.0
  9
$USERR5
 40
0.0
  9
$WORLDVIEW
 70
             1
  9
$SHADEDGE
 70
             3
  9
$SHADEDIF
 70
            70
  9
$TILEMODE
 70
             1
  9
$MAXACTVP
 70
            16
  9
$PINSBASE
 10
0.0
 20
0.0
 30
0.0
  9
$PLIMCHECK
 70
             0
  9
$PEXTMIN
 10
1.00000000000000E+20
 20
1.00000000000000E+20
 30
1.00000000000000E+20
  9
$PEXTMAX
 10
-1.00000000000000E+20
 20
-1.00000000000000E+20
 30
-1.00000000000000E+20
  9
$PLIMMIN
 10
0.0
 20
0.0
  9
$PLIMMAX
 10
12.0
 20
9.0
  9
$UNITMODE
 70
             0
  9
$VISRETAIN
 70
             0
  9
$PLINEGEN
 70
             1
  9
$PSLTSCALE
 70
             0
  9
$TREEDEPTH
 70
          3020
  9
$PICKSTYLE
 70
             1
  9
$CMLSTYLE
  2
STANDARD
  9
$CMLJUST
 70
             0
  9
$CMLSCALE
 40
1.0
  9
$PROXYGRAPHICS
 70
             0
  9
$MEASUREMENT
 70
             1
  0
ENDSEC
  0
SECTION
  2
CLASSES
  0
CLASS
  1
LWPOLYLINE
  2
AcDbPolyline
  3
"AutoCAD"
 90
        0
280
             0
281
             1
  0
CLASS
  1
IMAGE
  2
AcDbRasterImage
  3
ISM
 90
      127
280
             0
281
             1
  0
CLASS
  1
OLE2FRAME
  2
AcDbOle2Frame
  3
""
 90
        0
280
             0
281
             1
  0
CLASS
  1
HATCH
  2
AcDbHatch
  3
"ACAD_SEDONA"
 90
        0
280
             0
281
             1
  0
CLASS
  1
DICTIONARYVAR
  2
AcDbDictionaryVar
  3
"AutoCAD"
 90
        0
280
             0
281
             0
  0
CLASS
  1
RASTERVARIABLES
  2
AcDbRasterVariables
  3
ISM
 90
        0
280
             0
281
             0
  0
CLASS
  1
IMAGEDEF
  2
AcDbRasterImageDef
  3
ISM
 90
        0
280
             0
281
             0
  0
CLASS
  1
IMAGEDEF_REACTOR
  2
AcDbRasterImageDefReactor
  3
ISM
 90
        1
280
             0
281
             0
  0
CLASS
  1
IDBUFFER
  2
AcDbIdBuffer
  3
"Acad"
 90
        0
280
             0
281
             0
  0
CLASS
  1
SPATIAL_FILTER
  2
AcDbSpatialFilter
  3
"Acad"
 90
        0
280
             0
281
             0
  0
CLASS
  1
XRECORD
  2
AcDbXrecord
  3
"<Built In>"
 90
        0
280
             0
281
             0
  0
CLASS
  1
SORTENTSTABLE
  2
AcDbSortentsTable
  3
"AutoCAD"
 90
        0
280
             0
281
             0
  0
CLASS
  1
LAYER_INDEX
  2
AcDbLayerIndex
  3
"Acad"
 90
        0
280
             0
281
             0
  0
CLASS
  1
SPATIAL_INDEX
  2
AcDbSpatialIndex
  3
"Acad"
 90
        0
280
             0
281
             0
  0
CLASS
  1
OBJECT_PTR
  2
CAseDLPNTableRecord
  3
"ASE-LPNTableRecord"
 90
        1
280
             0
281
             0
  0
CLASS
  1
LAYOUT
  2
AcDbLayout
  3
"AutoCAD 2000"
 90
        0
280
             0
281
             0
  0
CLASS
  1
PLOTSETTINGS
  2
AcDbPlotSettings
  3
"AutoCAD 2000"
 90
        0
280
             0
281
             0
  0
CLASS
  1
ACDBDICTIONARYWDFLT
  2
AcDbDictionaryWithDefault
  3
"AutoCAD 2000"
 90
        0
280
             0
281
             0
  0
CLASS
  1
ACDBPLACEHOLDER
  2
AcDbPlaceHolder
  3
"AutoCAD 2000"
 90
        0
280
             0
281
             0
  0
ENDSEC
  0
SECTION
  2
TABLES
  0
TABLE
  2
VPORT
  5
7
100
AcDbSymbolTable
 70
             1
  0
VPORT
  5
15
100
AcDbSymbolTableRecord
100
AcDbViewportTableRecord
  2
*ACTIVE
 70
             0
 10
0.0
 20
0.0
 11
1.0
 21
1.0
 12
332.3133942470933
 22
-2.3122160041443
 13
0.0
 23
0.0
 14
1.0
 24
1.0
 15
0.0
 25
0.0
 16
0.0
 26
0.0
 36
1.0
 17
0.0
 27
0.0
 37
0.0
 40
504.21187457933826
 41
1.60267857142857
 42
50.0
 43
0.0
 44
0.0
 50
0.0
 51
0.0
 71
             0
 72
           100
 73
             1
 74
             1
 75
             0
 76
             0
 77
             0
 78
             0
  0
ENDTAB
  0
TABLE
  2
LTYPE
  5
4
100
AcDbSymbolTable
 70
            11
  0
LTYPE
  5
11
100
AcDbSymbolTableRecord
100
AcDbLinetypeTableRecord
  2
BYBLOCK
 70
            64
  3

 72
            65
 73
             0
 40
0.0
  0
LTYPE
  5
12
100
AcDbSymbolTableRecord
100
AcDbLinetypeTableRecord
  2
BYLAYER
 70
            64
  3

 72
            65
 73
             0
 40
0.0
  0
LTYPE
  5
13
100
AcDbSymbolTableRecord
100
AcDbLinetypeTableRecord
  2
CONTINUOUS
 70
            64
  3
Solid line
 72
            65
 73
             0
 40
0.0
  0
LTYPE
  5
1D
100
AcDbSymbolTableRecord
100
AcDbLinetypeTableRecord
  2
DASHED
 70
            64
  3
Dashed
 72
            65
 73
             2
 40
15.0
 49
7.0
 74
             0
 49
-8.0
 74
             0
  0
LTYPE
  5
1E
100
AcDbSymbolTableRecord
100
AcDbLinetypeTableRecord
  2
DOTTED
 70
            64
  3
Dotted
 72
            65
 73
             2
 40
1.0
 49
0.0
 74
             0
 49
-1.0
 74
             0
  0
LTYPE
  5
1F
100
AcDbSymbolTableRecord
100
AcDbLinetypeTableRecord
  2
DOT_CENTER
 70
            64
  3
Dot_Center
 72
            65
 73
             4
 40
14.0
 49
12.0
 74
             0
 49
-1.0
 74
             0
 49
0.0
 74
             0
 49
-1.0
 74
             0
  0
LTYPE
  5
20
100
AcDbSymbolTableRecord
100
AcDbLinetypeTableRecord
  2
LONG_DASHED
 70
            64
  3
Long_Dashed
 72
            65
 73
             2
 40
15.0
 49
10.0
 74
             0
 49
-5.0
 74
             0
  0
LTYPE
  5
21
100
AcDbSymbolTableRecord
100
AcDbLinetypeTableRecord
  2
DASH_CENTER
 70
            64
  3
Dash_Center
 72
            65
 73
             4
 40
14.0
 49
11.0
 74
             0
 49
-1.0
 74
             0
 49
1.0
 74
             0
 49
-1.0
 74
             0
  0
LTYPE
  5
22
100
AcDbSymbolTableRecord
100
AcDbLinetypeTableRecord
  2
PHANTOM
 70
            64
  3
Phantom
 72
            65
 73
             6
 40
13.0
 49
10.0
 74
             0
 49
-1.0
 74
             0
 49
0.0
 74
             0
 49
-1.0
 74
             0
 49
0.0
 74
             0
 49
-1.0
 74
             0
  0
LTYPE
  5
23
100
AcDbSymbolTableRecord
100
AcDbLinetypeTableRecord
  2
CENTER_DASH_DASH
 70
            64
  3
Center_Dash_Dash
 72
            65
 73
             6
 40
14.0
 49
9.0
 74
             0
 49
-1.0
 74
             0
 49
1.0
 74
             0
 49
-1.0
 74
             0
 49
1.0
 74
             0
 49
-1.0
 74
             0
  0
LTYPE
  5
24
100
AcDbSymbolTableRecord
100
AcDbLinetypeTableRecord
  2
DASHDOT
 70
            64
  3
DASHDOT
 72
            65
 73
             4
 40
16.0
 49
10.0
 74
             0
 49
-3.0
 74
             0
 49
0.0
 74
             0
 49
-3.0
 74
             0
  0
ENDTAB
  0
TABLE
  2
LAYER
  5
2
100
AcDbSymbolTable
 70
             7
  0
LAYER
  5
14
100
AcDbSymbolTableRecord
100
AcDbLayerTableRecord
  2
0
 70
             0
 62
             7
  6
CONTINUOUS
  0
LAYER
  5
25
100
AcDbSymbolTableRecord
100
AcDbLayerTableRecord
  2
1
 70
             0
 62
             7
  6
CONTINUOUS
  0
LAYER
  5
26
100
AcDbSymbolTableRecord
100
AcDbLayerTableRecord
  2
LC-002-002-----0
 70
             0
 62
             7
  6
CONTINUOUS
  0
LAYER
  5
27
100
AcDbSymbolTableRecord
100
AcDbLayerTableRecord
  2
LC-004-002-RND-0
 70
             0
 62
             7
  6
CONTINUOUS
  0
LAYER
  5
28
100
AcDbSymbolTableRecord
100
AcDbLayerTableRecord
  2
LC-005-003-----0
 70
             0
 62
             7
  6
CONTINUOUS
  0
LAYER
  5
29
100
AcDbSymbolTableRecord
100
AcDbLayerTableRecord
  2
LC-008-001-----0
 70
             0
 62
             7
  6
CONTINUOUS
  0
LAYER
  5
2A
100
AcDbSymbolTableRecord
100
AcDbLayerTableRecord
  2
LC-010-201-----0
 70
             0
 62
             7
  6
CONTINUOUS
  0
ENDTAB
  0
TABLE
  2
STYLE
  5
3
100
AcDbSymbolTable
 70
             2
  0
STYLE
  5
17
100
AcDbSymbolTableRecord
100
AcDbTextStyleTableRecord
  2
STANDARD
 70
             0
 40
0.0
 41
1.0
 50
0.0
 71
             0
 42
0.0
  3
txt
  4

  0
STYLE
  5
253
100
AcDbSymbolTableRecord
100
AcDbTextStyleTableRecord
  2
CONVERTER_1
 70
             0
 40
0.0
 41
0.9
 50
0.0
 71
             0
 42
0.0
  3
txt.shx
  4

  0
ENDTAB
  0
TABLE
  2
VIEW
  5
5
100
AcDbSymbolTable
 70
             0
  0
ENDTAB
  0
TABLE
  2
UCS
  5
6
100
AcDbSymbolTable
 70
             0
  0
ENDTAB
  0
TABLE
  2
APPID
  5
8
100
AcDbSymbolTable
 70
             1
  0
APPID
  5
16
100
AcDbSymbolTableRecord
100
AcDbRegAppTableRecord
  2
ACAD
 70
             0
  0
ENDTAB
  0
TABLE
  2
DIMSTYLE
  5
9
100
AcDbSymbolTable
 70
             6
  0
DIMSTYLE
105
18
100
AcDbSymbolTableRecord
100
AcDbDimStyleTableRecord
  2
STANDARD
 70
             0
  3

  4

  5

  6

  7

 40
1.0
 41
0.18
 42
0.0625
 43
0.38
 44
0.18
 45
0.0
 46
0.0
 47
0.0
 48
0.0
 71
             0
 72
             0
 73
             1
 74
             1
 75
             0
 76
             0
 77
             0
 78
             0
140
0.18
141
0.09
142
0.0
143
25.4
144
1.0
145
0.0
146
1.0
147
0.09
170
             0
171
             2
172
             0
173
             0
174
             0
175
             0
176
             0
177
             0
178
             0
270
             2
271
             4
272
             4
273
             2
274
             2
275
             0
280
             0
281
             0
282
             0
283
             1
284
             0
285
             0
286
             0
287
             3
288
             0
340
17
  0
DIMSTYLE
105
256
100
AcDbSymbolTableRecord
100
AcDbDimStyleTableRecord
  2
ME10_DIM_0
 70
             0
  3

  4

  5

  6

  7

 40
1.0
 41
15.0
 42
0.0
 43
0.38
 44
2.0
 45
0.0
 46
0.0
 47
0.0
 48
0.0
 71
             0
 72
             0
 73
             0
 74
             0
 75
             0
 76
             0
 77
             1
 78
             8
140
15.0
141
0.09
142
0.0
143
25.4
144
1.0
145
0.0
146
1.0
147
0.625
170
             0
171
             2
172
             1
173
             1
174
             0
175
             0
176
             4
177
             4
178
             1
270
             2
271
             2
272
             4
273
             2
274
             2
275
             0
280
             0
281
             0
282
             0
283
             1
284
             0
285
             0
286
             0
287
             4
288
             0
340
253
  0
DIMSTYLE
105
261
100
AcDbSymbolTableRecord
100
AcDbDimStyleTableRecord
  2
ME10_DIM_1
 70
             0
  3
250-<>
  4

  5

  6

  7

 40
1.0
 41
15.0
 42
0.0
 43
0.38
 44
2.0
 45
0.0
 46
0.0
 47
0.0
 48
0.0
 71
             0
 72
             0
 73
             0
 74
             0
 75
             0
 76
             0
 77
             1
 78
             8
140
15.0
141
0.09
142
0.0
143
25.4
144
1.0
145
0.0
146
1.0
147
0.625
170
             0
171
             2
172
             1
173
             1
174
             0
175
             0
176
             4
177
             4
178
             1
270
             2
271
             2
272
             4
273
             2
274
             2
275
             0
280
             0
281
             0
282
             0
283
             1
284
             0
285
             0
286
             0
287
             3
288
             0
340
253
  0
DIMSTYLE
105
26C
100
AcDbSymbolTableRecord
100
AcDbDimStyleTableRecord
  2
ME10_DIM_2
 70
             0
  3
DN<>
  4

  5

  6

  7

 40
1.0
 41
15.0
 42
0.0
 43
0.38
 44
2.0
 45
0.0
 46
0.0
 47
0.0
 48
0.0
 71
             0
 72
             0
 73
             0
 74
             0
 75
             0
 76
             0
 77
             1
 78
             8
140
15.0
141
0.09
142
0.0
143
25.4
144
1.0
145
0.0
146
1.0
147
0.625
170
             0
171
             2
172
             1
173
             1
174
             0
175
             0
176
             4
177
             4
178
             1
270
             2
271
             2
272
             4
273
             2
274
             2
275
             0
280
             0
281
             0
282
             0
283
             1
284
             0
285
             0
286
             0
287
             3
288
             0
340
253
  0
DIMSTYLE
105
277
100
AcDbSymbolTableRecord
100
AcDbDimStyleTableRecord
  2
ME10_DIM_3
 70
             0
  3
DN<>
  4

  5

  6

  7

 40
1.0
 41
15.0
 42
0.0
 43
0.38
 44
2.0
 45
0.0
 46
0.0
 47
0.0
 48
0.0
 71
             0
 72
             0
 73
             0
 74
             0
 75
             0
 76
             0
 77
             1
 78
             8
140
15.0
141
0.09
142
0.0
143
25.4
144
1.0
145
0.0
146
1.0
147
0.625
170
             0
171
             2
172
             1
173
             1
174
             0
175
             0
176
             4
177
             4
178
             1
270
             2
271
             2
272
             4
273
             2
274
             2
275
             0
280
             0
281
             0
282
             0
283
             1
284
             0
285
             0
286
             0
287
             3
288
             0
340
253
  0
DIMSTYLE
105
282
100
AcDbSymbolTableRecord
100
AcDbDimStyleTableRecord
  2
ME10_DIM_4
 70
             0
  3

  4

  5

  6

  7

 40
1.0
 41
15.0
 42
0.0
 43
0.38
 44
2.0
 45
0.0
 46
0.0
 47
0.0
 48
0.0
 71
             0
 72
             0
 73
             0
 74
             0
 75
             0
 76
             0
 77
             1
 78
             8
140
15.0
141
0.09
142
0.0
143
25.4
144
1.0
145
0.0
146
1.0
147
0.625
170
             0
171
             2
172
             1
173
             1
174
             0
175
             0
176
             4
177
             4
178
             1
270
             2
271
             2
272
             4
273
             2
274
             2
275
             0
280
             0
281
             0
282
             0
283
             1
284
             0
285
             0
286
             0
287
             3
288
             0
340
253
  0
ENDTAB
  0
TABLE
  2
BLOCK_RECORD
  5
1
100
AcDbSymbolTable
 70
             7
  0
BLOCK_RECORD
  5
A
100
AcDbSymbolTableRecord
100
AcDbBlockTableRecord
  2
*MODEL_SPACE
  0
BLOCK_RECORD
  5
B
100
AcDbSymbolTableRecord
100
AcDbBlockTableRecord
  2
*PAPER_SPACE
  0
BLOCK_RECORD
  5
2B
100
AcDbSymbolTableRecord
100
AcDbBlockTableRecord
  2
_1
  0
BLOCK_RECORD
  5
2D
100
AcDbSymbolTableRecord
100
AcDbBlockTableRecord
  2
HL_720_2_R_CKSTAUVERSCS__1
  0
BLOCK_RECORD
  5
24A
100
AcDbSymbolTableRecord
100
AcDbBlockTableRecord
  2
*D2
  0
BLOCK_RECORD
  5
258
100
AcDbSymbolTableRecord
100
AcDbBlockTableRecord
  2
*D3
  0
BLOCK_RECORD
  5
263
100
AcDbSymbolTableRecord
100
AcDbBlockTableRecord
  2
*D4
  0
BLOCK_RECORD
  5
26E
100
AcDbSymbolTableRecord
100
AcDbBlockTableRecord
  2
*D5
  0
BLOCK_RECORD
  5
279
100
AcDbSymbolTableRecord
100
AcDbBlockTableRecord
  2
*D6
  0
ENDTAB
  0
ENDSEC
  0
SECTION
  2
BLOCKS
  0
BLOCK
  5
D
100
AcDbEntity
  8
0
100
AcDbBlockBegin
  2
*MODEL_SPACE
 70
             0
 10
0.0
 20
0.0
 30
0.0
  3
*MODEL_SPACE
  1

  0
ENDBLK
  5
E
100
AcDbEntity
  8
0
100
AcDbBlockEnd
  0
BLOCK
  5
F
100
AcDbEntity
 67
             1
  8
0
100
AcDbBlockBegin
  2
*PAPER_SPACE
 70
             0
 10
0.0
 20
0.0
 30
0.0
  3
*PAPER_SPACE
  1

  0
ENDBLK
  5
10
100
AcDbEntity
 67
             1
  8
0
100
AcDbBlockEnd
  0
BLOCK
  5
2C
100
AcDbEntity
  8
0
100
AcDbBlockBegin
  2
_1
 70
             0
 10
0.0
 20
0.0
 30
0.0
  3
_1
  1

  0
ENDBLK
  5
33
100
AcDbEntity
  8
0
100
AcDbBlockEnd
  0
BLOCK
  5
2E
100
AcDbEntity
  8
0
100
AcDbBlockBegin
  2
HL_720_2_R_CKSTAUVERSCS__1
 70
             0
 10
306.1495267154155
 20
14.32620149999971
 30
0.0
  3
HL_720_2_R_CKSTAUVERSCS__1
  1

  0
CIRCLE
  5
247
100
AcDbEntity
  8
LC-002-002-----0
  6
CONTINUOUS
 62
             7
100
AcDbCircle
 10
350.68069899999989
 20
174.32740299999969
 40
2.5
  0
ARC
  5
246
100
AcDbEntity
  8
LC-004-002-RND-0
  6
CONTINUOUS
 62
             7
100
AcDbCircle
 10
302.99583899999988
 20
61.3249999999997
 40
1.0
100
AcDbArc
 50
180.0
 51
-90.0
  0
ARC
  5
245
100
AcDbEntity
  8
LC-004-002-RND-0
  6
CONTINUOUS
 62
             7
100
AcDbCircle
 10
305.99583899999988
 20
59.3249999999997
 40
1.0
100
AcDbArc
 50
0.0
 51
90.0
  0
ARC
  5
244
100
AcDbEntity
  8
LC-004-002-RND-0
  6
CONTINUOUS
 62
             7
100
AcDbCircle
 10
29.74999999999999
 20
102.60499999999981
 40
0.99999999999999
100
AcDbArc
 50
180.0
 51
-90.0
  0
ARC
  5
243
100
AcDbEntity
  8
LC-004-002-RND-0
  6
CONTINUOUS
 62
             7
100
AcDbCircle
 10
121.4958389999999
 20
63.60499999999975
 40
1.5
100
AcDbArc
 50
-90.0
 51
0.0
  0
ARC
  5
242
100
AcDbEntity
  8
LC-004-002-RND-0
  6
CONTINUOUS
 62
             7
100
AcDbCircle
 10
24.75
 20
105.6549999999997
 40
4.0
100
AcDbArc
 50
0.0
 51
90.0
  0
ARC
  5
241
100
AcDbEntity
  8
LC-004-002-RND-0
  6
CONTINUOUS
 62
             7
100
AcDbCircle
 10
9.75
 20
105.6549999999997
 40
4.0
100
AcDbArc
 50
90.0
 51
180.0
  0
ARC
  5
240
100
AcDbEntity
  8
LC-004-002-RND-0
  6
CONTINUOUS
 62
             7
100
AcDbCircle
 10
9.75
 20
-112.9950000000003
 40
4.0
100
AcDbArc
 50
180.0
 51
-90.0
  0
ARC
  5
23F
100
AcDbEntity
  8
LC-004-002-RND-0
  6
CONTINUOUS
 62
             7
100
AcDbCircle
 10
24.75
 20
-112.9950000000003
 40
4.0
100
AcDbArc
 50
-90.0
 51
0.0
  0
ARC
  5
23E
100
AcDbEntity
  8
LC-004-002-RND-0
  6
CONTINUOUS
 62
             7
100
AcDbCircle
 10
121.4958389999999
 20
-104.8450000000003
 40
1.5
100
AcDbArc
 50
0.0
 51
90.0
  0
ARC
  5
23D
100
AcDbEntity
  8
LC-004-002-RND-0
  6
CONTINUOUS
 62
             7
100
AcDbCircle
 10
29.75
 20
-109.94500000000031
 40
1.0
100
AcDbArc
 50
90.0
 51
180.0
  0
ARC
  5
23C
100
AcDbEntity
  8
LC-002-002-----0
  6
CONTINUOUS
 62
             7
100
AcDbCircle
 10
140.9678439999999
 20
90.51853199999971
 40
5.0
100
AcDbArc
 50
90.0
 51
179.99984800000294
  0
ARC
  5
23B
100
AcDbEntity
  8
LC-002-002-----0
  6
CONTINUOUS
 62
             7
100
AcDbCircle
 10
298.49583899999988
 20
90.51853199999971
 40
5.0
100
AcDbArc
 50
0.0
 51
89.99998099999745
  0
ARC
  5
23A
100
AcDbEntity
  8
LC-002-002-----0
  6
CONTINUOUS
 62
             7
100
AcDbCircle
 10
159.9678439999999
 20
100.01853199999969
 40
2.00000000000011
100
AcDbArc
 50
89.99998100000346
 51
180.0
  0
ARC
  5
239
100
AcDbEntity
  8
LC-002-002-----0
  6
CONTINUOUS
 62
             7
100
AcDbCircle
 10
268.4678439999999
 20
116.40187999999969
 40
2.00000000000026
100
AcDbArc
 50
-79.66005100000153
 51
0.0
  0
ARC
  5
238
100
AcDbEntity
  8
LC-002-002-----0
  6
CONTINUOUS
 62
             7
100
AcDbCircle
 10
261.4678439999999
 20
79.76853199999971
 40
41.00000000000027
100
AcDbArc
 50
79.66010899999945
 51
100.33989100000058
  0
ARC
  5
237
100
AcDbEntity
  8
LC-002-002-----0
  6
CONTINUOUS
 62
             7
100
AcDbCircle
 10
254.4678439999999
 20
118.13518499999979
 40
2.00000000000032
100
AcDbArc
 50
100.33987199998961
 51
180.0
  0
ARC
  5
236
100
AcDbEntity
  8
LC-002-002-----0
  6
CONTINUOUS
 62
             7
100
AcDbCircle
 10
261.4678439999999
 20
154.76853199999971
 40
41.00000000000029
100
AcDbArc
 50
-100.33989100000058
 51
-79.66005099999941
  0
ARC
  5
235
100
AcDbEntity
  8
LC-002-002-----0
  6
CONTINUOUS
 62
             7
100
AcDbCircle
 10
254.4678439999999
 20
116.40187999999969
 40
2.0
100
AcDbArc
 50
180.0
 51
-100.34004300000136
  0
ARC
  5
234
100
AcDbEntity
  8
LC-002-002-----0
  6
CONTINUOUS
 62
             7
100
AcDbCircle
 10
254.4678439999999
 20
118.29876399999969
 40
2.00000000000035
100
AcDbArc
 50
106.72678199999787
 51
180.0
  0
ARC
  5
233
100
AcDbEntity
  8
LC-002-002-----0
  6
CONTINUOUS
 62
             7
100
AcDbCircle
 10
254.4678439999999
 20
116.23830099999979
 40
2.0
100
AcDbArc
 50
180.0
 51
-106.72695299998375
  0
ARC
  5
232
100
AcDbEntity
  8
LC-002-002-----0
  6
CONTINUOUS
 62
             7
100
AcDbCircle
 10
284.46803699999992
 20
79.76869899999974
 40
40.99999999999984
100
AcDbArc
 50
79.66007200000048
 51
100.33983499999935
  0
ARC
  5
231
100
AcDbEntity
  8
LC-002-002-----0
  6
CONTINUOUS
 62
             7
100
AcDbCircle
 10
277.46806299999992
 20
118.13535499999971
 40
1.99999999999981
100
AcDbArc
 50
100.33983500000815
 51
179.99996299998716
  0
ARC
  5
230
100
AcDbEntity
  8
LC-002-002-----0
  6
CONTINUOUS
 62
             7
100
AcDbCircle
 10
277.46806099999992
 20
116.4020509999997
 40
2.00000000000042
100
AcDbArc
 50
179.99996299999
 51
-100.34000499998788
  0
ARC
  5
22F
100
AcDbEntity
  8
LC-002-002-----0
  6
CONTINUOUS
 62
             7
100
AcDbCircle
 10
284.46808599999991
 20
154.76869899999971
 40
40.99999999999959
100
AcDbArc
 50
-100.34007999999936
 51
-79.66014699999941
  0
ARC
  5
22E
100
AcDbEntity
  8
LC-002-002-----0
  6
CONTINUOUS
 62
             7
100
AcDbCircle
 10
291.46806299999992
 20
118.1353459999997
 40
2.00000000000042
100
AcDbArc
 50
-0.00003700000999
 51
79.6599970000037
  0
ARC
  5
22D
100
AcDbEntity
  8
LC-002-002-----0
  6
CONTINUOUS
 62
             7
100
AcDbCircle
 10
272.9678439999999
 20
56.73968599999967
 40
66.27884599999943
100
AcDbArc
 50
73.27319900000026
 51
106.72678199999964
  0
ARC
  5
22C
100
AcDbEntity
  8
LC-002-002-----0
  6
CONTINUOUS
 62
             7
100
AcDbCircle
 10
291.4678439999999
 20
118.29876399999969
 40
2.0
100
AcDbArc
 50
0.0
 51
73.27319899999168
  0
ARC
  5
22B
100
AcDbEntity
  8
LC-002-002-----0
  6
CONTINUOUS
 62
             7
100
AcDbCircle
 10
291.46806099999992
 20
116.4020419999997
 40
1.99999999999988
100
AcDbArc
 50
-79.66008799999769
 51
-0.00003700000999
  0
ARC
  5
22A
100
AcDbEntity
  8
LC-002-002-----0
  6
CONTINUOUS
 62
             7
100
AcDbCircle
 10
272.9678439999999
 20
177.79737899999981
 40
66.27884599999993
100
AcDbArc
 50
-106.72695300000018
 51
-73.27319900000026
  0
ARC
  5
229
100
AcDbEntity
  8
LC-002-002-----0
  6
CONTINUOUS
 62
             7
100
AcDbCircle
 10
291.4678439999999
 20
116.23830099999979
 40
2.00000000000039
100
AcDbArc
 50
-73.27313999999731
 51
0.0
  0
ARC
  5
228
100
AcDbEntity
  8
LC-002-002-----0
  6
CONTINUOUS
 62
             7
100
AcDbCircle
 10
173.4678439999999
 20
118.13518499999979
 40
2.0
100
AcDbArc
 50
0.0
 51
79.66010899999465
  0
ARC
  5
227
100
AcDbEntity
  8
LC-002-002-----0
  6
CONTINUOUS
 62
             7
100
AcDbCircle
 10
173.4678439999999
 20
116.40187999999969
 40
2.00000000000026
100
AcDbArc
 50
-79.66005100000233
 51
0.0
  0
ARC
  5
226
100
AcDbEntity
  8
LC-002-002-----0
  6
CONTINUOUS
 62
             7
100
AcDbCircle
 10
166.4678439999999
 20
79.76853199999971
 40
41.00000000000028
100
AcDbArc
 50
79.66010899999942
 51
100.33989100000058
  0
ARC
  5
225
100
AcDbEntity
  8
LC-002-002-----0
  6
CONTINUOUS
 62
             7
100
AcDbCircle
 10
159.4678439999999
 20
118.13518499999979
 40
2.00000000000032
100
AcDbArc
 50
100.33987199998961
 51
180.0
  0
ARC
  5
224
100
AcDbEntity
  8
LC-002-002-----0
  6
CONTINUOUS
 62
             7
100
AcDbCircle
 10
166.4678439999999
 20
154.76853199999971
 40
41.00000000000029
100
AcDbArc
 50
-100.33989100000058
 51
-79.66005099999941
  0
ARC
  5
223
100
AcDbEntity
  8
LC-002-002-----0
  6
CONTINUOUS
 62
             7
100
AcDbCircle
 10
159.4678439999999
 20
116.40187999999969
 40
2.0
100
AcDbArc
 50
180.0
 51
-100.34004300000136
  0
ARC
  5
222
100
AcDbEntity
  8
LC-002-002-----0
  6
CONTINUOUS
 62
             7
100
AcDbCircle
 10
159.4678439999999
 20
118.29876399999969
 40
2.00000000000035
100
AcDbArc
 50
106.72678199999787
 51
180.0
  0
ARC
  5
221
100
AcDbEntity
  8
LC-002-002-----0
  6
CONTINUOUS
 62
             7
100
AcDbCircle
 10
159.4678439999999
 20
116.23830099999979
 40
2.0
100
AcDbArc
 50
180.0
 51
-106.72695299998375
  0
ARC
  5
220
100
AcDbEntity
  8
LC-002-002-----0
  6
CONTINUOUS
 62
             7
100
AcDbCircle
 10
189.4680369999999
 20
79.76869899999974
 40
40.99999999999985
100
AcDbArc
 50
79.66007200000041
 51
100.33983499999935
  0
ARC
  5
21F
100
AcDbEntity
  8
LC-002-002-----0
  6
CONTINUOUS
 62
             7
100
AcDbCircle
 10
182.46806299999989
 20
118.13535499999971
 40
1.99999999999981
100
AcDbArc
 50
100.33983500000734
 51
179.99996299998716
  0
ARC
  5
21E
100
AcDbEntity
  8
LC-002-002-----0
  6
CONTINUOUS
 62
             7
100
AcDbCircle
 10
182.46806099999989
 20
116.4020509999997
 40
2.00000000000042
100
AcDbArc
 50
179.99996299999
 51
-100.34000499998788
  0
ARC
  5
21D
100
AcDbEntity
  8
LC-002-002-----0
  6
CONTINUOUS
 62
             7
100
AcDbCircle
 10
189.46808599999989
 20
154.76869899999971
 40
40.99999999999959
100
AcDbArc
 50
-100.34007999999936
 51
-79.66014699999941
  0
ARC
  5
21C
100
AcDbEntity
  8
LC-002-002-----0
  6
CONTINUOUS
 62
             7
100
AcDbCircle
 10
196.46806299999989
 20
118.1353459999997
 40
2.00000000000042
100
AcDbArc
 50
-0.00003700000999
 51
79.65999700000289
  0
ARC
  5
21B
100
AcDbEntity
  8
LC-002-002-----0
  6
CONTINUOUS
 62
             7
100
AcDbCircle
 10
177.9678439999999
 20
56.73968599999967
 40
66.27884599999943
100
AcDbArc
 50
73.27319900000026
 51
106.72678199999964
  0
ARC
  5
21A
100
AcDbEntity
  8
LC-002-002-----0
  6
CONTINUOUS
 62
             7
100
AcDbCircle
 10
196.4678439999999
 20
118.29876399999969
 40
2.0
100
AcDbArc
 50
0.0
 51
73.27319899999246
  0
ARC
  5
219
100
AcDbEntity
  8
LC-002-002-----0
  6
CONTINUOUS
 62
             7
100
AcDbCircle
 10
196.46806099999989
 20
116.4020419999997
 40
1.9999999999999
100
AcDbArc
 50
-79.66008799999368
 51
-0.00003700000999
  0
ARC
  5
218
100
AcDbEntity
  8
LC-002-002-----0
  6
CONTINUOUS
 62
             7
100
AcDbCircle
 10
177.9678439999999
 20
177.79737899999981
 40
66.27884599999993
100
AcDbArc
 50
-106.72695300000018
 51
-73.27319900000026
  0
ARC
  5
217
100
AcDbEntity
  8
LC-002-002-----0
  6
CONTINUOUS
 62
             7
100
AcDbCircle
 10
196.4678439999999
 20
116.23830099999979
 40
2.00000000000039
100
AcDbArc
 50
-73.27313999999731
 51
0.0
  0
ARC
  5
216
100
AcDbEntity
  8
LC-002-002-----0
  6
CONTINUOUS
 62
             7
100
AcDbCircle
 10
176.4678439999999
 20
118.76853199999969
 40
1.0
100
AcDbArc
 50
90.0
 51
179.99984800002608
  0
ARC
  5
215
100
AcDbEntity
  8
LC-002-002-----0
  6
CONTINUOUS
 62
             7
100
AcDbCircle
 10
176.4678439999999
 20
115.76853199999969
 40
0.99999999999951
100
AcDbArc
 50
179.99984800002608
 51
-90.0
  0
ARC
  5
214
100
AcDbEntity
  8
LC-002-002-----0
  6
CONTINUOUS
 62
             7
100
AcDbCircle
 10
179.4678439999999
 20
118.76853199999969
 40
1.0
100
AcDbArc
 50
0.0
 51
90.0
  0
ARC
  5
213
100
AcDbEntity
  8
LC-002-002-----0
  6
CONTINUOUS
 62
             7
100
AcDbCircle
 10
179.4678439999999
 20
115.76853199999969
 40
1.0
100
AcDbArc
 50
-90.0
 51
0.0
  0
ARC
  5
212
100
AcDbEntity
  8
LC-002-002-----0
  6
CONTINUOUS
 62
             7
100
AcDbCircle
 10
268.4678439999999
 20
118.13518499999979
 40
2.0
100
AcDbArc
 50
0.0
 51
79.66010899999465
  0
ARC
  5
211
100
AcDbEntity
  8
LC-002-002-----0
  6
CONTINUOUS
 62
             7
100
AcDbCircle
 10
271.4678439999999
 20
118.76853199999969
 40
1.0
100
AcDbArc
 50
90.0
 51
179.99984800002608
  0
ARC
  5
210
100
AcDbEntity
  8
LC-002-002-----0
  6
CONTINUOUS
 62
             7
100
AcDbCircle
 10
274.4678439999999
 20
118.76853199999969
 40
1.0
100
AcDbArc
 50
0.0
 51
90.0
  0
ARC
  5
20F
100
AcDbEntity
  8
LC-002-002-----0
  6
CONTINUOUS
 62
             7
100
AcDbCircle
 10
274.4678439999999
 20
115.76853199999969
 40
0.9999999999995
100
AcDbArc
 50
-89.99994199999676
 51
0.0
  0
ARC
  5
20E
100
AcDbEntity
  8
LC-002-002-----0
  6
CONTINUOUS
 62
             7
100
AcDbCircle
 10
271.4678439999999
 20
115.76853199999969
 40
1.0
100
AcDbArc
 50
180.0
 51
-89.99994199999676
  0
ARC
  5
20D
100
AcDbEntity
  8
LC-004-002-RND-0
  6
CONTINUOUS
 62
             7
100
AcDbCircle
 10
97.22034799999986
 20
-104.3450000000003
 40
1.0
100
AcDbArc
 50
90.0
 51
161.84729400002385
  0
ARC
  5
20C
100
AcDbEntity
  8
LC-004-002-RND-0
  6
CONTINUOUS
 62
             7
100
AcDbCircle
 10
93.77133099999989
 20
-107.94500000000031
 40
1.0
100
AcDbArc
 50
-90.0
 51
-18.15270599997616
  0
ARC
  5
20B
100
AcDbEntity
  8
LC-004-002-RND-0
  6
CONTINUOUS
 62
             7
100
AcDbCircle
 10
113.7676419999999
 20
63.10499999999975
 40
0.99999999999961
100
AcDbArc
 50
-156.08922600000849
 51
-90.0
  0
ARC
  5
20A
100
AcDbEntity
  8
LC-004-002-RND-0
  6
CONTINUOUS
 62
             7
100
AcDbCircle
 10
474.99583899999982
 20
38.3249999999997
 40
1.0
100
AcDbArc
 50
180.0
 51
-90.0
  0
ARC
  5
209
100
AcDbEntity
  8
LC-004-002-RND-0
  6
CONTINUOUS
 62
             7
100
AcDbCircle
 10
477.99583899999982
 20
36.3249999999997
 40
1.0
100
AcDbArc
 50
0.0
 51
90.0
  0
ARC
  5
208
100
AcDbEntity
  8
LC-004-002-RND-0
  6
CONTINUOUS
 62
             7
100
AcDbCircle
 10
477.99583899999982
 20
31.37924799999973
 40
0.99999999999982
100
AcDbArc
 50
-57.99461700002564
 51
0.0
  0
ARC
  5
207
100
AcDbEntity
  8
LC-002-002-----0
  6
CONTINUOUS
 62
             7
100
AcDbCircle
 10
314.99572899999993
 20
67.51853199999971
 40
5.0
100
AcDbArc
 50
90.0
 51
179.99984800000294
  0
ARC
  5
206
100
AcDbEntity
  8
LC-002-002-----0
  6
CONTINUOUS
 62
             7
100
AcDbCircle
 10
470.49583899999982
 20
67.51853199999971
 40
5.0
100
AcDbArc
 50
0.0
 51
89.99998099999678
  0
ARC
  5
205
100
AcDbEntity
  8
LC-002-002-----0
  6
CONTINUOUS
 62
             7
100
AcDbCircle
 10
331.9678439999999
 20
77.01853199999971
 40
2.00000000000011
100
AcDbArc
 50
89.9999810000059
 51
180.0
  0
ARC
  5
204
100
AcDbEntity
  8
LC-002-002-----0
  6
CONTINUOUS
 62
             7
100
AcDbCircle
 10
440.4678439999999
 20
93.40187999999967
 40
2.00000000000026
100
AcDbArc
 50
-79.66005100000481
 51
0.0
  0
ARC
  5
203
100
AcDbEntity
  8
LC-002-002-----0
  6
CONTINUOUS
 62
             7
100
AcDbCircle
 10
433.4678439999999
 20
56.76853199999971
 40
41.00000000000029
100
AcDbArc
 50
79.66010899999955
 51
100.33989100000053
  0
ARC
  5
202
100
AcDbEntity
  8
LC-002-002-----0
  6
CONTINUOUS
 62
             7
100
AcDbCircle
 10
426.4678439999999
 20
95.13518499999975
 40
2.00000000000035
100
AcDbArc
 50
100.33987199998947
 51
180.0
  0
ARC
  5
201
100
AcDbEntity
  8
LC-002-002-----0
  6
CONTINUOUS
 62
             7
100
AcDbCircle
 10
433.4678439999999
 20
131.76853199999971
 40
41.0000000000003
100
AcDbArc
 50
-100.33989100000053
 51
-79.66005099999941
  0
ARC
  5
200
100
AcDbEntity
  8
LC-002-002-----0
  6
CONTINUOUS
 62
             7
100
AcDbCircle
 10
426.4678439999999
 20
93.40187999999967
 40
2.0
100
AcDbArc
 50
180.0
 51
-100.34004300000166
  0
ARC
  5
1FF
100
AcDbEntity
  8
LC-002-002-----0
  6
CONTINUOUS
 62
             7
100
AcDbCircle
 10
426.4678439999999
 20
95.29876399999967
 40
2.00000000000036
100
AcDbArc
 50
106.72678200000122
 51
180.0
  0
ARC
  5
1FE
100
AcDbEntity
  8
LC-002-002-----0
  6
CONTINUOUS
 62
             7
100
AcDbCircle
 10
426.4678439999999
 20
93.23830099999975
 40
2.0
100
AcDbArc
 50
180.0
 51
-106.72695299998433
  0
ARC
  5
1FD
100
AcDbEntity
  8
LC-002-002-----0
  6
CONTINUOUS
 62
             7
100
AcDbCircle
 10
456.46803699999992
 20
56.76869899999974
 40
40.99999999999988
100
AcDbArc
 50
79.6600720000005
 51
100.33983499999951
  0
ARC
  5
1FC
100
AcDbEntity
  8
LC-002-002-----0
  6
CONTINUOUS
 62
             7
100
AcDbCircle
 10
449.4680629999998
 20
95.13535499999966
 40
1.99999999999979
100
AcDbArc
 50
100.33983500000494
 51
179.99996299998716
  0
ARC
  5
1FB
100
AcDbEntity
  8
LC-002-002-----0
  6
CONTINUOUS
 62
             7
100
AcDbCircle
 10
449.46806099999981
 20
93.40205099999969
 40
2.00000000000042
100
AcDbArc
 50
179.9999629999904
 51
-100.34000500001338
  0
ARC
  5
1FA
100
AcDbEntity
  8
LC-002-002-----0
  6
CONTINUOUS
 62
             7
100
AcDbCircle
 10
456.46808599999991
 20
131.76869899999971
 40
40.99999999999976
100
AcDbArc
 50
-100.34008000000094
 51
-79.66014699999958
  0
ARC
  5
1F9
100
AcDbEntity
  8
LC-002-002-----0
  6
CONTINUOUS
 62
             7
100
AcDbCircle
 10
463.4680629999998
 20
95.13534599999969
 40
1.99999999999951
100
AcDbArc
 50
-0.00003700000959
 51
79.65999700000035
  0
ARC
  5
1F8
100
AcDbEntity
  8
LC-002-002-----0
  6
CONTINUOUS
 62
             7
100
AcDbCircle
 10
444.9678439999999
 20
33.73968599999967
 40
66.27884599999945
100
AcDbArc
 50
73.27319900000026
 51
106.72678199999964
  0
ARC
  5
1F7
100
AcDbEntity
  8
LC-002-002-----0
  6
CONTINUOUS
 62
             7
100
AcDbCircle
 10
463.4678439999999
 20
95.29876399999967
 40
2.0
100
AcDbArc
 50
0.0
 51
73.27319899999215
  0
ARC
  5
1F6
100
AcDbEntity
  8
LC-002-002-----0
  6
CONTINUOUS
 62
             7
100
AcDbCircle
 10
463.46806099999981
 20
93.40204199999971
 40
1.9999999999999
100
AcDbArc
 50
-79.66008799999447
 51
-0.00003700000959
  0
ARC
  5
1F5
100
AcDbEntity
  8
LC-002-002-----0
  6
CONTINUOUS
 62
             7
100
AcDbCircle
 10
444.9678439999999
 20
154.79737899999981
 40
66.2788459999999
100
AcDbArc
 50
-106.72695300000019
 51
-73.27319900000026
  0
ARC
  5
1F4
100
AcDbEntity
  8
LC-002-002-----0
  6
CONTINUOUS
 62
             7
100
AcDbCircle
 10
463.4678439999999
 20
93.23830099999975
 40
2.00000000000039
100
AcDbArc
 50
-73.27313999999731
 51
0.0
  0
ARC
  5
1F3
100
AcDbEntity
  8
LC-002-002-----0
  6
CONTINUOUS
 62
             7
100
AcDbCircle
 10
440.4678439999999
 20
95.13518499999975
 40
2.0
100
AcDbArc
 50
0.0
 51
79.66010899999472
  0
ARC
  5
1F2
100
AcDbEntity
  8
LC-002-002-----0
  6
CONTINUOUS
 62
             7
100
AcDbCircle
 10
443.4678439999999
 20
95.76853199999971
 40
1.0
100
AcDbArc
 50
90.0
 51
179.9998480000277
  0
ARC
  5
1F1
100
AcDbEntity
  8
LC-002-002-----0
  6
CONTINUOUS
 62
             7
100
AcDbCircle
 10
446.4678439999999
 20
95.76853199999971
 40
1.0
100
AcDbArc
 50
0.0
 51
90.0
  0
ARC
  5
1F0
100
AcDbEntity
  8
LC-002-002-----0
  6
CONTINUOUS
 62
             7
100
AcDbCircle
 10
446.4678439999999
 20
92.76853199999971
 40
0.99999999999949
100
AcDbArc
 50
-89.99994200000329
 51
0.0
  0
ARC
  5
1EF
100
AcDbEntity
  8
LC-002-002-----0
  6
CONTINUOUS
 62
             7
100
AcDbCircle
 10
443.4678439999999
 20
92.76853199999971
 40
1.0
100
AcDbArc
 50
180.0
 51
-89.99994200000329
  0
ARC
  5
1EE
100
AcDbEntity
  8
LC-002-002-----0
  6
CONTINUOUS
 62
             7
100
AcDbCircle
 10
326.18069899999989
 20
186.32740299999969
 40
3.0
100
AcDbArc
 50
90.0
 51
179.99984800000709
  0
ARC
  5
1ED
100
AcDbEntity
  8
LC-002-002-----0
  6
CONTINUOUS
 62
             7
100
AcDbCircle
 10
344.68069899999989
 20
186.32740299999969
 40
3.0
100
AcDbArc
 50
0.0
 51
90.0
  0
ARC
  5
1EC
100
AcDbEntity
  8
LC-002-002-----0
  6
CONTINUOUS
 62
             7
100
AcDbCircle
 10
335.18069899999989
 20
168.82740299999969
 40
2.0
100
AcDbArc
 50
90.0
 51
179.99984799999757
  0
ARC
  5
1EB
100
AcDbEntity
  8
LC-002-002-----0
  6
CONTINUOUS
 62
             7
100
AcDbCircle
 10
331.18069899999989
 20
153.82740299999969
 40
2.00000000000003
100
AcDbArc
 50
-89.99994200000002
 51
0.0
  0
ARC
  5
1EA
100
AcDbEntity
  8
LC-002-002-----0
  6
CONTINUOUS
 62
             7
100
AcDbCircle
 10
325.18069899999989
 20
153.82740299999969
 40
2.00000000000005
100
AcDbArc
 50
179.99984799999757
 51
-90.0
  0
ARC
  5
1E9
100
AcDbEntity
  8
LC-002-002-----0
  6
CONTINUOUS
 62
             7
100
AcDbCircle
 10
350.68069899999989
 20
174.32740299999969
 40
2.99999999999992
100
AcDbArc
 50
-59.99988299999964
 51
179.99988800000514
  0
ARC
  5
1E8
100
AcDbEntity
  8
LC-002-002-----0
  6
CONTINUOUS
 62
             7
100
AcDbCircle
 10
350.68069899999989
 20
182.32740299999969
 40
3.0
100
AcDbArc
 50
180.0
 51
-89.99994200000002
  0
ARC
  5
1E7
100
AcDbEntity
  8
LC-002-002-----0
  6
CONTINUOUS
 62
             7
100
AcDbCircle
 10
350.68069899999989
 20
166.32740299999969
 40
3.0
100
AcDbArc
 50
90.0
 51
180.0
  0
ARC
  5
1E6
100
AcDbEntity
  8
LC-002-002-----0
  6
CONTINUOUS
 62
             7
100
AcDbCircle
 10
350.68069899999989
 20
174.32740299999969
 40
5.0
100
AcDbArc
 50
-90.0
 51
90.00003999999557
  0
ARC
  5
1E5
100
AcDbEntity
  8
LC-010-201-----0
  6
CONTINUOUS
 62
             7
100
AcDbCircle
 10
120.0270889999999
 20
53.5749999999997
 40
2.03124999999965
100
AcDbArc
 50
120.51020000000602
 51
-120.51055999999909
  0
ARC
  5
1E4
100
AcDbEntity
  8
LC-010-201-----0
  6
CONTINUOUS
 62
             7
100
AcDbCircle
 10
125.5270889999999
 20
48.0749999999997
 40
7.53125000000052
100
AcDbArc
 50
150.13712799999996
 51
-150.13748799999973
  0
ARC
  5
1E3
100
AcDbEntity
  8
LC-010-201-----0
  6
CONTINUOUS
 62
             7
100
AcDbCircle
 10
120.0283699999999
 20
42.57426899999973
 40
2.03253100000008
100
AcDbArc
 50
120.53083000000619
 51
-120.5312659999957
  0
ARC
  5
1E2
100
AcDbEntity
  8
LC-010-201-----0
  6
CONTINUOUS
 62
             7
100
AcDbCircle
 10
149.76452199999989
 20
53.5751809999997
 40
2.03125000000052
100
AcDbArc
 50
-59.48949599999782
 51
59.48976300000444
  0
ARC
  5
1E1
100
AcDbEntity
  8
LC-010-201-----0
  6
CONTINUOUS
 62
             7
100
AcDbCircle
 10
144.2645179999999
 20
48.07518499999969
 40
7.53125000000026
100
AcDbArc
 50
-29.86256800000115
 51
29.86283400000344
  0
ARC
  5
1E0
100
AcDbEntity
  8
LC-010-201-----0
  6
CONTINUOUS
 62
             7
100
AcDbCircle
 10
149.7632339999999
 20
42.57444999999973
 40
2.03253100000054
100
AcDbArc
 50
-59.46878999999729
 51
59.4691330000067
  0
ARC
  5
1DF
100
AcDbEntity
  8
LC-010-201-----0
  6
CONTINUOUS
 62
             7
100
AcDbCircle
 10
120.0270889999999
 20
-89.22500000000025
 40
2.03124999999975
100
AcDbArc
 50
120.51055999999899
 51
-120.51020000000449
  0
ARC
  5
1DE
100
AcDbEntity
  8
LC-010-201-----0
  6
CONTINUOUS
 62
             7
100
AcDbCircle
 10
125.5270889999999
 20
-83.72500000000025
 40
7.53124999999945
100
AcDbArc
 50
150.13748799999973
 51
-150.13712800000002
  0
ARC
  5
1DD
100
AcDbEntity
  8
LC-010-201-----0
  6
CONTINUOUS
 62
             7
100
AcDbCircle
 10
120.0283699999999
 20
-78.22426800000028
 40
2.03253099999985
100
AcDbArc
 50
120.5312659999957
 51
-120.53083000000629
  0
ARC
  5
1DC
100
AcDbEntity
  8
LC-010-201-----0
  6
CONTINUOUS
 62
             7
100
AcDbCircle
 10
149.76452199999989
 20
-89.22518000000025
 40
2.0312500000005
100
AcDbArc
 50
-59.48976300000435
 51
59.48949599999782
  0
ARC
  5
1DB
100
AcDbEntity
  8
LC-010-201-----0
  6
CONTINUOUS
 62
             7
100
AcDbCircle
 10
144.2645179999999
 20
-83.72518400000024
 40
7.53124999999963
100
AcDbArc
 50
-29.86283399999748
 51
29.8625680000004
  0
ARC
  5
1DA
100
AcDbEntity
  8
LC-010-201-----0
  6
CONTINUOUS
 62
             7
100
AcDbCircle
 10
149.7632339999999
 20
-78.22444900000028
 40
2.03253099999973
100
AcDbArc
 50
-59.4691330000066
 51
59.46878999999739
  0
ARC
  5
1D9
100
AcDbEntity
  8
LC-010-201-----0
  6
CONTINUOUS
 62
             7
100
AcDbCircle
 10
293.52679099999989
 20
29.8248199999997
 40
2.03124999999963
100
AcDbArc
 50
120.51020000000538
 51
-120.51055999999841
  0
ARC
  5
1D8
100
AcDbEntity
  8
LC-010-201-----0
  6
CONTINUOUS
 62
             7
100
AcDbCircle
 10
299.02679099999989
 20
24.3248199999997
 40
7.53125000000048
100
AcDbArc
 50
150.13712799999985
 51
-150.13748799999959
  0
ARC
  5
1D7
100
AcDbEntity
  8
LC-010-201-----0
  6
CONTINUOUS
 62
             7
100
AcDbCircle
 10
293.52807199999978
 20
18.82408799999973
 40
2.03253100000004
100
AcDbArc
 50
120.5308300000041
 51
-120.53126599999266
  0
ARC
  5
1D6
100
AcDbEntity
  8
LC-010-201-----0
  6
CONTINUOUS
 62
             7
100
AcDbCircle
 10
322.96443199999987
 20
29.8250009999997
 40
2.03125000000054
100
AcDbArc
 50
-59.48949599999708
 51
59.48976300000722
  0
ARC
  5
1D5
100
AcDbEntity
  8
LC-010-201-----0
  6
CONTINUOUS
 62
             7
100
AcDbCircle
 10
317.46442799999988
 20
24.32500499999969
 40
7.53125000000028
100
AcDbArc
 50
-29.86256800000103
 51
29.86283400000338
  0
ARC
  5
1D4
100
AcDbEntity
  8
LC-010-201-----0
  6
CONTINUOUS
 62
             7
100
AcDbCircle
 10
322.96314399999989
 20
18.82426899999973
 40
2.03253100000056
100
AcDbArc
 50
-59.46878999999666
 51
59.46913300000734
  0
ARC
  5
1D3
100
AcDbEntity
  8
LC-010-201-----0
  6
CONTINUOUS
 62
             7
100
AcDbCircle
 10
293.52679099999989
 20
-111.1759720000002
 40
2.03124999999968
100
AcDbArc
 50
120.51055999999933
 51
-120.51020000000339
  0
ARC
  5
1D2
100
AcDbEntity
  8
LC-010-201-----0
  6
CONTINUOUS
 62
             7
100
AcDbCircle
 10
299.02679099999989
 20
-105.6759720000002
 40
7.53124999999939
100
AcDbArc
 50
150.13748799999993
 51
-150.13712799999948
  0
ARC
  5
1D1
100
AcDbEntity
  8
LC-010-201-----0
  6
CONTINUOUS
 62
             7
100
AcDbCircle
 10
293.52807199999978
 20
-100.1752400000003
 40
2.03253099999983
100
AcDbArc
 50
120.53126599999199
 51
-120.53083000000542
  0
ARC
  5
1D0
100
AcDbEntity
  8
LC-010-201-----0
  6
CONTINUOUS
 62
             7
100
AcDbCircle
 10
322.96443199999987
 20
-111.1761530000003
 40
2.03125000000039
100
AcDbArc
 50
-59.48976300000631
 51
59.48949599999693
  0
ARC
  5
1CF
100
AcDbEntity
  8
LC-010-201-----0
  6
CONTINUOUS
 62
             7
100
AcDbCircle
 10
317.46442799999988
 20
-105.6761570000003
 40
7.53125000000011
100
AcDbArc
 50
-29.86283400000338
 51
29.86256800000086
  0
ARC
  5
1CE
100
AcDbEntity
  8
LC-010-201-----0
  6
CONTINUOUS
 62
             7
100
AcDbCircle
 10
322.96314399999989
 20
-100.1754210000003
 40
2.03253099999971
100
AcDbArc
 50
-59.46913300000729
 51
59.46878999999732
  0
ARC
  5
1CD
100
AcDbEntity
  8
LC-010-201-----0
  6
CONTINUOUS
 62
             7
100
AcDbCircle
 10
465.52679099999989
 20
-134.1759720000002
 40
2.03124999999969
100
AcDbArc
 50
120.51055999999912
 51
-120.51020000000339
  0
ARC
  5
1CC
100
AcDbEntity
  8
LC-010-201-----0
  6
CONTINUOUS
 62
             7
100
AcDbCircle
 10
471.02679099999989
 20
-128.6759720000002
 40
7.53124999999948
100
AcDbArc
 50
150.13748800000036
 51
-150.13712799999624
  0
ARC
  5
1CB
100
AcDbEntity
  8
LC-010-201-----0
  6
CONTINUOUS
 62
             7
100
AcDbCircle
 10
465.52807199999978
 20
-123.1752400000003
 40
2.0325309999998
100
AcDbArc
 50
120.5312659999924
 51
-120.53083000000397
  0
ARC
  5
1CA
100
AcDbEntity
  8
LC-010-201-----0
  6
CONTINUOUS
 62
             7
100
AcDbCircle
 10
494.96443199999987
 20
-134.17615300000031
 40
2.03125000000037
100
AcDbArc
 50
-59.48976300000589
 51
59.48949599999713
  0
ARC
  5
1C9
100
AcDbEntity
  8
LC-010-201-----0
  6
CONTINUOUS
 62
             7
100
AcDbCircle
 10
489.46442799999988
 20
-128.6761570000003
 40
7.53125000000006
100
AcDbArc
 50
-29.86283400000282
 51
29.86256800000129
  0
ARC
  5
1C8
100
AcDbEntity
  8
LC-010-201-----0
  6
CONTINUOUS
 62
             7
100
AcDbCircle
 10
494.96314399999977
 20
-123.1754210000003
 40
2.03253099999974
100
AcDbArc
 50
-59.4691330000059
 51
59.46878999999395
  0
ARC
  5
1C7
100
AcDbEntity
  8
LC-004-002-RND-0
  6
CONTINUOUS
 62
             7
100
AcDbCircle
 10
474.99583899999982
 20
38.3249999999997
 40
1.0
100
AcDbArc
 50
180.0
 51
-90.0
  0
ARC
  5
1C6
100
AcDbEntity
  8
LC-004-002-RND-0
  6
CONTINUOUS
 62
             7
100
AcDbCircle
 10
477.99583899999982
 20
36.3249999999997
 40
1.0
100
AcDbArc
 50
0.0
 51
90.0
  0
ARC
  5
1C5
100
AcDbEntity
  8
LC-010-201-----0
  6
CONTINUOUS
 62
             7
100
AcDbCircle
 10
465.52679099999989
 20
6.8248199999997
 40
2.03124999999963
100
AcDbArc
 50
120.51020000000543
 51
-120.51055999999831
  0
ARC
  5
1C4
100
AcDbEntity
  8
LC-010-201-----0
  6
CONTINUOUS
 62
             7
100
AcDbCircle
 10
471.02679099999989
 20
1.3248199999997
 40
7.53124999999974
100
AcDbArc
 50
150.13712799999661
 51
-150.13748799999999
  0
ARC
  5
1C3
100
AcDbEntity
  8
LC-010-201-----0
  6
CONTINUOUS
 62
             7
100
AcDbCircle
 10
465.52807199999978
 20
-4.17591200000027
 40
2.03253100000006
100
AcDbArc
 50
120.53083000000558
 51
-120.5312659999926
  0
ARC
  5
1C2
100
AcDbEntity
  8
LC-010-201-----0
  6
CONTINUOUS
 62
             7
100
AcDbCircle
 10
494.96443199999987
 20
6.8250009999997
 40
2.03125000000054
100
AcDbArc
 50
-59.48949599999713
 51
59.48976300000712
  0
ARC
  5
1C1
100
AcDbEntity
  8
LC-010-201-----0
  6
CONTINUOUS
 62
             7
100
AcDbCircle
 10
489.46442799999988
 20
1.32500499999969
 40
7.53125000000019
100
AcDbArc
 50
-29.86256800000148
 51
29.86283400000338
  0
ARC
  5
1C0
100
AcDbEntity
  8
LC-010-201-----0
  6
CONTINUOUS
 62
             7
100
AcDbCircle
 10
494.96314399999977
 20
-4.17573100000027
 40
2.03253100000062
100
AcDbArc
 50
-59.46878999999395
 51
59.4691330000059
  0
ARC
  5
1BF
100
AcDbEntity
  8
LC-004-002-RND-0
  6
CONTINUOUS
 62
             7
100
AcDbCircle
 10
187.4678439999999
 20
74.01853199999971
 40
0.5
100
AcDbArc
 50
-90.0
 51
0.0
  0
ARC
  5
1BE
100
AcDbEntity
  8
LC-004-002-RND-0
  6
CONTINUOUS
 62
             7
100
AcDbCircle
 10
168.4678439999999
 20
74.01853199999971
 40
0.5
100
AcDbArc
 50
180.0
 51
-90.0
  0
ARC
  5
1BD
100
AcDbEntity
  8
LC-004-002-RND-0
  6
CONTINUOUS
 62
             7
100
AcDbCircle
 10
168.4678439999999
 20
81.01853199999971
 40
0.5
100
AcDbArc
 50
90.0
 51
180.0
  0
ARC
  5
1BC
100
AcDbEntity
  8
LC-004-002-RND-0
  6
CONTINUOUS
 62
             7
100
AcDbCircle
 10
187.4678439999999
 20
81.01853199999971
 40
0.5
100
AcDbArc
 50
0.0
 51
90.0
  0
ARC
  5
1BB
100
AcDbEntity
  8
LC-004-002-RND-0
  6
CONTINUOUS
 62
             7
100
AcDbCircle
 10
168.4678439999999
 20
89.01853199999971
 40
0.5
100
AcDbArc
 50
90.0
 51
180.0
  0
ARC
  5
1BA
100
AcDbEntity
  8
LC-004-002-RND-0
  6
CONTINUOUS
 62
             7
100
AcDbCircle
 10
187.4678439999999
 20
89.01853199999971
 40
0.5
100
AcDbArc
 50
0.0
 51
90.0
  0
ARC
  5
1B9
100
AcDbEntity
  8
LC-004-002-RND-0
  6
CONTINUOUS
 62
             7
100
AcDbCircle
 10
168.4678439999999
 20
82.01853199999971
 40
0.5
100
AcDbArc
 50
180.0
 51
-90.0
  0
ARC
  5
1B8
100
AcDbEntity
  8
LC-004-002-RND-0
  6
CONTINUOUS
 62
             7
100
AcDbCircle
 10
187.4678439999999
 20
82.01853199999971
 40
0.5
100
AcDbArc
 50
-90.0
 51
0.0
  0
ARC
  5
1B7
100
AcDbEntity
  8
LC-004-002-RND-0
  6
CONTINUOUS
 62
             7
100
AcDbCircle
 10
282.4678439999999
 20
74.01853199999971
 40
0.5
100
AcDbArc
 50
-90.0
 51
0.0
  0
ARC
  5
1B6
100
AcDbEntity
  8
LC-004-002-RND-0
  6
CONTINUOUS
 62
             7
100
AcDbCircle
 10
263.4678439999999
 20
74.01853199999971
 40
0.5
100
AcDbArc
 50
180.0
 51
-90.0
  0
ARC
  5
1B5
100
AcDbEntity
  8
LC-004-002-RND-0
  6
CONTINUOUS
 62
             7
100
AcDbCircle
 10
263.4678439999999
 20
81.01853199999971
 40
0.5
100
AcDbArc
 50
90.0
 51
180.0
  0
ARC
  5
1B4
100
AcDbEntity
  8
LC-004-002-RND-0
  6
CONTINUOUS
 62
             7
100
AcDbCircle
 10
282.4678439999999
 20
81.01853199999971
 40
0.5
100
AcDbArc
 50
0.0
 51
90.0
  0
ARC
  5
1B3
100
AcDbEntity
  8
LC-004-002-RND-0
  6
CONTINUOUS
 62
             7
100
AcDbCircle
 10
263.4678439999999
 20
89.01853199999971
 40
0.5
100
AcDbArc
 50
90.0
 51
180.0
  0
ARC
  5
1B2
100
AcDbEntity
  8
LC-004-002-RND-0
  6
CONTINUOUS
 62
             7
100
AcDbCircle
 10
282.4678439999999
 20
89.01853199999971
 40
0.5
100
AcDbArc
 50
0.0
 51
90.0
  0
ARC
  5
1B1
100
AcDbEntity
  8
LC-004-002-RND-0
  6
CONTINUOUS
 62
             7
100
AcDbCircle
 10
263.4678439999999
 20
82.01853199999971
 40
0.5
100
AcDbArc
 50
180.0
 51
-90.0
  0
ARC
  5
1B0
100
AcDbEntity
  8
LC-004-002-RND-0
  6
CONTINUOUS
 62
             7
100
AcDbCircle
 10
282.4678439999999
 20
82.01853199999971
 40
0.5
100
AcDbArc
 50
-90.0
 51
0.0
  0
ARC
  5
1AF
100
AcDbEntity
  8
LC-004-002-RND-0
  6
CONTINUOUS
 62
             7
100
AcDbCircle
 10
454.4678439999999
 20
51.01853199999971
 40
0.5
100
AcDbArc
 50
-90.0
 51
0.0
  0
ARC
  5
1AE
100
AcDbEntity
  8
LC-004-002-RND-0
  6
CONTINUOUS
 62
             7
100
AcDbCircle
 10
435.4678439999999
 20
51.01853199999971
 40
0.5
100
AcDbArc
 50
180.0
 51
-90.0
  0
ARC
  5
1AD
100
AcDbEntity
  8
LC-004-002-RND-0
  6
CONTINUOUS
 62
             7
100
AcDbCircle
 10
435.4678439999999
 20
58.01853199999971
 40
0.5
100
AcDbArc
 50
90.0
 51
180.0
  0
ARC
  5
1AC
100
AcDbEntity
  8
LC-004-002-RND-0
  6
CONTINUOUS
 62
             7
100
AcDbCircle
 10
454.4678439999999
 20
58.01853199999971
 40
0.5
100
AcDbArc
 50
0.0
 51
90.0
  0
ARC
  5
1AB
100
AcDbEntity
  8
LC-004-002-RND-0
  6
CONTINUOUS
 62
             7
100
AcDbCircle
 10
435.4678439999999
 20
66.01853199999971
 40
0.5
100
AcDbArc
 50
90.0
 51
180.0
  0
ARC
  5
1AA
100
AcDbEntity
  8
LC-004-002-RND-0
  6
CONTINUOUS
 62
             7
100
AcDbCircle
 10
454.4678439999999
 20
66.01853199999971
 40
0.5
100
AcDbArc
 50
0.0
 51
90.0
  0
ARC
  5
1A9
100
AcDbEntity
  8
LC-004-002-RND-0
  6
CONTINUOUS
 62
             7
100
AcDbCircle
 10
435.4678439999999
 20
59.01853199999971
 40
0.5
100
AcDbArc
 50
180.0
 51
-90.0
  0
ARC
  5
1A8
100
AcDbEntity
  8
LC-004-002-RND-0
  6
CONTINUOUS
 62
             7
100
AcDbCircle
 10
454.4678439999999
 20
59.01853199999971
 40
0.5
100
AcDbArc
 50
-90.0
 51
0.0
  0
ARC
  5
1A7
100
AcDbEntity
  8
LC-004-002-RND-0
  6
CONTINUOUS
 62
             7
100
AcDbCircle
 10
359.4678439999999
 20
51.01853199999971
 40
0.5
100
AcDbArc
 50
-90.0
 51
0.0
  0
ARC
  5
1A6
100
AcDbEntity
  8
LC-004-002-RND-0
  6
CONTINUOUS
 62
             7
100
AcDbCircle
 10
340.4678439999999
 20
51.01853199999971
 40
0.5
100
AcDbArc
 50
180.0
 51
-90.0
  0
ARC
  5
1A5
100
AcDbEntity
  8
LC-004-002-RND-0
  6
CONTINUOUS
 62
             7
100
AcDbCircle
 10
340.4678439999999
 20
58.01853199999971
 40
0.5
100
AcDbArc
 50
90.0
 51
180.0
  0
ARC
  5
1A4
100
AcDbEntity
  8
LC-004-002-RND-0
  6
CONTINUOUS
 62
             7
100
AcDbCircle
 10
359.4678439999999
 20
58.01853199999971
 40
0.5
100
AcDbArc
 50
0.0
 51
90.0
  0
ARC
  5
1A3
100
AcDbEntity
  8
LC-004-002-RND-0
  6
CONTINUOUS
 62
             7
100
AcDbCircle
 10
340.4678439999999
 20
66.01853199999971
 40
0.5
100
AcDbArc
 50
90.0
 51
180.0
  0
ARC
  5
1A2
100
AcDbEntity
  8
LC-004-002-RND-0
  6
CONTINUOUS
 62
             7
100
AcDbCircle
 10
359.4678439999999
 20
66.01853199999971
 40
0.5
100
AcDbArc
 50
0.0
 51
90.0
  0
ARC
  5
1A1
100
AcDbEntity
  8
LC-004-002-RND-0
  6
CONTINUOUS
 62
             7
100
AcDbCircle
 10
340.4678439999999
 20
59.01853199999971
 40
0.5
100
AcDbArc
 50
180.0
 51
-90.0
  0
ARC
  5
1A0
100
AcDbEntity
  8
LC-004-002-RND-0
  6
CONTINUOUS
 62
             7
100
AcDbCircle
 10
359.4678439999999
 20
59.01853199999971
 40
0.5
100
AcDbArc
 50
-90.0
 51
0.0
  0
ARC
  5
19F
100
AcDbEntity
  8
LC-002-002-----0
  6
CONTINUOUS
 62
             7
100
AcDbCircle
 10
345.4678439999999
 20
95.13518499999975
 40
2.0
100
AcDbArc
 50
0.0
 51
79.66010899999472
  0
ARC
  5
19E
100
AcDbEntity
  8
LC-002-002-----0
  6
CONTINUOUS
 62
             7
100
AcDbCircle
 10
345.4678439999999
 20
93.40187999999967
 40
2.00000000000026
100
AcDbArc
 50
-79.66005100000481
 51
0.0
  0
ARC
  5
19D
100
AcDbEntity
  8
LC-002-002-----0
  6
CONTINUOUS
 62
             7
100
AcDbCircle
 10
338.4678439999999
 20
56.76853199999971
 40
41.00000000000029
100
AcDbArc
 50
79.66010899999955
 51
100.33989100000053
  0
ARC
  5
19C
100
AcDbEntity
  8
LC-002-002-----0
  6
CONTINUOUS
 62
             7
100
AcDbCircle
 10
331.4678439999999
 20
95.13518499999975
 40
2.00000000000035
100
AcDbArc
 50
100.33987199998947
 51
180.0
  0
ARC
  5
19B
100
AcDbEntity
  8
LC-002-002-----0
  6
CONTINUOUS
 62
             7
100
AcDbCircle
 10
338.4678439999999
 20
131.76853199999971
 40
41.0000000000003
100
AcDbArc
 50
-100.33989100000053
 51
-79.66005099999941
  0
ARC
  5
19A
100
AcDbEntity
  8
LC-002-002-----0
  6
CONTINUOUS
 62
             7
100
AcDbCircle
 10
331.4678439999999
 20
93.40187999999967
 40
2.0
100
AcDbArc
 50
180.0
 51
-100.34004300000166
  0
ARC
  5
199
100
AcDbEntity
  8
LC-002-002-----0
  6
CONTINUOUS
 62
             7
100
AcDbCircle
 10
331.4678439999999
 20
95.29876399999967
 40
2.00000000000036
100
AcDbArc
 50
106.72678200000122
 51
180.0
  0
ARC
  5
198
100
AcDbEntity
  8
LC-002-002-----0
  6
CONTINUOUS
 62
             7
100
AcDbCircle
 10
331.4678439999999
 20
93.23830099999975
 40
2.0
100
AcDbArc
 50
180.0
 51
-106.72695299998433
  0
ARC
  5
197
100
AcDbEntity
  8
LC-002-002-----0
  6
CONTINUOUS
 62
             7
100
AcDbCircle
 10
361.46803699999992
 20
56.76869899999974
 40
40.99999999999988
100
AcDbArc
 50
79.6600720000005
 51
100.33983499999951
  0
ARC
  5
196
100
AcDbEntity
  8
LC-002-002-----0
  6
CONTINUOUS
 62
             7
100
AcDbCircle
 10
354.4680629999998
 20
95.13535499999966
 40
1.99999999999979
100
AcDbArc
 50
100.33983500000494
 51
179.99996299998716
  0
ARC
  5
195
100
AcDbEntity
  8
LC-002-002-----0
  6
CONTINUOUS
 62
             7
100
AcDbCircle
 10
354.46806099999981
 20
93.40205099999969
 40
2.00000000000042
100
AcDbArc
 50
179.9999629999904
 51
-100.34000500001338
  0
ARC
  5
194
100
AcDbEntity
  8
LC-002-002-----0
  6
CONTINUOUS
 62
             7
100
AcDbCircle
 10
361.46808599999991
 20
131.76869899999971
 40
40.99999999999976
100
AcDbArc
 50
-100.34008000000094
 51
-79.66014699999958
  0
ARC
  5
193
100
AcDbEntity
  8
LC-002-002-----0
  6
CONTINUOUS
 62
             7
100
AcDbCircle
 10
368.4680629999998
 20
95.13534599999969
 40
1.99999999999951
100
AcDbArc
 50
-0.00003700000959
 51
79.65999700000035
  0
ARC
  5
192
100
AcDbEntity
  8
LC-002-002-----0
  6
CONTINUOUS
 62
             7
100
AcDbCircle
 10
349.9678439999999
 20
33.73968599999967
 40
66.27884599999945
100
AcDbArc
 50
73.27319900000026
 51
106.72678199999964
  0
ARC
  5
191
100
AcDbEntity
  8
LC-002-002-----0
  6
CONTINUOUS
 62
             7
100
AcDbCircle
 10
368.4678439999999
 20
95.29876399999967
 40
2.0
100
AcDbArc
 50
0.0
 51
73.27319899999215
  0
ARC
  5
190
100
AcDbEntity
  8
LC-002-002-----0
  6
CONTINUOUS
 62
             7
100
AcDbCircle
 10
368.46806099999981
 20
93.40204199999971
 40
1.9999999999999
100
AcDbArc
 50
-79.66008799999447
 51
-0.00003700000959
  0
ARC
  5
18F
100
AcDbEntity
  8
LC-002-002-----0
  6
CONTINUOUS
 62
             7
100
AcDbCircle
 10
349.9678439999999
 20
154.79737899999981
 40
66.2788459999999
100
AcDbArc
 50
-106.72695300000019
 51
-73.27319900000026
  0
ARC
  5
18E
100
AcDbEntity
  8
LC-002-002-----0
  6
CONTINUOUS
 62
             7
100
AcDbCircle
 10
368.4678439999999
 20
93.23830099999975
 40
2.00000000000039
100
AcDbArc
 50
-73.27313999999731
 51
0.0
  0
ARC
  5
18D
100
AcDbEntity
  8
LC-002-002-----0
  6
CONTINUOUS
 62
             7
100
AcDbCircle
 10
348.4678439999999
 20
95.76853199999971
 40
1.0
100
AcDbArc
 50
90.0
 51
179.9998480000277
  0
ARC
  5
18C
100
AcDbEntity
  8
LC-002-002-----0
  6
CONTINUOUS
 62
             7
100
AcDbCircle
 10
348.4678439999999
 20
92.76853199999971
 40
0.99999999999954
100
AcDbArc
 50
179.9998480000277
 51
-90.0
  0
ARC
  5
18B
100
AcDbEntity
  8
LC-002-002-----0
  6
CONTINUOUS
 62
             7
100
AcDbCircle
 10
351.4678439999999
 20
95.76853199999971
 40
1.0
100
AcDbArc
 50
0.0
 51
90.0
  0
ARC
  5
18A
100
AcDbEntity
  8
LC-002-002-----0
  6
CONTINUOUS
 62
             7
100
AcDbCircle
 10
351.4678439999999
 20
92.76853199999971
 40
1.0
100
AcDbArc
 50
-90.0
 51
0.0
  0
LINE
  5
189
100
AcDbEntity
  8
LC-002-002-----0
  6
CONTINUOUS
 62
             7
100
AcDbLine
 10
138.9958389999999
 20
-112.1750000000003
 11
133.4958389999999
 21
-112.1750000000003
  0
LINE
  5
188
100
AcDbEntity
  8
LC-002-002-----0
  6
CONTINUOUS
 62
             7
100
AcDbLine
 10
138.9958389999999
 20
-112.1750000000003
 11
138.9958389999999
 21
-115.1750000000003
  0
LINE
  5
187
100
AcDbEntity
  8
LC-002-002-----0
  6
CONTINUOUS
 62
             7
100
AcDbLine
 10
193.9958389999999
 20
-124.6750000000003
 11
296.99583899999988
 21
-124.6750000000003
  0
LINE
  5
186
100
AcDbEntity
  8
LC-002-002-----0
  6
CONTINUOUS
 62
             7
100
AcDbLine
 10
296.99583899999988
 20
-124.6750000000003
 11
296.99583899999988
 21
-137.6750000000003
  0
LINE
  5
185
100
AcDbEntity
  8
LC-002-002-----0
  6
CONTINUOUS
 62
             7
100
AcDbLine
 10
296.99583899999988
 20
-137.6750000000003
 11
306.99583899999988
 21
-137.6750000000003
  0
LINE
  5
184
100
AcDbEntity
  8
LC-002-002-----0
  6
CONTINUOUS
 62
             7
100
AcDbLine
 10
306.99583899999988
 20
-137.6750000000003
 11
306.99583899999988
 21
-136.1750000000003
  0
LINE
  5
183
100
AcDbEntity
  8
LC-002-002-----0
  6
CONTINUOUS
 62
             7
100
AcDbLine
 10
0.0
 20
97.60499999999975
 11
0.0
 21
-104.94500000000041
  0
LINE
  5
182
100
AcDbEntity
  8
LC-002-002-----0
  6
CONTINUOUS
 62
             7
100
AcDbLine
 10
133.29583899999989
 20
-114.72500000000031
 11
122.9958389999999
 21
-114.72500000000031
  0
LINE
  5
181
100
AcDbEntity
  8
LC-002-002-----0
  6
CONTINUOUS
 62
             7
100
AcDbLine
 10
133.29583899999989
 20
-114.72500000000031
 11
133.29583899999989
 21
-112.97500000000031
  0
LINE
  5
180
100
AcDbEntity
  8
LC-002-002-----0
  6
CONTINUOUS
 62
             7
100
AcDbLine
 10
122.9958389999999
 20
-114.72500000000031
 11
122.9958389999999
 21
-104.8450000000003
  0
LINE
  5
17F
100
AcDbEntity
  8
LC-002-002-----0
  6
CONTINUOUS
 62
             7
100
AcDbLine
 10
5.75
 20
101.60499999999981
 11
0.0
 21
101.60499999999981
  0
LINE
  5
17E
100
AcDbEntity
  8
LC-002-002-----0
  6
CONTINUOUS
 62
             7
100
AcDbLine
 10
302.99583899999988
 20
60.3249999999997
 11
305.99583899999988
 21
60.3249999999997
  0
LINE
  5
17D
100
AcDbEntity
  8
LC-002-002-----0
  6
CONTINUOUS
 62
             7
100
AcDbLine
 10
133.29583899999989
 20
-112.1750000000003
 11
138.9958389999999
 21
-112.1750000000003
  0
LINE
  5
17C
100
AcDbEntity
  8
LC-002-002-----0
  6
CONTINUOUS
 62
             7
100
AcDbLine
 10
301.99583899999988
 20
61.3249999999997
 11
301.99583899999988
 21
81.51853199999971
  0
LINE
  5
17B
100
AcDbEntity
  8
LC-002-002-----0
  6
CONTINUOUS
 62
             7
100
AcDbLine
 10
0.0
 20
101.60499999999981
 11
0.0
 21
97.60499999999975
  0
LINE
  5
17A
100
AcDbEntity
  8
LC-002-002-----0
  6
CONTINUOUS
 62
             7
100
AcDbLine
 10
28.75
 20
105.6549999999997
 11
28.75
 21
102.60499999999981
  0
LINE
  5
179
100
AcDbEntity
  8
LC-002-002-----0
  6
CONTINUOUS
 62
             7
100
AcDbLine
 10
138.9958389999999
 20
-115.1750000000003
 11
193.9958389999999
 21
-124.6750000000003
  0
LINE
  5
178
100
AcDbEntity
  8
LC-002-002-----0
  6
CONTINUOUS
 62
             7
100
AcDbLine
 10
138.9958389999999
 20
75.8249999999997
 11
133.4958389999999
 21
75.8249999999997
  0
LINE
  5
177
100
AcDbEntity
  8
LC-002-002-----0
  6
CONTINUOUS
 62
             7
100
AcDbLine
 10
121.4958389999999
 20
62.10499999999975
 11
113.7676419999999
 21
62.10499999999975
  0
LINE
  5
176
100
AcDbEntity
  8
LC-002-002-----0
  6
CONTINUOUS
 62
             7
100
AcDbLine
 10
112.8534649999999
 20
62.69968699999977
 11
94.4958389999999
 21
101.60499999999971
  0
LINE
  5
175
100
AcDbEntity
  8
LC-002-002-----0
  6
CONTINUOUS
 62
             7
100
AcDbLine
 10
5.75
 20
105.6549999999997
 11
5.75
 21
101.60499999999981
  0
LINE
  5
174
100
AcDbEntity
  8
LC-002-002-----0
  6
CONTINUOUS
 62
             7
100
AcDbLine
 10
24.75
 20
109.6549999999997
 11
9.75
 21
109.6549999999997
  0
LINE
  5
173
100
AcDbEntity
  8
LC-002-002-----0
  6
CONTINUOUS
 62
             7
100
AcDbLine
 10
24.75
 20
-116.9950000000003
 11
9.75
 21
-116.9950000000003
  0
LINE
  5
172
100
AcDbEntity
  8
LC-002-002-----0
  6
CONTINUOUS
 62
             7
100
AcDbLine
 10
5.75
 20
-112.9950000000003
 11
5.75
 21
-108.94500000000031
  0
LINE
  5
171
100
AcDbEntity
  8
LC-002-002-----0
  6
CONTINUOUS
 62
             7
100
AcDbLine
 10
93.77133099999989
 20
-108.94500000000031
 11
29.75
 21
-108.94500000000031
  0
LINE
  5
170
100
AcDbEntity
  8
LC-002-002-----0
  6
CONTINUOUS
 62
             7
100
AcDbLine
 10
96.27011799999988
 20
-104.0334490000003
 11
94.72155999999988
 21
-108.2565500000003
  0
LINE
  5
16F
100
AcDbEntity
  8
LC-002-002-----0
  6
CONTINUOUS
 62
             7
100
AcDbLine
 10
121.4958389999999
 20
-103.3450000000003
 11
97.22034799999986
 21
-103.3450000000003
  0
LINE
  5
16E
100
AcDbEntity
  8
LC-002-002-----0
  6
CONTINUOUS
 62
             7
100
AcDbLine
 10
310.99583899999988
 20
-137.6750000000003
 11
310.99583899999988
 21
-138.1750000000003
  0
LINE
  5
16D
100
AcDbEntity
  8
LC-002-002-----0
  6
CONTINUOUS
 62
             7
100
AcDbLine
 10
365.99583899999982
 20
-147.6750000000003
 11
468.49554099999989
 21
-147.6750000000003
  0
LINE
  5
16C
100
AcDbEntity
  8
LC-002-002-----0
  6
CONTINUOUS
 62
             7
100
AcDbLine
 10
301.99583899999988
 20
81.51853199999971
 11
135.9678439999999
 21
81.51853199999971
  0
LINE
  5
16B
100
AcDbEntity
  8
LC-002-002-----0
  6
CONTINUOUS
 62
             7
100
AcDbLine
 10
468.99583899999982
 20
-160.6750000000003
 11
478.99583899999982
 21
-160.6750000000003
  0
LINE
  5
16A
100
AcDbEntity
  8
LC-002-002-----0
  6
CONTINUOUS
 62
             7
100
AcDbLine
 10
301.99583899999988
 20
81.51853199999971
 11
303.49583899999988
 21
81.51853199999971
  0
LINE
  5
169
100
AcDbEntity
  8
LC-002-002-----0
  6
CONTINUOUS
 62
             7
100
AcDbLine
 10
168.4678439999999
 20
95.51853199999971
 11
140.9678439999999
 21
95.51853199999971
  0
LINE
  5
168
100
AcDbEntity
  8
LC-002-002-----0
  6
CONTINUOUS
 62
             7
100
AcDbLine
 10
135.9678439999999
 20
81.51853199999971
 11
135.9678439999999
 21
90.51853199999971
  0
LINE
  5
167
100
AcDbEntity
  8
LC-002-002-----0
  6
CONTINUOUS
 62
             7
100
AcDbLine
 10
303.49583899999988
 20
81.51853199999971
 11
303.49583899999988
 21
90.51853199999971
  0
LINE
  5
166
100
AcDbEntity
  8
LC-002-002-----0
  6
CONTINUOUS
 62
             7
100
AcDbLine
 10
298.49584099999993
 20
95.51853199999971
 11
282.46804799999978
 21
95.51853199999971
  0
LINE
  5
165
100
AcDbEntity
  8
LC-002-002-----0
  6
CONTINUOUS
 62
             7
100
AcDbLine
 10
157.9678439999999
 20
95.51853199999971
 11
157.9678439999999
 21
100.01853199999969
  0
LINE
  5
164
100
AcDbEntity
  8
LC-002-002-----0
  6
CONTINUOUS
 62
             7
100
AcDbLine
 10
478.99583899999982
 20
-160.6750000000003
 11
478.99583899999982
 21
-159.1750000000003
  0
LINE
  5
163
100
AcDbEntity
  8
LC-002-002-----0
  6
CONTINUOUS
 62
             7
100
AcDbLine
 10
159.9678439999999
 20
102.01853199999969
 11
168.4678439999999
 21
102.01853199999969
  0
LINE
  5
162
100
AcDbEntity
  8
LC-002-002-----0
  6
DASHDOT
 62
             2
100
AcDbLine
 10
272.9678439999999
 20
81.51853199999971
 11
272.9678439999999
 21
123.01853199999969
  0
LINE
  5
161
100
AcDbEntity
  8
LC-002-002-----0
  6
CONTINUOUS
 62
             7
100
AcDbLine
 10
263.4678439999999
 20
89.51853199999971
 11
263.4678439999999
 21
112.2029009999998
  0
LINE
  5
160
100
AcDbEntity
  8
LC-002-002-----0
  6
CONTINUOUS
 62
             7
100
AcDbLine
 10
252.4678439999999
 20
116.23830099999979
 11
252.4678439999999
 21
118.29876399999969
  0
LINE
  5
15F
100
AcDbEntity
  8
LC-002-002-----0
  6
CONTINUOUS
 62
             7
100
AcDbLine
 10
282.46804399999991
 20
89.51853199999971
 11
282.46805899999993
 21
112.2030689999997
  0
LINE
  5
15E
100
AcDbEntity
  8
LC-002-002-----0
  6
CONTINUOUS
 62
             7
100
AcDbLine
 10
293.4678439999999
 20
116.23830099999979
 11
293.4678439999999
 21
118.29876399999969
  0
LINE
  5
15D
100
AcDbEntity
  8
LC-002-002-----0
  6
DASHDOT
 62
             2
100
AcDbLine
 10
177.9678439999999
 20
48.08585899999969
 11
177.9678439999999
 21
123.01853199999969
  0
LINE
  5
15C
100
AcDbEntity
  8
LC-002-002-----0
  6
CONTINUOUS
 62
             7
100
AcDbLine
 10
168.4678439999999
 20
89.51853899999969
 11
168.4678439999999
 21
112.2029009999998
  0
LINE
  5
15B
100
AcDbEntity
  8
LC-002-002-----0
  6
CONTINUOUS
 62
             7
100
AcDbLine
 10
157.4678439999999
 20
116.23830099999979
 11
157.4678439999999
 21
118.29876399999969
  0
LINE
  5
15A
100
AcDbEntity
  8
LC-002-002-----0
  6
CONTINUOUS
 62
             7
100
AcDbLine
 10
187.46804399999991
 20
89.51853199999971
 11
187.4680589999999
 21
112.2030689999997
  0
LINE
  5
159
100
AcDbEntity
  8
LC-002-002-----0
  6
CONTINUOUS
 62
             7
100
AcDbLine
 10
198.4678439999999
 20
116.23830099999979
 11
198.4678439999999
 21
118.29876399999969
  0
LINE
  5
158
100
AcDbEntity
  8
LC-002-002-----0
  6
CONTINUOUS
 62
             7
100
AcDbLine
 10
175.4678439999999
 20
118.76853199999969
 11
175.4678439999999
 21
115.76853199999969
  0
LINE
  5
157
100
AcDbEntity
  8
LC-002-002-----0
  6
CONTINUOUS
 62
             7
100
AcDbLine
 10
179.4678439999999
 20
119.76853199999969
 11
176.4678439999999
 21
119.76853199999969
  0
LINE
  5
156
100
AcDbEntity
  8
LC-002-002-----0
  6
CONTINUOUS
 62
             7
100
AcDbLine
 10
176.4678439999999
 20
114.76853199999969
 11
179.4678439999999
 21
114.76853199999969
  0
LINE
  5
155
100
AcDbEntity
  8
LC-002-002-----0
  6
CONTINUOUS
 62
             7
100
AcDbLine
 10
180.4678439999999
 20
115.76853199999969
 11
180.4678439999999
 21
118.76853199999969
  0
LINE
  5
154
100
AcDbEntity
  8
LC-002-002-----0
  6
CONTINUOUS
 62
             7
100
AcDbLine
 10
274.4678439999999
 20
119.76853199999969
 11
271.4678439999999
 21
119.76853199999969
  0
LINE
  5
153
100
AcDbEntity
  8
LC-002-002-----0
  6
CONTINUOUS
 62
             7
100
AcDbLine
 10
275.4678439999999
 20
115.76853199999969
 11
275.4678439999999
 21
118.76853199999969
  0
LINE
  5
152
100
AcDbEntity
  8
LC-002-002-----0
  6
CONTINUOUS
 62
             7
100
AcDbLine
 10
270.4678439999999
 20
118.76853199999969
 11
270.4678439999999
 21
115.76853199999969
  0
LINE
  5
151
100
AcDbEntity
  8
LC-002-002-----0
  6
CONTINUOUS
 62
             7
100
AcDbLine
 10
271.4678439999999
 20
114.76853199999969
 11
274.4678439999999
 21
114.76853199999969
  0
LINE
  5
150
100
AcDbEntity
  8
LC-002-002-----0
  6
CONTINUOUS
 62
             7
100
AcDbLine
 10
28.75
 20
-112.9950000000003
 11
28.75
 21
-109.94500000000031
  0
LINE
  5
14F
100
AcDbEntity
  8
LC-002-002-----0
  6
CONTINUOUS
 62
             7
100
AcDbLine
 10
0.0
 20
-108.94500000000031
 11
0.0
 21
-104.94500000000041
  0
LINE
  5
14E
100
AcDbEntity
  8
LC-002-002-----0
  6
CONTINUOUS
 62
             7
100
AcDbLine
 10
5.75
 20
-108.94500000000031
 11
0.0
 21
-108.94500000000031
  0
LINE
  5
14D
100
AcDbEntity
  8
LC-002-002-----0
  6
CONTINUOUS
 62
             7
100
AcDbLine
 10
94.4958389999999
 20
101.60499999999971
 11
29.74999999999999
 21
101.60499999999981
  0
LINE
  5
14C
100
AcDbEntity
  8
LC-002-002-----0
  6
CONTINUOUS
 62
             7
100
AcDbLine
 10
133.29583899999989
 20
79.0749999999997
 11
122.9958389999999
 21
79.0749999999997
  0
LINE
  5
14B
100
AcDbEntity
  8
LC-002-002-----0
  6
CONTINUOUS
 62
             7
100
AcDbLine
 10
133.29583899999989
 20
79.0749999999997
 11
133.29583899999989
 21
77.0749999999997
  0
LINE
  5
14A
100
AcDbEntity
  8
LC-002-002-----0
  6
CONTINUOUS
 62
             7
100
AcDbLine
 10
122.9958389999999
 20
79.0749999999997
 11
122.9958389999999
 21
63.60499999999975
  0
LINE
  5
149
100
AcDbEntity
  8
LC-002-002-----0
  6
CONTINUOUS
 62
             7
100
AcDbLine
 10
474.99583899999982
 20
37.3249999999997
 11
477.99583899999982
 21
37.3249999999997
  0
LINE
  5
148
100
AcDbEntity
  8
LC-002-002-----0
  6
CONTINUOUS
 62
             7
100
AcDbLine
 10
478.99583899999982
 20
36.3249999999997
 11
478.99583899999982
 21
31.37924799999973
  0
LINE
  5
147
100
AcDbEntity
  8
LC-002-002-----0
  6
CONTINUOUS
 62
             7
100
AcDbLine
 10
473.99583899999982
 20
38.3249999999997
 11
473.99583899999982
 21
58.51853199999971
  0
LINE
  5
146
100
AcDbEntity
  8
LC-002-002-----0
  6
CONTINUOUS
 62
             7
100
AcDbLine
 10
310.99583899999988
 20
-138.1750000000003
 11
365.99583899999982
 21
-147.6750000000003
  0
LINE
  5
145
100
AcDbEntity
  8
LC-002-002-----0
  6
DASHDOT
 62
             2
100
AcDbLine
 10
499.69722399999989
 20
-64.17526200000032
 11
467.99583899999982
 21
-64.17492500000026
  0
LINE
  5
144
100
AcDbEntity
  8
LC-002-002-----0
  6
CONTINUOUS
 62
             7
100
AcDbLine
 10
491.99572899999993
 20
29.3248199999997
 11
491.99562899999989
 21
21.8248199999997
  0
LINE
  5
143
100
AcDbEntity
  8
LC-002-002-----0
  6
CONTINUOUS
 62
             7
100
AcDbLine
 10
491.99551999999977
 20
-160.6750000000003
 11
491.995586
 21
-146.1762040000003
  0
LINE
  5
142
100
AcDbEntity
  8
LC-002-002-----0
  6
CONTINUOUS
 62
             7
100
AcDbLine
 10
478.49633499999982
 20
29.32496299999968
 11
491.99572899999993
 21
29.3248199999997
  0
LINE
  5
141
100
AcDbEntity
  8
LC-002-002-----0
  6
CONTINUOUS
 62
             7
100
AcDbLine
 10
491.995586
 20
-146.1762040000003
 11
491.99561299999982
 21
-143.6762040000003
  0
LINE
  5
140
100
AcDbEntity
  8
LC-002-002-----0
  6
CONTINUOUS
 62
             7
100
AcDbLine
 10
491.99562899999989
 20
21.8248199999997
 11
491.99559699999992
 21
18.8248199999997
  0
LINE
  5
13F
100
AcDbEntity
  8
LC-002-002-----0
  6
CONTINUOUS
 62
             7
100
AcDbLine
 10
491.99559699999992
 20
18.8248199999997
 11
495.99559699999992
 21
18.8247779999997
  0
LINE
  5
13E
100
AcDbEntity
  8
LC-008-001-----0
  6
CONTINUOUS
 62
             7
100
AcDbLine
 10
491.99561299999982
 20
-143.6762040000003
 11
607.49615993449879
 21
-143.6771860000004
  0
LINE
  5
13D
100
AcDbEntity
  8
LC-008-001-----0
  6
CONTINUOUS
 62
             7
100
AcDbLine
 10
517.64603899999986
 20
56.32352399999968
 11
607.49828193449878
 21
56.32281399999982
  0
LINE
  5
13C
100
AcDbEntity
  8
LC-002-002-----0
  6
CONTINUOUS
 62
             7
100
AcDbLine
 10
614.99618093449885
 20
-141.66764700000019
 11
614.99826093449872
 21
54.31311499999968
  0
LINE
  5
13B
100
AcDbEntity
  8
LC-002-002-----0
  6
CONTINUOUS
 62
             7
100
AcDbLine
 10
495.99559699999992
 20
18.8247779999997
 11
517.64603899999986
 21
56.32352399999968
  0
LINE
  5
13A
100
AcDbEntity
  8
LC-002-002-----0
  6
CONTINUOUS
 62
             7
100
AcDbLine
 10
319.99579499999987
 20
58.51853199999971
 11
475.49583899999982
 21
58.51853199999971
  0
LINE
  5
139
100
AcDbEntity
  8
LC-002-002-----0
  6
DASHDOT
 62
             2
100
AcDbLine
 10
341.18069899999989
 20
170.82740299999969
 11
341.18069899999989
 21
79.01853199999971
  0
LINE
  5
138
100
AcDbEntity
  8
LC-002-002-----0
  6
CONTINUOUS
 62
             7
100
AcDbLine
 10
333.68069899999989
 20
81.61775699999976
 11
340.4678439999999
 21
81.61775699999976
  0
LINE
  5
137
100
AcDbEntity
  8
LC-002-002-----0
  6
CONTINUOUS
 62
             7
100
AcDbLine
 10
309.99572899999993
 20
60.3249999999997
 11
309.99572899999993
 21
67.51853199999971
  0
LINE
  5
136
100
AcDbEntity
  8
LC-002-002-----0
  6
CONTINUOUS
 62
             7
100
AcDbLine
 10
475.49583899999982
 20
58.51853199999971
 11
475.49583899999982
 21
67.51853199999971
  0
LINE
  5
135
100
AcDbEntity
  8
LC-002-002-----0
  6
CONTINUOUS
 62
             7
100
AcDbLine
 10
470.49584099999981
 20
72.51853199999971
 11
454.46804799999978
 21
72.51853199999971
  0
LINE
  5
134
100
AcDbEntity
  8
LC-002-002-----0
  6
CONTINUOUS
 62
             7
100
AcDbLine
 10
329.9678439999999
 20
72.51853199999971
 11
329.9678439999999
 21
77.01853199999971
  0
LINE
  5
133
100
AcDbEntity
  8
LC-002-002-----0
  6
CONTINUOUS
 62
             7
100
AcDbLine
 10
331.9678439999999
 20
79.01853199999971
 11
340.4678439999999
 21
79.01853199999971
  0
LINE
  5
132
100
AcDbEntity
  8
LC-002-002-----0
  6
DASHDOT
 62
             2
100
AcDbLine
 10
444.9678439999999
 20
25.08585899999969
 11
444.9678439999999
 21
100.01853199999969
  0
LINE
  5
131
100
AcDbEntity
  8
LC-002-002-----0
  6
CONTINUOUS
 62
             7
100
AcDbLine
 10
435.4678439999999
 20
66.51853899999969
 11
435.4678439999999
 21
89.20290099999977
  0
LINE
  5
130
100
AcDbEntity
  8
LC-002-002-----0
  6
CONTINUOUS
 62
             7
100
AcDbLine
 10
424.4678439999999
 20
93.23830099999975
 11
424.4678439999999
 21
95.29876399999967
  0
LINE
  5
12F
100
AcDbEntity
  8
LC-002-002-----0
  6
CONTINUOUS
 62
             7
100
AcDbLine
 10
454.46804399999991
 20
66.51853199999971
 11
454.46805899999981
 21
89.20306899999969
  0
LINE
  5
12E
100
AcDbEntity
  8
LC-002-002-----0
  6
CONTINUOUS
 62
             7
100
AcDbLine
 10
465.4678439999999
 20
93.23830099999975
 11
465.4678439999999
 21
95.29876399999967
  0
LINE
  5
12D
100
AcDbEntity
  8
LC-002-002-----0
  6
CONTINUOUS
 62
             7
100
AcDbLine
 10
337.18069899999989
 20
168.82740299999969
 11
337.18069899999989
 21
170.82740299999969
  0
LINE
  5
12C
100
AcDbEntity
  8
LC-002-002-----0
  6
CONTINUOUS
 62
             7
100
AcDbLine
 10
345.18069899999989
 20
168.82740299999969
 11
345.18069899999989
 21
170.9321589999997
  0
LINE
  5
12B
100
AcDbEntity
  8
LC-002-002-----0
  6
CONTINUOUS
 62
             7
100
AcDbLine
 10
446.4678439999999
 20
96.76853199999971
 11
443.4678439999999
 21
96.76853199999971
  0
LINE
  5
12A
100
AcDbEntity
  8
LC-002-002-----0
  6
CONTINUOUS
 62
             7
100
AcDbLine
 10
447.4678439999999
 20
92.76853199999971
 11
447.4678439999999
 21
95.76853199999971
  0
LINE
  5
129
100
AcDbEntity
  8
LC-002-002-----0
  6
CONTINUOUS
 62
             7
100
AcDbLine
 10
442.4678439999999
 20
95.76853199999971
 11
442.4678439999999
 21
92.76853199999971
  0
LINE
  5
128
100
AcDbEntity
  8
LC-002-002-----0
  6
CONTINUOUS
 62
             7
100
AcDbLine
 10
443.4678439999999
 20
91.76853199999971
 11
446.4678439999999
 21
91.76853199999971
  0
LINE
  5
127
100
AcDbEntity
  8
LC-002-002-----0
  6
CONTINUOUS
 62
             7
100
AcDbLine
 10
607.49828193449878
 20
56.32281399999982
 11
614.99826093449872
 21
54.31311499999968
  0
LINE
  5
126
100
AcDbEntity
  8
LC-002-002-----0
  6
CONTINUOUS
 62
             7
100
AcDbLine
 10
345.18069899999989
 20
170.82740299999969
 11
337.18069899999989
 21
170.82740299999969
  0
LINE
  5
125
100
AcDbEntity
  8
LC-002-002-----0
  6
CONTINUOUS
 62
             7
100
AcDbLine
 10
347.68069899999989
 20
168.82740299999969
 11
333.68069899999989
 21
168.82740299999969
  0
LINE
  5
124
100
AcDbEntity
  8
LC-002-002-----0
  6
CONTINUOUS
 62
             7
100
AcDbLine
 10
333.68069899999989
 20
168.82740299999969
 11
333.68069899999989
 21
97.98619899999972
  0
LINE
  5
123
100
AcDbEntity
  8
LC-002-002-----0
  6
CONTINUOUS
 62
             7
100
AcDbLine
 10
347.68069899999989
 20
170.82740299999969
 11
345.18069899999989
 21
170.82740299999969
  0
LINE
  5
122
100
AcDbEntity
  8
LC-002-002-----0
  6
CONTINUOUS
 62
             7
100
AcDbLine
 10
326.18069899999989
 20
189.32740299999969
 11
344.68069899999989
 21
189.32740299999969
  0
LINE
  5
121
100
AcDbEntity
  8
LC-002-002-----0
  6
CONTINUOUS
 62
             7
100
AcDbLine
 10
335.18069899999989
 20
170.82740299999969
 11
337.18069899999989
 21
170.82740299999969
  0
LINE
  5
120
100
AcDbEntity
  8
LC-002-002-----0
  6
CONTINUOUS
 62
             7
100
AcDbLine
 10
333.18069899999989
 20
168.82740299999969
 11
333.18069899999989
 21
153.82740299999969
  0
LINE
  5
11F
100
AcDbEntity
  8
LC-002-002-----0
  6
CONTINUOUS
 62
             7
100
AcDbLine
 10
331.18069899999989
 20
151.82740299999969
 11
325.18069899999989
 21
151.82740299999969
  0
LINE
  5
11E
100
AcDbEntity
  8
LC-002-002-----0
  6
CONTINUOUS
 62
             7
100
AcDbLine
 10
323.18069899999989
 20
153.82740299999969
 11
323.18069899999989
 21
186.32740299999969
  0
LINE
  5
11D
100
AcDbEntity
  8
LC-002-002-----0
  6
CONTINUOUS
 62
             7
100
AcDbLine
 10
352.18069899999989
 20
171.7293269999997
 11
353.18069899999989
 21
169.9972759999998
  0
LINE
  5
11C
100
AcDbEntity
  8
LC-002-002-----0
  6
CONTINUOUS
 62
             7
100
AcDbLine
 10
347.68069899999989
 20
174.32740299999969
 11
347.68069899999989
 21
170.82740299999969
  0
LINE
  5
11B
100
AcDbEntity
  8
LC-002-002-----0
  6
DASHDOT
 62
             2
100
AcDbLine
 10
350.68070099999989
 20
177.32740299999969
 11
350.68070099999989
 21
171.82740299999969
  0
LINE
  5
11A
100
AcDbEntity
  8
LC-002-002-----0
  6
DASHDOT
 62
             2
100
AcDbLine
 10
347.68069899999989
 20
174.32740299999969
 11
353.68069899999989
 21
174.32740299999969
  0
LINE
  5
119
100
AcDbEntity
  8
LC-002-002-----0
  6
CONTINUOUS
 62
             7
100
AcDbLine
 10
347.68069899999989
 20
186.32740299999969
 11
347.68069899999989
 21
182.32740299999969
  0
LINE
  5
118
100
AcDbEntity
  8
LC-002-002-----0
  6
CONTINUOUS
 62
             7
100
AcDbLine
 10
350.68069899999989
 20
179.32740299999969
 11
350.68069899999989
 21
179.32740299999969
  0
LINE
  5
117
100
AcDbEntity
  8
LC-002-002-----0
  6
CONTINUOUS
 62
             7
100
AcDbLine
 10
347.68069899999989
 20
99.97905799999967
 11
347.68069899999989
 21
168.82740299999969
  0
LINE
  5
116
100
AcDbEntity
  8
LC-002-002-----0
  6
CONTINUOUS
 62
             7
100
AcDbLine
 10
337.18069899999989
 20
79.01853199999971
 11
337.18069899999989
 21
81.61775699999976
  0
LINE
  5
115
100
AcDbEntity
  8
LC-002-002-----0
  6
CONTINUOUS
 62
             7
100
AcDbLine
 10
607.49615993449879
 20
-143.6771860000004
 11
614.99618093449885
 21
-141.66764700000019
  0
LINE
  5
114
100
AcDbEntity
  8
LC-002-002-----0
  6
CONTINUOUS
 62
             7
100
AcDbLine
 10
5.75
 20
101.60499999999981
 11
5.75
 21
-108.94500000000031
  0
LINE
  5
113
100
AcDbEntity
  8
LC-002-002-----0
  6
CONTINUOUS
 62
             7
100
AcDbLine
 10
28.75
 20
102.60499999999981
 11
28.75
 21
-109.94500000000031
  0
LINE
  5
112
100
AcDbEntity
  8
LC-002-002-----0
  6
CONTINUOUS
 62
             7
100
AcDbLine
 10
113.22234999999991
 20
62.26675399999972
 11
97.22034799999986
 21
-103.3450000000003
  0
LINE
  5
111
100
AcDbEntity
  8
LC-002-002-----0
  6
DASHDOT
 62
             2
100
AcDbLine
 10
123.2958389999999
 20
48.0749999999997
 11
153.29583899999989
 21
48.0749999999997
  0
LINE
  5
110
100
AcDbEntity
  8
LC-010-201-----0
  6
CONTINUOUS
 62
             7
100
AcDbLine
 10
122.9958389999999
 20
55.3249999999997
 11
118.9958389999999
 21
55.3249999999997
  0
LINE
  5
10F
100
AcDbEntity
  8
LC-010-201-----0
  6
CONTINUOUS
 62
             7
100
AcDbLine
 10
122.9958389999999
 20
51.8249999999997
 11
118.9958389999999
 21
51.8249999999997
  0
LINE
  5
10E
100
AcDbEntity
  8
LC-010-201-----0
  6
CONTINUOUS
 62
             7
100
AcDbLine
 10
122.9958389999999
 20
44.3249999999997
 11
118.9958389999999
 21
44.3249999999997
  0
LINE
  5
10D
100
AcDbEntity
  8
LC-010-201-----0
  6
CONTINUOUS
 62
             7
100
AcDbLine
 10
122.9946849999999
 20
40.8235159999997
 11
118.9958389999999
 21
40.82353699999976
  0
LINE
  5
10C
100
AcDbEntity
  8
LC-010-201-----0
  6
CONTINUOUS
 62
             7
100
AcDbLine
 10
117.9958389999999
 20
42.57426899999973
 11
117.9958389999999
 21
53.5749999999997
  0
LINE
  5
10B
100
AcDbEntity
  8
LC-008-001-----0
  6
DASHED
 62
             2
100
AcDbLine
 10
151.79577099999989
 20
52.0749999999997
 11
122.9958389999999
 21
52.0749999999997
  0
LINE
  5
10A
100
AcDbEntity
  8
LC-008-001-----0
  6
DASHED
 62
             2
100
AcDbLine
 10
122.9958389999999
 20
44.0749999999997
 11
151.7957659999999
 21
44.0749999999997
  0
LINE
  5
109
100
AcDbEntity
  8
LC-010-201-----0
  6
CONTINUOUS
 62
             7
100
AcDbLine
 10
146.79577299999991
 20
55.3251829999997
 11
150.79577299999991
 21
55.3251809999997
  0
LINE
  5
108
100
AcDbEntity
  8
LC-010-201-----0
  6
CONTINUOUS
 62
             7
100
AcDbLine
 10
146.79577099999989
 20
51.8251829999997
 11
150.79577099999989
 21
51.8251809999997
  0
LINE
  5
107
100
AcDbEntity
  8
LC-010-201-----0
  6
CONTINUOUS
 62
             7
100
AcDbLine
 10
146.7957659999999
 20
44.3251829999997
 11
150.7957659999999
 21
44.3251809999997
  0
LINE
  5
106
100
AcDbEntity
  8
LC-010-201-----0
  6
CONTINUOUS
 62
             7
100
AcDbLine
 10
146.79691799999989
 20
40.8236979999997
 11
150.79576399999991
 21
40.82371699999976
  0
LINE
  5
105
100
AcDbEntity
  8
LC-010-201-----0
  6
CONTINUOUS
 62
             7
100
AcDbLine
 10
151.7957649999999
 20
42.57444799999973
 11
151.79577199999989
 21
53.57517999999971
  0
LINE
  5
104
100
AcDbEntity
  8
LC-002-002-----0
  6
DASHED
 62
             2
100
AcDbLine
 10
152.4831309999999
 20
44.0749999999997
 11
151.7957659999999
 21
44.0749999999997
  0
LINE
  5
103
100
AcDbEntity
  8
LC-002-002-----0
  6
DASHED
 62
             2
100
AcDbLine
 10
151.79577099999989
 20
52.0749999999997
 11
152.4831309999999
 21
52.0749999999997
  0
LINE
  5
102
100
AcDbEntity
  8
LC-010-201-----0
  6
CONTINUOUS
 62
             7
100
AcDbLine
 10
152.4831309999999
 20
44.0749999999997
 11
152.4831309999999
 21
52.0749999999997
  0
LINE
  5
101
100
AcDbEntity
  8
LC-010-201-----0
  6
CONTINUOUS
 62
             7
100
AcDbLine
 10
153.2956309999999
 20
51.3249999999997
 11
152.4831309999999
 21
52.0749999999997
  0
LINE
  5
100
100
AcDbEntity
  8
LC-010-201-----0
  6
CONTINUOUS
 62
             7
100
AcDbLine
 10
153.2956309999999
 20
44.8249999999997
 11
153.2956309999999
 21
51.3249999999997
  0
LINE
  5
FF
100
AcDbEntity
  8
LC-010-201-----0
  6
CONTINUOUS
 62
             7
100
AcDbLine
 10
152.4831309999999
 20
44.0749999999997
 11
153.2956309999999
 21
44.8249999999997
  0
LINE
  5
FE
100
AcDbEntity
  8
LC-010-201-----0
  6
CONTINUOUS
 62
             7
100
AcDbLine
 10
146.79583899999989
 20
79.0749999999997
 11
146.79583899999989
 21
-114.72500000000031
  0
LINE
  5
FD
100
AcDbEntity
  8
LC-002-002-----0
  6
CONTINUOUS
 62
             7
100
AcDbLine
 10
146.79583899999989
 20
79.0749999999997
 11
138.9958389999999
 21
79.0749999999997
  0
LINE
  5
FC
100
AcDbEntity
  8
LC-002-002-----0
  6
CONTINUOUS
 62
             7
100
AcDbLine
 10
138.9958389999999
 20
81.51853199999971
 11
138.9958389999999
 21
-112.1750000000003
  0
LINE
  5
FB
100
AcDbEntity
  8
LC-002-002-----0
  6
CONTINUOUS
 62
             7
100
AcDbLine
 10
133.29583899999989
 20
79.0749999999997
 11
133.29583899999989
 21
-113.85000000000031
  0
LINE
  5
FA
100
AcDbEntity
  8
LC-002-002-----0
  6
CONTINUOUS
 62
             7
100
AcDbLine
 10
122.9958389999999
 20
79.0749999999997
 11
122.9958389999999
 21
-104.8450000000003
  0
LINE
  5
F9
100
AcDbEntity
  8
LC-002-002-----0
  6
DASHDOT
 62
             2
100
AcDbLine
 10
123.2958389999999
 20
-83.72500000000025
 11
153.29583899999989
 21
-83.72500000000025
  0
LINE
  5
F8
100
AcDbEntity
  8
LC-010-201-----0
  6
CONTINUOUS
 62
             7
100
AcDbLine
 10
122.9958389999999
 20
-90.97500000000025
 11
118.9958389999999
 21
-90.97500000000025
  0
LINE
  5
F7
100
AcDbEntity
  8
LC-010-201-----0
  6
CONTINUOUS
 62
             7
100
AcDbLine
 10
122.9958389999999
 20
-87.47500000000025
 11
118.9958389999999
 21
-87.47500000000025
  0
LINE
  5
F6
100
AcDbEntity
  8
LC-010-201-----0
  6
CONTINUOUS
 62
             7
100
AcDbLine
 10
122.9958389999999
 20
-79.97500000000025
 11
118.9958389999999
 21
-79.97500000000025
  0
LINE
  5
F5
100
AcDbEntity
  8
LC-010-201-----0
  6
CONTINUOUS
 62
             7
100
AcDbLine
 10
122.9946849999999
 20
-76.47351500000025
 11
118.9958389999999
 21
-76.47353600000031
  0
LINE
  5
F4
100
AcDbEntity
  8
LC-010-201-----0
  6
CONTINUOUS
 62
             7
100
AcDbLine
 10
117.9958389999999
 20
-78.22426800000028
 11
117.9958389999999
 21
-89.22500000000025
  0
LINE
  5
F3
100
AcDbEntity
  8
LC-008-001-----0
  6
DASHED
 62
             2
100
AcDbLine
 10
151.79577099999989
 20
-87.72500000000025
 11
122.9958389999999
 21
-87.72500000000025
  0
LINE
  5
F2
100
AcDbEntity
  8
LC-008-001-----0
  6
DASHED
 62
             2
100
AcDbLine
 10
122.9958389999999
 20
-79.72500000000025
 11
151.7957659999999
 21
-79.72500000000025
  0
LINE
  5
F1
100
AcDbEntity
  8
LC-010-201-----0
  6
CONTINUOUS
 62
             7
100
AcDbLine
 10
146.79577299999991
 20
-90.97518200000025
 11
150.79577299999991
 21
-90.97518000000025
  0
LINE
  5
F0
100
AcDbEntity
  8
LC-010-201-----0
  6
CONTINUOUS
 62
             7
100
AcDbLine
 10
146.79577099999989
 20
-87.47518200000025
 11
150.79577099999989
 21
-87.47518000000025
  0
LINE
  5
EF
100
AcDbEntity
  8
LC-010-201-----0
  6
CONTINUOUS
 62
             7
100
AcDbLine
 10
146.7957659999999
 20
-79.97518200000025
 11
150.7957659999999
 21
-79.97518000000025
  0
LINE
  5
EE
100
AcDbEntity
  8
LC-010-201-----0
  6
CONTINUOUS
 62
             7
100
AcDbLine
 10
146.79691799999989
 20
-76.47369800000024
 11
150.79576399999991
 21
-76.47371600000031
  0
LINE
  5
ED
100
AcDbEntity
  8
LC-010-201-----0
  6
CONTINUOUS
 62
             7
100
AcDbLine
 10
151.7957649999999
 20
-78.22444700000028
 11
151.79577199999989
 21
-89.22517900000025
  0
LINE
  5
EC
100
AcDbEntity
  8
LC-002-002-----0
  6
DASHED
 62
             2
100
AcDbLine
 10
152.4831309999999
 20
-79.72500000000025
 11
151.7957659999999
 21
-79.72500000000025
  0
LINE
  5
EB
100
AcDbEntity
  8
LC-002-002-----0
  6
DASHED
 62
             2
100
AcDbLine
 10
151.79577099999989
 20
-87.72500000000025
 11
152.4831309999999
 21
-87.72500000000025
  0
LINE
  5
EA
100
AcDbEntity
  8
LC-010-201-----0
  6
CONTINUOUS
 62
             7
100
AcDbLine
 10
152.4831309999999
 20
-79.72500000000025
 11
152.4831309999999
 21
-87.72500000000025
  0
LINE
  5
E9
100
AcDbEntity
  8
LC-010-201-----0
  6
CONTINUOUS
 62
             7
100
AcDbLine
 10
153.2956309999999
 20
-86.97500000000025
 11
152.4831309999999
 21
-87.72500000000025
  0
LINE
  5
E8
100
AcDbEntity
  8
LC-010-201-----0
  6
CONTINUOUS
 62
             7
100
AcDbLine
 10
153.2956309999999
 20
-80.47500000000025
 11
153.2956309999999
 21
-86.97500000000025
  0
LINE
  5
E7
100
AcDbEntity
  8
LC-010-201-----0
  6
CONTINUOUS
 62
             7
100
AcDbLine
 10
152.4831309999999
 20
-79.72500000000025
 11
153.2956309999999
 21
-80.47500000000025
  0
LINE
  5
E6
100
AcDbEntity
  8
LC-002-002-----0
  6
CONTINUOUS
 62
             7
100
AcDbLine
 10
146.79583899999989
 20
-114.72500000000031
 11
138.9958389999999
 21
-114.72500000000031
  0
LINE
  5
E5
100
AcDbEntity
  8
LC-002-002-----0
  6
DASHDOT
 62
             2
100
AcDbLine
 10
296.49572899999993
 20
24.3248199999997
 11
321.49572899999993
 21
24.3248199999997
  0
LINE
  5
E4
100
AcDbEntity
  8
LC-010-201-----0
  6
CONTINUOUS
 62
             7
100
AcDbLine
 10
296.49554099999989
 20
31.5748199999997
 11
292.49554099999989
 21
31.5748199999997
  0
LINE
  5
E3
100
AcDbEntity
  8
LC-010-201-----0
  6
CONTINUOUS
 62
             7
100
AcDbLine
 10
291.49554099999989
 20
18.82408799999973
 11
291.49554099999989
 21
29.8248199999997
  0
LINE
  5
E2
100
AcDbEntity
  8
LC-010-201-----0
  6
CONTINUOUS
 62
             7
100
AcDbLine
 10
296.49554099999989
 20
28.0748199999997
 11
292.49554099999989
 21
28.0748199999997
  0
LINE
  5
E1
100
AcDbEntity
  8
LC-010-201-----0
  6
CONTINUOUS
 62
             7
100
AcDbLine
 10
296.49554099999989
 20
20.5748199999997
 11
292.49554099999989
 21
20.5748199999997
  0
LINE
  5
E0
100
AcDbEntity
  8
LC-010-201-----0
  6
CONTINUOUS
 62
             7
100
AcDbLine
 10
296.4943869999999
 20
17.0733349999997
 11
292.49554099999989
 21
17.07335599999976
  0
LINE
  5
DF
100
AcDbEntity
  8
LC-008-001-----0
  6
DASHED
 62
             2
100
AcDbLine
 10
324.99568099999988
 20
28.3248199999997
 11
296.49554599999988
 21
28.3248199999997
  0
LINE
  5
DE
100
AcDbEntity
  8
LC-008-001-----0
  6
DASHED
 62
             2
100
AcDbLine
 10
296.4955369999999
 20
20.3248199999997
 11
324.99567599999989
 21
20.3248199999997
  0
LINE
  5
DD
100
AcDbEntity
  8
LC-010-201-----0
  6
CONTINUOUS
 62
             7
100
AcDbLine
 10
319.99568299999987
 20
31.5750029999997
 11
323.99568299999987
 21
31.5749999999997
  0
LINE
  5
DC
100
AcDbEntity
  8
LC-010-201-----0
  6
CONTINUOUS
 62
             7
100
AcDbLine
 10
319.99568099999988
 20
28.0750029999997
 11
323.99568099999988
 21
28.0749999999997
  0
LINE
  5
DB
100
AcDbEntity
  8
LC-010-201-----0
  6
CONTINUOUS
 62
             7
100
AcDbLine
 10
319.99567599999989
 20
20.5750029999997
 11
323.99567599999989
 21
20.5749999999997
  0
LINE
  5
DA
100
AcDbEntity
  8
LC-010-201-----0
  6
CONTINUOUS
 62
             7
100
AcDbLine
 10
319.99682799999988
 20
17.07351799999969
 11
323.99567399999989
 21
17.07353699999976
  0
LINE
  5
D9
100
AcDbEntity
  8
LC-010-201-----0
  6
CONTINUOUS
 62
             7
100
AcDbLine
 10
324.99567499999989
 20
18.82426799999973
 11
324.99568199999987
 21
29.8249999999997
  0
LINE
  5
D8
100
AcDbEntity
  8
LC-002-002-----0
  6
DASHED
 62
             2
100
AcDbLine
 10
324.99568099999988
 20
28.3248199999997
 11
325.68304099999989
 21
28.3248199999997
  0
LINE
  5
D7
100
AcDbEntity
  8
LC-010-201-----0
  6
CONTINUOUS
 62
             7
100
AcDbLine
 10
325.68304099999989
 20
20.3248199999997
 11
325.68304099999989
 21
28.3248199999997
  0
LINE
  5
D6
100
AcDbEntity
  8
LC-010-201-----0
  6
CONTINUOUS
 62
             7
100
AcDbLine
 10
326.49554099999989
 20
21.0748199999997
 11
326.49554099999989
 21
27.5748199999997
  0
LINE
  5
D5
100
AcDbEntity
  8
LC-010-201-----0
  6
CONTINUOUS
 62
             7
100
AcDbLine
 10
326.49554099999989
 20
27.5748199999997
 11
325.68304099999989
 21
28.3248199999997
  0
LINE
  5
D4
100
AcDbEntity
  8
LC-010-201-----0
  6
CONTINUOUS
 62
             7
100
AcDbLine
 10
325.68304099999989
 20
20.3248199999997
 11
326.49554099999989
 21
21.0748199999997
  0
LINE
  5
D3
100
AcDbEntity
  8
LC-002-002-----0
  6
DASHED
 62
             2
100
AcDbLine
 10
325.68304099999989
 20
20.3248199999997
 11
324.99567599999989
 21
20.3248199999997
  0
LINE
  5
D2
100
AcDbEntity
  8
LC-002-002-----0
  6
CONTINUOUS
 62
             7
100
AcDbLine
 10
296.49554099999989
 20
60.3249999999997
 11
302.99583899999988
 21
60.3249999999997
  0
LINE
  5
D1
100
AcDbEntity
  8
LC-002-002-----0
  6
CONTINUOUS
 62
             7
100
AcDbLine
 10
296.49554099999989
 20
-124.6750000000003
 11
296.49554099999989
 21
60.3249999999997
  0
LINE
  5
D0
100
AcDbEntity
  8
LC-002-002-----0
  6
CONTINUOUS
 62
             7
100
AcDbLine
 10
306.99583899999988
 20
52.3249579999997
 11
309.99572899999993
 21
52.32492599999966
  0
LINE
  5
CF
100
AcDbEntity
  8
LC-002-002-----0
  6
CONTINUOUS
 62
             7
100
AcDbLine
 10
306.99583899999988
 20
59.3249999999997
 11
306.99583899999988
 21
-136.1750000000003
  0
LINE
  5
CE
100
AcDbEntity
  8
LC-010-201-----0
  6
CONTINUOUS
 62
             7
100
AcDbLine
 10
309.99572899999993
 20
60.3249999999997
 11
309.99572899999993
 21
-137.6750000000003
  0
LINE
  5
CD
100
AcDbEntity
  8
LC-002-002-----0
  6
CONTINUOUS
 62
             7
100
AcDbLine
 10
309.99572899999993
 20
60.3249999999997
 11
319.99572899999993
 21
60.3249999999997
  0
LINE
  5
CC
100
AcDbEntity
  8
LC-002-002-----0
  6
CONTINUOUS
 62
             7
100
AcDbLine
 10
319.99581399999988
 20
60.3249999999997
 11
319.99371299999979
 21
-137.6750000000003
  0
LINE
  5
CB
100
AcDbEntity
  8
LC-002-002-----0
  6
DASHDOT
 62
             2
100
AcDbLine
 10
296.49572899999993
 20
-105.6759720000002
 11
321.49572899999993
 21
-105.6759720000002
  0
LINE
  5
CA
100
AcDbEntity
  8
LC-010-201-----0
  6
CONTINUOUS
 62
             7
100
AcDbLine
 10
296.49554099999989
 20
-112.9259720000002
 11
292.49554099999989
 21
-112.9259720000002
  0
LINE
  5
C9
100
AcDbEntity
  8
LC-010-201-----0
  6
CONTINUOUS
 62
             7
100
AcDbLine
 10
291.49554099999989
 20
-100.1752400000003
 11
291.49554099999989
 21
-111.1759720000002
  0
LINE
  5
C8
100
AcDbEntity
  8
LC-010-201-----0
  6
CONTINUOUS
 62
             7
100
AcDbLine
 10
296.49554099999989
 20
-109.4259720000002
 11
292.49554099999989
 21
-109.4259720000002
  0
LINE
  5
C7
100
AcDbEntity
  8
LC-010-201-----0
  6
CONTINUOUS
 62
             7
100
AcDbLine
 10
296.49554099999989
 20
-101.9259720000002
 11
292.49554099999989
 21
-101.9259720000002
  0
LINE
  5
C6
100
AcDbEntity
  8
LC-010-201-----0
  6
CONTINUOUS
 62
             7
100
AcDbLine
 10
296.4943869999999
 20
-98.42448700000034
 11
292.49554099999989
 21
-98.42450900000029
  0
LINE
  5
C5
100
AcDbEntity
  8
LC-008-001-----0
  6
DASHED
 62
             2
100
AcDbLine
 10
324.99568099999988
 20
-109.6759720000002
 11
296.49554599999988
 21
-109.6759720000002
  0
LINE
  5
C4
100
AcDbEntity
  8
LC-008-001-----0
  6
DASHED
 62
             2
100
AcDbLine
 10
296.4955369999999
 20
-101.6759720000002
 11
324.99567599999989
 21
-101.6759720000002
  0
LINE
  5
C3
100
AcDbEntity
  8
LC-010-201-----0
  6
CONTINUOUS
 62
             7
100
AcDbLine
 10
319.99568299999987
 20
-112.92615500000031
 11
323.99568299999987
 21
-112.9261520000002
  0
LINE
  5
C2
100
AcDbEntity
  8
LC-010-201-----0
  6
CONTINUOUS
 62
             7
100
AcDbLine
 10
319.99568099999988
 20
-109.42615500000031
 11
323.99568099999988
 21
-109.4261520000002
  0
LINE
  5
C1
100
AcDbEntity
  8
LC-010-201-----0
  6
CONTINUOUS
 62
             7
100
AcDbLine
 10
319.99567599999989
 20
-101.92615500000031
 11
323.99567599999989
 21
-101.9261520000002
  0
LINE
  5
C0
100
AcDbEntity
  8
LC-010-201-----0
  6
CONTINUOUS
 62
             7
100
AcDbLine
 10
319.99682799999988
 20
-98.42467000000033
 11
323.99567399999989
 21
-98.42468900000029
  0
LINE
  5
BF
100
AcDbEntity
  8
LC-010-201-----0
  6
CONTINUOUS
 62
             7
100
AcDbLine
 10
324.99567499999989
 20
-100.1754200000003
 11
324.99568199999987
 21
-111.1761520000002
  0
LINE
  5
BE
100
AcDbEntity
  8
LC-002-002-----0
  6
DASHED
 62
             2
100
AcDbLine
 10
324.99568099999988
 20
-109.6759720000002
 11
325.68304099999989
 21
-109.6759720000002
  0
LINE
  5
BD
100
AcDbEntity
  8
LC-010-201-----0
  6
CONTINUOUS
 62
             7
100
AcDbLine
 10
325.68304099999989
 20
-101.6759720000002
 11
325.68304099999989
 21
-109.6759720000002
  0
LINE
  5
BC
100
AcDbEntity
  8
LC-010-201-----0
  6
CONTINUOUS
 62
             7
100
AcDbLine
 10
326.49554099999989
 20
-102.4259720000002
 11
326.49554099999989
 21
-108.9259720000002
  0
LINE
  5
BB
100
AcDbEntity
  8
LC-010-201-----0
  6
CONTINUOUS
 62
             7
100
AcDbLine
 10
326.49554099999989
 20
-108.9259720000002
 11
325.68304099999989
 21
-109.6759720000002
  0
LINE
  5
BA
100
AcDbEntity
  8
LC-010-201-----0
  6
CONTINUOUS
 62
             7
100
AcDbLine
 10
325.68304099999989
 20
-101.6759720000002
 11
326.49554099999989
 21
-102.4259720000002
  0
LINE
  5
B9
100
AcDbEntity
  8
LC-002-002-----0
  6
DASHED
 62
             2
100
AcDbLine
 10
325.68304099999989
 20
-101.6759720000002
 11
324.99567599999989
 21
-101.6759720000002
  0
LINE
  5
B8
100
AcDbEntity
  8
LC-002-002-----0
  6
CONTINUOUS
 62
             7
100
AcDbLine
 10
309.99572899999993
 20
-137.6750000000003
 11
319.99546899999979
 21
-137.6750000000003
  0
LINE
  5
B7
100
AcDbEntity
  8
LC-002-002-----0
  6
CONTINUOUS
 62
             7
100
AcDbLine
 10
306.99583899999988
 20
-124.6750000000003
 11
309.99572899999993
 21
-124.6750000000003
  0
LINE
  5
B6
100
AcDbEntity
  8
LC-002-002-----0
  6
DASHDOT
 62
             2
100
AcDbLine
 10
468.49572899999993
 20
-128.6759720000002
 11
493.49572899999993
 21
-128.6759720000002
  0
LINE
  5
B5
100
AcDbEntity
  8
LC-010-201-----0
  6
CONTINUOUS
 62
             7
100
AcDbLine
 10
468.49554099999989
 20
-135.9259720000002
 11
464.49554099999989
 21
-135.9259720000002
  0
LINE
  5
B4
100
AcDbEntity
  8
LC-010-201-----0
  6
CONTINUOUS
 62
             7
100
AcDbLine
 10
463.49554099999989
 20
-123.1752400000003
 11
463.49554099999989
 21
-134.1759720000002
  0
LINE
  5
B3
100
AcDbEntity
  8
LC-010-201-----0
  6
CONTINUOUS
 62
             7
100
AcDbLine
 10
468.49554099999989
 20
-132.4259720000002
 11
464.49554099999989
 21
-132.4259720000002
  0
LINE
  5
B2
100
AcDbEntity
  8
LC-010-201-----0
  6
CONTINUOUS
 62
             7
100
AcDbLine
 10
468.49554099999989
 20
-124.9259720000002
 11
464.49554099999989
 21
-124.9259720000002
  0
LINE
  5
B1
100
AcDbEntity
  8
LC-010-201-----0
  6
CONTINUOUS
 62
             7
100
AcDbLine
 10
468.4943869999999
 20
-121.4244870000003
 11
464.49554099999989
 21
-121.4245090000003
  0
LINE
  5
B0
100
AcDbEntity
  8
LC-008-001-----0
  6
DASHED
 62
             2
100
AcDbLine
 10
496.99568099999988
 20
-132.6759720000002
 11
468.49554599999988
 21
-132.6759720000002
  0
LINE
  5
AF
100
AcDbEntity
  8
LC-008-001-----0
  6
DASHED
 62
             2
100
AcDbLine
 10
468.4955369999999
 20
-124.6759720000002
 11
496.99567599999989
 21
-124.6759720000002
  0
LINE
  5
AE
100
AcDbEntity
  8
LC-010-201-----0
  6
CONTINUOUS
 62
             7
100
AcDbLine
 10
491.99568299999987
 20
-135.92615500000031
 11
495.99568299999987
 21
-135.9261520000002
  0
LINE
  5
AD
100
AcDbEntity
  8
LC-010-201-----0
  6
CONTINUOUS
 62
             7
100
AcDbLine
 10
491.99568099999988
 20
-132.42615500000031
 11
495.99568099999988
 21
-132.4261520000002
  0
LINE
  5
AC
100
AcDbEntity
  8
LC-010-201-----0
  6
CONTINUOUS
 62
             7
100
AcDbLine
 10
491.99567599999989
 20
-124.92615500000031
 11
495.99567599999989
 21
-124.9261520000002
  0
LINE
  5
AB
100
AcDbEntity
  8
LC-010-201-----0
  6
CONTINUOUS
 62
             7
100
AcDbLine
 10
491.99682799999982
 20
-121.4246700000003
 11
495.99567399999989
 21
-121.4246890000003
  0
LINE
  5
AA
100
AcDbEntity
  8
LC-010-201-----0
  6
CONTINUOUS
 62
             7
100
AcDbLine
 10
496.99567499999989
 20
-123.1754200000003
 11
496.99568199999987
 21
-134.1761520000002
  0
LINE
  5
A9
100
AcDbEntity
  8
LC-002-002-----0
  6
DASHED
 62
             2
100
AcDbLine
 10
496.99568099999988
 20
-132.6759720000002
 11
497.68304099999989
 21
-132.6759720000002
  0
LINE
  5
A8
100
AcDbEntity
  8
LC-010-201-----0
  6
CONTINUOUS
 62
             7
100
AcDbLine
 10
497.68304099999989
 20
-124.6759720000002
 11
497.68304099999989
 21
-132.6759720000002
  0
LINE
  5
A7
100
AcDbEntity
  8
LC-010-201-----0
  6
CONTINUOUS
 62
             7
100
AcDbLine
 10
498.49554099999989
 20
-125.4259720000002
 11
498.49554099999989
 21
-131.9259720000002
  0
LINE
  5
A6
100
AcDbEntity
  8
LC-010-201-----0
  6
CONTINUOUS
 62
             7
100
AcDbLine
 10
498.49554099999989
 20
-131.9259720000002
 11
497.68304099999989
 21
-132.6759720000002
  0
LINE
  5
A5
100
AcDbEntity
  8
LC-010-201-----0
  6
CONTINUOUS
 62
             7
100
AcDbLine
 10
497.68304099999989
 20
-124.6759720000002
 11
498.49554099999989
 21
-125.4259720000002
  0
LINE
  5
A4
100
AcDbEntity
  8
LC-002-002-----0
  6
DASHED
 62
             2
100
AcDbLine
 10
497.68304099999989
 20
-124.6759720000002
 11
496.99567599999989
 21
-124.6759720000002
  0
LINE
  5
A3
100
AcDbEntity
  8
LC-002-002-----0
  6
CONTINUOUS
 62
             7
100
AcDbLine
 10
517.64603899999986
 20
56.32352399999968
 11
495.10592599999978
 21
-121.4246850000003
  0
LINE
  5
A2
100
AcDbEntity
  8
LC-002-002-----0
  6
CONTINUOUS
 62
             7
100
AcDbLine
 10
495.43557199999992
 20
-5.92646600000023
 11
492.5925669999998
 21
-121.4246730000003
  0
LINE
  5
A1
100
AcDbEntity
  8
LC-002-002-----0
  6
CONTINUOUS
 62
             7
100
AcDbLine
 10
468.49554099999989
 20
-160.6750000000003
 11
478.99583899999982
 21
-160.6750000000003
  0
LINE
  5
A0
100
AcDbEntity
  8
LC-002-002-----0
  6
CONTINUOUS
 62
             7
100
AcDbLine
 10
481.99572899999993
 20
-160.6750000000003
 11
491.99546899999979
 21
-160.6750000000003
  0
LINE
  5
9F
100
AcDbEntity
  8
LC-010-201-----0
  6
CONTINUOUS
 62
             7
100
AcDbLine
 10
481.99572899999993
 20
37.3249999999997
 11
481.99572899999993
 21
-160.6750000000003
  0
LINE
  5
9E
100
AcDbEntity
  8
LC-002-002-----0
  6
CONTINUOUS
 62
             7
100
AcDbLine
 10
478.99583899999982
 20
36.3249999999997
 11
478.99583899999982
 21
-159.1750000000003
  0
LINE
  5
9D
100
AcDbEntity
  8
LC-002-002-----0
  6
CONTINUOUS
 62
             7
100
AcDbLine
 10
478.99583899999982
 20
-147.6750000000003
 11
481.99572899999993
 21
-147.6750000000003
  0
LINE
  5
9C
100
AcDbEntity
  8
LC-002-002-----0
  6
CONTINUOUS
 62
             7
100
AcDbLine
 10
474.99583899999982
 20
37.3249999999997
 11
477.99583899999982
 21
37.3249999999997
  0
LINE
  5
9B
100
AcDbEntity
  8
LC-002-002-----0
  6
CONTINUOUS
 62
             7
100
AcDbLine
 10
478.99583899999982
 20
29.3249579999997
 11
481.99572899999993
 21
29.32492599999966
  0
LINE
  5
9A
100
AcDbEntity
  8
LC-002-002-----0
  6
CONTINUOUS
 62
             7
100
AcDbLine
 10
468.49554099999989
 20
37.3249999999997
 11
474.99583899999982
 21
37.3249999999997
  0
LINE
  5
99
100
AcDbEntity
  8
LC-002-002-----0
  6
CONTINUOUS
 62
             7
100
AcDbLine
 10
476.49583899999982
 20
37.3249999999997
 11
477.99583899999982
 21
37.3249999999997
  0
LINE
  5
98
100
AcDbEntity
  8
LC-002-002-----0
  6
CONTINUOUS
 62
             7
100
AcDbLine
 10
481.99572899999993
 20
37.3249999999997
 11
491.99572899999993
 21
37.3249999999997
  0
LINE
  5
97
100
AcDbEntity
  8
LC-002-002-----0
  6
DASHDOT
 62
             2
100
AcDbLine
 10
468.49572899999993
 20
1.3248199999997
 11
493.49572899999993
 21
1.3248199999997
  0
LINE
  5
96
100
AcDbEntity
  8
LC-010-201-----0
  6
CONTINUOUS
 62
             7
100
AcDbLine
 10
468.49554099999989
 20
8.5748199999997
 11
464.49554099999989
 21
8.5748199999997
  0
LINE
  5
95
100
AcDbEntity
  8
LC-010-201-----0
  6
CONTINUOUS
 62
             7
100
AcDbLine
 10
463.49554099999989
 20
-4.17591200000027
 11
463.49554099999989
 21
6.8248199999997
  0
LINE
  5
94
100
AcDbEntity
  8
LC-010-201-----0
  6
CONTINUOUS
 62
             7
100
AcDbLine
 10
468.49554099999989
 20
5.0748199999997
 11
464.49554099999989
 21
5.0748199999997
  0
LINE
  5
93
100
AcDbEntity
  8
LC-010-201-----0
  6
CONTINUOUS
 62
             7
100
AcDbLine
 10
468.49554099999989
 20
-2.4251800000003
 11
464.49554099999989
 21
-2.4251800000003
  0
LINE
  5
92
100
AcDbEntity
  8
LC-010-201-----0
  6
CONTINUOUS
 62
             7
100
AcDbLine
 10
468.4943869999999
 20
-5.9266650000003
 11
464.49554099999989
 21
-5.92664400000024
  0
LINE
  5
91
100
AcDbEntity
  8
LC-008-001-----0
  6
DASHED
 62
             2
100
AcDbLine
 10
496.99568099999988
 20
5.3248199999997
 11
468.49554599999988
 21
5.3248199999997
  0
LINE
  5
90
100
AcDbEntity
  8
LC-008-001-----0
  6
DASHED
 62
             2
100
AcDbLine
 10
468.4955369999999
 20
-2.6751800000003
 11
496.99567599999989
 21
-2.6751800000003
  0
LINE
  5
8F
100
AcDbEntity
  8
LC-010-201-----0
  6
CONTINUOUS
 62
             7
100
AcDbLine
 10
491.99568299999987
 20
8.5750029999997
 11
495.99568299999987
 21
8.5749999999997
  0
LINE
  5
8E
100
AcDbEntity
  8
LC-010-201-----0
  6
CONTINUOUS
 62
             7
100
AcDbLine
 10
491.99568099999988
 20
5.0750029999997
 11
495.99568099999988
 21
5.0749999999997
  0
LINE
  5
8D
100
AcDbEntity
  8
LC-010-201-----0
  6
CONTINUOUS
 62
             7
100
AcDbLine
 10
491.99567599999989
 20
-2.4249970000003
 11
495.99567599999989
 21
-2.4250000000003
  0
LINE
  5
8C
100
AcDbEntity
  8
LC-010-201-----0
  6
CONTINUOUS
 62
             7
100
AcDbLine
 10
491.99682799999982
 20
-5.92648200000031
 11
495.99567399999989
 21
-5.92646300000024
  0
LINE
  5
8B
100
AcDbEntity
  8
LC-010-201-----0
  6
CONTINUOUS
 62
             7
100
AcDbLine
 10
496.99567499999989
 20
-4.17573200000027
 11
496.99568199999987
 21
6.8249999999997
  0
LINE
  5
8A
100
AcDbEntity
  8
LC-002-002-----0
  6
DASHED
 62
             2
100
AcDbLine
 10
496.99568099999988
 20
5.3248199999997
 11
497.68304099999989
 21
5.3248199999997
  0
LINE
  5
89
100
AcDbEntity
  8
LC-010-201-----0
  6
CONTINUOUS
 62
             7
100
AcDbLine
 10
497.68304099999989
 20
-2.6751800000003
 11
497.68304099999989
 21
5.3248199999997
  0
LINE
  5
88
100
AcDbEntity
  8
LC-010-201-----0
  6
CONTINUOUS
 62
             7
100
AcDbLine
 10
498.49554099999989
 20
-1.9251800000003
 11
498.49554099999989
 21
4.5748199999997
  0
LINE
  5
87
100
AcDbEntity
  8
LC-010-201-----0
  6
CONTINUOUS
 62
             7
100
AcDbLine
 10
498.49554099999989
 20
4.5748199999997
 11
497.68304099999989
 21
5.3248199999997
  0
LINE
  5
86
100
AcDbEntity
  8
LC-010-201-----0
  6
CONTINUOUS
 62
             7
100
AcDbLine
 10
497.68304099999989
 20
-2.6751800000003
 11
498.49554099999989
 21
-1.9251800000003
  0
LINE
  5
85
100
AcDbEntity
  8
LC-002-002-----0
  6
DASHED
 62
             2
100
AcDbLine
 10
497.68304099999989
 20
-2.6751800000003
 11
496.99567599999989
 21
-2.6751800000003
  0
LINE
  5
84
100
AcDbEntity
  8
LC-002-002-----0
  6
CONTINUOUS
 62
             7
100
AcDbLine
 10
495.99559699999992
 20
18.8247779999997
 11
495.79252699999978
 21
8.5749999999997
  0
LINE
  5
83
100
AcDbEntity
  8
LC-002-002-----0
  6
CONTINUOUS
 62
             7
100
AcDbLine
 10
491.99581399999988
 20
37.3249999999997
 11
491.99385899999987
 21
-144.9262040000003
  0
LINE
  5
82
100
AcDbEntity
  8
LC-002-002-----0
  6
CONTINUOUS
 62
             7
100
AcDbLine
 10
492.23561099999978
 20
-135.92615500000031
 11
491.99561299999982
 21
-143.6762040000003
  0
LINE
  5
81
100
AcDbEntity
  8
LC-002-002-----0
  6
CONTINUOUS
 62
             7
100
AcDbLine
 10
493.2460789999999
 20
-135.9261540000002
 11
491.99561299999982
 21
-143.6762040000003
  0
LINE
  5
80
100
AcDbEntity
  8
LC-002-002-----0
  6
CONTINUOUS
 62
             7
100
AcDbLine
 10
468.49554099999989
 20
-160.6750000000003
 11
468.49554099999989
 21
37.3249999999997
  0
LINE
  5
7F
100
AcDbEntity
  8
LC-002-002-----0
  6
CONTINUOUS
 62
             7
100
AcDbLine
 10
94.4958389999999
 20
101.60499999999971
 11
94.4958389999999
 21
-108.94500000000041
  0
LINE
  5
7E
100
AcDbEntity
  8
LC-002-002-----0
  6
CONTINUOUS
 62
             7
100
AcDbLine
 10
607.49828193449878
 20
56.32281399999982
 11
607.49828193449878
 21
-142.67241600000031
  0
LINE
  5
7D
100
AcDbEntity
  8
LC-002-002-----0
  6
CONTINUOUS
 62
             7
100
AcDbLine
 10
168.52702699999989
 20
89.51853199999971
 11
187.52723099999989
 21
89.51853199999971
  0
LINE
  5
7C
100
AcDbEntity
  8
LC-002-002-----0
  6
CONTINUOUS
 62
             7
100
AcDbLine
 10
187.52723099999989
 20
89.51853199999971
 11
168.52702699999989
 21
89.51853199999971
  0
LINE
  5
7B
100
AcDbEntity
  8
LC-002-002-----0
  6
CONTINUOUS
 62
             7
100
AcDbLine
 10
168.4678439999999
 20
73.51853199999971
 11
187.4678439999999
 21
73.51853199999971
  0
LINE
  5
7A
100
AcDbEntity
  8
LC-002-002-----0
  6
CONTINUOUS
 62
             7
100
AcDbLine
 10
167.9678439999999
 20
81.01853199999971
 11
167.9678439999999
 21
74.01853199999971
  0
LINE
  5
79
100
AcDbEntity
  8
LC-002-002-----0
  6
CONTINUOUS
 62
             7
100
AcDbLine
 10
187.9678439999999
 20
74.01853199999971
 11
187.9678439999999
 21
81.01853199999971
  0
LINE
  5
78
100
AcDbEntity
  8
LC-002-002-----0
  6
CONTINUOUS
 62
             7
100
AcDbLine
 10
168.46816799999991
 20
89.51853899999969
 11
187.4678439999999
 21
89.51852599999972
  0
LINE
  5
77
100
AcDbEntity
  8
LC-002-002-----0
  6
CONTINUOUS
 62
             7
100
AcDbLine
 10
168.4678439999999
 20
89.51853199999971
 11
187.4678439999999
 21
89.51853199999971
  0
LINE
  5
76
100
AcDbEntity
  8
LC-002-002-----0
  6
CONTINUOUS
 62
             7
100
AcDbLine
 10
187.9678439999999
 20
82.01853199999971
 11
187.9678439999999
 21
89.01853199999971
  0
LINE
  5
75
100
AcDbEntity
  8
LC-002-002-----0
  6
CONTINUOUS
 62
             7
100
AcDbLine
 10
167.9678439999999
 20
82.01853199999971
 11
167.9678439999999
 21
89.01853199999971
  0
LINE
  5
74
100
AcDbEntity
  8
LC-002-002-----0
  6
CONTINUOUS
 62
             7
100
AcDbLine
 10
176.46430299999989
 20
73.51853199999971
 11
176.46430299999989
 21
48.08585899999969
  0
LINE
  5
73
100
AcDbEntity
  8
LC-002-002-----0
  6
CONTINUOUS
 62
             7
100
AcDbLine
 10
179.46430299999989
 20
73.51853199999971
 11
179.46430299999989
 21
48.08585899999969
  0
LINE
  5
72
100
AcDbEntity
  8
LC-002-002-----0
  6
CONTINUOUS
 62
             7
100
AcDbLine
 10
176.46430299999989
 20
48.08585899999969
 11
179.46430299999989
 21
48.08585899999969
  0
LINE
  5
71
100
AcDbEntity
  8
LC-002-002-----0
  6
CONTINUOUS
 62
             7
100
AcDbLine
 10
263.52702699999992
 20
89.51853199999971
 11
282.52723099999992
 21
89.51853199999971
  0
LINE
  5
70
100
AcDbEntity
  8
LC-002-002-----0
  6
CONTINUOUS
 62
             7
100
AcDbLine
 10
282.52723099999992
 20
89.51853199999971
 11
263.52702699999992
 21
89.51853199999971
  0
LINE
  5
6F
100
AcDbEntity
  8
LC-002-002-----0
  6
CONTINUOUS
 62
             7
100
AcDbLine
 10
271.46430299999992
 20
73.51853199999971
 11
271.46430299999992
 21
48.08585899999969
  0
LINE
  5
6E
100
AcDbEntity
  8
LC-002-002-----0
  6
CONTINUOUS
 62
             7
100
AcDbLine
 10
263.4678439999999
 20
73.51853199999971
 11
282.4678439999999
 21
73.51853199999971
  0
LINE
  5
6D
100
AcDbEntity
  8
LC-002-002-----0
  6
CONTINUOUS
 62
             7
100
AcDbLine
 10
262.9678439999999
 20
81.01853199999971
 11
262.9678439999999
 21
74.01853199999971
  0
LINE
  5
6C
100
AcDbEntity
  8
LC-002-002-----0
  6
CONTINUOUS
 62
             7
100
AcDbLine
 10
282.9678439999999
 20
74.01853199999971
 11
282.9678439999999
 21
81.01853199999971
  0
LINE
  5
6B
100
AcDbEntity
  8
LC-002-002-----0
  6
CONTINUOUS
 62
             7
100
AcDbLine
 10
263.46816799999988
 20
89.51853899999969
 11
282.4678439999999
 21
89.51852599999972
  0
LINE
  5
6A
100
AcDbEntity
  8
LC-002-002-----0
  6
CONTINUOUS
 62
             7
100
AcDbLine
 10
274.46430299999992
 20
73.51853199999971
 11
274.46430299999992
 21
48.08585899999969
  0
LINE
  5
69
100
AcDbEntity
  8
LC-002-002-----0
  6
CONTINUOUS
 62
             7
100
AcDbLine
 10
271.46430299999992
 20
48.08585899999969
 11
274.46430299999992
 21
48.08585899999969
  0
LINE
  5
68
100
AcDbEntity
  8
LC-002-002-----0
  6
CONTINUOUS
 62
             7
100
AcDbLine
 10
263.4678439999999
 20
89.51853199999971
 11
282.4678439999999
 21
89.51853199999971
  0
LINE
  5
67
100
AcDbEntity
  8
LC-002-002-----0
  6
CONTINUOUS
 62
             7
100
AcDbLine
 10
282.9678439999999
 20
82.01853199999971
 11
282.9678439999999
 21
89.01853199999971
  0
LINE
  5
66
100
AcDbEntity
  8
LC-002-002-----0
  6
CONTINUOUS
 62
             7
100
AcDbLine
 10
262.9678439999999
 20
82.01853199999971
 11
262.9678439999999
 21
89.01853199999971
  0
LINE
  5
65
100
AcDbEntity
  8
LC-002-002-----0
  6
CONTINUOUS
 62
             7
100
AcDbLine
 10
263.4678439999999
 20
95.51853199999971
 11
187.4680479999999
 21
95.51853199999971
  0
LINE
  5
64
100
AcDbEntity
  8
LC-002-002-----0
  6
CONTINUOUS
 62
             7
100
AcDbLine
 10
435.52702699999992
 20
66.51853199999971
 11
454.52723099999992
 21
66.51853199999971
  0
LINE
  5
63
100
AcDbEntity
  8
LC-002-002-----0
  6
CONTINUOUS
 62
             7
100
AcDbLine
 10
454.52723099999992
 20
66.51853199999971
 11
435.52702699999992
 21
66.51853199999971
  0
LINE
  5
62
100
AcDbEntity
  8
LC-002-002-----0
  6
CONTINUOUS
 62
             7
100
AcDbLine
 10
443.46430299999992
 20
50.51853199999971
 11
443.46430299999992
 21
25.08585899999969
  0
LINE
  5
61
100
AcDbEntity
  8
LC-002-002-----0
  6
CONTINUOUS
 62
             7
100
AcDbLine
 10
435.4678439999999
 20
50.51853199999971
 11
454.4678439999999
 21
50.51853199999971
  0
LINE
  5
60
100
AcDbEntity
  8
LC-002-002-----0
  6
CONTINUOUS
 62
             7
100
AcDbLine
 10
434.9678439999999
 20
58.01853199999971
 11
434.9678439999999
 21
51.01853199999971
  0
LINE
  5
5F
100
AcDbEntity
  8
LC-002-002-----0
  6
CONTINUOUS
 62
             7
100
AcDbLine
 10
454.9678439999999
 20
51.01853199999971
 11
454.9678439999999
 21
58.01853199999971
  0
LINE
  5
5E
100
AcDbEntity
  8
LC-002-002-----0
  6
CONTINUOUS
 62
             7
100
AcDbLine
 10
435.46816799999988
 20
66.51853899999969
 11
454.4678439999999
 21
66.51852599999972
  0
LINE
  5
5D
100
AcDbEntity
  8
LC-002-002-----0
  6
CONTINUOUS
 62
             7
100
AcDbLine
 10
446.46430299999992
 20
50.51853199999971
 11
446.46430299999992
 21
25.08585899999969
  0
LINE
  5
5C
100
AcDbEntity
  8
LC-002-002-----0
  6
CONTINUOUS
 62
             7
100
AcDbLine
 10
443.46430299999992
 20
25.08585899999969
 11
446.46430299999992
 21
25.08585899999969
  0
LINE
  5
5B
100
AcDbEntity
  8
LC-002-002-----0
  6
CONTINUOUS
 62
             7
100
AcDbLine
 10
435.4678439999999
 20
66.51853199999971
 11
454.4678439999999
 21
66.51853199999971
  0
LINE
  5
5A
100
AcDbEntity
  8
LC-002-002-----0
  6
CONTINUOUS
 62
             7
100
AcDbLine
 10
454.9678439999999
 20
59.01853199999971
 11
454.9678439999999
 21
66.01853199999971
  0
LINE
  5
59
100
AcDbEntity
  8
LC-002-002-----0
  6
CONTINUOUS
 62
             7
100
AcDbLine
 10
434.9678439999999
 20
59.01853199999971
 11
434.9678439999999
 21
66.01853199999971
  0
LINE
  5
58
100
AcDbEntity
  8
LC-002-002-----0
  6
CONTINUOUS
 62
             7
100
AcDbLine
 10
340.52702699999992
 20
66.51853199999971
 11
359.52723099999992
 21
66.51853199999971
  0
LINE
  5
57
100
AcDbEntity
  8
LC-002-002-----0
  6
CONTINUOUS
 62
             7
100
AcDbLine
 10
359.52723099999992
 20
66.51853199999971
 11
340.52702699999992
 21
66.51853199999971
  0
LINE
  5
56
100
AcDbEntity
  8
LC-002-002-----0
  6
CONTINUOUS
 62
             7
100
AcDbLine
 10
340.4678439999999
 20
50.51853199999971
 11
359.4678439999999
 21
50.51853199999971
  0
LINE
  5
55
100
AcDbEntity
  8
LC-002-002-----0
  6
CONTINUOUS
 62
             7
100
AcDbLine
 10
339.9678439999999
 20
58.01853199999971
 11
339.9678439999999
 21
51.01853199999971
  0
LINE
  5
54
100
AcDbEntity
  8
LC-002-002-----0
  6
CONTINUOUS
 62
             7
100
AcDbLine
 10
359.9678439999999
 20
51.01853199999971
 11
359.9678439999999
 21
58.01853199999971
  0
LINE
  5
53
100
AcDbEntity
  8
LC-002-002-----0
  6
CONTINUOUS
 62
             7
100
AcDbLine
 10
340.46816799999988
 20
66.51853899999969
 11
359.4678439999999
 21
66.51852599999972
  0
LINE
  5
52
100
AcDbEntity
  8
LC-002-002-----0
  6
CONTINUOUS
 62
             7
100
AcDbLine
 10
340.4678439999999
 20
66.51853199999971
 11
359.4678439999999
 21
66.51853199999971
  0
LINE
  5
51
100
AcDbEntity
  8
LC-002-002-----0
  6
CONTINUOUS
 62
             7
100
AcDbLine
 10
359.9678439999999
 20
59.01853199999971
 11
359.9678439999999
 21
66.01853199999971
  0
LINE
  5
50
100
AcDbEntity
  8
LC-002-002-----0
  6
CONTINUOUS
 62
             7
100
AcDbLine
 10
339.9678439999999
 20
59.01853199999971
 11
339.9678439999999
 21
66.01853199999971
  0
LINE
  5
4F
100
AcDbEntity
  8
LC-002-002-----0
  6
CONTINUOUS
 62
             7
100
AcDbLine
 10
348.46430299999992
 20
50.51853199999971
 11
348.46430299999992
 21
25.08585899999969
  0
LINE
  5
4E
100
AcDbEntity
  8
LC-002-002-----0
  6
CONTINUOUS
 62
             7
100
AcDbLine
 10
351.46430299999992
 20
50.51853199999971
 11
351.46430299999992
 21
25.08585899999969
  0
LINE
  5
4D
100
AcDbEntity
  8
LC-002-002-----0
  6
CONTINUOUS
 62
             7
100
AcDbLine
 10
348.46430299999992
 20
25.08585899999969
 11
351.46430299999992
 21
25.08585899999969
  0
LINE
  5
4C
100
AcDbEntity
  8
LC-002-002-----0
  6
DASHDOT
 62
             2
100
AcDbLine
 10
349.9678439999999
 20
25.08585899999969
 11
349.9678439999999
 21
100.01853199999969
  0
LINE
  5
4B
100
AcDbEntity
  8
LC-002-002-----0
  6
CONTINUOUS
 62
             7
100
AcDbLine
 10
329.4678439999999
 20
93.23830099999975
 11
329.4678439999999
 21
95.29876399999967
  0
LINE
  5
4A
100
AcDbEntity
  8
LC-002-002-----0
  6
CONTINUOUS
 62
             7
100
AcDbLine
 10
370.4678439999999
 20
93.23830099999975
 11
370.4678439999999
 21
95.29876399999967
  0
LINE
  5
49
100
AcDbEntity
  8
LC-002-002-----0
  6
CONTINUOUS
 62
             7
100
AcDbLine
 10
347.4678439999999
 20
95.76853199999971
 11
347.4678439999999
 21
92.76853199999971
  0
LINE
  5
48
100
AcDbEntity
  8
LC-002-002-----0
  6
CONTINUOUS
 62
             7
100
AcDbLine
 10
351.4678439999999
 20
96.76853199999971
 11
348.4678439999999
 21
96.76853199999971
  0
LINE
  5
47
100
AcDbEntity
  8
LC-002-002-----0
  6
CONTINUOUS
 62
             7
100
AcDbLine
 10
348.4678439999999
 20
91.76853199999971
 11
351.4678439999999
 21
91.76853199999971
  0
LINE
  5
46
100
AcDbEntity
  8
LC-002-002-----0
  6
CONTINUOUS
 62
             7
100
AcDbLine
 10
352.4678439999999
 20
92.76853199999971
 11
352.4678439999999
 21
95.76853199999971
  0
LINE
  5
45
100
AcDbEntity
  8
LC-002-002-----0
  6
CONTINUOUS
 62
             7
100
AcDbLine
 10
359.46804399999991
 20
66.51853199999971
 11
359.46805899999981
 21
89.20306899999969
  0
LINE
  5
44
100
AcDbEntity
  8
LC-002-002-----0
  6
CONTINUOUS
 62
             7
100
AcDbLine
 10
340.4678439999999
 20
66.51853899999969
 11
340.4678439999999
 21
89.20290099999977
  0
LINE
  5
43
100
AcDbEntity
  8
LC-002-002-----0
  6
CONTINUOUS
 62
             7
100
AcDbLine
 10
333.68069899999989
 20
90.5508659999997
 11
333.68069899999989
 21
81.61775699999976
  0
LINE
  5
42
100
AcDbEntity
  8
LC-002-002-----0
  6
CONTINUOUS
 62
             7
100
AcDbLine
 10
340.4678439999999
 20
72.51853199999971
 11
314.99572899999993
 21
72.51853199999971
  0
LINE
  5
41
100
AcDbEntity
  8
LC-002-002-----0
  6
CONTINUOUS
 62
             7
100
AcDbLine
 10
435.4678439999999
 20
72.51853199999971
 11
359.46804799999978
 21
72.51853199999971
  0
LINE
  5
40
100
AcDbEntity
  8
1
  6
PHANTOM
 62
             2
100
AcDbLine
 10
100.61132785823899
 20
-3.6700000000003
 11
-7.99999999999997
 21
-3.67000000000029
  0
LINE
  5
3F
100
AcDbEntity
  8
1
  6
PHANTOM
 62
             2
100
AcDbLine
 10
499.56289368124931
 20
-43.67630081041475
 11
620.2990534308309
 21
-43.67729108755061
  0
LINE
  5
3E
100
AcDbEntity
  8
1
  6
DOT_CENTER
 62
             2
100
AcDbLine
 10
-8.0
 20
96.33
 11
-3.0
 21
96.33
  0
LINE
  5
3D
100
AcDbEntity
  8
1
  6
DOT_CENTER
 62
             2
100
AcDbLine
 10
-8.0
 20
-103.67
 11
-3.0
 21
-103.67
  0
POINT
  5
3C
100
AcDbEntity
  8
LC-005-003-----0
 62
             7
100
AcDbPoint
 10
344.68069899999989
 20
189.32740299999969
  0
POINT
  5
3B
100
AcDbEntity
  8
LC-005-003-----0
 62
             7
100
AcDbPoint
 10
478.99583899999982
 20
-160.6750000000003
  0
POINT
  5
3A
100
AcDbEntity
  8
LC-005-003-----0
 62
             7
100
AcDbPoint
 10
607.49828193449878
 20
56.32281399999982
  0
POINT
  5
39
100
AcDbEntity
  8
LC-005-003-----0
 62
             7
100
AcDbPoint
 10
607.49615993449879
 20
-143.6771860000004
  0
POINT
  5
38
100
AcDbEntity
  8
LC-005-003-----0
 62
             7
100
AcDbPoint
 10
0.0
 20
-108.94500000000031
  0
POINT
  5
37
100
AcDbEntity
  8
LC-005-003-----0
 62
             7
100
AcDbPoint
 10
614.99618093449885
 20
-141.66764700000019
  0
POINT
  5
36
100
AcDbEntity
  8
LC-005-003-----0
 62
             7
100
AcDbPoint
 10
0.0
 20
101.60499999999981
  0
POINT
  5
35
100
AcDbEntity
  8
LC-005-003-----0
 62
             7
100
AcDbPoint
 10
0.0
 20
-108.94500000000031
  0
POINT
  5
34
100
AcDbEntity
  8
LC-005-003-----0
 62
             7
100
AcDbPoint
 10
94.4958389999999
 20
-0.00000000000034
  0
ENDBLK
  5
248
100
AcDbEntity
  8
0
100
AcDbBlockEnd
  0
BLOCK
  5
24B
100
AcDbEntity
  8
0
100
AcDbBlockBegin
  2
*D2
 70
             1
 10
0.0
 20
0.0
 30
0.0
  3
*D2
  1

  0
LINE
  5
24C
100
AcDbEntity
  8
0
  6
CONTINUOUS
 62
             4
100
AcDbLine
 10
642.49512539959164
 20
-3.67444452710893
 11
642.49537145938132
 21
26.32555547188196
  0
LINE
  5
24D
100
AcDbEntity
  8
0
  6
CONTINUOUS
 62
             4
100
AcDbLine
 10
642.49479729503139
 20
-43.67747313688619
 11
642.49512539959164
 21
-3.67444452710893
  0
LINE
  5
24E
100
AcDbEntity
  8
0
  6
CONTINUOUS
 62
             4
100
AcDbLine
 10
642.49441736218603
 20
-89.99948850913184
 11
642.49479729503139
 21
-43.67747313688619
  0
LINE
  5
24F
100
AcDbEntity
  8
0
  6
CONTINUOUS
 62
             4
100
AcDbLine
 10
100.61132785823895
 20
-3.6700000000003
 11
644.49512539952434
 21
-3.67446093109491
  0
LINE
  5
250
100
AcDbEntity
  8
0
  6
CONTINUOUS
 62
             4
100
AcDbLine
 10
620.2990534308309
 20
-43.67729108755061
 11
644.49479729496409
 21
-43.67748954087217
  0
SOLID
  5
251
100
AcDbEntity
  8
0
 62
             4
100
AcDbTrace
 10
644.46946172888158
 20
-58.67748933357451
 11
640.51988680139254
 21
-58.67745693918877
 12
642.49479729503139
 22
-43.67747313688619
 13
642.49479729503139
 23
-43.67747313688619
  0
SOLID
  5
252
100
AcDbEntity
  8
0
 62
             4
100
AcDbTrace
 10
640.52046096574145
 20
11.32557166957939
 11
644.47003589323049
 21
11.32553927519366
 12
642.49512539959164
 22
-3.67444452710893
 13
642.49512539959164
 23
-3.67444452710893
  0
MTEXT
  5
254
100
AcDbEntity
  8
0
 62
             1
100
AcDbMText
 10
640.49441736225333
 20
-89.99947210514586
 30
0.0
 40
15.0
 41
0.0
 71
             7
 72
             1
  1
40
  7
CONVERTER_1
 11
0.00000820199299
 21
0.99999999996636
 31
0.0
  0
ENDBLK
  5
255
100
AcDbEntity
  8
0
100
AcDbBlockEnd
  0
BLOCK
  5
259
100
AcDbEntity
  8
0
100
AcDbBlockBegin
  2
*D3
 70
             1
 10
0.0
 20
0.0
 30
0.0
  3
*D3
  1

  0
LINE
  5
25A
100
AcDbEntity
  8
0
  6
CONTINUOUS
 62
             4
100
AcDbLine
 10
697.62396301624051
 20
-160.67668656346672
 11
697.62683372358583
 21
189.324508138277
  0
LINE
  5
25B
100
AcDbEntity
  8
0
  6
CONTINUOUS
 62
             4
100
AcDbLine
 10
344.68069899999983
 20
189.32740299999969
 11
699.62683372351853
 21
189.324491734291
  0
LINE
  5
25C
100
AcDbEntity
  8
0
  6
CONTINUOUS
 62
             4
100
AcDbLine
 10
491.99546899999984
 20
-160.6750000000003
 11
699.62396301617321
 21
-160.67670296745271
  0
SOLID
  5
25D
100
AcDbEntity
  8
0
 62
             4
100
AcDbTrace
 10
695.64929858239032
 20
-145.67667036677841
 11
699.59887350987935
 21
-145.67670276116414
 12
697.62396301624051
 22
-160.67668656346672
 13
697.62396301624051
 23
-160.67668656346672
  0
SOLID
  5
25E
100
AcDbEntity
  8
0
 62
             4
100
AcDbTrace
 10
699.60149815743603
 20
174.32449194158869
 11
695.65192322994699
 21
174.32452433597442
 12
697.62683372358583
 22
189.324508138277
 13
697.62683372358583
 23
189.324508138277
  0
MTEXT
  5
25F
100
AcDbEntity
  8
0
 62
             1
100
AcDbMText
 10
695.62515933443842
 20
-14.81966540623276
 30
0.0
 40
15.0
 41
0.0
 71
             7
 72
             1
  1
\C1;250-\C1;350
  7
CONVERTER_1
 11
0.00000820199299
 21
0.99999999996636
 31
0.0
  0
ENDBLK
  5
260
100
AcDbEntity
  8
0
100
AcDbBlockEnd
  0
BLOCK
  5
264
100
AcDbEntity
  8
0
100
AcDbBlockBegin
  2
*D4
 70
             1
 10
0.0
 20
0.0
 30
0.0
  3
*D4
  1

  0
LINE
  5
265
100
AcDbEntity
  8
0
  6
CONTINUOUS
 62
             4
100
AcDbLine
 10
-18.00004522933197
 20
96.33
 11
-18.00004522933197
 21
-103.67
  0
LINE
  5
266
100
AcDbEntity
  8
0
  6
CONTINUOUS
 62
             4
100
AcDbLine
 10
-8.0
 20
-103.67
 11
-20.00004522933197
 21
-103.67
  0
LINE
  5
267
100
AcDbEntity
  8
0
  6
CONTINUOUS
 62
             4
100
AcDbLine
 10
-8.0
 20
96.33
 11
-20.00004522933197
 21
96.33
  0
SOLID
  5
268
100
AcDbEntity
  8
0
 62
             4
100
AcDbTrace
 10
-16.02525776552104
 20
81.33
 11
-19.97483269314291
 21
81.33
 12
-18.00004522933197
 22
96.33
 13
-18.00004522933197
 23
96.33
  0
SOLID
  5
269
100
AcDbEntity
  8
0
 62
             4
100
AcDbTrace
 10
-19.97483269314291
 20
-88.67
 11
-16.02525776552103
 21
-88.67
 12
-18.00004522933197
 22
-103.67
 13
-18.00004522933197
 23
-103.67
  0
MTEXT
  5
26A
100
AcDbEntity
  8
0
 62
             1
100
AcDbMText
 10
-20.00004522933197
 20
-29.7349693445884
 30
0.0
 40
15.0
 41
0.0
 71
             7
 72
             1
  1
\C1;DN\C1;200
  7
CONVERTER_1
 11
0.0
 21
1.0
 31
0.0
  0
ENDBLK
  5
26B
100
AcDbEntity
  8
0
100
AcDbBlockEnd
  0
BLOCK
  5
26F
100
AcDbEntity
  8
0
100
AcDbBlockBegin
  2
*D5
 70
             1
 10
0.0
 20
0.0
 30
0.0
  3
*D5
  1

  0
LINE
  5
270
100
AcDbEntity
  8
0
  6
CONTINUOUS
 62
             4
100
AcDbLine
 10
670.08338109559247
 20
-143.67769933994956
 11
670.08502149419041
 21
56.3223006640007
  0
LINE
  5
271
100
AcDbEntity
  8
0
  6
CONTINUOUS
 62
             4
100
AcDbLine
 10
607.49828193449878
 20
56.3228139999998
 11
672.08502149412311
 21
56.32228426001471
  0
LINE
  5
272
100
AcDbEntity
  8
0
  6
CONTINUOUS
 62
             4
100
AcDbLine
 10
607.49615993449879
 20
-143.67718600000035
 11
672.08338109552517
 21
-143.67771574393552
  0
SOLID
  5
273
100
AcDbEntity
  8
0
 62
             4
100
AcDbTrace
 10
668.10871666174228
 20
-128.67768314326122
 11
672.05829158923132
 21
-128.67771553764698
 12
670.08338109559247
 22
-143.67769933994956
 13
670.08338109559247
 23
-143.67769933994956
  0
SOLID
  5
274
100
AcDbEntity
  8
0
 62
             4
100
AcDbTrace
 10
672.05968592804061
 20
41.32228446731238
 11
668.11011100055157
 21
41.32231686169811
 12
670.08502149419041
 22
56.3223006640007
 13
670.08502149419041
 23
56.3223006640007
  0
MTEXT
  5
275
100
AcDbEntity
  8
0
 62
             1
100
AcDbMText
 10
668.08393200592275
 20
-76.5098295099109
 30
0.0
 40
15.0
 41
0.0
 71
             7
 72
             1
  1
\C1;DN\C1;200
  7
CONVERTER_1
 11
0.00000820199299
 21
0.99999999996636
 31
0.0
  0
ENDBLK
  5
276
100
AcDbEntity
  8
0
100
AcDbBlockEnd
  0
BLOCK
  5
27A
100
AcDbEntity
  8
0
100
AcDbBlockBegin
  2
*D6
 70
             1
 10
0.0
 20
0.0
 30
0.0
  3
*D6
  1

  0
LINE
  5
27B
100
AcDbEntity
  8
0
  6
CONTINUOUS
 62
             4
100
AcDbLine
 10
614.99576850394146
 20
-191.9518350083556
 11
-0.00071358807833
 21
-191.94679081152083
  0
LINE
  5
27C
100
AcDbEntity
  8
0
  6
CONTINUOUS
 62
             4
100
AcDbLine
 10
0.0
 20
-104.94500000000038
 11
-0.00072999206429
 21
-193.94679081145355
  0
LINE
  5
27D
100
AcDbEntity
  8
0
  6
CONTINUOUS
 62
             4
100
AcDbLine
 10
614.99618093449885
 20
-141.66764700000024
 11
614.99575209995533
 21
-193.95183500828833
  0
SOLID
  5
27E
100
AcDbEntity
  8
0
 62
             4
100
AcDbTrace
 10
599.99575230725304
 20
-193.92649944220537
 11
599.99578470163897
 21
-189.97692451471633
 12
614.99576850394146
 22
-191.9518350083556
 13
614.99576850394146
 23
-191.9518350083556
  0
SOLID
  5
27F
100
AcDbEntity
  8
0
 62
             4
100
AcDbTrace
 10
14.99930260861005
 20
-189.97212637767106
 11
14.99927021422421
 21
-193.9217013051601
 12
-0.00071358807833
 22
-191.94679081152083
 13
-0.00071358807833
 23
-191.94679081152083
  0
MTEXT
  5
280
100
AcDbEntity
  8
0
 62
             1
100
AcDbMText
 10
319.00939617435051
 20
-189.94940733013746
 30
0.0
 40
15.0
 41
0.0
 71
             7
 72
             1
  1
615
  7
CONVERTER_1
 11
0.99999999996636
 21
-0.00000820199299
 31
0.0
  0
ENDBLK
  5
281
100
AcDbEntity
  8
0
100
AcDbBlockEnd
  0
ENDSEC
  0
SECTION
  2
ENTITIES
  0
DIMENSION
  5
283
100
AcDbEntity
  8
1
100
AcDbDimension
  2
*D6
 10
614.99576850394146
 20
-191.9518350083556
 11
334.75945768876818
 21
-182.44953651177931
 31
0.0
 53
-0.00046993958189
  1
<>
  3
ME10_DIM_4
100
AcDbAlignedDimension
 13
0.0
 23
-104.94500000000041
 14
614.99618093449885
 24
-141.66764700000019
 50
-0.00046993958189
100
AcDbRotatedDimension
  0
DIMENSION
  5
278
100
AcDbEntity
  8
1
100
AcDbDimension
  2
*D5
 10
670.08338109559247
 20
-143.67769933994956
 11
660.58414607819202
 21
-50.4097679958414
 31
0.0
 53
89.99953006041811
  1
<>
  3
ME10_DIM_3
100
AcDbAlignedDimension
 13
607.49828193449878
 23
56.32281399999982
 14
607.49615993449879
 24
-143.6771860000004
 50
89.99953006041811
100
AcDbRotatedDimension
  0
DIMENSION
  5
26D
100
AcDbEntity
  8
1
100
AcDbDimension
  2
*D4
 10
-18.00004522933197
 20
96.33
 11
-27.50004522933197
 21
-3.6349693445884
 31
0.0
 53
89.99999999999999
  1
<>
  3
ME10_DIM_2
100
AcDbAlignedDimension
 13
-8.0
 23
-103.67
 14
-8.0
 24
96.33
 50
89.99999999999999
100
AcDbRotatedDimension
  0
DIMENSION
  5
262
100
AcDbEntity
  8
1
100
AcDbDimension
  2
*D3
 10
697.62396301624051
 20
-160.67668656346672
 11
688.12548290331404
 21
24.6303961073877
 31
0.0
 53
89.99953006041811
  1
<>
  3
ME10_DIM_1
100
AcDbAlignedDimension
 13
344.68069899999989
 23
189.32740299999969
 14
491.99546899999979
 24
-160.6750000000003
 50
89.99953006041811
100
AcDbRotatedDimension
  0
DIMENSION
  5
257
100
AcDbEntity
  8
1
100
AcDbDimension
  2
*D2
 10
642.49479729503139
 20
-43.67747313688619
 11
632.99450963492677
 21
-78.74941059057684
 31
0.0
 70
           128
 53
89.99953006041811
  1
<>
  3
ME10_DIM_0
100
AcDbAlignedDimension
 13
100.61132785823899
 23
-3.6700000000003
 14
620.2990534308309
 24
-43.67729108755061
 50
89.99953006041811
100
AcDbRotatedDimension
  0
INSERT
  5
31
100
AcDbEntity
  8
1
100
AcDbBlockReference
  2
_1
 10
0.0
 20
0.0
  0
INSERT
  5
32
100
AcDbEntity
  8
0
100
AcDbBlockReference
  2
HL_720_2_R_CKSTAUVERSCS__1
 10
306.1495267154155
 20
14.32620149999971
  0
ENDSEC
  0
SECTION
  2
OBJECTS
  0
DICTIONARY
  5
19
100
AcDbDictionary
  3
ACAD_GROUP
350
1A
  3
ACAD_MLINESTYLE
350
1B
  0
DICTIONARY
  5
1A
102
{ACAD_REACTORS
330
19
102
}
100
AcDbDictionary
  0
DICTIONARY
  5
1B
102
{ACAD_REACTORS
330
19
102
}
100
AcDbDictionary
  3
STANDARD
350
1C
  0
MLINESTYLE
  5
1C
102
{ACAD_REACTORS
330
1B
102
}
100
AcDbMlineStyle
  2
STANDARD
 70
             0
  3

 62
             0
 51
90.0
 52
90.0
 71
             2
 49
0.5
 62
           256
  6
BYLAYER
 49
-0.5
 62
           256
  6
BYLAYER
  0
ENDSEC
  0
EOF
