  0
SECTION
  2
HEADER
  9
$ACADVER
  1
AC1014
  9
$ACADMAINTVER
 70
             0
  9
$DWGCODEPAGE
  3
ANSI_1252
  9
$INSBASE
 10
0.0
 20
0.0
 30
0.0
  9
$EXTMIN
 10
-106.5001622785942
 20
-210.9760079081922
 30
0.0
  9
$EXTMAX
 10
174.80544478005581
 20
32.35581579511653
 30
0.0
  9
$LIMMIN
 10
0.0
 20
0.0
  9
$LIMMAX
 10
0.0
 20
0.0
  9
$ORTHOMODE
 70
             0
  9
$REGENMODE
 70
             1
  9
$FILLMODE
 70
             1
  9
$QTEXTMODE
 70
             0
  9
$MIRRTEXT
 70
             1
  9
$DRAGMODE
 70
             2
  9
$LTSCALE
 40
1.0
  9
$OSMODE
 70
             0
  9
$ATTMODE
 70
             1
  9
$TEXTSIZE
 40
0.2
  9
$TRACEWID
 40
0.05
  9
$TEXTSTYLE
  7
STANDARD
  9
$CLAYER
  8
0
  9
$CELTYPE
  6
CONTINUOUS
  9
$CECOLOR
 62
           256
  9
$CELTSCALE
 40
1.0
  9
$DELOBJ
 70
             1
  9
$DISPSILH
 70
             0
  9
$DIMSCALE
 40
1.0
  9
$DIMASZ
 40
0.18
  9
$DIMEXO
 40
0.0625
  9
$DIMDLI
 40
0.38
  9
$DIMRND
 40
0.0
  9
$DIMDLE
 40
0.0
  9
$DIMEXE
 40
0.18
  9
$DIMTP
 40
0.0
  9
$DIMTM
 40
0.0
  9
$DIMTXT
 40
0.18
  9
$DIMCEN
 40
0.09
  9
$DIMTSZ
 40
0.0
  9
$DIMTOL
 70
             0
  9
$DIMLIM
 70
             0
  9
$DIMTIH
 70
             1
  9
$DIMTOH
 70
             1
  9
$DIMSE1
 70
             0
  9
$DIMSE2
 70
             0
  9
$DIMTAD
 70
             0
  9
$DIMZIN
 70
             0
  9
$DIMBLK
  1

  9
$DIMASO
 70
             1
  9
$DIMSHO
 70
             1
  9
$DIMPOST
  1

  9
$DIMAPOST
  1

  9
$DIMALT
 70
             0
  9
$DIMALTD
 70
             2
  9
$DIMALTF
 40
25.4
  9
$DIMLFAC
 40
1.0
  9
$DIMTOFL
 70
             0
  9
$DIMTVP
 40
0.0
  9
$DIMTIX
 70
             0
  9
$DIMSOXD
 70
             0
  9
$DIMSAH
 70
             0
  9
$DIMBLK1
  1

  9
$DIMBLK2
  1

  9
$DIMSTYLE
  2
STANDARD
  9
$DIMCLRD
 70
             0
  9
$DIMCLRE
 70
             0
  9
$DIMCLRT
 70
             0
  9
$DIMTFAC
 40
1.0
  9
$DIMGAP
 40
0.09
  9
$DIMJUST
 70
             0
  9
$DIMSD1
 70
             0
  9
$DIMSD2
 70
             0
  9
$DIMTOLJ
 70
             1
  9
$DIMTZIN
 70
             0
  9
$DIMALTZ
 70
             0
  9
$DIMALTTZ
 70
             0
  9
$DIMFIT
 70
             3
  9
$DIMUPT
 70
             0
  9
$DIMUNIT
 70
             2
  9
$DIMDEC
 70
             4
  9
$DIMTDEC
 70
             4
  9
$DIMALTU
 70
             2
  9
$DIMALTTD
 70
             2
  9
$DIMTXSTY
  7
STANDARD
  9
$DIMAUNIT
 70
             0
  9
$LUNITS
 70
             2
  9
$LUPREC
 70
             4
  9
$SKETCHINC
 40
0.1
  9
$FILLETRAD
 40
0.0
  9
$AUNITS
 70
             0
  9
$AUPREC
 70
             0
  9
$MENU
  1
acad
  9
$ELEVATION
 40
0.0
  9
$PELEVATION
 40
0.0
  9
$THICKNESS
 40
0.0
  9
$LIMCHECK
 70
             0
  9
$BLIPMODE
 70
             1
  9
$CHAMFERA
 40
0.0
  9
$CHAMFERB
 40
0.0
  9
$CHAMFERC
 40
0.0
  9
$CHAMFERD
 40
0.0
  9
$SKPOLY
 70
             0
  9
$TDCREATE
 40
0.000000000
  9
$TDUPDATE
 40
0.000000000
  9
$TDINDWG
 40
0.0000000000
  9
$TDUSRTIMER
 40
0.0000000000
  9
$USRTIMER
 70
             1
  9
$ANGBASE
 50
0.0
  9
$ANGDIR
 70
             0
  9
$PDMODE
 70
             0
  9
$PDSIZE
 40
0.0
  9
$PLINEWID
 40
0.0
  9
$COORDS
 70
             0
  9
$SPLFRAME
 70
             0
  9
$SPLINETYPE
 70
             6
  9
$SPLINESEGS
 70
             8
  9
$ATTDIA
 70
             0
  9
$ATTREQ
 70
             1
  9
$HANDLING
 70
             1
  9
$HANDSEED
  5
129
  9
$SURFTAB1
 70
             6
  9
$SURFTAB2
 70
             6
  9
$SURFTYPE
 70
             6
  9
$SURFU
 70
             6
  9
$SURFV
 70
             6
  9
$UCSNAME
  2

  9
$UCSORG
 10
0.0
 20
0.0
 30
0.0
  9
$UCSXDIR
 10
1.0
 20
0.0
 30
0.0
  9
$UCSYDIR
 10
0.0
 20
1.0
 30
0.0
  9
$PUCSNAME
  2

  9
$PUCSORG
 10
0.0
 20
0.0
 30
0.0
  9
$PUCSXDIR
 10
1.0
 20
0.0
 30
0.0
  9
$PUCSYDIR
 10
0.0
 20
1.0
 30
0.0
  9
$USERI1
 70
             0
  9
$USERI2
 70
             0
  9
$USERI3
 70
             0
  9
$USERI4
 70
             0
  9
$USERI5
 70
             0
  9
$USERR1
 40
12.01
  9
$USERR2
 40
0.0
  9
$USERR3
 40
0.0
  9
$USERR4
 40
0.0
  9
$USERR5
 40
0.0
  9
$WORLDVIEW
 70
             1
  9
$SHADEDGE
 70
             3
  9
$SHADEDIF
 70
            70
  9
$TILEMODE
 70
             1
  9
$MAXACTVP
 70
            16
  9
$PINSBASE
 10
0.0
 20
0.0
 30
0.0
  9
$PLIMCHECK
 70
             0
  9
$PEXTMIN
 10
1.00000000000000E+20
 20
1.00000000000000E+20
 30
1.00000000000000E+20
  9
$PEXTMAX
 10
-1.00000000000000E+20
 20
-1.00000000000000E+20
 30
-1.00000000000000E+20
  9
$PLIMMIN
 10
0.0
 20
0.0
  9
$PLIMMAX
 10
12.0
 20
9.0
  9
$UNITMODE
 70
             0
  9
$VISRETAIN
 70
             0
  9
$PLINEGEN
 70
             1
  9
$PSLTSCALE
 70
             0
  9
$TREEDEPTH
 70
          3020
  9
$PICKSTYLE
 70
             1
  9
$CMLSTYLE
  2
STANDARD
  9
$CMLJUST
 70
             0
  9
$CMLSCALE
 40
1.0
  9
$PROXYGRAPHICS
 70
             0
  9
$MEASUREMENT
 70
             1
  0
ENDSEC
  0
SECTION
  2
CLASSES
  0
CLASS
  1
LWPOLYLINE
  2
AcDbPolyline
  3
"AutoCAD"
 90
        0
280
             0
281
             1
  0
CLASS
  1
IMAGE
  2
AcDbRasterImage
  3
ISM
 90
      127
280
             0
281
             1
  0
CLASS
  1
OLE2FRAME
  2
AcDbOle2Frame
  3
""
 90
        0
280
             0
281
             1
  0
CLASS
  1
HATCH
  2
AcDbHatch
  3
"ACAD_SEDONA"
 90
        0
280
             0
281
             1
  0
CLASS
  1
DICTIONARYVAR
  2
AcDbDictionaryVar
  3
"AutoCAD"
 90
        0
280
             0
281
             0
  0
CLASS
  1
RASTERVARIABLES
  2
AcDbRasterVariables
  3
ISM
 90
        0
280
             0
281
             0
  0
CLASS
  1
IMAGEDEF
  2
AcDbRasterImageDef
  3
ISM
 90
        0
280
             0
281
             0
  0
CLASS
  1
IMAGEDEF_REACTOR
  2
AcDbRasterImageDefReactor
  3
ISM
 90
        1
280
             0
281
             0
  0
CLASS
  1
IDBUFFER
  2
AcDbIdBuffer
  3
"Acad"
 90
        0
280
             0
281
             0
  0
CLASS
  1
SPATIAL_FILTER
  2
AcDbSpatialFilter
  3
"Acad"
 90
        0
280
             0
281
             0
  0
CLASS
  1
XRECORD
  2
AcDbXrecord
  3
"<Built In>"
 90
        0
280
             0
281
             0
  0
CLASS
  1
SORTENTSTABLE
  2
AcDbSortentsTable
  3
"AutoCAD"
 90
        0
280
             0
281
             0
  0
CLASS
  1
LAYER_INDEX
  2
AcDbLayerIndex
  3
"Acad"
 90
        0
280
             0
281
             0
  0
CLASS
  1
SPATIAL_INDEX
  2
AcDbSpatialIndex
  3
"Acad"
 90
        0
280
             0
281
             0
  0
CLASS
  1
OBJECT_PTR
  2
CAseDLPNTableRecord
  3
"ASE-LPNTableRecord"
 90
        1
280
             0
281
             0
  0
CLASS
  1
LAYOUT
  2
AcDbLayout
  3
"AutoCAD 2000"
 90
        0
280
             0
281
             0
  0
CLASS
  1
PLOTSETTINGS
  2
AcDbPlotSettings
  3
"AutoCAD 2000"
 90
        0
280
             0
281
             0
  0
CLASS
  1
ACDBDICTIONARYWDFLT
  2
AcDbDictionaryWithDefault
  3
"AutoCAD 2000"
 90
        0
280
             0
281
             0
  0
CLASS
  1
ACDBPLACEHOLDER
  2
AcDbPlaceHolder
  3
"AutoCAD 2000"
 90
        0
280
             0
281
             0
  0
ENDSEC
  0
SECTION
  2
TABLES
  0
TABLE
  2
VPORT
  5
7
100
AcDbSymbolTable
 70
             1
  0
VPORT
  5
15
100
AcDbSymbolTableRecord
100
AcDbViewportTableRecord
  2
*ACTIVE
 70
             0
 10
0.0
 20
0.0
 11
1.0
 21
1.0
 12
34.1526412507308
 22
-89.31009605653784
 13
0.0
 23
0.0
 14
1.0
 24
1.0
 15
0.0
 25
0.0
 16
0.0
 26
0.0
 36
1.0
 17
0.0
 27
0.0
 37
0.0
 40
267.66500607363963
 41
1.60267857142857
 42
50.0
 43
0.0
 44
0.0
 50
0.0
 51
0.0
 71
             0
 72
           100
 73
             1
 74
             1
 75
             0
 76
             0
 77
             0
 78
             0
  0
ENDTAB
  0
TABLE
  2
LTYPE
  5
4
100
AcDbSymbolTable
 70
            10
  0
LTYPE
  5
11
100
AcDbSymbolTableRecord
100
AcDbLinetypeTableRecord
  2
BYBLOCK
 70
            64
  3

 72
            65
 73
             0
 40
0.0
  0
LTYPE
  5
12
100
AcDbSymbolTableRecord
100
AcDbLinetypeTableRecord
  2
BYLAYER
 70
            64
  3

 72
            65
 73
             0
 40
0.0
  0
LTYPE
  5
13
100
AcDbSymbolTableRecord
100
AcDbLinetypeTableRecord
  2
CONTINUOUS
 70
            64
  3
Solid line
 72
            65
 73
             0
 40
0.0
  0
LTYPE
  5
1D
100
AcDbSymbolTableRecord
100
AcDbLinetypeTableRecord
  2
DASHED
 70
            64
  3
Dashed
 72
            65
 73
             2
 40
15.0
 49
7.0
 74
             0
 49
-8.0
 74
             0
  0
LTYPE
  5
1E
100
AcDbSymbolTableRecord
100
AcDbLinetypeTableRecord
  2
DOTTED
 70
            64
  3
Dotted
 72
            65
 73
             2
 40
1.0
 49
0.0
 74
             0
 49
-1.0
 74
             0
  0
LTYPE
  5
1F
100
AcDbSymbolTableRecord
100
AcDbLinetypeTableRecord
  2
DOT_CENTER
 70
            64
  3
Dot_Center
 72
            65
 73
             4
 40
14.0
 49
12.0
 74
             0
 49
-1.0
 74
             0
 49
0.0
 74
             0
 49
-1.0
 74
             0
  0
LTYPE
  5
20
100
AcDbSymbolTableRecord
100
AcDbLinetypeTableRecord
  2
LONG_DASHED
 70
            64
  3
Long_Dashed
 72
            65
 73
             2
 40
15.0
 49
10.0
 74
             0
 49
-5.0
 74
             0
  0
LTYPE
  5
21
100
AcDbSymbolTableRecord
100
AcDbLinetypeTableRecord
  2
DASH_CENTER
 70
            64
  3
Dash_Center
 72
            65
 73
             4
 40
14.0
 49
11.0
 74
             0
 49
-1.0
 74
             0
 49
1.0
 74
             0
 49
-1.0
 74
             0
  0
LTYPE
  5
22
100
AcDbSymbolTableRecord
100
AcDbLinetypeTableRecord
  2
PHANTOM
 70
            64
  3
Phantom
 72
            65
 73
             6
 40
13.0
 49
10.0
 74
             0
 49
-1.0
 74
             0
 49
0.0
 74
             0
 49
-1.0
 74
             0
 49
0.0
 74
             0
 49
-1.0
 74
             0
  0
LTYPE
  5
23
100
AcDbSymbolTableRecord
100
AcDbLinetypeTableRecord
  2
CENTER_DASH_DASH
 70
            64
  3
Center_Dash_Dash
 72
            65
 73
             6
 40
14.0
 49
9.0
 74
             0
 49
-1.0
 74
             0
 49
1.0
 74
             0
 49
-1.0
 74
             0
 49
1.0
 74
             0
 49
-1.0
 74
             0
  0
ENDTAB
  0
TABLE
  2
LAYER
  5
2
100
AcDbSymbolTable
 70
             5
  0
LAYER
  5
14
100
AcDbSymbolTableRecord
100
AcDbLayerTableRecord
  2
0
 70
             0
 62
             7
  6
CONTINUOUS
  0
LAYER
  5
24
100
AcDbSymbolTableRecord
100
AcDbLayerTableRecord
  2
1
 70
             0
 62
             7
  6
CONTINUOUS
  0
LAYER
  5
25
100
AcDbSymbolTableRecord
100
AcDbLayerTableRecord
  2
LC-001-020-----0
 70
             0
 62
             7
  6
CONTINUOUS
  0
LAYER
  5
26
100
AcDbSymbolTableRecord
100
AcDbLayerTableRecord
  2
LC-003-002-----0
 70
             0
 62
             7
  6
CONTINUOUS
  0
LAYER
  5
27
100
AcDbSymbolTableRecord
100
AcDbLayerTableRecord
  2
LC-009-002-RND-0
 70
             0
 62
             7
  6
CONTINUOUS
  0
ENDTAB
  0
TABLE
  2
STYLE
  5
3
100
AcDbSymbolTable
 70
             2
  0
STYLE
  5
17
100
AcDbSymbolTableRecord
100
AcDbTextStyleTableRecord
  2
STANDARD
 70
             0
 40
0.0
 41
1.0
 50
0.0
 71
             0
 42
0.0
  3
txt
  4

  0
STYLE
  5
102
100
AcDbSymbolTableRecord
100
AcDbTextStyleTableRecord
  2
CONVERTER_1
 70
             0
 40
0.0
 41
0.9
 50
0.0
 71
             0
 42
0.0
  3
txt.shx
  4

  0
ENDTAB
  0
TABLE
  2
VIEW
  5
5
100
AcDbSymbolTable
 70
             0
  0
ENDTAB
  0
TABLE
  2
UCS
  5
6
100
AcDbSymbolTable
 70
             0
  0
ENDTAB
  0
TABLE
  2
APPID
  5
8
100
AcDbSymbolTable
 70
             1
  0
APPID
  5
16
100
AcDbSymbolTableRecord
100
AcDbRegAppTableRecord
  2
ACAD
 70
             0
  0
ENDTAB
  0
TABLE
  2
DIMSTYLE
  5
9
100
AcDbSymbolTable
 70
             5
  0
DIMSTYLE
105
18
100
AcDbSymbolTableRecord
100
AcDbDimStyleTableRecord
  2
STANDARD
 70
             0
  3

  4

  5

  6

  7

 40
1.0
 41
0.18
 42
0.0625
 43
0.38
 44
0.18
 45
0.0
 46
0.0
 47
0.0
 48
0.0
 71
             0
 72
             0
 73
             1
 74
             1
 75
             0
 76
             0
 77
             0
 78
             0
140
0.18
141
0.09
142
0.0
143
25.4
144
1.0
145
0.0
146
1.0
147
0.09
170
             0
171
             2
172
             0
173
             0
174
             0
175
             0
176
             0
177
             0
178
             0
270
             2
271
             4
272
             4
273
             2
274
             2
275
             0
280
             0
281
             0
282
             0
283
             1
284
             0
285
             0
286
             0
287
             3
288
             0
340
17
  0
DIMSTYLE
105
105
100
AcDbSymbolTableRecord
100
AcDbDimStyleTableRecord
  2
ME10_DIM_0
 70
             0
  3
DN<>
  4

  5

  6

  7

 40
1.0
 41
10.0
 42
0.0
 43
0.38
 44
2.0
 45
0.0
 46
0.0
 47
0.0
 48
0.0
 71
             0
 72
             0
 73
             0
 74
             0
 75
             0
 76
             0
 77
             1
 78
             8
140
10.0
141
0.09
142
0.0
143
25.4
144
1.0
145
0.0
146
1.0
147
0.625
170
             0
171
             2
172
             1
173
             1
174
             0
175
             0
176
             4
177
             4
178
             1
270
             2
271
             2
272
             4
273
             2
274
             2
275
             0
280
             0
281
             0
282
             0
283
             1
284
             0
285
             0
286
             0
287
             3
288
             0
340
102
  0
DIMSTYLE
105
110
100
AcDbSymbolTableRecord
100
AcDbDimStyleTableRecord
  2
ME10_DIM_1
 70
             0
  3

  4

  5

  6

  7

 40
1.0
 41
12.0
 42
0.0
 43
0.38
 44
2.0
 45
0.0
 46
0.0
 47
0.0
 48
0.0
 71
             0
 72
             0
 73
             0
 74
             0
 75
             0
 76
             0
 77
             1
 78
             8
140
12.0
141
0.09
142
0.0
143
25.4
144
1.0
145
0.0
146
1.0
147
0.625
170
             0
171
             2
172
             1
173
             1
174
             0
175
             0
176
             4
177
             4
178
             1
270
             2
271
             2
272
             4
273
             2
274
             2
275
             0
280
             0
281
             0
282
             0
283
             1
284
             0
285
             0
286
             0
287
             3
288
             0
340
102
  0
DIMSTYLE
105
11B
100
AcDbSymbolTableRecord
100
AcDbDimStyleTableRecord
  2
ME10_DIM_2
 70
             0
  3
45-<>
  4

  5

  6

  7

 40
1.0
 41
12.0
 42
0.0
 43
0.38
 44
2.0
 45
0.0
 46
0.0
 47
0.0
 48
0.0
 71
             0
 72
             0
 73
             0
 74
             0
 75
             0
 76
             0
 77
             1
 78
             8
140
12.0
141
0.09
142
0.0
143
25.4
144
1.0
145
0.0
146
1.0
147
0.625
170
             0
171
             2
172
             1
173
             1
174
             0
175
             0
176
             4
177
             4
178
             1
270
             2
271
             2
272
             4
273
             2
274
             2
275
             0
280
             0
281
             0
282
             0
283
             1
284
             0
285
             0
286
             0
287
             3
288
             0
340
102
  0
DIMSTYLE
105
126
100
AcDbSymbolTableRecord
100
AcDbDimStyleTableRecord
  2
ME10_DIM_3
 70
             0
  3
150x<>
  4

  5

  6

  7

 40
1.0
 41
12.0
 42
0.0
 43
0.38
 44
2.0
 45
0.0
 46
0.0
 47
0.0
 48
0.0
 71
             0
 72
             0
 73
             0
 74
             0
 75
             0
 76
             0
 77
             1
 78
             8
140
12.0
141
0.09
142
0.0
143
25.4
144
1.0
145
0.0
146
1.0
147
0.625
170
             0
171
             2
172
             1
173
             1
174
             0
175
             0
176
             4
177
             4
178
             1
270
             2
271
             2
272
             4
273
             2
274
             2
275
             0
280
             0
281
             0
282
             0
283
             1
284
             0
285
             0
286
             0
287
             3
288
             0
340
102
  0
ENDTAB
  0
TABLE
  2
BLOCK_RECORD
  5
1
100
AcDbSymbolTable
 70
             6
  0
BLOCK_RECORD
  5
A
100
AcDbSymbolTableRecord
100
AcDbBlockTableRecord
  2
*MODEL_SPACE
  0
BLOCK_RECORD
  5
B
100
AcDbSymbolTableRecord
100
AcDbBlockTableRecord
  2
*PAPER_SPACE
  0
BLOCK_RECORD
  5
28
100
AcDbSymbolTableRecord
100
AcDbBlockTableRecord
  2
HL72K_7_ABLAUFK_RPER_DN75
  0
BLOCK_RECORD
  5
2A
100
AcDbSymbolTableRecord
100
AcDbBlockTableRecord
  2
062B_2E_AUFSATZRAHMEN
  0
BLOCK_RECORD
  5
FB
100
AcDbSymbolTableRecord
100
AcDbBlockTableRecord
  2
*D2
  0
BLOCK_RECORD
  5
107
100
AcDbSymbolTableRecord
100
AcDbBlockTableRecord
  2
*D3
  0
BLOCK_RECORD
  5
112
100
AcDbSymbolTableRecord
100
AcDbBlockTableRecord
  2
*D4
  0
BLOCK_RECORD
  5
11D
100
AcDbSymbolTableRecord
100
AcDbBlockTableRecord
  2
*D5
  0
ENDTAB
  0
ENDSEC
  0
SECTION
  2
BLOCKS
  0
BLOCK
  5
D
100
AcDbEntity
  8
0
100
AcDbBlockBegin
  2
*MODEL_SPACE
 70
             0
 10
0.0
 20
0.0
 30
0.0
  3
*MODEL_SPACE
  1

  0
ENDBLK
  5
E
100
AcDbEntity
  8
0
100
AcDbBlockEnd
  0
BLOCK
  5
F
100
AcDbEntity
 67
             1
  8
0
100
AcDbBlockBegin
  2
*PAPER_SPACE
 70
             0
 10
0.0
 20
0.0
 30
0.0
  3
*PAPER_SPACE
  1

  0
ENDBLK
  5
10
100
AcDbEntity
 67
             1
  8
0
100
AcDbBlockEnd
  0
BLOCK
  5
29
100
AcDbEntity
  8
0
100
AcDbBlockBegin
  2
HL72K_7_ABLAUFK_RPER_DN75
 70
             0
 10
35.46595865153012
 20
-129.5501817970902
 30
0.0
  3
HL72K_7_ABLAUFK_RPER_DN75
  1

  0
ARC
  5
55
100
AcDbEntity
  8
LC-001-020-----0
  6
CONTINUOUS
 62
             7
100
AcDbCircle
 10
-52.00022706354792
 20
-187.79722553563471
 40
20.0000000000005
100
AcDbArc
 50
179.99990499999939
 51
-90.00007600000116
  0
ARC
  5
54
100
AcDbEntity
  8
LC-001-020-----0
  6
CONTINUOUS
 62
             7
100
AcDbCircle
 10
51.99534129258518
 20
-187.7972426811269
 40
19.9999999999996
100
AcDbArc
 50
-89.99992399999887
 51
0.0000950000006
  0
ARC
  5
53
100
AcDbEntity
  8
1
  6
CONTINUOUS
 62
             7
100
AcDbCircle
 10
139.22511884262471
 20
-137.31071755080029
 40
76.99999999999999
100
AcDbArc
 50
150.80147555701001
 51
-150.82254726408482
  0
LINE
  5
52
100
AcDbEntity
  8
1
  6
CONTINUOUS
 62
             7
100
AcDbLine
 10
72.49985893645209
 20
-66.29719353563468
 11
-72.50014106354792
 21
-66.29719353563468
  0
LINE
  5
51
100
AcDbEntity
  8
1
  6
CONTINUOUS
 62
             7
100
AcDbLine
 10
-72.00023506354791
 20
-187.79722553563471
 11
71.99534129258518
 21
-187.79722553563471
  0
LINE
  5
50
100
AcDbEntity
  8
1
  6
CONTINUOUS
 62
             7
100
AcDbLine
 10
72.00916493645207
 20
-97.7970035356347
 11
-72.00011706354792
 21
-97.7970035356347
  0
LINE
  5
4F
100
AcDbEntity
  8
1
  6
CONTINUOUS
 62
             7
100
AcDbLine
 10
-75.50014106354792
 20
-94.99719353563472
 11
75.50007793645204
 21
-94.99719353563472
  0
LINE
  5
4E
100
AcDbEntity
  8
LC-003-002-----0
  6
CONTINUOUS
 62
             7
100
AcDbLine
 10
-75.50014106354792
 20
-66.29719353563468
 11
-75.50014106354792
 21
-94.99719353563472
  0
LINE
  5
4D
100
AcDbEntity
  8
LC-003-002-----0
  6
CONTINUOUS
 62
             7
100
AcDbLine
 10
-75.50014106354792
 20
-94.99719353563472
 11
-82.50014106354792
 21
-94.99719353563472
  0
LINE
  5
4C
100
AcDbEntity
  8
LC-003-002-----0
  6
CONTINUOUS
 62
             7
100
AcDbLine
 10
-82.50014106354792
 20
-94.99719353563472
 11
-82.50014106354792
 21
-97.79719353563468
  0
LINE
  5
4B
100
AcDbEntity
  8
LC-003-002-----0
  6
CONTINUOUS
 62
             7
100
AcDbLine
 10
-82.50014106354792
 20
-97.79719353563468
 11
-72.00011706354792
 21
-97.79719353563468
  0
LINE
  5
4A
100
AcDbEntity
  8
LC-003-002-----0
  6
CONTINUOUS
 62
             7
100
AcDbLine
 10
-72.00011706354792
 20
-97.79719353563468
 11
-72.00011706354792
 21
-98.79635453563463
  0
LINE
  5
49
100
AcDbEntity
  8
LC-003-002-----0
  6
CONTINUOUS
 62
             7
100
AcDbLine
 10
-72.50014106354792
 20
-66.29719353563468
 11
-75.50014106354792
 21
-66.29719353563468
  0
LINE
  5
48
100
AcDbEntity
  8
LC-003-002-----0
  6
CONTINUOUS
 62
             7
100
AcDbLine
 10
72.49985893645209
 20
-66.29719353563468
 11
75.49985893645209
 21
-66.29719353563468
  0
LINE
  5
47
100
AcDbEntity
  8
LC-003-002-----0
  6
CONTINUOUS
 62
             7
100
AcDbLine
 10
82.50007693645205
 20
-97.7970105356348
 11
72.00916493645207
 21
-97.7970035356347
  0
LINE
  5
46
100
AcDbEntity
  8
LC-003-002-----0
  6
CONTINUOUS
 62
             7
100
AcDbLine
 10
75.50007793645204
 20
-94.99700553563463
 11
82.50007793645204
 21
-94.99701053563484
  0
LINE
  5
45
100
AcDbEntity
  8
LC-003-002-----0
  6
CONTINUOUS
 62
             7
100
AcDbLine
 10
82.50007793645204
 20
-94.99701053563484
 11
82.50007693645205
 21
-97.7970105356348
  0
LINE
  5
44
100
AcDbEntity
  8
LC-003-002-----0
  6
CONTINUOUS
 62
             7
100
AcDbLine
 10
75.50009693645205
 20
-66.29719353563468
 11
75.50007793645204
 21
-94.99700553563463
  0
LINE
  5
43
100
AcDbEntity
  8
LC-001-020-----0
  6
CONTINUOUS
 62
             7
100
AcDbLine
 10
-72.00011706354792
 20
-98.79635453563463
 11
-72.00023506354791
 21
-187.79722553563471
  0
LINE
  5
42
100
AcDbEntity
  8
LC-001-020-----0
  6
CONTINUOUS
 62
             7
100
AcDbLine
 10
-52.00025406354797
 20
-207.79722453563471
 11
51.00857793645207
 21
-207.79736153563471
  0
LINE
  5
41
100
AcDbEntity
  8
LC-001-020-----0
  6
CONTINUOUS
 62
             7
100
AcDbLine
 10
72.00916493645207
 20
-97.7970035356347
 11
72.0091514863783
 21
-99.74725481952358
  0
LINE
  5
40
100
AcDbEntity
  8
LC-003-002-----0
  6
CONTINUOUS
 62
             7
100
AcDbLine
 10
72.0091514863783
 20
-99.74725481952358
 11
146.18712929258521
 21
-103.6347586811269
  0
LINE
  5
3F
100
AcDbEntity
  8
LC-003-002-----0
  6
CONTINUOUS
 62
             7
100
AcDbLine
 10
146.18712929258521
 20
-103.6347586811269
 11
150.6178572925852
 21
-105.0743886811269
  0
LINE
  5
3E
100
AcDbEntity
  8
LC-003-002-----0
  6
CONTINUOUS
 62
             7
100
AcDbLine
 10
150.6178572925852
 20
-105.0743886811269
 11
146.9232412925852
 21
-175.57187068112691
  0
LINE
  5
3D
100
AcDbEntity
  8
LC-003-002-----0
  6
CONTINUOUS
 62
             7
100
AcDbLine
 10
146.9232412925852
 20
-175.57187068112691
 11
146.81887129258519
 21
-177.56336668112689
  0
LINE
  5
3C
100
AcDbEntity
  8
LC-003-002-----0
  6
CONTINUOUS
 62
             7
100
AcDbLine
 10
142.26193329258521
 20
-178.53197368112691
 11
146.81887129258519
 21
-177.56336668112689
  0
LINE
  5
3B
100
AcDbEntity
  8
LC-003-002-----0
  6
CONTINUOUS
 62
             7
100
AcDbLine
 10
71.99534129258518
 20
-187.7972426811269
 11
71.99534129258518
 21
-187.79722553563471
  0
LINE
  5
3A
100
AcDbEntity
  8
LC-003-002-----0
  6
CONTINUOUS
 62
             7
100
AcDbLine
 10
71.99534129258518
 20
-174.84945768112689
 11
142.26193329258521
 21
-178.53197368112691
  0
LINE
  5
39
100
AcDbEntity
  8
1
  6
CONTINUOUS
 62
             7
100
AcDbLine
 10
142.26193329258521
 20
-178.53197368112691
 11
146.18712929258521
 21
-103.6347586811269
  0
LINE
  5
38
100
AcDbEntity
  8
1
  6
CONTINUOUS
 62
             7
100
AcDbLine
 10
51.00857793645207
 20
-207.79736153563471
 11
51.99536782159021
 21
-207.79724268110891
  0
LINE
  5
37
100
AcDbEntity
  8
LC-003-002-----0
  6
CONTINUOUS
 62
             7
100
AcDbLine
 10
71.99534129258518
 20
-187.79722553563471
 11
71.99534129258518
 21
-174.84945768112689
  0
LINE
  5
36
100
AcDbEntity
  8
1
  6
PHANTOM
 62
             2
100
AcDbLine
 10
0.0
 20
0.0
 11
-0.00006983572152
 21
-210.9760079081922
  0
LINE
  5
35
100
AcDbEntity
  8
1
  6
PHANTOM
 62
             2
100
AcDbLine
 10
56.25995403679036
 20
-136.47333767726761
 11
150.83005214787141
 21
-141.42954644594721
  0
POINT
  5
34
100
AcDbEntity
  8
0
 62
             7
100
AcDbPoint
 10
-82.50014106354792
 20
-97.79719353563468
  0
POINT
  5
33
100
AcDbEntity
  8
0
 62
             7
100
AcDbPoint
 10
-52.00025406354797
 20
-207.79722553563471
  0
POINT
  5
32
100
AcDbEntity
  8
0
 62
             7
100
AcDbPoint
 10
82.50007793645204
 20
-94.99701053563484
  0
POINT
  5
31
100
AcDbEntity
  8
0
 62
             7
100
AcDbPoint
 10
146.18712929258521
 20
-103.6347586811269
  0
POINT
  5
30
100
AcDbEntity
  8
0
 62
             7
100
AcDbPoint
 10
142.26193329258521
 20
-178.53197368112691
  0
ENDBLK
  5
56
100
AcDbEntity
  8
0
100
AcDbBlockEnd
  0
BLOCK
  5
2B
100
AcDbEntity
  8
0
100
AcDbBlockBegin
  2
062B_2E_AUFSATZRAHMEN
 70
             0
 10
-0.00014106354791
 20
-33.14860203563472
 30
0.0
  3
062B_2E_AUFSATZRAHMEN
  1

  0
ARC
  5
F8
100
AcDbEntity
  8
LC-003-002-----0
  6
CONTINUOUS
 62
             7
100
AcDbCircle
 10
-72.00014106354792
 20
-63.75001053563476
 40
1.25000000000001
100
AcDbArc
 50
-90.0
 51
90.0
  0
ARC
  5
F7
100
AcDbEntity
  8
LC-009-002-RND-0
  6
CONTINUOUS
 62
             7
100
AcDbCircle
 10
-72.00014106354792
 20
-65.50001053563477
 40
0.5
100
AcDbArc
 50
90.0
 51
180.0
  0
ARC
  5
F6
100
AcDbEntity
  8
LC-003-002-----0
  6
CONTINUOUS
 62
             7
100
AcDbCircle
 10
71.99985893645209
 20
-63.75001053563476
 40
1.25
100
AcDbArc
 50
90.0
 51
-90.0
  0
ARC
  5
F5
100
AcDbEntity
  8
LC-009-002-RND-0
  6
CONTINUOUS
 62
             7
100
AcDbCircle
 10
71.99985893645209
 20
-65.50001053563477
 40
0.5
100
AcDbArc
 50
0.0
 51
90.0
  0
ARC
  5
F4
100
AcDbEntity
  8
LC-003-002-----0
  6
CONTINUOUS
 62
             7
100
AcDbCircle
 10
-72.00014106354792
 20
-59.25001053563476
 40
1.25
100
AcDbArc
 50
-90.0
 51
90.0
  0
ARC
  5
F3
100
AcDbEntity
  8
LC-003-002-----0
  6
CONTINUOUS
 62
             7
100
AcDbCircle
 10
-72.00014106354792
 20
-54.75001053563477
 40
1.24999999999999
100
AcDbArc
 50
-90.0
 51
90.0
  0
ARC
  5
F2
100
AcDbEntity
  8
LC-003-002-----0
  6
CONTINUOUS
 62
             7
100
AcDbCircle
 10
-72.00014106354792
 20
-50.25001053563477
 40
1.25
100
AcDbArc
 50
-90.0
 51
90.0
  0
ARC
  5
F1
100
AcDbEntity
  8
LC-003-002-----0
  6
CONTINUOUS
 62
             7
100
AcDbCircle
 10
-72.00014106354792
 20
-45.75001053563477
 40
1.25
100
AcDbArc
 50
-90.0
 51
90.0
  0
ARC
  5
F0
100
AcDbEntity
  8
LC-003-002-----0
  6
CONTINUOUS
 62
             7
100
AcDbCircle
 10
-72.00014106354792
 20
-41.25001053563477
 40
1.25
100
AcDbArc
 50
-90.0
 51
90.0
  0
ARC
  5
EF
100
AcDbEntity
  8
LC-003-002-----0
  6
CONTINUOUS
 62
             7
100
AcDbCircle
 10
-72.00014106354792
 20
-36.75001053563477
 40
1.25
100
AcDbArc
 50
-90.0
 51
90.0
  0
ARC
  5
EE
100
AcDbEntity
  8
LC-003-002-----0
  6
CONTINUOUS
 62
             7
100
AcDbCircle
 10
-72.00014106354792
 20
-32.25001053563477
 40
1.25
100
AcDbArc
 50
-90.0
 51
90.0
  0
ARC
  5
ED
100
AcDbEntity
  8
LC-003-002-----0
  6
CONTINUOUS
 62
             7
100
AcDbCircle
 10
-72.00014106354792
 20
-27.75001053563477
 40
1.25
100
AcDbArc
 50
-90.0
 51
90.0
  0
ARC
  5
EC
100
AcDbEntity
  8
LC-003-002-----0
  6
CONTINUOUS
 62
             7
100
AcDbCircle
 10
-72.00014106354792
 20
-23.25001053563477
 40
1.25
100
AcDbArc
 50
-90.0
 51
90.0
  0
ARC
  5
EB
100
AcDbEntity
  8
LC-009-002-RND-0
  6
CONTINUOUS
 62
             7
100
AcDbCircle
 10
-72.00014106354792
 20
-61.00001053563476
 40
0.5
100
AcDbArc
 50
90.0
 51
180.0
  0
ARC
  5
EA
100
AcDbEntity
  8
LC-009-002-RND-0
  6
CONTINUOUS
 62
             7
100
AcDbCircle
 10
-72.00014106354792
 20
-56.50001053563476
 40
0.5
100
AcDbArc
 50
90.0
 51
180.0
  0
ARC
  5
E9
100
AcDbEntity
  8
LC-009-002-RND-0
  6
CONTINUOUS
 62
             7
100
AcDbCircle
 10
-72.00014106354792
 20
-52.00001053563477
 40
0.5
100
AcDbArc
 50
90.0
 51
180.0
  0
ARC
  5
E8
100
AcDbEntity
  8
LC-009-002-RND-0
  6
CONTINUOUS
 62
             7
100
AcDbCircle
 10
-72.00014106354792
 20
-47.50001053563477
 40
0.5
100
AcDbArc
 50
90.0
 51
180.0
  0
ARC
  5
E7
100
AcDbEntity
  8
LC-009-002-RND-0
  6
CONTINUOUS
 62
             7
100
AcDbCircle
 10
-72.00014106354792
 20
-43.00001053563477
 40
0.5
100
AcDbArc
 50
90.0
 51
180.0
  0
ARC
  5
E6
100
AcDbEntity
  8
LC-009-002-RND-0
  6
CONTINUOUS
 62
             7
100
AcDbCircle
 10
-72.00014106354792
 20
-38.50001053563477
 40
0.5
100
AcDbArc
 50
90.0
 51
180.0
  0
ARC
  5
E5
100
AcDbEntity
  8
LC-009-002-RND-0
  6
CONTINUOUS
 62
             7
100
AcDbCircle
 10
-72.00014106354792
 20
-34.00001053563477
 40
0.5
100
AcDbArc
 50
90.0
 51
180.0
  0
ARC
  5
E4
100
AcDbEntity
  8
LC-009-002-RND-0
  6
CONTINUOUS
 62
             7
100
AcDbCircle
 10
-72.00014106354792
 20
-29.50001053563477
 40
0.5
100
AcDbArc
 50
90.0
 51
180.0
  0
ARC
  5
E3
100
AcDbEntity
  8
LC-009-002-RND-0
  6
CONTINUOUS
 62
             7
100
AcDbCircle
 10
-72.00014106354792
 20
-25.00001053563477
 40
0.5
100
AcDbArc
 50
90.0
 51
180.0
  0
ARC
  5
E2
100
AcDbEntity
  8
LC-009-002-RND-0
  6
CONTINUOUS
 62
             7
100
AcDbCircle
 10
-72.00014106354792
 20
-21.50001053563477
 40
0.5
100
AcDbArc
 50
180.0
 51
-90.0
  0
ARC
  5
E1
100
AcDbEntity
  8
LC-009-002-RND-0
  6
CONTINUOUS
 62
             7
100
AcDbCircle
 10
-72.00014106354792
 20
-26.00001053563477
 40
0.5
100
AcDbArc
 50
180.0
 51
-90.0
  0
ARC
  5
E0
100
AcDbEntity
  8
LC-009-002-RND-0
  6
CONTINUOUS
 62
             7
100
AcDbCircle
 10
-72.00014106354792
 20
-30.50001053563477
 40
0.5
100
AcDbArc
 50
180.0
 51
-90.0
  0
ARC
  5
DF
100
AcDbEntity
  8
LC-009-002-RND-0
  6
CONTINUOUS
 62
             7
100
AcDbCircle
 10
-72.00014106354792
 20
-35.00001053563477
 40
0.5
100
AcDbArc
 50
180.0
 51
-90.0
  0
ARC
  5
DE
100
AcDbEntity
  8
LC-009-002-RND-0
  6
CONTINUOUS
 62
             7
100
AcDbCircle
 10
-72.00014106354792
 20
-39.50001053563477
 40
0.5
100
AcDbArc
 50
180.0
 51
-90.0
  0
ARC
  5
DD
100
AcDbEntity
  8
LC-009-002-RND-0
  6
CONTINUOUS
 62
             7
100
AcDbCircle
 10
-72.00014106354792
 20
-44.00001053563477
 40
0.5
100
AcDbArc
 50
180.0
 51
-90.0
  0
ARC
  5
DC
100
AcDbEntity
  8
LC-009-002-RND-0
  6
CONTINUOUS
 62
             7
100
AcDbCircle
 10
-72.00014106354792
 20
-48.50001053563477
 40
0.5
100
AcDbArc
 50
180.0
 51
-90.0
  0
ARC
  5
DB
100
AcDbEntity
  8
LC-009-002-RND-0
  6
CONTINUOUS
 62
             7
100
AcDbCircle
 10
-72.00014106354792
 20
-57.50001053563476
 40
0.5
100
AcDbArc
 50
180.0
 51
-90.0
  0
ARC
  5
DA
100
AcDbEntity
  8
LC-009-002-RND-0
  6
CONTINUOUS
 62
             7
100
AcDbCircle
 10
-72.00014106354792
 20
-53.00001053563477
 40
0.5
100
AcDbArc
 50
180.0
 51
-90.0
  0
ARC
  5
D9
100
AcDbEntity
  8
LC-009-002-RND-0
  6
CONTINUOUS
 62
             7
100
AcDbCircle
 10
-72.00014106354792
 20
-62.00001053563476
 40
0.5
100
AcDbArc
 50
180.0
 51
-90.0
  0
ARC
  5
D8
100
AcDbEntity
  8
LC-003-002-----0
  6
CONTINUOUS
 62
             7
100
AcDbCircle
 10
71.99985893645209
 20
-59.25001053563476
 40
1.25
100
AcDbArc
 50
90.0
 51
-90.0
  0
ARC
  5
D7
100
AcDbEntity
  8
LC-003-002-----0
  6
CONTINUOUS
 62
             7
100
AcDbCircle
 10
71.99985893645209
 20
-54.75001053563477
 40
1.25
100
AcDbArc
 50
90.0
 51
-90.0
  0
ARC
  5
D6
100
AcDbEntity
  8
LC-003-002-----0
  6
CONTINUOUS
 62
             7
100
AcDbCircle
 10
71.99985893645209
 20
-50.25001053563477
 40
1.25
100
AcDbArc
 50
90.0
 51
-90.0
  0
ARC
  5
D5
100
AcDbEntity
  8
LC-003-002-----0
  6
CONTINUOUS
 62
             7
100
AcDbCircle
 10
71.99985893645209
 20
-45.75001053563477
 40
1.25
100
AcDbArc
 50
90.0
 51
-90.0
  0
ARC
  5
D4
100
AcDbEntity
  8
LC-003-002-----0
  6
CONTINUOUS
 62
             7
100
AcDbCircle
 10
71.99985893645209
 20
-41.25001053563477
 40
1.25
100
AcDbArc
 50
90.0
 51
-90.0
  0
ARC
  5
D3
100
AcDbEntity
  8
LC-003-002-----0
  6
CONTINUOUS
 62
             7
100
AcDbCircle
 10
71.99985893645209
 20
-36.75001053563477
 40
1.25
100
AcDbArc
 50
90.0
 51
-90.0
  0
ARC
  5
D2
100
AcDbEntity
  8
LC-003-002-----0
  6
CONTINUOUS
 62
             7
100
AcDbCircle
 10
71.99985893645209
 20
-32.25001053563477
 40
1.25
100
AcDbArc
 50
90.0
 51
-90.0
  0
ARC
  5
D1
100
AcDbEntity
  8
LC-003-002-----0
  6
CONTINUOUS
 62
             7
100
AcDbCircle
 10
71.99985893645209
 20
-27.75001053563477
 40
1.25
100
AcDbArc
 50
90.0
 51
-90.0
  0
ARC
  5
D0
100
AcDbEntity
  8
LC-003-002-----0
  6
CONTINUOUS
 62
             7
100
AcDbCircle
 10
71.99985893645209
 20
-23.25001053563477
 40
1.25
100
AcDbArc
 50
90.0
 51
-90.0
  0
ARC
  5
CF
100
AcDbEntity
  8
LC-009-002-RND-0
  6
CONTINUOUS
 62
             7
100
AcDbCircle
 10
71.99985893645209
 20
-61.00001053563476
 40
0.5
100
AcDbArc
 50
0.0
 51
90.0
  0
ARC
  5
CE
100
AcDbEntity
  8
LC-009-002-RND-0
  6
CONTINUOUS
 62
             7
100
AcDbCircle
 10
71.99985893645209
 20
-56.50001053563476
 40
0.5
100
AcDbArc
 50
0.0
 51
90.0
  0
ARC
  5
CD
100
AcDbEntity
  8
LC-009-002-RND-0
  6
CONTINUOUS
 62
             7
100
AcDbCircle
 10
71.99985893645209
 20
-52.00001053563477
 40
0.5
100
AcDbArc
 50
0.0
 51
90.0
  0
ARC
  5
CC
100
AcDbEntity
  8
LC-009-002-RND-0
  6
CONTINUOUS
 62
             7
100
AcDbCircle
 10
71.99985893645209
 20
-47.50001053563477
 40
0.5
100
AcDbArc
 50
0.0
 51
90.0
  0
ARC
  5
CB
100
AcDbEntity
  8
LC-009-002-RND-0
  6
CONTINUOUS
 62
             7
100
AcDbCircle
 10
71.99985893645209
 20
-43.00001053563477
 40
0.5
100
AcDbArc
 50
0.0
 51
90.0
  0
ARC
  5
CA
100
AcDbEntity
  8
LC-009-002-RND-0
  6
CONTINUOUS
 62
             7
100
AcDbCircle
 10
71.99985893645209
 20
-38.50001053563477
 40
0.5
100
AcDbArc
 50
0.0
 51
90.0
  0
ARC
  5
C9
100
AcDbEntity
  8
LC-009-002-RND-0
  6
CONTINUOUS
 62
             7
100
AcDbCircle
 10
71.99985893645209
 20
-34.00001053563477
 40
0.5
100
AcDbArc
 50
0.0
 51
90.0
  0
ARC
  5
C8
100
AcDbEntity
  8
LC-009-002-RND-0
  6
CONTINUOUS
 62
             7
100
AcDbCircle
 10
71.99985893645209
 20
-29.50001053563477
 40
0.5
100
AcDbArc
 50
0.0
 51
90.0
  0
ARC
  5
C7
100
AcDbEntity
  8
LC-009-002-RND-0
  6
CONTINUOUS
 62
             7
100
AcDbCircle
 10
71.99985893645209
 20
-25.00001053563477
 40
0.5
100
AcDbArc
 50
0.0
 51
90.0
  0
ARC
  5
C6
100
AcDbEntity
  8
LC-009-002-RND-0
  6
CONTINUOUS
 62
             7
100
AcDbCircle
 10
71.99985893645209
 20
-21.50001053563477
 40
0.5
100
AcDbArc
 50
-90.0
 51
0.0
  0
ARC
  5
C5
100
AcDbEntity
  8
LC-009-002-RND-0
  6
CONTINUOUS
 62
             7
100
AcDbCircle
 10
71.99985893645209
 20
-26.00001053563477
 40
0.5
100
AcDbArc
 50
-90.0
 51
0.0
  0
ARC
  5
C4
100
AcDbEntity
  8
LC-009-002-RND-0
  6
CONTINUOUS
 62
             7
100
AcDbCircle
 10
71.99985893645209
 20
-30.50001053563477
 40
0.5
100
AcDbArc
 50
-90.0
 51
0.0
  0
ARC
  5
C3
100
AcDbEntity
  8
LC-009-002-RND-0
  6
CONTINUOUS
 62
             7
100
AcDbCircle
 10
71.99985893645209
 20
-35.00001053563477
 40
0.5
100
AcDbArc
 50
-90.0
 51
0.0
  0
ARC
  5
C2
100
AcDbEntity
  8
LC-009-002-RND-0
  6
CONTINUOUS
 62
             7
100
AcDbCircle
 10
71.99985893645209
 20
-39.50001053563477
 40
0.5
100
AcDbArc
 50
-90.0
 51
0.0
  0
ARC
  5
C1
100
AcDbEntity
  8
LC-009-002-RND-0
  6
CONTINUOUS
 62
             7
100
AcDbCircle
 10
71.99985893645209
 20
-44.00001053563477
 40
0.5
100
AcDbArc
 50
-90.0
 51
0.0
  0
ARC
  5
C0
100
AcDbEntity
  8
LC-009-002-RND-0
  6
CONTINUOUS
 62
             7
100
AcDbCircle
 10
71.99985893645209
 20
-48.50001053563477
 40
0.5
100
AcDbArc
 50
-90.0
 51
0.0
  0
ARC
  5
BF
100
AcDbEntity
  8
LC-009-002-RND-0
  6
CONTINUOUS
 62
             7
100
AcDbCircle
 10
71.99985893645209
 20
-57.50001053563476
 40
0.5
100
AcDbArc
 50
-90.0
 51
0.0
  0
ARC
  5
BE
100
AcDbEntity
  8
LC-009-002-RND-0
  6
CONTINUOUS
 62
             7
100
AcDbCircle
 10
71.99985893645209
 20
-53.00001053563477
 40
0.5
100
AcDbArc
 50
-90.0
 51
0.0
  0
ARC
  5
BD
100
AcDbEntity
  8
LC-009-002-RND-0
  6
CONTINUOUS
 62
             7
100
AcDbCircle
 10
71.99985893645209
 20
-62.00001053563476
 40
0.5
100
AcDbArc
 50
-90.0
 51
0.0
  0
LINE
  5
BC
100
AcDbEntity
  8
1
  6
CONTINUOUS
 62
             7
100
AcDbLine
 10
-72.00014106354792
 20
-65.00001053563477
 11
71.99985893645209
 21
-65.00001053563477
  0
LINE
  5
BB
100
AcDbEntity
  8
LC-003-002-----0
  6
CONTINUOUS
 62
             7
100
AcDbLine
 10
-72.00014106354792
 20
-65.00001053563477
 11
-72.00014106354792
 21
-65.00001053563477
  0
LINE
  5
BA
100
AcDbEntity
  8
LC-003-002-----0
  6
CONTINUOUS
 62
             7
100
AcDbLine
 10
-72.50014106354792
 20
-65.50001053563477
 11
-72.50014106354792
 21
-66.29719353563468
  0
LINE
  5
B9
100
AcDbEntity
  8
LC-003-002-----0
  6
CONTINUOUS
 62
             7
100
AcDbLine
 10
71.99985893645209
 20
-65.00001053563477
 11
71.99985893645209
 21
-65.00001053563477
  0
LINE
  5
B8
100
AcDbEntity
  8
LC-003-002-----0
  6
CONTINUOUS
 62
             7
100
AcDbLine
 10
72.49985893645209
 20
-65.50001053563477
 11
72.49985893645209
 21
-66.29719353563468
  0
LINE
  5
B7
100
AcDbEntity
  8
1
  6
CONTINUOUS
 62
             7
100
AcDbLine
 10
-72.00014106354792
 20
-62.50001053563476
 11
71.99985893645209
 21
-62.50001053563476
  0
LINE
  5
B6
100
AcDbEntity
  8
1
  6
CONTINUOUS
 62
             7
100
AcDbLine
 10
-72.00014106354792
 20
-60.50001053563476
 11
71.99985893645209
 21
-60.50001053563476
  0
LINE
  5
B5
100
AcDbEntity
  8
1
  6
CONTINUOUS
 62
             7
100
AcDbLine
 10
-72.00014106354792
 20
-58.00001053563476
 11
71.99985893645209
 21
-58.00001053563476
  0
LINE
  5
B4
100
AcDbEntity
  8
1
  6
CONTINUOUS
 62
             7
100
AcDbLine
 10
-72.00014106354792
 20
-56.00001053563476
 11
71.99985893645209
 21
-56.00001053563476
  0
LINE
  5
B3
100
AcDbEntity
  8
1
  6
CONTINUOUS
 62
             7
100
AcDbLine
 10
-72.00014106354792
 20
-53.50001053563477
 11
71.99985893645209
 21
-53.50001053563477
  0
LINE
  5
B2
100
AcDbEntity
  8
1
  6
CONTINUOUS
 62
             7
100
AcDbLine
 10
-72.00014106354792
 20
-51.50001053563477
 11
71.99985893645209
 21
-51.50001053563477
  0
LINE
  5
B1
100
AcDbEntity
  8
1
  6
CONTINUOUS
 62
             7
100
AcDbLine
 10
-72.00014106354792
 20
-49.00001053563477
 11
71.99985893645209
 21
-49.00001053563477
  0
LINE
  5
B0
100
AcDbEntity
  8
1
  6
CONTINUOUS
 62
             7
100
AcDbLine
 10
-72.00014106354792
 20
-47.00001053563477
 11
71.99985893645209
 21
-47.00001053563477
  0
LINE
  5
AF
100
AcDbEntity
  8
1
  6
CONTINUOUS
 62
             7
100
AcDbLine
 10
-72.00014106354792
 20
-44.50001053563477
 11
71.99985893645209
 21
-44.50001053563477
  0
LINE
  5
AE
100
AcDbEntity
  8
1
  6
CONTINUOUS
 62
             7
100
AcDbLine
 10
-72.00014106354792
 20
-42.50001053563477
 11
71.99985893645209
 21
-42.50001053563477
  0
LINE
  5
AD
100
AcDbEntity
  8
1
  6
CONTINUOUS
 62
             7
100
AcDbLine
 10
-72.00014106354792
 20
-40.00001053563477
 11
71.99985893645209
 21
-40.00001053563477
  0
LINE
  5
AC
100
AcDbEntity
  8
1
  6
CONTINUOUS
 62
             7
100
AcDbLine
 10
-72.00014106354792
 20
-38.00001053563477
 11
71.99985893645209
 21
-38.00001053563477
  0
LINE
  5
AB
100
AcDbEntity
  8
1
  6
CONTINUOUS
 62
             7
100
AcDbLine
 10
-72.00014106354792
 20
-35.50001053563477
 11
71.99985893645209
 21
-35.50001053563477
  0
LINE
  5
AA
100
AcDbEntity
  8
1
  6
CONTINUOUS
 62
             7
100
AcDbLine
 10
-72.00014106354792
 20
-33.50001053563477
 11
71.99985893645209
 21
-33.50001053563477
  0
LINE
  5
A9
100
AcDbEntity
  8
1
  6
CONTINUOUS
 62
             7
100
AcDbLine
 10
-72.00014106354792
 20
-31.00001053563477
 11
71.99985893645209
 21
-31.00001053563477
  0
LINE
  5
A8
100
AcDbEntity
  8
1
  6
CONTINUOUS
 62
             7
100
AcDbLine
 10
-72.00014106354792
 20
-29.00001053563477
 11
71.99985893645209
 21
-29.00001053563477
  0
LINE
  5
A7
100
AcDbEntity
  8
1
  6
CONTINUOUS
 62
             7
100
AcDbLine
 10
-72.00014106354792
 20
-26.50001053563477
 11
71.99985893645209
 21
-26.50001053563477
  0
LINE
  5
A6
100
AcDbEntity
  8
1
  6
CONTINUOUS
 62
             7
100
AcDbLine
 10
-72.00014106354792
 20
-24.50001053563477
 11
71.99985893645209
 21
-24.50001053563477
  0
LINE
  5
A5
100
AcDbEntity
  8
1
  6
CONTINUOUS
 62
             7
100
AcDbLine
 10
71.99985893645209
 20
-22.00001053563477
 11
-72.00014106354792
 21
-22.00001053563477
  0
LINE
  5
A4
100
AcDbEntity
  8
1
  6
CONTINUOUS
 62
             7
100
AcDbLine
 10
-72.50014106354792
 20
-19.00001053563477
 11
72.49985893645209
 21
-19.00001053563477
  0
LINE
  5
A3
100
AcDbEntity
  8
1
  6
CONTINUOUS
 62
             7
100
AcDbLine
 10
-72.50014106354792
 20
-17.00001053563477
 11
72.49985893645209
 21
-17.00001053563477
  0
LINE
  5
A2
100
AcDbEntity
  8
1
  6
CONTINUOUS
 62
             7
100
AcDbLine
 10
-72.50014106354792
 20
-14.00001053563477
 11
72.49985893645209
 21
-14.00001053563477
  0
LINE
  5
A1
100
AcDbEntity
  8
LC-003-002-----0
  6
CONTINUOUS
 62
             7
100
AcDbLine
 10
-69.00043606354797
 20
-0.00001053563477
 11
69.00015493645208
 21
-0.00001053563477
  0
LINE
  5
A0
100
AcDbEntity
  8
LC-003-002-----0
  6
CONTINUOUS
 62
             7
100
AcDbLine
 10
-73.50014106354792
 20
-0.00001053563477
 11
-73.50014106354792
 21
-14.00001053563477
  0
LINE
  5
9F
100
AcDbEntity
  8
LC-003-002-----0
  6
CONTINUOUS
 62
             7
100
AcDbLine
 10
-73.00014106354792
 20
-17.00001053563477
 11
-72.50014106354792
 21
-17.00001053563477
  0
LINE
  5
9E
100
AcDbEntity
  8
LC-003-002-----0
  6
CONTINUOUS
 62
             7
100
AcDbLine
 10
-72.50014106354792
 20
-14.00001053563477
 11
-73.50014106354792
 21
-14.00001053563477
  0
LINE
  5
9D
100
AcDbEntity
  8
LC-003-002-----0
  6
CONTINUOUS
 62
             7
100
AcDbLine
 10
-73.00014106354792
 20
-19.00001053563477
 11
-72.50014106354792
 21
-19.00001053563477
  0
LINE
  5
9C
100
AcDbEntity
  8
LC-003-002-----0
  6
CONTINUOUS
 62
             7
100
AcDbLine
 10
-73.00014106354792
 20
-17.00001053563477
 11
-73.00014106354792
 21
-19.00001053563477
  0
LINE
  5
9B
100
AcDbEntity
  8
LC-003-002-----0
  6
CONTINUOUS
 62
             7
100
AcDbLine
 10
-72.50014106354792
 20
-19.00001053563477
 11
-72.50014106354792
 21
-21.50001053563477
  0
LINE
  5
9A
100
AcDbEntity
  8
LC-003-002-----0
  6
CONTINUOUS
 62
             7
100
AcDbLine
 10
-72.00014106354792
 20
-62.50001053563476
 11
-72.00014106354792
 21
-62.50001053563476
  0
LINE
  5
99
100
AcDbEntity
  8
LC-003-002-----0
  6
CONTINUOUS
 62
             7
100
AcDbLine
 10
-72.00014106354792
 20
-58.00001053563476
 11
-72.00014106354792
 21
-58.00001053563476
  0
LINE
  5
98
100
AcDbEntity
  8
LC-003-002-----0
  6
CONTINUOUS
 62
             7
100
AcDbLine
 10
-72.00014106354792
 20
-53.50001053563477
 11
-72.00014106354792
 21
-53.50001053563477
  0
LINE
  5
97
100
AcDbEntity
  8
LC-003-002-----0
  6
CONTINUOUS
 62
             7
100
AcDbLine
 10
-72.00014106354792
 20
-49.00001053563477
 11
-72.00014106354792
 21
-49.00001053563477
  0
LINE
  5
96
100
AcDbEntity
  8
LC-003-002-----0
  6
CONTINUOUS
 62
             7
100
AcDbLine
 10
-72.00014106354792
 20
-44.50001053563477
 11
-72.00014106354792
 21
-44.50001053563477
  0
LINE
  5
95
100
AcDbEntity
  8
LC-003-002-----0
  6
CONTINUOUS
 62
             7
100
AcDbLine
 10
-72.00014106354792
 20
-40.00001053563477
 11
-72.00014106354792
 21
-40.00001053563477
  0
LINE
  5
94
100
AcDbEntity
  8
LC-003-002-----0
  6
CONTINUOUS
 62
             7
100
AcDbLine
 10
-72.00014106354792
 20
-35.50001053563477
 11
-72.00014106354792
 21
-35.50001053563477
  0
LINE
  5
93
100
AcDbEntity
  8
LC-003-002-----0
  6
CONTINUOUS
 62
             7
100
AcDbLine
 10
-72.00014106354792
 20
-31.00001053563477
 11
-72.00014106354792
 21
-31.00001053563477
  0
LINE
  5
92
100
AcDbEntity
  8
LC-003-002-----0
  6
CONTINUOUS
 62
             7
100
AcDbLine
 10
-72.00014106354792
 20
-26.50001053563477
 11
-72.00014106354792
 21
-26.50001053563477
  0
LINE
  5
91
100
AcDbEntity
  8
LC-003-002-----0
  6
CONTINUOUS
 62
             7
100
AcDbLine
 10
-72.00014106354792
 20
-22.00001053563477
 11
-72.00014106354792
 21
-22.00001053563477
  0
LINE
  5
90
100
AcDbEntity
  8
LC-003-002-----0
  6
CONTINUOUS
 62
             7
100
AcDbLine
 10
-72.00014106354792
 20
-60.50001053563476
 11
-72.00014106354792
 21
-60.50001053563476
  0
LINE
  5
8F
100
AcDbEntity
  8
LC-003-002-----0
  6
CONTINUOUS
 62
             7
100
AcDbLine
 10
-72.00014106354792
 20
-56.00001053563476
 11
-72.00014106354792
 21
-56.00001053563476
  0
LINE
  5
8E
100
AcDbEntity
  8
LC-003-002-----0
  6
CONTINUOUS
 62
             7
100
AcDbLine
 10
-72.00014106354792
 20
-51.50001053563477
 11
-72.00014106354792
 21
-51.50001053563477
  0
LINE
  5
8D
100
AcDbEntity
  8
LC-003-002-----0
  6
CONTINUOUS
 62
             7
100
AcDbLine
 10
-72.00014106354792
 20
-47.00001053563477
 11
-72.00014106354792
 21
-47.00001053563477
  0
LINE
  5
8C
100
AcDbEntity
  8
LC-003-002-----0
  6
CONTINUOUS
 62
             7
100
AcDbLine
 10
-72.00014106354792
 20
-42.50001053563477
 11
-72.00014106354792
 21
-42.50001053563477
  0
LINE
  5
8B
100
AcDbEntity
  8
LC-003-002-----0
  6
CONTINUOUS
 62
             7
100
AcDbLine
 10
-72.00014106354792
 20
-38.00001053563477
 11
-72.00014106354792
 21
-38.00001053563477
  0
LINE
  5
8A
100
AcDbEntity
  8
LC-003-002-----0
  6
CONTINUOUS
 62
             7
100
AcDbLine
 10
-72.00014106354792
 20
-33.50001053563477
 11
-72.00014106354792
 21
-33.50001053563477
  0
LINE
  5
89
100
AcDbEntity
  8
LC-003-002-----0
  6
CONTINUOUS
 62
             7
100
AcDbLine
 10
-72.00014106354792
 20
-29.00001053563477
 11
-72.00014106354792
 21
-29.00001053563477
  0
LINE
  5
88
100
AcDbEntity
  8
LC-003-002-----0
  6
CONTINUOUS
 62
             7
100
AcDbLine
 10
-72.00014106354792
 20
-24.50001053563477
 11
-72.00014106354792
 21
-24.50001053563477
  0
LINE
  5
87
100
AcDbEntity
  8
LC-003-002-----0
  6
CONTINUOUS
 62
             7
100
AcDbLine
 10
-72.50014106354792
 20
-61.00001053563476
 11
-72.50014106354792
 21
-62.00001053563476
  0
LINE
  5
86
100
AcDbEntity
  8
LC-003-002-----0
  6
CONTINUOUS
 62
             7
100
AcDbLine
 10
-72.50014106354792
 20
-56.50001053563476
 11
-72.50014106354792
 21
-57.50001053563476
  0
LINE
  5
85
100
AcDbEntity
  8
LC-003-002-----0
  6
CONTINUOUS
 62
             7
100
AcDbLine
 10
-72.50014106354792
 20
-52.00001053563477
 11
-72.50014106354792
 21
-53.00001053563477
  0
LINE
  5
84
100
AcDbEntity
  8
LC-003-002-----0
  6
CONTINUOUS
 62
             7
100
AcDbLine
 10
-72.50014106354792
 20
-47.50001053563477
 11
-72.50014106354792
 21
-48.50001053563477
  0
LINE
  5
83
100
AcDbEntity
  8
LC-003-002-----0
  6
CONTINUOUS
 62
             7
100
AcDbLine
 10
-72.50014106354792
 20
-43.00001053563477
 11
-72.50014106354792
 21
-44.00001053563477
  0
LINE
  5
82
100
AcDbEntity
  8
LC-003-002-----0
  6
CONTINUOUS
 62
             7
100
AcDbLine
 10
-72.50014106354792
 20
-38.50001053563477
 11
-72.50014106354792
 21
-39.50001053563477
  0
LINE
  5
81
100
AcDbEntity
  8
LC-003-002-----0
  6
CONTINUOUS
 62
             7
100
AcDbLine
 10
-72.50014106354792
 20
-34.00001053563477
 11
-72.50014106354792
 21
-35.00001053563477
  0
LINE
  5
80
100
AcDbEntity
  8
LC-003-002-----0
  6
CONTINUOUS
 62
             7
100
AcDbLine
 10
-72.50014106354792
 20
-29.50001053563477
 11
-72.50014106354792
 21
-30.50001053563477
  0
LINE
  5
7F
100
AcDbEntity
  8
LC-003-002-----0
  6
CONTINUOUS
 62
             7
100
AcDbLine
 10
-72.50014106354792
 20
-25.00001053563477
 11
-72.50014106354792
 21
-26.00001053563477
  0
LINE
  5
7E
100
AcDbEntity
  8
LC-003-002-----0
  6
CONTINUOUS
 62
             7
100
AcDbLine
 10
-72.50014106354792
 20
-14.00001053563477
 11
-72.50014106354792
 21
-17.00001053563477
  0
LINE
  5
7D
100
AcDbEntity
  8
LC-003-002-----0
  6
CONTINUOUS
 62
             7
100
AcDbLine
 10
73.49985893645209
 20
-0.00001053563477
 11
-73.50014106354792
 21
-0.00001053563477
  0
LINE
  5
7C
100
AcDbEntity
  8
LC-003-002-----0
  6
CONTINUOUS
 62
             7
100
AcDbLine
 10
73.49985893645209
 20
-0.00001053563477
 11
73.49985893645209
 21
-14.00001053563477
  0
LINE
  5
7B
100
AcDbEntity
  8
LC-003-002-----0
  6
CONTINUOUS
 62
             7
100
AcDbLine
 10
72.99985893645209
 20
-17.00001053563477
 11
72.49985893645209
 21
-17.00001053563477
  0
LINE
  5
7A
100
AcDbEntity
  8
LC-003-002-----0
  6
CONTINUOUS
 62
             7
100
AcDbLine
 10
72.49985893645209
 20
-14.00001053563477
 11
73.49985893645209
 21
-14.00001053563477
  0
LINE
  5
79
100
AcDbEntity
  8
LC-003-002-----0
  6
CONTINUOUS
 62
             7
100
AcDbLine
 10
72.99985893645209
 20
-19.00001053563477
 11
72.49985893645209
 21
-19.00001053563477
  0
LINE
  5
78
100
AcDbEntity
  8
LC-003-002-----0
  6
CONTINUOUS
 62
             7
100
AcDbLine
 10
72.99985893645209
 20
-17.00001053563477
 11
72.99985893645209
 21
-19.00001053563477
  0
LINE
  5
77
100
AcDbEntity
  8
LC-003-002-----0
  6
CONTINUOUS
 62
             7
100
AcDbLine
 10
72.49985893645209
 20
-19.00001053563477
 11
72.49985893645209
 21
-21.50001053563477
  0
LINE
  5
76
100
AcDbEntity
  8
LC-003-002-----0
  6
CONTINUOUS
 62
             7
100
AcDbLine
 10
71.99985893645209
 20
-62.50001053563476
 11
71.99985893645209
 21
-62.50001053563476
  0
LINE
  5
75
100
AcDbEntity
  8
LC-003-002-----0
  6
CONTINUOUS
 62
             7
100
AcDbLine
 10
71.99985893645209
 20
-58.00001053563476
 11
71.99985893645209
 21
-58.00001053563476
  0
LINE
  5
74
100
AcDbEntity
  8
LC-003-002-----0
  6
CONTINUOUS
 62
             7
100
AcDbLine
 10
71.99985893645209
 20
-53.50001053563477
 11
71.99985893645209
 21
-53.50001053563477
  0
LINE
  5
73
100
AcDbEntity
  8
LC-003-002-----0
  6
CONTINUOUS
 62
             7
100
AcDbLine
 10
71.99985893645209
 20
-49.00001053563477
 11
71.99985893645209
 21
-49.00001053563477
  0
LINE
  5
72
100
AcDbEntity
  8
LC-003-002-----0
  6
CONTINUOUS
 62
             7
100
AcDbLine
 10
71.99985893645209
 20
-44.50001053563477
 11
71.99985893645209
 21
-44.50001053563477
  0
LINE
  5
71
100
AcDbEntity
  8
LC-003-002-----0
  6
CONTINUOUS
 62
             7
100
AcDbLine
 10
71.99985893645209
 20
-40.00001053563477
 11
71.99985893645209
 21
-40.00001053563477
  0
LINE
  5
70
100
AcDbEntity
  8
LC-003-002-----0
  6
CONTINUOUS
 62
             7
100
AcDbLine
 10
71.99985893645209
 20
-35.50001053563477
 11
71.99985893645209
 21
-35.50001053563477
  0
LINE
  5
6F
100
AcDbEntity
  8
LC-003-002-----0
  6
CONTINUOUS
 62
             7
100
AcDbLine
 10
71.99985893645209
 20
-31.00001053563477
 11
71.99985893645209
 21
-31.00001053563477
  0
LINE
  5
6E
100
AcDbEntity
  8
LC-003-002-----0
  6
CONTINUOUS
 62
             7
100
AcDbLine
 10
71.99985893645209
 20
-26.50001053563477
 11
71.99985893645209
 21
-26.50001053563477
  0
LINE
  5
6D
100
AcDbEntity
  8
LC-003-002-----0
  6
CONTINUOUS
 62
             7
100
AcDbLine
 10
71.99985893645209
 20
-22.00001053563477
 11
71.99985893645209
 21
-22.00001053563477
  0
LINE
  5
6C
100
AcDbEntity
  8
LC-003-002-----0
  6
CONTINUOUS
 62
             7
100
AcDbLine
 10
71.99985893645209
 20
-60.50001053563476
 11
71.99985893645209
 21
-60.50001053563476
  0
LINE
  5
6B
100
AcDbEntity
  8
LC-003-002-----0
  6
CONTINUOUS
 62
             7
100
AcDbLine
 10
71.99985893645209
 20
-56.00001053563476
 11
71.99985893645209
 21
-56.00001053563476
  0
LINE
  5
6A
100
AcDbEntity
  8
LC-003-002-----0
  6
CONTINUOUS
 62
             7
100
AcDbLine
 10
71.99985893645209
 20
-51.50001053563477
 11
71.99985893645209
 21
-51.50001053563477
  0
LINE
  5
69
100
AcDbEntity
  8
LC-003-002-----0
  6
CONTINUOUS
 62
             7
100
AcDbLine
 10
71.99985893645209
 20
-47.00001053563477
 11
71.99985893645209
 21
-47.00001053563477
  0
LINE
  5
68
100
AcDbEntity
  8
LC-003-002-----0
  6
CONTINUOUS
 62
             7
100
AcDbLine
 10
71.99985893645209
 20
-42.50001053563477
 11
71.99985893645209
 21
-42.50001053563477
  0
LINE
  5
67
100
AcDbEntity
  8
LC-003-002-----0
  6
CONTINUOUS
 62
             7
100
AcDbLine
 10
71.99985893645209
 20
-38.00001053563477
 11
71.99985893645209
 21
-38.00001053563477
  0
LINE
  5
66
100
AcDbEntity
  8
LC-003-002-----0
  6
CONTINUOUS
 62
             7
100
AcDbLine
 10
71.99985893645209
 20
-33.50001053563477
 11
71.99985893645209
 21
-33.50001053563477
  0
LINE
  5
65
100
AcDbEntity
  8
LC-003-002-----0
  6
CONTINUOUS
 62
             7
100
AcDbLine
 10
71.99985893645209
 20
-29.00001053563477
 11
71.99985893645209
 21
-29.00001053563477
  0
LINE
  5
64
100
AcDbEntity
  8
LC-003-002-----0
  6
CONTINUOUS
 62
             7
100
AcDbLine
 10
71.99985893645209
 20
-24.50001053563477
 11
71.99985893645209
 21
-24.50001053563477
  0
LINE
  5
63
100
AcDbEntity
  8
LC-003-002-----0
  6
CONTINUOUS
 62
             7
100
AcDbLine
 10
72.49985893645209
 20
-61.00001053563476
 11
72.49985893645209
 21
-62.00001053563476
  0
LINE
  5
62
100
AcDbEntity
  8
LC-003-002-----0
  6
CONTINUOUS
 62
             7
100
AcDbLine
 10
72.49985893645209
 20
-56.50001053563476
 11
72.49985893645209
 21
-57.50001053563476
  0
LINE
  5
61
100
AcDbEntity
  8
LC-003-002-----0
  6
CONTINUOUS
 62
             7
100
AcDbLine
 10
72.49985893645209
 20
-52.00001053563477
 11
72.49985893645209
 21
-53.00001053563477
  0
LINE
  5
60
100
AcDbEntity
  8
LC-003-002-----0
  6
CONTINUOUS
 62
             7
100
AcDbLine
 10
72.49985893645209
 20
-47.50001053563477
 11
72.49985893645209
 21
-48.50001053563477
  0
LINE
  5
5F
100
AcDbEntity
  8
LC-003-002-----0
  6
CONTINUOUS
 62
             7
100
AcDbLine
 10
72.49985893645209
 20
-43.00001053563477
 11
72.49985893645209
 21
-44.00001053563477
  0
LINE
  5
5E
100
AcDbEntity
  8
LC-003-002-----0
  6
CONTINUOUS
 62
             7
100
AcDbLine
 10
72.49985893645209
 20
-38.50001053563477
 11
72.49985893645209
 21
-39.50001053563477
  0
LINE
  5
5D
100
AcDbEntity
  8
LC-003-002-----0
  6
CONTINUOUS
 62
             7
100
AcDbLine
 10
72.49985893645209
 20
-34.00001053563477
 11
72.49985893645209
 21
-35.00001053563477
  0
LINE
  5
5C
100
AcDbEntity
  8
LC-003-002-----0
  6
CONTINUOUS
 62
             7
100
AcDbLine
 10
72.49985893645209
 20
-29.50001053563477
 11
72.49985893645209
 21
-30.50001053563477
  0
LINE
  5
5B
100
AcDbEntity
  8
LC-003-002-----0
  6
CONTINUOUS
 62
             7
100
AcDbLine
 10
72.49985893645209
 20
-25.00001053563477
 11
72.49985893645209
 21
-26.00001053563477
  0
LINE
  5
5A
100
AcDbEntity
  8
LC-003-002-----0
  6
CONTINUOUS
 62
             7
100
AcDbLine
 10
72.49985893645209
 20
-14.00001053563477
 11
72.49985893645209
 21
-17.00001053563477
  0
POINT
  5
59
100
AcDbEntity
  8
0
 62
             7
100
AcDbPoint
 10
-73.50014106354792
 20
-0.00001053563477
  0
POINT
  5
58
100
AcDbEntity
  8
0
 62
             7
100
AcDbPoint
 10
73.49985893645209
 20
-0.00001053563477
  0
POINT
  5
57
100
AcDbEntity
  8
0
 62
             7
100
AcDbPoint
 10
73.49985893645209
 20
-0.00001053563477
  0
ENDBLK
  5
F9
100
AcDbEntity
  8
0
100
AcDbBlockEnd
  0
BLOCK
  5
FC
100
AcDbEntity
  8
0
100
AcDbBlockBegin
  2
*D2
 70
             1
 10
0.0
 20
0.0
 30
0.0
  3
*D2
  1

  0
LINE
  5
FD
100
AcDbEntity
  8
0
  6
CONTINUOUS
 62
             4
100
AcDbLine
 10
168.88298904710857
 20
-179.92712407852943
 11
172.8081857104805
 21
-105.02990911329528
  0
LINE
  5
FE
100
AcDbEntity
  8
0
  6
CONTINUOUS
 62
             4
100
AcDbLine
 10
146.18712929258524
 20
-103.63475868112685
 11
174.80544478005578
 21
-105.13458102451958
  0
LINE
  5
FF
100
AcDbEntity
  8
0
  6
CONTINUOUS
 62
             4
100
AcDbLine
 10
142.26193329258524
 20
-178.53197368112686
 11
170.88024811668384
 21
-180.0317959897537
  0
SOLID
  5
100
100
AcDbEntity
  8
0
 62
             4
100
AcDbTrace
 10
168.09162787903662
 20
-169.87192713795349
 11
170.72106932742324
 21
-170.0097303233527
 12
168.88298904710857
 22
-179.92712407852943
 13
168.88298904710857
 23
-179.92712407852943
  0
SOLID
  5
101
100
AcDbEntity
  8
0
 62
             4
100
AcDbTrace
 10
173.59954687855245
 20
-115.08510605387121
 11
170.97010543016583
 21
-114.94730286847199
 12
172.8081857104805
 22
-105.02990911329528
 13
172.8081857104805
 23
-105.02990911329528
  0
MTEXT
  5
103
100
AcDbEntity
  8
0
 62
             1
100
AcDbMText
 10
168.23868310074332
 20
-154.00656837923114
 30
0.0
 40
10.0
 41
0.0
 71
             7
 72
             1
  1
\C1;DN\C1;75
  7
CONVERTER_1
 11
0.05233595561214
 21
0.99862953478763
 31
0.0
  0
ENDBLK
  5
104
100
AcDbEntity
  8
0
100
AcDbBlockEnd
  0
BLOCK
  5
108
100
AcDbEntity
  8
0
100
AcDbBlockBegin
  2
*D3
 70
             1
 10
0.0
 20
0.0
 30
0.0
  3
*D3
  1

  0
LINE
  5
109
100
AcDbEntity
  8
0
  6
CONTINUOUS
 62
             4
100
AcDbLine
 10
-92.5001410635474
 20
-97.7971902255085
 11
-92.5001774749427
 21
-207.79721112964893
  0
LINE
  5
10A
100
AcDbEntity
  8
0
  6
CONTINUOUS
 62
             4
100
AcDbLine
 10
-52.00025406354797
 20
-207.79722453563474
 11
-94.50017747494259
 21
-207.7972104676237
  0
LINE
  5
10B
100
AcDbEntity
  8
0
  6
CONTINUOUS
 62
             4
100
AcDbLine
 10
-82.50014106354792
 20
-97.79719353563471
 11
-94.50014106354729
 21
-97.79718956348324
  0
SOLID
  5
10C
100
AcDbEntity
  8
0
 62
             4
100
AcDbTrace
 10
-90.9203150646503
 20
-109.79719074845151
 11
-94.07997500674762
 21
-109.79718970256417
 12
-92.5001410635474
 22
-97.7971902255085
 13
-92.5001410635474
 23
-97.7971902255085
  0
SOLID
  5
10D
100
AcDbEntity
  8
0
 62
             4
100
AcDbTrace
 10
-94.08000347383999
 20
-195.79721060670593
 11
-90.92034353174266
 21
-195.79721165259323
 12
-92.5001774749427
 22
-207.79721112964893
 13
-92.5001774749427
 23
-207.79721112964893
  0
MTEXT
  5
10E
100
AcDbEntity
  8
0
 62
             1
100
AcDbMText
 10
-94.50016227859484
 20
-161.88854487921253
 30
0.0
 40
12.0
 41
0.0
 71
             7
 72
             1
  1
110
  7
CONVERTER_1
 11
0.00000033101262
 21
0.99999999999995
 31
0.0
  0
ENDBLK
  5
10F
100
AcDbEntity
  8
0
100
AcDbBlockEnd
  0
BLOCK
  5
113
100
AcDbEntity
  8
0
100
AcDbBlockBegin
  2
*D4
 70
             1
 10
0.0
 20
0.0
 30
0.0
  3
*D4
  1

  0
LINE
  5
114
100
AcDbEntity
  8
0
  6
CONTINUOUS
 62
             4
100
AcDbLine
 10
98.06137665277551
 20
-0.00001866580714
 11
98.06134520757048
 21
-94.99701568661072
  0
LINE
  5
115
100
AcDbEntity
  8
0
  6
CONTINUOUS
 62
             4
100
AcDbLine
 10
73.49985893645209
 20
-0.00001053563477
 11
100.06137665277539
 21
-0.00001932783238
  0
LINE
  5
116
100
AcDbEntity
  8
0
  6
CONTINUOUS
 62
             4
100
AcDbLine
 10
82.50007793645204
 20
-94.99701053563484
 11
100.06134520757037
 21
-94.99701634863597
  0
SOLID
  5
117
100
AcDbEntity
  8
0
 62
             4
100
AcDbTrace
 10
99.64120265167261
 20
-12.00001918875016
 11
96.48154270957529
 21
-12.00001814286281
 12
98.06137665277551
 22
-0.00001866580714
 13
98.06137665277551
 23
-0.00001866580714
  0
SOLID
  5
118
100
AcDbEntity
  8
0
 62
             4
100
AcDbTrace
 10
96.48151920867319
 20
-82.99701516366773
 11
99.64117915077053
 21
-82.99701620955503
 12
98.06134520757048
 22
-94.99701568661072
 13
98.06134520757048
 23
-94.99701568661072
  0
MTEXT
  5
119
100
AcDbEntity
  8
0
 62
             1
100
AcDbMText
 10
96.06135356642996
 20
-69.74462637023925
 30
0.0
 40
12.0
 41
0.0
 71
             7
 72
             1
  1
\C1;45-\C1;95
  7
CONVERTER_1
 11
0.00000033101262
 21
0.99999999999995
 31
0.0
  0
ENDBLK
  5
11A
100
AcDbEntity
  8
0
100
AcDbBlockEnd
  0
BLOCK
  5
11E
100
AcDbEntity
  8
0
100
AcDbBlockBegin
  2
*D5
 70
             1
 10
0.0
 20
0.0
 30
0.0
  3
*D5
  1

  0
LINE
  5
11F
100
AcDbEntity
  8
0
  6
CONTINUOUS
 62
             4
100
AcDbLine
 10
73.4998650124499
 20
18.35577827820303
 11
-73.50013498753401
 21
18.3558269370586
  0
LINE
  5
120
100
AcDbEntity
  8
0
  6
CONTINUOUS
 62
             4
100
AcDbLine
 10
73.49985893645209
 20
-0.00001053563477
 11
73.49986567447513
 21
20.35577827820292
  0
LINE
  5
121
100
AcDbEntity
  8
0
  6
CONTINUOUS
 62
             4
100
AcDbLine
 10
-73.50014106354792
 20
-0.00001053563477
 11
-73.50013432550875
 21
20.35582693705849
  0
SOLID
  5
122
100
AcDbEntity
  8
0
 62
             4
100
AcDbTrace
 10
61.4998644895069
 20
16.77595227930583
 11
61.49986553539422
 21
19.93561222140316
 12
73.4998650124499
 22
18.35577827820303
 13
73.4998650124499
 23
18.35577827820303
  0
SOLID
  5
123
100
AcDbEntity
  8
0
 62
             4
100
AcDbTrace
 10
-61.50013446459101
 20
19.9356529359558
 11
-61.50013551047833
 21
16.77599299385847
 12
-73.50013498753401
 22
18.3558269370586
 13
-73.50013498753401
 23
18.3558269370586
  0
MTEXT
  5
124
100
AcDbEntity
  8
0
 62
             1
100
AcDbMText
 10
-37.19996389431541
 20
20.35570648125459
 30
0.0
 40
12.0
 41
0.0
 71
             7
 72
             1
  1
\C1;150x\C1;150
  7
CONVERTER_1
 11
0.99999999999706
 21
0.00000242406841
 31
0.0
  0
ENDBLK
  5
125
100
AcDbEntity
  8
0
100
AcDbBlockEnd
  0
ENDSEC
  0
SECTION
  2
ENTITIES
  0
DIMENSION
  5
127
100
AcDbEntity
  8
1
100
AcDbDimension
  2
*D5
 10
73.4998650124499
 20
18.35577827820303
 11
-6.23996190835485
 21
26.35580467309273
 31
0.0
 53
359.99998103437377
  1
150x150
  3
ME10_DIM_3
100
AcDbAlignedDimension
 13
-73.50014106354792
 23
-0.00001053563477
 14
73.49985893645209
 24
-0.00001053563477
 50
359.99998103437377
100
AcDbRotatedDimension
  0
DIMENSION
  5
11C
100
AcDbEntity
  8
1
100
AcDbDimension
  2
*D4
 10
98.06137665277551
 20
-0.00001866580714
 11
90.06136075602443
 21
-48.02462438416471
 31
0.0
 53
89.99998103437382
  1
<>
  3
ME10_DIM_2
100
AcDbAlignedDimension
 13
82.50007793645204
 23
-94.99701053563484
 14
73.49985893645209
 24
-0.00001053563477
 50
89.99998103437382
100
AcDbRotatedDimension
  0
DIMENSION
  5
111
100
AcDbEntity
  8
1
100
AcDbDimension
  2
*D3
 10
-92.5001410635474
 20
-97.7971902255085
 11
-100.5001587036582
 21
-151.0885428931374
 31
0.0
 53
89.99998103437382
  1
<>
  3
ME10_DIM_1
100
AcDbAlignedDimension
 13
-52.00025406354797
 23
-207.79722453563471
 14
-82.50014106354792
 24
-97.79719353563468
 50
89.99998103437382
100
AcDbRotatedDimension
  0
DIMENSION
  5
106
100
AcDbEntity
  8
1
100
AcDbDimension
  2
*D2
 10
168.88298904710857
 20
-179.92712407852943
 11
163.9206692542017
 21
-140.86256760241
 31
0.0
 53
87.00000003619222
  1
<>
  3
ME10_DIM_0
100
AcDbAlignedDimension
 13
146.18712929258521
 23
-103.6347586811269
 14
142.26193329258521
 24
-178.53197368112691
 50
87.00000003619222
100
AcDbRotatedDimension
  0
INSERT
  5
2E
100
AcDbEntity
  8
1
100
AcDbBlockReference
  2
HL72K_7_ABLAUFK_RPER_DN75
 10
35.46595865153012
 20
-129.5501817970902
  0
INSERT
  5
2F
100
AcDbEntity
  8
1
100
AcDbBlockReference
  2
062B_2E_AUFSATZRAHMEN
 10
-0.00014106354791
 20
-33.14860203563472
  0
ENDSEC
  0
SECTION
  2
OBJECTS
  0
DICTIONARY
  5
19
100
AcDbDictionary
  3
ACAD_GROUP
350
1A
  3
ACAD_MLINESTYLE
350
1B
  0
DICTIONARY
  5
1A
102
{ACAD_REACTORS
330
19
102
}
100
AcDbDictionary
  0
DICTIONARY
  5
1B
102
{ACAD_REACTORS
330
19
102
}
100
AcDbDictionary
  3
STANDARD
350
1C
  0
MLINESTYLE
  5
1C
102
{ACAD_REACTORS
330
1B
102
}
100
AcDbMlineStyle
  2
STANDARD
 70
             0
  3

 62
             0
 51
90.0
 52
90.0
 71
             2
 49
0.5
 62
           256
  6
BYLAYER
 49
-0.5
 62
           256
  6
BYLAYER
  0
ENDSEC
  0
EOF
