  0
SECTION
  2
HEADER
  9
$ACADVER
  1
AC1014
  9
$ACADMAINTVER
 70
             0
  9
$DWGCODEPAGE
  3
ANSI_1252
  9
$INSBASE
 10
0.0
 20
0.0
 30
0.0
  9
$EXTMIN
 10
-200.8895648307203
 20
-161.5767102504403
 30
0.0
  9
$EXTMAX
 10
341.8469855566417
 20
49.58475267857165
 30
0.0
  9
$LIMMIN
 10
0.0
 20
0.0
  9
$LIMMAX
 10
0.0
 20
0.0
  9
$ORTHOMODE
 70
             0
  9
$REGENMODE
 70
             1
  9
$FILLMODE
 70
             1
  9
$QTEXTMODE
 70
             0
  9
$MIRRTEXT
 70
             1
  9
$DRAGMODE
 70
             2
  9
$LTSCALE
 40
1.0
  9
$OSMODE
 70
             0
  9
$ATTMODE
 70
             1
  9
$TEXTSIZE
 40
0.2
  9
$TRACEWID
 40
0.05
  9
$TEXTSTYLE
  7
STANDARD
  9
$CLAYER
  8
0
  9
$CELTYPE
  6
CONTINUOUS
  9
$CECOLOR
 62
           256
  9
$CELTSCALE
 40
1.0
  9
$DELOBJ
 70
             1
  9
$DISPSILH
 70
             0
  9
$DIMSCALE
 40
1.0
  9
$DIMASZ
 40
0.18
  9
$DIMEXO
 40
0.0625
  9
$DIMDLI
 40
0.38
  9
$DIMRND
 40
0.0
  9
$DIMDLE
 40
0.0
  9
$DIMEXE
 40
0.18
  9
$DIMTP
 40
0.0
  9
$DIMTM
 40
0.0
  9
$DIMTXT
 40
0.18
  9
$DIMCEN
 40
0.09
  9
$DIMTSZ
 40
0.0
  9
$DIMTOL
 70
             0
  9
$DIMLIM
 70
             0
  9
$DIMTIH
 70
             1
  9
$DIMTOH
 70
             1
  9
$DIMSE1
 70
             0
  9
$DIMSE2
 70
             0
  9
$DIMTAD
 70
             0
  9
$DIMZIN
 70
             0
  9
$DIMBLK
  1

  9
$DIMASO
 70
             1
  9
$DIMSHO
 70
             1
  9
$DIMPOST
  1

  9
$DIMAPOST
  1

  9
$DIMALT
 70
             0
  9
$DIMALTD
 70
             2
  9
$DIMALTF
 40
25.4
  9
$DIMLFAC
 40
1.0
  9
$DIMTOFL
 70
             0
  9
$DIMTVP
 40
0.0
  9
$DIMTIX
 70
             0
  9
$DIMSOXD
 70
             0
  9
$DIMSAH
 70
             0
  9
$DIMBLK1
  1

  9
$DIMBLK2
  1

  9
$DIMSTYLE
  2
STANDARD
  9
$DIMCLRD
 70
             0
  9
$DIMCLRE
 70
             0
  9
$DIMCLRT
 70
             0
  9
$DIMTFAC
 40
1.0
  9
$DIMGAP
 40
0.09
  9
$DIMJUST
 70
             0
  9
$DIMSD1
 70
             0
  9
$DIMSD2
 70
             0
  9
$DIMTOLJ
 70
             1
  9
$DIMTZIN
 70
             0
  9
$DIMALTZ
 70
             0
  9
$DIMALTTZ
 70
             0
  9
$DIMFIT
 70
             3
  9
$DIMUPT
 70
             0
  9
$DIMUNIT
 70
             2
  9
$DIMDEC
 70
             4
  9
$DIMTDEC
 70
             4
  9
$DIMALTU
 70
             2
  9
$DIMALTTD
 70
             2
  9
$DIMTXSTY
  7
STANDARD
  9
$DIMAUNIT
 70
             0
  9
$LUNITS
 70
             2
  9
$LUPREC
 70
             4
  9
$SKETCHINC
 40
0.1
  9
$FILLETRAD
 40
0.0
  9
$AUNITS
 70
             0
  9
$AUPREC
 70
             0
  9
$MENU
  1
acad
  9
$ELEVATION
 40
0.0
  9
$PELEVATION
 40
0.0
  9
$THICKNESS
 40
0.0
  9
$LIMCHECK
 70
             0
  9
$BLIPMODE
 70
             1
  9
$CHAMFERA
 40
0.0
  9
$CHAMFERB
 40
0.0
  9
$CHAMFERC
 40
0.0
  9
$CHAMFERD
 40
0.0
  9
$SKPOLY
 70
             0
  9
$TDCREATE
 40
0.000000000
  9
$TDUPDATE
 40
0.000000000
  9
$TDINDWG
 40
0.0000000000
  9
$TDUSRTIMER
 40
0.0000000000
  9
$USRTIMER
 70
             1
  9
$ANGBASE
 50
0.0
  9
$ANGDIR
 70
             0
  9
$PDMODE
 70
             0
  9
$PDSIZE
 40
0.0
  9
$PLINEWID
 40
0.0
  9
$COORDS
 70
             0
  9
$SPLFRAME
 70
             0
  9
$SPLINETYPE
 70
             6
  9
$SPLINESEGS
 70
             8
  9
$ATTDIA
 70
             0
  9
$ATTREQ
 70
             1
  9
$HANDLING
 70
             1
  9
$HANDSEED
  5
D1
  9
$SURFTAB1
 70
             6
  9
$SURFTAB2
 70
             6
  9
$SURFTYPE
 70
             6
  9
$SURFU
 70
             6
  9
$SURFV
 70
             6
  9
$UCSNAME
  2

  9
$UCSORG
 10
0.0
 20
0.0
 30
0.0
  9
$UCSXDIR
 10
1.0
 20
0.0
 30
0.0
  9
$UCSYDIR
 10
0.0
 20
1.0
 30
0.0
  9
$PUCSNAME
  2

  9
$PUCSORG
 10
0.0
 20
0.0
 30
0.0
  9
$PUCSXDIR
 10
1.0
 20
0.0
 30
0.0
  9
$PUCSYDIR
 10
0.0
 20
1.0
 30
0.0
  9
$USERI1
 70
             0
  9
$USERI2
 70
             0
  9
$USERI3
 70
             0
  9
$USERI4
 70
             0
  9
$USERI5
 70
             0
  9
$USERR1
 40
12.01
  9
$USERR2
 40
0.0
  9
$USERR3
 40
0.0
  9
$USERR4
 40
0.0
  9
$USERR5
 40
0.0
  9
$WORLDVIEW
 70
             1
  9
$SHADEDGE
 70
             3
  9
$SHADEDIF
 70
            70
  9
$TILEMODE
 70
             1
  9
$MAXACTVP
 70
            16
  9
$PINSBASE
 10
0.0
 20
0.0
 30
0.0
  9
$PLIMCHECK
 70
             0
  9
$PEXTMIN
 10
1.00000000000000E+20
 20
1.00000000000000E+20
 30
1.00000000000000E+20
  9
$PEXTMAX
 10
-1.00000000000000E+20
 20
-1.00000000000000E+20
 30
-1.00000000000000E+20
  9
$PLIMMIN
 10
0.0
 20
0.0
  9
$PLIMMAX
 10
12.0
 20
9.0
  9
$UNITMODE
 70
             0
  9
$VISRETAIN
 70
             0
  9
$PLINEGEN
 70
             1
  9
$PSLTSCALE
 70
             0
  9
$TREEDEPTH
 70
          3020
  9
$PICKSTYLE
 70
             1
  9
$CMLSTYLE
  2
STANDARD
  9
$CMLJUST
 70
             0
  9
$CMLSCALE
 40
1.0
  9
$PROXYGRAPHICS
 70
             0
  9
$MEASUREMENT
 70
             1
  0
ENDSEC
  0
SECTION
  2
CLASSES
  0
CLASS
  1
LWPOLYLINE
  2
AcDbPolyline
  3
"AutoCAD"
 90
        0
280
             0
281
             1
  0
CLASS
  1
IMAGE
  2
AcDbRasterImage
  3
ISM
 90
      127
280
             0
281
             1
  0
CLASS
  1
OLE2FRAME
  2
AcDbOle2Frame
  3
""
 90
        0
280
             0
281
             1
  0
CLASS
  1
HATCH
  2
AcDbHatch
  3
"ACAD_SEDONA"
 90
        0
280
             0
281
             1
  0
CLASS
  1
DICTIONARYVAR
  2
AcDbDictionaryVar
  3
"AutoCAD"
 90
        0
280
             0
281
             0
  0
CLASS
  1
RASTERVARIABLES
  2
AcDbRasterVariables
  3
ISM
 90
        0
280
             0
281
             0
  0
CLASS
  1
IMAGEDEF
  2
AcDbRasterImageDef
  3
ISM
 90
        0
280
             0
281
             0
  0
CLASS
  1
IMAGEDEF_REACTOR
  2
AcDbRasterImageDefReactor
  3
ISM
 90
        1
280
             0
281
             0
  0
CLASS
  1
IDBUFFER
  2
AcDbIdBuffer
  3
"Acad"
 90
        0
280
             0
281
             0
  0
CLASS
  1
SPATIAL_FILTER
  2
AcDbSpatialFilter
  3
"Acad"
 90
        0
280
             0
281
             0
  0
CLASS
  1
XRECORD
  2
AcDbXrecord
  3
"<Built In>"
 90
        0
280
             0
281
             0
  0
CLASS
  1
SORTENTSTABLE
  2
AcDbSortentsTable
  3
"AutoCAD"
 90
        0
280
             0
281
             0
  0
CLASS
  1
LAYER_INDEX
  2
AcDbLayerIndex
  3
"Acad"
 90
        0
280
             0
281
             0
  0
CLASS
  1
SPATIAL_INDEX
  2
AcDbSpatialIndex
  3
"Acad"
 90
        0
280
             0
281
             0
  0
CLASS
  1
OBJECT_PTR
  2
CAseDLPNTableRecord
  3
"ASE-LPNTableRecord"
 90
        1
280
             0
281
             0
  0
CLASS
  1
LAYOUT
  2
AcDbLayout
  3
"AutoCAD 2000"
 90
        0
280
             0
281
             0
  0
CLASS
  1
PLOTSETTINGS
  2
AcDbPlotSettings
  3
"AutoCAD 2000"
 90
        0
280
             0
281
             0
  0
CLASS
  1
ACDBDICTIONARYWDFLT
  2
AcDbDictionaryWithDefault
  3
"AutoCAD 2000"
 90
        0
280
             0
281
             0
  0
CLASS
  1
ACDBPLACEHOLDER
  2
AcDbPlaceHolder
  3
"AutoCAD 2000"
 90
        0
280
             0
281
             0
  0
ENDSEC
  0
SECTION
  2
TABLES
  0
TABLE
  2
VPORT
  5
7
100
AcDbSymbolTable
 70
             1
  0
VPORT
  5
15
100
AcDbSymbolTableRecord
100
AcDbViewportTableRecord
  2
*ACTIVE
 70
             0
 10
0.0
 20
0.0
 11
1.0
 21
1.0
 12
70.4787103629607
 22
-55.99597878593433
 13
0.0
 23
0.0
 14
1.0
 24
1.0
 15
0.0
 25
0.0
 16
0.0
 26
0.0
 36
1.0
 17
0.0
 27
0.0
 37
0.0
 40
372.50776048870773
 41
1.60267857142857
 42
50.0
 43
0.0
 44
0.0
 50
0.0
 51
0.0
 71
             0
 72
           100
 73
             1
 74
             1
 75
             0
 76
             0
 77
             0
 78
             0
  0
ENDTAB
  0
TABLE
  2
LTYPE
  5
4
100
AcDbSymbolTable
 70
            10
  0
LTYPE
  5
11
100
AcDbSymbolTableRecord
100
AcDbLinetypeTableRecord
  2
BYBLOCK
 70
            64
  3

 72
            65
 73
             0
 40
0.0
  0
LTYPE
  5
12
100
AcDbSymbolTableRecord
100
AcDbLinetypeTableRecord
  2
BYLAYER
 70
            64
  3

 72
            65
 73
             0
 40
0.0
  0
LTYPE
  5
13
100
AcDbSymbolTableRecord
100
AcDbLinetypeTableRecord
  2
CONTINUOUS
 70
            64
  3
Solid line
 72
            65
 73
             0
 40
0.0
  0
LTYPE
  5
1D
100
AcDbSymbolTableRecord
100
AcDbLinetypeTableRecord
  2
DASHED
 70
            64
  3
Dashed
 72
            65
 73
             2
 40
15.0
 49
7.0
 74
             0
 49
-8.0
 74
             0
  0
LTYPE
  5
1E
100
AcDbSymbolTableRecord
100
AcDbLinetypeTableRecord
  2
DOTTED
 70
            64
  3
Dotted
 72
            65
 73
             2
 40
1.0
 49
0.0
 74
             0
 49
-1.0
 74
             0
  0
LTYPE
  5
1F
100
AcDbSymbolTableRecord
100
AcDbLinetypeTableRecord
  2
DOT_CENTER
 70
            64
  3
Dot_Center
 72
            65
 73
             4
 40
14.0
 49
12.0
 74
             0
 49
-1.0
 74
             0
 49
0.0
 74
             0
 49
-1.0
 74
             0
  0
LTYPE
  5
20
100
AcDbSymbolTableRecord
100
AcDbLinetypeTableRecord
  2
LONG_DASHED
 70
            64
  3
Long_Dashed
 72
            65
 73
             2
 40
15.0
 49
10.0
 74
             0
 49
-5.0
 74
             0
  0
LTYPE
  5
21
100
AcDbSymbolTableRecord
100
AcDbLinetypeTableRecord
  2
DASH_CENTER
 70
            64
  3
Dash_Center
 72
            65
 73
             4
 40
14.0
 49
11.0
 74
             0
 49
-1.0
 74
             0
 49
1.0
 74
             0
 49
-1.0
 74
             0
  0
LTYPE
  5
22
100
AcDbSymbolTableRecord
100
AcDbLinetypeTableRecord
  2
PHANTOM
 70
            64
  3
Phantom
 72
            65
 73
             6
 40
13.0
 49
10.0
 74
             0
 49
-1.0
 74
             0
 49
0.0
 74
             0
 49
-1.0
 74
             0
 49
0.0
 74
             0
 49
-1.0
 74
             0
  0
LTYPE
  5
23
100
AcDbSymbolTableRecord
100
AcDbLinetypeTableRecord
  2
CENTER_DASH_DASH
 70
            64
  3
Center_Dash_Dash
 72
            65
 73
             6
 40
14.0
 49
9.0
 74
             0
 49
-1.0
 74
             0
 49
1.0
 74
             0
 49
-1.0
 74
             0
 49
1.0
 74
             0
 49
-1.0
 74
             0
  0
ENDTAB
  0
TABLE
  2
LAYER
  5
2
100
AcDbSymbolTable
 70
             5
  0
LAYER
  5
14
100
AcDbSymbolTableRecord
100
AcDbLayerTableRecord
  2
0
 70
             0
 62
             7
  6
CONTINUOUS
  0
LAYER
  5
24
100
AcDbSymbolTableRecord
100
AcDbLayerTableRecord
  2
1
 70
             0
 62
             7
  6
CONTINUOUS
  0
LAYER
  5
25
100
AcDbSymbolTableRecord
100
AcDbLayerTableRecord
  2
LC-001-020-----0
 70
             0
 62
             7
  6
CONTINUOUS
  0
LAYER
  5
26
100
AcDbSymbolTableRecord
100
AcDbLayerTableRecord
  2
LC-003-002-----0
 70
             0
 62
             7
  6
CONTINUOUS
  0
LAYER
  5
27
100
AcDbSymbolTableRecord
100
AcDbLayerTableRecord
  2
LC-009-002-RND-0
 70
             0
 62
             7
  6
CONTINUOUS
  0
ENDTAB
  0
TABLE
  2
STYLE
  5
3
100
AcDbSymbolTable
 70
             2
  0
STYLE
  5
17
100
AcDbSymbolTableRecord
100
AcDbTextStyleTableRecord
  2
STANDARD
 70
             0
 40
0.0
 41
1.0
 50
0.0
 71
             0
 42
0.0
  3
txt
  4

  0
STYLE
  5
94
100
AcDbSymbolTableRecord
100
AcDbTextStyleTableRecord
  2
CONVERTER_1
 70
             0
 40
0.0
 41
0.9
 50
0.0
 71
             0
 42
0.0
  3
txt.shx
  4

  0
ENDTAB
  0
TABLE
  2
VIEW
  5
5
100
AcDbSymbolTable
 70
             0
  0
ENDTAB
  0
TABLE
  2
UCS
  5
6
100
AcDbSymbolTable
 70
             0
  0
ENDTAB
  0
TABLE
  2
APPID
  5
8
100
AcDbSymbolTable
 70
             1
  0
APPID
  5
16
100
AcDbSymbolTableRecord
100
AcDbRegAppTableRecord
  2
ACAD
 70
             0
  0
ENDTAB
  0
TABLE
  2
DIMSTYLE
  5
9
100
AcDbSymbolTable
 70
             7
  0
DIMSTYLE
105
18
100
AcDbSymbolTableRecord
100
AcDbDimStyleTableRecord
  2
STANDARD
 70
             0
  3

  4

  5

  6

  7

 40
1.0
 41
0.18
 42
0.0625
 43
0.38
 44
0.18
 45
0.0
 46
0.0
 47
0.0
 48
0.0
 71
             0
 72
             0
 73
             1
 74
             1
 75
             0
 76
             0
 77
             0
 78
             0
140
0.18
141
0.09
142
0.0
143
25.4
144
1.0
145
0.0
146
1.0
147
0.09
170
             0
171
             2
172
             0
173
             0
174
             0
175
             0
176
             0
177
             0
178
             0
270
             2
271
             4
272
             4
273
             2
274
             2
275
             0
280
             0
281
             0
282
             0
283
             1
284
             0
285
             0
286
             0
287
             3
288
             0
340
17
  0
DIMSTYLE
105
97
100
AcDbSymbolTableRecord
100
AcDbDimStyleTableRecord
  2
ME10_DIM_0
 70
             0
  3
Ø<>
  4

  5

  6

  7

 40
1.0
 41
12.0
 42
0.0
 43
0.38
 44
2.0
 45
0.0
 46
0.0
 47
0.0
 48
0.0
 71
             0
 72
             0
 73
             0
 74
             0
 75
             0
 76
             0
 77
             1
 78
             8
140
12.0
141
0.09
142
0.0
143
25.4
144
1.0
145
0.0
146
1.0
147
0.625
170
             0
171
             2
172
             1
173
             1
174
             0
175
             0
176
             4
177
             4
178
             1
270
             2
271
             2
272
             4
273
             2
274
             2
275
             0
280
             0
281
             0
282
             0
283
             1
284
             0
285
             0
286
             0
287
             3
288
             0
340
94
  0
DIMSTYLE
105
A2
100
AcDbSymbolTableRecord
100
AcDbDimStyleTableRecord
  2
ME10_DIM_1
 70
             0
  3
Ø<>
  4

  5

  6

  7

 40
1.0
 41
12.0
 42
0.0
 43
0.38
 44
2.0
 45
0.0
 46
0.0
 47
0.0
 48
0.0
 71
             0
 72
             0
 73
             0
 74
             0
 75
             0
 76
             0
 77
             1
 78
             8
140
12.0
141
0.09
142
0.0
143
25.4
144
1.0
145
0.0
146
1.0
147
0.625
170
             0
171
             2
172
             1
173
             1
174
             0
175
             0
176
             4
177
             4
178
             1
270
             2
271
             2
272
             4
273
             2
274
             2
275
             0
280
             0
281
             0
282
             0
283
             1
284
             0
285
             0
286
             0
287
             3
288
             0
340
94
  0
DIMSTYLE
105
AD
100
AcDbSymbolTableRecord
100
AcDbDimStyleTableRecord
  2
ME10_DIM_2
 70
             0
  3

  4

  5

  6

  7

 40
1.0
 41
12.0
 42
0.0
 43
0.38
 44
2.0
 45
0.0
 46
0.0
 47
0.0
 48
0.0
 71
             0
 72
             0
 73
             0
 74
             0
 75
             0
 76
             0
 77
             1
 78
             8
140
12.0
141
0.09
142
0.0
143
25.4
144
1.0
145
0.0
146
1.0
147
0.625
170
             0
171
             2
172
             1
173
             1
174
             0
175
             0
176
             4
177
             4
178
             1
270
             2
271
             2
272
             4
273
             2
274
             2
275
             0
280
             0
281
             0
282
             0
283
             1
284
             0
285
             0
286
             0
287
             3
288
             0
340
94
  0
DIMSTYLE
105
B8
100
AcDbSymbolTableRecord
100
AcDbDimStyleTableRecord
  2
ME10_DIM_3
 70
             0
  3
DN<>
  4

  5

  6

  7

 40
1.0
 41
12.0
 42
0.0
 43
0.38
 44
2.0
 45
0.0
 46
0.0
 47
0.0
 48
0.0
 71
             0
 72
             0
 73
             0
 74
             0
 75
             0
 76
             0
 77
             1
 78
             8
140
12.0
141
0.09
142
0.0
143
25.4
144
1.0
145
0.0
146
1.0
147
0.625
170
             0
171
             2
172
             1
173
             1
174
             0
175
             0
176
             4
177
             4
178
             1
270
             2
271
             2
272
             4
273
             2
274
             2
275
             0
280
             0
281
             0
282
             0
283
             1
284
             0
285
             0
286
             0
287
             3
288
             0
340
94
  0
DIMSTYLE
105
C3
100
AcDbSymbolTableRecord
100
AcDbDimStyleTableRecord
  2
ME10_DIM_4
 70
             0
  3
DN<>
  4

  5

  6

  7

 40
1.0
 41
12.0
 42
0.0
 43
0.38
 44
2.0
 45
0.0
 46
0.0
 47
0.0
 48
0.0
 71
             0
 72
             0
 73
             0
 74
             0
 75
             0
 76
             0
 77
             1
 78
             8
140
12.0
141
0.09
142
0.0
143
25.4
144
1.0
145
0.0
146
1.0
147
0.625
170
             0
171
             2
172
             1
173
             1
174
             0
175
             0
176
             4
177
             4
178
             1
270
             2
271
             2
272
             4
273
             2
274
             2
275
             0
280
             0
281
             0
282
             0
283
             1
284
             0
285
             0
286
             0
287
             3
288
             0
340
94
  0
DIMSTYLE
105
CE
100
AcDbSymbolTableRecord
100
AcDbDimStyleTableRecord
  2
ME10_DIM_5
 70
             0
  3

  4

  5

  6

  7

 40
1.0
 41
12.0
 42
0.0
 43
0.38
 44
2.0
 45
0.0
 46
0.0
 47
0.0
 48
0.0
 71
             0
 72
             0
 73
             0
 74
             0
 75
             0
 76
             0
 77
             1
 78
             8
140
12.0
141
0.09
142
0.0
143
25.4
144
1.0
145
0.0
146
1.0
147
0.625
170
             0
171
             2
172
             1
173
             1
174
             0
175
             0
176
             4
177
             4
178
             1
270
             2
271
             2
272
             4
273
             2
274
             2
275
             0
280
             0
281
             0
282
             0
283
             1
284
             0
285
             0
286
             0
287
             3
288
             0
340
94
  0
ENDTAB
  0
TABLE
  2
BLOCK_RECORD
  5
1
100
AcDbSymbolTable
 70
             8
  0
BLOCK_RECORD
  5
A
100
AcDbSymbolTableRecord
100
AcDbBlockTableRecord
  2
*MODEL_SPACE
  0
BLOCK_RECORD
  5
B
100
AcDbSymbolTableRecord
100
AcDbBlockTableRecord
  2
*PAPER_SPACE
  0
BLOCK_RECORD
  5
28
100
AcDbSymbolTableRecord
100
AcDbBlockTableRecord
  2
0317_4E_REDUKTION_DN11DN75
  0
BLOCK_RECORD
  5
2A
100
AcDbSymbolTableRecord
100
AcDbBlockTableRecord
  2
HL72_1K_K_RPER
  0
BLOCK_RECORD
  5
8D
100
AcDbSymbolTableRecord
100
AcDbBlockTableRecord
  2
*D2
  0
BLOCK_RECORD
  5
99
100
AcDbSymbolTableRecord
100
AcDbBlockTableRecord
  2
*D3
  0
BLOCK_RECORD
  5
A4
100
AcDbSymbolTableRecord
100
AcDbBlockTableRecord
  2
*D4
  0
BLOCK_RECORD
  5
AF
100
AcDbSymbolTableRecord
100
AcDbBlockTableRecord
  2
*D5
  0
BLOCK_RECORD
  5
BA
100
AcDbSymbolTableRecord
100
AcDbBlockTableRecord
  2
*D6
  0
BLOCK_RECORD
  5
C5
100
AcDbSymbolTableRecord
100
AcDbBlockTableRecord
  2
*D7
  0
ENDTAB
  0
ENDSEC
  0
SECTION
  2
BLOCKS
  0
BLOCK
  5
D
100
AcDbEntity
  8
0
100
AcDbBlockBegin
  2
*MODEL_SPACE
 70
             0
 10
0.0
 20
0.0
 30
0.0
  3
*MODEL_SPACE
  1

  0
ENDBLK
  5
E
100
AcDbEntity
  8
0
100
AcDbBlockEnd
  0
BLOCK
  5
F
100
AcDbEntity
 67
             1
  8
0
100
AcDbBlockBegin
  2
*PAPER_SPACE
 70
             0
 10
0.0
 20
0.0
 30
0.0
  3
*PAPER_SPACE
  1

  0
ENDBLK
  5
10
100
AcDbEntity
 67
             1
  8
0
100
AcDbBlockEnd
  0
BLOCK
  5
29
100
AcDbEntity
  8
0
100
AcDbBlockBegin
  2
0317_4E_REDUKTION_DN11DN75
 70
             0
 10
220.72835928737609
 20
-200.30632800000001
 30
0.0
  3
0317_4E_REDUKTION_DN11DN75
  1

  0
ARC
  5
4A
100
AcDbEntity
  8
LC-009-002-RND-0
  6
CONTINUOUS
 62
             7
100
AcDbCircle
 10
243.42602949482381
 20
-127.954424
 40
2.0
100
AcDbArc
 50
180.0
 51
-90.0
  0
ARC
  5
49
100
AcDbEntity
  8
LC-009-002-RND-0
  6
CONTINUOUS
 62
             7
100
AcDbCircle
 10
243.42602949482381
 20
-21.95442399999996
 40
2.0
100
AcDbArc
 50
90.0
 51
180.0
  0
ARC
  5
48
100
AcDbEntity
  8
LC-009-002-RND-0
  6
CONTINUOUS
 62
             7
100
AcDbCircle
 10
232.49709749482369
 20
-41.95442399999996
 40
5.0
100
AcDbArc
 50
90.0
 51
134.99999999999989
  0
ARC
  5
47
100
AcDbEntity
  8
LC-009-002-RND-0
  6
CONTINUOUS
 62
             7
100
AcDbCircle
 10
232.49709749482369
 20
-119.954424
 40
5.00000000000036
100
AcDbArc
 50
-135.0
 51
-90.0
  0
LINE
  5
46
100
AcDbEntity
  8
1
  6
CONTINUOUS
 62
             7
100
AcDbLine
 10
226.42602949482381
 20
-40.95442399999996
 11
226.42602949482381
 21
-120.954424
  0
LINE
  5
45
100
AcDbEntity
  8
1
  6
CONTINUOUS
 62
             7
100
AcDbLine
 10
232.49709749482369
 20
-124.954424
 11
232.49709749482369
 21
-36.95442399999996
  0
LINE
  5
44
100
AcDbEntity
  8
1
  6
CONTINUOUS
 62
             7
100
AcDbLine
 10
243.42602949482381
 20
-19.95442399999996
 11
243.42602949482381
 21
-129.95442399999999
  0
LINE
  5
43
100
AcDbEntity
  8
1
  6
CONTINUOUS
 62
             7
100
AcDbLine
 10
241.42602949482381
 20
-36.95442399999996
 11
241.42602949482381
 21
-124.954424
  0
LINE
  5
42
100
AcDbEntity
  8
1
  6
CONTINUOUS
 62
             7
100
AcDbLine
 10
311.42602949482381
 20
-129.95442399999999
 11
311.42602949482381
 21
-19.95442399999996
  0
LINE
  5
41
100
AcDbEntity
  8
LC-003-002-----0
  6
CONTINUOUS
 62
             7
100
AcDbLine
 10
222.92602949482381
 20
-40.95442399999996
 11
222.92602949482381
 21
-120.954424
  0
LINE
  5
40
100
AcDbEntity
  8
LC-003-002-----0
  6
CONTINUOUS
 62
             7
100
AcDbLine
 10
241.42602949482381
 20
-127.954424
 11
241.42602949482381
 21
-124.954424
  0
LINE
  5
3F
100
AcDbEntity
  8
LC-003-002-----0
  6
CONTINUOUS
 62
             7
100
AcDbLine
 10
317.42602949482381
 20
-128.89646200000001
 11
317.42602949482381
 21
-70.95442399999996
  0
LINE
  5
3E
100
AcDbEntity
  8
LC-003-002-----0
  6
CONTINUOUS
 62
             7
100
AcDbLine
 10
222.92602949482381
 20
-40.95442399999996
 11
226.42602949482381
 21
-40.95442399999996
  0
LINE
  5
3D
100
AcDbEntity
  8
LC-003-002-----0
  6
CONTINUOUS
 62
             7
100
AcDbLine
 10
311.42602949482381
 20
-129.95442399999999
 11
317.42602949482381
 21
-128.89646200000001
  0
LINE
  5
3C
100
AcDbEntity
  8
LC-003-002-----0
  6
CONTINUOUS
 62
             7
100
AcDbLine
 10
243.42602949482381
 20
-19.95442399999996
 11
311.42602949482381
 21
-19.95442399999996
  0
LINE
  5
3B
100
AcDbEntity
  8
LC-003-002-----0
  6
CONTINUOUS
 62
             7
100
AcDbLine
 10
317.42602949482381
 20
-21.01238599999999
 11
317.42602949482381
 21
-70.95442399999996
  0
LINE
  5
3A
100
AcDbEntity
  8
LC-003-002-----0
  6
CONTINUOUS
 62
             7
100
AcDbLine
 10
311.42602949482381
 20
-19.95442399999996
 11
317.42602949482381
 21
-21.01238599999999
  0
LINE
  5
39
100
AcDbEntity
  8
LC-003-002-----0
  6
CONTINUOUS
 62
             7
100
AcDbLine
 10
241.42602949482381
 20
-21.95442399999996
 11
241.42602949482381
 21
-36.95442399999996
  0
LINE
  5
38
100
AcDbEntity
  8
LC-003-002-----0
  6
CONTINUOUS
 62
             7
100
AcDbLine
 10
243.42602949482381
 20
-129.95442399999999
 11
311.42602949482381
 21
-129.95442399999999
  0
LINE
  5
37
100
AcDbEntity
  8
LC-003-002-----0
  6
CONTINUOUS
 62
             7
100
AcDbLine
 10
232.49709749482369
 20
-36.95442399999996
 11
241.42602949482381
 21
-36.95442399999996
  0
LINE
  5
36
100
AcDbEntity
  8
LC-003-002-----0
  6
CONTINUOUS
 62
             7
100
AcDbLine
 10
226.42602949482381
 20
-40.95442399999996
 11
228.96156349482371
 21
-38.41888999999996
  0
LINE
  5
35
100
AcDbEntity
  8
LC-003-002-----0
  6
CONTINUOUS
 62
             7
100
AcDbLine
 10
222.92602949482381
 20
-120.954424
 11
226.42602949482381
 21
-120.954424
  0
LINE
  5
34
100
AcDbEntity
  8
LC-003-002-----0
  6
CONTINUOUS
 62
             7
100
AcDbLine
 10
226.42602949482381
 20
-120.954424
 11
228.96156349482371
 21
-123.4899579999999
  0
LINE
  5
33
100
AcDbEntity
  8
LC-003-002-----0
  6
CONTINUOUS
 62
             7
100
AcDbLine
 10
232.49709749482369
 20
-124.954424
 11
241.42602949482381
 21
-124.954424
  0
LINE
  5
32
100
AcDbEntity
  8
1
  6
PHANTOM
 62
             2
100
AcDbLine
 10
220.07648008281069
 20
-74.95442399999996
 11
319.77721646925482
 21
-74.95442399999996
  0
POINT
  5
31
100
AcDbEntity
  8
0
 62
             7
100
AcDbPoint
 10
311.42602949482381
 20
-129.95442399999999
  0
POINT
  5
30
100
AcDbEntity
  8
0
 62
             7
100
AcDbPoint
 10
311.42602949482381
 20
-19.95442399999996
  0
ENDBLK
  5
4B
100
AcDbEntity
  8
0
100
AcDbBlockEnd
  0
BLOCK
  5
2B
100
AcDbEntity
  8
0
100
AcDbBlockBegin
  2
HL72_1K_K_RPER
 70
             0
 10
188.46627899999999
 20
217.06967899999989
 30
0.0
  3
HL72_1K_K_RPER
  1

  0
ARC
  5
8A
100
AcDbEntity
  8
1
  6
CONTINUOUS
 62
             7
100
AcDbCircle
 10
125.0801247825237
 20
-80.00460128008228
 40
64.9902413534264
100
AcDbArc
 50
144.75977141306197
 51
-144.75969645824367
  0
ARC
  5
89
100
AcDbEntity
  8
LC-001-020-----0
  6
CONTINUOUS
 62
             7
100
AcDbCircle
 10
-51.99991750517636
 20
-133.00978799999999
 40
20.00000000000048
100
AcDbArc
 50
179.99990499999939
 51
-90.00007600000097
  0
ARC
  5
88
100
AcDbEntity
  8
LC-001-020-----0
  6
CONTINUOUS
 62
             7
100
AcDbCircle
 10
52.00001196616034
 20
-133.00992299999999
 40
19.99999999999952
100
AcDbArc
 50
-90.00007600000114
 51
-0.00053199999883
  0
ARC
  5
87
100
AcDbEntity
  8
LC-009-002-RND-0
  6
CONTINUOUS
 62
             7
100
AcDbCircle
 10
80.91644649482369
 20
-35.50332999999996
 40
2.999028
100
AcDbArc
 50
-90.0
 51
-22.3524880000037
  0
ARC
  5
86
100
AcDbEntity
  8
LC-003-002-----0
  6
CONTINUOUS
 62
             7
100
AcDbCircle
 10
90.20396049482368
 20
-13.77979699999997
 40
3.99740799999974
100
AcDbArc
 50
-77.70959299999566
 51
-0.00025200000488
  0
ARC
  5
85
100
AcDbEntity
  8
LC-003-002-----0
  6
CONTINUOUS
 62
             7
100
AcDbCircle
 10
95.20073849482368
 20
-9.92411499999997
 40
0.99935199999967
100
AcDbArc
 50
93.99999700002158
 51
179.99974799997963
  0
ARC
  5
84
100
AcDbEntity
  8
LC-003-002-----0
  6
CONTINUOUS
 62
             7
100
AcDbCircle
 10
91.20328449482368
 20
-19.72067199999998
 40
1.99870400000025
100
AcDbArc
 50
94.17091399998652
 51
179.99973299999451
  0
ARC
  5
83
100
AcDbEntity
  8
LC-009-002-RND-0
  6
CONTINUOUS
 62
             7
100
AcDbCircle
 10
-80.91644650517632
 20
-35.50332999999996
 40
2.99902799999996
100
AcDbArc
 50
-157.64751199999631
 51
-90.0
  0
ARC
  5
82
100
AcDbEntity
  8
LC-003-002-----0
  6
CONTINUOUS
 62
             7
100
AcDbCircle
 10
-95.20073850517632
 20
-9.92411499999997
 40
0.99935199999965
100
AcDbArc
 50
0.00025200002036
 51
86.00000299997842
  0
ARC
  5
81
100
AcDbEntity
  8
LC-003-002-----0
  6
CONTINUOUS
 62
             7
100
AcDbCircle
 10
-90.20396050517631
 20
-13.77979699999997
 40
3.99740799999968
100
AcDbArc
 50
-179.99974799999512
 51
-102.29040700000513
  0
ARC
  5
80
100
AcDbEntity
  8
LC-003-002-----0
  6
CONTINUOUS
 62
             7
100
AcDbCircle
 10
-91.20328450517631
 20
-19.72067199999998
 40
1.99870399999968
100
AcDbArc
 50
0.0002670000055
 51
85.82908600001349
  0
LINE
  5
7F
100
AcDbEntity
  8
1
  6
CONTINUOUS
 62
             7
100
AcDbLine
 10
-71.99991750514936
 20
-133.00975483874399
 11
72.00001196545352
 21
-133.00975483874399
  0
LINE
  5
7E
100
AcDbEntity
  8
1
  6
CONTINUOUS
 62
             7
100
AcDbLine
 10
-150.0
 20
-3.00537699999995
 11
149.99904305948891
 21
-3.00537699999995
  0
LINE
  5
7D
100
AcDbEntity
  8
1
  6
CONTINUOUS
 62
             7
100
AcDbLine
 10
-117.9659805051763
 20
-5.29189799999995
 11
117.9659804948237
 21
-5.29189799999995
  0
LINE
  5
7C
100
AcDbEntity
  8
1
  6
CONTINUOUS
 62
             7
100
AcDbLine
 10
110.94121649482371
 20
-7.821642
 11
-110.9412165051763
 21
-7.821642
  0
LINE
  5
7B
100
AcDbEntity
  8
1
  6
CONTINUOUS
 62
             7
100
AcDbLine
 10
-95.13102750517633
 20
-8.92719699999998
 11
95.13102727547268
 21
-8.92719699999998
  0
LINE
  5
7A
100
AcDbEntity
  8
1
  6
CONTINUOUS
 62
             7
100
AcDbLine
 10
94.2013854948237
 20
-9.92411099999998
 11
-94.20138650517633
 21
-9.92411099999998
  0
LINE
  5
79
100
AcDbEntity
  8
1
  6
CONTINUOUS
 62
             7
100
AcDbLine
 10
-94.20136850513732
 20
-13.77981458151896
 11
94.2013854948237
 21
-13.77981458151896
  0
LINE
  5
78
100
AcDbEntity
  8
1
  6
CONTINUOUS
 62
             7
100
AcDbLine
 10
-71.99980450517636
 20
-38.50260899999995
 11
72.00000390862377
 21
-38.50260899999995
  0
LINE
  5
77
100
AcDbEntity
  8
1
  6
CONTINUOUS
 62
             7
100
AcDbLine
 10
83.69013249482369
 20
-36.64387099999996
 11
-83.69013250517632
 21
-36.64387099999996
  0
LINE
  5
76
100
AcDbEntity
  8
1
  6
CONTINUOUS
 62
             7
100
AcDbLine
 10
-89.20454150517632
 20
-24.80455899999998
 11
89.20454449482368
 21
-24.80455899999998
  0
LINE
  5
75
100
AcDbEntity
  8
1
  6
CONTINUOUS
 62
             7
100
AcDbLine
 10
91.05791494628768
 20
-17.72726151192296
 11
-91.05791495664032
 21
-17.72726151192296
  0
LINE
  5
74
100
AcDbEntity
  8
1
  6
CONTINUOUS
 62
             7
100
AcDbLine
 10
-89.20458050519834
 20
-19.72066268598098
 11
89.20458049482365
 21
-19.72066268598098
  0
LINE
  5
73
100
AcDbEntity
  8
LC-001-020-----0
  6
CONTINUOUS
 62
             7
100
AcDbLine
 10
-71.99980450517636
 20
-38.50260899999995
 11
-71.99993150517632
 21
-133.00978799999999
  0
LINE
  5
72
100
AcDbEntity
  8
LC-001-020-----0
  6
CONTINUOUS
 62
             7
100
AcDbLine
 10
-51.99994350517635
 20
-153.00978699999999
 11
51.99998596616037
 21
-153.00992299999999
  0
LINE
  5
71
100
AcDbEntity
  8
LC-003-002-----0
  6
CONTINUOUS
 62
             7
100
AcDbLine
 10
72.0000459661603
 20
-117.5044240000001
 11
147.03769549482371
 21
-117.5044240000001
  0
LINE
  5
70
100
AcDbEntity
  8
LC-003-002-----0
  6
CONTINUOUS
 62
             7
100
AcDbLine
 10
150.22588149482371
 20
-43.30869599999996
 11
150.22588149482371
 21
-116.65015200000011
  0
LINE
  5
6F
100
AcDbEntity
  8
LC-003-002-----0
  6
CONTINUOUS
 62
             7
100
AcDbLine
 10
147.22588149482371
 20
-42.50484799999995
 11
150.22588149482371
 21
-43.30869599999996
  0
LINE
  5
6E
100
AcDbEntity
  8
LC-003-002-----0
  6
CONTINUOUS
 62
             7
100
AcDbLine
 10
89.20454149482369
 20
-24.80455899999998
 11
83.69013249482369
 21
-36.64387099999996
  0
LINE
  5
6D
100
AcDbEntity
  8
LC-003-002-----0
  6
CONTINUOUS
 62
             7
100
AcDbLine
 10
80.91644649482369
 20
-38.50260799999995
 11
72.00000390862375
 21
-38.50260799999995
  0
LINE
  5
6C
100
AcDbEntity
  8
LC-003-002-----0
  6
CONTINUOUS
 62
             7
100
AcDbLine
 10
89.20456849482368
 20
-22.30427499999996
 11
89.20454449482368
 21
-24.07707899999997
  0
LINE
  5
6B
100
AcDbEntity
  8
LC-003-002-----0
  6
CONTINUOUS
 62
             7
100
AcDbLine
 10
110.94121649482371
 20
-7.821642
 11
95.13102649482364
 21
-8.92719699999998
  0
LINE
  5
6A
100
AcDbEntity
  8
LC-003-002-----0
  6
CONTINUOUS
 62
             7
100
AcDbLine
 10
94.2013854948237
 20
-9.92411099999998
 11
94.20136949482368
 21
-13.77981499999999
  0
LINE
  5
69
100
AcDbEntity
  8
LC-003-002-----0
  6
CONTINUOUS
 62
             7
100
AcDbLine
 10
149.99904305948891
 20
-3.00537699999995
 11
117.9659804948237
 21
-5.29189799999995
  0
LINE
  5
68
100
AcDbEntity
  8
LC-003-002-----0
  6
CONTINUOUS
 62
             7
100
AcDbLine
 10
89.20458049482365
 20
-19.720663
 11
89.20454149482369
 21
-24.80455899999998
  0
LINE
  5
67
100
AcDbEntity
  8
LC-003-002-----0
  6
CONTINUOUS
 62
             7
100
AcDbLine
 10
117.9659804948237
 20
-5.29189799999995
 11
110.93878449482369
 21
-7.78687099999996
  0
LINE
  5
66
100
AcDbEntity
  8
LC-003-002-----0
  6
CONTINUOUS
 62
             7
100
AcDbLine
 10
149.99904305948891
 20
-3.00537699999995
 11
149.99904305948891
 21
0.0
  0
LINE
  5
65
100
AcDbEntity
  8
LC-003-002-----0
  6
CONTINUOUS
 62
             7
100
AcDbLine
 10
-80.91644650517632
 20
-38.50260799999995
 11
-71.99980450517636
 21
-38.50260799999995
  0
LINE
  5
64
100
AcDbEntity
  8
LC-003-002-----0
  6
CONTINUOUS
 62
             7
100
AcDbLine
 10
-89.20454150517632
 20
-24.80455899999998
 11
-83.69013250517632
 21
-36.64387099999996
  0
LINE
  5
63
100
AcDbEntity
  8
LC-003-002-----0
  6
CONTINUOUS
 62
             7
100
AcDbLine
 10
-150.0
 20
-3.00537699999995
 11
-150.0
 21
0.0
  0
LINE
  5
62
100
AcDbEntity
  8
LC-003-002-----0
  6
CONTINUOUS
 62
             7
100
AcDbLine
 10
-150.0
 20
-3.00537699999995
 11
-117.9659805051763
 21
-5.29189799999995
  0
LINE
  5
61
100
AcDbEntity
  8
LC-003-002-----0
  6
CONTINUOUS
 62
             7
100
AcDbLine
 10
-117.9659805051763
 20
-5.29189799999995
 11
-110.9387855051763
 21
-7.78687099999996
  0
LINE
  5
60
100
AcDbEntity
  8
LC-003-002-----0
  6
CONTINUOUS
 62
             7
100
AcDbLine
 10
-110.9412165051763
 20
-7.821642
 11
-95.13102750517633
 21
-8.92719699999998
  0
LINE
  5
5F
100
AcDbEntity
  8
LC-003-002-----0
  6
CONTINUOUS
 62
             7
100
AcDbLine
 10
-94.20138650517633
 20
-9.92411099999998
 11
-94.20136950517632
 21
-13.77981499999999
  0
LINE
  5
5E
100
AcDbEntity
  8
LC-003-002-----0
  6
CONTINUOUS
 62
             7
100
AcDbLine
 10
-89.20458050517634
 20
-19.720663
 11
-89.20454150517632
 21
-24.80455899999998
  0
LINE
  5
5D
100
AcDbEntity
  8
LC-003-002-----0
  6
CONTINUOUS
 62
             7
100
AcDbLine
 10
147.03769549482371
 20
-117.5044240000001
 11
150.22588149482371
 21
-116.65015200000011
  0
LINE
  5
5C
100
AcDbEntity
  8
LC-001-020-----0
  6
CONTINUOUS
 62
             7
100
AcDbLine
 10
71.99994196616035
 20
-133.01010899999989
 11
72.0000459661603
 21
-117.5044240000001
  0
LINE
  5
5B
100
AcDbEntity
  8
LC-003-002-----0
  6
CONTINUOUS
 62
             7
100
AcDbLine
 10
71.99999690862377
 20
-42.50484799999995
 11
72.00000390862375
 21
-38.50290299999996
  0
LINE
  5
5A
100
AcDbEntity
  8
LC-003-002-----0
  6
CONTINUOUS
 62
             7
100
AcDbLine
 10
71.99999690862377
 20
-42.50484799999995
 11
147.03769549482371
 21
-42.50484799999995
  0
LINE
  5
59
100
AcDbEntity
  8
1
  6
PHANTOM
 62
             2
100
AcDbLine
 10
54.26092065507709
 20
-80.00463600000001
 11
156.19467297230469
 21
-80.00463600000001
  0
LINE
  5
58
100
AcDbEntity
  8
1
  6
CONTINUOUS
 62
             7
100
AcDbLine
 10
-150.0
 20
0.0
 11
-81.84737611201585
 21
0.0
  0
LINE
  5
57
100
AcDbEntity
  8
1
  6
CONTINUOUS
 62
             7
100
AcDbLine
 10
-81.84737611201585
 20
0.0
 11
149.99999999999989
 21
0.0
  0
LINE
  5
56
100
AcDbEntity
  8
1
  6
CONTINUOUS
 62
             7
100
AcDbLine
 10
147.03769549482371
 20
-117.5044240000001
 11
147.03769549482371
 21
-42.50484799999995
  0
LINE
  5
55
100
AcDbEntity
  8
LC-003-002-----0
  6
CONTINUOUS
 62
             7
100
AcDbLine
 10
147.03769549482371
 20
-42.50484799999995
 11
147.22588149482371
 21
-42.50484799999995
  0
LINE
  5
54
100
AcDbEntity
  8
1
  6
PHANTOM
 62
             2
100
AcDbLine
 10
-0.00000000000004
 20
7.20646068672301
 11
0.00000000000092
 21
-161.5767102504403
  0
LINE
  5
53
100
AcDbEntity
  8
1
  6
DOT_CENTER
 62
             2
100
AcDbLine
 10
-72.50000000000004
 20
6.0
 11
-72.50000000000004
 21
3.0
  0
LINE
  5
52
100
AcDbEntity
  8
1
  6
DOT_CENTER
 62
             2
100
AcDbLine
 10
72.50000000000162
 20
3.0
 11
72.50000000000162
 21
6.0
  0
POINT
  5
51
100
AcDbEntity
  8
0
 62
             7
100
AcDbPoint
 10
-150.0
 20
-3.00537699999995
  0
POINT
  5
50
100
AcDbEntity
  8
0
 62
             7
100
AcDbPoint
 10
-51.99994350517635
 20
-153.00978799999999
  0
POINT
  5
4F
100
AcDbEntity
  8
0
 62
             7
100
AcDbPoint
 10
-150.0
 20
0.0
  0
POINT
  5
4E
100
AcDbEntity
  8
0
 62
             7
100
AcDbPoint
 10
149.99904305948891
 20
0.0
  0
POINT
  5
4D
100
AcDbEntity
  8
0
 62
             7
100
AcDbPoint
 10
149.99904305948891
 20
-3.00537699999995
  0
POINT
  5
4C
100
AcDbEntity
  8
0
 62
             7
100
AcDbPoint
 10
147.03769549482371
 20
-117.5044240000001
  0
ENDBLK
  5
8B
100
AcDbEntity
  8
0
100
AcDbBlockEnd
  0
BLOCK
  5
8E
100
AcDbEntity
  8
0
100
AcDbBlockBegin
  2
*D2
 70
             1
 10
0.0
 20
0.0
 30
0.0
  3
*D2
  1

  0
LINE
  5
8F
100
AcDbEntity
  8
0
  6
CONTINUOUS
 62
             4
100
AcDbLine
 10
-150.00000000000003
 20
35.58475267857165
 11
149.99904305948888
 21
35.58475267857165
  0
LINE
  5
90
100
AcDbEntity
  8
0
  6
CONTINUOUS
 62
             4
100
AcDbLine
 10
149.99904305948888
 20
0.0
 11
149.99904305948888
 21
37.58475267857165
  0
LINE
  5
91
100
AcDbEntity
  8
0
  6
CONTINUOUS
 62
             4
100
AcDbLine
 10
-150.00000000000003
 20
0.0
 11
-150.00000000000003
 21
37.58475267857165
  0
SOLID
  5
92
100
AcDbEntity
  8
0
 62
             4
100
AcDbTrace
 10
-138.00000000000003
 20
37.1645826496204
 11
-138.00000000000003
 21
34.00492270752289
 12
-150.00000000000003
 22
35.58475267857165
 13
-150.00000000000003
 23
35.58475267857165
  0
SOLID
  5
93
100
AcDbEntity
  8
0
 62
             4
100
AcDbTrace
 10
137.99904305948888
 20
34.0049227075229
 11
137.99904305948888
 21
37.1645826496204
 12
149.99904305948888
 22
35.58475267857165
 13
149.99904305948888
 23
35.58475267857165
  0
MTEXT
  5
95
100
AcDbEntity
  8
0
 62
             1
100
AcDbMText
 10
8.41355586980239
 20
37.58472882573854
 30
0.0
 40
12.0
 41
0.0
 71
             7
 72
             1
  1
\C1;Ø\C1;300
  7
CONVERTER_1
 11
0.99999999999706
 21
0.00000242406841
 31
0.0
  0
ENDBLK
  5
96
100
AcDbEntity
  8
0
100
AcDbBlockEnd
  0
BLOCK
  5
9A
100
AcDbEntity
  8
0
100
AcDbBlockBegin
  2
*D3
 70
             1
 10
0.0
 20
0.0
 30
0.0
  3
*D3
  1

  0
LINE
  5
9B
100
AcDbEntity
  8
0
  6
CONTINUOUS
 62
             4
100
AcDbLine
 10
72.50000000000162
 20
15.99999999999945
 11
-72.50000000000004
 21
15.99999999999945
  0
LINE
  5
9C
100
AcDbEntity
  8
0
  6
CONTINUOUS
 62
             4
100
AcDbLine
 10
-72.50000000000004
 20
6.0
 11
-72.50000000000004
 21
17.99999999999945
  0
LINE
  5
9D
100
AcDbEntity
  8
0
  6
CONTINUOUS
 62
             4
100
AcDbLine
 10
72.50000000000162
 20
6.0
 11
72.50000000000162
 21
17.99999999999945
  0
SOLID
  5
9E
100
AcDbEntity
  8
0
 62
             4
100
AcDbTrace
 10
60.50000000000162
 20
14.4201700289507
 11
60.50000000000162
 21
17.5798299710482
 12
72.50000000000162
 22
15.99999999999945
 13
72.50000000000162
 23
15.99999999999945
  0
SOLID
  5
9F
100
AcDbEntity
  8
0
 62
             4
100
AcDbTrace
 10
-60.50000000000004
 20
17.5798299710482
 11
-60.50000000000004
 21
14.4201700289507
 12
-72.50000000000004
 22
15.99999999999945
 13
-72.50000000000004
 23
15.99999999999945
  0
MTEXT
  5
A0
100
AcDbEntity
  8
0
 62
             1
100
AcDbMText
 10
-38.53736915148036
 20
17.99997614716634
 30
0.0
 40
12.0
 41
0.0
 71
             7
 72
             1
  1
\C1;Ø\C1;145
  7
CONVERTER_1
 11
0.99999999999706
 21
0.00000242406841
 31
0.0
  0
ENDBLK
  5
A1
100
AcDbEntity
  8
0
100
AcDbBlockEnd
  0
BLOCK
  5
A5
100
AcDbEntity
  8
0
100
AcDbBlockBegin
  2
*D4
 70
             1
 10
0.0
 20
0.0
 30
0.0
  3
*D4
  1

  0
LINE
  5
A6
100
AcDbEntity
  8
0
  6
CONTINUOUS
 62
             4
100
AcDbLine
 10
172.19971349131859
 20
-80.00463600000001
 11
172.19971349131859
 21
0.0
  0
LINE
  5
A7
100
AcDbEntity
  8
0
  6
CONTINUOUS
 62
             4
100
AcDbLine
 10
149.99999999999997
 20
0.0
 11
174.19971349131859
 21
0.0
  0
LINE
  5
A8
100
AcDbEntity
  8
0
  6
CONTINUOUS
 62
             4
100
AcDbLine
 10
156.19467297230469
 20
-80.00463600000001
 11
174.19971349131859
 21
-80.00463600000001
  0
SOLID
  5
A9
100
AcDbEntity
  8
0
 62
             4
100
AcDbTrace
 10
170.61988352026984
 20
-68.00463600000001
 11
173.77954346236734
 21
-68.00463600000001
 12
172.19971349131859
 22
-80.00463600000001
 13
172.19971349131859
 23
-80.00463600000001
  0
SOLID
  5
AA
100
AcDbEntity
  8
0
 62
             4
100
AcDbTrace
 10
173.77954346236734
 20
-12.0
 11
170.61988352026984
 21
-12.0
 12
172.19971349131859
 22
0.0
 13
172.19971349131859
 23
0.0
  0
MTEXT
  5
AB
100
AcDbEntity
  8
0
 62
             1
100
AcDbMText
 10
170.19971349131859
 20
-36.1035659137106
 30
0.0
 40
12.0
 41
0.0
 71
             7
 72
             1
  1
80
  7
CONVERTER_1
 11
0.0
 21
1.0
 31
0.0
  0
ENDBLK
  5
AC
100
AcDbEntity
  8
0
100
AcDbBlockEnd
  0
BLOCK
  5
B0
100
AcDbEntity
  8
0
100
AcDbBlockBegin
  2
*D5
 70
             1
 10
0.0
 20
0.0
 30
0.0
  3
*D5
  1

  0
LINE
  5
B1
100
AcDbEntity
  8
0
  6
CONTINUOUS
 62
             4
100
AcDbLine
 10
339.8469855566417
 20
-19.95442399999996
 11
339.8469855566417
 21
-129.95442399999996
  0
LINE
  5
B2
100
AcDbEntity
  8
0
  6
CONTINUOUS
 62
             4
100
AcDbLine
 10
311.42602949482375
 20
-129.95442399999996
 11
341.8469855566417
 21
-129.95442399999996
  0
LINE
  5
B3
100
AcDbEntity
  8
0
  6
CONTINUOUS
 62
             4
100
AcDbLine
 10
311.42602949482375
 20
-19.95442399999996
 11
341.8469855566417
 21
-19.95442399999996
  0
SOLID
  5
B4
100
AcDbEntity
  8
0
 62
             4
100
AcDbTrace
 10
341.42681552769045
 20
-31.95442399999996
 11
338.26715558559295
 21
-31.95442399999996
 12
339.8469855566417
 22
-19.95442399999996
 13
339.8469855566417
 23
-19.95442399999996
  0
SOLID
  5
B5
100
AcDbEntity
  8
0
 62
             4
100
AcDbTrace
 10
338.26715558559295
 20
-117.95442399999996
 11
341.42681552769045
 21
-117.95442399999996
 12
339.8469855566417
 22
-129.95442399999996
 13
339.8469855566417
 23
-129.95442399999996
  0
MTEXT
  5
B6
100
AcDbEntity
  8
0
 62
             1
100
AcDbMText
 10
337.8469855566417
 20
-89.41893064616096
 30
0.0
 40
12.0
 41
0.0
 71
             7
 72
             1
  1
\C1;DN\C1;110
  7
CONVERTER_1
 11
0.0
 21
1.0
 31
0.0
  0
ENDBLK
  5
B7
100
AcDbEntity
  8
0
100
AcDbBlockEnd
  0
BLOCK
  5
BB
100
AcDbEntity
  8
0
100
AcDbBlockBegin
  2
*D6
 70
             1
 10
0.0
 20
0.0
 30
0.0
  3
*D6
  1

  0
LINE
  5
BC
100
AcDbEntity
  8
0
  6
CONTINUOUS
 62
             4
100
AcDbLine
 10
199.0345165958017
 20
-42.50484799999995
 11
199.0345165958017
 21
-117.50442400000006
  0
LINE
  5
BD
100
AcDbEntity
  8
0
  6
CONTINUOUS
 62
             4
100
AcDbLine
 10
147.03769549482374
 20
-117.50442400000006
 11
201.0345165958017
 21
-117.50442400000006
  0
LINE
  5
BE
100
AcDbEntity
  8
0
  6
CONTINUOUS
 62
             4
100
AcDbLine
 10
147.22588149482371
 20
-42.50484799999995
 11
201.0345165958017
 21
-42.50484799999995
  0
SOLID
  5
BF
100
AcDbEntity
  8
0
 62
             4
100
AcDbTrace
 10
200.61434656685046
 20
-54.50484799999995
 11
197.45468662475295
 21
-54.50484799999995
 12
199.0345165958017
 22
-42.50484799999995
 13
199.0345165958017
 23
-42.50484799999995
  0
SOLID
  5
C0
100
AcDbEntity
  8
0
 62
             4
100
AcDbTrace
 10
197.45468662475295
 20
-105.50442400000006
 11
200.61434656685046
 21
-105.50442400000006
 12
199.0345165958017
 22
-117.50442400000006
 13
199.0345165958017
 23
-117.50442400000006
  0
MTEXT
  5
C1
100
AcDbEntity
  8
0
 62
             1
100
AcDbMText
 10
197.0345165958017
 20
-95.15536828748896
 30
0.0
 40
12.0
 41
0.0
 71
             7
 72
             1
  1
\C1;DN\C1;75
  7
CONVERTER_1
 11
0.0
 21
1.0
 31
0.0
  0
ENDBLK
  5
C2
100
AcDbEntity
  8
0
100
AcDbBlockEnd
  0
BLOCK
  5
C6
100
AcDbEntity
  8
0
100
AcDbBlockBegin
  2
*D7
 70
             1
 10
0.0
 20
0.0
 30
0.0
  3
*D7
  1

  0
LINE
  5
C7
100
AcDbEntity
  8
0
  6
CONTINUOUS
 62
             4
100
AcDbLine
 10
-186.8895648307203
 20
-3.00537699999995
 11
-186.8895648307203
 21
-153.00978799998194
  0
LINE
  5
C8
100
AcDbEntity
  8
0
  6
CONTINUOUS
 62
             4
100
AcDbLine
 10
-51.99994403418131
 20
-153.00978799998194
 11
-188.8895648307203
 21
-153.00978799998194
  0
LINE
  5
C9
100
AcDbEntity
  8
0
  6
CONTINUOUS
 62
             4
100
AcDbLine
 10
-150.0
 20
-3.00537699999995
 11
-188.8895648307203
 21
-3.00537699999995
  0
SOLID
  5
CA
100
AcDbEntity
  8
0
 62
             4
100
AcDbTrace
 10
-185.30973485967155
 20
-15.00537699999996
 11
-188.46939480176906
 21
-15.00537699999995
 12
-186.8895648307203
 22
-3.00537699999995
 13
-186.8895648307203
 23
-3.00537699999995
  0
SOLID
  5
CB
100
AcDbEntity
  8
0
 62
             4
100
AcDbTrace
 10
-188.46939480176906
 20
-141.00978799998194
 11
-185.30973485967155
 21
-141.00978799998194
 12
-186.8895648307203
 22
-153.00978799998194
 13
-186.8895648307203
 23
-153.00978799998194
  0
MTEXT
  5
CC
100
AcDbEntity
  8
0
 62
             1
100
AcDbMText
 10
-188.8895648307203
 20
-91.70700849467376
 30
0.0
 40
12.0
 41
0.0
 71
             7
 72
             1
  1
150
  7
CONVERTER_1
 11
0.0
 21
1.0
 31
0.0
  0
ENDBLK
  5
CD
100
AcDbEntity
  8
0
100
AcDbBlockEnd
  0
ENDSEC
  0
SECTION
  2
ENTITIES
  0
DIMENSION
  5
CF
100
AcDbEntity
  8
1
100
AcDbDimension
  2
*D7
 10
-186.8895648307203
 20
-3.00537699999995
 11
-194.8895648307203
 21
-79.10700849467376
 31
0.0
 53
90.0
  1
150
  3
ME10_DIM_5
100
AcDbAlignedDimension
 13
-51.99994403418133
 23
-153.00978799998191
 14
-150.0
 24
-3.00537699999995
 50
90.0
100
AcDbRotatedDimension
  0
DIMENSION
  5
C4
100
AcDbEntity
  8
1
100
AcDbDimension
  2
*D6
 10
199.0345165958017
 20
-42.50484799999995
 11
191.0345165958017
 21
-79.67536828748897
 31
0.0
 53
90.0
  1
<>
  3
ME10_DIM_4
100
AcDbAlignedDimension
 13
147.03769549482371
 23
-117.5044240000001
 14
147.22588149482371
 24
-42.50484799999995
 50
90.0
100
AcDbRotatedDimension
  0
DIMENSION
  5
B9
100
AcDbEntity
  8
1
100
AcDbDimension
  2
*D5
 10
339.8469855566417
 20
-19.95442399999996
 11
331.8469855566417
 21
-72.13893064616096
 31
0.0
 53
90.0
  1
<>
  3
ME10_DIM_3
100
AcDbAlignedDimension
 13
311.42602949482381
 23
-129.95442399999999
 14
311.42602949482381
 24
-19.95442399999996
 50
90.0
100
AcDbRotatedDimension
  0
DIMENSION
  5
AE
100
AcDbEntity
  8
1
100
AcDbDimension
  2
*D4
 10
172.19971349131859
 20
-80.00463600000001
 11
164.19971349131859
 21
-27.1035659137106
 31
0.0
 53
90.0
  1
<>
  3
ME10_DIM_2
100
AcDbAlignedDimension
 13
149.99999999999989
 23
0.0
 14
156.19467297230469
 24
-80.00463600000001
 50
90.0
100
AcDbRotatedDimension
  0
DIMENSION
  5
A3
100
AcDbEntity
  8
1
100
AcDbDimension
  2
*D3
 10
72.50000000000162
 20
15.99999999999945
 11
-23.29736915150927
 21
23.99999999999945
 31
0.0
 53
0.00013888888889
  1
<>
  3
ME10_DIM_1
100
AcDbAlignedDimension
 13
-72.50000000000004
 23
6.0
 14
72.50000000000162
 24
6.0
100
AcDbRotatedDimension
  0
DIMENSION
  5
98
100
AcDbEntity
  8
1
100
AcDbDimension
  2
*D2
 10
-150.00000000000003
 20
35.58475267857165
 11
25.45355586977348
 21
43.58475267857165
 31
0.0
 53
0.00013888888889
  1
<>
  3
ME10_DIM_0
100
AcDbAlignedDimension
 13
149.99904305948891
 23
0.0
 14
-150.0
 24
0.0
100
AcDbRotatedDimension
  0
INSERT
  5
2E
100
AcDbEntity
  8
1
100
AcDbBlockReference
  2
0317_4E_REDUKTION_DN11DN75
 10
220.72835928737609
 20
-200.30632800000001
  0
INSERT
  5
2F
100
AcDbEntity
  8
1
100
AcDbBlockReference
  2
HL72_1K_K_RPER
 10
188.46627899999999
 20
217.06967899999989
  0
ENDSEC
  0
SECTION
  2
OBJECTS
  0
DICTIONARY
  5
19
100
AcDbDictionary
  3
ACAD_GROUP
350
1A
  3
ACAD_MLINESTYLE
350
1B
  0
DICTIONARY
  5
1A
102
{ACAD_REACTORS
330
19
102
}
100
AcDbDictionary
  0
DICTIONARY
  5
1B
102
{ACAD_REACTORS
330
19
102
}
100
AcDbDictionary
  3
STANDARD
350
1C
  0
MLINESTYLE
  5
1C
102
{ACAD_REACTORS
330
1B
102
}
100
AcDbMlineStyle
  2
STANDARD
 70
             0
  3

 62
             0
 51
90.0
 52
90.0
 71
             2
 49
0.5
 62
           256
  6
BYLAYER
 49
-0.5
 62
           256
  6
BYLAYER
  0
ENDSEC
  0
EOF
