  0
SECTION
  2
HEADER
  9
$ACADVER
  1
AC1015
  9
$ACADMAINTVER
 70
     6
  9
$DWGCODEPAGE
  3
ANSI_1252
  9
$INSBASE
 10
0.0
 20
0.0
 30
0.0
  9
$EXTMIN
 10
-288.793861824004
 20
-248.4875758577826
 30
0.0
  9
$EXTMAX
 10
267.568535040736
 20
30.99994204642358
 30
0.0
  9
$LIMMIN
 10
0.0
 20
0.0
  9
$LIMMAX
 10
12.0
 20
9.0
  9
$ORTHOMODE
 70
     0
  9
$REGENMODE
 70
     1
  9
$FILLMODE
 70
     1
  9
$QTEXTMODE
 70
     0
  9
$MIRRTEXT
 70
     1
  9
$LTSCALE
 40
1.0
  9
$ATTMODE
 70
     1
  9
$TEXTSIZE
 40
0.2
  9
$TRACEWID
 40
0.05
  9
$TEXTSTYLE
  7
Standard
  9
$CLAYER
  8
0
  9
$CELTYPE
  6
ByLayer
  9
$CECOLOR
 62
   256
  9
$CELTSCALE
 40
1.0
  9
$DISPSILH
 70
     0
  9
$DIMSCALE
 40
1.0
  9
$DIMASZ
 40
0.18
  9
$DIMEXO
 40
0.0625
  9
$DIMDLI
 40
0.38
  9
$DIMRND
 40
0.0
  9
$DIMDLE
 40
0.0
  9
$DIMEXE
 40
0.18
  9
$DIMTP
 40
0.0
  9
$DIMTM
 40
0.0
  9
$DIMTXT
 40
0.18
  9
$DIMCEN
 40
0.09
  9
$DIMTSZ
 40
0.0
  9
$DIMTOL
 70
     0
  9
$DIMLIM
 70
     0
  9
$DIMTIH
 70
     1
  9
$DIMTOH
 70
     1
  9
$DIMSE1
 70
     0
  9
$DIMSE2
 70
     0
  9
$DIMTAD
 70
     0
  9
$DIMZIN
 70
     0
  9
$DIMBLK
  1

  9
$DIMASO
 70
     1
  9
$DIMSHO
 70
     1
  9
$DIMPOST
  1

  9
$DIMAPOST
  1

  9
$DIMALT
 70
     0
  9
$DIMALTD
 70
     2
  9
$DIMALTF
 40
25.4
  9
$DIMLFAC
 40
1.0
  9
$DIMTOFL
 70
     0
  9
$DIMTVP
 40
0.0
  9
$DIMTIX
 70
     0
  9
$DIMSOXD
 70
     0
  9
$DIMSAH
 70
     0
  9
$DIMBLK1
  1

  9
$DIMBLK2
  1

  9
$DIMSTYLE
  2
Standard
  9
$DIMCLRD
 70
     0
  9
$DIMCLRE
 70
     0
  9
$DIMCLRT
 70
     0
  9
$DIMTFAC
 40
1.0
  9
$DIMGAP
 40
0.09
  9
$DIMJUST
 70
     0
  9
$DIMSD1
 70
     0
  9
$DIMSD2
 70
     0
  9
$DIMTOLJ
 70
     1
  9
$DIMTZIN
 70
     0
  9
$DIMALTZ
 70
     0
  9
$DIMALTTZ
 70
     0
  9
$DIMUPT
 70
     0
  9
$DIMDEC
 70
     4
  9
$DIMTDEC
 70
     4
  9
$DIMALTU
 70
     2
  9
$DIMALTTD
 70
     2
  9
$DIMTXSTY
  7
Standard
  9
$DIMAUNIT
 70
     0
  9
$DIMADEC
 70
     0
  9
$DIMALTRND
 40
0.0
  9
$DIMAZIN
 70
     0
  9
$DIMDSEP
 70
    46
  9
$DIMATFIT
 70
     3
  9
$DIMFRAC
 70
     0
  9
$DIMLDRBLK
  1

  9
$DIMLUNIT
 70
     2
  9
$DIMLWD
 70
    -2
  9
$DIMLWE
 70
    -2
  9
$DIMTMOVE
 70
     0
  9
$LUNITS
 70
     2
  9
$LUPREC
 70
     4
  9
$SKETCHINC
 40
0.1
  9
$FILLETRAD
 40
0.5
  9
$AUNITS
 70
     0
  9
$AUPREC
 70
     0
  9
$MENU
  1
.
  9
$ELEVATION
 40
0.0
  9
$PELEVATION
 40
0.0
  9
$THICKNESS
 40
0.0
  9
$LIMCHECK
 70
     0
  9
$CHAMFERA
 40
0.5
  9
$CHAMFERB
 40
0.5
  9
$CHAMFERC
 40
1.0
  9
$CHAMFERD
 40
0.0
  9
$SKPOLY
 70
     0
  9
$TDCREATE
 40
2454391.533560359
  9
$TDUCREATE
 40
2454391.450227025
  9
$TDUPDATE
 40
2454391.533560371
  9
$TDUUPDATE
 40
2454391.450227037
  9
$TDINDWG
 40
0.0000000116
  9
$TDUSRTIMER
 40
0.0000000116
  9
$USRTIMER
 70
     1
  9
$ANGBASE
 50
0.0
  9
$ANGDIR
 70
     0
  9
$PDMODE
 70
     0
  9
$PDSIZE
 40
0.0
  9
$PLINEWID
 40
0.0
  9
$SPLFRAME
 70
     0
  9
$SPLINETYPE
 70
     6
  9
$SPLINESEGS
 70
     8
  9
$HANDSEED
  5
127
  9
$SURFTAB1
 70
     6
  9
$SURFTAB2
 70
     6
  9
$SURFTYPE
 70
     6
  9
$SURFU
 70
     6
  9
$SURFV
 70
     6
  9
$UCSBASE
  2

  9
$UCSNAME
  2

  9
$UCSORG
 10
0.0
 20
0.0
 30
0.0
  9
$UCSXDIR
 10
1.0
 20
0.0
 30
0.0
  9
$UCSYDIR
 10
0.0
 20
1.0
 30
0.0
  9
$UCSORTHOREF
  2

  9
$UCSORTHOVIEW
 70
     0
  9
$UCSORGTOP
 10
0.0
 20
0.0
 30
0.0
  9
$UCSORGBOTTOM
 10
0.0
 20
0.0
 30
0.0
  9
$UCSORGLEFT
 10
0.0
 20
0.0
 30
0.0
  9
$UCSORGRIGHT
 10
0.0
 20
0.0
 30
0.0
  9
$UCSORGFRONT
 10
0.0
 20
0.0
 30
0.0
  9
$UCSORGBACK
 10
0.0
 20
0.0
 30
0.0
  9
$PUCSBASE
  2

  9
$PUCSNAME
  2

  9
$PUCSORG
 10
0.0
 20
0.0
 30
0.0
  9
$PUCSXDIR
 10
1.0
 20
0.0
 30
0.0
  9
$PUCSYDIR
 10
0.0
 20
1.0
 30
0.0
  9
$PUCSORTHOREF
  2

  9
$PUCSORTHOVIEW
 70
     0
  9
$PUCSORGTOP
 10
0.0
 20
0.0
 30
0.0
  9
$PUCSORGBOTTOM
 10
0.0
 20
0.0
 30
0.0
  9
$PUCSORGLEFT
 10
0.0
 20
0.0
 30
0.0
  9
$PUCSORGRIGHT
 10
0.0
 20
0.0
 30
0.0
  9
$PUCSORGFRONT
 10
0.0
 20
0.0
 30
0.0
  9
$PUCSORGBACK
 10
0.0
 20
0.0
 30
0.0
  9
$USERI1
 70
     0
  9
$USERI2
 70
     0
  9
$USERI3
 70
     0
  9
$USERI4
 70
     0
  9
$USERI5
 70
     0
  9
$USERR1
 40
14.0
  9
$USERR2
 40
0.0
  9
$USERR3
 40
0.0
  9
$USERR4
 40
0.0
  9
$USERR5
 40
0.0
  9
$WORLDVIEW
 70
     1
  9
$SHADEDGE
 70
     3
  9
$SHADEDIF
 70
    70
  9
$TILEMODE
 70
     1
  9
$MAXACTVP
 70
    64
  9
$PINSBASE
 10
0.0
 20
0.0
 30
0.0
  9
$PLIMCHECK
 70
     0
  9
$PEXTMIN
 10
1.00000000000000E+20
 20
1.00000000000000E+20
 30
1.00000000000000E+20
  9
$PEXTMAX
 10
-1.00000000000000E+20
 20
-1.00000000000000E+20
 30
-1.00000000000000E+20
  9
$PLIMMIN
 10
0.0
 20
0.0
  9
$PLIMMAX
 10
12.0
 20
9.0
  9
$UNITMODE
 70
     0
  9
$VISRETAIN
 70
     1
  9
$PLINEGEN
 70
     0
  9
$PSLTSCALE
 70
     1
  9
$TREEDEPTH
 70
  3020
  9
$CMLSTYLE
  2
Standard
  9
$CMLJUST
 70
     0
  9
$CMLSCALE
 40
1.0
  9
$PROXYGRAPHICS
 70
     1
  9
$MEASUREMENT
 70
     1
  9
$CELWEIGHT
370
    -1
  9
$ENDCAPS
280
     0
  9
$JOINSTYLE
280
     0
  9
$LWDISPLAY
290
     0
  9
$INSUNITS
 70
     1
  9
$HYPERLINKBASE
  1

  9
$STYLESHEET
  1

  9
$XEDIT
290
     1
  9
$CEPSNTYPE
380
     0
  9
$PSTYLEMODE
290
     1
  9
$FINGERPRINTGUID
  2
{800F2A60-1437-454E-A77B-21D222C64CD4}
  9
$VERSIONGUID
  2
{FAEB1C32-E019-11D5-929B-00C0DF256EC4}
  9
$EXTNAMES
290
     1
  9
$PSVPSCALE
 40
0.0
  9
$OLESTARTUP
290
     0
  0
ENDSEC
  0
SECTION
  2
CLASSES
  0
CLASS
  1
ACDBDICTIONARYWDFLT
  2
AcDbDictionaryWithDefault
  3
ObjectDBX Classes
 90
        0
280
     0
281
     0
  0
CLASS
  1
ACDBPLACEHOLDER
  2
AcDbPlaceHolder
  3
ObjectDBX Classes
 90
        0
280
     0
281
     0
  0
CLASS
  1
LAYOUT
  2
AcDbLayout
  3
ObjectDBX Classes
 90
        0
280
     0
281
     0
  0
ENDSEC
  0
SECTION
  2
TABLES
  0
TABLE
  2
VPORT
  5
8
330
0
100
AcDbSymbolTable
 70
     1
  0
VPORT
  5
29
330
8
100
AcDbSymbolTableRecord
100
AcDbViewportTableRecord
  2
*Active
 70
     0
 10
0.0
 20
0.0
 11
1.0
 21
1.0
 12
-10.61266339163402
 22
-108.7438169056795
 13
0.0
 23
0.0
 14
0.5
 24
0.5
 15
0.5
 25
0.5
 16
0.0
 26
0.0
 36
1.0
 17
0.0
 27
0.0
 37
0.0
 40
381.8598735027076
 41
1.60267857142857
 42
50.0
 43
0.0
 44
0.0
 50
0.0
 51
0.0
 71
     0
 72
   100
 73
     1
 74
     3
 75
     0
 76
     0
 77
     0
 78
     0
281
     0
 65
     1
110
0.0
120
0.0
130
0.0
111
1.0
121
0.0
131
0.0
112
0.0
122
1.0
132
0.0
 79
     0
146
0.0
  0
ENDTAB
  0
TABLE
  2
LTYPE
  5
5
330
0
100
AcDbSymbolTable
 70
     9
  0
LTYPE
  5
14
330
5
100
AcDbSymbolTableRecord
100
AcDbLinetypeTableRecord
  2
ByBlock
 70
     0
  3

 72
    65
 73
     0
 40
0.0
  0
LTYPE
  5
15
330
5
100
AcDbSymbolTableRecord
100
AcDbLinetypeTableRecord
  2
ByLayer
 70
     0
  3

 72
    65
 73
     0
 40
0.0
  0
LTYPE
  5
16
330
5
100
AcDbSymbolTableRecord
100
AcDbLinetypeTableRecord
  2
Continuous
 70
     0
  3
Solid line
 72
    65
 73
     0
 40
0.0
  0
LTYPE
  5
2A
330
5
100
AcDbSymbolTableRecord
100
AcDbLinetypeTableRecord
  2
DASHED
 70
     0
  3
Dashed
 72
    65
 73
     2
 40
15.0
 49
7.0
 74
     0
 49
-8.0
 74
     0
  0
LTYPE
  5
2B
330
5
100
AcDbSymbolTableRecord
100
AcDbLinetypeTableRecord
  2
DOTTED
 70
     0
  3
Dotted
 72
    65
 73
     2
 40
1.0
 49
0.0
 74
     0
 49
-1.0
 74
     0
  0
LTYPE
  5
2C
330
5
100
AcDbSymbolTableRecord
100
AcDbLinetypeTableRecord
  2
DOT_CENTER
 70
     0
  3
Dot_Center
 72
    65
 73
     4
 40
14.0
 49
12.0
 74
     0
 49
-1.0
 74
     0
 49
0.0
 74
     0
 49
-1.0
 74
     0
  0
LTYPE
  5
2D
330
5
100
AcDbSymbolTableRecord
100
AcDbLinetypeTableRecord
  2
LONG_DASHED
 70
     0
  3
Long_Dashed
 72
    65
 73
     2
 40
15.0
 49
10.0
 74
     0
 49
-5.0
 74
     0
  0
LTYPE
  5
2E
330
5
100
AcDbSymbolTableRecord
100
AcDbLinetypeTableRecord
  2
DASH_CENTER
 70
     0
  3
Dash_Center
 72
    65
 73
     4
 40
14.0
 49
11.0
 74
     0
 49
-1.0
 74
     0
 49
1.0
 74
     0
 49
-1.0
 74
     0
  0
LTYPE
  5
2F
330
5
100
AcDbSymbolTableRecord
100
AcDbLinetypeTableRecord
  2
PHANTOM
 70
     0
  3
Phantom
 72
    65
 73
     6
 40
13.0
 49
10.0
 74
     0
 49
-1.0
 74
     0
 49
0.0
 74
     0
 49
-1.0
 74
     0
 49
0.0
 74
     0
 49
-1.0
 74
     0
  0
LTYPE
  5
30
330
5
100
AcDbSymbolTableRecord
100
AcDbLinetypeTableRecord
  2
CENTER_DASH_DASH
 70
     0
  3
Center_Dash_Dash
 72
    65
 73
     6
 40
14.0
 49
9.0
 74
     0
 49
-1.0
 74
     0
 49
1.0
 74
     0
 49
-1.0
 74
     0
 49
1.0
 74
     0
 49
-1.0
 74
     0
  0
LTYPE
  5
31
330
5
100
AcDbSymbolTableRecord
100
AcDbLinetypeTableRecord
  2
DASHDOT_14
 70
     0
  3
DASHDOT_14
 72
    65
 73
     4
 40
16.0
 49
10.0
 74
     0
 49
-3.0
 74
     0
 49
0.0
 74
     0
 49
-3.0
 74
     0
  0
ENDTAB
  0
TABLE
  2
LAYER
  5
2
330
0
100
AcDbSymbolTable
 70
     5
  0
LAYER
  5
10
330
2
100
AcDbSymbolTableRecord
100
AcDbLayerTableRecord
  2
0
 70
     0
 62
     7
  6
Continuous
370
    -3
390
F
  0
LAYER
  5
32
330
2
100
AcDbSymbolTableRecord
100
AcDbLayerTableRecord
  2
1
 70
     0
 62
     7
  6
Continuous
370
    -3
390
F
  0
LAYER
  5
33
330
2
100
AcDbSymbolTableRecord
100
AcDbLayerTableRecord
  2
LC-001-002-----0
 70
     0
 62
     7
  6
Continuous
370
    -3
390
F
  0
LAYER
  5
34
330
2
100
AcDbSymbolTableRecord
100
AcDbLayerTableRecord
  2
LC-009-021-----0
 70
     0
 62
     7
  6
Continuous
370
    -3
390
F
  0
LAYER
  5
35
330
2
100
AcDbSymbolTableRecord
100
AcDbLayerTableRecord
  2
LC-016-002-RND-0
 70
     0
 62
     7
  6
Continuous
370
    -3
390
F
  0
ENDTAB
  0
TABLE
  2
STYLE
  5
3
330
0
100
AcDbSymbolTable
 70
     2
  0
STYLE
  5
11
330
3
100
AcDbSymbolTableRecord
100
AcDbTextStyleTableRecord
  2
Standard
 70
     0
 40
0.0
 41
1.0
 50
0.0
 71
     0
 42
0.2
  3
txt
  4

  0
STYLE
  5
C7
330
3
100
AcDbSymbolTableRecord
100
AcDbTextStyleTableRecord
  2
CONVERTER_1
 70
     0
 40
0.0
 41
0.9
 50
0.0
 71
     0
 42
0.2
  3
txt.shx
  4

  0
ENDTAB
  0
TABLE
  2
VIEW
  5
6
330
0
100
AcDbSymbolTable
 70
     0
  0
ENDTAB
  0
TABLE
  2
UCS
  5
7
330
0
100
AcDbSymbolTable
 70
     0
  0
ENDTAB
  0
TABLE
  2
APPID
  5
9
330
0
100
AcDbSymbolTable
 70
     1
  0
APPID
  5
12
330
9
100
AcDbSymbolTableRecord
100
AcDbRegAppTableRecord
  2
ACAD
 70
     0
  0
ENDTAB
  0
TABLE
  2
DIMSTYLE
  5
A
330
0
100
AcDbSymbolTable
 70
    10
100
AcDbDimStyleTable
  0
DIMSTYLE
105
27
330
A
100
AcDbSymbolTableRecord
100
AcDbDimStyleTableRecord
  2
Standard
 70
     0
340
11
  0
DIMSTYLE
105
CB
102
{ACAD_REACTORS
330
CC
102
}
330
A
100
AcDbSymbolTableRecord
100
AcDbDimStyleTableRecord
  2
ME10_DIM_0
 70
     0
 41
12.0
 42
0.0
 44
2.0
 73
     0
 74
     0
 77
     1
 78
     8
140
12.0
147
2.0
172
     1
173
     1
176
     4
177
     4
178
     1
271
     2
340
C7
  0
DIMSTYLE
105
D7
102
{ACAD_REACTORS
330
D8
102
}
330
A
100
AcDbSymbolTableRecord
100
AcDbDimStyleTableRecord
  2
ME10_DIM_1
 70
     0
  3
DN<>
 41
12.0
 42
0.0
 44
2.0
 73
     0
 74
     0
 77
     1
 78
     8
140
12.0
147
2.0
172
     1
173
     1
176
     4
177
     4
178
     1
271
     2
340
C7
  0
DIMSTYLE
105
E2
102
{ACAD_REACTORS
330
E3
102
}
330
A
100
AcDbSymbolTableRecord
100
AcDbDimStyleTableRecord
  2
ME10_DIM_2
 70
     0
  3
x185
 41
12.0
 42
0.0
 44
2.0
 73
     0
 74
     0
 77
     1
 78
     8
140
12.0
147
2.0
172
     1
173
     1
176
     4
177
     4
178
     1
271
     0
340
C7
  0
DIMSTYLE
105
ED
102
{ACAD_REACTORS
330
EE
102
}
330
A
100
AcDbSymbolTableRecord
100
AcDbDimStyleTableRecord
  2
ME10_DIM_3
 70
     0
 41
12.0
 42
0.0
 44
2.0
 73
     0
 74
     0
 77
     1
 78
     8
140
12.0
147
2.0
172
     1
173
     1
176
     4
177
     4
178
     1
271
     2
340
C7
  0
DIMSTYLE
105
F9
102
{ACAD_REACTORS
330
FA
102
}
330
A
100
AcDbSymbolTableRecord
100
AcDbDimStyleTableRecord
  2
ME10_DIM_4
 70
     0
  3
DN<>
 41
12.0
 42
0.0
 44
2.0
 73
     0
 74
     0
 77
     1
 78
     8
140
12.0
147
2.0
172
     1
173
     1
176
     4
177
     4
178
     1
271
     2
340
C7
  0
DIMSTYLE
105
104
102
{ACAD_REACTORS
330
105
102
}
330
A
100
AcDbSymbolTableRecord
100
AcDbDimStyleTableRecord
  2
ME10_DIM_5
 70
     0
 41
12.0
 42
0.0
 44
2.0
 73
     0
 74
     0
 77
     1
 78
     8
140
12.0
147
2.0
172
     1
173
     1
176
     4
177
     4
178
     1
271
     2
340
C7
  0
DIMSTYLE
105
10F
102
{ACAD_REACTORS
330
110
102
}
330
A
100
AcDbSymbolTableRecord
100
AcDbDimStyleTableRecord
  2
ME10_DIM_6
 70
     0
 41
12.0
 42
0.0
 44
2.0
 73
     0
 74
     0
 77
     1
 78
     8
140
12.0
147
2.0
172
     1
173
     1
176
     4
177
     4
178
     1
271
     2
340
C7
  0
DIMSTYLE
105
11A
102
{ACAD_REACTORS
330
11B
102
}
330
A
100
AcDbSymbolTableRecord
100
AcDbDimStyleTableRecord
  2
ME10_DIM_7
 70
     0
 41
12.0
 42
0.0
 44
2.0
 73
     0
 74
     0
 77
     1
 78
     8
140
12.0
147
2.0
172
     1
173
     1
176
     4
177
     4
178
     1
271
     2
340
C7
  0
DIMSTYLE
105
125
102
{ACAD_REACTORS
330
126
102
}
330
A
100
AcDbSymbolTableRecord
100
AcDbDimStyleTableRecord
  2
ME10_DIM_8
 70
     0
 41
12.0
 42
0.0
 44
2.0
 73
     0
 74
     0
 77
     1
 78
     8
140
12.0
147
2.0
172
     1
173
     1
176
     4
177
     4
178
     1
271
     2
340
C7
  0
ENDTAB
  0
TABLE
  2
BLOCK_RECORD
  5
1
330
0
100
AcDbSymbolTable
 70
    11
  0
BLOCK_RECORD
  5
1F
330
1
100
AcDbSymbolTableRecord
100
AcDbBlockTableRecord
  2
*Model_Space
340
22
  0
BLOCK_RECORD
  5
1B
330
1
100
AcDbSymbolTableRecord
100
AcDbBlockTableRecord
  2
*Paper_Space
340
1E
  0
BLOCK_RECORD
  5
23
330
1
100
AcDbSymbolTableRecord
100
AcDbBlockTableRecord
  2
*Paper_Space0
340
26
  0
BLOCK_RECORD
  5
36
330
1
100
AcDbSymbolTableRecord
100
AcDbBlockTableRecord
  2
HL77_1_Kellerablauf__1
340
0
102
{BLKREFS
331
39
102
}
  0
BLOCK_RECORD
  5
C1
330
1
100
AcDbSymbolTableRecord
100
AcDbBlockTableRecord
  2
*D02
340
0
  0
BLOCK_RECORD
  5
CD
330
1
100
AcDbSymbolTableRecord
100
AcDbBlockTableRecord
  2
*D13
340
0
  0
BLOCK_RECORD
  5
D9
330
1
100
AcDbSymbolTableRecord
100
AcDbBlockTableRecord
  2
*D24
340
0
  0
BLOCK_RECORD
  5
E4
330
1
100
AcDbSymbolTableRecord
100
AcDbBlockTableRecord
  2
*D35
340
0
  0
BLOCK_RECORD
  5
EF
330
1
100
AcDbSymbolTableRecord
100
AcDbBlockTableRecord
  2
*D46
340
0
  0
BLOCK_RECORD
  5
FB
330
1
100
AcDbSymbolTableRecord
100
AcDbBlockTableRecord
  2
*D57
340
0
  0
BLOCK_RECORD
  5
106
330
1
100
AcDbSymbolTableRecord
100
AcDbBlockTableRecord
  2
*D68
340
0
  0
BLOCK_RECORD
  5
111
330
1
100
AcDbSymbolTableRecord
100
AcDbBlockTableRecord
  2
*D79
340
0
  0
BLOCK_RECORD
  5
11C
330
1
100
AcDbSymbolTableRecord
100
AcDbBlockTableRecord
  2
*D810
340
0
  0
ENDTAB
  0
ENDSEC
  0
SECTION
  2
BLOCKS
  0
BLOCK
  5
20
330
1F
100
AcDbEntity
  8
0
100
AcDbBlockBegin
  2
*Model_Space
 70
     0
 71
     0
 10
0.0
 20
0.0
 30
0.0
  3
*Model_Space
  1

  0
ENDBLK
  5
21
330
1F
100
AcDbEntity
  8
0
100
AcDbBlockEnd
  0
BLOCK
  5
1C
330
1B
100
AcDbEntity
 67
     1
  8
0
100
AcDbBlockBegin
  2
*Paper_Space
 70
     0
 71
     0
 10
0.0
 20
0.0
 30
0.0
  3
*Paper_Space
  1

  0
ENDBLK
  5
1D
330
1B
100
AcDbEntity
 67
     1
  8
0
100
AcDbBlockEnd
  0
BLOCK
  5
24
330
23
100
AcDbEntity
  8
0
100
AcDbBlockBegin
  2
*Paper_Space0
 70
     0
 71
     0
 10
0.0
 20
0.0
 30
0.0
  3
*Paper_Space0
  1

  0
ENDBLK
  5
25
330
23
100
AcDbEntity
  8
0
100
AcDbBlockEnd
  0
BLOCK
  5
37
330
36
100
AcDbEntity
  8
0
100
AcDbBlockBegin
  2
HL77_1_Kellerablauf__1
 70
     0
 71
     0
 10
0.0
 20
-0.00000000000003
 30
0.0
  3
HL77_1_Kellerablauf__1
  1

  0
POINT
  5
3A
330
36
100
AcDbEntity
  8
0
 62
     7
100
AcDbPoint
 10
134.500315
 20
0.00005350007143
 30
0.0
  0
POINT
  5
3B
330
36
100
AcDbEntity
  8
0
 62
     7
100
AcDbPoint
 10
243.436297
 20
-57.16486049992858
 30
0.0
  0
POINT
  5
3C
330
36
100
AcDbEntity
  8
0
 62
     7
100
AcDbPoint
 10
-134.5
 20
-0.00005849992857
 30
0.0
  0
POINT
  5
3D
330
36
100
AcDbEntity
  8
0
 62
     7
100
AcDbPoint
 10
-113.5
 20
-221.0000584999286
 30
0.0
  0
POINT
  5
3E
330
36
100
AcDbEntity
  8
0
 62
     7
100
AcDbPoint
 10
134.500315
 20
0.00005350007143
 30
0.0
  0
POINT
  5
3F
330
36
100
AcDbEntity
  8
0
 62
     7
100
AcDbPoint
 10
-134.5
 20
-0.00005849992857
 30
0.0
  0
POINT
  5
40
330
36
100
AcDbEntity
  8
0
 62
     7
100
AcDbPoint
 10
-219.997234
 20
-80.00005849992857
 30
0.0
  0
POINT
  5
41
330
36
100
AcDbEntity
  8
0
 62
     7
100
AcDbPoint
 10
-219.997234
 20
-54.50005849992857
 30
0.0
  0
POINT
  5
42
330
36
100
AcDbEntity
  8
0
 62
     7
100
AcDbPoint
 10
-219.997234
 20
-105.5000584999286
 30
0.0
  0
POINT
  5
43
330
36
100
AcDbEntity
  8
0
 62
     7
100
AcDbPoint
 10
-126.75
 20
-0.00005749992857
 30
0.0
  0
POINT
  5
44
330
36
100
AcDbEntity
  8
0
 62
     7
100
AcDbPoint
 10
127.750315
 20
0.00005750007142
 30
0.0
  0
POINT
  5
45
330
36
100
AcDbEntity
  8
0
 62
     7
100
AcDbPoint
 10
200.557547
 20
-109.9983634999286
 30
0.0
  0
LINE
  5
46
330
36
100
AcDbEntity
  8
1
  6
Continuous
 62
     7
100
AcDbLine
 10
-134.5
 20
-21.50005849992857
 30
0.0
 11
134.5003013659253
 21
-21.50005849992857
 31
0.0
  0
LINE
  5
47
330
36
100
AcDbEntity
  8
1
  6
Continuous
 62
     7
100
AcDbLine
 10
127.750312
 20
2.00005795371841
 30
0.0
 11
127.750312
 21
7.00005795371897
 31
0.0
  0
LINE
  5
48
330
36
100
AcDbEntity
  8
1
  6
Continuous
 62
     7
100
AcDbLine
 10
-127.75
 20
6.9999420464236
 30
0.0
 11
-127.75
 21
1.99994204642308
 31
0.0
  0
LINE
  5
49
330
36
100
AcDbEntity
  8
1
  6
Continuous
 62
     7
100
AcDbLine
 10
127.750312
 20
0.0000575000732
 30
0.0
 11
127.750312
 21
0.00005795371841
 31
0.0
  0
LINE
  5
4A
330
36
100
AcDbEntity
  8
LC-001-002-----0
  6
Continuous
 62
     7
100
AcDbLine
 10
-126.287234
 20
-117.5000584999286
 30
0.0
 11
-123.287234
 21
-117.5000584999286
 31
0.0
  0
LINE
  5
4B
330
36
100
AcDbEntity
  8
LC-001-002-----0
  6
Continuous
 62
     7
100
AcDbLine
 10
-126.287234
 20
-42.50005849992863
 30
0.0
 11
-123.287234
 21
-42.50005849992857
 31
0.0
  0
LINE
  5
4C
330
36
100
AcDbEntity
  8
1
  6
Continuous
 62
     7
100
AcDbLine
 10
-126.287234
 20
-117.5000584999286
 30
0.0
 11
-126.287234
 21
-42.50005849992863
 31
0.0
  0
LINE
  5
4D
330
36
100
AcDbEntity
  8
LC-001-002-----0
  6
Continuous
 62
     7
100
AcDbLine
 10
-123.287234
 20
-117.5000584999286
 30
0.0
 11
-119.005319
 21
-117.5000584999286
 31
0.0
  0
LINE
  5
4E
330
36
100
AcDbEntity
  8
1
  6
Continuous
 62
     7
100
AcDbLine
 10
-123.287234
 20
-42.50005849992857
 30
0.0
 11
-123.287234
 21
-117.5000584999286
 31
0.0
  0
LINE
  5
4F
330
36
100
AcDbEntity
  8
1
  6
Continuous
 62
     7
100
AcDbLine
 10
174.945873
 20
-53.57542949992859
 30
0.0
 11
169.536568
 21
-163.4428971127563
 31
0.0
  0
LINE
  5
50
330
36
100
AcDbEntity
  8
LC-001-002-----0
  6
Continuous
 62
     7
100
AcDbLine
 10
169.536568
 20
-163.4428971127563
 30
0.0
 11
116.54738
 21
-160.6658514999286
 31
0.0
  0
LINE
  5
51
330
36
100
AcDbEntity
  8
1
  6
Continuous
 62
     7
100
AcDbLine
 10
169.536568
 20
-63.06631549992858
 30
0.0
 11
169.536568
 21
-163.4428971127563
 31
0.0
  0
LINE
  5
52
330
36
100
AcDbEntity
  8
1
  6
Continuous
 62
     7
100
AcDbLine
 10
-129.037234
 20
-49.00005849992857
 30
0.0
 11
-129.037234
 21
-111.0000584999286
 31
0.0
  0
LINE
  5
53
330
36
100
AcDbEntity
  8
1
  6
Continuous
 62
     7
100
AcDbLine
 10
-151.787234
 20
-111.0000584999286
 30
0.0
 11
-151.787234
 21
-49.00005849992857
 31
0.0
  0
LINE
  5
54
330
36
100
AcDbEntity
  8
1
  6
Continuous
 62
     7
100
AcDbLine
 10
-153.787234
 20
-55.00005849992857
 30
0.0
 11
-153.787234
 21
-105.0000584999286
 31
0.0
  0
LINE
  5
55
330
36
100
AcDbEntity
  8
1
  6
Continuous
 62
     7
100
AcDbLine
 10
-162.287234
 20
-105.0000584999286
 30
0.0
 11
-162.287234
 21
-55.00005849992857
 31
0.0
  0
LINE
  5
56
330
36
100
AcDbEntity
  8
1
  6
Continuous
 62
     7
100
AcDbLine
 10
-166.287234
 20
-51.00005849992857
 30
0.0
 11
-166.287234
 21
-109.0000584999286
 31
0.0
  0
LINE
  5
57
330
36
100
AcDbEntity
  8
1
  6
Continuous
 62
     7
100
AcDbLine
 10
-199.497234
 20
-48.50005849992857
 30
0.0
 11
-199.497234
 21
-111.5000584999286
 31
0.0
  0
LINE
  5
58
330
36
100
AcDbEntity
  8
1
  6
Continuous
 62
     7
100
AcDbLine
 10
-196.997234
 20
-109.0000584999286
 30
0.0
 11
-196.997234
 21
-51.00005849992857
 31
0.0
  0
LINE
  5
59
330
36
100
AcDbEntity
  8
1
  6
Continuous
 62
     7
100
AcDbLine
 10
-203.497234
 20
-48.50005849992857
 30
0.0
 11
-203.497234
 21
-111.5000584999286
 31
0.0
  0
LINE
  5
5A
330
36
100
AcDbEntity
  8
1
  6
Continuous
 62
     7
100
AcDbLine
 10
-205.497234
 20
-113.5000584999286
 30
0.0
 11
-205.497234
 21
-46.50005849992857
 31
0.0
  0
LINE
  5
5B
330
36
100
AcDbEntity
  8
1
  6
Continuous
 62
     7
100
AcDbLine
 10
-213.997234
 20
-46.50005849992857
 30
0.0
 11
-213.997234
 21
-113.5000584999286
 31
0.0
  0
LINE
  5
5C
330
36
100
AcDbEntity
  8
1
  6
Continuous
 62
     7
100
AcDbLine
 10
-215.997234
 20
-111.5000584999286
 30
0.0
 11
-215.997234
 21
-48.50005849992857
 31
0.0
  0
LINE
  5
5D
330
36
100
AcDbEntity
  8
LC-001-002-----0
  6
Continuous
 62
     7
100
AcDbLine
 10
-131.5099292167828
 20
-31.50005849992556
 30
0.0
 11
-123.282887
 21
-37.00296649992856
 31
0.0
  0
LINE
  5
5E
330
36
100
AcDbEntity
  8
1
  6
Continuous
 62
     7
100
AcDbLine
 10
-137.000004101524
 20
-31.50005849992556
 30
0.0
 11
-131.5099292167828
 21
-31.50005849992556
 31
0.0
  0
LINE
  5
5F
330
36
100
AcDbEntity
  8
LC-001-002-----0
  6
Continuous
 62
     7
100
AcDbLine
 10
131.5102141561238
 20
-31.49982949992756
 30
0.0
 11
122.707972
 21
-37.38746949992856
 31
0.0
  0
LINE
  5
60
330
36
100
AcDbEntity
  8
1
  6
Continuous
 62
     7
100
AcDbLine
 10
137.0002945307271
 20
-31.49982949992756
 30
0.0
 11
131.5102141561238
 21
-31.49982949992756
 31
0.0
  0
LINE
  5
61
330
36
100
AcDbEntity
  8
1
  6
Continuous
 62
     7
100
AcDbLine
 10
122.707972
 20
-37.38746949992856
 30
0.0
 11
-123.282887
 21
-37.38746949992856
 31
0.0
  0
LINE
  5
62
330
36
100
AcDbEntity
  8
1
  6
Continuous
 62
     7
100
AcDbLine
 10
134.5002920000001
 20
-29.49982749992859
 30
0.0
 11
139.441636787685
 21
-29.49982749992859
 31
0.0
  0
LINE
  5
63
330
36
100
AcDbEntity
  8
1
  6
Continuous
 62
     7
100
AcDbLine
 10
-134.5505099999999
 20
-29.50005849992857
 30
0.0
 11
134.5488373887611
 21
-29.50005849992857
 31
0.0
  0
LINE
  5
64
330
36
100
AcDbEntity
  8
1
  6
Continuous
 62
     7
100
AcDbLine
 10
-139.449493
 20
-29.50005849992857
 30
0.0
 11
-134.5505099999999
 21
-29.50005849992857
 31
0.0
  0
LINE
  5
65
330
36
100
AcDbEntity
  8
LC-001-002-----0
  6
Continuous
 62
     7
100
AcDbLine
 10
-127.75
 20
-0.00005795357692
 30
0.0
 11
127.750312
 21
0.00005795371841
 31
0.0
  0
LINE
  5
66
330
36
100
AcDbEntity
  8
LC-001-002-----0
  6
Continuous
 62
     7
100
AcDbLine
 10
127.750312
 20
0.0000575000732
 30
0.0
 11
134.500315
 21
0.00005350007143
 31
0.0
  0
LINE
  5
67
330
36
100
AcDbEntity
  8
LC-001-002-----0
  6
Continuous
 62
     7
100
AcDbLine
 10
-123.287234
 20
-37.00005849992857
 30
0.0
 11
-123.287234
 21
-42.50005849992857
 31
0.0
  0
LINE
  5
68
330
36
100
AcDbEntity
  8
LC-001-002-----0
  6
Continuous
 62
     7
100
AcDbLine
 10
-127.75
 20
-0.00005849992857
 30
0.0
 11
-134.5
 21
-0.00005849992857
 31
0.0
  0
LINE
  5
69
330
36
100
AcDbEntity
  8
LC-001-002-----0
  6
Continuous
 62
     7
100
AcDbLine
 10
-134.5
 20
-0.00005849992857
 30
0.0
 11
-134.5
 21
-21.50005849992857
 31
0.0
  0
LINE
  5
6A
330
36
100
AcDbEntity
  8
LC-001-002-----0
  6
Continuous
 62
     7
100
AcDbLine
 10
-113.5
 20
-221.0000584999286
 30
0.0
 11
0.0
 21
-221.0000584999286
 31
0.0
  0
LINE
  5
6B
330
36
100
AcDbEntity
  8
LC-001-002-----0
  6
Continuous
 62
     7
100
AcDbLine
 10
127.750315
 20
0.00005750007142
 30
0.0
 11
134.500315
 21
0.00005350007143
 31
0.0
  0
LINE
  5
6C
330
36
100
AcDbEntity
  8
LC-001-002-----0
  6
Continuous
 62
     7
100
AcDbLine
 10
134.500315
 20
0.00005350007143
 30
0.0
 11
134.5003013659253
 21
-21.49983349992857
 31
0.0
  0
LINE
  5
6D
330
36
100
AcDbEntity
  8
LC-001-002-----0
  6
Continuous
 62
     7
100
AcDbLine
 10
122.707972
 20
-37.38746949992856
 30
0.0
 11
121.411108
 21
-63.06504349992855
 31
0.0
  0
LINE
  5
6E
330
36
100
AcDbEntity
  8
LC-001-002-----0
  6
Continuous
 62
     7
100
AcDbLine
 10
108.500167
 20
-215.9999284999286
 30
0.0
 11
113.2559
 21
-215.9999284999286
 31
0.0
  0
LINE
  5
6F
330
36
100
AcDbEntity
  8
LC-001-002-----0
  6
Continuous
 62
     7
100
AcDbLine
 10
95.27141399999999
 20
-220.9999194999286
 30
0.0
 11
0.00016500000004
 21
-220.9998574999286
 31
0.0
  0
LINE
  5
70
330
36
100
AcDbEntity
  8
LC-001-002-----0
  6
Continuous
 62
     7
100
AcDbLine
 10
-127.75
 20
-0.00005849992857
 30
0.0
 11
-134.5
 21
-0.00005849992857
 31
0.0
  0
LINE
  5
71
330
36
100
AcDbEntity
  8
LC-001-002-----0
  6
Continuous
 62
     7
100
AcDbLine
 10
-134.5
 20
-0.00005849992857
 30
0.0
 11
-134.5
 21
-20.50005849992857
 31
0.0
  0
LINE
  5
72
330
36
100
AcDbEntity
  8
LC-001-002-----0
  6
Continuous
 62
     7
100
AcDbLine
 10
-113.5
 20
-221.0000584999286
 30
0.0
 11
0.0
 21
-221.0000584999286
 31
0.0
  0
LINE
  5
73
330
36
100
AcDbEntity
  8
LC-001-002-----0
  6
Continuous
 62
     7
100
AcDbLine
 10
134.500315
 20
0.00005350007143
 30
0.0
 11
134.500302
 21
-20.49994649992857
 31
0.0
  0
LINE
  5
74
330
36
100
AcDbEntity
  8
LC-001-002-----0
  6
Continuous
 62
     7
100
AcDbLine
 10
108.500167
 20
-215.9999284999286
 30
0.0
 11
113.2559
 21
-215.9999284999286
 31
0.0
  0
LINE
  5
75
330
36
100
AcDbEntity
  8
LC-001-002-----0
  6
Continuous
 62
     7
100
AcDbLine
 10
95.27141399999999
 20
-220.9999194999286
 30
0.0
 11
0.00016500000004
 21
-220.9998574999286
 31
0.0
  0
LINE
  5
76
330
36
100
AcDbEntity
  8
LC-001-002-----0
  6
Continuous
 62
     7
100
AcDbLine
 10
116.235609
 20
-168.2110774999286
 30
0.0
 11
113.248921
 21
-215.9744844999286
 31
0.0
  0
LINE
  5
77
330
36
100
AcDbEntity
  8
LC-001-002-----0
  6
Continuous
 62
     7
100
AcDbLine
 10
-134.5
 20
-29.50005849992857
 30
0.0
 11
-134.5505099999999
 21
-29.50005849992857
 31
0.0
  0
LINE
  5
78
330
36
100
AcDbEntity
  8
LC-001-002-----0
  6
Continuous
 62
     7
100
AcDbLine
 10
-137.0
 20
-31.50005849992857
 30
0.0
 11
-137.0
 21
-31.50005849992857
 31
0.0
  0
LINE
  5
79
330
36
100
AcDbEntity
  8
LC-001-002-----0
  6
Continuous
 62
     7
100
AcDbLine
 10
-142.5
 20
-21.50005849992857
 30
0.0
 11
-142.5
 21
-29.50005849992857
 31
0.0
  0
LINE
  5
7A
330
36
100
AcDbEntity
  8
LC-001-002-----0
  6
Continuous
 62
     7
100
AcDbLine
 10
142.5002920000001
 20
-29.49983349992857
 30
0.0
 11
139.5002920000001
 21
-29.49983149992858
 31
0.0
  0
LINE
  5
7B
330
36
100
AcDbEntity
  8
LC-001-002-----0
  6
Continuous
 62
     7
100
AcDbLine
 10
137.0002910000001
 20
-31.49982949992858
 30
0.0
 11
137.0002910000001
 21
-31.49982949992858
 31
0.0
  0
LINE
  5
7C
330
36
100
AcDbEntity
  8
LC-001-002-----0
  6
Continuous
 62
     7
100
AcDbLine
 10
134.5002920000001
 20
-29.49982749992859
 30
0.0
 11
131.5102141561238
 21
-31.49982949992756
 31
0.0
  0
LINE
  5
7D
330
36
100
AcDbEntity
  8
LC-001-002-----0
  6
Continuous
 62
     7
100
AcDbLine
 10
137.0002910000001
 20
-31.49982949992858
 30
0.0
 11
137.0002920000001
 21
-31.49982949992858
 31
0.0
  0
LINE
  5
7E
330
36
100
AcDbEntity
  8
LC-001-002-----0
  6
Continuous
 62
     7
100
AcDbLine
 10
137.5002940000001
 20
-21.49983349992857
 30
0.0
 11
134.5003013659253
 21
-21.49983349992857
 31
0.0
  0
LINE
  5
7F
330
36
100
AcDbEntity
  8
LC-001-002-----0
  6
Continuous
 62
     7
100
AcDbLine
 10
139.5002920000001
 20
-21.49983349992857
 30
0.0
 11
137.5002940000001
 21
-21.49983349992857
 31
0.0
  0
LINE
  5
80
330
36
100
AcDbEntity
  8
LC-001-002-----0
  6
Continuous
 62
     7
100
AcDbLine
 10
142.5002920000001
 20
-29.49983349992857
 30
0.0
 11
142.5002920000001
 21
-24.49983349992857
 31
0.0
  0
LINE
  5
81
330
36
100
AcDbEntity
  8
LC-001-002-----0
  6
DASHDOT_14
 62
     2
100
AcDbLine
 10
169.299227
 20
-108.3601844999286
 30
0.0
 11
221.604326
 21
-111.1013784999286
 31
0.0
  0
LINE
  5
82
330
36
100
AcDbEntity
  8
LC-001-002-----0
  6
Continuous
 62
     7
100
AcDbLine
 10
121.436297
 20
-63.06631549992858
 30
0.0
 11
169.536568
 21
-63.06631549992858
 31
0.0
  0
LINE
  5
83
330
36
100
AcDbEntity
  8
LC-001-002-----0
  6
Continuous
 62
     7
100
AcDbLine
 10
243.436297
 20
-57.16486049992858
 30
0.0
 11
237.679342
 21
-167.0141084999286
 31
0.0
  0
LINE
  5
84
330
36
100
AcDbEntity
  8
LC-001-002-----0
  6
Continuous
 62
     7
100
AcDbLine
 10
-142.5
 20
-21.50005849992857
 30
0.0
 11
-134.5
 21
-21.50005849992857
 31
0.0
  0
LINE
  5
85
330
36
100
AcDbEntity
  8
LC-001-002-----0
  6
Continuous
 62
     7
100
AcDbLine
 10
-139.449493
 20
-29.50005849992857
 30
0.0
 11
-142.5
 21
-29.50005849992857
 31
0.0
  0
LINE
  5
86
330
36
100
AcDbEntity
  8
LC-001-002-----0
  6
DASHDOT_14
 62
     2
100
AcDbLine
 10
0.00000000000011
 20
-225.9999994999285
 30
0.0
 11
0.0
 21
2.99999950007145
 31
0.0
  0
LINE
  5
87
330
36
100
AcDbEntity
  8
LC-001-002-----0
  6
DASHDOT_14
 62
     2
100
AcDbLine
 10
221.604326
 20
-111.1013784999286
 30
0.0
 11
240.557547
 21
-112.0946744999285
 31
0.0
  0
LINE
  5
88
330
36
100
AcDbEntity
  8
LC-009-021-----0
  6
Continuous
 62
     7
100
AcDbLine
 10
116.54738
 20
-160.6658514999286
 30
0.0
 11
116.166303
 21
-168.2110774999286
 31
0.0
  0
LINE
  5
89
330
36
100
AcDbEntity
  8
LC-001-002-----0
  6
Continuous
 62
     7
100
AcDbLine
 10
169.536568
 20
-63.06631549992858
 30
0.0
 11
169.536568
 21
-62.94462049992859
 31
0.0
  0
LINE
  5
8A
330
36
100
AcDbEntity
  8
LC-001-002-----0
  6
Continuous
 62
     7
100
AcDbLine
 10
174.945873
 20
-53.57542949992859
 30
0.0
 11
243.436297
 21
-57.16486049992858
 31
0.0
  0
LINE
  5
8B
330
36
100
AcDbEntity
  8
LC-001-002-----0
  6
Continuous
 62
     7
100
AcDbLine
 10
169.536568
 20
-62.94462049992859
 30
0.0
 11
174.945873
 21
-53.57542949992859
 31
0.0
  0
LINE
  5
8C
330
36
100
AcDbEntity
  8
LC-001-002-----0
  6
Continuous
 62
     7
100
AcDbLine
 10
-134.5
 20
-29.50005849992857
 30
0.0
 11
-131.5099292167828
 21
-31.50005849992556
 31
0.0
  0
LINE
  5
8D
330
36
100
AcDbEntity
  8
LC-001-002-----0
  6
Continuous
 62
     7
100
AcDbLine
 10
-129.037234
 20
-117.5000584999286
 30
0.0
 11
-126.287234
 21
-117.5000584999286
 31
0.0
  0
LINE
  5
8E
330
36
100
AcDbEntity
  8
LC-001-002-----0
  6
Continuous
 62
     7
100
AcDbLine
 10
-119.005319
 20
-117.5000584999286
 30
0.0
 11
-113.5
 21
-221.0000584999286
 31
0.0
  0
LINE
  5
8F
330
36
100
AcDbEntity
  8
LC-001-002-----0
  6
Continuous
 62
     7
100
AcDbLine
 10
-129.037234
 20
-42.50005849992857
 30
0.0
 11
-126.287234
 21
-42.50005849992863
 31
0.0
  0
LINE
  5
90
330
36
100
AcDbEntity
  8
LC-001-002-----0
  6
Continuous
 62
     7
100
AcDbLine
 10
-129.037234
 20
-49.00005849992857
 30
0.0
 11
-129.037234
 21
-42.50005849992857
 31
0.0
  0
LINE
  5
91
330
36
100
AcDbEntity
  8
LC-001-002-----0
  6
Continuous
 62
     7
100
AcDbLine
 10
-129.037234
 20
-117.5000584999286
 30
0.0
 11
-129.037234
 21
-111.0000584999286
 31
0.0
  0
LINE
  5
92
330
36
100
AcDbEntity
  8
LC-001-002-----0
  6
Continuous
 62
     7
100
AcDbLine
 10
-147.537234
 20
-49.00005849992857
 30
0.0
 11
-147.537234
 21
-48.70005849992856
 31
0.0
  0
LINE
  5
93
330
36
100
AcDbEntity
  8
LC-001-002-----0
  6
Continuous
 62
     7
100
AcDbLine
 10
-145.037234
 20
-46.20005849992856
 30
0.0
 11
-129.037234
 21
-46.20005849992856
 31
0.0
  0
LINE
  5
94
330
36
100
AcDbEntity
  8
LC-001-002-----0
  6
Continuous
 62
     7
100
AcDbLine
 10
-145.037234
 20
-113.8000584999286
 30
0.0
 11
-129.037234
 21
-113.8000584999286
 31
0.0
  0
LINE
  5
95
330
36
100
AcDbEntity
  8
LC-001-002-----0
  6
Continuous
 62
     7
100
AcDbLine
 10
-147.537234
 20
-111.3000584999286
 30
0.0
 11
-147.537234
 21
-111.0000584999286
 31
0.0
  0
LINE
  5
96
330
36
100
AcDbEntity
  8
LC-001-002-----0
  6
Continuous
 62
     7
100
AcDbLine
 10
-219.997234
 20
-111.5000584999286
 30
0.0
 11
-219.997234
 21
-48.50005849992857
 31
0.0
  0
LINE
  5
97
330
36
100
AcDbEntity
  8
LC-001-002-----0
  6
Continuous
 62
     7
100
AcDbLine
 10
-215.997234
 20
-48.50005849992857
 30
0.0
 11
-219.997234
 21
-48.50005849992857
 31
0.0
  0
LINE
  5
98
330
36
100
AcDbEntity
  8
LC-001-002-----0
  6
Continuous
 62
     7
100
AcDbLine
 10
-215.997234
 20
-111.5000584999286
 30
0.0
 11
-219.997234
 21
-111.5000584999286
 31
0.0
  0
LINE
  5
99
330
36
100
AcDbEntity
  8
LC-001-002-----0
  6
Continuous
 62
     7
100
AcDbLine
 10
-199.497234
 20
-48.50005849992857
 30
0.0
 11
-203.497234
 21
-48.50005849992857
 31
0.0
  0
LINE
  5
9A
330
36
100
AcDbEntity
  8
LC-001-002-----0
  6
Continuous
 62
     7
100
AcDbLine
 10
-196.997234
 20
-51.00005849992857
 30
0.0
 11
-199.497234
 21
-48.50005849992857
 31
0.0
  0
LINE
  5
9B
330
36
100
AcDbEntity
  8
LC-001-002-----0
  6
Continuous
 62
     7
100
AcDbLine
 10
-196.997234
 20
-109.0000584999286
 30
0.0
 11
-199.497234
 21
-111.5000584999286
 31
0.0
  0
LINE
  5
9C
330
36
100
AcDbEntity
  8
LC-001-002-----0
  6
Continuous
 62
     7
100
AcDbLine
 10
-199.497234
 20
-111.5000584999286
 30
0.0
 11
-203.497234
 21
-111.5000584999286
 31
0.0
  0
LINE
  5
9D
330
36
100
AcDbEntity
  8
LC-001-002-----0
  6
DASHDOT_14
 62
     2
100
AcDbLine
 10
-121.197128
 20
-80.00005849992857
 30
0.0
 11
-223.997234
 21
-80.00005849992857
 31
0.0
  0
LINE
  5
9E
330
36
100
AcDbEntity
  8
LC-001-002-----0
  6
Continuous
 62
     7
100
AcDbLine
 10
-205.497234
 20
-46.50005849992857
 30
0.0
 11
-213.997234
 21
-46.50005849992857
 31
0.0
  0
LINE
  5
9F
330
36
100
AcDbEntity
  8
LC-001-002-----0
  6
Continuous
 62
     7
100
AcDbLine
 10
-205.497234
 20
-113.5000584999286
 30
0.0
 11
-213.997234
 21
-113.5000584999286
 31
0.0
  0
LINE
  5
A0
330
36
100
AcDbEntity
  8
LC-001-002-----0
  6
Continuous
 62
     7
100
AcDbLine
 10
-162.287234
 20
-55.00005849992857
 30
0.0
 11
-166.287234
 21
-51.00005849992857
 31
0.0
  0
LINE
  5
A1
330
36
100
AcDbEntity
  8
LC-001-002-----0
  6
Continuous
 62
     7
100
AcDbLine
 10
-166.287234
 20
-51.00005849992857
 30
0.0
 11
-196.997234
 21
-51.00005849992857
 31
0.0
  0
LINE
  5
A2
330
36
100
AcDbEntity
  8
LC-001-002-----0
  6
Continuous
 62
     7
100
AcDbLine
 10
-166.287234
 20
-109.0000584999286
 30
0.0
 11
-196.997234
 21
-109.0000584999286
 31
0.0
  0
LINE
  5
A3
330
36
100
AcDbEntity
  8
LC-001-002-----0
  6
Continuous
 62
     7
100
AcDbLine
 10
-162.287234
 20
-105.0000584999286
 30
0.0
 11
-166.287234
 21
-109.0000584999286
 31
0.0
  0
LINE
  5
A4
330
36
100
AcDbEntity
  8
LC-001-002-----0
  6
Continuous
 62
     7
100
AcDbLine
 10
-153.787234
 20
-55.00005849992857
 30
0.0
 11
-162.287234
 21
-55.00005849992857
 31
0.0
  0
LINE
  5
A5
330
36
100
AcDbEntity
  8
LC-001-002-----0
  6
Continuous
 62
     7
100
AcDbLine
 10
-153.787234
 20
-105.0000584999286
 30
0.0
 11
-162.287234
 21
-105.0000584999286
 31
0.0
  0
LINE
  5
A6
330
36
100
AcDbEntity
  8
LC-001-002-----0
  6
Continuous
 62
     7
100
AcDbLine
 10
-151.787234
 20
-49.00005849992857
 30
0.0
 11
-129.037234
 21
-49.00005849992857
 31
0.0
  0
LINE
  5
A7
330
36
100
AcDbEntity
  8
LC-001-002-----0
  6
Continuous
 62
     7
100
AcDbLine
 10
-153.787234
 20
-51.00005849992857
 30
0.0
 11
-153.787234
 21
-55.00005849992857
 31
0.0
  0
LINE
  5
A8
330
36
100
AcDbEntity
  8
LC-001-002-----0
  6
Continuous
 62
     7
100
AcDbLine
 10
-151.787234
 20
-111.0000584999286
 30
0.0
 11
-129.037234
 21
-111.0000584999286
 31
0.0
  0
LINE
  5
A9
330
36
100
AcDbEntity
  8
LC-001-002-----0
  6
Continuous
 62
     7
100
AcDbLine
 10
-153.787234
 20
-109.0000584999286
 30
0.0
 11
-153.787234
 21
-105.0000584999286
 31
0.0
  0
LINE
  5
AA
330
36
100
AcDbEntity
  8
LC-001-002-----0
  6
Continuous
 62
     7
100
AcDbLine
 10
237.679342
 20
-167.0141084999286
 30
0.0
 11
169.536568
 21
-163.4428971127563
 31
0.0
  0
LINE
  5
AB
330
36
100
AcDbEntity
  8
1
  6
DOT_CENTER
 62
     2
100
AcDbLine
 10
-221.997234
 20
-55.00005849992857
 30
0.0
 11
-224.997234
 21
-55.00005849992857
 31
0.0
  0
LINE
  5
AC
330
36
100
AcDbEntity
  8
1
  6
DOT_CENTER
 62
     2
100
AcDbLine
 10
-221.997234
 20
-105.0000584999286
 30
0.0
 11
-224.997234
 21
-105.0000584999286
 31
0.0
  0
LINE
  5
AD
330
36
100
AcDbEntity
  8
LC-001-002-----0
  6
DASHDOT_14
 62
     2
100
AcDbLine
 10
200.557547
 20
-112.0946744999285
 30
0.0
 11
200.557547
 21
-97.09467449992854
 31
0.0
  0
LINE
  5
AE
330
36
100
AcDbEntity
  8
1
  6
DOT_CENTER
 62
     2
100
AcDbLine
 10
206.113864736971
 20
-109.9983634999286
 30
0.0
 11
195.113864736971
 21
-109.9983634999286
 31
0.0
  0
ARC
  5
AF
330
36
100
AcDbEntity
  8
1
  6
Continuous
 62
     7
100
AcDbCircle
 10
207.2642995300993
 20
-116.2649448541236
 30
0.0
 40
101.0
100
AcDbArc
 50
148.2151064636481
 51
-153.9208123878768
  0
ARC
  5
B0
330
36
100
AcDbEntity
  8
LC-001-002-----0
  6
Continuous
 62
     7
100
AcDbCircle
 10
108.500167
 20
-225.9999284999286
 30
0.0
 40
10.00000000000049
100
AcDbArc
 50
89.99998199999803
 51
131.4095829999999
  0
ARC
  5
B1
330
36
100
AcDbEntity
  8
LC-001-002-----0
  6
Continuous
 62
     7
100
AcDbCircle
 10
95.27142100000003
 20
-210.9999194999286
 30
0.0
 40
10.00000000000007
100
AcDbArc
 50
-90.00003699999884
 51
-48.59035899999795
  0
ARC
  5
B2
330
36
100
AcDbEntity
  8
LC-001-002-----0
  6
Continuous
 62
     7
100
AcDbCircle
 10
108.500167
 20
-225.9999284999286
 30
0.0
 40
10.00000000000049
100
AcDbArc
 50
89.99998199999803
 51
131.4095829999999
  0
ARC
  5
B3
330
36
100
AcDbEntity
  8
LC-001-002-----0
  6
Continuous
 62
     7
100
AcDbCircle
 10
95.27142100000003
 20
-210.9999194999286
 30
0.0
 40
10.00000000000007
100
AcDbArc
 50
-90.00003699999884
 51
-48.59035899999795
  0
ARC
  5
B4
330
36
100
AcDbEntity
  8
LC-001-002-----0
  6
Continuous
 62
     7
100
AcDbCircle
 10
-137.0
 20
-29.00005849992857
 30
0.0
 40
2.500000000000449
100
AcDbArc
 50
-168.4633450000047
 51
-90.00009400000621
  0
ARC
  5
B5
330
36
100
AcDbEntity
  8
LC-001-002-----0
  6
Continuous
 62
     7
100
AcDbCircle
 10
-137.0
 20
-29.00005849992857
 30
0.0
 40
2.500000000000261
100
AcDbArc
 50
-89.9999420000098
 51
-11.53678399999908
  0
ARC
  5
B6
330
36
100
AcDbEntity
  8
LC-001-002-----0
  6
Continuous
 62
     7
100
AcDbCircle
 10
137.0002920000001
 20
-28.99982949992858
 30
0.0
 40
2.50000000000028
100
AcDbArc
 50
-168.6904090000085
 51
-90.0003419999999
  0
ARC
  5
B7
330
36
100
AcDbEntity
  8
LC-001-002-----0
  6
Continuous
 62
     7
100
AcDbCircle
 10
137.0002920000001
 20
-28.99982949992858
 30
0.0
 40
2.500000000000261
100
AcDbArc
 50
-89.99994200000914
 51
-12.43580000000828
  0
ARC
  5
B8
330
36
100
AcDbEntity
  8
LC-001-002-----0
  6
Continuous
 62
     7
100
AcDbCircle
 10
139.5002920000001
 20
-24.49983349992857
 30
0.0
 40
3.0
100
AcDbArc
 50
0.0
 51
90.0
  0
ARC
  5
B9
330
36
100
AcDbEntity
  8
LC-016-002-RND-0
  6
Continuous
 62
     7
100
AcDbCircle
 10
-145.037234
 20
-48.70005849992856
 30
0.0
 40
2.5
100
AcDbArc
 50
90.0
 51
180.0
  0
ARC
  5
BA
330
36
100
AcDbEntity
  8
LC-016-002-RND-0
  6
Continuous
 62
     7
100
AcDbCircle
 10
-145.037234
 20
-111.3000584999286
 30
0.0
 40
2.5
100
AcDbArc
 50
180.0
 51
-90.0
  0
ARC
  5
BB
330
36
100
AcDbEntity
  8
LC-016-002-RND-0
  6
Continuous
 62
     7
100
AcDbCircle
 10
-213.997234
 20
-48.50005849992857
 30
0.0
 40
2.0
100
AcDbArc
 50
90.0
 51
180.0
  0
ARC
  5
BC
330
36
100
AcDbEntity
  8
LC-016-002-RND-0
  6
Continuous
 62
     7
100
AcDbCircle
 10
-205.497234
 20
-48.50005849992857
 30
0.0
 40
2.0
100
AcDbArc
 50
0.0
 51
90.0
  0
ARC
  5
BD
330
36
100
AcDbEntity
  8
LC-016-002-RND-0
  6
Continuous
 62
     7
100
AcDbCircle
 10
-205.497234
 20
-111.5000584999286
 30
0.0
 40
2.0
100
AcDbArc
 50
-90.0
 51
0.0
  0
ARC
  5
BE
330
36
100
AcDbEntity
  8
LC-016-002-RND-0
  6
Continuous
 62
     7
100
AcDbCircle
 10
-213.997234
 20
-111.5000584999286
 30
0.0
 40
2.0
100
AcDbArc
 50
180.0
 51
-90.0
  0
ARC
  5
BF
330
36
100
AcDbEntity
  8
LC-016-002-RND-0
  6
Continuous
 62
     7
100
AcDbCircle
 10
-151.787234
 20
-51.00005849992857
 30
0.0
 40
2.0
100
AcDbArc
 50
90.0
 51
180.0
  0
ARC
  5
C0
330
36
100
AcDbEntity
  8
LC-016-002-RND-0
  6
Continuous
 62
     7
100
AcDbCircle
 10
-151.787234
 20
-109.0000584999286
 30
0.0
 40
2.0
100
AcDbArc
 50
180.0
 51
-90.0
  0
ENDBLK
  5
38
330
36
100
AcDbEntity
  8
0
100
AcDbBlockEnd
  0
BLOCK
  5
C9
330
C1
100
AcDbEntity
  8
0
100
AcDbBlockBegin
  2
*D02
 70
     1
 71
     0
 10
0.0
 20
0.0
 30
0.0
  3
*D02
  1

  0
LINE
  5
C2
330
C1
100
AcDbEntity
  8
1
  6
Continuous
 62
     4
100
AcDbLine
 10
127.750312
 20
16.8666735621562
 30
0.0
 11
243.436297
 21
16.8666735621562
 31
0.0
  0
LINE
  5
C3
330
C1
100
AcDbEntity
  8
1
  6
Continuous
 62
     4
100
AcDbLine
 10
127.750312
 20
2.00005795371841
 30
0.0
 11
127.750312
 21
18.8666735621562
 31
0.0
  0
LINE
  5
C4
330
C1
100
AcDbEntity
  8
1
  6
Continuous
 62
     4
100
AcDbLine
 10
243.436297
 20
-57.16486049992857
 30
0.0
 11
243.436297
 21
18.8666735621562
 31
0.0
  0
SOLID
  5
C5
330
C1
100
AcDbEntity
  8
1
 62
     4
100
AcDbTrace
 10
139.750312
 20
18.44650353320495
 30
0.0
 11
139.750312
 21
15.28684359110745
 31
0.0
 12
127.750312
 22
16.8666735621562
 32
0.0
 13
127.750312
 23
16.8666735621562
 33
0.0
  0
SOLID
  5
C6
330
C1
100
AcDbEntity
  8
1
 62
     4
100
AcDbTrace
 10
231.436297
 20
15.28684359110745
 30
0.0
 11
231.436297
 21
18.44650353320495
 31
0.0
 12
243.436297
 22
16.8666735621562
 32
0.0
 13
243.436297
 23
16.8666735621562
 33
0.0
  0
MTEXT
  5
C8
330
C1
100
AcDbEntity
  8
1
 62
     1
100
AcDbMText
 10
172.708359035611
 20
18.8666735621562
 30
0.0
 40
12.0
 41
0.0
 71
     7
 72
     1
  1
115
  7
CONVERTER_1
 11
0.9999999999970621
 21
2.424068405545307E-6
 31
0.0
 73
     1
 44
0.60024009603842
  0
ENDBLK
  5
CA
330
C1
100
AcDbEntity
  8
0
100
AcDbBlockEnd
  0
BLOCK
  5
D5
330
CD
100
AcDbEntity
  8
0
100
AcDbBlockBegin
  2
*D13
 70
     1
 71
     0
 10
0.0
 20
0.0
 30
0.0
  3
*D13
  1

  0
LINE
  5
CE
330
CD
100
AcDbEntity
  8
1
  6
Continuous
 62
     4
100
AcDbLine
 10
-237.479859293449
 20
-154.4959270793846
 30
0.0
 11
-237.479859293449
 21
-105.0000584999286
 31
0.0
  0
LINE
  5
CF
330
CD
100
AcDbEntity
  8
1
  6
Continuous
 62
     4
100
AcDbLine
 10
-237.479859293449
 20
-105.0000584999286
 30
0.0
 11
-237.479859293449
 21
-55.00005849992857
 31
0.0
  0
LINE
  5
D0
330
CD
100
AcDbEntity
  8
1
  6
Continuous
 62
     4
100
AcDbLine
 10
-224.997234
 20
-105.0000584999286
 30
0.0
 11
-239.479859293449
 21
-105.0000584999286
 31
0.0
  0
LINE
  5
D1
330
CD
100
AcDbEntity
  8
1
  6
Continuous
 62
     4
100
AcDbLine
 10
-224.997234
 20
-55.00005849992857
 30
0.0
 11
-239.479859293449
 21
-55.00005849992857
 31
0.0
  0
SOLID
  5
D2
330
CD
100
AcDbEntity
  8
1
 62
     4
100
AcDbTrace
 10
-235.9000293224003
 20
-67.00005849992857
 30
0.0
 11
-239.0596892644978
 21
-67.00005849992857
 31
0.0
 12
-237.479859293449
 22
-55.00005849992857
 32
0.0
 13
-237.479859293449
 23
-55.00005849992857
 33
0.0
  0
SOLID
  5
D3
330
CD
100
AcDbEntity
  8
1
 62
     4
100
AcDbTrace
 10
-239.0596892644978
 20
-93.0000584999286
 30
0.0
 11
-235.9000293224003
 21
-93.0000584999286
 31
0.0
 12
-237.479859293449
 22
-105.0000584999286
 32
0.0
 13
-237.479859293449
 23
-105.0000584999286
 33
0.0
  0
MTEXT
  5
D4
330
CD
100
AcDbEntity
  8
1
 62
     1
100
AcDbMText
 10
-239.479859293449
 20
-147.7759270793846
 30
0.0
 40
12.0
 41
0.0
 71
     7
 72
     1
  1
\C1;DN\C1;50
  7
CONVERTER_1
 11
0.0
 21
1.0
 31
0.0
 73
     1
 44
0.60024009603842
  0
ENDBLK
  5
D6
330
CD
100
AcDbEntity
  8
0
100
AcDbBlockEnd
  0
BLOCK
  5
E0
330
D9
100
AcDbEntity
  8
0
100
AcDbBlockBegin
  2
*D24
 70
     1
 71
     0
 10
0.0
 20
0.0
 30
0.0
  3
*D24
  1

  0
LINE
  5
DA
330
D9
100
AcDbEntity
  8
1
  6
Continuous
 62
     4
100
AcDbLine
 10
-127.75
 20
16.99994204642358
 30
0.0
 11
127.750312
 21
16.99994204642358
 31
0.0
  0
LINE
  5
DB
330
D9
100
AcDbEntity
  8
1
  6
Continuous
 62
     4
100
AcDbLine
 10
127.750312
 20
2.00005795371841
 30
0.0
 11
127.750312
 21
18.99994204642358
 31
0.0
  0
LINE
  5
DC
330
D9
100
AcDbEntity
  8
1
  6
Continuous
 62
     4
100
AcDbLine
 10
-127.75
 20
6.9999420464236
 30
0.0
 11
-127.75
 21
18.99994204642358
 31
0.0
  0
SOLID
  5
DD
330
D9
100
AcDbEntity
  8
1
 62
     4
100
AcDbTrace
 10
115.750312
 20
15.42011207537483
 30
0.0
 11
115.750312
 21
18.57977201747233
 31
0.0
 12
127.750312
 22
16.99994204642358
 32
0.0
 13
127.750312
 23
16.99994204642358
 33
0.0
  0
SOLID
  5
DE
330
D9
100
AcDbEntity
  8
1
 62
     4
100
AcDbTrace
 10
-115.75
 20
18.57977201747233
 30
0.0
 11
-115.75
 21
15.42011207537483
 31
0.0
 12
-127.75
 22
16.99994204642358
 32
0.0
 13
-127.75
 23
16.99994204642358
 33
0.0
  0
MTEXT
  5
DF
330
D9
100
AcDbEntity
  8
1
 62
     1
100
AcDbMText
 10
-57.77512392797692
 20
18.99994204642358
 30
0.0
 40
12.0
 41
0.0
 71
     7
 72
     1
  1
\C1;255\C1;x185
  7
CONVERTER_1
 11
0.9999999999970621
 21
2.424068405545307E-6
 31
0.0
 73
     1
 44
0.60024009603842
  0
ENDBLK
  5
E1
330
D9
100
AcDbEntity
  8
0
100
AcDbBlockEnd
  0
BLOCK
  5
EB
330
E4
100
AcDbEntity
  8
0
100
AcDbBlockBegin
  2
*D35
 70
     1
 71
     0
 10
0.0
 20
0.0
 30
0.0
  3
*D35
  1

  0
LINE
  5
E5
330
E4
100
AcDbEntity
  8
1
  6
Continuous
 62
     4
100
AcDbLine
 10
0.00000000000011
 20
-245.8875758577826
 30
0.0
 11
243.436297
 21
-245.8875758577826
 31
0.0
  0
LINE
  5
E6
330
E4
100
AcDbEntity
  8
1
  6
Continuous
 62
     4
100
AcDbLine
 10
243.436297
 20
-57.16486049992858
 30
0.0
 11
243.436297
 21
-247.8875758577826
 31
0.0
  0
LINE
  5
E7
330
E4
100
AcDbEntity
  8
1
  6
Continuous
 62
     4
100
AcDbLine
 10
0.00000000000011
 20
-225.9999994999285
 30
0.0
 11
0.00000000000011
 21
-247.8875758577826
 31
0.0
  0
SOLID
  5
E8
330
E4
100
AcDbEntity
  8
1
 62
     4
100
AcDbTrace
 10
12.00000000000011
 20
-244.3077458867338
 30
0.0
 11
12.00000000000011
 21
-247.4674058288314
 31
0.0
 12
0.00000000000011
 22
-245.8875758577826
 32
0.0
 13
0.00000000000011
 23
-245.8875758577826
 33
0.0
  0
SOLID
  5
E9
330
E4
100
AcDbEntity
  8
1
 62
     4
100
AcDbTrace
 10
231.436297
 20
-247.4674058288314
 30
0.0
 11
231.436297
 21
-244.3077458867338
 31
0.0
 12
243.436297
 22
-245.8875758577826
 32
0.0
 13
243.436297
 23
-245.8875758577826
 33
0.0
  0
MTEXT
  5
EA
330
E4
100
AcDbEntity
  8
1
 62
     1
100
AcDbMText
 10
102.341925959739
 20
-243.8875758577826
 30
0.0
 40
12.0
 41
0.0
 71
     7
 72
     1
  1
245
  7
CONVERTER_1
 11
0.9999999999970621
 21
2.424068405545307E-6
 31
0.0
 73
     1
 44
0.60024009603842
  0
ENDBLK
  5
EC
330
E4
100
AcDbEntity
  8
0
100
AcDbBlockEnd
  0
BLOCK
  5
F7
330
EF
100
AcDbEntity
  8
0
100
AcDbBlockBegin
  2
*D46
 70
     1
 71
     0
 10
0.0
 20
0.0
 30
0.0
  3
*D46
  1

  0
LINE
  5
F0
330
EF
100
AcDbEntity
  8
1
  6
Continuous
 62
     4
100
AcDbLine
 10
215.0295371241887
 20
-165.8270827915319
 30
0.0
 11
220.7864909792094
 21
-55.97783473152609
 31
0.0
  0
LINE
  5
F1
330
EF
100
AcDbEntity
  8
1
  6
Continuous
 62
     4
100
AcDbLine
 10
212.0755840666388
 20
-222.1918774986168
 30
0.0
 11
215.0295371241887
 21
-165.8270827915319
 31
0.0
  0
LINE
  5
F2
330
EF
100
AcDbEntity
  8
1
  6
Continuous
 62
     4
100
AcDbLine
 10
243.436297
 20
-57.16486049992861
 30
0.0
 11
218.7892319084728
 21
-55.8731628424616
 31
0.0
  0
LINE
  5
F3
330
EF
100
AcDbEntity
  8
1
  6
Continuous
 62
     4
100
AcDbLine
 10
237.679342
 20
-167.0141084999286
 30
0.0
 11
213.0322780534521
 21
-165.7224109024675
 31
0.0
  0
SOLID
  5
F4
330
EF
100
AcDbEntity
  8
1
 62
     4
100
AcDbTrace
 10
221.7361245147718
 20
-68.04407104968094
 30
0.0
 11
218.5807947748731
 21
-67.87870726221057
 31
0.0
 12
220.7864909792094
 22
-55.97783473152609
 32
0.0
 13
220.7864909792094
 23
-55.97783473152609
 33
0.0
  0
SOLID
  5
F5
330
EF
100
AcDbEntity
  8
1
 62
     4
100
AcDbTrace
 10
214.0799035886263
 20
-153.7608464733771
 30
0.0
 11
217.2352333285249
 21
-153.9262102608474
 31
0.0
 12
215.0295371241887
 22
-165.8270827915319
 32
0.0
 13
215.0295371241887
 23
-165.8270827915319
 33
0.0
  0
MTEXT
  5
F6
330
EF
100
AcDbEntity
  8
1
 62
     1
100
AcDbMText
 10
210.4300225431588
 20
-215.3764151318773
 30
0.0
 40
12.0
 41
0.0
 71
     7
 72
     1
  1
\C1;DN\C1;110
  7
CONVERTER_1
 11
0.05233594453223445
 21
0.9986295353683061
 31
0.0
 73
     1
 44
0.60024009603842
  0
ENDBLK
  5
F8
330
EF
100
AcDbEntity
  8
0
100
AcDbBlockEnd
  0
BLOCK
  5
102
330
FB
100
AcDbEntity
  8
0
100
AcDbBlockBegin
  2
*D57
 70
     1
 71
     0
 10
0.0
 20
0.0
 30
0.0
  3
*D57
  1

  0
LINE
  5
FC
330
FB
100
AcDbEntity
  8
1
  6
Continuous
 62
     4
100
AcDbLine
 10
-255.498099345812
 20
-80.00005849992857
 30
0.0
 11
-255.498099345812
 21
-0.00005849992857
 31
0.0
  0
LINE
  5
FD
330
FB
100
AcDbEntity
  8
1
  6
Continuous
 62
     4
100
AcDbLine
 10
-223.997234
 20
-80.00005849992857
 30
0.0
 11
-257.498099345812
 21
-80.00005849992857
 31
0.0
  0
LINE
  5
FE
330
FB
100
AcDbEntity
  8
1
  6
Continuous
 62
     4
100
AcDbLine
 10
-134.5
 20
-0.00005849992857
 30
0.0
 11
-257.498099345812
 21
-0.00005849992857
 31
0.0
  0
SOLID
  5
FF
330
FB
100
AcDbEntity
  8
1
 62
     4
100
AcDbTrace
 10
-253.9182693747633
 20
-12.00005849992857
 30
0.0
 11
-257.0779293168608
 21
-12.00005849992857
 31
0.0
 12
-255.498099345812
 22
-0.00005849992857
 32
0.0
 13
-255.498099345812
 23
-0.00005849992857
 33
0.0
  0
SOLID
  5
100
330
FB
100
AcDbEntity
  8
1
 62
     4
100
AcDbTrace
 10
-257.0779293168608
 20
-68.00005849992857
 30
0.0
 11
-253.9182693747633
 21
-68.00005849992857
 31
0.0
 12
-255.498099345812
 22
-80.00005849992857
 32
0.0
 13
-255.498099345812
 23
-80.00005849992857
 33
0.0
  0
MTEXT
  5
101
330
FB
100
AcDbEntity
  8
1
 62
     1
100
AcDbMText
 10
-257.498099345812
 20
-46.51968196591056
 30
0.0
 40
12.0
 41
0.0
 71
     7
 72
     1
  1
80
  7
CONVERTER_1
 11
0.0
 21
1.0
 31
0.0
 73
     1
 44
0.60024009603842
  0
ENDBLK
  5
103
330
FB
100
AcDbEntity
  8
0
100
AcDbBlockEnd
  0
BLOCK
  5
10D
330
106
100
AcDbEntity
  8
0
100
AcDbBlockBegin
  2
*D68
 70
     1
 71
     0
 10
0.0
 20
0.0
 30
0.0
  3
*D68
  1

  0
LINE
  5
107
330
106
100
AcDbEntity
  8
1
  6
Continuous
 62
     4
100
AcDbLine
 10
-274.793861824004
 20
-221.0000584999286
 30
0.0
 11
-274.793861824004
 21
-0.0000584999286
 31
0.0
  0
LINE
  5
108
330
106
100
AcDbEntity
  8
1
  6
Continuous
 62
     4
100
AcDbLine
 10
-113.5
 20
-221.0000584999286
 30
0.0
 11
-276.793861824004
 21
-221.0000584999286
 31
0.0
  0
LINE
  5
109
330
106
100
AcDbEntity
  8
1
  6
Continuous
 62
     4
100
AcDbLine
 10
-134.5
 20
-0.0000584999286
 30
0.0
 11
-276.793861824004
 21
-0.0000584999286
 31
0.0
  0
SOLID
  5
10A
330
106
100
AcDbEntity
  8
1
 62
     4
100
AcDbTrace
 10
-273.2140318529553
 20
-12.0000584999286
 30
0.0
 11
-276.3736917950528
 21
-12.0000584999286
 31
0.0
 12
-274.793861824004
 22
-0.0000584999286
 32
0.0
 13
-274.793861824004
 23
-0.0000584999286
 33
0.0
  0
SOLID
  5
10B
330
106
100
AcDbEntity
  8
1
 62
     4
100
AcDbTrace
 10
-276.3736917950528
 20
-209.0000584999286
 30
0.0
 11
-273.2140318529553
 21
-209.0000584999286
 31
0.0
 12
-274.793861824004
 22
-221.0000584999286
 32
0.0
 13
-274.793861824004
 23
-221.0000584999286
 33
0.0
  0
MTEXT
  5
10C
330
106
100
AcDbEntity
  8
1
 62
     1
100
AcDbMText
 10
-276.793861824004
 20
-135.9130009886296
 30
0.0
 40
12.0
 41
0.0
 71
     7
 72
     1
  1
220
  7
CONVERTER_1
 11
0.0
 21
1.0
 31
0.0
 73
     1
 44
0.60024009603842
  0
ENDBLK
  5
10E
330
106
100
AcDbEntity
  8
0
100
AcDbBlockEnd
  0
BLOCK
  5
118
330
111
100
AcDbEntity
  8
0
100
AcDbBlockBegin
  2
*D79
 70
     1
 71
     0
 10
0.0
 20
0.0
 30
0.0
  3
*D79
  1

  0
LINE
  5
112
330
111
100
AcDbEntity
  8
1
  6
Continuous
 62
     4
100
AcDbLine
 10
265.568535040736
 20
-109.9983634999286
 30
0.0
 11
265.568535040736
 21
0.00005350007142
 31
0.0
  0
LINE
  5
113
330
111
100
AcDbEntity
  8
1
  6
Continuous
 62
     4
100
AcDbLine
 10
134.500315
 20
0.00005350007142
 30
0.0
 11
267.568535040736
 21
0.00005350007142
 31
0.0
  0
LINE
  5
114
330
111
100
AcDbEntity
  8
1
  6
Continuous
 62
     4
100
AcDbLine
 10
206.113864736971
 20
-109.9983634999286
 30
0.0
 11
267.568535040736
 21
-109.9983634999286
 31
0.0
  0
SOLID
  5
115
330
111
100
AcDbEntity
  8
1
 62
     4
100
AcDbTrace
 10
267.1483650117847
 20
-11.99994649992858
 30
0.0
 11
263.9887050696872
 21
-11.99994649992858
 31
0.0
 12
265.568535040736
 22
0.00005350007142
 32
0.0
 13
265.568535040736
 23
0.00005350007142
 33
0.0
  0
SOLID
  5
116
330
111
100
AcDbEntity
  8
1
 62
     4
100
AcDbTrace
 10
263.9887050696872
 20
-97.99836349992862
 30
0.0
 11
267.1483650117847
 21
-97.99836349992862
 31
0.0
 12
265.568535040736
 22
-109.9983634999286
 32
0.0
 13
265.568535040736
 23
-109.9983634999286
 33
0.0
  0
MTEXT
  5
117
330
111
100
AcDbEntity
  8
1
 62
     1
100
AcDbMText
 10
263.568535040736
 20
-56.42714110467854
 30
0.0
 40
12.0
 41
0.0
 71
     7
 72
     1
  1
110
  7
CONVERTER_1
 11
0.0
 21
1.0
 31
0.0
 73
     1
 44
0.60024009603842
  0
ENDBLK
  5
119
330
111
100
AcDbEntity
  8
0
100
AcDbBlockEnd
  0
BLOCK
  5
123
330
11C
100
AcDbEntity
  8
0
100
AcDbBlockBegin
  2
*D810
 70
     1
 71
     0
 10
0.0
 20
0.0
 30
0.0
  3
*D810
  1

  0
LINE
  5
11D
330
11C
100
AcDbEntity
  8
1
  6
Continuous
 62
     4
100
AcDbLine
 10
-219.997234
 20
-246.4875758577826
 30
0.0
 11
0.0000000000002
 21
-246.4875758577826
 31
0.0
  0
LINE
  5
11E
330
11C
100
AcDbEntity
  8
1
  6
Continuous
 62
     4
100
AcDbLine
 10
-219.997234
 20
-111.5000584999286
 30
0.0
 11
-219.997234
 21
-248.4875758577826
 31
0.0
  0
LINE
  5
11F
330
11C
100
AcDbEntity
  8
1
  6
Continuous
 62
     4
100
AcDbLine
 10
0.0000000000002
 20
-225.9999994999285
 30
0.0
 11
0.0000000000002
 21
-248.4875758577826
 31
0.0
  0
SOLID
  5
120
330
11C
100
AcDbEntity
  8
1
 62
     4
100
AcDbTrace
 10
-11.9999999999998
 20
-248.0674058288313
 30
0.0
 11
-11.9999999999998
 21
-244.9077458867338
 31
0.0
 12
0.0000000000002
 22
-246.4875758577826
 32
0.0
 13
0.0000000000002
 23
-246.4875758577826
 33
0.0
  0
SOLID
  5
121
330
11C
100
AcDbEntity
  8
1
 62
     4
100
AcDbTrace
 10
-207.997234
 20
-244.9077458867338
 30
0.0
 11
-207.997234
 21
-248.0674058288313
 31
0.0
 12
-219.997234
 22
-246.4875758577826
 32
0.0
 13
-219.997234
 23
-246.4875758577826
 33
0.0
  0
MTEXT
  5
122
330
11C
100
AcDbEntity
  8
1
 62
     1
100
AcDbMText
 10
-131.8627481553881
 20
-244.4875758577826
 30
0.0
 40
12.0
 41
0.0
 71
     7
 72
     1
  1
220
  7
CONVERTER_1
 11
0.9999999999970621
 21
2.424068405545307E-6
 31
0.0
 73
     1
 44
0.60024009603842
  0
ENDBLK
  5
124
330
11C
100
AcDbEntity
  8
0
100
AcDbBlockEnd
  0
ENDSEC
  0
SECTION
  2
ENTITIES
  0
INSERT
  5
39
330
1F
100
AcDbEntity
  8
1
100
AcDbBlockReference
  2
HL77_1_Kellerablauf__1
 10
0.0
 20
-0.00000000000003
 30
0.0
  0
DIMENSION
  5
CC
330
1F
100
AcDbEntity
  8
1
100
AcDbDimension
  2
*D02
 10
127.750312
 20
16.8666735621562
 30
0.0
 11
183.508359035611
 21
24.8666735621562
 31
0.0
 70
    32
  1
115
 71
     5
 42
-1.0
 53
0.00013888888889
  3
ME10_DIM_0
100
AcDbAlignedDimension
 13
243.436297
 23
-57.16486049992858
 33
0.0
 14
127.750312
 24
2.00005795371841
 34
0.0
 50
0.00000000000003
100
AcDbRotatedDimension
  0
DIMENSION
  5
D8
330
1F
100
AcDbEntity
  8
1
100
AcDbDimension
  2
*D13
 10
-237.479859293449
 20
-55.00005849992857
 30
0.0
 11
-245.479859293449
 21
-132.2959270793846
 31
0.0
 70
    32
  1
<>
 71
     5
 42
-1.0
 53
90.00000000000003
  3
ME10_DIM_1
100
AcDbAlignedDimension
 13
-224.997234
 23
-105.0000584999286
 33
0.0
 14
-224.997234
 24
-55.00005849992857
 34
0.0
 50
90.00000000000003
100
AcDbRotatedDimension
  0
DIMENSION
  5
E3
330
1F
100
AcDbEntity
  8
1
100
AcDbDimension
  2
*D24
 10
127.750312
 20
16.99994204642358
 30
0.0
 11
-22.37512392797692
 21
24.99994204642358
 31
0.0
 70
    32
  1
255
 71
     5
 42
-1.0
 53
0.00013888888889
  3
ME10_DIM_2
100
AcDbAlignedDimension
 13
-127.75
 23
6.9999420464236
 33
0.0
 14
127.750312
 24
2.00005795371841
 34
0.0
 50
0.00000000000003
100
AcDbRotatedDimension
  0
DIMENSION
  5
EE
330
1F
100
AcDbEntity
  8
1
100
AcDbDimension
  2
*D35
 10
0.00000000000011
 20
-245.8875758577826
 30
0.0
 11
116.741925959739
 21
-237.8875758577826
 31
0.0
 70
    32
  1
245
 71
     5
 42
-1.0
 53
0.00013888888889
  3
ME10_DIM_3
100
AcDbAlignedDimension
 13
243.436297
 23
-57.16486049992858
 33
0.0
 14
0.00000000000011
 24
-225.9999994999285
 34
0.0
100
AcDbRotatedDimension
  0
DIMENSION
  5
FA
330
1F
100
AcDbEntity
  8
1
100
AcDbDimension
  2
*D46
 10
220.7864909792094
 20
-55.97783473152609
 30
0.0
 11
205.342610452466
 21
-197.8060810935196
 31
0.0
 70
    32
  1
<>
 71
     5
 42
-1.0
 53
87.00000067189504
  3
ME10_DIM_4
100
AcDbAlignedDimension
 13
237.679342
 23
-167.0141084999286
 33
0.0
 14
243.436297
 24
-57.16486049992858
 34
0.0
 50
87.00000067189504
100
AcDbRotatedDimension
  0
DIMENSION
  5
105
330
1F
100
AcDbEntity
  8
1
100
AcDbDimension
  2
*D57
 10
-255.498099345812
 20
-0.00005849992857
 30
0.0
 11
-263.498099345812
 21
-37.51968196591056
 31
0.0
 70
    32
  1
<>
 71
     5
 42
-1.0
 53
90.00000000000003
  3
ME10_DIM_5
100
AcDbAlignedDimension
 13
-223.997234
 23
-80.00005849992857
 33
0.0
 14
-134.5
 24
-0.00005849992857
 34
0.0
 50
90.00000000000003
100
AcDbRotatedDimension
  0
DIMENSION
  5
110
330
1F
100
AcDbEntity
  8
1
100
AcDbDimension
  2
*D68
 10
-274.793861824004
 20
-0.0000584999286
 30
0.0
 11
-282.793861824004
 21
-121.5130009886296
 31
0.0
 70
    32
  1
220
 71
     5
 42
-1.0
 53
90.00000000000003
  3
ME10_DIM_6
100
AcDbAlignedDimension
 13
-113.5
 23
-221.0000584999286
 33
0.0
 14
-134.5
 24
-0.00005849992857
 34
0.0
 50
90.00000000000003
100
AcDbRotatedDimension
  0
DIMENSION
  5
11B
330
1F
100
AcDbEntity
  8
1
100
AcDbDimension
  2
*D79
 10
265.568535040736
 20
0.00005350007142
 30
0.0
 11
257.568535040736
 21
-45.62714110467854
 31
0.0
 70
    32
  1
<>
 71
     5
 42
-1.0
 53
-90.00000000000003
  3
ME10_DIM_7
100
AcDbAlignedDimension
 13
206.113864736971
 23
-109.9983634999286
 33
0.0
 14
134.500315
 24
0.00005350007143
 34
0.0
 50
-90.00000000000003
100
AcDbRotatedDimension
  0
DIMENSION
  5
126
330
1F
100
AcDbEntity
  8
1
100
AcDbDimension
  2
*D810
 10
0.0000000000002
 20
-246.4875758577826
 30
0.0
 11
-117.4627481553881
 21
-238.4875758577826
 31
0.0
 70
    32
  1
<>
 71
     5
 42
-1.0
 53
0.00013888888889
  3
ME10_DIM_8
100
AcDbAlignedDimension
 13
-219.997234
 23
-111.5000584999286
 33
0.0
 14
0.00000000000011
 24
-225.9999994999285
 34
0.0
100
AcDbRotatedDimension
  0
ENDSEC
  0
SECTION
  2
OBJECTS
  0
DICTIONARY
  5
C
330
0
100
AcDbDictionary
281
     1
  3
ACAD_GROUP
350
D
  3
ACAD_LAYOUT
350
1A
  3
ACAD_MLINESTYLE
350
17
  3
ACAD_PLOTSETTINGS
350
19
  3
ACAD_PLOTSTYLENAME
350
E
  0
DICTIONARY
  5
D
102
{ACAD_REACTORS
330
C
102
}
330
C
100
AcDbDictionary
281
     1
  0
DICTIONARY
  5
1A
102
{ACAD_REACTORS
330
C
102
}
330
C
100
AcDbDictionary
281
     1
  3
Layout1
350
1E
  3
Layout2
350
26
  3
Model
350
22
  0
DICTIONARY
  5
17
102
{ACAD_REACTORS
330
C
102
}
330
C
100
AcDbDictionary
281
     1
  3
Standard
350
18
  0
DICTIONARY
  5
19
102
{ACAD_REACTORS
330
C
102
}
330
C
100
AcDbDictionary
281
     1
  0
ACDBDICTIONARYWDFLT
  5
E
102
{ACAD_REACTORS
330
C
102
}
330
C
100
AcDbDictionary
281
     1
  3
Normal
350
F
100
AcDbDictionaryWithDefault
340
F
  0
LAYOUT
  5
1E
102
{ACAD_REACTORS
330
1A
102
}
330
1A
100
AcDbPlotSettings
  1

  2

  4

  6

 40
0.0
 41
0.0
 42
0.0
 43
0.0
 44
0.0
 45
0.0
 46
0.0
 47
0.0
 48
0.0
 49
0.0
140
0.0
141
0.0
142
1.0
143
1.0
 70
   688
 72
     0
 73
     0
 74
     5
  7

 75
    16
147
1.0
148
0.0
149
0.0
100
AcDbLayout
  1
Layout1
 70
     1
 71
     1
 10
0.0
 20
0.0
 11
0.0
 21
0.0
 12
0.0
 22
0.0
 32
0.0
 14
0.0
 24
0.0
 34
0.0
 15
0.0
 25
0.0
 35
0.0
146
0.0
 13
0.0
 23
0.0
 33
0.0
 16
1.0
 26
0.0
 36
0.0
 17
0.0
 27
1.0
 37
0.0
 76
     0
330
1B
  0
LAYOUT
  5
26
102
{ACAD_REACTORS
330
1A
102
}
330
1A
100
AcDbPlotSettings
  1

  2

  4

  6

 40
0.0
 41
0.0
 42
0.0
 43
0.0
 44
0.0
 45
0.0
 46
0.0
 47
0.0
 48
0.0
 49
0.0
140
0.0
141
0.0
142
1.0
143
1.0
 70
   688
 72
     0
 73
     0
 74
     5
  7

 75
    16
147
1.0
148
0.0
149
0.0
100
AcDbLayout
  1
Layout2
 70
     1
 71
     2
 10
0.0
 20
0.0
 11
0.0
 21
0.0
 12
0.0
 22
0.0
 32
0.0
 14
0.0
 24
0.0
 34
0.0
 15
0.0
 25
0.0
 35
0.0
146
0.0
 13
0.0
 23
0.0
 33
0.0
 16
1.0
 26
0.0
 36
0.0
 17
0.0
 27
1.0
 37
0.0
 76
     0
330
23
  0
LAYOUT
  5
22
102
{ACAD_REACTORS
330
1A
102
}
330
1A
100
AcDbPlotSettings
  1

  2

  4

  6

 40
0.0
 41
0.0
 42
0.0
 43
0.0
 44
0.0
 45
0.0
 46
0.0
 47
0.0
 48
0.0
 49
0.0
140
0.0
141
0.0
142
1.0
143
1.0
 70
  1712
 72
     0
 73
     0
 74
     0
  7

 75
     0
147
1.0
148
0.0
149
0.0
100
AcDbLayout
  1
Model
 70
     1
 71
     0
 10
0.0
 20
0.0
 11
0.0
 21
0.0
 12
0.0
 22
0.0
 32
0.0
 14
-288.793861824004
 24
-248.4875758577826
 34
0.0
 15
267.568535040736
 25
30.99994204642358
 35
0.0
146
0.0
 13
0.0
 23
0.0
 33
0.0
 16
1.0
 26
0.0
 36
0.0
 17
0.0
 27
1.0
 37
0.0
 76
     0
330
1F
  0
MLINESTYLE
  5
18
102
{ACAD_REACTORS
330
17
102
}
330
17
100
AcDbMlineStyle
  2
Standard
 70
     0
  3

 62
   256
 51
90.0
 52
90.0
 71
     2
 49
0.5
 62
   256
  6
BYLAYER
 49
-0.5
 62
   256
  6
BYLAYER
  0
ACDBPLACEHOLDER
  5
F
102
{ACAD_REACTORS
330
E
102
}
330
E
  0
ENDSEC
  0
EOF
