  0
SECTION
  2
HEADER
  9
$ACADVER
  1
AC1015
  9
$ACADMAINTVER
 70
     6
  9
$DWGCODEPAGE
  3
ANSI_1252
  9
$INSBASE
 10
0.0
 20
0.0
 30
0.0
  9
$EXTMIN
 10
-230.5508280977179
 20
29.00545565728601
 30
0.0
  9
$EXTMAX
 10
65.39129099231408
 20
382.686071007297
 30
0.0
  9
$LIMMIN
 10
0.0
 20
0.0
  9
$LIMMAX
 10
12.0
 20
9.0
  9
$ORTHOMODE
 70
     0
  9
$REGENMODE
 70
     1
  9
$FILLMODE
 70
     1
  9
$QTEXTMODE
 70
     0
  9
$MIRRTEXT
 70
     1
  9
$LTSCALE
 40
1.0
  9
$ATTMODE
 70
     1
  9
$TEXTSIZE
 40
0.2
  9
$TRACEWID
 40
0.05
  9
$TEXTSTYLE
  7
Standard
  9
$CLAYER
  8
0
  9
$CELTYPE
  6
ByLayer
  9
$CECOLOR
 62
   256
  9
$CELTSCALE
 40
1.0
  9
$DISPSILH
 70
     0
  9
$DIMSCALE
 40
1.0
  9
$DIMASZ
 40
0.18
  9
$DIMEXO
 40
0.0625
  9
$DIMDLI
 40
0.38
  9
$DIMRND
 40
0.0
  9
$DIMDLE
 40
0.0
  9
$DIMEXE
 40
0.18
  9
$DIMTP
 40
0.0
  9
$DIMTM
 40
0.0
  9
$DIMTXT
 40
0.18
  9
$DIMCEN
 40
0.09
  9
$DIMTSZ
 40
0.0
  9
$DIMTOL
 70
     0
  9
$DIMLIM
 70
     0
  9
$DIMTIH
 70
     1
  9
$DIMTOH
 70
     1
  9
$DIMSE1
 70
     0
  9
$DIMSE2
 70
     0
  9
$DIMTAD
 70
     0
  9
$DIMZIN
 70
     0
  9
$DIMBLK
  1

  9
$DIMASO
 70
     1
  9
$DIMSHO
 70
     1
  9
$DIMPOST
  1

  9
$DIMAPOST
  1

  9
$DIMALT
 70
     0
  9
$DIMALTD
 70
     2
  9
$DIMALTF
 40
25.4
  9
$DIMLFAC
 40
1.0
  9
$DIMTOFL
 70
     0
  9
$DIMTVP
 40
0.0
  9
$DIMTIX
 70
     0
  9
$DIMSOXD
 70
     0
  9
$DIMSAH
 70
     0
  9
$DIMBLK1
  1

  9
$DIMBLK2
  1

  9
$DIMSTYLE
  2
Standard
  9
$DIMCLRD
 70
     0
  9
$DIMCLRE
 70
     0
  9
$DIMCLRT
 70
     0
  9
$DIMTFAC
 40
1.0
  9
$DIMGAP
 40
0.09
  9
$DIMJUST
 70
     0
  9
$DIMSD1
 70
     0
  9
$DIMSD2
 70
     0
  9
$DIMTOLJ
 70
     1
  9
$DIMTZIN
 70
     0
  9
$DIMALTZ
 70
     0
  9
$DIMALTTZ
 70
     0
  9
$DIMUPT
 70
     0
  9
$DIMDEC
 70
     4
  9
$DIMTDEC
 70
     4
  9
$DIMALTU
 70
     2
  9
$DIMALTTD
 70
     2
  9
$DIMTXSTY
  7
Standard
  9
$DIMAUNIT
 70
     0
  9
$DIMADEC
 70
     0
  9
$DIMALTRND
 40
0.0
  9
$DIMAZIN
 70
     0
  9
$DIMDSEP
 70
    46
  9
$DIMATFIT
 70
     3
  9
$DIMFRAC
 70
     0
  9
$DIMLDRBLK
  1

  9
$DIMLUNIT
 70
     2
  9
$DIMLWD
 70
    -2
  9
$DIMLWE
 70
    -2
  9
$DIMTMOVE
 70
     0
  9
$LUNITS
 70
     2
  9
$LUPREC
 70
     4
  9
$SKETCHINC
 40
0.1
  9
$FILLETRAD
 40
0.5
  9
$AUNITS
 70
     0
  9
$AUPREC
 70
     0
  9
$MENU
  1
.
  9
$ELEVATION
 40
0.0
  9
$PELEVATION
 40
0.0
  9
$THICKNESS
 40
0.0
  9
$LIMCHECK
 70
     0
  9
$CHAMFERA
 40
0.5
  9
$CHAMFERB
 40
0.5
  9
$CHAMFERC
 40
1.0
  9
$CHAMFERD
 40
0.0
  9
$SKPOLY
 70
     0
  9
$TDCREATE
 40
2454704.449087569
  9
$TDUCREATE
 40
2454704.365754236
  9
$TDUPDATE
 40
2454704.449087581
  9
$TDUUPDATE
 40
2454704.365754248
  9
$TDINDWG
 40
0.0000000116
  9
$TDUSRTIMER
 40
0.0000000116
  9
$USRTIMER
 70
     1
  9
$ANGBASE
 50
0.0
  9
$ANGDIR
 70
     0
  9
$PDMODE
 70
     0
  9
$PDSIZE
 40
0.0
  9
$PLINEWID
 40
0.0
  9
$SPLFRAME
 70
     0
  9
$SPLINETYPE
 70
     6
  9
$SPLINESEGS
 70
     8
  9
$HANDSEED
  5
2B4
  9
$SURFTAB1
 70
     6
  9
$SURFTAB2
 70
     6
  9
$SURFTYPE
 70
     6
  9
$SURFU
 70
     6
  9
$SURFV
 70
     6
  9
$UCSBASE
  2

  9
$UCSNAME
  2

  9
$UCSORG
 10
0.0
 20
0.0
 30
0.0
  9
$UCSXDIR
 10
1.0
 20
0.0
 30
0.0
  9
$UCSYDIR
 10
0.0
 20
1.0
 30
0.0
  9
$UCSORTHOREF
  2

  9
$UCSORTHOVIEW
 70
     0
  9
$UCSORGTOP
 10
0.0
 20
0.0
 30
0.0
  9
$UCSORGBOTTOM
 10
0.0
 20
0.0
 30
0.0
  9
$UCSORGLEFT
 10
0.0
 20
0.0
 30
0.0
  9
$UCSORGRIGHT
 10
0.0
 20
0.0
 30
0.0
  9
$UCSORGFRONT
 10
0.0
 20
0.0
 30
0.0
  9
$UCSORGBACK
 10
0.0
 20
0.0
 30
0.0
  9
$PUCSBASE
  2

  9
$PUCSNAME
  2

  9
$PUCSORG
 10
0.0
 20
0.0
 30
0.0
  9
$PUCSXDIR
 10
1.0
 20
0.0
 30
0.0
  9
$PUCSYDIR
 10
0.0
 20
1.0
 30
0.0
  9
$PUCSORTHOREF
  2

  9
$PUCSORTHOVIEW
 70
     0
  9
$PUCSORGTOP
 10
0.0
 20
0.0
 30
0.0
  9
$PUCSORGBOTTOM
 10
0.0
 20
0.0
 30
0.0
  9
$PUCSORGLEFT
 10
0.0
 20
0.0
 30
0.0
  9
$PUCSORGRIGHT
 10
0.0
 20
0.0
 30
0.0
  9
$PUCSORGFRONT
 10
0.0
 20
0.0
 30
0.0
  9
$PUCSORGBACK
 10
0.0
 20
0.0
 30
0.0
  9
$USERI1
 70
     0
  9
$USERI2
 70
     0
  9
$USERI3
 70
     0
  9
$USERI4
 70
     0
  9
$USERI5
 70
     0
  9
$USERR1
 40
15.5
  9
$USERR2
 40
0.0
  9
$USERR3
 40
0.0
  9
$USERR4
 40
0.0
  9
$USERR5
 40
0.0
  9
$WORLDVIEW
 70
     1
  9
$SHADEDGE
 70
     3
  9
$SHADEDIF
 70
    70
  9
$TILEMODE
 70
     1
  9
$MAXACTVP
 70
    64
  9
$PINSBASE
 10
0.0
 20
0.0
 30
0.0
  9
$PLIMCHECK
 70
     0
  9
$PEXTMIN
 10
1.00000000000000E+20
 20
1.00000000000000E+20
 30
1.00000000000000E+20
  9
$PEXTMAX
 10
-1.00000000000000E+20
 20
-1.00000000000000E+20
 30
-1.00000000000000E+20
  9
$PLIMMIN
 10
0.0
 20
0.0
  9
$PLIMMAX
 10
12.0
 20
9.0
  9
$UNITMODE
 70
     0
  9
$VISRETAIN
 70
     1
  9
$PLINEGEN
 70
     0
  9
$PSLTSCALE
 70
     1
  9
$TREEDEPTH
 70
  3020
  9
$CMLSTYLE
  2
Standard
  9
$CMLJUST
 70
     0
  9
$CMLSCALE
 40
1.0
  9
$PROXYGRAPHICS
 70
     1
  9
$MEASUREMENT
 70
     1
  9
$CELWEIGHT
370
    -1
  9
$ENDCAPS
280
     0
  9
$JOINSTYLE
280
     0
  9
$LWDISPLAY
290
     0
  9
$INSUNITS
 70
     1
  9
$HYPERLINKBASE
  1

  9
$STYLESHEET
  1

  9
$XEDIT
290
     1
  9
$CEPSNTYPE
380
     0
  9
$PSTYLEMODE
290
     1
  9
$FINGERPRINTGUID
  2
{4C111485-5379-474B-84E7-52B7183B1067}
  9
$VERSIONGUID
  2
{FAEB1C32-E019-11D5-929B-00C0DF256EC4}
  9
$EXTNAMES
290
     1
  9
$PSVPSCALE
 40
0.0
  9
$OLESTARTUP
290
     0
  0
ENDSEC
  0
SECTION
  2
CLASSES
  0
CLASS
  1
ACDBDICTIONARYWDFLT
  2
AcDbDictionaryWithDefault
  3
ObjectDBX Classes
 90
        0
280
     0
281
     0
  0
CLASS
  1
VISUALSTYLE
  2
AcDbVisualStyle
  3
ObjectDBX Classes
 90
     4095
280
     0
281
     0
  0
CLASS
  1

  2
exOdDbCircle
  3

 90
        0
280
     0
281
     1
  0
CLASS
  1

  2
exOdDbSpline
  3

 90
        0
280
     0
281
     1
  0
CLASS
  1
ACDBPLACEHOLDER
  2
AcDbPlaceHolder
  3
ObjectDBX Classes
 90
        0
280
     0
281
     0
  0
CLASS
  1
LAYOUT
  2
AcDbLayout
  3
ObjectDBX Classes
 90
        0
280
     0
281
     0
  0
ENDSEC
  0
SECTION
  2
TABLES
  0
TABLE
  2
VPORT
  5
8
330
0
100
AcDbSymbolTable
 70
     1
  0
VPORT
  5
29
330
8
100
AcDbSymbolTableRecord
100
AcDbViewportTableRecord
  2
*Active
 70
     0
 10
0.0
 20
0.0
 11
1.0
 21
1.0
 12
-82.5797685527019
 22
205.8457633322915
 13
0.0
 23
0.0
 14
0.5
 24
0.5
 15
0.5
 25
0.5
 16
0.0
 26
0.0
 36
1.0
 17
0.0
 27
0.0
 37
0.0
 40
389.0486768850121
 41
1.60267857142857
 42
50.0
 43
0.0
 44
0.0
 50
0.0
 51
0.0
 71
     0
 72
   100
 73
     1
 74
     3
 75
     0
 76
     0
 77
     0
 78
     0
281
     0
 65
     1
110
0.0
120
0.0
130
0.0
111
1.0
121
0.0
131
0.0
112
0.0
122
1.0
132
0.0
 79
     0
146
0.0
  0
ENDTAB
  0
TABLE
  2
LTYPE
  5
5
330
0
100
AcDbSymbolTable
 70
     8
  0
LTYPE
  5
14
330
5
100
AcDbSymbolTableRecord
100
AcDbLinetypeTableRecord
  2
ByBlock
 70
     0
  3

 72
    65
 73
     0
 40
0.0
  0
LTYPE
  5
15
330
5
100
AcDbSymbolTableRecord
100
AcDbLinetypeTableRecord
  2
ByLayer
 70
     0
  3

 72
    65
 73
     0
 40
0.0
  0
LTYPE
  5
16
330
5
100
AcDbSymbolTableRecord
100
AcDbLinetypeTableRecord
  2
Continuous
 70
     0
  3
Solid line
 72
    65
 73
     0
 40
0.0
  0
LTYPE
  5
3B
330
5
100
AcDbSymbolTableRecord
100
AcDbLinetypeTableRecord
  2
DASHED
 70
     0
  3
Dashed
 72
    65
 73
     2
 40
15.0
 49
7.0
 74
     0
 49
-8.0
 74
     0
  0
LTYPE
  5
3C
330
5
100
AcDbSymbolTableRecord
100
AcDbLinetypeTableRecord
  2
DOTTED
 70
     0
  3
Dotted
 72
    65
 73
     2
 40
1.0
 49
0.0
 74
     0
 49
-1.0
 74
     0
  0
LTYPE
  5
3D
330
5
100
AcDbSymbolTableRecord
100
AcDbLinetypeTableRecord
  2
DOT_CENTER
 70
     0
  3
Dot_Center
 72
    65
 73
     4
 40
14.0
 49
12.0
 74
     0
 49
-1.0
 74
     0
 49
0.0
 74
     0
 49
-1.0
 74
     0
  0
LTYPE
  5
3E
330
5
100
AcDbSymbolTableRecord
100
AcDbLinetypeTableRecord
  2
LONG_DASHED
 70
     0
  3
Long_Dashed
 72
    65
 73
     2
 40
15.0
 49
10.0
 74
     0
 49
-5.0
 74
     0
  0
LTYPE
  5
3F
330
5
100
AcDbSymbolTableRecord
100
AcDbLinetypeTableRecord
  2
DASH_CENTER
 70
     0
  3
Dash_Center
 72
    65
 73
     4
 40
14.0
 49
11.0
 74
     0
 49
-1.0
 74
     0
 49
1.0
 74
     0
 49
-1.0
 74
     0
  0
LTYPE
  5
40
330
5
100
AcDbSymbolTableRecord
100
AcDbLinetypeTableRecord
  2
PHANTOM
 70
     0
  3
Phantom
 72
    65
 73
     6
 40
13.0
 49
10.0
 74
     0
 49
-1.0
 74
     0
 49
0.0
 74
     0
 49
-1.0
 74
     0
 49
0.0
 74
     0
 49
-1.0
 74
     0
  0
LTYPE
  5
41
330
5
100
AcDbSymbolTableRecord
100
AcDbLinetypeTableRecord
  2
CENTER_DASH_DASH
 70
     0
  3
Center_Dash_Dash
 72
    65
 73
     6
 40
14.0
 49
9.0
 74
     0
 49
-1.0
 74
     0
 49
1.0
 74
     0
 49
-1.0
 74
     0
 49
1.0
 74
     0
 49
-1.0
 74
     0
  0
ENDTAB
  0
TABLE
  2
LAYER
  5
2
330
0
100
AcDbSymbolTable
 70
     2
  0
LAYER
  5
10
330
2
100
AcDbSymbolTableRecord
100
AcDbLayerTableRecord
  2
0
 70
     0
 62
     7
  6
Continuous
370
    -3
390
F
  0
LAYER
  5
42
330
2
100
AcDbSymbolTableRecord
100
AcDbLayerTableRecord
  2
1
 70
     0
 62
     7
  6
Continuous
370
    -3
390
F
  0
ENDTAB
  0
TABLE
  2
STYLE
  5
3
330
0
100
AcDbSymbolTable
 70
     2
  0
STYLE
  5
11
330
3
100
AcDbSymbolTableRecord
100
AcDbTextStyleTableRecord
  2
Standard
 70
     0
 40
0.0
 41
1.0
 50
0.0
 71
     0
 42
0.2
  3
txt
  4

  0
STYLE
  5
263
330
3
100
AcDbSymbolTableRecord
100
AcDbTextStyleTableRecord
  2
CONVERTER_11
 70
     0
 40
0.0
 41
0.9
 50
0.0
 71
     0
 42
0.2
  3
txt.shx
  4

  0
ENDTAB
  0
TABLE
  2
VIEW
  5
6
330
0
100
AcDbSymbolTable
 70
     0
  0
ENDTAB
  0
TABLE
  2
UCS
  5
7
330
0
100
AcDbSymbolTable
 70
     0
  0
ENDTAB
  0
TABLE
  2
APPID
  5
9
330
0
100
AcDbSymbolTable
 70
     1
  0
APPID
  5
12
330
9
100
AcDbSymbolTableRecord
100
AcDbRegAppTableRecord
  2
ACAD
 70
     0
  0
ENDTAB
  0
TABLE
  2
DIMSTYLE
  5
A
330
0
100
AcDbSymbolTable
 70
     2
100
AcDbDimStyleTable
  0
DIMSTYLE
105
27
330
A
100
AcDbSymbolTableRecord
100
AcDbDimStyleTableRecord
  2
Standard
 70
     0
340
11
  0
DIMSTYLE
105
267
102
{ACAD_REACTORS
330
268
102
}
330
A
100
AcDbSymbolTableRecord
100
AcDbDimStyleTableRecord
  2
ME10_DIM_10
 70
     0
 41
10.0
 42
0.0
 44
2.0
 73
     0
 74
     0
 77
     1
 78
     8
140
10.0
147
2.0
172
     1
173
     1
176
     4
177
     4
178
     1
271
     2
340
263
  0
ENDTAB
  0
TABLE
  2
BLOCK_RECORD
  5
1
330
0
100
AcDbSymbolTable
 70
    19
  0
BLOCK_RECORD
  5
1F
330
1
100
AcDbSymbolTableRecord
100
AcDbBlockTableRecord
  2
*Model_Space
340
22
  0
BLOCK_RECORD
  5
1B
330
1
100
AcDbSymbolTableRecord
100
AcDbBlockTableRecord
  2
*Paper_Space
340
1E
  0
BLOCK_RECORD
  5
23
330
1
100
AcDbSymbolTableRecord
100
AcDbBlockTableRecord
  2
*Paper_Space0
340
26
  0
BLOCK_RECORD
  5
43
330
1
100
AcDbSymbolTableRecord
100
AcDbBlockTableRecord
  2
Blechschraube6_3x19_2_3_3
340
0
102
{BLKREFS
331
5C
102
}
  0
BLOCK_RECORD
  5
46
330
1
100
AcDbSymbolTableRecord
100
AcDbBlockTableRecord
  2
Blechschraube6_3x19_2_3_4
340
0
102
{BLKREFS
331
5D
102
}
  0
BLOCK_RECORD
  5
49
330
1
100
AcDbSymbolTableRecord
100
AcDbBlockTableRecord
  2
Blechschraube6_3x19_2_3_5
340
0
102
{BLKREFS
331
5E
102
}
  0
BLOCK_RECORD
  5
4C
330
1
100
AcDbSymbolTableRecord
100
AcDbBlockTableRecord
  2
Blechschraube6_3x19_2_3_8
340
0
102
{BLKREFS
331
5F
102
}
  0
BLOCK_RECORD
  5
4F
330
1
100
AcDbSymbolTableRecord
100
AcDbBlockTableRecord
  2
Blechschraube6_3x19_2_3
340
0
102
{BLKREFS
331
60
102
}
  0
BLOCK_RECORD
  5
52
330
1
100
AcDbSymbolTableRecord
100
AcDbBlockTableRecord
  2
Blechschraube6_3x19_2_3_2
340
0
102
{BLKREFS
331
61
102
}
  0
BLOCK_RECORD
  5
55
330
1
100
AcDbSymbolTableRecord
100
AcDbBlockTableRecord
  2
Blechschraube6_3x19_2_3_7
340
0
102
{BLKREFS
331
62
102
}
  0
BLOCK_RECORD
  5
58
330
1
100
AcDbSymbolTableRecord
100
AcDbBlockTableRecord
  2
Blechschraube6_3x19_2_3_6
340
0
102
{BLKREFS
331
63
102
}
  0
BLOCK_RECORD
  5
5B
330
1
100
AcDbSymbolTableRecord
100
AcDbBlockTableRecord
  2
Bgr_Blechschrauben_1
340
0
102
{BLKREFS
331
6E
102
}
  0
BLOCK_RECORD
  5
66
330
1
100
AcDbSymbolTableRecord
100
AcDbBlockTableRecord
  2
8300-Klemmring__1
340
0
102
{BLKREFS
331
6A
102
}
  0
BLOCK_RECORD
  5
69
330
1
100
AcDbSymbolTableRecord
100
AcDbBlockTableRecord
  2
Bgr_8300_unten_1
340
0
102
{BLKREFS
331
6F
102
}
  0
BLOCK_RECORD
  5
6D
330
1
100
AcDbSymbolTableRecord
100
AcDbBlockTableRecord
  2
Bgr_Draufsicht
340
0
102
{BLKREFS
331
73
102
}
  0
BLOCK_RECORD
  5
72
330
1
100
AcDbSymbolTableRecord
100
AcDbBlockTableRecord
  2
Bgr_8300_1__2
340
0
102
{BLKREFS
331
7C
102
}
  0
BLOCK_RECORD
  5
76
330
1
100
AcDbSymbolTableRecord
100
AcDbBlockTableRecord
  2
8300-Lippendichtung
340
0
102
{BLKREFS
331
7D
102
}
  0
BLOCK_RECORD
  5
79
330
1
100
AcDbSymbolTableRecord
100
AcDbBlockTableRecord
  2
8300-Klemmring__3
340
0
102
{BLKREFS
331
7E
102
}
  0
BLOCK_RECORD
  5
25D
330
1
100
AcDbSymbolTableRecord
100
AcDbBlockTableRecord
  2
*D16
340
0
  0
BLOCK_RECORD
  5
269
330
1
100
AcDbSymbolTableRecord
100
AcDbBlockTableRecord
  2
*D17
340
0
102
{BLKREFS
331
270
102
}
  0
BLOCK_RECORD
  5
2AB
330
1
100
AcDbSymbolTableRecord
100
AcDbBlockTableRecord
  2
*D18
340
0
102
{BLKREFS
331
2B2
102
}
  0
ENDTAB
  0
ENDSEC
  0
SECTION
  2
BLOCKS
  0
BLOCK
  5
20
330
1F
100
AcDbEntity
  8
0
100
AcDbBlockBegin
  2
*Model_Space
 70
     0
 71
     0
 10
0.0
 20
0.0
 30
0.0
  3
*Model_Space
  1

  0
ENDBLK
  5
21
330
1F
100
AcDbEntity
  8
0
100
AcDbBlockEnd
  0
BLOCK
  5
1C
330
1B
100
AcDbEntity
 67
     1
  8
0
100
AcDbBlockBegin
  2
*Paper_Space
 70
     0
 71
     0
 10
0.0
 20
0.0
 30
0.0
  3
*Paper_Space
  1

  0
ENDBLK
  5
1D
330
1B
100
AcDbEntity
 67
     1
  8
0
100
AcDbBlockEnd
  0
BLOCK
  5
24
330
23
100
AcDbEntity
  8
0
100
AcDbBlockBegin
  2
*Paper_Space0
 70
     0
 71
     0
 10
0.0
 20
0.0
 30
0.0
  3
*Paper_Space0
  1

  0
ENDBLK
  5
25
330
23
100
AcDbEntity
  8
0
100
AcDbBlockEnd
  0
BLOCK
  5
44
330
43
100
AcDbEntity
  8
0
100
AcDbBlockBegin
  2
Blechschraube6_3x19_2_3_3
 70
     0
 71
     0
 10
36.52048867804598
 20
-412.7045516224348
 30
0.0
  3
Blechschraube6_3x19_2_3_3
  1

  0
LINE
  5
7F
330
43
100
AcDbEntity
  8
1
  6
DOT_CENTER
 62
     2
100
AcDbLine
 10
-31.97571493170273
 20
129.7057998886479
 30
0.0
 11
-31.97571493170273
 21
116.5057998886471
 31
0.0
  0
LINE
  5
80
330
43
100
AcDbEntity
  8
1
  6
DOT_CENTER
 62
     2
100
AcDbLine
 10
-25.37571493170225
 20
123.1057998886474
 30
0.0
 11
-38.5757149317032
 21
123.1057998886474
 31
0.0
  0
LINE
  5
81
330
43
100
AcDbEntity
  8
0
  6
Continuous
 62
     7
100
AcDbLine
 10
-35.25680384494825
 20
121.7888125905396
 30
0.0
 11
-34.39077844116383
 21
122.2888125905396
 31
0.0
  0
LINE
  5
82
330
43
100
AcDbEntity
  8
0
  6
Continuous
 62
     7
100
AcDbLine
 10
-29.79270222981046
 20
120.3247109754018
 30
0.0
 11
-30.65872763359499
 21
119.8247109754018
 31
0.0
  0
LINE
  5
83
330
43
100
AcDbEntity
  8
0
  6
Continuous
 62
     7
100
AcDbLine
 10
-28.6946260184572
 20
124.422787186755
 30
0.0
 11
-29.5606514222448
 21
123.9227871867532
 31
0.0
  0
LINE
  5
84
330
43
100
AcDbEntity
  8
0
  6
Continuous
 62
     7
100
AcDbLine
 10
-34.75680384494825
 20
120.922787186755
 30
0.0
 11
-35.25680384494825
 21
121.7888125905396
 31
0.0
  0
LINE
  5
85
330
43
100
AcDbEntity
  8
0
  6
Continuous
 62
     7
100
AcDbLine
 10
-30.65872763359499
 20
119.8247109754018
 30
0.0
 11
-31.15872763359852
 21
120.6907363791926
 31
0.0
  0
LINE
  5
86
330
43
100
AcDbEntity
  8
0
  6
Continuous
 62
     7
100
AcDbLine
 10
-29.1946260184572
 20
125.2888125905396
 30
0.0
 11
-28.6946260184572
 21
124.422787186755
 31
0.0
  0
LINE
  5
87
330
43
100
AcDbEntity
  8
0
  6
Continuous
 62
     7
100
AcDbLine
 10
-33.89077844115428
 20
121.4227871867607
 30
0.0
 11
-34.75680384494825
 21
120.922787186755
 31
0.0
  0
LINE
  5
88
330
43
100
AcDbEntity
  8
0
  6
Continuous
 62
     7
100
AcDbLine
 10
-30.29270222981239
 20
121.1907363791894
 30
0.0
 11
-29.79270222981046
 21
120.3247109754018
 31
0.0
  0
LINE
  5
89
330
43
100
AcDbEntity
  8
0
  6
Continuous
 62
     7
100
AcDbLine
 10
-33.45892678858564
 20
123.5032253079033
 30
0.0
 11
-32.65872763359499
 21
123.2888125905396
 31
0.0
  0
LINE
  5
8A
330
43
100
AcDbEntity
  8
0
  6
Continuous
 62
     7
100
AcDbLine
 10
-33.65872763359306
 20
125.0208633981052
 30
0.0
 11
-34.15872763359499
 21
125.8868888018928
 31
0.0
  0
LINE
  5
8B
330
43
100
AcDbEntity
  8
0
  6
Continuous
 62
     7
100
AcDbLine
 10
-31.29270222981046
 20
122.922787186755
 30
0.0
 11
-32.15872763359499
 21
122.422787186755
 31
0.0
  0
LINE
  5
8C
330
43
100
AcDbEntity
  8
0
  6
Continuous
 62
     7
100
AcDbLine
 10
-31.79270222981046
 20
123.7888125905396
 30
0.0
 11
-31.29270222981046
 21
122.922787186755
 31
0.0
  0
LINE
  5
8D
330
43
100
AcDbEntity
  8
0
  6
Continuous
 62
     7
100
AcDbLine
 10
-32.65872763359499
 20
123.2888125905396
 30
0.0
 11
-31.79270222981046
 21
123.7888125905396
 31
0.0
  0
LINE
  5
8E
330
43
100
AcDbEntity
  8
0
  6
Continuous
 62
     7
100
AcDbLine
 10
-31.79270222981046
 20
123.7888125905396
 30
0.0
 11
-31.5782895124467
 21
124.5890117455302
 31
0.0
  0
LINE
  5
8F
330
43
100
AcDbEntity
  8
0
  6
Continuous
 62
     7
100
AcDbLine
 10
-30.4925030748197
 20
122.7083744693913
 30
0.0
 11
-31.29270222981046
 21
122.922787186755
 31
0.0
  0
LINE
  5
90
330
43
100
AcDbEntity
  8
0
  6
Continuous
 62
     7
100
AcDbLine
 10
-32.15872763359499
 20
122.422787186755
 30
0.0
 11
-32.37314035095875
 21
121.6225880317644
 31
0.0
  0
LINE
  5
91
330
43
100
AcDbEntity
  8
0
  6
Continuous
 62
     7
100
AcDbLine
 10
-32.15872763359499
 20
122.422787186755
 30
0.0
 11
-32.65872763359499
 21
123.2888125905396
 31
0.0
  0
LINE
  5
92
330
43
100
AcDbEntity
  8
0
  6
Continuous
 62
     7
100
AcDbLine
 10
-30.06065142225117
 20
124.7888125905339
 30
0.0
 11
-29.1946260184572
 21
125.2888125905396
 31
0.0
  0
LINE
  5
93
330
43
100
AcDbEntity
  8
0
  6
Continuous
 62
     7
100
AcDbLine
 10
-34.15872763359499
 20
125.8868888018928
 30
0.0
 11
-33.29270222981046
 21
126.3868888018928
 31
0.0
  0
LINE
  5
94
330
43
100
AcDbEntity
  8
0
  6
Continuous
 62
     7
100
AcDbLine
 10
-33.29270222981046
 20
126.3868888018928
 30
0.0
 11
-32.792702229805
 21
125.5208633980988
 31
0.0
  0
ARC
  5
95
330
43
100
AcDbEntity
  8
0
  6
Continuous
 62
     7
100
AcDbCircle
 10
-32.89077844116383
 20
119.6907363791862
 30
0.0
 40
2.000000000000109
100
AcDbArc
 50
30.00000000020973
 51
74.99999999999926
  0
ARC
  5
96
330
43
100
AcDbEntity
  8
0
  6
Continuous
 62
     7
100
AcDbCircle
 10
-32.89077844116383
 20
119.6907363791862
 30
0.0
 40
2.000000000000061
100
AcDbArc
 50
74.99999999999926
 51
119.9999999996826
  0
ARC
  5
97
330
43
100
AcDbEntity
  8
0
  6
Continuous
 62
     7
100
AcDbCircle
 10
-28.56065142224162
 20
122.1907363791862
 30
0.0
 40
1.999999999999962
100
AcDbArc
 50
164.9999999999981
 51
-150.0000000001065
  0
ARC
  5
98
330
43
100
AcDbEntity
  8
0
  6
Continuous
 62
     7
100
AcDbCircle
 10
-35.39077844116383
 20
124.0208633981084
 30
0.0
 40
2.000000000000065
100
AcDbArc
 50
-15.00000000000114
 51
29.99999999989353
  0
ARC
  5
99
330
43
100
AcDbEntity
  8
0
  6
Continuous
 62
     7
100
AcDbCircle
 10
-31.06065142224162
 20
126.5208633981084
 30
0.0
 40
2.000000000000074
100
AcDbArc
 50
-105.0000000000005
 51
-60.00000000031761
  0
ARC
  5
9A
330
43
100
AcDbEntity
  8
0
  6
Continuous
 62
     7
100
AcDbCircle
 10
-35.39077844116383
 20
124.0208633981084
 30
0.0
 40
1.99999999999993
100
AcDbArc
 50
-59.99999999999885
 51
-15.00000000000114
  0
ARC
  5
9B
330
43
100
AcDbEntity
  8
0
  6
Continuous
 62
     7
100
AcDbCircle
 10
-28.56065142224162
 20
122.1907363791862
 30
0.0
 40
1.999999999999957
100
AcDbArc
 50
120.0000000001059
 51
164.9999999999981
  0
ARC
  5
9C
330
43
100
AcDbEntity
  8
0
  6
Continuous
 62
     7
100
AcDbCircle
 10
-31.06065142224162
 20
126.5208633981084
 30
0.0
 40
2.000000000000044
100
AcDbArc
 50
-149.999999999683
 51
-105.0000000000005
  0
CIRCLE
  5
9D
330
43
100
AcDbEntity
  8
0
  6
Continuous
 62
     3
100
AcDbCircle
 10
-31.97571493170273
 20
123.1057998886474
 30
0.0
 40
5.425531914894056
  0
CIRCLE
  5
9E
330
43
100
AcDbEntity
  8
0
  6
Continuous
 62
     7
100
AcDbCircle
 10
-31.97571493170273
 20
123.1057998886474
 30
0.0
 40
6.000000000000433
  0
ENDBLK
  5
45
330
43
100
AcDbEntity
  8
0
100
AcDbBlockEnd
  0
BLOCK
  5
47
330
46
100
AcDbEntity
  8
0
100
AcDbBlockBegin
  2
Blechschraube6_3x19_2_3_4
 70
     0
 71
     0
 10
-27.11912162878815
 20
-439.0649413155375
 30
0.0
  3
Blechschraube6_3x19_2_3_4
  1

  0
LINE
  5
9F
330
46
100
AcDbEntity
  8
1
  6
DOT_CENTER
 62
     2
100
AcDbLine
 10
-95.61532523853685
 20
103.3454101955455
 30
0.0
 11
-95.61532523853685
 21
90.14541019554451
 31
0.0
  0
LINE
  5
A0
330
46
100
AcDbEntity
  8
1
  6
DOT_CENTER
 62
     2
100
AcDbLine
 10
-89.01532523853638
 20
96.74541019554499
 30
0.0
 11
-102.2153252385373
 21
96.74541019554499
 31
0.0
  0
LINE
  5
A1
330
46
100
AcDbEntity
  8
0
  6
Continuous
 62
     7
100
AcDbLine
 10
-98.15954932680012
 20
96.9094948951539
 30
0.0
 11
-99.1254751530999
 21
97.16831394025917
 31
0.0
  0
LINE
  5
A2
330
46
100
AcDbEntity
  8
0
  6
Continuous
 62
     7
100
AcDbLine
 10
-97.00415480954024
 20
93.49407932608449
 30
0.0
 11
-96.74533576443577
 21
94.46000515238052
 31
0.0
  0
LINE
  5
A3
330
46
100
AcDbEntity
  8
0
  6
Continuous
 62
     7
100
AcDbLine
 10
-99.1254751530999
 20
97.16831394025917
 30
0.0
 11
-98.86665610799736
 21
98.13423976654826
 31
0.0
  0
LINE
  5
A4
330
46
100
AcDbEntity
  8
0
  6
Continuous
 62
     7
100
AcDbLine
 10
-92.10517532397392
 20
96.32250645083059
 30
0.0
 11
-92.36399436907647
 21
95.3565806245416
 31
0.0
  0
LINE
  5
A5
330
46
100
AcDbEntity
  8
0
  6
Continuous
 62
     7
100
AcDbLine
 10
-96.03822898325126
 20
93.23526028098183
 30
0.0
 11
-97.00415480954024
 21
93.49407932608449
 31
0.0
  0
LINE
  5
A6
330
46
100
AcDbEntity
  8
0
  6
Continuous
 62
     7
100
AcDbLine
 10
-92.36399436907647
 20
95.3565806245416
 30
0.0
 11
-93.32992019536908
 21
95.61539966964506
 31
0.0
  0
LINE
  5
A7
330
46
100
AcDbEntity
  8
0
  6
Continuous
 62
     7
100
AcDbLine
 10
-96.22769767423273
 20
96.39185680495166
 30
0.0
 11
-96.94513660944705
 21
95.97764324257855
 31
0.0
  0
LINE
  5
A8
330
46
100
AcDbEntity
  8
0
  6
Continuous
 62
     7
100
AcDbLine
 10
-94.84755828557053
 20
95.4155988246348
 30
0.0
 11
-95.26177184794363
 21
96.13303775984912
 31
0.0
  0
LINE
  5
A9
330
46
100
AcDbEntity
  8
0
  6
Continuous
 62
     7
100
AcDbLine
 10
-95.0029528028411
 20
97.09896358613821
 30
0.0
 11
-95.26177184794363
 21
96.13303775984912
 31
0.0
  0
LINE
  5
AA
330
46
100
AcDbEntity
  8
0
  6
Continuous
 62
     7
100
AcDbLine
 10
-95.96887862913019
 20
97.35778263124064
 30
0.0
 11
-95.0029528028411
 21
97.09896358613821
 31
0.0
  0
LINE
  5
AB
330
46
100
AcDbEntity
  8
0
  6
Continuous
 62
     7
100
AcDbLine
 10
-96.3830921915033
 20
98.07522156645496
 30
0.0
 11
-95.96887862913019
 21
97.35778263124064
 31
0.0
  0
LINE
  5
AC
330
46
100
AcDbEntity
  8
0
  6
Continuous
 62
     7
100
AcDbLine
 10
-95.26177184794363
 20
96.13303775984912
 30
0.0
 11
-96.22769767423273
 21
96.39185680495166
 31
0.0
  0
LINE
  5
AD
330
46
100
AcDbEntity
  8
0
  6
Continuous
 62
     7
100
AcDbLine
 10
-96.22769767423273
 20
96.39185680495166
 30
0.0
 11
-95.96887862913019
 21
97.35778263124064
 31
0.0
  0
LINE
  5
AE
330
46
100
AcDbEntity
  8
0
  6
Continuous
 62
     7
100
AcDbLine
 10
-95.0029528028411
 20
97.09896358613821
 30
0.0
 11
-94.28551386762689
 21
97.51317714851132
 31
0.0
  0
LINE
  5
AF
330
46
100
AcDbEntity
  8
0
  6
Continuous
 62
     7
100
AcDbLine
 10
-94.22649566753358
 20
99.99674106500538
 30
0.0
 11
-94.48531471263908
 21
99.0308152387056
 31
0.0
  0
LINE
  5
B0
330
46
100
AcDbEntity
  8
0
  6
Continuous
 62
     7
100
AcDbLine
 10
-93.0711011502737
 20
96.58132549593597
 30
0.0
 11
-92.10517532397392
 21
96.32250645083059
 31
0.0
  0
LINE
  5
B1
330
46
100
AcDbEntity
  8
0
  6
Continuous
 62
     7
100
AcDbLine
 10
-95.19242149382268
 20
100.2555601101079
 30
0.0
 11
-94.22649566753358
 21
99.99674106500538
 31
0.0
  0
LINE
  5
B2
330
46
100
AcDbEntity
  8
0
  6
Continuous
 62
     7
100
AcDbLine
 10
-98.86665610799736
 20
98.13423976654826
 30
0.0
 11
-97.90073028170838
 21
97.87542072144572
 31
0.0
  0
LINE
  5
B3
330
46
100
AcDbEntity
  8
0
  6
Continuous
 62
     7
100
AcDbLine
 10
-95.7794099381477
 20
94.20118610727457
 30
0.0
 11
-96.03822898325126
 21
93.23526028098183
 31
0.0
  0
LINE
  5
B4
330
46
100
AcDbEntity
  8
0
  6
Continuous
 62
     7
100
AcDbLine
 10
-95.45124053892613
 20
99.2896342838153
 30
0.0
 11
-95.19242149382268
 21
100.2555601101079
 31
0.0
  0
ARC
  5
B5
330
46
100
AcDbEntity
  8
0
  6
Continuous
 62
     7
100
AcDbCircle
 10
-98.67718741701589
 20
94.97764324257855
 30
0.0
 40
2.000000000000103
100
AcDbArc
 50
-14.99999999979137
 51
30.00000000000054
  0
ARC
  5
B6
330
46
100
AcDbEntity
  8
0
  6
Continuous
 62
     7
100
AcDbCircle
 10
-98.67718741701589
 20
94.97764324257855
 30
0.0
 40
1.999999999999967
100
AcDbArc
 50
30.00000000000054
 51
74.99999999968247
  0
ARC
  5
B7
330
46
100
AcDbEntity
  8
0
  6
Continuous
 62
     7
100
AcDbCircle
 10
-93.84755828557053
 20
93.68354801706596
 30
0.0
 40
1.999999999999998
100
AcDbArc
 50
75.00000000010667
 51
120.0000000000006
  0
ARC
  5
B8
330
46
100
AcDbEntity
  8
0
  6
Continuous
 62
     7
100
AcDbCircle
 10
-93.84755828557053
 20
93.68354801706596
 30
0.0
 40
1.999999999999967
100
AcDbArc
 50
120.0000000000006
 51
164.9999999998941
  0
ARC
  5
B9
330
46
100
AcDbEntity
  8
0
  6
Continuous
 62
     7
100
AcDbCircle
 10
-92.55346306005794
 20
98.51317714851132
 30
0.0
 40
2.000000000000121
100
AcDbArc
 50
165.00000000032
 51
-150.0000000000011
  0
ARC
  5
BA
330
46
100
AcDbEntity
  8
0
  6
Continuous
 62
     7
100
AcDbCircle
 10
-97.3830921915033
 20
99.80727237402391
 30
0.0
 40
2.000000000000066
100
AcDbArc
 50
-60.00000000000109
 51
-15.00000000010585
  0
ARC
  5
BB
330
46
100
AcDbEntity
  8
0
  6
Continuous
 62
     7
100
AcDbCircle
 10
-97.3830921915033
 20
99.80727237402391
 30
0.0
 40
2.000000000000061
100
AcDbArc
 50
-105.0000000000007
 51
-60.00000000000109
  0
ARC
  5
BC
330
46
100
AcDbEntity
  8
0
  6
Continuous
 62
     7
100
AcDbCircle
 10
-92.55346306005794
 20
98.51317714851132
 30
0.0
 40
2.000000000000066
100
AcDbArc
 50
-150.0000000000011
 51
-105.0000000003175
  0
CIRCLE
  5
BD
330
46
100
AcDbEntity
  8
0
  6
Continuous
 62
     3
100
AcDbCircle
 10
-95.61532523853685
 20
96.74541019554499
 30
0.0
 40
5.425531914894029
  0
CIRCLE
  5
BE
330
46
100
AcDbEntity
  8
0
  6
Continuous
 62
     7
100
AcDbCircle
 10
-95.61532523853685
 20
96.74541019554499
 30
0.0
 40
6.000000000000512
  0
ENDBLK
  5
48
330
46
100
AcDbEntity
  8
0
100
AcDbBlockEnd
  0
BLOCK
  5
4A
330
49
100
AcDbEntity
  8
0
100
AcDbBlockBegin
  2
Blechschraube6_3x19_2_3_5
 70
     0
 71
     0
 10
-90.7587319355327
 20
-412.7045516222183
 30
0.0
  3
Blechschraube6_3x19_2_3_5
  1

  0
LINE
  5
BF
330
49
100
AcDbEntity
  8
1
  6
DOT_CENTER
 62
     2
100
AcDbLine
 10
-159.2549355452813
 20
129.7057998888645
 30
0.0
 11
-159.2549355452813
 21
116.5057998888635
 31
0.0
  0
LINE
  5
C0
330
49
100
AcDbEntity
  8
1
  6
DOT_CENTER
 62
     2
100
AcDbLine
 10
-152.6549355452807
 20
123.105799888864
 30
0.0
 11
-165.8549355452817
 21
123.105799888864
 31
0.0
  0
LINE
  5
C1
330
49
100
AcDbEntity
  8
0
  6
Continuous
 62
     7
100
AcDbLine
 10
-157.9379482471736
 20
119.8247109756185
 30
0.0
 11
-158.4379482471755
 21
120.6907363794061
 31
0.0
  0
LINE
  5
C2
330
49
100
AcDbEntity
  8
0
  6
Continuous
 62
     7
100
AcDbLine
 10
-162.0360244585269
 20
120.9227871869717
 30
0.0
 11
-162.5360244585269
 21
121.7888125907563
 31
0.0
  0
LINE
  5
C3
330
49
100
AcDbEntity
  8
0
  6
Continuous
 62
     7
100
AcDbLine
 10
-157.0719228433893
 20
120.3247109756185
 30
0.0
 11
-157.9379482471736
 21
119.8247109756185
 31
0.0
  0
LINE
  5
C4
330
49
100
AcDbEntity
  8
0
  6
Continuous
 62
     7
100
AcDbLine
 10
-161.4379482471736
 20
125.8868888021095
 30
0.0
 11
-160.5719228433893
 21
126.3868888021095
 31
0.0
  0
LINE
  5
C5
330
49
100
AcDbEntity
  8
0
  6
Continuous
 62
     7
100
AcDbLine
 10
-162.5360244585269
 20
121.7888125907563
 30
0.0
 11
-161.6699990547361
 21
122.2888125907598
 31
0.0
  0
LINE
  5
C6
330
49
100
AcDbEntity
  8
0
  6
Continuous
 62
     7
100
AcDbLine
 10
-160.5719228433893
 20
126.3868888021095
 30
0.0
 11
-160.0719228433893
 21
125.5208633983251
 31
0.0
  0
LINE
  5
C7
330
49
100
AcDbEntity
  8
0
  6
Continuous
 62
     7
100
AcDbLine
 10
-160.937948247168
 20
125.0208633983156
 30
0.0
 11
-161.4379482471736
 21
125.8868888021095
 31
0.0
  0
LINE
  5
C8
330
49
100
AcDbEntity
  8
0
  6
Continuous
 62
     7
100
AcDbLine
 10
-161.1699990547393
 20
121.4227871869737
 30
0.0
 11
-162.0360244585269
 21
120.9227871869717
 31
0.0
  0
LINE
  5
C9
330
49
100
AcDbEntity
  8
0
  6
Continuous
 62
     7
100
AcDbLine
 10
-158.8575101260253
 20
124.5890117457469
 30
0.0
 11
-159.0719228433893
 21
123.7888125907563
 31
0.0
  0
LINE
  5
CA
330
49
100
AcDbEntity
  8
0
  6
Continuous
 62
     7
100
AcDbLine
 10
-157.3398720358236
 20
124.7888125907543
 30
0.0
 11
-156.4738466320359
 21
125.2888125907563
 31
0.0
  0
LINE
  5
CB
330
49
100
AcDbEntity
  8
0
  6
Continuous
 62
     7
100
AcDbLine
 10
-159.4379482471736
 20
122.4227871869717
 30
0.0
 11
-159.9379482471736
 21
123.2888125907563
 31
0.0
  0
LINE
  5
CC
330
49
100
AcDbEntity
  8
0
  6
Continuous
 62
     7
100
AcDbLine
 10
-158.5719228433893
 20
122.9227871869717
 30
0.0
 11
-159.4379482471736
 21
122.4227871869717
 31
0.0
  0
LINE
  5
CD
330
49
100
AcDbEntity
  8
0
  6
Continuous
 62
     7
100
AcDbLine
 10
-159.0719228433893
 20
123.7888125907563
 30
0.0
 11
-158.5719228433893
 21
122.9227871869717
 31
0.0
  0
LINE
  5
CE
330
49
100
AcDbEntity
  8
0
  6
Continuous
 62
     7
100
AcDbLine
 10
-158.5719228433893
 20
122.9227871869717
 30
0.0
 11
-157.7717236883984
 21
122.708374469608
 31
0.0
  0
LINE
  5
CF
330
49
100
AcDbEntity
  8
0
  6
Continuous
 62
     7
100
AcDbLine
 10
-159.6523609645375
 20
121.6225880319811
 30
0.0
 11
-159.4379482471736
 21
122.4227871869717
 31
0.0
  0
LINE
  5
D0
330
49
100
AcDbEntity
  8
0
  6
Continuous
 62
     7
100
AcDbLine
 10
-159.9379482471736
 20
123.2888125907563
 30
0.0
 11
-160.7381474021644
 21
123.50322530812
 31
0.0
  0
LINE
  5
D1
330
49
100
AcDbEntity
  8
0
  6
Continuous
 62
     7
100
AcDbLine
 10
-159.9379482471736
 20
123.2888125907563
 30
0.0
 11
-159.0719228433893
 21
123.7888125907563
 31
0.0
  0
LINE
  5
D2
330
49
100
AcDbEntity
  8
0
  6
Continuous
 62
     7
100
AcDbLine
 10
-157.5719228433948
 20
121.1907363794124
 30
0.0
 11
-157.0719228433893
 21
120.3247109756185
 31
0.0
  0
LINE
  5
D3
330
49
100
AcDbEntity
  8
0
  6
Continuous
 62
     7
100
AcDbLine
 10
-155.9738466320359
 20
124.4227871869717
 30
0.0
 11
-156.83987203583
 21
123.9227871869663
 31
0.0
  0
LINE
  5
D4
330
49
100
AcDbEntity
  8
0
  6
Continuous
 62
     7
100
AcDbLine
 10
-156.4738466320359
 20
125.2888125907563
 30
0.0
 11
-155.9738466320359
 21
124.4227871869717
 31
0.0
  0
ARC
  5
D5
330
49
100
AcDbEntity
  8
0
  6
Continuous
 62
     7
100
AcDbCircle
 10
-162.6699990547425
 20
124.0208633983251
 30
0.0
 40
2.0000000000001
100
AcDbArc
 50
-59.99999999979012
 51
-15.00000000000216
  0
ARC
  5
D6
330
49
100
AcDbEntity
  8
0
  6
Continuous
 62
     7
100
AcDbCircle
 10
-162.6699990547425
 20
124.0208633983251
 30
0.0
 40
1.999999999999986
100
AcDbArc
 50
-15.00000000000216
 51
29.99999999968366
  0
ARC
  5
D7
330
49
100
AcDbEntity
  8
0
  6
Continuous
 62
     7
100
AcDbCircle
 10
-160.1699990547425
 20
119.6907363794029
 30
0.0
 40
2.000000000000039
100
AcDbArc
 50
75.00000000000162
 51
119.999999999893
  0
ARC
  5
D8
330
49
100
AcDbEntity
  8
0
  6
Continuous
 62
     7
100
AcDbCircle
 10
-158.3398720358203
 20
126.5208633983251
 30
0.0
 40
2.000000000000052
100
AcDbArc
 50
-104.9999999999983
 51
-60.00000000010935
  0
ARC
  5
D9
330
49
100
AcDbEntity
  8
0
  6
Continuous
 62
     7
100
AcDbCircle
 10
-155.8398720358203
 20
122.1907363794029
 30
0.0
 40
1.999999999999982
100
AcDbArc
 50
164.9999999999982
 51
-150.000000000316
  0
ARC
  5
DA
330
49
100
AcDbEntity
  8
0
  6
Continuous
 62
     7
100
AcDbCircle
 10
-158.3398720358203
 20
126.5208633983251
 30
0.0
 40
2.000000000000115
100
AcDbArc
 50
-150.0000000000019
 51
-104.9999999999983
  0
ARC
  5
DB
330
49
100
AcDbEntity
  8
0
  6
Continuous
 62
     7
100
AcDbCircle
 10
-160.1699990547425
 20
119.6907363794029
 30
0.0
 40
1.999999999999966
100
AcDbArc
 50
30.00000000010634
 51
75.00000000000162
  0
ARC
  5
DC
330
49
100
AcDbEntity
  8
0
  6
Continuous
 62
     7
100
AcDbCircle
 10
-155.8398720358203
 20
122.1907363794029
 30
0.0
 40
2.000000000000114
100
AcDbArc
 50
120.0000000003197
 51
164.9999999999982
  0
CIRCLE
  5
DD
330
49
100
AcDbEntity
  8
0
  6
Continuous
 62
     3
100
AcDbCircle
 10
-159.2549355452813
 20
123.105799888864
 30
0.0
 40
5.425531914893972
  0
CIRCLE
  5
DE
330
49
100
AcDbEntity
  8
0
  6
Continuous
 62
     7
100
AcDbCircle
 10
-159.2549355452813
 20
123.105799888864
 30
0.0
 40
6.000000000000518
  0
ENDBLK
  5
4B
330
49
100
AcDbEntity
  8
0
100
AcDbBlockEnd
  0
BLOCK
  5
4D
330
4C
100
AcDbEntity
  8
0
100
AcDbBlockBegin
  2
Blechschraube6_3x19_2_3_8
 70
     0
 71
     0
 10
-27.11912162848199
 20
-259.0649413155372
 30
0.0
  3
Blechschraube6_3x19_2_3_8
  1

  0
LINE
  5
DF
330
4C
100
AcDbEntity
  8
1
  6
DOT_CENTER
 62
     2
100
AcDbLine
 10
-95.6153252382307
 20
283.3454101955455
 30
0.0
 11
-95.6153252382307
 21
270.1454101955445
 31
0.0
  0
LINE
  5
E0
330
4C
100
AcDbEntity
  8
1
  6
DOT_CENTER
 62
     2
100
AcDbLine
 10
-89.01532523823022
 20
276.745410195545
 30
0.0
 11
-102.2153252382311
 21
276.745410195545
 31
0.0
  0
LINE
  5
E1
330
4C
100
AcDbEntity
  8
0
  6
Continuous
 62
     7
100
AcDbLine
 10
-99.12547515279351
 20
277.1683139402594
 30
0.0
 11
-98.86665610769097
 21
278.1342397665484
 31
0.0
  0
LINE
  5
E2
330
4C
100
AcDbEntity
  8
0
  6
Continuous
 62
     7
100
AcDbLine
 10
-98.86665610769097
 20
278.1342397665484
 30
0.0
 11
-97.90073028139835
 21
277.8754207214449
 31
0.0
  0
LINE
  5
E3
330
4C
100
AcDbEntity
  8
0
  6
Continuous
 62
     7
100
AcDbLine
 10
-97.00415480923385
 20
273.4940793260846
 30
0.0
 11
-96.74533576412847
 21
274.4600051523844
 31
0.0
  0
LINE
  5
E4
330
4C
100
AcDbEntity
  8
0
  6
Continuous
 62
     7
100
AcDbLine
 10
-98.15954932649373
 20
276.9094948951541
 30
0.0
 11
-99.12547515279351
 21
277.1683139402594
 31
0.0
  0
LINE
  5
E5
330
4C
100
AcDbEntity
  8
0
  6
Continuous
 62
     7
100
AcDbLine
 10
-95.45124053861974
 20
279.2896342838154
 30
0.0
 11
-95.19242149351618
 21
280.2555601101082
 31
0.0
  0
LINE
  5
E6
330
4C
100
AcDbEntity
  8
0
  6
Continuous
 62
     7
100
AcDbLine
 10
-95.77940993784131
 20
274.2011861072747
 30
0.0
 11
-96.03822898294487
 21
273.2352602809821
 31
0.0
  0
LINE
  5
E7
330
4C
100
AcDbEntity
  8
0
  6
Continuous
 62
     7
100
AcDbLine
 10
-92.36399436877008
 20
275.3565806245417
 30
0.0
 11
-93.32992019505906
 21
275.6153996696443
 31
0.0
  0
LINE
  5
E8
330
4C
100
AcDbEntity
  8
0
  6
Continuous
 62
     7
100
AcDbLine
 10
-96.03822898294487
 20
273.2352602809821
 30
0.0
 11
-97.00415480923385
 21
273.4940793260846
 31
0.0
  0
LINE
  5
E9
330
4C
100
AcDbEntity
  8
0
  6
Continuous
 62
     7
100
AcDbLine
 10
-92.10517532366754
 20
276.3225064508308
 30
0.0
 11
-92.36399436877008
 21
275.3565806245417
 31
0.0
  0
LINE
  5
EA
330
4C
100
AcDbEntity
  8
0
  6
Continuous
 62
     7
100
AcDbLine
 10
-93.07110114996732
 20
276.5813254959361
 30
0.0
 11
-92.10517532366754
 21
276.3225064508308
 31
0.0
  0
LINE
  5
EB
330
4C
100
AcDbEntity
  8
0
  6
Continuous
 62
     7
100
AcDbLine
 10
-94.2264956672272
 20
279.9967410650056
 30
0.0
 11
-94.48531471233167
 21
279.0308152387095
 31
0.0
  0
LINE
  5
EC
330
4C
100
AcDbEntity
  8
0
  6
Continuous
 62
     7
100
AcDbLine
 10
-95.19242149351618
 20
280.2555601101082
 30
0.0
 11
-94.2264956672272
 21
279.9967410650056
 31
0.0
  0
LINE
  5
ED
330
4C
100
AcDbEntity
  8
0
  6
Continuous
 62
     7
100
AcDbLine
 10
-95.00295280253471
 20
277.0989635861383
 30
0.0
 11
-94.28551386732039
 21
277.5131771485116
 31
0.0
  0
LINE
  5
EE
330
4C
100
AcDbEntity
  8
0
  6
Continuous
 62
     7
100
AcDbLine
 10
-96.38309219119691
 20
278.0752215664552
 30
0.0
 11
-95.9688786288238
 21
277.3577826312409
 31
0.0
  0
LINE
  5
EF
330
4C
100
AcDbEntity
  8
0
  6
Continuous
 62
     7
100
AcDbLine
 10
-95.26177184763725
 20
276.1330377598493
 30
0.0
 11
-96.22769767392634
 21
276.3918568049518
 31
0.0
  0
LINE
  5
F0
330
4C
100
AcDbEntity
  8
0
  6
Continuous
 62
     7
100
AcDbLine
 10
-96.22769767392634
 20
276.3918568049518
 30
0.0
 11
-95.9688786288238
 21
277.3577826312409
 31
0.0
  0
LINE
  5
F1
330
4C
100
AcDbEntity
  8
0
  6
Continuous
 62
     7
100
AcDbLine
 10
-95.00295280253471
 20
277.0989635861383
 30
0.0
 11
-95.26177184763725
 21
276.1330377598493
 31
0.0
  0
LINE
  5
F2
330
4C
100
AcDbEntity
  8
0
  6
Continuous
 62
     7
100
AcDbLine
 10
-94.84755828526414
 20
275.415598824635
 30
0.0
 11
-95.26177184763725
 21
276.1330377598493
 31
0.0
  0
LINE
  5
F3
330
4C
100
AcDbEntity
  8
0
  6
Continuous
 62
     7
100
AcDbLine
 10
-96.22769767392634
 20
276.3918568049518
 30
0.0
 11
-96.94513660914066
 21
275.9776432425787
 31
0.0
  0
LINE
  5
F4
330
4C
100
AcDbEntity
  8
0
  6
Continuous
 62
     7
100
AcDbLine
 10
-95.9688786288238
 20
277.3577826312409
 30
0.0
 11
-95.00295280253471
 21
277.0989635861383
 31
0.0
  0
ARC
  5
F5
330
4C
100
AcDbEntity
  8
0
  6
Continuous
 62
     7
100
AcDbCircle
 10
-92.55346305975155
 20
278.5131771485116
 30
0.0
 40
2.000000000000074
100
AcDbArc
 50
165.0000000002118
 51
-149.9999999999995
  0
ARC
  5
F6
330
4C
100
AcDbEntity
  8
0
  6
Continuous
 62
     7
100
AcDbCircle
 10
-92.55346305975155
 20
278.5131771485116
 30
0.0
 40
1.999999999999967
100
AcDbArc
 50
-149.9999999999995
 51
-105.0000000003163
  0
ARC
  5
F7
330
4C
100
AcDbEntity
  8
0
  6
Continuous
 62
     7
100
AcDbCircle
 10
-97.38309219119691
 20
279.807272374024
 30
0.0
 40
1.999999999999998
100
AcDbArc
 50
-104.9999999998933
 51
-59.99999999999946
  0
ARC
  5
F8
330
4C
100
AcDbEntity
  8
0
  6
Continuous
 62
     7
100
AcDbCircle
 10
-97.38309219119691
 20
279.807272374024
 30
0.0
 40
1.999999999999967
100
AcDbArc
 50
-59.99999999999946
 51
-15.00000000010585
  0
ARC
  5
F9
330
4C
100
AcDbEntity
  8
0
  6
Continuous
 62
     7
100
AcDbCircle
 10
-98.6771874167095
 20
274.9776432425787
 30
0.0
 40
2.000000000000026
100
AcDbArc
 50
-14.99999999968238
 51
30.00000000000054
  0
ARC
  5
FA
330
4C
100
AcDbEntity
  8
0
  6
Continuous
 62
     7
100
AcDbCircle
 10
-93.84755828526414
 20
273.6835480170661
 30
0.0
 40
2.000000000000116
100
AcDbArc
 50
74.99999999999969
 51
119.9999999999989
  0
ARC
  5
FB
330
4C
100
AcDbEntity
  8
0
  6
Continuous
 62
     7
100
AcDbCircle
 10
-93.84755828526414
 20
273.6835480170661
 30
0.0
 40
2.000000000000066
100
AcDbArc
 50
119.9999999999989
 51
164.9999999998941
  0
ARC
  5
FC
330
4C
100
AcDbEntity
  8
0
  6
Continuous
 62
     7
100
AcDbCircle
 10
-98.6771874167095
 20
274.9776432425787
 30
0.0
 40
1.999999999999967
100
AcDbArc
 50
30.00000000000054
 51
74.99999999968288
  0
CIRCLE
  5
FD
330
4C
100
AcDbEntity
  8
0
  6
Continuous
 62
     3
100
AcDbCircle
 10
-95.6153252382307
 20
276.745410195545
 30
0.0
 40
5.425531914894068
  0
CIRCLE
  5
FE
330
4C
100
AcDbEntity
  8
0
  6
Continuous
 62
     7
100
AcDbCircle
 10
-95.6153252382307
 20
276.745410195545
 30
0.0
 40
6.000000000000373
  0
ENDBLK
  5
4E
330
4C
100
AcDbEntity
  8
0
100
AcDbBlockEnd
  0
BLOCK
  5
50
330
4F
100
AcDbEntity
  8
0
100
AcDbBlockBegin
  2
Blechschraube6_3x19_2_3
 70
     0
 71
     0
 10
36.5204886782625
 20
-285.4253310088564
 30
0.0
  3
Blechschraube6_3x19_2_3
  1

  0
LINE
  5
FF
330
4F
100
AcDbEntity
  8
1
  6
DOT_CENTER
 62
     2
100
AcDbLine
 10
-31.97571493148615
 20
256.9850205022265
 30
0.0
 11
-31.97571493148615
 21
243.7850205022255
 31
0.0
  0
LINE
  5
100
330
4F
100
AcDbEntity
  8
1
  6
DOT_CENTER
 62
     2
100
AcDbLine
 10
-25.37571493148568
 20
250.385020502226
 30
0.0
 11
-38.57571493148663
 21
250.385020502226
 31
0.0
  0
LINE
  5
101
330
4F
100
AcDbEntity
  8
0
  6
Continuous
 62
     7
100
AcDbLine
 10
-30.65872763337819
 20
247.1039315889805
 30
0.0
 11
-31.15872763337819
 21
247.9699569927649
 31
0.0
  0
LINE
  5
102
330
4F
100
AcDbEntity
  8
0
  6
Continuous
 62
     7
100
AcDbLine
 10
-33.29270222959377
 20
253.6661094154715
 30
0.0
 11
-32.79270222959195
 21
252.8000840116839
 31
0.0
  0
LINE
  5
103
330
4F
100
AcDbEntity
  8
0
  6
Continuous
 62
     7
100
AcDbLine
 10
-34.15872763337831
 20
253.1661094154715
 30
0.0
 11
-33.29270222959377
 21
253.6661094154715
 31
0.0
  0
LINE
  5
104
330
4F
100
AcDbEntity
  8
0
  6
Continuous
 62
     7
100
AcDbLine
 10
-28.69462601824051
 20
251.7020078003337
 30
0.0
 11
-29.5606514220313
 21
251.2020078003302
 31
0.0
  0
LINE
  5
105
330
4F
100
AcDbEntity
  8
0
  6
Continuous
 62
     7
100
AcDbLine
 10
-29.19462601824051
 20
252.5680332041183
 30
0.0
 11
-28.69462601824051
 21
251.7020078003337
 31
0.0
  0
LINE
  5
106
330
4F
100
AcDbEntity
  8
0
  6
Continuous
 62
     7
100
AcDbLine
 10
-30.29270222959934
 20
248.4699569927744
 30
0.0
 11
-29.79270222959377
 21
247.6039315889805
 31
0.0
  0
LINE
  5
107
330
4F
100
AcDbEntity
  8
0
  6
Continuous
 62
     7
100
AcDbLine
 10
-30.06065142202812
 20
252.0680332041163
 30
0.0
 11
-29.19462601824051
 21
252.5680332041183
 31
0.0
  0
LINE
  5
108
330
4F
100
AcDbEntity
  8
0
  6
Continuous
 62
     7
100
AcDbLine
 10
-32.37314035074206
 20
248.9018086453431
 30
0.0
 11
-32.15872763337831
 21
249.7020078003337
 31
0.0
  0
LINE
  5
109
330
4F
100
AcDbEntity
  8
0
  6
Continuous
 62
     7
100
AcDbLine
 10
-33.89077844094396
 20
248.7020078003357
 30
0.0
 11
-34.75680384473157
 21
248.2020078003337
 31
0.0
  0
LINE
  5
10A
330
4F
100
AcDbEntity
  8
0
  6
Continuous
 62
     7
100
AcDbLine
 10
-31.29270222959377
 20
250.2020078003337
 30
0.0
 11
-30.49250307460312
 21
249.98759508297
 31
0.0
  0
LINE
  5
10B
330
4F
100
AcDbEntity
  8
0
  6
Continuous
 62
     7
100
AcDbLine
 10
-31.57828951223002
 20
251.8682323591089
 30
0.0
 11
-31.79270222959377
 21
251.0680332041183
 31
0.0
  0
LINE
  5
10C
330
4F
100
AcDbEntity
  8
0
  6
Continuous
 62
     7
100
AcDbLine
 10
-32.65872763337831
 20
250.5680332041183
 30
0.0
 11
-33.45892678836896
 21
250.782445921482
 31
0.0
  0
LINE
  5
10D
330
4F
100
AcDbEntity
  8
0
  6
Continuous
 62
     7
100
AcDbLine
 10
-32.15872763337831
 20
249.7020078003337
 30
0.0
 11
-32.65872763337831
 21
250.5680332041183
 31
0.0
  0
LINE
  5
10E
330
4F
100
AcDbEntity
  8
0
  6
Continuous
 62
     7
100
AcDbLine
 10
-32.65872763337831
 20
250.5680332041183
 30
0.0
 11
-31.79270222959377
 21
251.0680332041183
 31
0.0
  0
LINE
  5
10F
330
4F
100
AcDbEntity
  8
0
  6
Continuous
 62
     7
100
AcDbLine
 10
-31.79270222959377
 20
251.0680332041183
 30
0.0
 11
-31.29270222959377
 21
250.2020078003337
 31
0.0
  0
LINE
  5
110
330
4F
100
AcDbEntity
  8
0
  6
Continuous
 62
     7
100
AcDbLine
 10
-31.29270222959377
 20
250.2020078003337
 30
0.0
 11
-32.15872763337831
 21
249.7020078003337
 31
0.0
  0
LINE
  5
111
330
4F
100
AcDbEntity
  8
0
  6
Continuous
 62
     7
100
AcDbLine
 10
-33.65872763337262
 20
252.3000840116775
 30
0.0
 11
-34.15872763337831
 21
253.1661094154715
 31
0.0
  0
LINE
  5
112
330
4F
100
AcDbEntity
  8
0
  6
Continuous
 62
     7
100
AcDbLine
 10
-34.75680384473157
 20
248.2020078003337
 30
0.0
 11
-35.25680384473157
 21
249.0680332041183
 31
0.0
  0
LINE
  5
113
330
4F
100
AcDbEntity
  8
0
  6
Continuous
 62
     7
100
AcDbLine
 10
-35.25680384473157
 20
249.0680332041183
 30
0.0
 11
-34.39077844093748
 21
249.5680332041237
 31
0.0
  0
LINE
  5
114
330
4F
100
AcDbEntity
  8
0
  6
Continuous
 62
     7
100
AcDbLine
 10
-29.79270222959377
 20
247.6039315889805
 30
0.0
 11
-30.65872763337819
 21
247.1039315889805
 31
0.0
  0
ARC
  5
115
330
4F
100
AcDbEntity
  8
0
  6
Continuous
 62
     7
100
AcDbCircle
 10
-28.56065142202493
 20
249.4699569927649
 30
0.0
 40
2.000000000000075
100
AcDbArc
 50
120.0000000002095
 51
164.9999999999993
  0
ARC
  5
116
330
4F
100
AcDbEntity
  8
0
  6
Continuous
 62
     7
100
AcDbCircle
 10
-28.56065142202493
 20
249.4699569927649
 30
0.0
 40
2.000000000000064
100
AcDbArc
 50
164.9999999999993
 51
-150.0000000003148
  0
ARC
  5
117
330
4F
100
AcDbEntity
  8
0
  6
Continuous
 62
     7
100
AcDbCircle
 10
-31.06065142202493
 20
253.8000840116871
 30
0.0
 40
2.000000000000063
100
AcDbArc
 50
-105.0000000000009
 51
-60.0000000001067
  0
ARC
  5
118
330
4F
100
AcDbEntity
  8
0
  6
Continuous
 62
     7
100
AcDbCircle
 10
-32.89077844094715
 20
246.9699569927649
 30
0.0
 40
2.000000000000063
100
AcDbArc
 50
74.99999999999906
 51
119.9999999998933
  0
ARC
  5
119
330
4F
100
AcDbEntity
  8
0
  6
Continuous
 62
     7
100
AcDbCircle
 10
-35.39077844094715
 20
251.3000840116871
 30
0.0
 40
2.000000000000061
100
AcDbArc
 50
-15.00000000000074
 51
29.99999999968139
  0
ARC
  5
11A
330
4F
100
AcDbEntity
  8
0
  6
Continuous
 62
     7
100
AcDbCircle
 10
-32.89077844094715
 20
246.9699569927649
 30
0.0
 40
2.000000000000072
100
AcDbArc
 50
29.99999999999881
 51
74.99999999999906
  0
ARC
  5
11B
330
4F
100
AcDbEntity
  8
0
  6
Continuous
 62
     7
100
AcDbCircle
 10
-31.06065142202493
 20
253.8000840116871
 30
0.0
 40
1.999999999999987
100
AcDbArc
 50
-149.9999999998945
 51
-105.0000000000009
  0
ARC
  5
11C
330
4F
100
AcDbEntity
  8
0
  6
Continuous
 62
     7
100
AcDbCircle
 10
-35.39077844094715
 20
251.3000840116871
 30
0.0
 40
2.000000000000076
100
AcDbArc
 50
-59.99999999968136
 51
-15.00000000000074
  0
CIRCLE
  5
11D
330
4F
100
AcDbEntity
  8
0
  6
Continuous
 62
     3
100
AcDbCircle
 10
-31.97571493148615
 20
250.385020502226
 30
0.0
 40
5.425531914894079
  0
CIRCLE
  5
11E
330
4F
100
AcDbEntity
  8
0
  6
Continuous
 62
     7
100
AcDbCircle
 10
-31.97571493148615
 20
250.385020502226
 30
0.0
 40
6.000000000000404
  0
ENDBLK
  5
51
330
4F
100
AcDbEntity
  8
0
100
AcDbBlockEnd
  0
BLOCK
  5
53
330
52
100
AcDbEntity
  8
0
100
AcDbBlockBegin
  2
Blechschraube6_3x19_2_3_2
 70
     0
 71
     0
 10
62.88087837136487
 20
-349.0649413156903
 30
0.0
  3
Blechschraube6_3x19_2_3_2
  1

  0
LINE
  5
11F
330
52
100
AcDbEntity
  8
1
  6
DOT_CENTER
 62
     2
100
AcDbLine
 10
-5.61532523838372
 20
193.3454101953923
 30
0.0
 11
-5.61532523838372
 21
180.1454101953915
 31
0.0
  0
LINE
  5
120
330
52
100
AcDbEntity
  8
1
  6
DOT_CENTER
 62
     2
100
AcDbLine
 10
0.98467476161676
 20
186.7454101953919
 30
0.0
 11
-12.2153252383842
 21
186.7454101953919
 31
0.0
  0
LINE
  5
121
330
52
100
AcDbEntity
  8
0
  6
Continuous
 62
     7
100
AcDbLine
 10
-6.03822898309789
 20
183.2352602808288
 30
0.0
 11
-7.00415480938699
 21
183.4940793259314
 31
0.0
  0
LINE
  5
122
330
52
100
AcDbEntity
  8
0
  6
Continuous
 62
     7
100
AcDbLine
 10
-2.10517532382067
 20
186.3225064506775
 30
0.0
 11
-2.3639943689231
 21
185.3565806243885
 31
0.0
  0
LINE
  5
123
330
52
100
AcDbEntity
  8
0
  6
Continuous
 62
     7
100
AcDbLine
 10
-4.22649566738022
 20
189.9967410648522
 30
0.0
 11
-4.48531471248378
 21
189.0308152385596
 31
0.0
  0
LINE
  5
124
330
52
100
AcDbEntity
  8
0
  6
Continuous
 62
     7
100
AcDbLine
 10
-5.77940993799263
 20
184.2011861071286
 30
0.0
 11
-6.03822898309789
 21
183.2352602808288
 31
0.0
  0
LINE
  5
125
330
52
100
AcDbEntity
  8
0
  6
Continuous
 62
     7
100
AcDbLine
 10
-2.3639943689231
 20
185.3565806243885
 30
0.0
 11
-3.32992019521925
 21
185.6153996694929
 31
0.0
  0
LINE
  5
126
330
52
100
AcDbEntity
  8
0
  6
Continuous
 62
     7
100
AcDbLine
 10
-5.19242149366931
 20
190.2555601099548
 30
0.0
 11
-4.22649566738022
 21
189.9967410648522
 31
0.0
  0
LINE
  5
127
330
52
100
AcDbEntity
  8
0
  6
Continuous
 62
     7
100
AcDbLine
 10
-5.26177184779038
 20
186.133037759696
 30
0.0
 11
-4.84755828541728
 21
185.4155988244817
 31
0.0
  0
LINE
  5
128
330
52
100
AcDbEntity
  8
0
  6
Continuous
 62
     7
100
AcDbLine
 10
-4.28551386747353
 20
187.5131771483582
 30
0.0
 11
-5.00295280268784
 21
187.0989635859851
 31
0.0
  0
LINE
  5
129
330
52
100
AcDbEntity
  8
0
  6
Continuous
 62
     7
100
AcDbLine
 10
-5.96887862897694
 20
187.3577826310876
 30
0.0
 11
-5.00295280268784
 21
187.0989635859851
 31
0.0
  0
LINE
  5
12A
330
52
100
AcDbEntity
  8
0
  6
Continuous
 62
     7
100
AcDbLine
 10
-6.22769767407948
 20
186.3918568047985
 30
0.0
 11
-5.96887862897694
 21
187.3577826310876
 31
0.0
  0
LINE
  5
12B
330
52
100
AcDbEntity
  8
0
  6
Continuous
 62
     7
100
AcDbLine
 10
-5.26177184779038
 20
186.133037759696
 30
0.0
 11
-6.22769767407948
 21
186.3918568047985
 31
0.0
  0
LINE
  5
12C
330
52
100
AcDbEntity
  8
0
  6
Continuous
 62
     7
100
AcDbLine
 10
-6.94513660929368
 20
185.9776432424254
 30
0.0
 11
-6.22769767407948
 21
186.3918568047985
 31
0.0
  0
LINE
  5
12D
330
52
100
AcDbEntity
  8
0
  6
Continuous
 62
     7
100
AcDbLine
 10
-5.96887862897694
 20
187.3577826310876
 30
0.0
 11
-6.38309219134993
 21
188.0752215663019
 31
0.0
  0
LINE
  5
12E
330
52
100
AcDbEntity
  8
0
  6
Continuous
 62
     7
100
AcDbLine
 10
-5.00295280268784
 20
187.0989635859851
 30
0.0
 11
-5.26177184779038
 21
186.133037759696
 31
0.0
  0
LINE
  5
12F
330
52
100
AcDbEntity
  8
0
  6
Continuous
 62
     7
100
AcDbLine
 10
-8.86665610784411
 20
188.1342397663951
 30
0.0
 11
-7.90073028154433
 21
187.8754207212897
 31
0.0
  0
LINE
  5
130
330
52
100
AcDbEntity
  8
0
  6
Continuous
 62
     7
100
AcDbLine
 10
-5.4512405387747
 20
189.289634283655
 30
0.0
 11
-5.19242149366931
 21
190.2555601099548
 31
0.0
  0
LINE
  5
131
330
52
100
AcDbEntity
  8
0
  6
Continuous
 62
     7
100
AcDbLine
 10
-9.12547515294665
 20
187.168313940106
 30
0.0
 11
-8.86665610784411
 21
188.1342397663951
 31
0.0
  0
LINE
  5
132
330
52
100
AcDbEntity
  8
0
  6
Continuous
 62
     7
100
AcDbLine
 10
-7.00415480938699
 20
183.4940793259314
 30
0.0
 11
-6.74533576428445
 21
184.4600051522203
 31
0.0
  0
LINE
  5
133
330
52
100
AcDbEntity
  8
0
  6
Continuous
 62
     7
100
AcDbLine
 10
-3.07110115011329
 20
186.581325495781
 30
0.0
 11
-2.10517532382067
 21
186.3225064506775
 31
0.0
  0
LINE
  5
134
330
52
100
AcDbEntity
  8
0
  6
Continuous
 62
     7
100
AcDbLine
 10
-8.15954932665403
 20
186.9094948950026
 30
0.0
 11
-9.12547515294665
 21
187.168313940106
 31
0.0
  0
ARC
  5
135
330
52
100
AcDbEntity
  8
0
  6
Continuous
 62
     7
100
AcDbCircle
 10
-3.84755828541728
 20
183.6835480169128
 30
0.0
 40
2.000000000000076
100
AcDbArc
 50
75.00000000020843
 51
119.9999999999997
  0
ARC
  5
136
330
52
100
AcDbEntity
  8
0
  6
Continuous
 62
     7
100
AcDbCircle
 10
-3.84755828541728
 20
183.6835480169128
 30
0.0
 40
2.000000000000016
100
AcDbArc
 50
119.9999999999997
 51
164.9999999996817
  0
ARC
  5
137
330
52
100
AcDbEntity
  8
0
  6
Continuous
 62
     7
100
AcDbCircle
 10
-2.55346305990469
 20
188.5131771483582
 30
0.0
 40
1.999999999999984
100
AcDbArc
 50
165.0000000001083
 51
-149.9999999999995
  0
ARC
  5
138
330
52
100
AcDbEntity
  8
0
  6
Continuous
 62
     7
100
AcDbCircle
 10
-2.55346305990469
 20
188.5131771483582
 30
0.0
 40
1.999999999999968
100
AcDbArc
 50
-149.9999999999995
 51
-105.0000000001054
  0
ARC
  5
139
330
52
100
AcDbEntity
  8
0
  6
Continuous
 62
     7
100
AcDbCircle
 10
-8.67718741686264
 20
184.9776432424254
 30
0.0
 40
2.000000000000061
100
AcDbArc
 50
-15.00000000000074
 51
29.99999999999892
  0
ARC
  5
13A
330
52
100
AcDbEntity
  8
0
  6
Continuous
 62
     7
100
AcDbCircle
 10
-8.67718741686264
 20
184.9776432424254
 30
0.0
 40
2.000000000000066
100
AcDbArc
 50
29.99999999999892
 51
74.99999999989457
  0
ARC
  5
13B
330
52
100
AcDbEntity
  8
0
  6
Continuous
 62
     7
100
AcDbCircle
 10
-7.38309219134993
 20
189.8072723738708
 30
0.0
 40
2.000000000000123
100
AcDbArc
 50
-104.9999999996833
 51
-60.00000000000028
  0
ARC
  5
13C
330
52
100
AcDbEntity
  8
0
  6
Continuous
 62
     7
100
AcDbCircle
 10
-7.38309219134993
 20
189.8072723738708
 30
0.0
 40
2.000000000000016
100
AcDbArc
 50
-60.00000000000028
 51
-15.00000000031916
  0
CIRCLE
  5
13D
330
52
100
AcDbEntity
  8
0
  6
Continuous
 62
     3
100
AcDbCircle
 10
-5.61532523838372
 20
186.7454101953919
 30
0.0
 40
5.425531914894016
  0
CIRCLE
  5
13E
330
52
100
AcDbEntity
  8
0
  6
Continuous
 62
     7
100
AcDbCircle
 10
-5.61532523838372
 20
186.7454101953919
 30
0.0
 40
6.000000000000502
  0
ENDBLK
  5
54
330
52
100
AcDbEntity
  8
0
100
AcDbBlockEnd
  0
BLOCK
  5
56
330
55
100
AcDbEntity
  8
0
100
AcDbBlockBegin
  2
Blechschraube6_3x19_2_3_7
 70
     0
 71
     0
 10
-90.75873193531623
 20
-285.4253310086399
 30
0.0
  3
Blechschraube6_3x19_2_3_7
  1

  0
LINE
  5
13F
330
55
100
AcDbEntity
  8
1
  6
DOT_CENTER
 62
     2
100
AcDbLine
 10
-159.2549355450647
 20
256.985020502443
 30
0.0
 11
-159.2549355450647
 21
243.7850205024421
 31
0.0
  0
LINE
  5
140
330
55
100
AcDbEntity
  8
1
  6
DOT_CENTER
 62
     2
100
AcDbLine
 10
-152.6549355450642
 20
250.3850205024426
 30
0.0
 11
-165.8549355450652
 21
250.3850205024426
 31
0.0
  0
LINE
  5
141
330
55
100
AcDbEntity
  8
0
  6
Continuous
 62
     7
100
AcDbLine
 10
-157.9379482469569
 20
247.1039315891972
 30
0.0
 11
-158.4379482469624
 21
247.9699569929912
 31
0.0
  0
LINE
  5
142
330
55
100
AcDbEntity
  8
0
  6
Continuous
 62
     7
100
AcDbLine
 10
-157.0719228431726
 20
247.6039315891972
 30
0.0
 11
-157.9379482469569
 21
247.1039315891972
 31
0.0
  0
LINE
  5
143
330
55
100
AcDbEntity
  8
0
  6
Continuous
 62
     7
100
AcDbLine
 10
-155.9738466318192
 20
251.7020078005504
 30
0.0
 11
-156.8398720356036
 21
251.2020078005504
 31
0.0
  0
LINE
  5
144
330
55
100
AcDbEntity
  8
0
  6
Continuous
 62
     7
100
AcDbLine
 10
-156.4738466318192
 20
252.5680332043349
 30
0.0
 11
-155.9738466318192
 21
251.7020078005504
 31
0.0
  0
LINE
  5
145
330
55
100
AcDbEntity
  8
0
  6
Continuous
 62
     7
100
AcDbLine
 10
-160.5719228431726
 20
253.6661094156882
 30
0.0
 11
-160.0719228431689
 21
252.8000840118974
 31
0.0
  0
LINE
  5
146
330
55
100
AcDbEntity
  8
0
  6
Continuous
 62
     7
100
AcDbLine
 10
-161.4379482469569
 20
253.1661094156882
 30
0.0
 11
-160.5719228431726
 21
253.6661094156882
 31
0.0
  0
LINE
  5
147
330
55
100
AcDbEntity
  8
0
  6
Continuous
 62
     7
100
AcDbLine
 10
-162.5360244583102
 20
249.0680332043349
 30
0.0
 11
-161.6699990545226
 21
249.5680332043368
 31
0.0
  0
LINE
  5
148
330
55
100
AcDbEntity
  8
0
  6
Continuous
 62
     7
100
AcDbLine
 10
-162.0360244583102
 20
248.2020078005504
 30
0.0
 11
-162.5360244583102
 21
249.0680332043349
 31
0.0
  0
LINE
  5
149
330
55
100
AcDbEntity
  8
0
  6
Continuous
 62
     7
100
AcDbLine
 10
-157.3398720356132
 20
252.0680332043293
 30
0.0
 11
-156.4738466318192
 21
252.5680332043349
 31
0.0
  0
LINE
  5
14A
330
55
100
AcDbEntity
  8
0
  6
Continuous
 62
     7
100
AcDbLine
 10
-160.9379482469552
 20
252.3000840119006
 30
0.0
 11
-161.4379482469569
 21
253.1661094156882
 31
0.0
  0
LINE
  5
14B
330
55
100
AcDbEntity
  8
0
  6
Continuous
 62
     7
100
AcDbLine
 10
-157.7717236881818
 20
249.9875950831867
 30
0.0
 11
-158.5719228431726
 21
250.2020078005504
 31
0.0
  0
LINE
  5
14C
330
55
100
AcDbEntity
  8
0
  6
Continuous
 62
     7
100
AcDbLine
 10
-157.5719228431744
 20
248.4699569929848
 30
0.0
 11
-157.0719228431726
 21
247.6039315891972
 31
0.0
  0
LINE
  5
14D
330
55
100
AcDbEntity
  8
0
  6
Continuous
 62
     7
100
AcDbLine
 10
-159.9379482469569
 20
250.5680332043349
 30
0.0
 11
-159.0719228431726
 21
251.0680332043349
 31
0.0
  0
LINE
  5
14E
330
55
100
AcDbEntity
  8
0
  6
Continuous
 62
     7
100
AcDbLine
 10
-159.4379482469569
 20
249.7020078005504
 30
0.0
 11
-159.9379482469569
 21
250.5680332043349
 31
0.0
  0
LINE
  5
14F
330
55
100
AcDbEntity
  8
0
  6
Continuous
 62
     7
100
AcDbLine
 10
-158.5719228431726
 20
250.2020078005504
 30
0.0
 11
-159.4379482469569
 21
249.7020078005504
 31
0.0
  0
LINE
  5
150
330
55
100
AcDbEntity
  8
0
  6
Continuous
 62
     7
100
AcDbLine
 10
-159.4379482469569
 20
249.7020078005504
 30
0.0
 11
-159.6523609643209
 21
248.9018086455598
 31
0.0
  0
LINE
  5
151
330
55
100
AcDbEntity
  8
0
  6
Continuous
 62
     7
100
AcDbLine
 10
-160.7381474019477
 20
250.7824459216987
 30
0.0
 11
-159.9379482469569
 21
250.5680332043349
 31
0.0
  0
LINE
  5
152
330
55
100
AcDbEntity
  8
0
  6
Continuous
 62
     7
100
AcDbLine
 10
-159.0719228431726
 20
251.0680332043349
 30
0.0
 11
-158.8575101258086
 21
251.8682323593256
 31
0.0
  0
LINE
  5
153
330
55
100
AcDbEntity
  8
0
  6
Continuous
 62
     7
100
AcDbLine
 10
-159.0719228431726
 20
251.0680332043349
 30
0.0
 11
-158.5719228431726
 21
250.2020078005504
 31
0.0
  0
LINE
  5
154
330
55
100
AcDbEntity
  8
0
  6
Continuous
 62
     7
100
AcDbLine
 10
-161.1699990545164
 20
248.7020078005561
 30
0.0
 11
-162.0360244583102
 21
248.2020078005504
 31
0.0
  0
ARC
  5
155
330
55
100
AcDbEntity
  8
0
  6
Continuous
 62
     7
100
AcDbCircle
 10
-158.3398720356036
 20
253.8000840119038
 30
0.0
 40
2.000000000000088
100
AcDbArc
 50
-149.9999999997899
 51
-104.9999999999982
  0
ARC
  5
156
330
55
100
AcDbEntity
  8
0
  6
Continuous
 62
     7
100
AcDbCircle
 10
-158.3398720356036
 20
253.8000840119038
 30
0.0
 40
2.000000000000066
100
AcDbArc
 50
-104.9999999999982
 51
-60.00000000031881
  0
ARC
  5
157
330
55
100
AcDbEntity
  8
0
  6
Continuous
 62
     7
100
AcDbCircle
 10
-162.6699990545258
 20
251.3000840119038
 30
0.0
 40
1.999999999999958
100
AcDbArc
 50
-15.00000000000237
 51
29.99999999989562
  0
ARC
  5
158
330
55
100
AcDbEntity
  8
0
  6
Continuous
 62
     7
100
AcDbCircle
 10
-155.8398720356036
 20
249.4699569929816
 30
0.0
 40
2.000000000000068
100
AcDbArc
 50
164.9999999999985
 51
-150.0000000001072
  0
ARC
  5
159
330
55
100
AcDbEntity
  8
0
  6
Continuous
 62
     7
100
AcDbCircle
 10
-160.1699990545258
 20
246.9699569929816
 30
0.0
 40
2.000000000000037
100
AcDbArc
 50
75.00000000000497
 51
119.9999999996868
  0
ARC
  5
15A
330
55
100
AcDbEntity
  8
0
  6
Continuous
 62
     7
100
AcDbCircle
 10
-155.8398720356036
 20
249.4699569929816
 30
0.0
 40
1.999999999999942
100
AcDbArc
 50
120.000000000001
 51
164.9999999999985
  0
ARC
  5
15B
330
55
100
AcDbEntity
  8
0
  6
Continuous
 62
     7
100
AcDbCircle
 10
-162.6699990545258
 20
251.3000840119038
 30
0.0
 40
1.999999999999959
100
AcDbArc
 50
-59.99999999989402
 51
-15.00000000000237
  0
ARC
  5
15C
330
55
100
AcDbEntity
  8
0
  6
Continuous
 62
     7
100
AcDbCircle
 10
-160.1699990545258
 20
246.9699569929816
 30
0.0
 40
2.000000000000044
100
AcDbArc
 50
30.00000000031704
 51
75.00000000000497
  0
CIRCLE
  5
15D
330
55
100
AcDbEntity
  8
0
  6
Continuous
 62
     3
100
AcDbCircle
 10
-159.2549355450647
 20
250.3850205024426
 30
0.0
 40
5.425531914894144
  0
CIRCLE
  5
15E
330
55
100
AcDbEntity
  8
0
  6
Continuous
 62
     7
100
AcDbCircle
 10
-159.2549355450647
 20
250.3850205024426
 30
0.0
 40
6.000000000000494
  0
ENDBLK
  5
57
330
55
100
AcDbEntity
  8
0
100
AcDbBlockEnd
  0
BLOCK
  5
59
330
58
100
AcDbEntity
  8
0
100
AcDbBlockBegin
  2
Blechschraube6_3x19_2_3_6
 70
     0
 71
     0
 10
-117.1191216286351
 20
-349.0649413153842
 30
0.0
  3
Blechschraube6_3x19_2_3_6
  1

  0
LINE
  5
15F
330
58
100
AcDbEntity
  8
1
  6
DOT_CENTER
 62
     2
100
AcDbLine
 10
-185.6153252383837
 20
193.3454101956985
 30
0.0
 11
-185.6153252383837
 21
180.1454101956975
 31
0.0
  0
LINE
  5
160
330
58
100
AcDbEntity
  8
1
  6
DOT_CENTER
 62
     2
100
AcDbLine
 10
-179.0153252383832
 20
186.745410195698
 30
0.0
 11
-192.2153252383842
 21
186.745410195698
 31
0.0
  0
LINE
  5
161
330
58
100
AcDbEntity
  8
0
  6
Continuous
 62
     7
100
AcDbLine
 10
-188.8666561078443
 20
188.1342397667015
 30
0.0
 11
-187.9007302815482
 21
187.875420721597
 31
0.0
  0
LINE
  5
162
330
58
100
AcDbEntity
  8
0
  6
Continuous
 62
     7
100
AcDbLine
 10
-189.1254751529468
 20
187.1683139404124
 30
0.0
 11
-188.8666561078443
 21
188.1342397667015
 31
0.0
  0
LINE
  5
163
330
58
100
AcDbEntity
  8
0
  6
Continuous
 62
     7
100
AcDbLine
 10
-187.0041548093871
 20
183.4940793262377
 30
0.0
 11
-186.7453357642837
 21
184.4600051525304
 31
0.0
  0
LINE
  5
164
330
58
100
AcDbEntity
  8
0
  6
Continuous
 62
     7
100
AcDbLine
 10
-186.0382289830981
 20
183.2352602811352
 30
0.0
 11
-187.0041548093871
 21
183.4940793262377
 31
0.0
  0
LINE
  5
165
330
58
100
AcDbEntity
  8
0
  6
Continuous
 62
     7
100
AcDbLine
 10
-185.9688786289771
 20
187.357782631394
 30
0.0
 11
-186.3830921913502
 21
188.0752215666082
 31
0.0
  0
LINE
  5
166
330
58
100
AcDbEntity
  8
0
  6
Continuous
 62
     7
100
AcDbLine
 10
-186.9451366092939
 20
185.9776432427318
 30
0.0
 11
-186.2276976740796
 21
186.3918568051049
 31
0.0
  0
LINE
  5
167
330
58
100
AcDbEntity
  8
0
  6
Continuous
 62
     7
100
AcDbLine
 10
-185.002952802688
 20
187.0989635862915
 30
0.0
 11
-185.2617718477905
 21
186.1330377600024
 31
0.0
  0
LINE
  5
168
330
58
100
AcDbEntity
  8
0
  6
Continuous
 62
     7
100
AcDbLine
 10
-185.2617718477905
 20
186.1330377600024
 30
0.0
 11
-186.2276976740796
 21
186.3918568051049
 31
0.0
  0
LINE
  5
169
330
58
100
AcDbEntity
  8
0
  6
Continuous
 62
     7
100
AcDbLine
 10
-185.9688786289771
 20
187.357782631394
 30
0.0
 11
-185.002952802688
 21
187.0989635862915
 31
0.0
  0
LINE
  5
16A
330
58
100
AcDbEntity
  8
0
  6
Continuous
 62
     7
100
AcDbLine
 10
-184.2855138674738
 20
187.5131771486646
 30
0.0
 11
-185.002952802688
 21
187.0989635862915
 31
0.0
  0
LINE
  5
16B
330
58
100
AcDbEntity
  8
0
  6
Continuous
 62
     7
100
AcDbLine
 10
-185.2617718477905
 20
186.1330377600024
 30
0.0
 11
-184.8475582854174
 21
185.4155988247881
 31
0.0
  0
LINE
  5
16C
330
58
100
AcDbEntity
  8
0
  6
Continuous
 62
     7
100
AcDbLine
 10
-186.2276976740796
 20
186.3918568051049
 30
0.0
 11
-185.9688786289771
 21
187.357782631394
 31
0.0
  0
LINE
  5
16D
330
58
100
AcDbEntity
  8
0
  6
Continuous
 62
     7
100
AcDbLine
 10
-188.1595493266541
 20
186.909494895309
 30
0.0
 11
-189.1254751529468
 21
187.1683139404124
 31
0.0
  0
LINE
  5
16E
330
58
100
AcDbEntity
  8
0
  6
Continuous
 62
     7
100
AcDbLine
 10
-183.0711011501135
 20
186.5813254960874
 30
0.0
 11
-182.1051753238208
 21
186.3225064509838
 31
0.0
  0
LINE
  5
16F
330
58
100
AcDbEntity
  8
0
  6
Continuous
 62
     7
100
AcDbLine
 10
-182.3639943689233
 20
185.3565806246949
 30
0.0
 11
-183.3299201952231
 21
185.6153996698002
 31
0.0
  0
LINE
  5
170
330
58
100
AcDbEntity
  8
0
  6
Continuous
 62
     7
100
AcDbLine
 10
-185.7794099379929
 20
184.201186107435
 30
0.0
 11
-186.0382289830981
 21
183.2352602811352
 31
0.0
  0
LINE
  5
171
330
58
100
AcDbEntity
  8
0
  6
Continuous
 62
     7
100
AcDbLine
 10
-185.4512405387749
 20
189.2896342839614
 30
0.0
 11
-185.1924214936695
 21
190.2555601102612
 31
0.0
  0
LINE
  5
172
330
58
100
AcDbEntity
  8
0
  6
Continuous
 62
     7
100
AcDbLine
 10
-184.2264956673805
 20
189.9967410651586
 30
0.0
 11
-184.485314712483
 21
189.0308152388695
 31
0.0
  0
LINE
  5
173
330
58
100
AcDbEntity
  8
0
  6
Continuous
 62
     7
100
AcDbLine
 10
-182.1051753238208
 20
186.3225064509838
 30
0.0
 11
-182.3639943689233
 21
185.3565806246949
 31
0.0
  0
LINE
  5
174
330
58
100
AcDbEntity
  8
0
  6
Continuous
 62
     7
100
AcDbLine
 10
-185.1924214936695
 20
190.2555601102612
 30
0.0
 11
-184.2264956673805
 21
189.9967410651586
 31
0.0
  0
ARC
  5
175
330
58
100
AcDbEntity
  8
0
  6
Continuous
 62
     7
100
AcDbCircle
 10
-187.3830921913502
 20
189.8072723741772
 30
0.0
 40
2.000000000000151
100
AcDbArc
 50
-104.9999999997901
 51
-60.0000000000015
  0
ARC
  5
176
330
58
100
AcDbEntity
  8
0
  6
Continuous
 62
     7
100
AcDbCircle
 10
-187.3830921913502
 20
189.8072723741772
 30
0.0
 40
2.00000000000009
100
AcDbArc
 50
-60.0000000000015
 51
-15.00000000031874
  0
ARC
  5
177
330
58
100
AcDbEntity
  8
0
  6
Continuous
 62
     7
100
AcDbCircle
 10
-188.6771874168628
 20
184.9776432427318
 30
0.0
 40
1.999999999999983
100
AcDbArc
 50
-14.99999999989176
 51
29.99999999999973
  0
ARC
  5
178
330
58
100
AcDbEntity
  8
0
  6
Continuous
 62
     7
100
AcDbCircle
 10
-188.6771874168628
 20
184.9776432427318
 30
0.0
 40
2.000000000000016
100
AcDbArc
 50
29.99999999999973
 51
74.99999999989122
  0
ARC
  5
179
330
58
100
AcDbEntity
  8
0
  6
Continuous
 62
     7
100
AcDbCircle
 10
-183.8475582854174
 20
183.6835480172192
 30
0.0
 40
1.999999999999984
100
AcDbArc
 50
75.00000000031899
 51
119.9999999999997
  0
ARC
  5
17A
330
58
100
AcDbEntity
  8
0
  6
Continuous
 62
     7
100
AcDbCircle
 10
-182.5534630599048
 20
188.5131771486646
 30
0.0
 40
2.000000000000017
100
AcDbArc
 50
165.000000000004
 51
-150.0000000000019
  0
ARC
  5
17B
330
58
100
AcDbEntity
  8
0
  6
Continuous
 62
     7
100
AcDbCircle
 10
-182.5534630599048
 20
188.5131771486646
 30
0.0
 40
2.000000000000115
100
AcDbArc
 50
-150.0000000000019
 51
-105.000000000108
  0
ARC
  5
17C
330
58
100
AcDbEntity
  8
0
  6
Continuous
 62
     7
100
AcDbCircle
 10
-183.8475582854174
 20
183.6835480172192
 30
0.0
 40
2.000000000000016
100
AcDbArc
 50
119.9999999999997
 51
164.999999999683
  0
CIRCLE
  5
17D
330
58
100
AcDbEntity
  8
0
  6
Continuous
 62
     3
100
AcDbCircle
 10
-185.6153252383837
 20
186.745410195698
 30
0.0
 40
5.425531914893972
  0
CIRCLE
  5
17E
330
58
100
AcDbEntity
  8
0
  6
Continuous
 62
     7
100
AcDbCircle
 10
-185.6153252383837
 20
186.745410195698
 30
0.0
 40
6.000000000000365
  0
ENDBLK
  5
5A
330
58
100
AcDbEntity
  8
0
100
AcDbBlockEnd
  0
BLOCK
  5
64
330
5B
100
AcDbEntity
  8
0
100
AcDbBlockBegin
  2
Bgr_Blechschrauben_1
 70
     0
 71
     0
 10
-117.1191216286351
 20
-439.0649413155375
 30
0.0
  3
Bgr_Blechschrauben_1
  1

  0
INSERT
  5
5C
330
5B
100
AcDbEntity
  8
0
100
AcDbBlockReference
  2
Blechschraube6_3x19_2_3_3
 10
36.52048867804598
 20
-412.7045516224348
 30
0.0
  0
INSERT
  5
5D
330
5B
100
AcDbEntity
  8
0
100
AcDbBlockReference
  2
Blechschraube6_3x19_2_3_4
 10
-27.11912162878815
 20
-439.0649413155375
 30
0.0
  0
INSERT
  5
5E
330
5B
100
AcDbEntity
  8
0
100
AcDbBlockReference
  2
Blechschraube6_3x19_2_3_5
 10
-90.7587319355327
 20
-412.7045516222183
 30
0.0
  0
INSERT
  5
5F
330
5B
100
AcDbEntity
  8
0
100
AcDbBlockReference
  2
Blechschraube6_3x19_2_3_8
 10
-27.11912162848199
 20
-259.0649413155372
 30
0.0
  0
INSERT
  5
60
330
5B
100
AcDbEntity
  8
0
100
AcDbBlockReference
  2
Blechschraube6_3x19_2_3
 10
36.5204886782625
 20
-285.4253310088564
 30
0.0
  0
INSERT
  5
61
330
5B
100
AcDbEntity
  8
0
100
AcDbBlockReference
  2
Blechschraube6_3x19_2_3_2
 10
62.88087837136487
 20
-349.0649413156903
 30
0.0
  0
INSERT
  5
62
330
5B
100
AcDbEntity
  8
0
100
AcDbBlockReference
  2
Blechschraube6_3x19_2_3_7
 10
-90.75873193531623
 20
-285.4253310086399
 30
0.0
  0
INSERT
  5
63
330
5B
100
AcDbEntity
  8
0
100
AcDbBlockReference
  2
Blechschraube6_3x19_2_3_6
 10
-117.1191216286351
 20
-349.0649413153842
 30
0.0
  0
ENDBLK
  5
65
330
5B
100
AcDbEntity
  8
0
100
AcDbBlockEnd
  0
BLOCK
  5
67
330
66
100
AcDbEntity
  8
0
100
AcDbBlockBegin
  2
8300-Klemmring__1
 70
     0
 71
     0
 10
-140.1191216286347
 20
-462.064941315537
 30
0.0
  3
8300-Klemmring__1
  1

  0
LINE
  5
17F
330
66
100
AcDbEntity
  8
1
  6
DOT_CENTER
 62
     2
100
AcDbLine
 10
-95.61532523838372
 20
313.385112392941
 30
0.0
 11
-95.61532523838372
 21
53.33571951445299
 31
0.0
  0
LINE
  5
180
330
66
100
AcDbEntity
  8
1
  6
DOT_CENTER
 62
     2
100
AcDbLine
 10
31.98933713799808
 20
186.745410195545
 30
0.0
 11
-230.5508280977179
 21
186.745410195545
 31
0.0
  0
LINE
  5
181
330
66
100
AcDbEntity
  8
0
  6
Continuous
 62
     7
100
AcDbLine
 10
-54.59871175250868
 20
269.877051134131
 30
0.0
 11
-55.23387893111016
 21
270.140145993882
 31
0.0
  0
LINE
  5
182
330
66
100
AcDbEntity
  8
0
  6
Continuous
 62
     7
100
AcDbLine
 10
-61.69834017119553
 20
269.232389349492
 30
0.0
 11
-61.64640111109969
 21
269.6844220740113
 31
0.0
  0
LINE
  5
183
330
66
100
AcDbEntity
  8
0
  6
Continuous
 62
     7
100
AcDbLine
 10
-70.41575347963482
 20
272.0314660204399
 30
0.0
 11
-70.30437216912111
 21
271.6470828084389
 31
0.0
  0
LINE
  5
184
330
66
100
AcDbEntity
  8
0
  6
Continuous
 62
     7
100
AcDbLine
 10
-70.50321707562574
 20
272.473591703223
 30
0.0
 11
-70.41575347963482
 21
272.0314660204399
 31
0.0
  0
LINE
  5
185
330
66
100
AcDbEntity
  8
0
  6
Continuous
 62
     7
100
AcDbLine
 10
-70.46118505726628
 20
273.065027083829
 30
0.0
 11
-70.50321707562574
 21
272.473591703223
 31
0.0
  0
LINE
  5
186
330
66
100
AcDbEntity
  8
0
  6
Continuous
 62
     7
100
AcDbLine
 10
-70.35150352638851
 20
273.4931420938256
 30
0.0
 11
-70.46118505726628
 21
273.065027083829
 31
0.0
  0
LINE
  5
187
330
66
100
AcDbEntity
  8
0
  6
Continuous
 62
     7
100
AcDbLine
 10
-68.86901766167267
 20
270.3760443794577
 30
0.0
 11
-68.49864512245807
 21
270.2902805631027
 31
0.0
  0
LINE
  5
188
330
66
100
AcDbEntity
  8
0
  6
Continuous
 62
     7
100
AcDbLine
 10
-68.86930929775195
 20
275.1116310553563
 30
0.0
 11
-69.21986775349393
 21
274.9185895595377
 31
0.0
  0
LINE
  5
189
330
66
100
AcDbEntity
  8
0
  6
Continuous
 62
     7
100
AcDbLine
 10
-69.21547248636438
 20
270.5195506665945
 30
0.0
 11
-68.86901766167267
 21
270.3760443794577
 31
0.0
  0
LINE
  5
18A
330
66
100
AcDbEntity
  8
0
  6
Continuous
 62
     7
100
AcDbLine
 10
-65.81956945982296
 20
272.0218506147832
 30
0.0
 11
-65.7098879289452
 21
272.4499656247796
 31
0.0
  0
LINE
  5
18B
330
66
100
AcDbEntity
  8
0
  6
Continuous
 62
     7
100
AcDbLine
 10
-65.7098879289452
 20
272.4499656247796
 30
0.0
 11
-65.66785591058573
 21
273.0414010053858
 31
0.0
  0
LINE
  5
18C
330
66
100
AcDbEntity
  8
0
  6
Continuous
 62
     7
100
AcDbLine
 10
-65.66785591058573
 20
273.0414010053858
 30
0.0
 11
-65.73140179205387
 21
273.5412691589506
 31
0.0
  0
LINE
  5
18D
330
66
100
AcDbEntity
  8
0
  6
Continuous
 62
     7
100
AcDbLine
 10
-65.73140179205387
 20
273.5412691589506
 30
0.0
 11
-65.84278310256758
 21
273.9256523709516
 31
0.0
  0
LINE
  5
18E
330
66
100
AcDbEntity
  8
0
  6
Continuous
 62
     7
100
AcDbLine
 10
-65.84278310256758
 20
273.9256523709516
 30
0.0
 11
-66.035824598386
 21
274.2762108266936
 31
0.0
  0
LINE
  5
18F
330
66
100
AcDbEntity
  8
0
  6
Continuous
 62
     7
100
AcDbLine
 10
-66.035824598386
 20
274.2762108266936
 30
0.0
 11
-66.27670152325021
 21
274.5112843408716
 31
0.0
  0
LINE
  5
190
330
66
100
AcDbEntity
  8
0
  6
Continuous
 62
     7
100
AcDbLine
 10
-66.27670152325021
 20
274.5112843408716
 30
0.0
 11
-66.63306338967828
 21
274.7941932840953
 31
0.0
  0
LINE
  5
191
330
66
100
AcDbEntity
  8
0
  6
Continuous
 62
     7
100
AcDbLine
 10
-65.96307574695987
 20
271.6753957900914
 30
0.0
 11
-65.81956945982296
 21
272.0218506147832
 31
0.0
  0
LINE
  5
192
330
66
100
AcDbEntity
  8
0
  6
Continuous
 62
     7
100
AcDbLine
 10
-66.18824221940162
 20
271.2951162091405
 30
0.0
 11
-65.96307574695987
 21
271.6753957900914
 31
0.0
  0
LINE
  5
193
330
66
100
AcDbEntity
  8
0
  6
Continuous
 62
     7
100
AcDbLine
 10
-66.95120523271765
 20
270.5964031490709
 30
0.0
 11
-66.57672906245278
 21
270.8471871156713
 31
0.0
  0
LINE
  5
194
330
66
100
AcDbEntity
  8
0
  6
Continuous
 62
     7
100
AcDbLine
 10
-67.3017636884594
 20
270.4033616532524
 30
0.0
 11
-66.95120523271765
 21
270.5964031490709
 31
0.0
  0
LINE
  5
195
330
66
100
AcDbEntity
  8
0
  6
Continuous
 62
     7
100
AcDbLine
 10
-67.76780708576536
 20
270.2581555864795
 30
0.0
 11
-67.3017636884594
 21
270.4033616532524
 31
0.0
  0
LINE
  5
196
330
66
100
AcDbEntity
  8
0
  6
Continuous
 62
     7
100
AcDbLine
 10
-68.04661239793876
 20
270.238341503007
 30
0.0
 11
-67.76780708576536
 21
270.2581555864795
 31
0.0
  0
LINE
  5
197
330
66
100
AcDbEntity
  8
0
  6
Continuous
 62
     7
100
AcDbLine
 10
-68.49864512245807
 20
270.2902805631027
 30
0.0
 11
-68.04661239793876
 21
270.238341503007
 31
0.0
  0
LINE
  5
198
330
66
100
AcDbEntity
  8
0
  6
Continuous
 62
     7
100
AcDbLine
 10
-66.63306338967828
 20
274.7941932840953
 30
0.0
 11
-66.9556004998471
 21
274.9954420420141
 31
0.0
  0
LINE
  5
199
330
66
100
AcDbEntity
  8
0
  6
Continuous
 62
     7
100
AcDbLine
 10
-56.45467807963161
 20
269.9693224329503
 30
0.0
 11
-56.21550093440345
 21
270.5467471407699
 31
0.0
  0
LINE
  5
19A
330
66
100
AcDbEntity
  8
0
  6
Continuous
 62
     7
100
AcDbLine
 10
-56.21550093440345
 20
270.5467471407699
 30
0.0
 11
-59.50682176897493
 21
271.9100568685705
 31
0.0
  0
LINE
  5
19B
330
66
100
AcDbEntity
  8
0
  6
Continuous
 62
     7
100
AcDbLine
 10
-59.11083173560161
 20
271.069537301
 30
0.0
 11
-56.45467807963161
 21
269.9693224329503
 31
0.0
  0
LINE
  5
19C
330
66
100
AcDbEntity
  8
0
  6
Continuous
 62
     7
100
AcDbLine
 10
-66.57672906245278
 20
270.8471871156713
 30
0.0
 11
-66.18824221940162
 21
271.2951162091405
 31
0.0
  0
LINE
  5
19D
330
66
100
AcDbEntity
  8
0
  6
Continuous
 62
     7
100
AcDbLine
 10
-61.38910966203486
 20
270.7955396916549
 30
0.0
 11
-61.21177861863879
 21
271.0603343310419
 31
0.0
  0
LINE
  5
19E
330
66
100
AcDbEntity
  8
0
  6
Continuous
 62
     7
100
AcDbLine
 10
-61.21177861863879
 20
271.0603343310419
 30
0.0
 11
-61.11610776054755
 21
271.2913042141698
 31
0.0
  0
LINE
  5
19F
330
66
100
AcDbEntity
  8
0
  6
Continuous
 62
     7
100
AcDbLine
 10
-61.11610776054755
 20
271.2913042141698
 30
0.0
 11
-61.05426165871546
 21
271.6039342826023
 31
0.0
  0
LINE
  5
1A0
330
66
100
AcDbEntity
  8
0
  6
Continuous
 62
     7
100
AcDbLine
 10
-60.54589460697065
 20
267.6049890540826
 30
0.0
 11
-59.92403402937742
 21
269.1062932944135
 31
0.0
  0
LINE
  5
1A1
330
66
100
AcDbEntity
  8
0
  6
Continuous
 62
     7
100
AcDbLine
 10
-59.50682176897493
 20
271.9100568685705
 30
0.0
 11
-61.4202389308004
 21
267.2906592060141
 31
0.0
  0
LINE
  5
1A2
330
66
100
AcDbEntity
  8
0
  6
Continuous
 62
     7
100
AcDbLine
 10
-67.6724278637534
 20
275.2247121455059
 30
0.0
 11
-68.1244605882726
 21
275.2766512056018
 31
0.0
  0
LINE
  5
1A3
330
66
100
AcDbEntity
  8
0
  6
Continuous
 62
     7
100
AcDbLine
 10
-68.1244605882726
 20
275.2766512056018
 30
0.0
 11
-68.40326590044612
 21
275.2568371221291
 31
0.0
  0
LINE
  5
1A4
330
66
100
AcDbEntity
  8
0
  6
Continuous
 62
     7
100
AcDbLine
 10
-68.40326590044612
 20
275.2568371221291
 30
0.0
 11
-68.86930929775195
 21
275.1116310553563
 31
0.0
  0
LINE
  5
1A5
330
66
100
AcDbEntity
  8
0
  6
Continuous
 62
     7
100
AcDbLine
 10
-66.9556004998471
 20
274.9954420420141
 30
0.0
 11
-67.30205532453891
 21
275.1389483291511
 31
0.0
  0
LINE
  5
1A6
330
66
100
AcDbEntity
  8
0
  6
Continuous
 62
     7
100
AcDbLine
 10
-67.30205532453891
 20
275.1389483291511
 30
0.0
 11
-67.6724278637534
 21
275.2247121455059
 31
0.0
  0
LINE
  5
1A7
330
66
100
AcDbEntity
  8
0
  6
Continuous
 62
     7
100
AcDbLine
 10
-69.21986775349393
 20
274.9185895595377
 30
0.0
 11
-69.59434392375869
 21
274.6678055929373
 31
0.0
  0
LINE
  5
1A8
330
66
100
AcDbEntity
  8
0
  6
Continuous
 62
     7
100
AcDbLine
 10
-69.59434392375869
 20
274.6678055929373
 30
0.0
 11
-69.98283076680985
 21
274.2198764994682
 31
0.0
  0
LINE
  5
1A9
330
66
100
AcDbEntity
  8
0
  6
Continuous
 62
     7
100
AcDbLine
 10
-69.0886723595076
 20
274.2554010353632
 30
0.0
 11
-68.79585637454767
 21
274.4723602457045
 31
0.0
  0
LINE
  5
1AA
330
66
100
AcDbEntity
  8
0
  6
Continuous
 62
     7
100
AcDbLine
 10
-68.79585637454767
 20
274.4723602457045
 30
0.0
 11
-68.55087581863341
 21
274.5738345144819
 31
0.0
  0
LINE
  5
1AB
330
66
100
AcDbEntity
  8
0
  6
Continuous
 62
     7
100
AcDbLine
 10
-68.55087581863341
 20
274.5738345144819
 30
0.0
 11
-68.32981297724172
 21
274.6175663124774
 31
0.0
  0
LINE
  5
1AC
330
66
100
AcDbEntity
  8
0
  6
Continuous
 62
     7
100
AcDbLine
 10
-68.32981297724172
 20
274.6175663124774
 30
0.0
 11
-67.93552272350445
 21
274.5895449669044
 31
0.0
  0
LINE
  5
1AD
330
66
100
AcDbEntity
  8
0
  6
Continuous
 62
     7
100
AcDbLine
 10
-67.93552272350445
 20
274.5895449669044
 30
0.0
 11
-67.56515018428985
 21
274.5037811505496
 31
0.0
  0
LINE
  5
1AE
330
66
100
AcDbEntity
  8
0
  6
Continuous
 62
     7
100
AcDbLine
 10
-67.56515018428985
 20
274.5037811505496
 30
0.0
 11
-67.21869535959814
 21
274.3602748634125
 31
0.0
  0
LINE
  5
1AF
330
66
100
AcDbEntity
  8
0
  6
Continuous
 62
     7
100
AcDbLine
 10
-67.21869535959814
 20
274.3602748634125
 30
0.0
 11
-66.89615824942933
 21
274.1590261054937
 31
0.0
  0
LINE
  5
1B0
330
66
100
AcDbEntity
  8
0
  6
Continuous
 62
     7
100
AcDbLine
 10
-69.34766358820838
 20
273.9567816397171
 30
0.0
 11
-69.0886723595076
 21
274.2554010353632
 31
0.0
  0
LINE
  5
1B1
330
66
100
AcDbEntity
  8
0
  6
Continuous
 62
     7
100
AcDbLine
 10
-69.98283076680985
 20
274.2198764994682
 30
0.0
 11
-70.2079972392516
 21
273.8395969185173
 31
0.0
  0
LINE
  5
1B2
330
66
100
AcDbEntity
  8
0
  6
Continuous
 62
     7
100
AcDbLine
 10
-66.89615824942933
 20
274.1590261054937
 30
0.0
 11
-66.59753885378319
 21
273.9000348767929
 31
0.0
  0
LINE
  5
1B3
330
66
100
AcDbEntity
  8
0
  6
Continuous
 62
     7
100
AcDbLine
 10
-66.59753885378319
 20
273.9000348767929
 30
0.0
 11
-66.47214687048285
 21
273.7127967916604
 31
0.0
  0
LINE
  5
1B4
330
66
100
AcDbEntity
  8
0
  6
Continuous
 62
     7
100
AcDbLine
 10
-69.57283006065
 20
273.5765020587663
 30
0.0
 11
-69.34766358820838
 21
273.9567816397171
 31
0.0
  0
LINE
  5
1B5
330
66
100
AcDbEntity
  8
0
  6
Continuous
 62
     7
100
AcDbLine
 10
-69.57353413242839
 20
271.6149578318157
 30
0.0
 11
-69.69892611572863
 21
271.8021959169481
 31
0.0
  0
LINE
  5
1B6
330
66
100
AcDbEntity
  8
0
  6
Continuous
 62
     7
100
AcDbLine
 10
-69.27491473678236
 20
271.355966603115
 30
0.0
 11
-69.57353413242839
 21
271.6149578318157
 31
0.0
  0
LINE
  5
1B7
330
66
100
AcDbEntity
  8
0
  6
Continuous
 62
     7
100
AcDbLine
 10
-66.8234093980031
 20
271.5582110688915
 30
0.0
 11
-67.08240062670387
 21
271.2595916732454
 31
0.0
  0
LINE
  5
1B8
330
66
100
AcDbEntity
  8
0
  6
Continuous
 62
     7
100
AcDbLine
 10
-70.30437216912111
 20
271.6470828084389
 30
0.0
 11
-70.07750591704354
 21
271.2148641673922
 31
0.0
  0
LINE
  5
1B9
330
66
100
AcDbEntity
  8
0
  6
Continuous
 62
     7
100
AcDbLine
 10
-70.07750591704354
 20
271.2148641673922
 30
0.0
 11
-69.89437146296126
 21
271.0037083677371
 31
0.0
  0
LINE
  5
1BA
330
66
100
AcDbEntity
  8
0
  6
Continuous
 62
     7
100
AcDbLine
 10
-68.95237762661333
 20
271.1547178451961
 30
0.0
 11
-69.27491473678236
 21
271.355966603115
 31
0.0
  0
LINE
  5
1BB
330
66
100
AcDbEntity
  8
0
  6
Continuous
 62
     7
100
AcDbLine
 10
-68.60592280192151
 20
271.0112115580591
 30
0.0
 11
-68.95237762661333
 21
271.1547178451961
 31
0.0
  0
LINE
  5
1BC
330
66
100
AcDbEntity
  8
0
  6
Continuous
 62
     7
100
AcDbLine
 10
-67.3752166116638
 20
271.0426324629041
 30
0.0
 11
-67.62019716757817
 21
270.9411581941267
 31
0.0
  0
LINE
  5
1BD
330
66
100
AcDbEntity
  8
0
  6
Continuous
 62
     7
100
AcDbLine
 10
-67.08240062670387
 20
271.2595916732454
 30
0.0
 11
-67.3752166116638
 21
271.0426324629041
 31
0.0
  0
LINE
  5
1BE
330
66
100
AcDbEntity
  8
0
  6
Continuous
 62
     7
100
AcDbLine
 10
-70.2079972392516
 20
273.8395969185173
 30
0.0
 11
-70.35150352638851
 21
273.4931420938256
 31
0.0
  0
LINE
  5
1BF
330
66
100
AcDbEntity
  8
0
  6
Continuous
 62
     7
100
AcDbLine
 10
-66.47214687048285
 20
273.7127967916604
 30
0.0
 11
-66.37067260170551
 21
273.4678162357462
 31
0.0
  0
LINE
  5
1C0
330
66
100
AcDbEntity
  8
0
  6
Continuous
 62
     7
100
AcDbLine
 10
-69.69892611572863
 20
271.8021959169481
 30
0.0
 11
-69.80040038450596
 21
272.0471764728624
 31
0.0
  0
LINE
  5
1C1
330
66
100
AcDbEntity
  8
0
  6
Continuous
 62
     7
100
AcDbLine
 10
-66.59824292556135
 20
271.9384906498423
 30
0.0
 11
-66.8234093980031
 21
271.5582110688915
 31
0.0
  0
LINE
  5
1C2
330
66
100
AcDbEntity
  8
0
  6
Continuous
 62
     7
100
AcDbLine
 10
-69.80040038450596
 20
272.0471764728624
 30
0.0
 11
-69.85403922423774
 21
272.4076419703407
 31
0.0
  0
LINE
  5
1C3
330
66
100
AcDbEntity
  8
0
  6
Continuous
 62
     7
100
AcDbLine
 10
-66.45473663842444
 20
272.2849454745341
 30
0.0
 11
-66.59824292556135
 21
271.9384906498423
 31
0.0
  0
LINE
  5
1C4
330
66
100
AcDbEntity
  8
0
  6
Continuous
 62
     7
100
AcDbLine
 10
-69.85403922423774
 20
272.4076419703407
 30
0.0
 11
-69.8260178786648
 21
272.801932224078
 31
0.0
  0
LINE
  5
1C5
330
66
100
AcDbEntity
  8
0
  6
Continuous
 62
     7
100
AcDbLine
 10
-66.34505510754667
 20
272.7130604845306
 30
0.0
 11
-66.45473663842444
 21
272.2849454745341
 31
0.0
  0
LINE
  5
1C6
330
66
100
AcDbEntity
  8
0
  6
Continuous
 62
     7
100
AcDbLine
 10
-69.8260178786648
 20
272.801932224078
 30
0.0
 11
-69.71633634778703
 21
273.2300472340745
 31
0.0
  0
LINE
  5
1C7
330
66
100
AcDbEntity
  8
0
  6
Continuous
 62
     7
100
AcDbLine
 10
-66.31703376197373
 20
273.107350738268
 30
0.0
 11
-66.34505510754667
 21
272.7130604845306
 31
0.0
  0
LINE
  5
1C8
330
66
100
AcDbEntity
  8
0
  6
Continuous
 62
     7
100
AcDbLine
 10
-69.53800959653319
 20
270.7207994245134
 30
0.0
 11
-69.21547248636438
 21
270.5195506665945
 31
0.0
  0
LINE
  5
1C9
330
66
100
AcDbEntity
  8
0
  6
Continuous
 62
     7
100
AcDbLine
 10
-68.23555026270714
 20
270.9254477417043
 30
0.0
 11
-68.60592280192151
 21
271.0112115580591
 31
0.0
  0
LINE
  5
1CA
330
66
100
AcDbEntity
  8
0
  6
Continuous
 62
     7
100
AcDbLine
 10
-67.84126000896975
 20
270.8974263961312
 30
0.0
 11
-68.23555026270714
 21
270.9254477417043
 31
0.0
  0
LINE
  5
1CB
330
66
100
AcDbEntity
  8
0
  6
Continuous
 62
     7
100
AcDbLine
 10
-67.62019716757817
 20
270.9411581941267
 30
0.0
 11
-67.84126000896975
 21
270.8974263961312
 31
0.0
  0
LINE
  5
1CC
330
66
100
AcDbEntity
  8
0
  6
Continuous
 62
     7
100
AcDbLine
 10
-69.71633634778703
 20
273.2300472340745
 30
0.0
 11
-69.57283006065
 21
273.5765020587663
 31
0.0
  0
LINE
  5
1CD
330
66
100
AcDbEntity
  8
0
  6
Continuous
 62
     7
100
AcDbLine
 10
-66.37067260170551
 20
273.4678162357462
 30
0.0
 11
-66.31703376197373
 21
273.107350738268
 31
0.0
  0
LINE
  5
1CE
330
66
100
AcDbEntity
  8
0
  6
Continuous
 62
     7
100
AcDbLine
 10
-62.35332143326974
 20
269.7742895214165
 30
0.0
 11
-62.39124982057905
 21
269.5194019237658
 31
0.0
  0
LINE
  5
1CF
330
66
100
AcDbEntity
  8
0
  6
Continuous
 62
     7
100
AcDbLine
 10
-61.14172525470639
 20
272.0460599653853
 30
0.0
 11
-61.27702427974288
 21
272.3727007066044
 31
0.0
  0
LINE
  5
1D0
330
66
100
AcDbEntity
  8
0
  6
Continuous
 62
     7
100
AcDbLine
 10
-61.90638804765826
 20
272.1598451273133
 30
0.0
 11
-61.78099606435802
 21
271.9726070421809
 31
0.0
  0
LINE
  5
1D1
330
66
100
AcDbEntity
  8
0
  6
Continuous
 62
     7
100
AcDbLine
 10
-62.11344021626331
 20
272.3132584561865
 30
0.0
 11
-61.90638804765826
 21
272.1598451273133
 31
0.0
  0
LINE
  5
1D2
330
66
100
AcDbEntity
  8
0
  6
Continuous
 62
     7
100
AcDbLine
 10
-62.59009472708368
 20
270.3459108185499
 30
0.0
 11
-62.4308779875243
 21
270.0770125481128
 31
0.0
  0
LINE
  5
1D3
330
66
100
AcDbEntity
  8
0
  6
Continuous
 62
     7
100
AcDbLine
 10
-62.85488936647056
 20
270.5232418619459
 30
0.0
 11
-62.59009472708368
 21
270.3459108185499
 31
0.0
  0
LINE
  5
1D4
330
66
100
AcDbEntity
  8
0
  6
Continuous
 62
     7
100
AcDbLine
 10
-61.92690620290915
 20
270.4771062125362
 30
0.0
 11
-61.76358583229961
 21
270.5447557250545
 31
0.0
  0
LINE
  5
1D5
330
66
100
AcDbEntity
  8
0
  6
Continuous
 62
     7
100
AcDbLine
 10
-61.73386470709062
 20
270.1265477567944
 30
0.0
 11
-61.92690620290915
 21
270.4771062125362
 31
0.0
  0
LINE
  5
1D6
330
66
100
AcDbEntity
  8
0
  6
Continuous
 62
     7
100
AcDbLine
 10
-61.97644141159077
 20
271.1741194929698
 30
0.0
 11
-62.16367949672309
 21
271.0487275096696
 31
0.0
  0
LINE
  5
1D7
330
66
100
AcDbEntity
  8
0
  6
Continuous
 62
     7
100
AcDbLine
 10
-61.84694579724027
 20
271.3234291907929
 30
0.0
 11
-61.97644141159077
 21
271.1741194929698
 31
0.0
  0
LINE
  5
1D8
330
66
100
AcDbEntity
  8
0
  6
Continuous
 62
     7
100
AcDbLine
 10
-61.76358583229961
 20
270.5447557250545
 30
0.0
 11
-61.38910966203486
 21
270.7955396916549
 31
0.0
  0
LINE
  5
1D9
330
66
100
AcDbEntity
  8
0
  6
Continuous
 62
     7
100
AcDbLine
 10
-62.16367949672309
 20
271.0487275096696
 30
0.0
 11
-62.38474233811456
 21
271.0049957116743
 31
0.0
  0
LINE
  5
1DA
330
66
100
AcDbEntity
  8
0
  6
Continuous
 62
     7
100
AcDbLine
 10
-62.4308779875243
 20
270.0770125481128
 30
0.0
 11
-62.35332143326974
 21
269.7742895214165
 31
0.0
  0
LINE
  5
1DB
330
66
100
AcDbEntity
  8
0
  6
Continuous
 62
     7
100
AcDbLine
 10
-62.38474233811456
 20
271.0049957116743
 30
0.0
 11
-62.6396299357653
 21
271.0429240989835
 31
0.0
  0
LINE
  5
1DC
330
66
100
AcDbEntity
  8
0
  6
Continuous
 62
     7
100
AcDbLine
 10
-61.64640111109969
 20
269.6844220740113
 30
0.0
 11
-61.73386470709062
 21
270.1265477567944
 31
0.0
  0
LINE
  5
1DD
330
66
100
AcDbEntity
  8
0
  6
Continuous
 62
     7
100
AcDbLine
 10
-61.75127493914903
 20
271.5543990739208
 30
0.0
 11
-61.84694579724027
 21
271.3234291907929
 31
0.0
  0
LINE
  5
1DE
330
66
100
AcDbEntity
  8
0
  6
Continuous
 62
     7
100
AcDbLine
 10
-61.55172596086624
 20
272.6894344060872
 30
0.0
 11
-61.81652060025311
 21
272.8667654494832
 31
0.0
  0
LINE
  5
1DF
330
66
100
AcDbEntity
  8
0
  6
Continuous
 62
     7
100
AcDbLine
 10
-61.78099606435802
 20
271.9726070421809
 30
0.0
 11
-61.73726426636262
 21
271.7515442007895
 31
0.0
  0
LINE
  5
1E0
330
66
100
AcDbEntity
  8
0
  6
Continuous
 62
     7
100
AcDbLine
 10
-61.27702427974288
 20
272.3727007066044
 30
0.0
 11
-61.55172596086624
 21
272.6894344060872
 31
0.0
  0
LINE
  5
1E1
330
66
100
AcDbEntity
  8
0
  6
Continuous
 62
     7
100
AcDbLine
 10
-61.05426165871546
 20
271.6039342826023
 30
0.0
 11
-61.14172525470639
 21
272.0460599653853
 31
0.0
  0
LINE
  5
1E2
330
66
100
AcDbEntity
  8
0
  6
Continuous
 62
     7
100
AcDbLine
 10
-61.73726426636262
 20
271.7515442007895
 30
0.0
 11
-61.75127493914903
 21
271.5543990739208
 31
0.0
  0
LINE
  5
1E3
330
66
100
AcDbEntity
  8
0
  6
Continuous
 62
     7
100
AcDbLine
 10
-59.68485688414916
 20
269.6837180022332
 30
0.0
 11
-59.11083173560161
 21
271.069537301
 31
0.0
  0
LINE
  5
1E4
330
66
100
AcDbEntity
  8
0
  6
Continuous
 62
     7
100
AcDbLine
 10
-61.81652060025311
 20
272.8667654494832
 30
0.0
 11
-64.01073448996743
 21
273.7756386013504
 31
0.0
  0
LINE
  5
1E5
330
66
100
AcDbEntity
  8
0
  6
Continuous
 62
     7
100
AcDbLine
 10
-64.01073448996743
 20
273.7756386013504
 30
0.0
 11
-65.9241516517929
 21
269.1562409387939
 31
0.0
  0
LINE
  5
1E6
330
66
100
AcDbEntity
  8
0
  6
Continuous
 62
     7
100
AcDbLine
 10
-69.89437146296126
 20
271.0037083677371
 30
0.0
 11
-69.53800959653319
 21
270.7207994245134
 31
0.0
  0
LINE
  5
1E7
330
66
100
AcDbEntity
  8
0
  6
Continuous
 62
     7
100
AcDbLine
 10
-64.1409341760961
 20
271.6647846765768
 30
0.0
 11
-63.61474445659411
 21
272.9351190337799
 31
0.0
  0
LINE
  5
1E8
330
66
100
AcDbEntity
  8
0
  6
Continuous
 62
     7
100
AcDbLine
 10
-63.61474445659411
 20
272.9351190337799
 30
0.0
 11
-62.11344021626331
 21
272.3132584561865
 31
0.0
  0
LINE
  5
1E9
330
66
100
AcDbEntity
  8
0
  6
Continuous
 62
     7
100
AcDbLine
 10
-62.6396299357653
 20
271.0429240989835
 30
0.0
 11
-64.1409341760961
 21
271.6647846765768
 31
0.0
  0
LINE
  5
1EA
330
66
100
AcDbEntity
  8
0
  6
Continuous
 62
     7
100
AcDbLine
 10
-64.35619360680147
 20
271.1451024395392
 30
0.0
 11
-62.85488936647056
 21
270.5232418619459
 31
0.0
  0
LINE
  5
1EB
330
66
100
AcDbEntity
  8
0
  6
Continuous
 62
     7
100
AcDbLine
 10
-65.02588961344037
 20
269.5283132576444
 30
0.0
 11
-64.35619360680147
 21
271.1451024395392
 31
0.0
  0
LINE
  5
1EC
330
66
100
AcDbEntity
  8
0
  6
Continuous
 62
     7
100
AcDbLine
 10
-53.71416875086328
 20
265.3163916502142
 30
0.0
 11
-54.59871175250868
 21
269.877051134131
 31
0.0
  0
LINE
  5
1ED
330
66
100
AcDbEntity
  8
0
  6
Continuous
 62
     7
100
AcDbLine
 10
-62.39124982057905
 20
269.5194019237658
 30
0.0
 11
-62.48692067867029
 21
269.288432040638
 31
0.0
  0
LINE
  5
1EE
330
66
100
AcDbEntity
  8
0
  6
Continuous
 62
     7
100
AcDbLine
 10
-62.48692067867029
 20
269.288432040638
 30
0.0
 11
-62.64033400754357
 21
269.081379872033
 31
0.0
  0
LINE
  5
1EF
330
66
100
AcDbEntity
  8
0
  6
Continuous
 62
     7
100
AcDbLine
 10
-62.64033400754357
 20
269.081379872033
 30
0.0
 11
-62.90923227798061
 21
268.9221631324737
 31
0.0
  0
LINE
  5
1F0
330
66
100
AcDbEntity
  8
0
  6
Continuous
 62
     7
100
AcDbLine
 10
-63.52458537310946
 20
268.9064526800511
 30
0.0
 11
-65.02588961344037
 21
269.5283132576444
 31
0.0
  0
LINE
  5
1F1
330
66
100
AcDbEntity
  8
0
  6
Continuous
 62
     7
100
AcDbLine
 10
-59.92403402937742
 20
269.1062932944135
 30
0.0
 11
-57.49885025653526
 21
268.1017492844551
 31
0.0
  0
LINE
  5
1F2
330
66
100
AcDbEntity
  8
0
  6
Continuous
 62
     7
100
AcDbLine
 10
-57.25967311130711
 20
268.6791739922747
 30
0.0
 11
-59.68485688414916
 21
269.6837180022332
 31
0.0
  0
LINE
  5
1F3
330
66
100
AcDbEntity
  8
0
  6
Continuous
 62
     7
100
AcDbLine
 10
-61.81792874380966
 20
268.9436769955822
 30
0.0
 11
-61.69834017119553
 21
269.232389349492
 31
0.0
  0
LINE
  5
1F4
330
66
100
AcDbEntity
  8
0
  6
Continuous
 62
     7
100
AcDbLine
 10
-65.9241516517929
 20
269.1562409387939
 30
0.0
 11
-63.72993776207858
 21
268.2473677869268
 31
0.0
  0
LINE
  5
1F5
330
66
100
AcDbEntity
  8
0
  6
Continuous
 62
     7
100
AcDbLine
 10
-55.23387893111016
 20
270.140145993882
 30
0.0
 11
-57.14729609293562
 21
265.5207483313257
 31
0.0
  0
LINE
  5
1F6
330
66
100
AcDbEntity
  8
0
  6
Continuous
 62
     7
100
AcDbLine
 10
-63.21195530467691
 20
268.844606578219
 30
0.0
 11
-63.52458537310946
 21
268.9064526800511
 31
0.0
  0
LINE
  5
1F7
330
66
100
AcDbEntity
  8
0
  6
Continuous
 62
     7
100
AcDbLine
 10
-63.22016256677722
 20
268.1715110123082
 30
0.0
 11
-62.80195459851717
 21
268.2012321375171
 31
0.0
  0
LINE
  5
1F8
330
66
100
AcDbEntity
  8
0
  6
Continuous
 62
     7
100
AcDbLine
 10
-62.10083768703333
 20
268.5873151291542
 30
0.0
 11
-61.81792874380966
 21
268.9436769955822
 31
0.0
  0
LINE
  5
1F9
330
66
100
AcDbEntity
  8
0
  6
Continuous
 62
     7
100
AcDbLine
 10
-62.39365367199315
 20
268.370355918813
 30
0.0
 11
-62.10083768703333
 21
268.5873151291542
 31
0.0
  0
LINE
  5
1FA
330
66
100
AcDbEntity
  8
0
  6
Continuous
 62
     7
100
AcDbLine
 10
-62.80195459851717
 20
268.2012321375171
 30
0.0
 11
-62.39365367199315
 21
268.370355918813
 31
0.0
  0
LINE
  5
1FB
330
66
100
AcDbEntity
  8
0
  6
Continuous
 62
     7
100
AcDbLine
 10
-62.90923227798061
 20
268.9221631324737
 30
0.0
 11
-63.21195530467691
 21
268.844606578219
 31
0.0
  0
LINE
  5
1FC
330
66
100
AcDbEntity
  8
0
  6
Continuous
 62
     7
100
AcDbLine
 10
-63.72993776207858
 20
268.2473677869268
 30
0.0
 11
-63.22016256677722
 21
268.1715110123082
 31
0.0
  0
LINE
  5
1FD
330
66
100
AcDbEntity
  8
0
  6
Continuous
 62
     7
100
AcDbLine
 10
-57.49885025653526
 20
268.1017492844551
 30
0.0
 11
-57.25967311130711
 21
268.6791739922747
 31
0.0
  0
LINE
  5
1FE
330
66
100
AcDbEntity
  8
0
  6
Continuous
 62
     7
100
AcDbLine
 10
-58.07117562544698
 20
265.9034317636907
 30
0.0
 11
-57.83199848021872
 21
266.4808564715103
 31
0.0
  0
LINE
  5
1FF
330
66
100
AcDbEntity
  8
0
  6
Continuous
 62
     7
100
AcDbLine
 10
-57.83199848021872
 20
266.4808564715103
 30
0.0
 11
-60.54589460697065
 21
267.6049890540826
 31
0.0
  0
LINE
  5
200
330
66
100
AcDbEntity
  8
0
  6
Continuous
 62
     7
100
AcDbLine
 10
-61.4202389308004
 20
267.2906592060141
 30
0.0
 11
-58.07117562544698
 21
265.9034317636907
 31
0.0
  0
LINE
  5
201
330
66
100
AcDbEntity
  8
0
  6
Continuous
 62
     7
100
AcDbLine
 10
-57.14729609293562
 20
265.5207483313257
 30
0.0
 11
-56.56987138511607
 21
265.2815711860974
 31
0.0
  0
LINE
  5
202
330
66
100
AcDbEntity
  8
0
  6
Continuous
 62
     7
100
AcDbLine
 10
-56.56987138511607
 20
265.2815711860974
 30
0.0
 11
-55.08697308470136
 21
268.8616043745788
 31
0.0
  0
LINE
  5
203
330
66
100
AcDbEntity
  8
0
  6
Continuous
 62
     7
100
AcDbLine
 10
-55.08697308470136
 20
268.8616043745788
 30
0.0
 11
-54.20243008305596
 21
264.3009448906618
 31
0.0
  0
LINE
  5
204
330
66
100
AcDbEntity
  8
0
  6
Continuous
 62
     7
100
AcDbLine
 10
-54.20243008305596
 20
264.3009448906618
 30
0.0
 11
-53.56726290445437
 21
264.0378500309109
 31
0.0
  0
LINE
  5
205
330
66
100
AcDbEntity
  8
0
  6
Continuous
 62
     7
100
AcDbLine
 10
-53.56726290445437
 20
264.0378500309109
 30
0.0
 11
-51.65384574262902
 21
268.6572476934673
 31
0.0
  0
LINE
  5
206
330
66
100
AcDbEntity
  8
0
  6
Continuous
 62
     7
100
AcDbLine
 10
-51.65384574262902
 20
268.6572476934673
 30
0.0
 11
-52.23127045044856
 21
268.8964248386955
 31
0.0
  0
LINE
  5
207
330
66
100
AcDbEntity
  8
0
  6
Continuous
 62
     7
100
AcDbLine
 10
-52.23127045044856
 20
268.8964248386955
 30
0.0
 11
-53.71416875086328
 21
265.3163916502142
 31
0.0
  0
LINE
  5
208
330
66
100
AcDbEntity
  8
0
  6
Continuous
 62
     7
100
AcDbLine
 10
-129.9923025694625
 20
105.8425460335889
 30
0.0
 11
-130.6428644044863
 21
104.2719508283122
 31
0.0
  0
LINE
  5
209
330
66
100
AcDbEntity
  8
0
  6
Continuous
 62
     7
100
AcDbLine
 10
-127.8673796446403
 20
104.9623741391299
 30
0.0
 11
-129.4363817173676
 21
101.1744680558361
 31
0.0
  0
LINE
  5
20A
330
66
100
AcDbEntity
  8
0
  6
Continuous
 62
     7
100
AcDbLine
 10
-128.5442047184765
 20
101.2378731229766
 30
0.0
 11
-127.1282760186486
 21
104.6562273932451
 31
0.0
  0
LINE
  5
20B
330
66
100
AcDbEntity
  8
0
  6
Continuous
 62
     7
100
AcDbLine
 10
-124.7590182824364
 20
100.9688682053976
 30
0.0
 11
-121.3407119672378
 21
99.55295936929667
 31
0.0
  0
LINE
  5
20C
330
66
100
AcDbEntity
  8
0
  6
Continuous
 62
     7
100
AcDbLine
 10
-121.0345652213459
 20
100.2920629953057
 30
0.0
 11
-124.4528715365444
 21
101.7079718314066
 31
0.0
  0
LINE
  5
20D
330
66
100
AcDbEntity
  8
0
  6
Continuous
 62
     7
100
AcDbLine
 10
-133.8168838633804
 20
102.8806922346913
 30
0.0
 11
-133.1663220283678
 21
104.451287439941
 31
0.0
  0
LINE
  5
20E
330
66
100
AcDbEntity
  8
0
  6
Continuous
 62
     7
100
AcDbLine
 10
-132.9487170734522
 20
107.067133017138
 30
0.0
 11
-134.5559874893859
 21
103.1868389805898
 31
0.0
  0
LINE
  5
20F
330
66
100
AcDbEntity
  8
0
  6
Continuous
 62
     7
100
AcDbLine
 10
-133.1663220283678
 20
104.451287439941
 30
0.0
 11
-130.9490111503024
 21
103.5328472022489
 31
0.0
  0
LINE
  5
210
330
66
100
AcDbEntity
  8
0
  6
Continuous
 62
     7
100
AcDbLine
 10
-130.9490111503024
 20
103.5328472022489
 30
0.0
 11
-131.599572985409
 21
101.9622519970382
 31
0.0
  0
LINE
  5
211
330
66
100
AcDbEntity
  8
0
  6
Continuous
 62
     7
100
AcDbLine
 10
-126.8812215599199
 20
100.5490429447044
 30
0.0
 11
-128.5442047184765
 21
101.2378731229766
 31
0.0
  0
LINE
  5
212
330
66
100
AcDbEntity
  8
0
  6
Continuous
 62
     7
100
AcDbLine
 10
-129.2199032772986
 20
100.6518428698598
 30
0.0
 11
-127.187368305813
 21
99.80993931869261
 31
0.0
  0
LINE
  5
213
330
66
100
AcDbEntity
  8
0
  6
Continuous
 62
     7
100
AcDbLine
 10
-130.8604693593973
 20
101.6561052511451
 30
0.0
 11
-129.253198943471
 21
105.5363992877041
 31
0.0
  0
LINE
  5
214
330
66
100
AcDbEntity
  8
0
  6
Continuous
 62
     7
100
AcDbLine
 10
-130.6428644044863
 20
104.2719508283122
 30
0.0
 11
-132.8601752825584
 21
105.1903910660071
 31
0.0
  0
LINE
  5
215
330
66
100
AcDbEntity
  8
0
  6
Continuous
 62
     7
100
AcDbLine
 10
-135.3546500201775
 20
106.2236363333146
 30
0.0
 11
-138.7729563353761
 21
107.6395451694154
 31
0.0
  0
LINE
  5
216
330
66
100
AcDbEntity
  8
0
  6
Continuous
 62
     7
100
AcDbLine
 10
-139.0791030812681
 20
106.9004415434065
 30
0.0
 11
-135.6607967660696
 21
105.4845327073057
 31
0.0
  0
LINE
  5
217
330
66
100
AcDbEntity
  8
0
  6
Continuous
 62
     7
100
AcDbLine
 10
-132.8601752825584
 20
105.1903910660071
 30
0.0
 11
-132.2096134474609
 21
106.7609862712532
 31
0.0
  0
ARC
  5
218
330
66
100
AcDbEntity
  8
0
  6
Continuous
 62
     7
100
AcDbCircle
 10
-5.61532523839725
 20
186.7454101953919
 30
0.0
 40
7.717824259149554
100
AcDbArc
 50
179.999999999903
 51
-0.00000000009727
  0
ARC
  5
219
330
66
100
AcDbEntity
  8
0
  6
Continuous
 62
     7
100
AcDbCircle
 10
-95.61532523823058
 20
276.7454101955315
 30
0.0
 40
7.717824259149495
100
AcDbArc
 50
89.99999999990294
 51
-90.00000000009791
  0
ARC
  5
21A
330
66
100
AcDbEntity
  8
0
  6
Continuous
 62
     7
100
AcDbCircle
 10
-95.61532523846682
 20
96.74541019555852
 30
0.0
 40
7.71782425914958
100
AcDbArc
 50
89.99999999938305
 51
-90.00000000061696
  0
ARC
  5
21B
330
66
100
AcDbEntity
  8
0
  6
Continuous
 62
     7
100
AcDbCircle
 10
-185.6153252383702
 20
186.7454101956981
 30
0.0
 40
7.717824259149523
100
AcDbArc
 50
179.9999999999027
 51
-0.0000000000979
  0
ARC
  5
21C
330
66
100
AcDbEntity
  8
0
  6
Continuous
 62
     7
100
AcDbCircle
 10
-5.61532523839725
 20
186.7454101953919
 30
0.0
 40
7.717824259149552
100
AcDbArc
 50
-0.00000000009727
 51
179.999999999903
  0
ARC
  5
21D
330
66
100
AcDbEntity
  8
0
  6
Continuous
 62
     7
100
AcDbCircle
 10
-159.2549355450551
 20
250.385020502433
 30
0.0
 40
7.717824259149368
100
AcDbArc
 50
-45.00000000009817
 51
134.9999999999024
  0
ARC
  5
21E
330
66
100
AcDbEntity
  8
0
  6
Continuous
 62
     7
100
AcDbCircle
 10
-159.2549355452717
 20
123.1057998888736
 30
0.0
 40
7.717824259149508
100
AcDbArc
 50
44.99999999990287
 51
-135.0000000000965
  0
ARC
  5
21F
330
66
100
AcDbEntity
  8
0
  6
Continuous
 62
     7
100
AcDbCircle
 10
-31.9757149314957
 20
250.3850205022164
 30
0.0
 40
7.717824259149531
100
AcDbArc
 50
-135.0000000000973
 51
44.99999999990257
  0
ARC
  5
220
330
66
100
AcDbEntity
  8
0
  6
Continuous
 62
     7
100
AcDbCircle
 10
-95.61532523838372
 20
186.745410195545
 30
0.0
 40
97.717824259136
100
AcDbArc
 50
179.9999999999025
 51
-135.0000000000974
  0
ARC
  5
221
330
66
100
AcDbEntity
  8
0
  6
Continuous
 62
     7
100
AcDbCircle
 10
-95.61532523838372
 20
186.745410195545
 30
0.0
 40
82.28217574083709
100
AcDbArc
 50
179.9999999999026
 51
-135.0000000000975
  0
ARC
  5
222
330
66
100
AcDbEntity
  8
0
  6
Continuous
 62
     7
100
AcDbCircle
 10
-159.2549355450551
 20
250.385020502433
 30
0.0
 40
7.717824259149569
100
AcDbArc
 50
134.9999999999024
 51
-45.00000000009817
  0
ARC
  5
223
330
66
100
AcDbEntity
  8
0
  6
Continuous
 62
     7
100
AcDbCircle
 10
-95.61532523838372
 20
186.745410195545
 30
0.0
 40
82.28217574083709
100
AcDbArc
 50
134.9999999999025
 51
179.9999999999026
  0
ARC
  5
224
330
66
100
AcDbEntity
  8
0
  6
Continuous
 62
     7
100
AcDbCircle
 10
-185.6153252383702
 20
186.7454101956981
 30
0.0
 40
7.717824259149381
100
AcDbArc
 50
-0.0000000000979
 51
179.9999999999027
  0
ARC
  5
225
330
66
100
AcDbEntity
  8
0
  6
Continuous
 62
     7
100
AcDbCircle
 10
-95.61532523838372
 20
186.745410195545
 30
0.0
 40
97.71782425913604
100
AcDbArc
 50
134.9999999999025
 51
179.9999999999025
  0
ARC
  5
226
330
66
100
AcDbEntity
  8
0
  6
Continuous
 62
     7
100
AcDbCircle
 10
-31.97571493166282
 20
123.1057998887064
 30
0.0
 40
7.717824259149526
100
AcDbArc
 50
-45.0000000006165
 51
134.9999999993823
  0
ARC
  5
227
330
66
100
AcDbEntity
  8
0
  6
Continuous
 62
     7
100
AcDbCircle
 10
-95.61532523838372
 20
186.745410195545
 30
0.0
 40
97.71782425913605
100
AcDbArc
 50
-45.00000000009749
 51
-0.00000000009744
  0
ARC
  5
228
330
66
100
AcDbEntity
  8
0
  6
Continuous
 62
     7
100
AcDbCircle
 10
-95.61532523838372
 20
186.745410195545
 30
0.0
 40
82.28217574083699
100
AcDbArc
 50
-45.00000000000001
 51
-0.00000000009749
  0
ARC
  5
229
330
66
100
AcDbEntity
  8
0
  6
Continuous
 62
     7
100
AcDbCircle
 10
-95.61532523838372
 20
186.745410195545
 30
0.0
 40
97.71782425913602
100
AcDbArc
 50
-0.00000000009744
 51
44.99999999990251
  0
ARC
  5
22A
330
66
100
AcDbEntity
  8
0
  6
Continuous
 62
     7
100
AcDbCircle
 10
-95.61532523838372
 20
186.745410195545
 30
0.0
 40
82.28217574083692
100
AcDbArc
 50
-0.00000000009749
 51
44.99999999990248
  0
ARC
  5
22B
330
66
100
AcDbEntity
  8
0
  6
Continuous
 62
     7
100
AcDbCircle
 10
-95.61532523823058
 20
276.7454101955315
 30
0.0
 40
7.717824259149609
100
AcDbArc
 50
-90.00000000009791
 51
89.99999999990294
  0
ARC
  5
22C
330
66
100
AcDbEntity
  8
0
  6
Continuous
 62
     7
100
AcDbCircle
 10
-31.9757149314957
 20
250.3850205022164
 30
0.0
 40
7.717824259149508
100
AcDbArc
 50
44.99999999990257
 51
-135.0000000000973
  0
ARC
  5
22D
330
66
100
AcDbEntity
  8
0
  6
Continuous
 62
     7
100
AcDbCircle
 10
-95.61532523838372
 20
186.745410195545
 30
0.0
 40
82.28217574083695
100
AcDbArc
 50
44.99999999990248
 51
89.99999999990254
  0
ARC
  5
22E
330
66
100
AcDbEntity
  8
0
  6
Continuous
 62
     7
100
AcDbCircle
 10
-95.61532523838372
 20
186.745410195545
 30
0.0
 40
97.71782425913598
100
AcDbArc
 50
44.99999999990251
 51
89.99999999990254
  0
ARC
  5
22F
330
66
100
AcDbEntity
  8
0
  6
Continuous
 62
     7
100
AcDbCircle
 10
-95.61532523838372
 20
186.745410195545
 30
0.0
 40
97.71782425913602
100
AcDbArc
 50
89.99999999990254
 51
134.9999999999025
  0
ARC
  5
230
330
66
100
AcDbEntity
  8
0
  6
Continuous
 62
     7
100
AcDbCircle
 10
-95.61532523838372
 20
186.745410195545
 30
0.0
 40
82.28217574083692
100
AcDbArc
 50
89.99999999990254
 51
134.9999999999025
  0
ARC
  5
231
330
66
100
AcDbEntity
  8
0
  6
Continuous
 62
     7
100
AcDbCircle
 10
-121.1876385942919
 20
99.92251118230126
 30
0.0
 40
0.4000000000000176
100
AcDbArc
 50
-112.4999999999775
 51
67.5000000000008
  0
ARC
  5
232
330
66
100
AcDbEntity
  8
0
  6
Continuous
 62
     7
100
AcDbCircle
 10
-124.6059449094904
 20
101.3384200184021
 30
0.0
 40
0.3999999999999692
100
AcDbArc
 50
67.50000000000203
 51
-112.4999999999953
  0
ARC
  5
233
330
66
100
AcDbEntity
  8
0
  6
Continuous
 62
     7
100
AcDbCircle
 10
-134.1864356763832
 20
103.0337656076405
 30
0.0
 40
0.399999999999558
100
AcDbArc
 50
157.4999999994687
 51
-22.5000000005138
  0
ARC
  5
234
330
66
100
AcDbEntity
  8
0
  6
Continuous
 62
     7
100
AcDbCircle
 10
-127.0342949328664
 20
100.1794911316985
 30
0.0
 40
0.4000000000014788
100
AcDbArc
 50
-112.4999999999987
 51
67.50000000001333
  0
ARC
  5
235
330
66
100
AcDbEntity
  8
0
  6
Continuous
 62
     7
100
AcDbCircle
 10
-131.2300211724032
 20
101.8091786240916
 30
0.0
 40
0.4000000000013869
100
AcDbArc
 50
157.4999999999958
 51
-22.49999999998478
  0
ARC
  5
236
330
66
100
AcDbEntity
  8
0
  6
Continuous
 62
     7
100
AcDbCircle
 10
-129.066829904345
 20
101.0213946828825
 30
0.0
 40
0.4000000000195866
100
AcDbArc
 50
157.4999999999894
 51
-112.5000000000043
  0
ARC
  5
237
330
66
100
AcDbEntity
  8
0
  6
Continuous
 62
     7
100
AcDbCircle
 10
-159.2549355452717
 20
123.1057998888736
 30
0.0
 40
7.717824259149559
100
AcDbArc
 50
-135.0000000000965
 51
44.99999999990287
  0
ARC
  5
238
330
66
100
AcDbEntity
  8
0
  6
Continuous
 62
     7
100
AcDbCircle
 10
-127.4978278316444
 20
104.8093007661876
 30
0.0
 40
0.3999999999905909
100
AcDbArc
 50
-22.50000000001019
 51
157.5000000000216
  0
ARC
  5
239
330
66
100
AcDbEntity
  8
0
  6
Continuous
 62
     7
100
AcDbCircle
 10
-138.9260297083221
 20
107.269993356411
 30
0.0
 40
0.3999999999998664
100
AcDbArc
 50
67.50000000000034
 51
-112.4999999999972
  0
ARC
  5
23A
330
66
100
AcDbEntity
  8
0
  6
Continuous
 62
     7
100
AcDbCircle
 10
-135.5077233931235
 20
105.8540845203102
 30
0.0
 40
0.4000000000000019
100
AcDbArc
 50
-112.5000000000093
 51
67.49999999999737
  0
ARC
  5
23B
330
66
100
AcDbEntity
  8
0
  6
Continuous
 62
     7
100
AcDbCircle
 10
-129.6227507564667
 20
105.6894726606464
 30
0.0
 40
0.3999999999904228
100
AcDbArc
 50
-22.49999999998931
 51
157.4999999999906
  0
ARC
  5
23C
330
66
100
AcDbEntity
  8
0
  6
Continuous
 62
     7
100
AcDbCircle
 10
-132.5791652604565
 20
106.9140596441955
 30
0.0
 40
0.3999999999903441
100
AcDbArc
 50
-22.49999999999398
 51
157.4999999999844
  0
ARC
  5
23D
330
66
100
AcDbEntity
  8
0
  6
Continuous
 62
     7
100
AcDbCircle
 10
-95.61532523838372
 20
186.745410195545
 30
0.0
 40
82.28217574083693
100
AcDbArc
 50
-135.0000000000975
 51
-90.0
  0
ARC
  5
23E
330
66
100
AcDbEntity
  8
0
  6
Continuous
 62
     7
100
AcDbCircle
 10
-95.61532523838372
 20
186.745410195545
 30
0.0
 40
97.717824259136
100
AcDbArc
 50
-135.0000000000974
 51
-90.00000000009746
  0
ARC
  5
23F
330
66
100
AcDbEntity
  8
0
  6
Continuous
 62
     7
100
AcDbCircle
 10
-95.61532523846682
 20
96.74541019555852
 30
0.0
 40
7.717824259149552
100
AcDbArc
 50
-90.00000000061696
 51
89.99999999938305
  0
ARC
  5
240
330
66
100
AcDbEntity
  8
0
  6
Continuous
 62
     7
100
AcDbCircle
 10
-95.61532523838372
 20
186.745410195545
 30
0.0
 40
82.28217574083689
100
AcDbArc
 50
-90.0
 51
-45.00000000000001
  0
ARC
  5
241
330
66
100
AcDbEntity
  8
0
  6
Continuous
 62
     7
100
AcDbCircle
 10
-31.97571493166282
 20
123.1057998887064
 30
0.0
 40
7.717824259149529
100
AcDbArc
 50
134.9999999993823
 51
-45.0000000006165
  0
ARC
  5
242
330
66
100
AcDbEntity
  8
0
  6
Continuous
 62
     7
100
AcDbCircle
 10
-95.61532523838372
 20
186.745410195545
 30
0.0
 40
97.71782425913602
100
AcDbArc
 50
-90.00000000009746
 51
-45.00000000009749
  0
CIRCLE
  5
243
330
66
100
AcDbEntity
  8
1
  6
Continuous
 62
     7
100
AcDbCircle
 10
-95.61532523838372
 20
186.745410195545
 30
0.0
 40
74.0
  0
CIRCLE
  5
244
330
66
100
AcDbEntity
  8
0
  6
Continuous
 62
     3
100
AcDbCircle
 10
-159.2549355450647
 20
250.3850205024426
 30
0.0
 40
6.47676910319813
  0
CIRCLE
  5
245
330
66
100
AcDbEntity
  8
0
  6
Continuous
 62
     7
100
AcDbCircle
 10
-159.2549355450647
 20
250.3850205024426
 30
0.0
 40
7.322019855475031
  0
CIRCLE
  5
246
330
66
100
AcDbEntity
  8
0
  6
Continuous
 62
     3
100
AcDbCircle
 10
-159.2549355452813
 20
123.105799888864
 30
0.0
 40
6.476769103197968
  0
CIRCLE
  5
247
330
66
100
AcDbEntity
  8
0
  6
Continuous
 62
     7
100
AcDbCircle
 10
-159.2549355452813
 20
123.105799888864
 30
0.0
 40
7.322019855475131
  0
CIRCLE
  5
248
330
66
100
AcDbEntity
  8
0
  6
Continuous
 62
     3
100
AcDbCircle
 10
-31.97571493148615
 20
250.385020502226
 30
0.0
 40
6.476769103197989
  0
CIRCLE
  5
249
330
66
100
AcDbEntity
  8
0
  6
Continuous
 62
     7
100
AcDbCircle
 10
-31.97571493148615
 20
250.385020502226
 30
0.0
 40
7.322019855475113
  0
CIRCLE
  5
24A
330
66
100
AcDbEntity
  8
0
  6
Continuous
 62
     3
100
AcDbCircle
 10
-185.6153252383837
 20
186.7454101956215
 30
0.0
 40
6.476769103198109
  0
CIRCLE
  5
24B
330
66
100
AcDbEntity
  8
0
  6
Continuous
 62
     7
100
AcDbCircle
 10
-185.6153252383837
 20
186.7454101956215
 30
0.0
 40
7.322019855474991
  0
CIRCLE
  5
24C
330
66
100
AcDbEntity
  8
0
  6
Continuous
 62
     3
100
AcDbCircle
 10
-31.97571493164861
 20
123.1057998887015
 30
0.0
 40
6.476769103198002
  0
CIRCLE
  5
24D
330
66
100
AcDbEntity
  8
0
  6
Continuous
 62
     7
100
AcDbCircle
 10
-31.97571493164861
 20
123.1057998887015
 30
0.0
 40
7.322019855475101
  0
CIRCLE
  5
24E
330
66
100
AcDbEntity
  8
0
  6
Continuous
 62
     3
100
AcDbCircle
 10
-5.61532523838372
 20
186.7454101954685
 30
0.0
 40
6.47676910319808
  0
CIRCLE
  5
24F
330
66
100
AcDbEntity
  8
0
  6
Continuous
 62
     7
100
AcDbCircle
 10
-5.61532523838372
 20
186.7454101954685
 30
0.0
 40
7.322019855474991
  0
CIRCLE
  5
250
330
66
100
AcDbEntity
  8
0
  6
Continuous
 62
     3
100
AcDbCircle
 10
-95.6153252383071
 20
276.745410195545
 30
0.0
 40
6.47676910319808
  0
CIRCLE
  5
251
330
66
100
AcDbEntity
  8
0
  6
Continuous
 62
     7
100
AcDbCircle
 10
-95.6153252383071
 20
276.745410195545
 30
0.0
 40
7.322019855475105
  0
CIRCLE
  5
252
330
66
100
AcDbEntity
  8
0
  6
Continuous
 62
     3
100
AcDbCircle
 10
-95.61532523846034
 20
96.74541019554499
 30
0.0
 40
6.47676910319808
  0
CIRCLE
  5
253
330
66
100
AcDbEntity
  8
0
  6
Continuous
 62
     7
100
AcDbCircle
 10
-95.61532523846034
 20
96.74541019554499
 30
0.0
 40
7.322019855475006
  0
CIRCLE
  5
254
330
66
100
AcDbEntity
  8
0
  6
Continuous
 62
     3
100
AcDbCircle
 10
-95.61532523838372
 20
186.745410195545
 30
0.0
 40
102.029255426901
  0
CIRCLE
  5
255
330
66
100
AcDbEntity
  8
0
  6
Continuous
 62
     3
100
AcDbCircle
 10
-95.61532523838372
 20
186.745410195545
 30
0.0
 40
107.9707445730989
  0
CIRCLE
  5
256
330
66
100
AcDbEntity
  8
0
  6
Continuous
 62
     3
100
AcDbCircle
 10
-95.61532523838372
 20
186.745410195545
 30
0.0
 40
112.029255426901
  0
CIRCLE
  5
257
330
66
100
AcDbEntity
  8
0
  6
Continuous
 62
     7
100
AcDbCircle
 10
-95.61532523838372
 20
186.745410195545
 30
0.0
 40
118.5
  0
CIRCLE
  5
258
330
66
100
AcDbEntity
  8
0
  6
Continuous
 62
     7
100
AcDbCircle
 10
-95.61532523838372
 20
186.745410195545
 30
0.0
 40
119.0000000000001
  0
SPLINE
  5
259
330
66
100
AcDbEntity
  8
0
  6
Continuous
 62
     7
100
AcDbSpline
210
0.0
220
0.0
230
1.0
 70
     8
 71
     3
 72
    43
 73
    39
 74
    37
 42
0.0000000001
 43
0.0000000001
 44
0.00000001
 40
0.0
 40
0.0
 40
0.0
 40
0.0
 40
0.3907967327047805
 40
0.7791187161121106
 40
1.247745980702975
 40
1.714333364992672
 40
2.282167899466725
 40
2.849193372675202
 40
3.520315990722128
 40
4.191019167523034
 40
4.957257977258728
 40
5.72328703479021
 40
6.569377519584743
 40
7.415354049149014
 40
8.321398475926976
 40
9.227382887797658
 40
10.17051911290885
 40
11.11362912797238
 40
12.06930488155746
 40
13.02498063520026
 40
13.96809065034826
 40
14.91122687548476
 40
15.81721128735342
 40
16.72325571413319
 40
17.56923224370009
 40
18.41532272849544
 40
19.18135178602736
 40
19.9475905957645
 40
20.61829377256478
 40
21.28941639060666
 40
21.8564418638112
 40
22.42427639828519
 40
22.89086378257584
 40
23.35949104716701
 40
23.74781303057314
 40
24.13860976327394
 40
24.4967924311014
 40
24.85497509893831
 40
24.85497509893831
 40
24.85497509893831
 40
24.85497509893831
 10
-120.0722833968175
 20
99.07598279988679
 30
0.0
 10
-120.1564275636347
 20
98.97578989145694
 30
0.0
 10
-120.3241830480914
 20
98.77603855362179
 30
0.0
 10
-120.6715574658288
 20
98.53997370649387
 30
0.0
 10
-121.0702431574401
 20
98.34900302195697
 30
0.0
 10
-121.5480384030464
 20
98.19390955827106
 30
0.0
 10
-122.0717654583841
 20
98.08618936281763
 30
0.0
 10
-122.6700905609887
 20
98.01492227328396
 30
0.0
 10
-123.3064008300798
 20
97.9885437458765
 30
0.0
 10
-124.0092994284936
 20
98.00202689994401
 30
0.0
 10
-124.7418750817139
 20
98.05779678962683
 30
0.0
 10
-125.5289045959844
 20
98.15518248069226
 30
0.0
 10
-126.3369973845881
 20
98.29220566873339
 30
0.0
 10
-127.1847237815539
 20
98.47030722874689
 30
0.0
 10
-128.0444835141621
 20
98.68518594026251
 30
0.0
 10
-128.9274476024522
 20
98.9384113893587
 30
0.0
 10
-129.8130829900419
 20
99.22521227801084
 30
0.0
 10
-130.7047024320412
 20
99.54568926838363
 30
0.0
 10
-131.5894630066587
 20
99.89615890078338
 30
0.0
 10
-132.4629026624458
 20
100.2739596491793
 30
0.0
 10
-133.3199842691101
 20
100.6778183497505
 30
0.0
 10
-134.1490219112
 20
101.1012582848296
 30
0.0
 10
-134.9524292355976
 20
101.5465507467684
 30
0.0
 10
-135.712313374759
 20
102.0025504906086
 30
0.0
 10
-136.4376832515168
 20
102.4760467509859
 30
0.0
 10
-137.1059812671782
 20
102.9505646257489
 30
0.0
 10
-137.7313569180854
 20
103.4382164172839
 30
0.0
 10
-138.2888025812833
 20
103.9167904758561
 30
0.0
 10
-138.7953570791868
 20
104.4042804375579
 30
0.0
 10
-139.2266573476982
 20
104.8728734652971
 30
0.0
 10
-139.5993009390251
 20
105.3463425463157
 30
0.0
 10
-139.8936066987183
 20
105.7928570471437
 30
0.0
 10
-140.1213418090309
 20
106.2403338018485
 30
0.0
 10
-140.2697369797806
 20
106.6574295664034
 30
0.0
 10
-140.3436766833504
 20
107.0695257939823
 30
0.0
 10
-140.3273266022292
 20
107.4504607904568
 30
0.0
 10
-140.2377453431478
 20
107.8142304826328
 30
0.0
 10
-140.10683838504
 20
108.0157579868434
 30
0.0
 10
-140.0413849059851
 20
108.11652173895
 30
0.0
 11
-120.0722833968175
 21
99.07598279988679
 31
0.0
 11
-120.3370821775375
 21
98.78857421960089
 31
0.0
 11
-120.6532169505449
 21
98.56306863631539
 31
0.0
 11
-121.0747689662618
 21
98.3583605242072
 31
0.0
 11
-121.5177791748943
 21
98.21191687557157
 31
0.0
 11
-122.0732427069188
 21
98.09403420877017
 31
0.0
 11
-122.6361341763455
 21
98.025688902318
 31
0.0
 11
-123.3065694888079
 21
97.99532345719521
 31
0.0
 11
-123.9771650323248
 21
98.00733879681042
 31
0.0
 11
-124.7413214413336
 21
98.06379139742391
 31
0.0
 11
-125.501623013678
 21
98.15729025342355
 31
0.0
 11
-126.3359933152122
 21
98.29763022769137
 31
0.0
 11
-127.1639704671015
 21
98.4712105391409
 31
0.0
 11
-128.0431508078644
 21
98.69020467538988
 31
0.0
 11
-128.9140776185067
 21
98.9397928262648
 31
0.0
 11
-129.8114689609049
 21
99.2299560866987
 31
0.0
 11
-130.6989888842482
 21
99.54896217783484
 31
0.0
 11
-131.587567880787
 21
99.90073413933888
 31
0.0
 11
-132.4646284543223
 21
100.2803140340261
 31
0.0
 11
-133.317771180916
 21
100.682314020012
 31
0.0
 11
-134.1574990936322
 21
101.111689114504
 31
0.0
 11
-134.9498228213414
 21
101.5510418942357
 31
0.0
 11
-135.7263494409647
 21
102.0178640362932
 31
0.0
 11
-136.434557515042
 21
102.4805924797562
 31
0.0
 11
-137.1237817607546
 21
102.9713460305158
 31
0.0
 11
-137.7275098334171
 21
103.442846752957
 31
0.0
 11
-138.3077680288251
 21
103.9432689149454
 31
0.0
 11
-138.7904468131989
 21
104.4089554430793
 31
0.0
 11
-139.2430445568229
 21
104.9044964110263
 31
0.0
 11
-139.5927415022677
 21
105.3508482157828
 31
0.0
 11
-139.9021578993844
 21
105.8269758790588
 31
0.0
 11
-140.1118621250325
 21
106.2437826987301
 31
0.0
 11
-140.2651939197336
 21
106.6866154819022
 31
0.0
 11
-140.3292784343599
 21
107.0696130508
 31
0.0
 11
-140.3132908917673
 21
107.4600826203844
 31
0.0
 11
-140.2195090089938
 21
107.8057700254131
 31
0.0
 11
-140.0413849059851
 21
108.11652173895
 31
0.0
  0
SPLINE
  5
25A
330
66
100
AcDbEntity
  8
0
  6
Continuous
 62
     7
100
AcDbSpline
210
0.0
220
0.0
230
1.0
 70
     8
 71
     3
 72
    43
 73
    39
 74
    37
 42
0.0000000001
 43
0.0000000001
 44
0.00000001
 40
0.0
 40
0.0
 40
0.0
 40
0.0
 40
0.390796732715489
 40
0.7791187161260342
 40
1.247745980713816
 40
1.71433336499569
 40
2.282167899463682
 40
2.849193372674059
 40
3.520315990723089
 40
4.191019167521651
 40
4.957257977254357
 40
5.723287034784381
 40
6.569377519578877
 40
7.415354049145156
 40
8.321398475924466
 40
9.227382887792821
 40
10.17051911292938
 40
11.11362912807757
 40
12.06930488172046
 40
13.02498063530561
 40
13.9680906503694
 40
14.9112268754804
 40
15.81721128735057
 40
16.72325571412791
 40
17.56923224369168
 40
18.41532272848596
 40
19.18135178601638
 40
19.94759059574842
 40
20.61829377254755
 40
21.28941639059992
 40
21.85644186381244
 40
22.42427639827988
 40
22.8908637825608
 40
23.35949104714837
 40
23.74781303055775
 40
24.13860976326919
 40
24.49679243110359
 40
24.85497509893364
 40
24.85497509893364
 40
24.85497509893364
 40
24.85497509893364
 10
-140.0413849059851
 20
108.11652173895
 30
0.0
 10
-139.9572407391667
 20
108.2167146473835
 30
0.0
 10
-139.7894852547091
 20
108.4164659852241
 30
0.0
 10
-139.4421108369703
 20
108.6525308323566
 30
0.0
 10
-139.0434251453599
 20
108.8435015168906
 30
0.0
 10
-138.5656298997544
 20
108.9985949805615
 30
0.0
 10
-138.0419028444186
 20
109.1063151760016
 30
0.0
 10
-137.4435777418176
 20
109.1775822655535
 30
0.0
 10
-136.8072674727263
 20
109.2039607929831
 30
0.0
 10
-136.1043688743133
 20
109.1904776389071
 30
0.0
 10
-135.3717932210967
 20
109.1347077492081
 30
0.0
 10
-134.5847637068284
 20
109.0373220581374
 30
0.0
 10
-133.7766709182251
 20
108.9002988700931
 30
0.0
 10
-132.9289445212591
 20
108.7221973100751
 30
0.0
 10
-132.0691847886515
 20
108.5073185985555
 30
0.0
 10
-131.186220700355
 20
108.2540931494523
 30
0.0
 10
-130.3005853127327
 20
107.9672922607842
 30
0.0
 10
-129.4089658706804
 20
107.6468152703937
 30
0.0
 10
-128.5242052960338
 20
107.2963456379909
 30
0.0
 10
-127.6507656402733
 20
106.9185448896032
 30
0.0
 10
-126.7936840336641
 20
106.5146861890463
 30
0.0
 10
-125.9646463916071
 20
106.0912462539822
 30
0.0
 10
-125.1612390672157
 20
105.6459537920505
 30
0.0
 10
-124.4013549280539
 20
105.1899540482135
 30
0.0
 10
-123.6759850512966
 20
104.7164577878396
 30
0.0
 10
-123.0076870356369
 20
104.2419399130775
 30
0.0
 10
-122.3823113847303
 20
103.754288121546
 30
0.0
 10
-121.8248657215262
 20
103.2757140629852
 30
0.0
 10
-121.318311223616
 20
102.788224101288
 30
0.0
 10
-120.8870109551099
 20
102.3196310735355
 30
0.0
 10
-120.5143673637875
 20
101.8461619925089
 30
0.0
 10
-120.2200616040851
 20
101.3996474916907
 30
0.0
 10
-119.9923264937653
 20
100.9521707369969
 30
0.0
 10
-119.8439313230147
 20
100.5350749724455
 30
0.0
 10
-119.7699916194467
 20
100.1229787448624
 30
0.0
 10
-119.7863417005739
 20
99.74204374838136
 30
0.0
 10
-119.8759229596553
 20
99.37827405620173
 30
0.0
 10
-120.0068299177637
 20
99.17674655199137
 30
0.0
 10
-120.0722833968175
 20
99.07598279988679
 30
0.0
 11
-140.0413849059851
 21
108.11652173895
 31
0.0
 11
-139.7765861252607
 21
108.4039303192464
 31
0.0
 11
-139.4604513522519
 21
108.6294359025354
 31
0.0
 11
-139.0388993365362
 21
108.8341440146393
 31
0.0
 11
-138.5958891279078
 21
108.980587663262
 31
0.0
 11
-138.0404255958874
 21
109.0984703300537
 31
0.0
 11
-137.4775341264604
 21
109.1668156365187
 31
0.0
 11
-136.8070988139966
 21
109.1971810816592
 31
0.0
 11
-136.1365032704821
 21
109.18516574204
 31
0.0
 11
-135.3723468614774
 21
109.128713141413
 31
0.0
 11
-134.6120452891353
 21
109.0352142854067
 31
0.0
 11
-133.7776749876017
 21
108.8948743111351
 31
0.0
 11
-132.9496978357113
 21
108.7212939996812
 31
0.0
 11
-132.0705174949481
 21
108.5022998634277
 31
0.0
 11
-131.1995906843094
 21
108.2527117125489
 31
0.0
 11
-130.3021993418882
 21
107.9625484521035
 31
0.0
 11
-129.4146794184648
 21
107.64354236094
 31
0.0
 11
-128.5261004218705
 21
107.2917703994189
 31
0.0
 11
-127.6490398483893
 21
106.912190504752
 31
0.0
 11
-126.795897121875
 21
106.510190518795
 31
0.0
 11
-125.9561692091824
 21
106.0808154243129
 31
0.0
 11
-125.1638454814707
 21
105.6414626445826
 31
0.0
 11
-124.387318861848
 21
105.1746405025288
 31
0.0
 11
-123.6791107877721
 21
104.7119120590693
 31
0.0
 11
-122.98988654206
 21
104.2211585083109
 31
0.0
 11
-122.3861584693965
 21
103.7496577858736
 31
0.0
 11
-121.8059002739854
 21
103.2492356238965
 31
0.0
 11
-121.3232214896091
 21
102.7835490957668
 31
0.0
 11
-120.8706237459849
 21
102.2880081278058
 31
0.0
 11
-120.520926800539
 21
101.84165632304
 31
0.0
 11
-120.2115104034177
 21
101.3655286597748
 31
0.0
 11
-120.0018061777656
 21
100.9487218401164
 31
0.0
 11
-119.8484743830631
 21
100.5058890569486
 31
0.0
 11
-119.7843898684382
 21
100.1228914880473
 31
0.0
 11
-119.8003774110352
 21
99.73242191845242
 31
0.0
 11
-119.8941592938114
 21
99.3867345134173
 31
0.0
 11
-120.0722833968175
 21
99.07598279988679
 31
0.0
  0
SPLINE
  5
25B
330
66
100
AcDbEntity
  8
0
  6
Continuous
 62
     7
100
AcDbSpline
210
0.0
220
0.0
230
1.0
 70
     8
 71
     3
 72
    49
 73
    45
 74
    43
 42
0.0000000001
 43
0.0000000001
 44
0.00000001
 40
0.0
 40
0.0
 40
0.0
 40
0.0
 40
0.2472640119693297
 40
0.4932094637154829
 40
0.7446226464070607
 40
0.9851129147565418
 40
1.430384030803799
 40
1.873943008744925
 40
2.091811857880704
 40
2.303481699356061
 40
2.512865733044035
 40
2.72206123319254
 40
3.139474908219703
 40
3.551212769325668
 40
4.363404763986304
 40
5.169579150575019
 40
5.969930051557665
 40
6.767202185687259
 40
8.353971733842695
 40
9.936219975487695
 40
11.51479959792999
 40
13.09262492230263
 40
14.6707984389614
 40
16.25102634054198
 40
17.83345190330757
 40
19.42526957310726
 40
20.22511411264496
 40
21.03082140077937
 40
21.4371631881903
 40
21.84358134240833
 40
22.25438697292713
 40
22.67090570685627
 40
23.08645788445049
 40
23.51488235931921
 40
23.95848782810947
 40
24.40325870586933
 40
24.64019736603466
 40
24.88812562491738
 40
25.13387425478715
 40
25.38061105553674
 40
25.6376902747574
 40
25.90205732800124
 40
26.16463793112151
 40
26.42823177332836
 40
26.42823177332836
 40
26.42823177332836
 40
26.42823177332836
 10
-140.4411673690586
 20
108.4168115693121
 30
0.0
 10
-140.3897586509214
 20
108.4813205127868
 30
0.0
 10
-140.287215356809
 20
108.6099943993044
 30
0.0
 10
-140.1087058259905
 20
108.783414244218
 30
0.0
 10
-139.9152194059239
 20
108.9359120681625
 30
0.0
 10
-139.651122990945
 20
109.1035683568188
 30
0.0
 10
-139.3123169563968
 20
109.2697408937042
 30
0.0
 10
-138.9657635172225
 20
109.3982408695291
 30
0.0
 10
-138.6850655278798
 20
109.4755706313571
 30
0.0
 10
-138.4776226163956
 20
109.5239282580238
 30
0.0
 10
-138.2718142520241
 20
109.5662245444453
 30
0.0
 10
-137.9972248402938
 20
109.6139699533252
 30
0.0
 10
-137.6534882248225
 20
109.6564257835347
 30
0.0
 10
-137.1076090526163
 20
109.6953110339524
 30
0.0
 10
-136.4302966535337
 20
109.7034532528353
 30
0.0
 10
-135.6247902073924
 20
109.6601518568192
 30
0.0
 10
-134.8276997133671
 20
109.5753544275869
 30
0.0
 10
-133.77811127821
 20
109.4152749445772
 30
0.0
 10
-132.4831879307532
 20
109.1427245074894
 30
0.0
 10
-130.9582045227774
 20
108.7165759381192
 30
0.0
 10
-129.4615575536767
 20
108.2092779499289
 30
0.0
 10
-127.9948071131472
 20
107.6249177638937
 30
0.0
 10
-126.5587902123883
 20
106.9672424315186
 30
0.0
 10
-125.1592515748232
 20
106.2316413920333
 30
0.0
 10
-123.799643401543
 20
105.415461511872
 30
0.0
 10
-122.7130503681199
 20
104.6551460215599
 30
0.0
 10
-121.8802241335072
 20
103.9895527354446
 30
0.0
 10
-121.3789162514533
 20
103.5434324119787
 30
0.0
 10
-120.9937609995787
 20
103.165514118406
 30
0.0
 10
-120.7136996894151
 20
102.8689006671646
 30
0.0
 10
-120.4416791068632
 20
102.5603118809569
 30
0.0
 10
-120.1842029582708
 20
102.235446173731
 30
0.0
 10
-119.9426620876557
 20
101.8913802784989
 30
0.0
 10
-119.7187396522322
 20
101.5247032942087
 30
0.0
 10
-119.5264698986965
 20
101.1292349223131
 30
0.0
 10
-119.4003154603278
 20
100.7750057151021
 30
0.0
 10
-119.3243825157738
 20
100.4743050368078
 30
0.0
 10
-119.2869350092592
 20
100.2331601863592
 30
0.0
 10
-119.2768330997367
 20
99.9860949204478
 30
0.0
 10
-119.2912694355948
 20
99.73625432845483
 30
0.0
 10
-119.3342143958886
 20
99.48316473861098
 30
0.0
 10
-119.4107254302815
 20
99.23255319022377
 30
0.0
 10
-119.5223892909258
 20
98.99241681076167
 30
0.0
 10
-119.6223995238576
 20
98.84802693242145
 30
0.0
 10
-119.6725009337467
 20
98.77569296952095
 30
0.0
 11
-140.4411673690586
 21
108.4168115693121
 31
0.0
 11
-140.2829965653934
 21
108.6068681095391
 31
0.0
 11
-140.107280282058
 21
108.77895225467
 31
0.0
 11
-139.9098403479694
 21
108.9345994867629
 31
0.0
 11
-139.7072947374724
 21
109.0642561288573
 31
0.0
 11
-139.3088738449148
 21
109.2630705125412
 31
0.0
 11
-138.8926052962403
 21
109.4162536130994
 31
0.0
 11
-138.6827212239471
 21
109.4746959917416
 31
0.0
 11
-138.4766809914025
 21
109.5231887165895
 31
0.0
 11
-138.2715528210244
 21
109.5651899937221
 31
0.0
 11
-138.0654355392401
 21
109.6009450413693
 31
0.0
 11
-137.6512859843379
 21
109.653044199462
 31
0.0
 11
-137.2406464311104
 21
109.6830978779932
 31
0.0
 11
-136.4285351141327
 21
109.6945453680005
 31
0.0
 11
-135.623430955236
 21
109.65301905202
 31
0.0
 11
-134.827477650939
 21
109.5692341960939
 31
0.0
 11
-134.039165079066
 21
109.4500446626336
 31
0.0
 11
-132.4858994337898
 21
109.125693873891
 31
0.0
 11
-130.9612822089285
 21
108.7025487264002
 31
0.0
 11
-129.4660898886409
 21
108.1962745420466
 31
0.0
 11
-128.0001187444208
 21
107.6127838749868
 31
0.0
 11
-126.5657127766148
 21
106.9546720545448
 31
0.0
 11
-125.1672004160909
 21
106.2189524079431
 31
0.0
 11
-123.8122253176935
 21
105.4015705238664
 31
0.0
 11
-122.5102265622785
 21
104.4857742939198
 31
0.0
 11
-121.8862538979408
 21
103.9853650598048
 31
0.0
 11
-121.2854024310129
 21
103.4485766947637
 31
0.0
 11
-120.9956249733927
 21
103.1637211642724
 31
0.0
 11
-120.7164028241187
 21
102.8684065736527
 31
0.0
 11
-120.4456563567653
 21
102.5594444133781
 31
0.0
 11
-120.1872423595633
 21
102.2327793528589
 31
0.0
 11
-119.9487532419034
 21
101.8924757339226
 31
0.0
 11
-119.7272515000957
 21
101.5257544377825
 31
0.0
 11
-119.5341508395471
 21
101.1263824973106
 31
0.0
 11
-119.3858453075742
 21
100.7070656685408
 31
0.0
 11
-119.3288029287944
 21
100.4770958972576
 31
0.0
 11
-119.2915063094331
 21
100.2319890149861
 31
0.0
 11
-119.2808814314946
 21
99.98647017446329
 31
0.0
 11
-119.2954982706197
 21
99.74016670948942
 31
0.0
 11
-119.3390899638386
 21
99.48681026248754
 31
0.0
 11
-119.4166908053286
 21
99.23408897679741
 31
0.0
 11
-119.5286435054903
 21
98.99657020688332
 31
0.0
 11
-119.6725009337467
 21
98.77569296952095
 31
0.0
  0
SPLINE
  5
25C
330
66
100
AcDbEntity
  8
0
  6
Continuous
 62
     7
100
AcDbSpline
210
0.0
220
0.0
230
1.0
 70
     8
 71
     3
 72
    49
 73
    45
 74
    43
 42
0.0000000001
 43
0.0000000001
 44
0.00000001
 40
0.0
 40
0.0
 40
0.0
 40
0.0
 40
0.2472640119631399
 40
0.4932094637043641
 40
0.7446226463917305
 40
0.9851129147379574
 40
1.430384030781183
 40
1.873943008720744
 40
2.091811857859783
 40
2.303481699342774
 40
2.512865733038842
 40
2.722061233194524
 40
3.139474908231516
 40
3.551212769335489
 40
4.363404763979641
 40
5.169579150565643
 40
5.969930051554555
 40
6.767202185686642
 40
8.353971733841437
 40
9.936219975485523
 40
11.51479959783306
 40
13.09262492214249
 40
14.67079843889686
 40
16.25102634054159
 40
17.83345190330759
 40
19.42526957311361
 40
20.22511411266096
 40
21.03082140079744
 40
21.43716318820178
 40
21.84358134240981
 40
22.25438697292042
 40
22.67090570685048
 40
23.08645788445644
 40
23.51488235933477
 40
23.95848782812605
 40
24.40325870588395
 40
24.64019736604649
 40
24.88812562492512
 40
25.13387425479005
 40
25.38061105553383
 40
25.63769027475094
 40
25.90205732799429
 40
26.16863250845389
 40
26.42815796455289
 40
26.42815796455289
 40
26.42815796455289
 40
26.42815796455289
 10
-119.6725009337467
 20
98.77569296952095
 30
0.0
 10
-119.7239096518833
 20
98.71118402604833
 30
0.0
 10
-119.8264529459946
 20
98.58251013953469
 30
0.0
 10
-120.0049624768114
 20
98.40909029462657
 30
0.0
 10
-120.1984488968756
 20
98.25659247068589
 30
0.0
 10
-120.4625453118519
 20
98.08893618203265
 30
0.0
 10
-120.8013513463963
 20
97.9227636451469
 30
0.0
 10
-121.1479047855674
 20
97.79426366931582
 30
0.0
 10
-121.4286027749107
 20
97.71693390747848
 30
0.0
 10
-121.6360456863997
 20
97.66857628080471
 30
0.0
 10
-121.8418540507782
 20
97.6262799943792
 30
0.0
 10
-122.1164434625168
 20
97.57853458549754
 30
0.0
 10
-122.4601800779943
 20
97.53607875529616
 30
0.0
 10
-123.0060592501992
 20
97.49719350490022
 30
0.0
 10
-123.683371649274
 20
97.48905128602087
 30
0.0
 10
-124.4888780954118
 20
97.53235268202056
 30
0.0
 10
-125.2859685894402
 20
97.61715011124386
 30
0.0
 10
-126.3355570246008
 20
97.77722959424926
 30
0.0
 10
-127.6304803720589
 20
98.04978003133135
 30
0.0
 10
-129.1554637800063
 20
98.4759286006839
 30
0.0
 10
-130.6521107490591
 20
98.98322658885132
 30
0.0
 10
-132.1188611895643
 20
99.56758677489145
 30
0.0
 10
-133.5548780903566
 20
100.2252621072698
 30
0.0
 10
-134.9544167279738
 20
100.9608631467722
 30
0.0
 10
-136.3140249012698
 20
101.7770430269516
 30
0.0
 10
-137.4006179347003
 20
102.5373585172666
 30
0.0
 10
-138.2334441693073
 20
103.2029518033919
 30
0.0
 10
-138.7347520513656
 20
103.6490721268721
 30
0.0
 10
-139.1199073032134
 20
104.0269904204326
 30
0.0
 10
-139.3999686134398
 20
104.3236038716982
 30
0.0
 10
-139.6719891957426
 20
104.6321926577716
 30
0.0
 10
-139.9294653452948
 20
104.9570583654657
 30
0.0
 10
-140.1710062123103
 20
105.3011242589324
 30
0.0
 10
-140.3949286617225
 20
105.6678012501341
 30
0.0
 10
-140.5871983608449
 20
106.0632695952115
 30
0.0
 10
-140.7133529722268
 20
106.4174988877243
 30
0.0
 10
-140.7892855416481
 20
106.7181993810629
 30
0.0
 10
-140.8267342737075
 20
106.9593448357411
 30
0.0
 10
-140.8368315748417
 20
107.2064078295584
 30
0.0
 10
-140.8224127136166
 20
107.4562570371185
 30
0.0
 10
-140.7793991698278
 20
107.7093128130219
 30
0.0
 10
-140.7027642416321
 20
107.9613323249508
 30
0.0
 10
-140.5898521964893
 20
108.200859557922
 30
0.0
 10
-140.4902842428673
 20
108.3454735056005
 30
0.0
 10
-140.4411673690586
 20
108.4168115693121
 30
0.0
 11
-119.6725009337467
 21
98.77569296952095
 31
0.0
 11
-119.8306717374099
 21
98.58563642930027
 31
0.0
 11
-120.0063880207434
 21
98.41355228417456
 31
0.0
 11
-120.2038279548297
 21
98.25790505208555
 31
0.0
 11
-120.4063735653244
 21
98.12824840999353
 31
0.0
 11
-120.8047944578773
 21
97.92943402630917
 31
0.0
 11
-121.2210630065473
 21
97.77625092574347
 31
0.0
 11
-121.430947078842
 21
97.71780854709434
 31
0.0
 11
-121.6369873113928
 21
97.66931582223958
 31
0.0
 11
-121.8421154817783
 21
97.62731454510275
 31
0.0
 11
-122.0482327635697
 21
97.59155949745438
 31
0.0
 11
-122.4623823184828
 21
97.53946033936954
 31
0.0
 11
-122.8730218717093
 21
97.50940666085219
 31
0.0
 11
-123.6851331886706
 21
97.49795917085206
 31
0.0
 11
-124.4902373475653
 21
97.53948548682064
 31
0.0
 11
-125.2861906518694
 21
97.623270342738
 31
0.0
 11
-126.0745032237456
 21
97.74245987619418
 31
0.0
 11
-127.6277688690227
 21
98.06681066492942
 31
0.0
 11
-129.1523860938852
 21
98.48995581241223
 31
0.0
 11
-130.6475784140842
 21
98.99622999673241
 31
0.0
 11
-132.1135495582434
 21
99.57972066377386
 31
0.0
 11
-133.5479555261393
 21
100.2378324842493
 31
0.0
 11
-134.9464678867229
 21
100.9735521308753
 31
0.0
 11
-136.301442985119
 21
101.7909340149551
 31
0.0
 11
-137.6034417405372
 21
102.7067302449081
 31
0.0
 11
-138.2274144048776
 21
103.2071394790352
 31
0.0
 11
-138.8282658718002
 21
103.7439278440853
 31
0.0
 11
-139.1180433294146
 21
104.0287833745731
 31
0.0
 11
-139.3972654786841
 21
104.3240979651832
 31
0.0
 11
-139.6680119460377
 21
104.6330601254468
 31
0.0
 11
-139.9264259432439
 21
104.9597251859639
 31
0.0
 11
-140.1649150609069
 21
105.3000288049123
 31
0.0
 11
-140.3864168027114
 21
105.6667501010655
 31
0.0
 11
-140.5795174632532
 21
106.0661220415419
 31
0.0
 11
-140.7278229952228
 21
106.4854388703107
 31
0.0
 11
-140.7848653740023
 21
106.7154086415912
 31
0.0
 11
-140.8221619933643
 21
106.9605155238584
 31
0.0
 11
-140.8327868713047
 21
107.2060343643763
 31
0.0
 11
-140.8181700321825
 21
107.4523378293445
 31
0.0
 11
-140.7745783389659
 21
107.7056942763432
 31
0.0
 11
-140.6969774974766
 21
107.9584155620331
 31
0.0
 11
-140.5825758369724
 21
108.1991946867738
 31
0.0
 11
-140.4411673690586
 21
108.4168115693121
 31
0.0
  0
ENDBLK
  5
68
330
66
100
AcDbEntity
  8
0
100
AcDbBlockEnd
  0
BLOCK
  5
6B
330
69
100
AcDbEntity
  8
0
100
AcDbBlockBegin
  2
Bgr_8300_unten_1
 70
     0
 71
     0
 10
-140.1191216286347
 20
-462.064941315537
 30
0.0
  3
Bgr_8300_unten_1
  1

  0
INSERT
  5
6A
330
69
100
AcDbEntity
  8
0
100
AcDbBlockReference
  2
8300-Klemmring__1
 10
-140.1191216286347
 20
-462.064941315537
 30
0.0
  0
ENDBLK
  5
6C
330
69
100
AcDbEntity
  8
0
100
AcDbBlockEnd
  0
BLOCK
  5
70
330
6D
100
AcDbEntity
  8
0
100
AcDbBlockBegin
  2
Bgr_Draufsicht
 70
     0
 71
     0
 10
-271.1191216286347
 20
-593.064941315537
 30
0.0
  3
Bgr_Draufsicht
  1

  0
INSERT
  5
6E
330
6D
100
AcDbEntity
  8
0
100
AcDbBlockReference
  2
Bgr_Blechschrauben_1
 10
-117.1191216286351
 20
-439.0649413155375
 30
0.0
  0
INSERT
  5
6F
330
6D
100
AcDbEntity
  8
0
100
AcDbBlockReference
  2
Bgr_8300_unten_1
 10
-140.1191216286347
 20
-462.064941315537
 30
0.0
  0
ENDBLK
  5
71
330
6D
100
AcDbEntity
  8
0
100
AcDbBlockEnd
  0
BLOCK
  5
74
330
72
100
AcDbEntity
  8
0
100
AcDbBlockBegin
  2
Bgr_8300_1__2
 70
     0
 71
     0
 10
-95.61532523838372
 20
186.745410195545
 30
0.0
  3
Bgr_8300_1__2
  1

  0
INSERT
  5
73
330
72
100
AcDbEntity
  8
0
100
AcDbBlockReference
  2
Bgr_Draufsicht
 10
-271.1191216286347
 20
-593.064941315537
 30
0.0
  0
DIMENSION
  5
268
330
72
100
AcDbEntity
  8
1
100
AcDbDimension
  2
*D16
 10
-185.6153252383837
 20
31.00545565728601
 30
0.0
 11
-98.43959541924411
 21
38.00545565728601
 31
0.0
 70
    32
  1
<>
 71
     5
 42
-1.0
 53
0.00013888888889
  3
ME10_DIM_10
100
AcDbAlignedDimension
 13
-5.61532523838372
 23
180.1454101953915
 33
0.0
 14
-185.6153252383837
 24
180.1454101956975
 34
0.0
100
AcDbRotatedDimension
  0
INSERT
  5
270
330
72
100
AcDbEntity
  8
1
100
AcDbBlockReference
  2
*D17
 10
0.0
 20
0.0
 30
0.0
  0
ENDBLK
  5
75
330
72
100
AcDbEntity
  8
0
100
AcDbBlockEnd
  0
BLOCK
  5
77
330
76
100
AcDbEntity
  8
0
100
AcDbBlockBegin
  2
8300-Lippendichtung
 70
     0
 71
     0
 10
13.38467476161519
 20
-341.1694067836962
 30
0.0
  3
8300-Lippendichtung
  1

  0
LINE
  5
271
330
76
100
AcDbEntity
  8
1
  6
PHANTOM
 62
     2
100
AcDbLine
 10
-95.61532523838426
 20
341.060658634493
 30
0.0
 11
-95.61532523838426
 21
349.964579242496
 31
0.0
  0
LINE
  5
272
330
76
100
AcDbEntity
  8
1
  6
Continuous
 62
     7
100
AcDbLine
 10
-204.6153252383837
 20
342.3305932163038
 30
0.0
 11
13.38467476161519
 21
342.3305932163038
 31
0.0
  0
LINE
  5
273
330
76
100
AcDbEntity
  8
1
  6
Continuous
 62
     7
100
AcDbLine
 10
13.38467476161519
 20
348.8305932163038
 30
0.0
 11
-204.6153252383837
 21
348.8305932163038
 31
0.0
  0
LINE
  5
274
330
76
100
AcDbEntity
  8
0
  6
Continuous
 62
     7
100
AcDbLine
 10
5.88467476161519
 20
349.3305932163038
 30
0.0
 11
-197.1153252383837
 21
349.3305932163038
 31
0.0
  0
LINE
  5
275
330
76
100
AcDbEntity
  8
0
  6
Continuous
 62
     7
100
AcDbLine
 10
-199.1153252383837
 20
341.8305932163038
 30
0.0
 11
-200.1153252383837
 21
341.8305932163038
 31
0.0
  0
LINE
  5
276
330
76
100
AcDbEntity
  8
0
  6
Continuous
 62
     7
100
AcDbLine
 10
-200.1153252383837
 20
341.8305932163038
 30
0.0
 11
-201.1153252383837
 21
341.8305932163038
 31
0.0
  0
LINE
  5
277
330
76
100
AcDbEntity
  8
0
  6
Continuous
 62
     7
100
AcDbLine
 10
12.88467476161519
 20
349.3305932163038
 30
0.0
 11
11.88467476161519
 21
349.3305932163038
 31
0.0
  0
LINE
  5
278
330
76
100
AcDbEntity
  8
0
  6
Continuous
 62
     7
100
AcDbLine
 10
6.88467476161519
 20
349.3305932163038
 30
0.0
 11
5.88467476161519
 21
349.3305932163038
 31
0.0
  0
LINE
  5
279
330
76
100
AcDbEntity
  8
0
  6
Continuous
 62
     7
100
AcDbLine
 10
7.88467476161519
 20
349.3305932163038
 30
0.0
 11
6.88467476161519
 21
349.3305932163038
 31
0.0
  0
LINE
  5
27A
330
76
100
AcDbEntity
  8
0
  6
Continuous
 62
     7
100
AcDbLine
 10
11.88467476161519
 20
349.3305932163038
 30
0.0
 11
10.88467476161519
 21
349.3305932163038
 31
0.0
  0
LINE
  5
27B
330
76
100
AcDbEntity
  8
0
  6
Continuous
 62
     7
100
AcDbLine
 10
-204.1153252383837
 20
341.8305932163038
 30
0.0
 11
-204.6153252383837
 21
342.3305932163038
 31
0.0
  0
LINE
  5
27C
330
76
100
AcDbEntity
  8
0
  6
Continuous
 62
     7
100
AcDbLine
 10
-200.1153252383837
 20
349.3305932163038
 30
0.0
 11
-201.1153252383837
 21
349.3305932163038
 31
0.0
  0
LINE
  5
27D
330
76
100
AcDbEntity
  8
0
  6
Continuous
 62
     7
100
AcDbLine
 10
-201.1153252383837
 20
349.3305932163038
 30
0.0
 11
-202.1153252383837
 21
349.3305932163038
 31
0.0
  0
LINE
  5
27E
330
76
100
AcDbEntity
  8
0
  6
Continuous
 62
     7
100
AcDbLine
 10
-202.1153252383837
 20
349.3305932163038
 30
0.0
 11
-203.1153252383837
 21
349.3305932163038
 31
0.0
  0
LINE
  5
27F
330
76
100
AcDbEntity
  8
0
  6
Continuous
 62
     7
100
AcDbLine
 10
-203.1153252383837
 20
349.3305932163038
 30
0.0
 11
-204.1153252383837
 21
349.3305932163038
 31
0.0
  0
LINE
  5
280
330
76
100
AcDbEntity
  8
0
  6
Continuous
 62
     7
100
AcDbLine
 10
-204.6153252383837
 20
342.3305932163038
 30
0.0
 11
-204.6153252383837
 21
348.8305932163038
 31
0.0
  0
LINE
  5
281
330
76
100
AcDbEntity
  8
0
  6
Continuous
 62
     7
100
AcDbLine
 10
-204.1153252383837
 20
349.3305932163038
 30
0.0
 11
-204.6153252383837
 21
348.8305932163038
 31
0.0
  0
LINE
  5
282
330
76
100
AcDbEntity
  8
0
  6
Continuous
 62
     7
100
AcDbLine
 10
6.88467476161519
 20
341.8305932163038
 30
0.0
 11
5.88467476161519
 21
341.8305932163038
 31
0.0
  0
LINE
  5
283
330
76
100
AcDbEntity
  8
0
  6
Continuous
 62
     7
100
AcDbLine
 10
5.88467476161519
 20
341.8305932163038
 30
0.0
 11
-197.1153252383837
 21
341.8305932163038
 31
0.0
  0
LINE
  5
284
330
76
100
AcDbEntity
  8
0
  6
Continuous
 62
     7
100
AcDbLine
 10
-198.1153252383837
 20
341.8305932163038
 30
0.0
 11
-199.1153252383837
 21
341.8305932163038
 31
0.0
  0
LINE
  5
285
330
76
100
AcDbEntity
  8
0
  6
Continuous
 62
     7
100
AcDbLine
 10
9.88467476161519
 20
341.8305932163038
 30
0.0
 11
8.88467476161519
 21
341.8305932163038
 31
0.0
  0
LINE
  5
286
330
76
100
AcDbEntity
  8
0
  6
Continuous
 62
     7
100
AcDbLine
 10
8.88467476161519
 20
341.8305932163038
 30
0.0
 11
7.88467476161519
 21
341.8305932163038
 31
0.0
  0
LINE
  5
287
330
76
100
AcDbEntity
  8
0
  6
Continuous
 62
     7
100
AcDbLine
 10
7.88467476161519
 20
341.8305932163038
 30
0.0
 11
6.88467476161519
 21
341.8305932163038
 31
0.0
  0
LINE
  5
288
330
76
100
AcDbEntity
  8
0
  6
Continuous
 62
     7
100
AcDbLine
 10
-197.1153252383837
 20
341.8305932163038
 30
0.0
 11
-198.1153252383837
 21
341.8305932163038
 31
0.0
  0
LINE
  5
289
330
76
100
AcDbEntity
  8
0
  6
Continuous
 62
     7
100
AcDbLine
 10
-203.1153252383837
 20
341.8305932163038
 30
0.0
 11
-204.1153252383837
 21
341.8305932163038
 31
0.0
  0
LINE
  5
28A
330
76
100
AcDbEntity
  8
0
  6
Continuous
 62
     7
100
AcDbLine
 10
-202.1153252383837
 20
341.8305932163038
 30
0.0
 11
-203.1153252383837
 21
341.8305932163038
 31
0.0
  0
LINE
  5
28B
330
76
100
AcDbEntity
  8
0
  6
Continuous
 62
     7
100
AcDbLine
 10
-201.1153252383837
 20
341.8305932163038
 30
0.0
 11
-202.1153252383837
 21
341.8305932163038
 31
0.0
  0
LINE
  5
28C
330
76
100
AcDbEntity
  8
0
  6
Continuous
 62
     7
100
AcDbLine
 10
10.88467476161519
 20
341.8305932163038
 30
0.0
 11
9.88467476161519
 21
341.8305932163038
 31
0.0
  0
LINE
  5
28D
330
76
100
AcDbEntity
  8
0
  6
Continuous
 62
     7
100
AcDbLine
 10
11.88467476161519
 20
341.8305932163038
 30
0.0
 11
10.88467476161519
 21
341.8305932163038
 31
0.0
  0
LINE
  5
28E
330
76
100
AcDbEntity
  8
0
  6
Continuous
 62
     7
100
AcDbLine
 10
12.88467476161519
 20
349.3305932163038
 30
0.0
 11
13.38467476161519
 21
348.8305932163038
 31
0.0
  0
LINE
  5
28F
330
76
100
AcDbEntity
  8
0
  6
Continuous
 62
     7
100
AcDbLine
 10
8.88467476161519
 20
349.3305932163038
 30
0.0
 11
7.88467476161519
 21
349.3305932163038
 31
0.0
  0
LINE
  5
290
330
76
100
AcDbEntity
  8
0
  6
Continuous
 62
     7
100
AcDbLine
 10
9.88467476161519
 20
349.3305932163038
 30
0.0
 11
8.88467476161519
 21
349.3305932163038
 31
0.0
  0
LINE
  5
291
330
76
100
AcDbEntity
  8
0
  6
Continuous
 62
     7
100
AcDbLine
 10
10.88467476161519
 20
349.3305932163038
 30
0.0
 11
9.88467476161519
 21
349.3305932163038
 31
0.0
  0
LINE
  5
292
330
76
100
AcDbEntity
  8
0
  6
Continuous
 62
     7
100
AcDbLine
 10
13.38467476161519
 20
342.3305932163038
 30
0.0
 11
13.38467476161519
 21
348.8305932163038
 31
0.0
  0
LINE
  5
293
330
76
100
AcDbEntity
  8
0
  6
Continuous
 62
     7
100
AcDbLine
 10
-198.1153252383837
 20
349.3305932163038
 30
0.0
 11
-199.1153252383837
 21
349.3305932163038
 31
0.0
  0
LINE
  5
294
330
76
100
AcDbEntity
  8
0
  6
Continuous
 62
     7
100
AcDbLine
 10
-199.1153252383837
 20
349.3305932163038
 30
0.0
 11
-200.1153252383837
 21
349.3305932163038
 31
0.0
  0
LINE
  5
295
330
76
100
AcDbEntity
  8
0
  6
Continuous
 62
     7
100
AcDbLine
 10
-197.1153252383837
 20
349.3305932163038
 30
0.0
 11
-198.1153252383837
 21
349.3305932163038
 31
0.0
  0
LINE
  5
296
330
76
100
AcDbEntity
  8
0
  6
Continuous
 62
     7
100
AcDbLine
 10
12.88467476161519
 20
341.8305932163038
 30
0.0
 11
13.38467476161519
 21
342.3305932163038
 31
0.0
  0
LINE
  5
297
330
76
100
AcDbEntity
  8
0
  6
Continuous
 62
     7
100
AcDbLine
 10
12.88467476161519
 20
341.8305932163038
 30
0.0
 11
11.88467476161519
 21
341.8305932163038
 31
0.0
  0
ENDBLK
  5
78
330
76
100
AcDbEntity
  8
0
100
AcDbBlockEnd
  0
BLOCK
  5
7A
330
79
100
AcDbEntity
  8
0
100
AcDbBlockBegin
  2
8300-Klemmring__3
 70
     0
 71
     0
 10
23.38467476161654
 20
377.3932977701043
 30
0.0
  3
8300-Klemmring__3
  1

  0
LINE
  5
298
330
79
100
AcDbEntity
  8
1
  6
DOT_CENTER
 62
     2
100
AcDbLine
 10
-95.61532523838427
 20
382.686071007297
 30
0.0
 11
-95.61532523838427
 21
376.686071007297
 31
0.0
  0
LINE
  5
299
330
79
100
AcDbEntity
  8
0
  6
Continuous
 62
     7
100
AcDbLine
 10
16.78346314562126
 20
380.2593231738888
 30
0.0
 11
22.88467476161506
 21
380.2593231738888
 31
0.0
  0
LINE
  5
29A
330
79
100
AcDbEntity
  8
0
  6
Continuous
 62
     7
100
AcDbLine
 10
-95.61532523838427
 20
381.3932977701051
 30
0.0
 11
14.38467476161486
 21
381.3932977701051
 31
0.0
  0
LINE
  5
29B
330
79
100
AcDbEntity
  8
0
  6
Continuous
 62
     7
100
AcDbLine
 10
23.38467476161506
 20
379.3932977701044
 30
0.0
 11
20.38467476161486
 21
377.6612469625355
 31
0.0
  0
LINE
  5
29C
330
79
100
AcDbEntity
  8
0
  6
Continuous
 62
     7
100
AcDbLine
 10
23.38467476161506
 20
379.3932977701044
 30
0.0
 11
22.88467476161506
 21
380.2593231738888
 31
0.0
  0
LINE
  5
29D
330
79
100
AcDbEntity
  8
0
  6
Continuous
 62
     7
100
AcDbLine
 10
-95.61532523838427
 20
377.3932977701044
 30
0.0
 11
19.38467476161495
 21
377.3932977701044
 31
0.0
  0
LINE
  5
29E
330
79
100
AcDbEntity
  8
1
  6
Continuous
 62
     7
100
AcDbLine
 10
-95.61532523838427
 20
380.2593231738888
 30
0.0
 11
16.78346314562126
 21
380.2593231738888
 31
0.0
  0
LINE
  5
29F
330
79
100
AcDbEntity
  8
1
  6
Continuous
 62
     7
100
AcDbLine
 10
-95.61532523838429
 20
379.3932977701044
 30
0.0
 11
23.38467476161506
 21
379.3932977701044
 31
0.0
  0
LINE
  5
2A0
330
79
100
AcDbEntity
  8
1
  6
Continuous
 62
     7
100
AcDbLine
 10
-214.6153252383836
 20
379.3932977701044
 30
0.0
 11
-95.61532523838429
 21
379.3932977701044
 31
0.0
  0
LINE
  5
2A1
330
79
100
AcDbEntity
  8
1
  6
Continuous
 62
     7
100
AcDbLine
 10
-208.0141136223898
 20
380.2593231738888
 30
0.0
 11
-95.61532523838427
 21
380.2593231738888
 31
0.0
  0
LINE
  5
2A2
330
79
100
AcDbEntity
  8
0
  6
Continuous
 62
     7
100
AcDbLine
 10
-210.6153252383835
 20
377.3932977701044
 30
0.0
 11
-95.61532523838427
 21
377.3932977701044
 31
0.0
  0
LINE
  5
2A3
330
79
100
AcDbEntity
  8
0
  6
Continuous
 62
     7
100
AcDbLine
 10
-214.1153252383836
 20
380.2593231738888
 30
0.0
 11
-214.6153252383836
 21
379.3932977701044
 31
0.0
  0
LINE
  5
2A4
330
79
100
AcDbEntity
  8
0
  6
Continuous
 62
     7
100
AcDbLine
 10
-211.6153252383834
 20
377.6612469625355
 30
0.0
 11
-214.6153252383836
 21
379.3932977701044
 31
0.0
  0
LINE
  5
2A5
330
79
100
AcDbEntity
  8
0
  6
Continuous
 62
     7
100
AcDbLine
 10
-205.6153252383834
 20
381.3932977701051
 30
0.0
 11
-95.61532523838427
 21
381.3932977701051
 31
0.0
  0
LINE
  5
2A6
330
79
100
AcDbEntity
  8
0
  6
Continuous
 62
     7
100
AcDbLine
 10
-214.1153252383836
 20
380.2593231738888
 30
0.0
 11
-208.0141136223898
 21
380.2593231738888
 31
0.0
  0
ARC
  5
2A7
330
79
100
AcDbEntity
  8
0
  6
Continuous
 62
     7
100
AcDbCircle
 10
14.38467476161495
 20
378.2891347140726
 30
0.0
 40
3.104163056032419
100
AcDbArc
 50
39.39716834495759
 51
90.00000000000163
  0
ARC
  5
2A8
330
79
100
AcDbEntity
  8
0
  6
Continuous
 62
     7
100
AcDbCircle
 10
19.38467476161495
 20
379.3932977701044
 30
0.0
 40
2.0
100
AcDbArc
 50
-90.0
 51
-60.00000000000329
  0
ARC
  5
2A9
330
79
100
AcDbEntity
  8
0
  6
Continuous
 62
     7
100
AcDbCircle
 10
-210.6153252383835
 20
379.3932977701044
 30
0.0
 40
2.000000000000023
100
AcDbArc
 50
-119.9999999999968
 51
-90.0
  0
ARC
  5
2AA
330
79
100
AcDbEntity
  8
0
  6
Continuous
 62
     7
100
AcDbCircle
 10
-205.6153252383835
 20
378.2891347140726
 30
0.0
 40
3.104163056032519
100
AcDbArc
 50
89.99999999999844
 51
140.6028316550424
  0
ENDBLK
  5
7B
330
79
100
AcDbEntity
  8
0
100
AcDbBlockEnd
  0
BLOCK
  5
265
330
25D
100
AcDbEntity
  8
0
100
AcDbBlockBegin
  2
*D16
 70
     1
 71
     0
 10
0.0
 20
0.0
 30
0.0
  3
*D16
  1

  0
LINE
  5
25E
330
25D
100
AcDbEntity
  8
1
  6
Continuous
 62
     4
100
AcDbLine
 10
-185.6153252383837
 20
31.00545565728601
 30
0.0
 11
-5.61532523838366
 21
31.00545565728601
 31
0.0
  0
LINE
  5
25F
330
25D
100
AcDbEntity
  8
1
  6
Continuous
 62
     4
100
AcDbLine
 10
-5.61532523838369
 20
180.1454101953915
 30
0.0
 11
-5.61532523838369
 21
29.00545565728601
 31
0.0
  0
LINE
  5
260
330
25D
100
AcDbEntity
  8
1
  6
Continuous
 62
     4
100
AcDbLine
 10
-185.6153252383837
 20
180.1454101956976
 30
0.0
 11
-185.6153252383837
 21
29.00545565728601
 31
0.0
  0
SOLID
  5
261
330
25D
100
AcDbEntity
  8
1
 62
     4
100
AcDbTrace
 10
-175.6153252383837
 20
32.32198063315997
 30
0.0
 11
-175.6153252383837
 21
29.68893068141205
 31
0.0
 12
-185.6153252383837
 22
31.00545565728601
 32
0.0
 13
-185.6153252383837
 23
31.00545565728601
 33
0.0
  0
SOLID
  5
262
330
25D
100
AcDbEntity
  8
1
 62
     4
100
AcDbTrace
 10
-15.61532523838366
 20
29.68893068141205
 30
0.0
 11
-15.61532523838366
 21
32.32198063315997
 31
0.0
 12
-5.61532523838366
 22
31.00545565728601
 32
0.0
 13
-5.61532523838366
 23
31.00545565728601
 33
0.0
  0
MTEXT
  5
264
330
25D
100
AcDbEntity
  8
1
 62
     1
100
AcDbMText
 10
-108.9395954192441
 20
33.00545565728601
 30
0.0
 40
10.0
 41
0.0
 71
     7
 72
     1
  1
180
  7
CONVERTER_11
 11
0.9999999999970619
 21
2.424068405545306E-6
 31
0.0
 73
     1
 44
0.60024009603842
  0
ENDBLK
  5
266
330
25D
100
AcDbEntity
  8
0
100
AcDbBlockEnd
  0
BLOCK
  5
26E
330
269
100
AcDbEntity
  8
0
100
AcDbBlockBegin
  2
*D17
 70
     1
 71
     0
 10
0.0
 20
0.0
 30
0.0
  3
*D17
  1

  0
LINE
  5
26A
330
269
100
AcDbEntity
  8
1
  6
Continuous
 62
     4
100
AcDbLine
 10
-218.1466239103309
 20
132.5044584545763
 30
0.0
 11
65.39129099231408
 21
258.0182375923003
 31
0.0
  0
SOLID
  5
26B
330
269
100
AcDbEntity
  8
1
 62
     4
100
AcDbTrace
 10
21.81100282877322
 20
240.1662929538499
 30
0.0
 11
22.87681727179052
 21
237.7585986997023
 31
0.0
 12
13.19978328371865
 22
234.9146136073009
 32
0.0
 13
13.19978328371865
 23
234.9146136073009
 33
0.0
  0
SOLID
  5
26C
330
269
100
AcDbEntity
  8
1
 62
     4
100
AcDbTrace
 10
-213.0416533055407
 20
133.3245274372401
 30
0.0
 11
-214.107467748558
 21
135.7322216913878
 31
0.0
 12
-204.4304337604861
 22
138.5762067837892
 32
0.0
 13
-204.4304337604861
 23
138.5762067837892
 33
0.0
  0
MTEXT
  5
26D
330
269
100
AcDbEntity
  8
1
 62
     1
100
AcDbMText
 10
12.64308451433994
 20
236.8553759389933
 30
0.0
 40
10.0
 41
0.0
 71
     7
 72
     1
  1
\C1; {\Fgdt;n}\C1;238
  7
CONVERTER_11
 11
0.9144126766563216
 21
0.4047832219475276
 31
0.0
 73
     1
 44
0.60024009603842
  0
ENDBLK
  5
26F
330
269
100
AcDbEntity
  8
0
100
AcDbBlockEnd
  0
BLOCK
  5
2B0
330
2AB
100
AcDbEntity
  8
0
100
AcDbBlockBegin
  2
*D18
 70
     1
 71
     0
 10
0.0
 20
0.0
 30
0.0
  3
*D18
  1

  0
LINE
  5
2AC
330
2AB
100
AcDbEntity
  8
1
  6
Continuous
 62
     4
100
AcDbLine
 10
-28.43912496905307
 20
155.7073993479603
 30
0.0
 11
-162.7915255077144
 21
217.7834210431296
 31
0.0
  0
SOLID
  5
2AD
330
2AB
100
AcDbEntity
  8
1
 62
     4
100
AcDbTrace
 10
-153.1614671404766
 20
214.7842188399274
 30
0.0
 11
-154.2658540724304
 21
212.3939716659035
 31
0.0
 12
-162.7915255077144
 22
217.7834210431296
 32
0.0
 13
-162.7915255077144
 23
217.7834210431296
 33
0.0
  0
SOLID
  5
2AE
330
2AB
100
AcDbEntity
  8
1
 62
     4
100
AcDbTrace
 10
-38.06918333629088
 20
158.7066015511626
 30
0.0
 11
-36.96479640433702
 21
161.0968487251865
 31
0.0
 12
-28.43912496905307
 22
155.7073993479603
 32
0.0
 13
-28.43912496905307
 23
155.7073993479603
 33
0.0
  0
MTEXT
  5
2AF
330
2AB
100
AcDbEntity
  8
1
 62
     1
100
AcDbMText
 10
-139.5861313998363
 20
209.2647898649971
 30
0.0
 40
10.0
 41
0.0
 71
     7
 72
     1
  1
\C1;\U+00d8\C1;148
  7
CONVERTER_11
 11
0.9077864901260898
 21
-0.4194325790214141
 31
0.0
 73
     1
 44
0.60024009603842
  0
ENDBLK
  5
2B1
330
2AB
100
AcDbEntity
  8
0
100
AcDbBlockEnd
  0
ENDSEC
  0
SECTION
  2
ENTITIES
  0
INSERT
  5
7C
330
1F
100
AcDbEntity
  8
0
100
AcDbBlockReference
  2
Bgr_8300_1__2
 10
-95.61532523838372
 20
186.745410195545
 30
0.0
  0
INSERT
  5
7D
330
1F
100
AcDbEntity
  8
0
100
AcDbBlockReference
  2
8300-Lippendichtung
 10
13.38467476161519
 20
-341.1694067836962
 30
0.0
  0
INSERT
  5
7E
330
1F
100
AcDbEntity
  8
0
100
AcDbBlockReference
  2
8300-Klemmring__3
 10
23.38467476161654
 20
377.3932977701043
 30
0.0
  0
INSERT
  5
2B2
330
1F
100
AcDbEntity
  8
1
100
AcDbBlockReference
  2
*D18
 10
0.0
 20
0.0
 30
0.0
  0
ENDSEC
  0
SECTION
  2
OBJECTS
  0
DICTIONARY
  5
C
330
0
100
AcDbDictionary
281
     1
  3
ACAD_GROUP
350
D
  3
ACAD_LAYOUT
350
1A
  3
ACAD_MLINESTYLE
350
17
  3
ACAD_PLOTSETTINGS
350
19
  3
ACAD_PLOTSTYLENAME
350
E
  3
ACAD_TABLESTYLE
350
2B3
  3
ACAD_VISUALSTYLE
350
2A
  0
DICTIONARY
  5
D
102
{ACAD_REACTORS
330
C
102
}
330
C
100
AcDbDictionary
281
     1
  0
DICTIONARY
  5
1A
102
{ACAD_REACTORS
330
C
102
}
330
C
100
AcDbDictionary
281
     1
  3
Layout1
350
1E
  3
Layout2
350
26
  3
Model
350
22
  0
DICTIONARY
  5
17
102
{ACAD_REACTORS
330
C
102
}
330
C
100
AcDbDictionary
281
     1
  3
Standard
350
18
  0
DICTIONARY
  5
19
102
{ACAD_REACTORS
330
C
102
}
330
C
100
AcDbDictionary
281
     1
  0
ACDBDICTIONARYWDFLT
  5
E
102
{ACAD_REACTORS
330
C
102
}
330
C
100
AcDbDictionary
281
     1
  3
Normal
350
F
100
AcDbDictionaryWithDefault
340
F
  0
DICTIONARY
  5
2B3
102
{ACAD_REACTORS
330
C
102
}
330
C
100
AcDbDictionary
281
     1
  0
DICTIONARY
  5
2A
102
{ACAD_REACTORS
330
C
102
}
330
C
100
AcDbDictionary
281
     1
  3
2dWireframe
350
2F
  3
3D Hidden
350
31
  3
3dWireframe
350
30
  3
Basic
350
32
  3
Brighten
350
36
  3
ColorChange
350
3A
  3
Conceptual
350
34
  3
Dim
350
35
  3
Facepattern
350
39
  3
Flat
350
2B
  3
FlatWithEdges
350
2C
  3
Gouraud
350
2D
  3
GouraudWithEdges
350
2E
  3
Linepattern
350
38
  3
Realistic
350
33
  3
Thicken
350
37
  0
LAYOUT
  5
1E
102
{ACAD_REACTORS
330
1A
102
}
330
1A
100
AcDbPlotSettings
  1

  2
none_device
  4

  6

 40
0.0
 41
0.0
 42
0.0
 43
0.0
 44
0.0
 45
0.0
 46
0.0
 47
0.0
 48
0.0
 49
0.0
140
0.0
141
0.0
142
1.0
143
1.0
 70
   688
 72
     0
 73
     0
 74
     5
  7

 75
    16
147
1.0
148
0.0
149
0.0
100
AcDbLayout
  1
Layout1
 70
     1
 71
     1
 10
0.0
 20
0.0
 11
12.0
 21
9.0
 12
0.0
 22
0.0
 32
0.0
 14
1.00000000000000E+20
 24
1.00000000000000E+20
 34
1.00000000000000E+20
 15
-1.00000000000000E+20
 25
-1.00000000000000E+20
 35
-1.00000000000000E+20
146
0.0
 13
0.0
 23
0.0
 33
0.0
 16
1.0
 26
0.0
 36
0.0
 17
0.0
 27
1.0
 37
0.0
 76
     0
330
1B
  0
LAYOUT
  5
26
102
{ACAD_REACTORS
330
1A
102
}
330
1A
100
AcDbPlotSettings
  1

  2
none_device
  4

  6

 40
0.0
 41
0.0
 42
0.0
 43
0.0
 44
0.0
 45
0.0
 46
0.0
 47
0.0
 48
0.0
 49
0.0
140
0.0
141
0.0
142
1.0
143
1.0
 70
   688
 72
     0
 73
     0
 74
     5
  7

 75
    16
147
1.0
148
0.0
149
0.0
100
AcDbLayout
  1
Layout2
 70
     1
 71
     2
 10
0.0
 20
0.0
 11
0.0
 21
0.0
 12
0.0
 22
0.0
 32
0.0
 14
0.0
 24
0.0
 34
0.0
 15
0.0
 25
0.0
 35
0.0
146
0.0
 13
0.0
 23
0.0
 33
0.0
 16
1.0
 26
0.0
 36
0.0
 17
0.0
 27
1.0
 37
0.0
 76
     0
330
23
  0
LAYOUT
  5
22
102
{ACAD_REACTORS
330
1A
102
}
330
1A
100
AcDbPlotSettings
  1

  2
none_device
  4

  6

 40
0.0
 41
0.0
 42
0.0
 43
0.0
 44
0.0
 45
0.0
 46
0.0
 47
0.0
 48
0.0
 49
0.0
140
0.0
141
0.0
142
1.0
143
1.0
 70
  1712
 72
     0
 73
     0
 74
     0
  7

 75
     0
147
1.0
148
0.0
149
0.0
100
AcDbLayout
  1
Model
 70
     1
 71
     0
 10
0.0
 20
0.0
 11
12.0
 21
9.0
 12
0.0
 22
0.0
 32
0.0
 14
-230.5508280977179
 24
29.00545565728601
 34
0.0
 15
65.39129099231408
 25
382.686071007297
 35
0.0
146
0.0
 13
0.0
 23
0.0
 33
0.0
 16
1.0
 26
0.0
 36
0.0
 17
0.0
 27
1.0
 37
0.0
 76
     0
330
1F
331
29
  0
MLINESTYLE
  5
18
102
{ACAD_REACTORS
330
17
102
}
330
17
100
AcDbMlineStyle
  2
Standard
 70
     0
  3

 62
   256
 51
90.0
 52
90.0
 71
     2
 49
0.5
 62
   256
  6
BYLAYER
 49
-0.5
 62
   256
  6
BYLAYER
  0
ACDBPLACEHOLDER
  5
F
102
{ACAD_REACTORS
330
E
102
}
330
E
  0
VISUALSTYLE
  5
2F
102
{ACAD_REACTORS
330
2A
102
}
330
2A
100
AcDbVisualStyle
  2
2dWireframe
 70
     4
 71
     0
 72
     2
 73
     0
 90
        0
 40
-0.6
 41
-30.0
 62
     5
 63
     7
 74
     1
 91
        4
 64
     7
 65
   257
 75
     1
175
     1
 42
1.0
 92
        0
 66
   257
 43
1.0
 76
     1
 77
     6
 78
     2
 67
     7
 79
     5
170
     0
171
     0
290
     0
174
     0
 93
        1
 44
0.0
173
     0
291
     0
 45
0.0
1001
ACAD
1000
AcDbSavedByObjectVersion
1070
     0
  0
VISUALSTYLE
  5
31
102
{ACAD_REACTORS
330
2A
102
}
330
2A
100
AcDbVisualStyle
  2
3D Hidden
 70
     6
 71
     1
 72
     2
 73
     2
 90
        0
 40
-0.6
 41
-30.0
 62
     5
 63
     7
 74
     2
 91
        2
 64
     7
 65
   257
 75
     2
175
     1
 42
40.0
 92
        0
 66
   257
 43
1.0
 76
     1
 77
     6
 78
     2
 67
     7
 79
     3
170
     0
171
     0
290
     0
174
     0
 93
        1
 44
0.0
173
     0
291
     0
 45
0.0
1001
ACAD
1000
AcDbSavedByObjectVersion
1070
     0
  0
VISUALSTYLE
  5
30
102
{ACAD_REACTORS
330
2A
102
}
330
2A
100
AcDbVisualStyle
  2
3dWireframe
 70
     5
 71
     0
 72
     2
 73
     0
 90
        0
 40
-0.6
 41
-30.0
 62
     5
 63
     7
 74
     1
 91
        4
 64
     7
 65
   257
 75
     1
175
     1
 42
1.0
 92
        0
 66
   257
 43
1.0
 76
     1
 77
     6
 78
     2
 67
     7
 79
     5
170
     0
171
     0
290
     0
174
     0
 93
        1
 44
0.0
173
     0
291
     0
 45
0.0
1001
ACAD
1000
AcDbSavedByObjectVersion
1070
     0
  0
VISUALSTYLE
  5
32
102
{ACAD_REACTORS
330
2A
102
}
330
2A
100
AcDbVisualStyle
  2
Basic
 70
     7
 71
     1
 72
     0
 73
     1
 90
        0
 40
-0.6
 41
-30.0
 62
     5
 63
     7
 74
     0
 91
        4
 64
     7
 65
   257
 75
     1
175
     1
 42
1.0
 92
        8
 66
     7
 43
1.0
 76
     1
 77
     6
 78
     2
 67
     7
 79
     5
170
     0
171
     0
290
     0
174
     0
 93
        1
 44
0.0
173
     0
291
     1
 45
0.0
1001
ACAD
1000
AcDbSavedByObjectVersion
1070
     0
  0
VISUALSTYLE
  5
36
102
{ACAD_REACTORS
330
2A
102
}
330
2A
100
AcDbVisualStyle
  2
Brighten
 70
    12
 71
     2
 72
     2
 73
     0
 90
        0
 40
-0.6
 41
-30.0
 62
     5
 63
     7
 74
     1
 91
        4
 64
     7
 65
   257
 75
     1
175
     1
 42
1.0
 92
        8
 66
     7
 43
1.0
 76
     1
 77
     6
 78
     2
 67
     7
 79
     5
170
     0
171
     0
290
     0
174
     0
 93
        1
 44
50.0
173
     0
291
     1
 45
0.0
1001
ACAD
1000
AcDbSavedByObjectVersion
1070
     0
  0
VISUALSTYLE
  5
3A
102
{ACAD_REACTORS
330
2A
102
}
330
2A
100
AcDbVisualStyle
  2
ColorChange
 70
    16
 71
     2
 72
     2
 73
     3
 90
        0
 40
-0.6
 41
-30.0
 62
     5
 63
     8
 74
     1
 91
        4
 64
     7
 65
   257
 75
     1
175
     1
 42
1.0
 92
        8
 66
     8
 43
1.0
 76
     1
 77
     6
 78
     2
 67
     7
 79
     5
170
     0
171
     0
290
     0
174
     0
 93
        1
 44
0.0
173
     0
291
     1
 45
0.0
1001
ACAD
1000
AcDbSavedByObjectVersion
1070
     0
  0
VISUALSTYLE
  5
34
102
{ACAD_REACTORS
330
2A
102
}
330
2A
100
AcDbVisualStyle
  2
Conceptual
 70
     9
 71
     3
 72
     2
 73
     0
 90
        0
 40
-0.6
 41
-30.0
 62
     5
 63
     7
 74
     2
 91
        2
 64
     7
 65
   257
 75
     1
175
     1
 42
40.0
 92
        8
 66
     7
 43
1.0
 76
     1
 77
     6
 78
     2
 67
     7
 79
     3
170
     0
171
     0
290
     0
174
     0
 93
        1
 44
0.0
173
     0
291
     0
 45
0.0
1001
ACAD
1000
AcDbSavedByObjectVersion
1070
     0
  0
VISUALSTYLE
  5
35
102
{ACAD_REACTORS
330
2A
102
}
330
2A
100
AcDbVisualStyle
  2
Dim
 70
    11
 71
     2
 72
     2
 73
     0
 90
        0
 40
-0.6
 41
-30.0
 62
     5
 63
     7
 74
     1
 91
        4
 64
     7
 65
   257
 75
     1
175
     1
 42
1.0
 92
        8
 66
     7
 43
1.0
 76
     1
 77
     6
 78
     2
 67
     7
 79
     5
170
     0
171
     0
290
     0
174
     0
 93
        1
 44
-50.0
173
     0
291
     1
 45
0.0
1001
ACAD
1000
AcDbSavedByObjectVersion
1070
     0
  0
VISUALSTYLE
  5
39
102
{ACAD_REACTORS
330
2A
102
}
330
2A
100
AcDbVisualStyle
  2
Facepattern
 70
    15
 71
     2
 72
     2
 73
     0
 90
        0
 40
-0.6
 41
-30.0
 62
     5
 63
     7
 74
     1
 91
        4
 64
     7
 65
   257
 75
     1
175
     1
 42
1.0
 92
        8
 66
     7
 43
1.0
 76
     1
 77
     6
 78
     2
 67
     7
 79
     5
170
     0
171
     0
290
     0
174
     0
 93
        1
 44
0.0
173
     0
291
     1
 45
0.0
1001
ACAD
1000
AcDbSavedByObjectVersion
1070
     0
  0
VISUALSTYLE
  5
2B
102
{ACAD_REACTORS
330
2A
102
}
330
2A
100
AcDbVisualStyle
  2
Flat
 70
     0
 71
     2
 72
     1
 73
     1
 90
        2
 40
-0.6
 41
30.0
 62
     5
 63
     7
 74
     0
 91
        4
 64
     7
 65
   257
 75
     1
175
     1
 42
1.0
 92
        8
 66
     7
 43
1.0
 76
     1
 77
     6
 78
     2
 67
     7
 79
     5
170
     0
171
     0
290
     0
174
     0
 93
       13
 44
0.0
173
     0
291
     1
 45
0.0
1001
ACAD
1000
AcDbSavedByObjectVersion
1070
     0
  0
VISUALSTYLE
  5
2C
102
{ACAD_REACTORS
330
2A
102
}
330
2A
100
AcDbVisualStyle
  2
FlatWithEdges
 70
     1
 71
     2
 72
     1
 73
     1
 90
        2
 40
-0.6
 41
30.0
 62
     5
 63
     7
 74
     1
 91
        4
 64
     7
 65
   257
 75
     1
175
     1
 42
1.0
 92
        0
 66
   257
 43
1.0
 76
     1
 77
     6
 78
     2
 67
     7
 79
     5
170
     0
171
     0
290
     0
174
     0
 93
       13
 44
0.0
173
     0
291
     1
 45
0.0
1001
ACAD
1000
AcDbSavedByObjectVersion
1070
     0
  0
VISUALSTYLE
  5
2D
102
{ACAD_REACTORS
330
2A
102
}
330
2A
100
AcDbVisualStyle
  2
Gouraud
 70
     2
 71
     2
 72
     2
 73
     1
 90
        2
 40
-0.6
 41
30.0
 62
     5
 63
     7
 74
     0
 91
        4
 64
     7
 65
   257
 75
     1
175
     1
 42
1.0
 92
        0
 66
     7
 43
1.0
 76
     1
 77
     6
 78
     2
 67
     7
 79
     5
170
     0
171
     0
290
     0
174
     0
 93
       13
 44
0.0
173
     0
291
     1
 45
0.0
1001
ACAD
1000
AcDbSavedByObjectVersion
1070
     0
  0
VISUALSTYLE
  5
2E
102
{ACAD_REACTORS
330
2A
102
}
330
2A
100
AcDbVisualStyle
  2
GouraudWithEdges
 70
     3
 71
     2
 72
     2
 73
     1
 90
        2
 40
-0.6
 41
30.0
 62
     5
 63
     7
 74
     1
 91
        4
 64
     7
 65
   257
 75
     1
175
     1
 42
1.0
 92
        0
 66
   257
 43
1.0
 76
     1
 77
     6
 78
     2
 67
     7
 79
     5
170
     0
171
     0
290
     0
174
     0
 93
       13
 44
0.0
173
     0
291
     1
 45
0.0
1001
ACAD
1000
AcDbSavedByObjectVersion
1070
     0
  0
VISUALSTYLE
  5
38
102
{ACAD_REACTORS
330
2A
102
}
330
2A
100
AcDbVisualStyle
  2
Linepattern
 70
    14
 71
     2
 72
     2
 73
     0
 90
        0
 40
-0.6
 41
-30.0
 62
     5
 63
     7
 74
     1
 91
        4
 64
     7
 65
   257
 75
     7
175
     7
 42
1.0
 92
        8
 66
     7
 43
1.0
 76
     1
 77
     6
 78
     2
 67
     7
 79
     5
170
     0
171
     0
290
     0
174
     0
 93
        1
 44
0.0
173
     0
291
     1
 45
0.0
1001
ACAD
1000
AcDbSavedByObjectVersion
1070
     0
  0
VISUALSTYLE
  5
33
102
{ACAD_REACTORS
330
2A
102
}
330
2A
100
AcDbVisualStyle
  2
Realistic
 70
     8
 71
     2
 72
     2
 73
     0
 90
        0
 40
-0.6
 41
-30.0
 62
     5
 63
     7
 74
     1
 91
        0
 64
     7
 65
   257
 75
     1
175
     1
 42
1.0
 92
        8
 66
     8
 43
1.0
 76
     1
 77
     6
 78
     2
 67
     7
 79
     5
170
     0
171
     0
290
     0
174
     0
 93
       13
 44
0.0
173
     0
291
     0
 45
0.0
1001
ACAD
1000
AcDbSavedByObjectVersion
1070
     0
  0
VISUALSTYLE
  5
37
102
{ACAD_REACTORS
330
2A
102
}
330
2A
100
AcDbVisualStyle
  2
Thicken
 70
    13
 71
     2
 72
     2
 73
     0
 90
        0
 40
-0.6
 41
-30.0
 62
     5
 63
     7
 74
     1
 91
        4
 64
     7
 65
   257
 75
     1
175
     1
 42
1.0
 92
       12
 66
     7
 43
1.0
 76
     1
 77
     6
 78
     2
 67
     7
 79
     5
170
     0
171
     0
290
     0
174
     0
 93
        1
 44
0.0
173
     0
291
     1
 45
0.0
1001
ACAD
1000
AcDbSavedByObjectVersion
1070
     0
  0
ENDSEC
  0
EOF
