  0
SECTION
  2
HEADER
  9
$ACADVER
  1
AC1015
  9
$ACADMAINTVER
 70
     6
  9
$DWGCODEPAGE
  3
ANSI_1252
  9
$INSBASE
 10
0.0
 20
0.0
 30
0.0
  9
$EXTMIN
 10
-259.6427506340938
 20
-293.451532093815
 30
0.0
  9
$EXTMAX
 10
271.620901185503
 20
337.7685202252554
 30
0.0
  9
$LIMMIN
 10
0.0
 20
0.0
  9
$LIMMAX
 10
12.0
 20
9.0
  9
$ORTHOMODE
 70
     0
  9
$REGENMODE
 70
     1
  9
$FILLMODE
 70
     1
  9
$QTEXTMODE
 70
     0
  9
$MIRRTEXT
 70
     1
  9
$LTSCALE
 40
1.0
  9
$ATTMODE
 70
     1
  9
$TEXTSIZE
 40
0.2
  9
$TRACEWID
 40
0.05
  9
$TEXTSTYLE
  7
Standard
  9
$CLAYER
  8
0
  9
$CELTYPE
  6
ByLayer
  9
$CECOLOR
 62
   256
  9
$CELTSCALE
 40
1.0
  9
$DISPSILH
 70
     0
  9
$DIMSCALE
 40
1.0
  9
$DIMASZ
 40
0.18
  9
$DIMEXO
 40
0.0625
  9
$DIMDLI
 40
0.38
  9
$DIMRND
 40
0.0
  9
$DIMDLE
 40
0.0
  9
$DIMEXE
 40
0.18
  9
$DIMTP
 40
0.0
  9
$DIMTM
 40
0.0
  9
$DIMTXT
 40
0.18
  9
$DIMCEN
 40
0.09
  9
$DIMTSZ
 40
0.0
  9
$DIMTOL
 70
     0
  9
$DIMLIM
 70
     0
  9
$DIMTIH
 70
     1
  9
$DIMTOH
 70
     1
  9
$DIMSE1
 70
     0
  9
$DIMSE2
 70
     0
  9
$DIMTAD
 70
     0
  9
$DIMZIN
 70
     0
  9
$DIMBLK
  1

  9
$DIMASO
 70
     1
  9
$DIMSHO
 70
     1
  9
$DIMPOST
  1

  9
$DIMAPOST
  1

  9
$DIMALT
 70
     0
  9
$DIMALTD
 70
     2
  9
$DIMALTF
 40
25.4
  9
$DIMLFAC
 40
1.0
  9
$DIMTOFL
 70
     0
  9
$DIMTVP
 40
0.0
  9
$DIMTIX
 70
     0
  9
$DIMSOXD
 70
     0
  9
$DIMSAH
 70
     0
  9
$DIMBLK1
  1

  9
$DIMBLK2
  1

  9
$DIMSTYLE
  2
Standard
  9
$DIMCLRD
 70
     0
  9
$DIMCLRE
 70
     0
  9
$DIMCLRT
 70
     0
  9
$DIMTFAC
 40
1.0
  9
$DIMGAP
 40
0.09
  9
$DIMJUST
 70
     0
  9
$DIMSD1
 70
     0
  9
$DIMSD2
 70
     0
  9
$DIMTOLJ
 70
     1
  9
$DIMTZIN
 70
     0
  9
$DIMALTZ
 70
     0
  9
$DIMALTTZ
 70
     0
  9
$DIMUPT
 70
     0
  9
$DIMDEC
 70
     4
  9
$DIMTDEC
 70
     4
  9
$DIMALTU
 70
     2
  9
$DIMALTTD
 70
     2
  9
$DIMTXSTY
  7
Standard
  9
$DIMAUNIT
 70
     0
  9
$DIMADEC
 70
     0
  9
$DIMALTRND
 40
0.0
  9
$DIMAZIN
 70
     0
  9
$DIMDSEP
 70
    46
  9
$DIMATFIT
 70
     3
  9
$DIMFRAC
 70
     0
  9
$DIMLDRBLK
  1

  9
$DIMLUNIT
 70
     2
  9
$DIMLWD
 70
    -2
  9
$DIMLWE
 70
    -2
  9
$DIMTMOVE
 70
     0
  9
$LUNITS
 70
     2
  9
$LUPREC
 70
     4
  9
$SKETCHINC
 40
0.1
  9
$FILLETRAD
 40
0.5
  9
$AUNITS
 70
     0
  9
$AUPREC
 70
     0
  9
$MENU
  1
.
  9
$ELEVATION
 40
0.0
  9
$PELEVATION
 40
0.0
  9
$THICKNESS
 40
0.0
  9
$LIMCHECK
 70
     0
  9
$CHAMFERA
 40
0.5
  9
$CHAMFERB
 40
0.5
  9
$CHAMFERC
 40
1.0
  9
$CHAMFERD
 40
0.0
  9
$SKPOLY
 70
     0
  9
$TDCREATE
 40
2454704.452752639
  9
$TDUCREATE
 40
2454704.369419306
  9
$TDUPDATE
 40
2454704.45275265
  9
$TDUUPDATE
 40
2454704.369419317
  9
$TDINDWG
 40
0.0000000116
  9
$TDUSRTIMER
 40
0.0000000116
  9
$USRTIMER
 70
     1
  9
$ANGBASE
 50
0.0
  9
$ANGDIR
 70
     0
  9
$PDMODE
 70
     0
  9
$PDSIZE
 40
0.0
  9
$PLINEWID
 40
0.0
  9
$SPLFRAME
 70
     0
  9
$SPLINETYPE
 70
     6
  9
$SPLINESEGS
 70
     8
  9
$HANDSEED
  5
3BA
  9
$SURFTAB1
 70
     6
  9
$SURFTAB2
 70
     6
  9
$SURFTYPE
 70
     6
  9
$SURFU
 70
     6
  9
$SURFV
 70
     6
  9
$UCSBASE
  2

  9
$UCSNAME
  2

  9
$UCSORG
 10
0.0
 20
0.0
 30
0.0
  9
$UCSXDIR
 10
1.0
 20
0.0
 30
0.0
  9
$UCSYDIR
 10
0.0
 20
1.0
 30
0.0
  9
$UCSORTHOREF
  2

  9
$UCSORTHOVIEW
 70
     0
  9
$UCSORGTOP
 10
0.0
 20
0.0
 30
0.0
  9
$UCSORGBOTTOM
 10
0.0
 20
0.0
 30
0.0
  9
$UCSORGLEFT
 10
0.0
 20
0.0
 30
0.0
  9
$UCSORGRIGHT
 10
0.0
 20
0.0
 30
0.0
  9
$UCSORGFRONT
 10
0.0
 20
0.0
 30
0.0
  9
$UCSORGBACK
 10
0.0
 20
0.0
 30
0.0
  9
$PUCSBASE
  2

  9
$PUCSNAME
  2

  9
$PUCSORG
 10
0.0
 20
0.0
 30
0.0
  9
$PUCSXDIR
 10
1.0
 20
0.0
 30
0.0
  9
$PUCSYDIR
 10
0.0
 20
1.0
 30
0.0
  9
$PUCSORTHOREF
  2

  9
$PUCSORTHOVIEW
 70
     0
  9
$PUCSORGTOP
 10
0.0
 20
0.0
 30
0.0
  9
$PUCSORGBOTTOM
 10
0.0
 20
0.0
 30
0.0
  9
$PUCSORGLEFT
 10
0.0
 20
0.0
 30
0.0
  9
$PUCSORGRIGHT
 10
0.0
 20
0.0
 30
0.0
  9
$PUCSORGFRONT
 10
0.0
 20
0.0
 30
0.0
  9
$PUCSORGBACK
 10
0.0
 20
0.0
 30
0.0
  9
$USERI1
 70
     0
  9
$USERI2
 70
     0
  9
$USERI3
 70
     0
  9
$USERI4
 70
     0
  9
$USERI5
 70
     0
  9
$USERR1
 40
15.5
  9
$USERR2
 40
0.0
  9
$USERR3
 40
0.0
  9
$USERR4
 40
0.0
  9
$USERR5
 40
0.0
  9
$WORLDVIEW
 70
     1
  9
$SHADEDGE
 70
     3
  9
$SHADEDIF
 70
    70
  9
$TILEMODE
 70
     1
  9
$MAXACTVP
 70
    64
  9
$PINSBASE
 10
0.0
 20
0.0
 30
0.0
  9
$PLIMCHECK
 70
     0
  9
$PEXTMIN
 10
1.00000000000000E+20
 20
1.00000000000000E+20
 30
1.00000000000000E+20
  9
$PEXTMAX
 10
-1.00000000000000E+20
 20
-1.00000000000000E+20
 30
-1.00000000000000E+20
  9
$PLIMMIN
 10
0.0
 20
0.0
  9
$PLIMMAX
 10
12.0
 20
9.0
  9
$UNITMODE
 70
     0
  9
$VISRETAIN
 70
     1
  9
$PLINEGEN
 70
     0
  9
$PSLTSCALE
 70
     1
  9
$TREEDEPTH
 70
  3020
  9
$CMLSTYLE
  2
Standard
  9
$CMLJUST
 70
     0
  9
$CMLSCALE
 40
1.0
  9
$PROXYGRAPHICS
 70
     1
  9
$MEASUREMENT
 70
     1
  9
$CELWEIGHT
370
    -1
  9
$ENDCAPS
280
     0
  9
$JOINSTYLE
280
     0
  9
$LWDISPLAY
290
     0
  9
$INSUNITS
 70
     1
  9
$HYPERLINKBASE
  1

  9
$STYLESHEET
  1

  9
$XEDIT
290
     1
  9
$CEPSNTYPE
380
     0
  9
$PSTYLEMODE
290
     1
  9
$FINGERPRINTGUID
  2
{584A3BB4-4B57-4BED-A8A1-232318339A40}
  9
$VERSIONGUID
  2
{FAEB1C32-E019-11D5-929B-00C0DF256EC4}
  9
$EXTNAMES
290
     1
  9
$PSVPSCALE
 40
0.0
  9
$OLESTARTUP
290
     0
  0
ENDSEC
  0
SECTION
  2
CLASSES
  0
CLASS
  1
ACDBDICTIONARYWDFLT
  2
AcDbDictionaryWithDefault
  3
ObjectDBX Classes
 90
        0
280
     0
281
     0
  0
CLASS
  1
VISUALSTYLE
  2
AcDbVisualStyle
  3
ObjectDBX Classes
 90
     4095
280
     0
281
     0
  0
CLASS
  1

  2
exOdDbSpline
  3

 90
        0
280
     0
281
     1
  0
CLASS
  1

  2
exOdDbCircle
  3

 90
        0
280
     0
281
     1
  0
CLASS
  1
ACDBPLACEHOLDER
  2
AcDbPlaceHolder
  3
ObjectDBX Classes
 90
        0
280
     0
281
     0
  0
CLASS
  1
LAYOUT
  2
AcDbLayout
  3
ObjectDBX Classes
 90
        0
280
     0
281
     0
  0
ENDSEC
  0
SECTION
  2
TABLES
  0
TABLE
  2
VPORT
  5
8
330
0
100
AcDbSymbolTable
 70
     1
  0
VPORT
  5
29
330
8
100
AcDbSymbolTableRecord
100
AcDbViewportTableRecord
  2
*Active
 70
     0
 10
0.0
 20
0.0
 11
1.0
 21
1.0
 12
5.98907527570461
 22
22.15849406572019
 13
0.0
 23
0.0
 14
0.5
 24
0.5
 15
0.5
 25
0.5
 16
0.0
 26
0.0
 36
1.0
 17
0.0
 27
0.0
 37
0.0
 40
694.3420575509775
 41
1.60267857142857
 42
50.0
 43
0.0
 44
0.0
 50
0.0
 51
0.0
 71
     0
 72
   100
 73
     1
 74
     3
 75
     0
 76
     0
 77
     0
 78
     0
281
     0
 65
     1
110
0.0
120
0.0
130
0.0
111
1.0
121
0.0
131
0.0
112
0.0
122
1.0
132
0.0
 79
     0
146
0.0
  0
ENDTAB
  0
TABLE
  2
LTYPE
  5
5
330
0
100
AcDbSymbolTable
 70
     8
  0
LTYPE
  5
14
330
5
100
AcDbSymbolTableRecord
100
AcDbLinetypeTableRecord
  2
ByBlock
 70
     0
  3

 72
    65
 73
     0
 40
0.0
  0
LTYPE
  5
15
330
5
100
AcDbSymbolTableRecord
100
AcDbLinetypeTableRecord
  2
ByLayer
 70
     0
  3

 72
    65
 73
     0
 40
0.0
  0
LTYPE
  5
16
330
5
100
AcDbSymbolTableRecord
100
AcDbLinetypeTableRecord
  2
Continuous
 70
     0
  3
Solid line
 72
    65
 73
     0
 40
0.0
  0
LTYPE
  5
3B
330
5
100
AcDbSymbolTableRecord
100
AcDbLinetypeTableRecord
  2
DASHED
 70
     0
  3
Dashed
 72
    65
 73
     2
 40
15.0
 49
7.0
 74
     0
 49
-8.0
 74
     0
  0
LTYPE
  5
3C
330
5
100
AcDbSymbolTableRecord
100
AcDbLinetypeTableRecord
  2
DOTTED
 70
     0
  3
Dotted
 72
    65
 73
     2
 40
1.0
 49
0.0
 74
     0
 49
-1.0
 74
     0
  0
LTYPE
  5
3D
330
5
100
AcDbSymbolTableRecord
100
AcDbLinetypeTableRecord
  2
DOT_CENTER
 70
     0
  3
Dot_Center
 72
    65
 73
     4
 40
14.0
 49
12.0
 74
     0
 49
-1.0
 74
     0
 49
0.0
 74
     0
 49
-1.0
 74
     0
  0
LTYPE
  5
3E
330
5
100
AcDbSymbolTableRecord
100
AcDbLinetypeTableRecord
  2
LONG_DASHED
 70
     0
  3
Long_Dashed
 72
    65
 73
     2
 40
15.0
 49
10.0
 74
     0
 49
-5.0
 74
     0
  0
LTYPE
  5
3F
330
5
100
AcDbSymbolTableRecord
100
AcDbLinetypeTableRecord
  2
DASH_CENTER
 70
     0
  3
Dash_Center
 72
    65
 73
     4
 40
14.0
 49
11.0
 74
     0
 49
-1.0
 74
     0
 49
1.0
 74
     0
 49
-1.0
 74
     0
  0
LTYPE
  5
40
330
5
100
AcDbSymbolTableRecord
100
AcDbLinetypeTableRecord
  2
PHANTOM
 70
     0
  3
Phantom
 72
    65
 73
     6
 40
13.0
 49
10.0
 74
     0
 49
-1.0
 74
     0
 49
0.0
 74
     0
 49
-1.0
 74
     0
 49
0.0
 74
     0
 49
-1.0
 74
     0
  0
LTYPE
  5
41
330
5
100
AcDbSymbolTableRecord
100
AcDbLinetypeTableRecord
  2
CENTER_DASH_DASH
 70
     0
  3
Center_Dash_Dash
 72
    65
 73
     6
 40
14.0
 49
9.0
 74
     0
 49
-1.0
 74
     0
 49
1.0
 74
     0
 49
-1.0
 74
     0
 49
1.0
 74
     0
 49
-1.0
 74
     0
  0
ENDTAB
  0
TABLE
  2
LAYER
  5
2
330
0
100
AcDbSymbolTable
 70
     2
  0
LAYER
  5
10
330
2
100
AcDbSymbolTableRecord
100
AcDbLayerTableRecord
  2
0
 70
     0
 62
     7
  6
Continuous
370
    -3
390
F
  0
LAYER
  5
42
330
2
100
AcDbSymbolTableRecord
100
AcDbLayerTableRecord
  2
1
 70
     0
 62
     7
  6
Continuous
370
    -3
390
F
  0
ENDTAB
  0
TABLE
  2
STYLE
  5
3
330
0
100
AcDbSymbolTable
 70
     2
  0
STYLE
  5
11
330
3
100
AcDbSymbolTableRecord
100
AcDbTextStyleTableRecord
  2
Standard
 70
     0
 40
0.0
 41
1.0
 50
0.0
 71
     0
 42
0.2
  3
txt
  4

  0
STYLE
  5
38A
330
3
100
AcDbSymbolTableRecord
100
AcDbTextStyleTableRecord
  2
CONVERTER_11
 70
     0
 40
0.0
 41
0.9
 50
0.0
 71
     0
 42
0.2
  3
txt.shx
  4

  0
ENDTAB
  0
TABLE
  2
VIEW
  5
6
330
0
100
AcDbSymbolTable
 70
     0
  0
ENDTAB
  0
TABLE
  2
UCS
  5
7
330
0
100
AcDbSymbolTable
 70
     0
  0
ENDTAB
  0
TABLE
  2
APPID
  5
9
330
0
100
AcDbSymbolTable
 70
     1
  0
APPID
  5
12
330
9
100
AcDbSymbolTableRecord
100
AcDbRegAppTableRecord
  2
ACAD
 70
     0
  0
ENDTAB
  0
TABLE
  2
DIMSTYLE
  5
A
330
0
100
AcDbSymbolTable
 70
     5
100
AcDbDimStyleTable
  0
DIMSTYLE
105
27
330
A
100
AcDbSymbolTableRecord
100
AcDbDimStyleTableRecord
  2
Standard
 70
     0
340
11
  0
DIMSTYLE
105
38E
102
{ACAD_REACTORS
330
38F
102
}
330
A
100
AcDbSymbolTableRecord
100
AcDbDimStyleTableRecord
  2
ME10_DIM_10
 70
     0
 41
10.0
 42
0.0
 44
2.0
 73
     0
 74
     0
 77
     1
 78
     8
140
10.0
147
2.0
172
     1
173
     1
176
     4
177
     4
178
     1
271
     2
340
38A
  0
DIMSTYLE
105
399
102
{ACAD_REACTORS
330
39A
102
}
330
A
100
AcDbSymbolTableRecord
100
AcDbDimStyleTableRecord
  2
ME10_DIM_11
 70
     0
 41
10.0
 42
0.0
 44
2.0
 73
     0
 74
     0
 77
     1
 78
     8
140
10.0
147
2.0
172
     1
173
     1
176
     4
177
     4
178
     1
271
     2
340
38A
  0
DIMSTYLE
105
3A4
102
{ACAD_REACTORS
330
3A5
102
}
330
A
100
AcDbSymbolTableRecord
100
AcDbDimStyleTableRecord
  2
ME10_DIM_12
 70
     0
 41
10.0
 42
0.0
 44
2.0
 73
     0
 74
     0
 77
     1
 78
     8
140
10.0
147
2.0
172
     1
173
     1
176
     4
177
     4
178
     1
271
     2
340
38A
  0
DIMSTYLE
105
3AF
102
{ACAD_REACTORS
330
3B0
102
}
330
A
100
AcDbSymbolTableRecord
100
AcDbDimStyleTableRecord
  2
ME10_DIM_13
 70
     0
  3
{\Fgdt;n}<>
 41
10.0
 42
0.0
 44
2.0
 73
     0
 74
     0
 77
     1
 78
     8
140
10.0
147
2.0
172
     1
173
     1
176
     4
177
     4
178
     1
271
     2
340
38A
  0
ENDTAB
  0
TABLE
  2
BLOCK_RECORD
  5
1
330
0
100
AcDbSymbolTable
 70
    24
  0
BLOCK_RECORD
  5
1F
330
1
100
AcDbSymbolTableRecord
100
AcDbBlockTableRecord
  2
*Model_Space
340
22
  0
BLOCK_RECORD
  5
1B
330
1
100
AcDbSymbolTableRecord
100
AcDbBlockTableRecord
  2
*Paper_Space
340
1E
  0
BLOCK_RECORD
  5
23
330
1
100
AcDbSymbolTableRecord
100
AcDbBlockTableRecord
  2
*Paper_Space0
340
26
  0
BLOCK_RECORD
  5
43
330
1
100
AcDbSymbolTableRecord
100
AcDbBlockTableRecord
  2
EPDM_Folie_400x400
340
0
102
{BLKREFS
331
4D
102
}
  0
BLOCK_RECORD
  5
46
330
1
100
AcDbSymbolTableRecord
100
AcDbBlockTableRecord
  2
8300-Lippendichtung
340
0
102
{BLKREFS
331
4E
102
}
  0
BLOCK_RECORD
  5
49
330
1
100
AcDbSymbolTableRecord
100
AcDbBlockTableRecord
  2
8300-Klemmring__1
340
0
102
{BLKREFS
331
4F
102
}
  0
BLOCK_RECORD
  5
4C
330
1
100
AcDbSymbolTableRecord
100
AcDbBlockTableRecord
  2
Bgr_8300_1__2
340
0
102
{BLKREFS
331
86
102
}
  0
BLOCK_RECORD
  5
52
330
1
100
AcDbSymbolTableRecord
100
AcDbBlockTableRecord
  2
Blechschraube6_3x19_2_3_3
340
0
102
{BLKREFS
331
6B
102
}
  0
BLOCK_RECORD
  5
55
330
1
100
AcDbSymbolTableRecord
100
AcDbBlockTableRecord
  2
Blechschraube6_3x19_2_3_4
340
0
102
{BLKREFS
331
6C
102
}
  0
BLOCK_RECORD
  5
58
330
1
100
AcDbSymbolTableRecord
100
AcDbBlockTableRecord
  2
Blechschraube6_3x19_2_3_5
340
0
102
{BLKREFS
331
6D
102
}
  0
BLOCK_RECORD
  5
5B
330
1
100
AcDbSymbolTableRecord
100
AcDbBlockTableRecord
  2
Blechschraube6_3x19_2_3_8
340
0
102
{BLKREFS
331
6E
102
}
  0
BLOCK_RECORD
  5
5E
330
1
100
AcDbSymbolTableRecord
100
AcDbBlockTableRecord
  2
Blechschraube6_3x19_2_3
340
0
102
{BLKREFS
331
6F
102
}
  0
BLOCK_RECORD
  5
61
330
1
100
AcDbSymbolTableRecord
100
AcDbBlockTableRecord
  2
Blechschraube6_3x19_2_3_2
340
0
102
{BLKREFS
331
70
102
}
  0
BLOCK_RECORD
  5
64
330
1
100
AcDbSymbolTableRecord
100
AcDbBlockTableRecord
  2
Blechschraube6_3x19_2_3_7
340
0
102
{BLKREFS
331
71
102
}
  0
BLOCK_RECORD
  5
67
330
1
100
AcDbSymbolTableRecord
100
AcDbBlockTableRecord
  2
Blechschraube6_3x19_2_3_6
340
0
102
{BLKREFS
331
72
102
}
  0
BLOCK_RECORD
  5
6A
330
1
100
AcDbSymbolTableRecord
100
AcDbBlockTableRecord
  2
Bgr_Blechschrauben_1
340
0
102
{BLKREFS
331
80
102
}
  0
BLOCK_RECORD
  5
75
330
1
100
AcDbSymbolTableRecord
100
AcDbBlockTableRecord
  2
8300-Klemmring__3
340
0
102
{BLKREFS
331
79
102
}
  0
BLOCK_RECORD
  5
78
330
1
100
AcDbSymbolTableRecord
100
AcDbBlockTableRecord
  2
Bgr_8300_unten_1
340
0
102
{BLKREFS
331
81
102
}
  0
BLOCK_RECORD
  5
7C
330
1
100
AcDbSymbolTableRecord
100
AcDbBlockTableRecord
  2
8300-Dichtfolie_1_1
340
0
102
{BLKREFS
331
82
102
}
  0
BLOCK_RECORD
  5
7F
330
1
100
AcDbSymbolTableRecord
100
AcDbBlockTableRecord
  2
Bgr_Draufsicht
340
0
102
{BLKREFS
331
87
102
}
  0
BLOCK_RECORD
  5
85
330
1
100
AcDbSymbolTableRecord
100
AcDbBlockTableRecord
  2
Bgr_8300_1__4
340
0
102
{BLKREFS
331
8A
102
}
  0
BLOCK_RECORD
  5
384
330
1
100
AcDbSymbolTableRecord
100
AcDbBlockTableRecord
  2
*D19
340
0
  0
BLOCK_RECORD
  5
390
330
1
100
AcDbSymbolTableRecord
100
AcDbBlockTableRecord
  2
*D20
340
0
  0
BLOCK_RECORD
  5
39B
330
1
100
AcDbSymbolTableRecord
100
AcDbBlockTableRecord
  2
*D21
340
0
  0
BLOCK_RECORD
  5
3A6
330
1
100
AcDbSymbolTableRecord
100
AcDbBlockTableRecord
  2
*D22
340
0
  0
BLOCK_RECORD
  5
3B1
330
1
100
AcDbSymbolTableRecord
100
AcDbBlockTableRecord
  2
*D23
340
0
102
{BLKREFS
331
3B8
102
}
  0
ENDTAB
  0
ENDSEC
  0
SECTION
  2
BLOCKS
  0
BLOCK
  5
20
330
1F
100
AcDbEntity
  8
0
100
AcDbBlockBegin
  2
*Model_Space
 70
     0
 71
     0
 10
0.0
 20
0.0
 30
0.0
  3
*Model_Space
  1

  0
ENDBLK
  5
21
330
1F
100
AcDbEntity
  8
0
100
AcDbBlockEnd
  0
BLOCK
  5
1C
330
1B
100
AcDbEntity
 67
     1
  8
0
100
AcDbBlockBegin
  2
*Paper_Space
 70
     0
 71
     0
 10
0.0
 20
0.0
 30
0.0
  3
*Paper_Space
  1

  0
ENDBLK
  5
1D
330
1B
100
AcDbEntity
 67
     1
  8
0
100
AcDbBlockEnd
  0
BLOCK
  5
24
330
23
100
AcDbEntity
  8
0
100
AcDbBlockBegin
  2
*Paper_Space0
 70
     0
 71
     0
 10
0.0
 20
0.0
 30
0.0
  3
*Paper_Space0
  1

  0
ENDBLK
  5
25
330
23
100
AcDbEntity
  8
0
100
AcDbBlockEnd
  0
BLOCK
  5
44
330
43
100
AcDbEntity
  8
0
100
AcDbBlockBegin
  2
EPDM_Folie_400x400
 70
     0
 71
     0
 10
-0.00000000000011
 20
336.271071842876
 30
0.0
  3
EPDM_Folie_400x400
  1

  0
LINE
  5
8B
330
43
100
AcDbEntity
  8
1
  6
Continuous
 62
     7
100
AcDbLine
 10
-250.0
 20
312.4710718428767
 30
0.0
 11
250.0
 21
312.4710718428767
 31
0.0
  0
LINE
  5
8C
330
43
100
AcDbEntity
  8
1
  6
Continuous
 62
     7
100
AcDbLine
 10
250.0
 20
312.4710718428767
 30
0.0
 11
250.0
 21
311.271071842876
 31
0.0
  0
LINE
  5
8D
330
43
100
AcDbEntity
  8
1
  6
Continuous
 62
     7
100
AcDbLine
 10
250.0
 20
311.271071842876
 30
0.0
 11
-250.0
 21
311.271071842876
 31
0.0
  0
LINE
  5
8E
330
43
100
AcDbEntity
  8
1
  6
Continuous
 62
     7
100
AcDbLine
 10
-250.0
 20
311.271071842876
 30
0.0
 11
-250.0
 21
312.4710718428767
 31
0.0
  0
ENDBLK
  5
45
330
43
100
AcDbEntity
  8
0
100
AcDbBlockEnd
  0
BLOCK
  5
47
330
46
100
AcDbEntity
  8
0
100
AcDbBlockBegin
  2
8300-Lippendichtung
 70
     0
 71
     0
 10
108.9999999999994
 20
-404.6476770006932
 30
0.0
  3
8300-Lippendichtung
  1

  0
LINE
  5
8F
102
{ACAD_REACTORS
330
F4
330
F4
102
}
330
46
100
AcDbEntity
  8
0
  6
Continuous
 62
     7
100
AcDbLine
 10
-100.999999999993
 20
278.8523229993134
 30
0.0
 11
-101.4999999999996
 21
278.3523229993068
 31
0.0
  0
LINE
  5
90
330
46
100
AcDbEntity
  8
0
  6
Continuous
 62
     7
100
AcDbLine
 10
101.4999999999994
 20
285.8523229993068
 30
0.0
 11
-101.4999999999994
 21
285.8523229993068
 31
0.0
  0
LINE
  5
91
330
46
100
AcDbEntity
  8
0
  6
Continuous
 62
     7
100
AcDbLine
 10
-100.9999999999963
 20
285.3523229993035
 30
0.0
 11
100.999999999996
 21
285.3523229993035
 31
0.0
  0
LINE
  5
92
102
{ACAD_REACTORS
330
F4
330
F4
102
}
330
46
100
AcDbEntity
  8
0
  6
Continuous
 62
     7
100
AcDbLine
 10
-103.9999999999996
 20
278.8523229993068
 30
0.0
 11
-104.4999999999996
 21
278.3523229993068
 31
0.0
  0
LINE
  5
93
102
{ACAD_REACTORS
330
F4
330
F4
102
}
330
46
100
AcDbEntity
  8
0
  6
Continuous
 62
     7
100
AcDbLine
 10
-104.9999999999996
 20
278.8523229993068
 30
0.0
 11
-105.4999999999996
 21
278.3523229993068
 31
0.0
  0
LINE
  5
94
330
46
100
AcDbEntity
  8
0
  6
Continuous
 62
     7
100
AcDbLine
 10
100.9999999999928
 20
278.8523229993134
 30
0.0
 11
-100.999999999993
 21
278.8523229993134
 31
0.0
  0
LINE
  5
95
102
{ACAD_REACTORS
330
F4
330
F4
102
}
330
46
100
AcDbEntity
  8
0
  6
Continuous
 62
     7
100
AcDbLine
 10
-102.9999999999996
 20
278.8523229993068
 30
0.0
 11
-103.4999999999996
 21
278.3523229993068
 31
0.0
  0
LINE
  5
96
330
46
100
AcDbEntity
  8
0
  6
Continuous
 62
     7
100
AcDbLine
 10
-103.4999999999996
 20
278.3523229993068
 30
0.0
 11
-104.4999999999996
 21
278.3523229993068
 31
0.0
  0
LINE
  5
97
330
46
100
AcDbEntity
  8
0
  6
Continuous
 62
     7
100
AcDbLine
 10
-104.4999999999996
 20
278.3523229993068
 30
0.0
 11
-105.4999999999996
 21
278.3523229993068
 31
0.0
  0
LINE
  5
98
102
{ACAD_REACTORS
330
F4
330
F4
102
}
330
46
100
AcDbEntity
  8
0
  6
Continuous
 62
     7
100
AcDbLine
 10
-101.9999999999996
 20
278.8523229993068
 30
0.0
 11
-102.4999999999996
 21
278.3523229993068
 31
0.0
  0
LINE
  5
99
102
{ACAD_REACTORS
330
F4
330
F4
102
}
330
46
100
AcDbEntity
  8
0
  6
Continuous
 62
     7
100
AcDbLine
 10
-101.4999999999996
 20
278.3523229993068
 30
0.0
 11
-101.9999999999996
 21
278.8523229993068
 31
0.0
  0
LINE
  5
9A
102
{ACAD_REACTORS
330
F4
330
F4
102
}
330
46
100
AcDbEntity
  8
0
  6
Continuous
 62
     7
100
AcDbLine
 10
-104.4999999999996
 20
278.3523229993068
 30
0.0
 11
-104.9999999999996
 21
278.8523229993068
 31
0.0
  0
LINE
  5
9B
102
{ACAD_REACTORS
330
F4
330
F4
102
}
330
46
100
AcDbEntity
  8
0
  6
Continuous
 62
     7
100
AcDbLine
 10
-103.4999999999996
 20
278.3523229993068
 30
0.0
 11
-103.9999999999996
 21
278.8523229993068
 31
0.0
  0
LINE
  5
9C
102
{ACAD_REACTORS
330
F4
330
F4
102
}
330
46
100
AcDbEntity
  8
0
  6
Continuous
 62
     7
100
AcDbLine
 10
-102.4999999999996
 20
278.3523229993068
 30
0.0
 11
-102.9999999999996
 21
278.8523229993068
 31
0.0
  0
LINE
  5
9D
102
{ACAD_REACTORS
330
F5
330
F5
102
}
330
46
100
AcDbEntity
  8
0
  6
Continuous
 62
     7
100
AcDbLine
 10
101.4999999999994
 20
285.8523229993068
 30
0.0
 11
101.9999999999994
 21
285.3523229993068
 31
0.0
  0
LINE
  5
9E
330
46
100
AcDbEntity
  8
0
  6
Continuous
 62
     7
100
AcDbLine
 10
108.4999999999994
 20
285.8523229993068
 30
0.0
 11
107.4999999999994
 21
285.8523229993068
 31
0.0
  0
LINE
  5
9F
330
46
100
AcDbEntity
  8
0
  6
Continuous
 62
     7
100
AcDbLine
 10
102.4999999999994
 20
285.8523229993068
 30
0.0
 11
101.4999999999994
 21
285.8523229993068
 31
0.0
  0
LINE
  5
A0
330
46
100
AcDbEntity
  8
0
  6
Continuous
 62
     7
100
AcDbLine
 10
103.4999999999994
 20
285.8523229993068
 30
0.0
 11
102.4999999999994
 21
285.8523229993068
 31
0.0
  0
LINE
  5
A1
330
46
100
AcDbEntity
  8
0
  6
Continuous
 62
     7
100
AcDbLine
 10
107.4999999999994
 20
285.8523229993068
 30
0.0
 11
106.4999999999994
 21
285.8523229993068
 31
0.0
  0
LINE
  5
A2
102
{ACAD_REACTORS
330
F4
330
F4
102
}
330
46
100
AcDbEntity
  8
0
  6
Continuous
 62
     7
100
AcDbLine
 10
-108.4999999999996
 20
278.3523229993068
 30
0.0
 11
-108.9999999999996
 21
278.8523229993068
 31
0.0
  0
LINE
  5
A3
102
{ACAD_REACTORS
330
F4
330
F4
102
}
330
46
100
AcDbEntity
  8
0
  6
Continuous
 62
     7
100
AcDbLine
 10
-107.9999999999996
 20
278.8523229993068
 30
0.0
 11
-108.4999999999996
 21
278.3523229993068
 31
0.0
  0
LINE
  5
A4
102
{ACAD_REACTORS
330
F4
330
F4
102
}
330
46
100
AcDbEntity
  8
0
  6
Continuous
 62
     7
100
AcDbLine
 10
-104.9999999999996
 20
285.3523229993068
 30
0.0
 11
-105.4999999999996
 21
285.8523229993068
 31
0.0
  0
LINE
  5
A5
330
46
100
AcDbEntity
  8
0
  6
Continuous
 62
     7
100
AcDbLine
 10
-104.4999999999996
 20
285.8523229993068
 30
0.0
 11
-105.4999999999996
 21
285.8523229993068
 31
0.0
  0
LINE
  5
A6
102
{ACAD_REACTORS
330
F4
330
F4
102
}
330
46
100
AcDbEntity
  8
0
  6
Continuous
 62
     7
100
AcDbLine
 10
-104.4999999999996
 20
285.8523229993068
 30
0.0
 11
-104.9999999999996
 21
285.3523229993068
 31
0.0
  0
LINE
  5
A7
330
46
100
AcDbEntity
  8
0
  6
Continuous
 62
     7
100
AcDbLine
 10
-105.4999999999996
 20
285.8523229993068
 30
0.0
 11
-106.4999999999996
 21
285.8523229993068
 31
0.0
  0
LINE
  5
A8
102
{ACAD_REACTORS
330
F4
330
F4
102
}
330
46
100
AcDbEntity
  8
0
  6
Continuous
 62
     7
100
AcDbLine
 10
-105.9999999999996
 20
285.3523229993068
 30
0.0
 11
-106.4999999999996
 21
285.8523229993068
 31
0.0
  0
LINE
  5
A9
102
{ACAD_REACTORS
330
F4
330
F4
102
}
330
46
100
AcDbEntity
  8
0
  6
Continuous
 62
     7
100
AcDbLine
 10
-107.4999999999996
 20
285.8523229993068
 30
0.0
 11
-107.9999999999996
 21
285.3523229993068
 31
0.0
  0
LINE
  5
AA
102
{ACAD_REACTORS
330
F4
330
F4
102
}
330
46
100
AcDbEntity
  8
0
  6
Continuous
 62
     7
100
AcDbLine
 10
-106.9999999999996
 20
285.3523229993068
 30
0.0
 11
-107.4999999999996
 21
285.8523229993068
 31
0.0
  0
LINE
  5
AB
102
{ACAD_REACTORS
330
F4
330
F4
102
}
330
46
100
AcDbEntity
  8
0
  6
Continuous
 62
     7
100
AcDbLine
 10
-105.4999999999996
 20
285.8523229993068
 30
0.0
 11
-105.9999999999996
 21
285.3523229993068
 31
0.0
  0
LINE
  5
AC
102
{ACAD_REACTORS
330
F4
330
F4
102
}
330
46
100
AcDbEntity
  8
0
  6
Continuous
 62
     7
100
AcDbLine
 10
-106.4999999999996
 20
285.8523229993068
 30
0.0
 11
-106.9999999999996
 21
285.3523229993068
 31
0.0
  0
LINE
  5
AD
330
46
100
AcDbEntity
  8
0
  6
Continuous
 62
     7
100
AcDbLine
 10
-106.4999999999996
 20
285.8523229993068
 30
0.0
 11
-107.4999999999996
 21
285.8523229993068
 31
0.0
  0
LINE
  5
AE
330
46
100
AcDbEntity
  8
0
  6
Continuous
 62
     7
100
AcDbLine
 10
-107.4999999999996
 20
285.8523229993068
 30
0.0
 11
-108.4999999999996
 21
285.8523229993068
 31
0.0
  0
LINE
  5
AF
102
{ACAD_REACTORS
330
F4
330
F4
102
}
330
46
100
AcDbEntity
  8
0
  6
Continuous
 62
     7
100
AcDbLine
 10
-107.9999999999996
 20
285.3523229993068
 30
0.0
 11
-108.4999999999996
 21
285.8523229993068
 31
0.0
  0
LINE
  5
B0
102
{ACAD_REACTORS
330
F4
330
F4
102
}
330
46
100
AcDbEntity
  8
0
  6
Continuous
 62
     7
100
AcDbLine
 10
-107.4999999999996
 20
278.3523229993068
 30
0.0
 11
-107.9999999999996
 21
278.8523229993068
 31
0.0
  0
LINE
  5
B1
102
{ACAD_REACTORS
330
F4
330
F4
102
}
330
46
100
AcDbEntity
  8
0
  6
Continuous
 62
     7
100
AcDbLine
 10
-106.9999999999996
 20
278.8523229993068
 30
0.0
 11
-107.4999999999996
 21
278.3523229993068
 31
0.0
  0
LINE
  5
B2
102
{ACAD_REACTORS
330
F4
330
F4
102
}
330
46
100
AcDbEntity
  8
0
  6
Continuous
 62
     7
100
AcDbLine
 10
-105.4999999999996
 20
278.3523229993068
 30
0.0
 11
-105.9999999999996
 21
278.8523229993068
 31
0.0
  0
LINE
  5
B3
102
{ACAD_REACTORS
330
F4
330
F4
102
}
330
46
100
AcDbEntity
  8
0
  6
Continuous
 62
     7
100
AcDbLine
 10
-106.4999999999996
 20
278.3523229993068
 30
0.0
 11
-106.9999999999996
 21
278.8523229993068
 31
0.0
  0
LINE
  5
B4
102
{ACAD_REACTORS
330
F4
330
F4
102
}
330
46
100
AcDbEntity
  8
0
  6
Continuous
 62
     7
100
AcDbLine
 10
-105.9999999999996
 20
278.8523229993068
 30
0.0
 11
-106.4999999999996
 21
278.3523229993068
 31
0.0
  0
LINE
  5
B5
102
{ACAD_REACTORS
330
F4
330
F4
102
}
330
46
100
AcDbEntity
  8
0
  6
Continuous
 62
     7
100
AcDbLine
 10
-108.9999999999996
 20
278.8523229993068
 30
0.0
 11
-108.9999999999996
 21
285.3523229993068
 31
0.0
  0
LINE
  5
B6
102
{ACAD_REACTORS
330
F4
330
F4
102
}
330
46
100
AcDbEntity
  8
0
  6
Continuous
 62
     7
100
AcDbLine
 10
-108.4999999999996
 20
285.8523229993068
 30
0.0
 11
-108.9999999999996
 21
285.3523229993068
 31
0.0
  0
LINE
  5
B7
330
46
100
AcDbEntity
  8
0
  6
Continuous
 62
     7
100
AcDbLine
 10
102.4999999999995
 20
278.3523229993068
 30
0.0
 11
101.4999999999994
 21
278.3523229993068
 31
0.0
  0
LINE
  5
B8
330
46
100
AcDbEntity
  8
0
  6
Continuous
 62
     7
100
AcDbLine
 10
101.4999999999994
 20
278.3523229993068
 30
0.0
 11
-101.4999999999996
 21
278.3523229993068
 31
0.0
  0
LINE
  5
B9
330
46
100
AcDbEntity
  8
0
  6
Continuous
 62
     7
100
AcDbLine
 10
-102.4999999999996
 20
278.3523229993068
 30
0.0
 11
-103.4999999999996
 21
278.3523229993068
 31
0.0
  0
LINE
  5
BA
330
46
100
AcDbEntity
  8
0
  6
Continuous
 62
     7
100
AcDbLine
 10
105.4999999999994
 20
278.3523229993068
 30
0.0
 11
104.4999999999994
 21
278.3523229993068
 31
0.0
  0
LINE
  5
BB
330
46
100
AcDbEntity
  8
0
  6
Continuous
 62
     7
100
AcDbLine
 10
104.4999999999994
 20
278.3523229993068
 30
0.0
 11
103.4999999999994
 21
278.3523229993068
 31
0.0
  0
LINE
  5
BC
330
46
100
AcDbEntity
  8
0
  6
Continuous
 62
     7
100
AcDbLine
 10
103.4999999999994
 20
278.3523229993068
 30
0.0
 11
102.4999999999995
 21
278.3523229993068
 31
0.0
  0
LINE
  5
BD
330
46
100
AcDbEntity
  8
0
  6
Continuous
 62
     7
100
AcDbLine
 10
-101.4999999999996
 20
278.3523229993068
 30
0.0
 11
-102.4999999999996
 21
278.3523229993068
 31
0.0
  0
LINE
  5
BE
330
46
100
AcDbEntity
  8
0
  6
Continuous
 62
     7
100
AcDbLine
 10
-107.4999999999996
 20
278.3523229993068
 30
0.0
 11
-108.4999999999996
 21
278.3523229993068
 31
0.0
  0
LINE
  5
BF
330
46
100
AcDbEntity
  8
0
  6
Continuous
 62
     7
100
AcDbLine
 10
-106.4999999999996
 20
278.3523229993068
 30
0.0
 11
-107.4999999999996
 21
278.3523229993068
 31
0.0
  0
LINE
  5
C0
330
46
100
AcDbEntity
  8
0
  6
Continuous
 62
     7
100
AcDbLine
 10
-105.4999999999996
 20
278.3523229993068
 30
0.0
 11
-106.4999999999996
 21
278.3523229993068
 31
0.0
  0
LINE
  5
C1
330
46
100
AcDbEntity
  8
0
  6
Continuous
 62
     7
100
AcDbLine
 10
106.4999999999994
 20
278.3523229993068
 30
0.0
 11
105.4999999999994
 21
278.3523229993068
 31
0.0
  0
LINE
  5
C2
330
46
100
AcDbEntity
  8
0
  6
Continuous
 62
     7
100
AcDbLine
 10
107.4999999999994
 20
278.3523229993068
 30
0.0
 11
106.4999999999994
 21
278.3523229993068
 31
0.0
  0
LINE
  5
C3
102
{ACAD_REACTORS
330
F5
330
F5
102
}
330
46
100
AcDbEntity
  8
0
  6
Continuous
 62
     7
100
AcDbLine
 10
100.9999999999928
 20
278.8523229993134
 30
0.0
 11
101.4999999999994
 21
278.3523229993068
 31
0.0
  0
LINE
  5
C4
102
{ACAD_REACTORS
330
F5
330
F5
102
}
330
46
100
AcDbEntity
  8
0
  6
Continuous
 62
     7
100
AcDbLine
 10
100.9999999999928
 20
278.8523229993134
 30
0.0
 11
100.999999999996
 21
285.3523229993035
 31
0.0
  0
LINE
  5
C5
102
{ACAD_REACTORS
330
F5
330
F5
102
}
330
46
100
AcDbEntity
  8
0
  6
Continuous
 62
     7
100
AcDbLine
 10
100.999999999996
 20
285.3523229993035
 30
0.0
 11
101.4999999999994
 21
285.8523229993068
 31
0.0
  0
LINE
  5
C6
102
{ACAD_REACTORS
330
F5
330
F5
102
}
330
46
100
AcDbEntity
  8
0
  6
Continuous
 62
     7
100
AcDbLine
 10
108.4999999999994
 20
285.8523229993068
 30
0.0
 11
108.9999999999994
 21
285.3523229993068
 31
0.0
  0
LINE
  5
C7
102
{ACAD_REACTORS
330
F5
330
F5
102
}
330
46
100
AcDbEntity
  8
0
  6
Continuous
 62
     7
100
AcDbLine
 10
107.9999999999994
 20
285.3523229993068
 30
0.0
 11
108.4999999999994
 21
285.8523229993068
 31
0.0
  0
LINE
  5
C8
102
{ACAD_REACTORS
330
F5
330
F5
102
}
330
46
100
AcDbEntity
  8
0
  6
Continuous
 62
     7
100
AcDbLine
 10
106.4999999999994
 20
285.8523229993068
 30
0.0
 11
106.9999999999994
 21
285.3523229993068
 31
0.0
  0
LINE
  5
C9
102
{ACAD_REACTORS
330
F5
330
F5
102
}
330
46
100
AcDbEntity
  8
0
  6
Continuous
 62
     7
100
AcDbLine
 10
105.9999999999994
 20
285.3523229993068
 30
0.0
 11
106.4999999999994
 21
285.8523229993068
 31
0.0
  0
LINE
  5
CA
102
{ACAD_REACTORS
330
F5
330
F5
102
}
330
46
100
AcDbEntity
  8
0
  6
Continuous
 62
     7
100
AcDbLine
 10
104.9999999999994
 20
285.3523229993068
 30
0.0
 11
105.4999999999994
 21
285.8523229993068
 31
0.0
  0
LINE
  5
CB
102
{ACAD_REACTORS
330
F5
330
F5
102
}
330
46
100
AcDbEntity
  8
0
  6
Continuous
 62
     7
100
AcDbLine
 10
103.9999999999994
 20
285.3523229993068
 30
0.0
 11
104.4999999999994
 21
285.8523229993068
 31
0.0
  0
LINE
  5
CC
102
{ACAD_REACTORS
330
F5
330
F5
102
}
330
46
100
AcDbEntity
  8
0
  6
Continuous
 62
     7
100
AcDbLine
 10
102.9999999999994
 20
285.3523229993068
 30
0.0
 11
103.4999999999994
 21
285.8523229993068
 31
0.0
  0
LINE
  5
CD
102
{ACAD_REACTORS
330
F5
330
F5
102
}
330
46
100
AcDbEntity
  8
0
  6
Continuous
 62
     7
100
AcDbLine
 10
101.9999999999994
 20
285.3523229993068
 30
0.0
 11
102.4999999999994
 21
285.8523229993068
 31
0.0
  0
LINE
  5
CE
102
{ACAD_REACTORS
330
F5
330
F5
102
}
330
46
100
AcDbEntity
  8
0
  6
Continuous
 62
     7
100
AcDbLine
 10
102.4999999999994
 20
285.8523229993068
 30
0.0
 11
102.9999999999994
 21
285.3523229993068
 31
0.0
  0
LINE
  5
CF
330
46
100
AcDbEntity
  8
0
  6
Continuous
 62
     7
100
AcDbLine
 10
104.4999999999994
 20
285.8523229993068
 30
0.0
 11
103.4999999999994
 21
285.8523229993068
 31
0.0
  0
LINE
  5
D0
102
{ACAD_REACTORS
330
F5
330
F5
102
}
330
46
100
AcDbEntity
  8
0
  6
Continuous
 62
     7
100
AcDbLine
 10
103.4999999999994
 20
285.8523229993068
 30
0.0
 11
103.9999999999994
 21
285.3523229993068
 31
0.0
  0
LINE
  5
D1
330
46
100
AcDbEntity
  8
0
  6
Continuous
 62
     7
100
AcDbLine
 10
105.4999999999994
 20
285.8523229993068
 30
0.0
 11
104.4999999999994
 21
285.8523229993068
 31
0.0
  0
LINE
  5
D2
102
{ACAD_REACTORS
330
F5
330
F5
102
}
330
46
100
AcDbEntity
  8
0
  6
Continuous
 62
     7
100
AcDbLine
 10
104.4999999999994
 20
285.8523229993068
 30
0.0
 11
104.9999999999994
 21
285.3523229993068
 31
0.0
  0
LINE
  5
D3
330
46
100
AcDbEntity
  8
0
  6
Continuous
 62
     7
100
AcDbLine
 10
106.4999999999994
 20
285.8523229993068
 30
0.0
 11
105.4999999999994
 21
285.8523229993068
 31
0.0
  0
LINE
  5
D4
102
{ACAD_REACTORS
330
F5
330
F5
102
}
330
46
100
AcDbEntity
  8
0
  6
Continuous
 62
     7
100
AcDbLine
 10
105.4999999999994
 20
285.8523229993068
 30
0.0
 11
105.9999999999994
 21
285.3523229993068
 31
0.0
  0
LINE
  5
D5
102
{ACAD_REACTORS
330
F5
330
F5
102
}
330
46
100
AcDbEntity
  8
0
  6
Continuous
 62
     7
100
AcDbLine
 10
106.9999999999994
 20
285.3523229993068
 30
0.0
 11
107.4999999999994
 21
285.8523229993068
 31
0.0
  0
LINE
  5
D6
102
{ACAD_REACTORS
330
F5
330
F5
102
}
330
46
100
AcDbEntity
  8
0
  6
Continuous
 62
     7
100
AcDbLine
 10
107.4999999999994
 20
285.8523229993068
 30
0.0
 11
107.9999999999994
 21
285.3523229993068
 31
0.0
  0
LINE
  5
D7
102
{ACAD_REACTORS
330
F5
330
F5
102
}
330
46
100
AcDbEntity
  8
0
  6
Continuous
 62
     7
100
AcDbLine
 10
108.9999999999994
 20
278.8523229993068
 30
0.0
 11
108.9999999999994
 21
285.3523229993068
 31
0.0
  0
LINE
  5
D8
102
{ACAD_REACTORS
330
F4
330
F4
102
}
330
46
100
AcDbEntity
  8
0
  6
Continuous
 62
     7
100
AcDbLine
 10
-100.9999999999963
 20
285.3523229993035
 30
0.0
 11
-101.4999999999994
 21
285.8523229993068
 31
0.0
  0
LINE
  5
D9
102
{ACAD_REACTORS
330
F4
330
F4
102
}
330
46
100
AcDbEntity
  8
0
  6
Continuous
 62
     7
100
AcDbLine
 10
-103.9999999999996
 20
285.3523229993068
 30
0.0
 11
-104.4999999999996
 21
285.8523229993068
 31
0.0
  0
LINE
  5
DA
102
{ACAD_REACTORS
330
F4
330
F4
102
}
330
46
100
AcDbEntity
  8
0
  6
Continuous
 62
     7
100
AcDbLine
 10
-102.9999999999996
 20
285.3523229993068
 30
0.0
 11
-103.4999999999996
 21
285.8523229993068
 31
0.0
  0
LINE
  5
DB
102
{ACAD_REACTORS
330
F4
330
F4
102
}
330
46
100
AcDbEntity
  8
0
  6
Continuous
 62
     7
100
AcDbLine
 10
-101.9999999999994
 20
285.3523229993068
 30
0.0
 11
-102.4999999999996
 21
285.8523229993068
 31
0.0
  0
LINE
  5
DC
330
46
100
AcDbEntity
  8
0
  6
Continuous
 62
     7
100
AcDbLine
 10
-102.4999999999996
 20
285.8523229993068
 30
0.0
 11
-103.4999999999996
 21
285.8523229993068
 31
0.0
  0
LINE
  5
DD
102
{ACAD_REACTORS
330
F4
330
F4
102
}
330
46
100
AcDbEntity
  8
0
  6
Continuous
 62
     7
100
AcDbLine
 10
-102.4999999999996
 20
285.8523229993068
 30
0.0
 11
-102.9999999999996
 21
285.3523229993068
 31
0.0
  0
LINE
  5
DE
330
46
100
AcDbEntity
  8
0
  6
Continuous
 62
     7
100
AcDbLine
 10
-103.4999999999996
 20
285.8523229993068
 30
0.0
 11
-104.4999999999996
 21
285.8523229993068
 31
0.0
  0
LINE
  5
DF
102
{ACAD_REACTORS
330
F4
330
F4
102
}
330
46
100
AcDbEntity
  8
0
  6
Continuous
 62
     7
100
AcDbLine
 10
-103.4999999999996
 20
285.8523229993068
 30
0.0
 11
-103.9999999999996
 21
285.3523229993068
 31
0.0
  0
LINE
  5
E0
330
46
100
AcDbEntity
  8
0
  6
Continuous
 62
     7
100
AcDbLine
 10
-101.4999999999994
 20
285.8523229993068
 30
0.0
 11
-102.4999999999996
 21
285.8523229993068
 31
0.0
  0
LINE
  5
E1
102
{ACAD_REACTORS
330
F4
330
F4
102
}
330
46
100
AcDbEntity
  8
0
  6
Continuous
 62
     7
100
AcDbLine
 10
-100.999999999993
 20
278.8523229993134
 30
0.0
 11
-100.9999999999963
 21
285.3523229993035
 31
0.0
  0
LINE
  5
E2
102
{ACAD_REACTORS
330
F4
330
F4
102
}
330
46
100
AcDbEntity
  8
0
  6
Continuous
 62
     7
100
AcDbLine
 10
-101.4999999999994
 20
285.8523229993068
 30
0.0
 11
-101.9999999999994
 21
285.3523229993068
 31
0.0
  0
LINE
  5
E3
102
{ACAD_REACTORS
330
F5
330
F5
102
}
330
46
100
AcDbEntity
  8
0
  6
Continuous
 62
     7
100
AcDbLine
 10
101.4999999999994
 20
278.3523229993068
 30
0.0
 11
101.9999999999995
 21
278.8523229993068
 31
0.0
  0
LINE
  5
E4
102
{ACAD_REACTORS
330
F5
330
F5
102
}
330
46
100
AcDbEntity
  8
0
  6
Continuous
 62
     7
100
AcDbLine
 10
108.4999999999994
 20
278.3523229993068
 30
0.0
 11
108.9999999999994
 21
278.8523229993068
 31
0.0
  0
LINE
  5
E5
102
{ACAD_REACTORS
330
F5
330
F5
102
}
330
46
100
AcDbEntity
  8
0
  6
Continuous
 62
     7
100
AcDbLine
 10
107.4999999999994
 20
278.3523229993068
 30
0.0
 11
107.9999999999994
 21
278.8523229993068
 31
0.0
  0
LINE
  5
E6
102
{ACAD_REACTORS
330
F5
330
F5
102
}
330
46
100
AcDbEntity
  8
0
  6
Continuous
 62
     7
100
AcDbLine
 10
101.9999999999995
 20
278.8523229993068
 30
0.0
 11
102.4999999999995
 21
278.3523229993068
 31
0.0
  0
LINE
  5
E7
102
{ACAD_REACTORS
330
F5
330
F5
102
}
330
46
100
AcDbEntity
  8
0
  6
Continuous
 62
     7
100
AcDbLine
 10
102.9999999999994
 20
278.8523229993068
 30
0.0
 11
103.4999999999994
 21
278.3523229993068
 31
0.0
  0
LINE
  5
E8
102
{ACAD_REACTORS
330
F5
330
F5
102
}
330
46
100
AcDbEntity
  8
0
  6
Continuous
 62
     7
100
AcDbLine
 10
103.9999999999994
 20
278.8523229993068
 30
0.0
 11
104.4999999999994
 21
278.3523229993068
 31
0.0
  0
LINE
  5
E9
102
{ACAD_REACTORS
330
F5
330
F5
102
}
330
46
100
AcDbEntity
  8
0
  6
Continuous
 62
     7
100
AcDbLine
 10
107.9999999999994
 20
278.8523229993068
 30
0.0
 11
108.4999999999994
 21
278.3523229993068
 31
0.0
  0
LINE
  5
EA
102
{ACAD_REACTORS
330
F5
330
F5
102
}
330
46
100
AcDbEntity
  8
0
  6
Continuous
 62
     7
100
AcDbLine
 10
104.9999999999994
 20
278.8523229993068
 30
0.0
 11
105.4999999999994
 21
278.3523229993068
 31
0.0
  0
LINE
  5
EB
330
46
100
AcDbEntity
  8
0
  6
Continuous
 62
     7
100
AcDbLine
 10
108.4999999999994
 20
278.3523229993068
 30
0.0
 11
107.4999999999994
 21
278.3523229993068
 31
0.0
  0
LINE
  5
EC
102
{ACAD_REACTORS
330
F5
330
F5
102
}
330
46
100
AcDbEntity
  8
0
  6
Continuous
 62
     7
100
AcDbLine
 10
106.9999999999994
 20
278.8523229993068
 30
0.0
 11
107.4999999999994
 21
278.3523229993068
 31
0.0
  0
LINE
  5
ED
102
{ACAD_REACTORS
330
F5
330
F5
102
}
330
46
100
AcDbEntity
  8
0
  6
Continuous
 62
     7
100
AcDbLine
 10
105.9999999999994
 20
278.8523229993068
 30
0.0
 11
106.4999999999994
 21
278.3523229993068
 31
0.0
  0
LINE
  5
EE
102
{ACAD_REACTORS
330
F5
330
F5
102
}
330
46
100
AcDbEntity
  8
0
  6
Continuous
 62
     7
100
AcDbLine
 10
105.4999999999994
 20
278.3523229993068
 30
0.0
 11
105.9999999999994
 21
278.8523229993068
 31
0.0
  0
LINE
  5
EF
102
{ACAD_REACTORS
330
F5
330
F5
102
}
330
46
100
AcDbEntity
  8
0
  6
Continuous
 62
     7
100
AcDbLine
 10
106.4999999999994
 20
278.3523229993068
 30
0.0
 11
106.9999999999994
 21
278.8523229993068
 31
0.0
  0
LINE
  5
F0
102
{ACAD_REACTORS
330
F5
330
F5
102
}
330
46
100
AcDbEntity
  8
0
  6
Continuous
 62
     7
100
AcDbLine
 10
104.4999999999994
 20
278.3523229993068
 30
0.0
 11
104.9999999999994
 21
278.8523229993068
 31
0.0
  0
LINE
  5
F1
102
{ACAD_REACTORS
330
F5
330
F5
102
}
330
46
100
AcDbEntity
  8
0
  6
Continuous
 62
     7
100
AcDbLine
 10
103.4999999999994
 20
278.3523229993068
 30
0.0
 11
103.9999999999994
 21
278.8523229993068
 31
0.0
  0
LINE
  5
F2
102
{ACAD_REACTORS
330
F5
330
F5
102
}
330
46
100
AcDbEntity
  8
0
  6
Continuous
 62
     7
100
AcDbLine
 10
102.4999999999995
 20
278.3523229993068
 30
0.0
 11
102.9999999999994
 21
278.8523229993068
 31
0.0
  0
LINE
  5
F3
330
46
100
AcDbEntity
  8
1
  6
DOT_CENTER
 62
     2
100
AcDbLine
 10
-0.00000000000011
 20
275.228186937017
 30
0.0
 11
0.0
 21
288.557982540093
 31
0.0
  0
HATCH
  5
F4
330
46
100
AcDbEntity
  8
1
  6
Continuous
 62
     3
100
AcDbHatch
 10
0.0
 20
0.0
 30
0.0
210
0.0
220
0.0
230
1.0
  2
_USER
 70
     0
 71
     1
 91
        1
 92
        1
 93
       34
 72
     1
 10
-105.9999999999996
 20
285.3523229993068
 11
-106.4999999999996
 21
285.8523229993068
 72
     1
 10
-106.4999999999996
 20
285.8523229993068
 11
-106.9999999999996
 21
285.3523229993068
 72
     1
 10
-106.9999999999996
 20
285.3523229993068
 11
-107.4999999999996
 21
285.8523229993068
 72
     1
 10
-107.4999999999996
 20
285.8523229993068
 11
-107.9999999999996
 21
285.3523229993068
 72
     1
 10
-107.9999999999996
 20
285.3523229993068
 11
-108.4999999999996
 21
285.8523229993068
 72
     1
 10
-108.4999999999996
 20
285.8523229993068
 11
-108.9999999999996
 21
285.3523229993068
 72
     1
 10
-108.9999999999996
 20
285.3523229993068
 11
-108.9999999999996
 21
278.8523229993068
 72
     1
 10
-108.9999999999996
 20
278.8523229993068
 11
-108.4999999999996
 21
278.3523229993068
 72
     1
 10
-108.4999999999996
 20
278.3523229993068
 11
-107.9999999999996
 21
278.8523229993068
 72
     1
 10
-107.9999999999996
 20
278.8523229993068
 11
-107.4999999999996
 21
278.3523229993068
 72
     1
 10
-107.4999999999996
 20
278.3523229993068
 11
-106.9999999999996
 21
278.8523229993068
 72
     1
 10
-106.9999999999996
 20
278.8523229993068
 11
-106.4999999999996
 21
278.3523229993068
 72
     1
 10
-106.4999999999996
 20
278.3523229993068
 11
-105.9999999999996
 21
278.8523229993068
 72
     1
 10
-105.9999999999996
 20
278.8523229993068
 11
-105.4999999999996
 21
278.3523229993068
 72
     1
 10
-105.4999999999996
 20
278.3523229993068
 11
-104.9999999999996
 21
278.8523229993068
 72
     1
 10
-104.9999999999996
 20
278.8523229993068
 11
-104.4999999999996
 21
278.3523229993068
 72
     1
 10
-104.4999999999996
 20
278.3523229993068
 11
-103.9999999999996
 21
278.8523229993068
 72
     1
 10
-103.9999999999996
 20
278.8523229993068
 11
-103.4999999999996
 21
278.3523229993068
 72
     1
 10
-103.4999999999996
 20
278.3523229993068
 11
-102.9999999999996
 21
278.8523229993068
 72
     1
 10
-102.9999999999996
 20
278.8523229993068
 11
-102.4999999999996
 21
278.3523229993068
 72
     1
 10
-102.4999999999996
 20
278.3523229993068
 11
-101.9999999999996
 21
278.8523229993068
 72
     1
 10
-101.9999999999996
 20
278.8523229993068
 11
-101.4999999999996
 21
278.3523229993068
 72
     1
 10
-101.4999999999996
 20
278.3523229993068
 11
-100.999999999993
 21
278.8523229993134
 72
     1
 10
-100.999999999993
 20
278.8523229993134
 11
-100.9999999999963
 21
285.3523229993035
 72
     1
 10
-100.9999999999963
 20
285.3523229993035
 11
-101.4999999999994
 21
285.8523229993068
 72
     1
 10
-101.4999999999994
 20
285.8523229993068
 11
-101.9999999999994
 21
285.3523229993068
 72
     1
 10
-101.9999999999994
 20
285.3523229993068
 11
-102.4999999999996
 21
285.8523229993068
 72
     1
 10
-102.4999999999996
 20
285.8523229993068
 11
-102.9999999999996
 21
285.3523229993068
 72
     1
 10
-102.9999999999996
 20
285.3523229993068
 11
-103.4999999999996
 21
285.8523229993068
 72
     1
 10
-103.4999999999996
 20
285.8523229993068
 11
-103.9999999999996
 21
285.3523229993068
 72
     1
 10
-103.9999999999996
 20
285.3523229993068
 11
-104.4999999999996
 21
285.8523229993068
 72
     1
 10
-104.4999999999996
 20
285.8523229993068
 11
-104.9999999999996
 21
285.3523229993068
 72
     1
 10
-104.9999999999996
 20
285.3523229993068
 11
-105.4999999999996
 21
285.8523229993068
 72
     1
 10
-105.4999999999996
 20
285.8523229993068
 11
-105.9999999999996
 21
285.3523229993068
 97
       34
330
A4
330
A6
330
D9
330
DF
330
DA
330
DD
330
DB
330
E2
330
D8
330
E1
330
8F
330
99
330
98
330
9C
330
95
330
9B
330
92
330
9A
330
93
330
B2
330
B4
330
B3
330
B1
330
B0
330
A3
330
A2
330
B5
330
B6
330
AF
330
A9
330
AA
330
AC
330
A8
330
AB
 75
     1
 76
     0
 52
45.0
 41
1.0
 77
     0
 78
     1
 53
45.0
 43
0.0
 44
0.0
 45
-0.7071067811865475
 46
0.7071067811865476
 79
     0
 98
        1
 10
0.0
 20
0.0
  0
HATCH
  5
F5
330
46
100
AcDbEntity
  8
1
  6
Continuous
 62
     3
100
AcDbHatch
 10
0.0
 20
0.0
 30
0.0
210
0.0
220
0.0
230
1.0
  2
_USER
 70
     0
 71
     1
 91
        1
 92
        1
 93
       34
 72
     1
 10
102.9999999999994
 20
285.3523229993068
 11
103.4999999999994
 21
285.8523229993068
 72
     1
 10
103.4999999999994
 20
285.8523229993068
 11
103.9999999999994
 21
285.3523229993068
 72
     1
 10
103.9999999999994
 20
285.3523229993068
 11
104.4999999999994
 21
285.8523229993068
 72
     1
 10
104.4999999999994
 20
285.8523229993068
 11
104.9999999999994
 21
285.3523229993068
 72
     1
 10
104.9999999999994
 20
285.3523229993068
 11
105.4999999999994
 21
285.8523229993068
 72
     1
 10
105.4999999999994
 20
285.8523229993068
 11
105.9999999999994
 21
285.3523229993068
 72
     1
 10
105.9999999999994
 20
285.3523229993068
 11
106.4999999999994
 21
285.8523229993068
 72
     1
 10
106.4999999999994
 20
285.8523229993068
 11
106.9999999999994
 21
285.3523229993068
 72
     1
 10
106.9999999999994
 20
285.3523229993068
 11
107.4999999999994
 21
285.8523229993068
 72
     1
 10
107.4999999999994
 20
285.8523229993068
 11
107.9999999999994
 21
285.3523229993068
 72
     1
 10
107.9999999999994
 20
285.3523229993068
 11
108.4999999999994
 21
285.8523229993068
 72
     1
 10
108.4999999999994
 20
285.8523229993068
 11
108.9999999999994
 21
285.3523229993068
 72
     1
 10
108.9999999999994
 20
285.3523229993068
 11
108.9999999999994
 21
278.8523229993068
 72
     1
 10
108.9999999999994
 20
278.8523229993068
 11
108.4999999999994
 21
278.3523229993068
 72
     1
 10
108.4999999999994
 20
278.3523229993068
 11
107.9999999999994
 21
278.8523229993068
 72
     1
 10
107.9999999999994
 20
278.8523229993068
 11
107.4999999999994
 21
278.3523229993068
 72
     1
 10
107.4999999999994
 20
278.3523229993068
 11
106.9999999999994
 21
278.8523229993068
 72
     1
 10
106.9999999999994
 20
278.8523229993068
 11
106.4999999999994
 21
278.3523229993068
 72
     1
 10
106.4999999999994
 20
278.3523229993068
 11
105.9999999999994
 21
278.8523229993068
 72
     1
 10
105.9999999999994
 20
278.8523229993068
 11
105.4999999999994
 21
278.3523229993068
 72
     1
 10
105.4999999999994
 20
278.3523229993068
 11
104.9999999999994
 21
278.8523229993068
 72
     1
 10
104.9999999999994
 20
278.8523229993068
 11
104.4999999999994
 21
278.3523229993068
 72
     1
 10
104.4999999999994
 20
278.3523229993068
 11
103.9999999999994
 21
278.8523229993068
 72
     1
 10
103.9999999999994
 20
278.8523229993068
 11
103.4999999999994
 21
278.3523229993068
 72
     1
 10
103.4999999999994
 20
278.3523229993068
 11
102.9999999999994
 21
278.8523229993068
 72
     1
 10
102.9999999999994
 20
278.8523229993068
 11
102.4999999999995
 21
278.3523229993068
 72
     1
 10
102.4999999999995
 20
278.3523229993068
 11
101.9999999999995
 21
278.8523229993068
 72
     1
 10
101.9999999999995
 20
278.8523229993068
 11
101.4999999999994
 21
278.3523229993068
 72
     1
 10
101.4999999999994
 20
278.3523229993068
 11
100.9999999999928
 21
278.8523229993134
 72
     1
 10
100.9999999999928
 20
278.8523229993134
 11
100.999999999996
 21
285.3523229993035
 72
     1
 10
100.999999999996
 20
285.3523229993035
 11
101.4999999999994
 21
285.8523229993068
 72
     1
 10
101.4999999999994
 20
285.8523229993068
 11
101.9999999999994
 21
285.3523229993068
 72
     1
 10
101.9999999999994
 20
285.3523229993068
 11
102.4999999999994
 21
285.8523229993068
 72
     1
 10
102.4999999999994
 20
285.8523229993068
 11
102.9999999999994
 21
285.3523229993068
 97
       34
330
CC
330
D0
330
CB
330
D2
330
CA
330
D4
330
C9
330
C8
330
D5
330
D6
330
C7
330
C6
330
D7
330
E4
330
E9
330
E5
330
EC
330
EF
330
ED
330
EE
330
EA
330
F0
330
E8
330
F1
330
E7
330
F2
330
E6
330
E3
330
C3
330
C4
330
C5
330
9D
330
CD
330
CE
 75
     1
 76
     0
 52
45.0
 41
1.0
 77
     0
 78
     1
 53
45.0
 43
0.0
 44
0.0
 45
-0.7071067811865475
 46
0.7071067811865476
 79
     0
 98
        1
 10
0.0
 20
0.0
  0
ENDBLK
  5
48
330
46
100
AcDbEntity
  8
0
100
AcDbBlockEnd
  0
BLOCK
  5
4A
330
49
100
AcDbEntity
  8
0
100
AcDbBlockBegin
  2
8300-Klemmring__1
 70
     0
 71
     0
 10
119.0000000000008
 20
383.9150275531074
 30
0.0
  3
8300-Klemmring__1
  1

  0
LINE
  5
F6
330
49
100
AcDbEntity
  8
0
  6
Continuous
 62
     7
100
AcDbLine
 10
49.49690445346516
 20
330.9150275531081
 30
0.0
 11
49.49690445346516
 21
331.9150275531074
 31
0.0
  0
LINE
  5
F7
330
49
100
AcDbEntity
  8
0
  6
Continuous
 62
     3
100
AcDbLine
 10
54.09106117574413
 20
332.5079723170702
 30
0.0
 11
-54.09106117574891
 21
332.5079723170456
 31
0.0
  0
LINE
  5
F8
330
49
100
AcDbEntity
  8
0
  6
Continuous
 62
     7
100
AcDbLine
 10
-49.4969044534638
 20
331.9150275531074
 30
0.0
 11
-52.12065799607831
 21
331.9150275531074
 31
0.0
  0
LINE
  5
F9
330
49
100
AcDbEntity
  8
0
  6
Continuous
 62
     7
100
AcDbLine
 10
52.12065799608001
 20
331.9150275531074
 30
0.0
 11
49.49690445346516
 21
331.9150275531074
 31
0.0
  0
LINE
  5
FA
330
49
100
AcDbEntity
  8
0
  6
Continuous
 62
     7
100
AcDbLine
 10
-49.4969044534638
 20
330.9150275531081
 30
0.0
 11
-49.4969044534638
 21
331.9150275531074
 31
0.0
  0
LINE
  5
FB
330
49
100
AcDbEntity
  8
0
  6
Continuous
 62
     7
100
AcDbLine
 10
-55.00960324820142
 20
330.9150275531081
 30
0.0
 11
-55.00960324820142
 21
331.9150275531074
 31
0.0
  0
LINE
  5
FC
102
{ACAD_REACTORS
330
193
330
193
102
}
330
49
100
AcDbEntity
  8
0
  6
Continuous
 62
     7
100
AcDbLine
 10
-73.99999999999932
 20
330.9150275531081
 30
0.0
 11
-73.99999999999932
 21
331.9150275531074
 31
0.0
  0
LINE
  5
FD
330
49
100
AcDbEntity
  8
0
  6
Continuous
 62
     7
100
AcDbLine
 10
-49.4969044534638
 20
330.9150275531081
 30
0.0
 11
-52.12065799607865
 21
330.9150275531081
 31
0.0
  0
LINE
  5
FE
330
49
100
AcDbEntity
  8
0
  6
Continuous
 62
     7
100
AcDbLine
 10
-55.58718683689563
 20
331.9150275531074
 30
0.0
 11
-55.00960324820142
 21
331.9150275531074
 31
0.0
  0
LINE
  5
FF
330
49
100
AcDbEntity
  8
0
  6
Continuous
 62
     7
100
AcDbLine
 10
-73.99999999999932
 20
331.9150275531074
 30
0.0
 11
-55.58718683689563
 21
331.9150275531074
 31
0.0
  0
LINE
  5
100
102
{ACAD_REACTORS
330
193
330
193
102
}
330
49
100
AcDbEntity
  8
0
  6
Continuous
 62
     7
100
AcDbLine
 10
-73.99999999999932
 20
331.9150275531074
 30
0.0
 11
-76.2003827443416
 21
331.9150275531074
 31
0.0
  0
LINE
  5
101
330
49
100
AcDbEntity
  8
0
  6
Continuous
 62
     7
100
AcDbLine
 10
-73.99999999999932
 20
330.9150275531081
 30
0.0
 11
-55.00960324820142
 21
330.9150275531081
 31
0.0
  0
LINE
  5
102
102
{ACAD_REACTORS
330
193
330
193
102
}
330
49
100
AcDbEntity
  8
0
  6
Continuous
 62
     7
100
AcDbLine
 10
-76.20038274434182
 20
330.9150275531081
 30
0.0
 11
-73.99999999999932
 21
330.9150275531081
 31
0.0
  0
LINE
  5
103
330
49
100
AcDbEntity
  8
0
  6
Continuous
 62
     3
100
AcDbLine
 10
-54.76329818100362
 20
332.5079723170702
 30
0.0
 11
-76.9731234053728
 21
332.5079723170254
 31
0.0
  0
LINE
  5
104
102
{ACAD_REACTORS
330
193
330
193
102
}
330
49
100
AcDbEntity
  8
0
  6
Continuous
 62
     7
100
AcDbLine
 10
-76.9731234053728
 20
332.5079723170254
 30
0.0
 11
-77.00160873516518
 21
332.6142810150805
 31
0.0
  0
LINE
  5
105
102
{ACAD_REACTORS
330
193
330
193
102
}
330
49
100
AcDbEntity
  8
0
  6
Continuous
 62
     7
100
AcDbLine
 10
-77.93904923166212
 20
332.2491532719236
 30
0.0
 11
-77.96753456145416
 21
332.3554619699779
 31
0.0
  0
LINE
  5
106
102
{ACAD_REACTORS
330
191
330
191
102
}
330
49
100
AcDbEntity
  8
0
  6
Continuous
 62
     7
100
AcDbLine
 10
76.97312340537428
 20
332.5079723170254
 30
0.0
 11
77.00160873516654
 21
332.6142810150805
 31
0.0
  0
LINE
  5
107
330
49
100
AcDbEntity
  8
0
  6
Continuous
 62
     3
100
AcDbLine
 10
76.97312340537428
 20
332.5079723170254
 30
0.0
 11
54.76329818099509
 21
332.5079723170456
 31
0.0
  0
LINE
  5
108
102
{ACAD_REACTORS
330
191
330
191
102
}
330
49
100
AcDbEntity
  8
0
  6
Continuous
 62
     7
100
AcDbLine
 10
77.93904923166349
 20
332.2491532719236
 30
0.0
 11
77.96753456145564
 21
332.3554619699779
 31
0.0
  0
LINE
  5
109
102
{ACAD_REACTORS
330
191
330
191
102
}
330
49
100
AcDbEntity
  8
0
  6
Continuous
 62
     7
100
AcDbLine
 10
74.0000000000008
 20
330.9150275531081
 30
0.0
 11
74.0000000000008
 21
331.9150275531074
 31
0.0
  0
LINE
  5
10A
330
49
100
AcDbEntity
  8
0
  6
Continuous
 62
     7
100
AcDbLine
 10
55.00960324820278
 20
330.9150275531081
 30
0.0
 11
55.00960324820278
 21
331.9150275531074
 31
0.0
  0
LINE
  5
10B
330
49
100
AcDbEntity
  8
0
  6
Continuous
 62
     7
100
AcDbLine
 10
55.00960324820278
 20
331.9150275531074
 30
0.0
 11
55.58718683689676
 21
331.9150275531074
 31
0.0
  0
LINE
  5
10C
102
{ACAD_REACTORS
330
191
330
191
102
}
330
49
100
AcDbEntity
  8
0
  6
Continuous
 62
     7
100
AcDbLine
 10
76.20038274434296
 20
331.9150275531074
 30
0.0
 11
74.0000000000008
 21
331.9150275531074
 31
0.0
  0
LINE
  5
10D
330
49
100
AcDbEntity
  8
0
  6
Continuous
 62
     7
100
AcDbLine
 10
55.58718683689676
 20
331.9150275531074
 30
0.0
 11
74.0000000000008
 21
331.9150275531074
 31
0.0
  0
LINE
  5
10E
102
{ACAD_REACTORS
330
191
330
191
102
}
330
49
100
AcDbEntity
  8
0
  6
Continuous
 62
     7
100
AcDbLine
 10
74.0000000000008
 20
330.9150275531081
 30
0.0
 11
76.20038274434307
 21
330.9150275531081
 31
0.0
  0
LINE
  5
10F
330
49
100
AcDbEntity
  8
0
  6
Continuous
 62
     7
100
AcDbLine
 10
55.00960324820278
 20
330.9150275531081
 30
0.0
 11
74.0000000000008
 21
330.9150275531081
 31
0.0
  0
LINE
  5
110
330
49
100
AcDbEntity
  8
0
  6
Continuous
 62
     7
100
AcDbLine
 10
-79.9999999999992
 20
334.9150275531081
 30
0.0
 11
80.00000000000068
 21
334.9150275531081
 31
0.0
  0
LINE
  5
111
330
49
100
AcDbEntity
  8
0
  6
Continuous
 62
     7
100
AcDbLine
 10
80.00000000000068
 20
334.9150275531081
 30
0.0
 11
100.0000000000007
 21
334.9150275531081
 31
0.0
  0
LINE
  5
112
330
49
100
AcDbEntity
  8
0
  6
Continuous
 62
     3
100
AcDbLine
 10
102.0292554269016
 20
334.1598963595309
 30
0.0
 11
107.9707445730998
 21
334.1598963595309
 31
0.0
  0
LINE
  5
113
330
49
100
AcDbEntity
  8
0
  6
Continuous
 62
     7
100
AcDbLine
 10
-49.4969044534638
 20
330.9150275531081
 30
0.0
 11
49.49690445346516
 21
330.9150275531081
 31
0.0
  0
LINE
  5
114
330
49
100
AcDbEntity
  8
0
  6
Continuous
 62
     7
100
AcDbLine
 10
52.12065799608001
 20
330.9150275531081
 30
0.0
 11
49.49690445346516
 21
330.9150275531081
 31
0.0
  0
LINE
  5
115
330
49
100
AcDbEntity
  8
0
  6
Continuous
 62
     3
100
AcDbLine
 10
-103.692558741102
 20
331.4015555994417
 30
0.0
 11
-77.43115137691734
 21
331.4015555994417
 31
0.0
  0
LINE
  5
116
330
49
100
AcDbEntity
  8
0
  6
Continuous
 62
     7
100
AcDbLine
 10
-55.00960324820142
 20
330.9150275531081
 30
0.0
 11
-52.12065799607865
 21
330.9150275531081
 31
0.0
  0
LINE
  5
117
330
49
100
AcDbEntity
  8
0
  6
Continuous
 62
     7
100
AcDbLine
 10
-104.9999999999993
 20
330.9150275531074
 30
0.0
 11
-76.20038274434182
 21
330.9150275531081
 31
0.0
  0
LINE
  5
118
330
49
100
AcDbEntity
  8
0
  6
Continuous
 62
     7
100
AcDbLine
 10
52.12065799608001
 20
330.9150275531081
 30
0.0
 11
55.00960324820278
 21
330.9150275531081
 31
0.0
  0
LINE
  5
119
330
49
100
AcDbEntity
  8
0
  6
Continuous
 62
     7
100
AcDbLine
 10
-114.9999999999993
 20
330.9150275531074
 30
0.0
 11
-104.9999999999993
 21
330.9150275531074
 31
0.0
  0
LINE
  5
11A
330
49
100
AcDbEntity
  8
0
  6
Continuous
 62
     7
100
AcDbLine
 10
76.20038274434307
 20
330.9150275531081
 30
0.0
 11
105.0000000000007
 21
330.9150275531074
 31
0.0
  0
LINE
  5
11B
330
49
100
AcDbEntity
  8
0
  6
Continuous
 62
     7
100
AcDbLine
 10
105.0000000000007
 20
330.9150275531074
 30
0.0
 11
115.0000000000008
 21
330.9150275531074
 31
0.0
  0
LINE
  5
11C
102
{ACAD_REACTORS
330
192
330
192
102
}
330
49
100
AcDbEntity
  8
0
  6
Continuous
 62
     7
100
AcDbLine
 10
116.0000000000008
 20
331.1829767455386
 30
0.0
 11
119.0000000000008
 21
332.9150275531074
 31
0.0
  0
LINE
  5
11D
102
{ACAD_REACTORS
330
192
330
192
102
}
330
49
100
AcDbEntity
  8
0
  6
Continuous
 62
     7
100
AcDbLine
 10
106.3074412588982
 20
331.4015555994417
 30
0.0
 11
108.6244652025484
 21
333.4031603826981
 31
0.0
  0
LINE
  5
11E
102
{ACAD_REACTORS
330
192
330
192
102
}
330
49
100
AcDbEntity
  8
0
  6
Continuous
 62
     7
100
AcDbLine
 10
112.0292554269016
 20
334.1598963595309
 30
0.0
 11
114.346279370552
 21
332.1582915762745
 31
0.0
  0
LINE
  5
11F
102
{ACAD_REACTORS
330
192
330
192
102
}
330
49
100
AcDbEntity
  8
0
  6
Continuous
 62
     7
100
AcDbLine
 10
102.0292554269016
 20
334.1598963595309
 30
0.0
 11
104.346279370552
 21
332.1582915762745
 31
0.0
  0
LINE
  5
120
102
{ACAD_REACTORS
330
192
330
192
102
}
330
49
100
AcDbEntity
  8
0
  6
Continuous
 62
     7
100
AcDbLine
 10
115.5000000000008
 20
332.0490021493229
 30
0.0
 11
118.5000000000008
 21
333.7810529568918
 31
0.0
  0
LINE
  5
121
102
{ACAD_REACTORS
330
192
330
192
102
}
330
49
100
AcDbEntity
  8
0
  6
Continuous
 62
     7
100
AcDbLine
 10
105.6537206294494
 20
332.1582915762745
 30
0.0
 11
107.9707445730998
 21
334.1598963595309
 31
0.0
  0
LINE
  5
122
102
{ACAD_REACTORS
330
192
330
192
102
}
330
49
100
AcDbEntity
  8
0
  6
Continuous
 62
     7
100
AcDbLine
 10
101.3755347974529
 20
333.4031603826981
 30
0.0
 11
103.6925587411032
 21
331.4015555994417
 31
0.0
  0
LINE
  5
123
330
49
100
AcDbEntity
  8
0
  6
Continuous
 62
     3
100
AcDbLine
 10
108.6244652025484
 20
333.4031603826981
 30
0.0
 11
111.3755347974529
 21
333.4031603826981
 31
0.0
  0
LINE
  5
124
330
49
100
AcDbEntity
  8
0
  6
Continuous
 62
     7
100
AcDbLine
 10
100.0000000000007
 20
334.9150275531081
 30
0.0
 11
110.0000000000008
 21
334.9150275531081
 31
0.0
  0
LINE
  5
125
330
49
100
AcDbEntity
  8
0
  6
Continuous
 62
     3
100
AcDbLine
 10
106.3074412588982
 20
331.4015555994417
 30
0.0
 11
113.6925587411034
 21
331.4015555994417
 31
0.0
  0
LINE
  5
126
102
{ACAD_REACTORS
330
192
330
192
102
}
330
49
100
AcDbEntity
  8
0
  6
Continuous
 62
     7
100
AcDbLine
 10
111.3755347974529
 20
333.4031603826981
 30
0.0
 11
113.6925587411034
 21
331.4015555994417
 31
0.0
  0
LINE
  5
127
330
49
100
AcDbEntity
  8
0
  6
Continuous
 62
     7
100
AcDbLine
 10
97.71782425913659
 20
333.9150275530787
 30
0.0
 11
82.28217574083772
 21
333.9150275531081
 31
0.0
  0
LINE
  5
128
330
49
100
AcDbEntity
  8
0
  6
Continuous
 62
     7
100
AcDbLine
 10
86.50000000000068
 20
331.9150275531081
 30
0.0
 11
93.50000000000068
 21
331.9150275531081
 31
0.0
  0
LINE
  5
129
102
{ACAD_REACTORS
330
192
330
192
102
}
330
49
100
AcDbEntity
  8
0
  6
Continuous
 62
     7
100
AcDbLine
 10
93.50000000000068
 20
332.9150275531081
 30
0.0
 11
93.50000000000068
 21
331.9150275531081
 31
0.0
  0
LINE
  5
12A
330
49
100
AcDbEntity
  8
0
  6
Continuous
 62
     7
100
AcDbLine
 10
86.50000000000068
 20
332.9150275531081
 30
0.0
 11
93.50000000000068
 21
332.9150275531081
 31
0.0
  0
LINE
  5
12B
102
{ACAD_REACTORS
330
191
330
191
102
}
330
49
100
AcDbEntity
  8
0
  6
Continuous
 62
     7
100
AcDbLine
 10
86.50000000000068
 20
332.9150275531081
 30
0.0
 11
86.50000000000068
 21
331.9150275531081
 31
0.0
  0
LINE
  5
12C
102
{ACAD_REACTORS
330
191
330
191
102
}
330
49
100
AcDbEntity
  8
0
  6
Continuous
 62
     7
100
AcDbLine
 10
83.5232308968026
 20
331.9150275531081
 30
0.0
 11
86.50000000000068
 21
331.9150275531081
 31
0.0
  0
LINE
  5
12D
102
{ACAD_REACTORS
330
191
330
191
102
}
330
49
100
AcDbEntity
  8
0
  6
Continuous
 62
     7
100
AcDbLine
 10
83.5232308968026
 20
332.9150275531081
 30
0.0
 11
86.50000000000068
 21
332.9150275531081
 31
0.0
  0
LINE
  5
12E
102
{ACAD_REACTORS
330
192
330
192
102
}
330
49
100
AcDbEntity
  8
0
  6
Continuous
 62
     7
100
AcDbLine
 10
118.5000000000008
 20
333.7810529568918
 30
0.0
 11
119.0000000000008
 21
332.9150275531074
 31
0.0
  0
LINE
  5
12F
102
{ACAD_REACTORS
330
194
330
194
102
}
330
49
100
AcDbEntity
  8
0
  6
Continuous
 62
     7
100
AcDbLine
 10
-118.4999999999993
 20
333.7810529568918
 30
0.0
 11
-118.9999999999993
 21
332.9150275531074
 31
0.0
  0
LINE
  5
130
330
49
100
AcDbEntity
  8
0
  6
Continuous
 62
     3
100
AcDbLine
 10
-77.00160873516518
 20
332.6142810150805
 30
0.0
 11
-26.33610125590769
 21
332.6142810150805
 31
0.0
  0
LINE
  5
131
330
49
100
AcDbEntity
  8
0
  6
Continuous
 62
     7
100
AcDbLine
 10
-81.79118008923206
 20
332.9150275531085
 30
0.0
 11
-78.20881991076624
 21
332.9150275531081
 31
0.0
  0
LINE
  5
132
102
{ACAD_REACTORS
330
193
330
193
102
}
330
49
100
AcDbEntity
  8
0
  6
Continuous
 62
     7
100
AcDbLine
 10
-86.4999999999992
 20
332.9150275531081
 30
0.0
 11
-83.52323089680124
 21
332.9150275531081
 31
0.0
  0
LINE
  5
133
330
49
100
AcDbEntity
  8
0
  6
Continuous
 62
     7
100
AcDbLine
 10
-49.4969044534638
 20
331.9150275531074
 30
0.0
 11
49.49690445346516
 21
331.9150275531074
 31
0.0
  0
LINE
  5
134
330
49
100
AcDbEntity
  8
0
  6
Continuous
 62
     3
100
AcDbLine
 10
77.43115137691859
 20
331.4015555994417
 30
0.0
 11
103.6925587411032
 21
331.4015555994417
 31
0.0
  0
LINE
  5
135
330
49
100
AcDbEntity
  8
0
  6
Continuous
 62
     3
100
AcDbLine
 10
114.5000000000008
 20
332.0490021493229
 30
0.0
 11
115.5000000000008
 21
332.0490021493229
 31
0.0
  0
LINE
  5
136
102
{ACAD_REACTORS
330
192
330
192
102
}
330
49
100
AcDbEntity
  8
0
  6
Continuous
 62
     7
100
AcDbLine
 10
93.50000000000068
 20
331.9150275531081
 30
0.0
 11
96.47676910319876
 21
331.9150275531081
 31
0.0
  0
LINE
  5
137
330
49
100
AcDbEntity
  8
0
  6
Continuous
 62
     3
100
AcDbLine
 10
104.346279370552
 20
332.1582915762745
 30
0.0
 11
105.6537206294494
 21
332.1582915762745
 31
0.0
  0
LINE
  5
138
330
49
100
AcDbEntity
  8
0
  6
Continuous
 62
     3
100
AcDbLine
 10
-26.33610125590769
 20
332.6142810150805
 30
0.0
 11
77.00160873516654
 21
332.6142810150805
 31
0.0
  0
LINE
  5
139
330
49
100
AcDbEntity
  8
0
  6
Continuous
 62
     7
100
AcDbLine
 10
78.2088199107676
 20
332.9150275531081
 30
0.0
 11
81.79118008923353
 21
332.9150275531085
 31
0.0
  0
LINE
  5
13A
330
49
100
AcDbEntity
  8
0
  6
Continuous
 62
     7
100
AcDbLine
 10
97.32201985547579
 20
333.3806576757991
 30
0.0
 11
82.67798014452569
 21
333.3806576757991
 31
0.0
  0
LINE
  5
13B
330
49
100
AcDbEntity
  8
0
  6
Continuous
 62
     3
100
AcDbLine
 10
98.62446520254844
 20
333.4031603826981
 30
0.0
 11
101.3755347974529
 21
333.4031603826981
 31
0.0
  0
LINE
  5
13C
102
{ACAD_REACTORS
330
192
330
192
102
}
330
49
100
AcDbEntity
  8
0
  6
Continuous
 62
     7
100
AcDbLine
 10
93.50000000000068
 20
332.9150275531081
 30
0.0
 11
96.47676910319876
 21
332.9150275531081
 31
0.0
  0
LINE
  5
13D
330
49
100
AcDbEntity
  8
0
  6
Continuous
 62
     7
100
AcDbLine
 10
112.4677981612873
 20
333.7810529568918
 30
0.0
 11
118.5000000000008
 21
333.7810529568918
 31
0.0
  0
LINE
  5
13E
102
{ACAD_REACTORS
330
194
330
194
102
}
330
49
100
AcDbEntity
  8
0
  6
Continuous
 62
     7
100
AcDbLine
 10
-115.9999999999992
 20
331.1829767455386
 30
0.0
 11
-118.9999999999993
 21
332.9150275531074
 31
0.0
  0
LINE
  5
13F
102
{ACAD_REACTORS
330
194
330
194
102
}
330
49
100
AcDbEntity
  8
0
  6
Continuous
 62
     7
100
AcDbLine
 10
-112.0292554269003
 20
334.1598963595309
 30
0.0
 11
-114.3462793705506
 21
332.1582915762745
 31
0.0
  0
LINE
  5
140
102
{ACAD_REACTORS
330
194
330
194
102
}
330
49
100
AcDbEntity
  8
0
  6
Continuous
 62
     7
100
AcDbLine
 10
-115.4999999999992
 20
332.0490021493229
 30
0.0
 11
-118.4999999999993
 21
333.7810529568918
 31
0.0
  0
LINE
  5
141
102
{ACAD_REACTORS
330
194
330
194
102
}
330
49
100
AcDbEntity
  8
0
  6
Continuous
 62
     7
100
AcDbLine
 10
-105.653720629448
 20
332.1582915762745
 30
0.0
 11
-107.9707445730983
 21
334.1598963595309
 31
0.0
  0
LINE
  5
142
102
{ACAD_REACTORS
330
194
330
194
102
}
330
49
100
AcDbEntity
  8
0
  6
Continuous
 62
     7
100
AcDbLine
 10
-102.0292554269004
 20
334.1598963595309
 30
0.0
 11
-104.3462793705506
 21
332.1582915762745
 31
0.0
  0
LINE
  5
143
102
{ACAD_REACTORS
330
194
330
194
102
}
330
49
100
AcDbEntity
  8
0
  6
Continuous
 62
     7
100
AcDbLine
 10
-101.3755347974516
 20
333.4031603826981
 30
0.0
 11
-103.692558741102
 21
331.4015555994417
 31
0.0
  0
LINE
  5
144
330
49
100
AcDbEntity
  8
0
  6
Continuous
 62
     7
100
AcDbLine
 10
-82.67798014452433
 20
333.3806576757991
 30
0.0
 11
-97.32201985547431
 21
333.3806576757991
 31
0.0
  0
LINE
  5
145
330
49
100
AcDbEntity
  8
0
  6
Continuous
 62
     7
100
AcDbLine
 10
-82.28217574083635
 20
333.9150275531081
 30
0.0
 11
-97.71782425913534
 21
333.9150275530787
 31
0.0
  0
LINE
  5
146
330
49
100
AcDbEntity
  8
0
  6
Continuous
 62
     7
100
AcDbLine
 10
-99.99999999999932
 20
334.9150275531081
 30
0.0
 11
-79.9999999999992
 21
334.9150275531081
 31
0.0
  0
LINE
  5
147
330
49
100
AcDbEntity
  8
0
  6
Continuous
 62
     3
100
AcDbLine
 10
-101.3755347974516
 20
333.4031603826981
 30
0.0
 11
-98.62446520254707
 21
333.4031603826981
 31
0.0
  0
LINE
  5
148
102
{ACAD_REACTORS
330
193
330
193
102
}
330
49
100
AcDbEntity
  8
0
  6
Continuous
 62
     7
100
AcDbLine
 10
-86.4999999999992
 20
332.9150275531081
 30
0.0
 11
-86.4999999999992
 21
331.9150275531081
 31
0.0
  0
LINE
  5
149
330
49
100
AcDbEntity
  8
0
  6
Continuous
 62
     7
100
AcDbLine
 10
-93.49999999999932
 20
332.9150275531081
 30
0.0
 11
-86.4999999999992
 21
332.9150275531081
 31
0.0
  0
LINE
  5
14A
102
{ACAD_REACTORS
330
194
330
194
102
}
330
49
100
AcDbEntity
  8
0
  6
Continuous
 62
     7
100
AcDbLine
 10
-93.49999999999932
 20
332.9150275531081
 30
0.0
 11
-93.49999999999932
 21
331.9150275531081
 31
0.0
  0
LINE
  5
14B
102
{ACAD_REACTORS
330
193
330
193
102
}
330
49
100
AcDbEntity
  8
0
  6
Continuous
 62
     7
100
AcDbLine
 10
-86.4999999999992
 20
331.9150275531081
 30
0.0
 11
-83.52323089680124
 21
331.9150275531081
 31
0.0
  0
LINE
  5
14C
330
49
100
AcDbEntity
  8
0
  6
Continuous
 62
     7
100
AcDbLine
 10
-93.49999999999932
 20
331.9150275531081
 30
0.0
 11
-86.4999999999992
 21
331.9150275531081
 31
0.0
  0
LINE
  5
14D
102
{ACAD_REACTORS
330
194
330
194
102
}
330
49
100
AcDbEntity
  8
0
  6
Continuous
 62
     7
100
AcDbLine
 10
-96.4767691031974
 20
332.9150275531081
 30
0.0
 11
-93.49999999999932
 21
332.9150275531081
 31
0.0
  0
LINE
  5
14E
102
{ACAD_REACTORS
330
194
330
194
102
}
330
49
100
AcDbEntity
  8
0
  6
Continuous
 62
     7
100
AcDbLine
 10
-96.4767691031974
 20
331.9150275531081
 30
0.0
 11
-93.49999999999932
 21
331.9150275531081
 31
0.0
  0
LINE
  5
14F
330
49
100
AcDbEntity
  8
0
  6
Continuous
 62
     7
100
AcDbLine
 10
-109.9999999999992
 20
334.9150275531081
 30
0.0
 11
-99.99999999999932
 21
334.9150275531081
 31
0.0
  0
LINE
  5
150
330
49
100
AcDbEntity
  8
0
  6
Continuous
 62
     3
100
AcDbLine
 10
-107.9707445730983
 20
334.1598963595309
 30
0.0
 11
-102.0292554269004
 21
334.1598963595309
 31
0.0
  0
LINE
  5
151
330
49
100
AcDbEntity
  8
0
  6
Continuous
 62
     3
100
AcDbLine
 10
-105.653720629448
 20
332.1582915762745
 30
0.0
 11
-104.3462793705506
 21
332.1582915762745
 31
0.0
  0
LINE
  5
152
330
49
100
AcDbEntity
  8
0
  6
Continuous
 62
     3
100
AcDbLine
 10
-111.3755347974516
 20
333.4031603826981
 30
0.0
 11
-108.6244652025471
 21
333.4031603826981
 31
0.0
  0
LINE
  5
153
102
{ACAD_REACTORS
330
194
330
194
102
}
330
49
100
AcDbEntity
  8
0
  6
Continuous
 62
     7
100
AcDbLine
 10
-106.3074412588967
 20
331.4015555994417
 30
0.0
 11
-108.6244652025471
 21
333.4031603826981
 31
0.0
  0
LINE
  5
154
102
{ACAD_REACTORS
330
194
330
194
102
}
330
49
100
AcDbEntity
  8
0
  6
Continuous
 62
     7
100
AcDbLine
 10
-111.3755347974516
 20
333.4031603826981
 30
0.0
 11
-113.692558741102
 21
331.4015555994417
 31
0.0
  0
LINE
  5
155
330
49
100
AcDbEntity
  8
0
  6
Continuous
 62
     3
100
AcDbLine
 10
-113.692558741102
 20
331.4015555994417
 30
0.0
 11
-106.3074412588967
 21
331.4015555994417
 31
0.0
  0
LINE
  5
156
330
49
100
AcDbEntity
  8
0
  6
Continuous
 62
     3
100
AcDbLine
 10
-115.4999999999992
 20
332.0490021493229
 30
0.0
 11
-114.4999999999993
 21
332.0490021493229
 31
0.0
  0
LINE
  5
157
330
49
100
AcDbEntity
  8
0
  6
Continuous
 62
     7
100
AcDbLine
 10
-118.4999999999993
 20
333.7810529568918
 30
0.0
 11
-112.4677981612859
 21
333.7810529568918
 31
0.0
  0
LINE
  5
158
330
49
100
AcDbEntity
  8
1
  6
DOT_CENTER
 62
     2
100
AcDbLine
 10
90.00000000000068
 20
332.9150275531081
 30
0.0
 11
90.00000000000068
 21
331.9150275531081
 31
0.0
  0
LINE
  5
159
330
49
100
AcDbEntity
  8
1
  6
DOT_CENTER
 62
     2
100
AcDbLine
 10
-89.99999999999932
 20
332.9150275531081
 30
0.0
 11
-89.99999999999932
 21
331.9150275531081
 31
0.0
  0
LINE
  5
15A
330
49
100
AcDbEntity
  8
1
  6
DOT_CENTER
 62
     2
100
AcDbLine
 10
-0.00000000000159
 20
337.7685202252554
 30
0.0
 11
0.00000000000625
 21
328.5614214129967
 31
0.0
  0
ARC
  5
15B
102
{ACAD_REACTORS
330
193
330
193
102
}
330
49
100
AcDbEntity
  8
0
  6
Continuous
 62
     7
100
AcDbCircle
 10
-76.2003827443416
 20
332.7150275531074
 30
0.0
 40
1.800000000000008
100
AcDbArc
 50
-165.0000000000243
 51
-90.00000000000723
  0
ARC
  5
15C
102
{ACAD_REACTORS
330
193
330
193
102
}
330
49
100
AcDbEntity
  8
0
  6
Continuous
 62
     7
100
AcDbCircle
 10
-76.2003827443416
 20
332.7150275531074
 30
0.0
 40
0.7999999999999498
100
AcDbArc
 50
-165.0000000000003
 51
-90.0
  0
ARC
  5
15D
102
{ACAD_REACTORS
330
191
330
191
102
}
330
49
100
AcDbEntity
  8
0
  6
Continuous
 62
     7
100
AcDbCircle
 10
80.00000000000011
 20
331.8108644970753
 30
0.0
 40
3.104163056033133
100
AcDbArc
 50
42.67601591441186
 51
89.99999999998951
  0
ARC
  5
15E
102
{ACAD_REACTORS
330
191
330
191
102
}
330
49
100
AcDbEntity
  8
0
  6
Continuous
 62
     7
100
AcDbCircle
 10
80.00000000000011
 20
331.8108644970753
 30
0.0
 40
2.104163056033164
100
AcDbArc
 50
31.6515266150235
 51
164.9999999999874
  0
ARC
  5
15F
102
{ACAD_REACTORS
330
191
330
191
102
}
330
49
100
AcDbEntity
  8
0
  6
Continuous
 62
     7
100
AcDbCircle
 10
80.00000000000011
 20
331.8108644970753
 30
0.0
 40
3.104163056032803
100
AcDbArc
 50
89.99999999998951
 51
164.9999999999903
  0
ARC
  5
160
102
{ACAD_REACTORS
330
191
330
191
102
}
330
49
100
AcDbEntity
  8
0
  6
Continuous
 62
     7
100
AcDbCircle
 10
76.20038274434307
 20
332.715027553108
 30
0.0
 40
0.8000000000005798
100
AcDbArc
 50
-90.00000000000814
 51
-15.00000000003897
  0
ARC
  5
161
102
{ACAD_REACTORS
330
191
330
191
102
}
330
49
100
AcDbEntity
  8
0
  6
Continuous
 62
     7
100
AcDbCircle
 10
80.00000000000011
 20
331.8108644970753
 30
0.0
 40
3.104163056033161
100
AcDbArc
 50
30.37821438130888
 51
42.67601591441186
  0
ARC
  5
162
102
{ACAD_REACTORS
330
191
330
191
102
}
330
49
100
AcDbEntity
  8
0
  6
Continuous
 62
     7
100
AcDbCircle
 10
76.20038274434307
 20
332.715027553108
 30
0.0
 40
1.799999999999898
100
AcDbArc
 50
-90.0
 51
-14.99999999999408
  0
ARC
  5
163
102
{ACAD_REACTORS
330
191
330
191
102
}
330
49
100
AcDbEntity
  8
0
  6
Continuous
 62
     7
100
AcDbCircle
 10
83.5232308968026
 20
333.9150275531081
 30
0.0
 40
1.999999999999965
100
AcDbArc
 50
-150.0000000000126
 51
-90.0
  0
ARC
  5
164
102
{ACAD_REACTORS
330
192
330
192
102
}
330
49
100
AcDbEntity
  8
0
  6
Continuous
 62
     7
100
AcDbCircle
 10
115.0000000000008
 20
332.9150275531074
 30
0.0
 40
2.0
100
AcDbArc
 50
-90.0
 51
-59.99999999999865
  0
ARC
  5
165
102
{ACAD_REACTORS
330
192
330
192
102
}
330
49
100
AcDbEntity
  8
0
  6
Continuous
 62
     7
100
AcDbCircle
 10
115.0000000000008
 20
332.9150275531074
 30
0.0
 40
1.999999999999982
100
AcDbArc
 50
-130.8227123470818
 51
-90.0
  0
ARC
  5
166
102
{ACAD_REACTORS
330
192
330
192
102
}
330
49
100
AcDbEntity
  8
0
  6
Continuous
 62
     7
100
AcDbCircle
 10
105.0000000000007
 20
332.9150275531074
 30
0.0
 40
2.0
100
AcDbArc
 50
-90.0
 51
-49.17728765291605
  0
ARC
  5
167
102
{ACAD_REACTORS
330
192
330
192
102
}
330
49
100
AcDbEntity
  8
0
  6
Continuous
 62
     7
100
AcDbCircle
 10
105.0000000000007
 20
332.9150275531074
 30
0.0
 40
2.000000000000047
100
AcDbArc
 50
-130.822712347084
 51
-90.0
  0
ARC
  5
168
102
{ACAD_REACTORS
330
194
330
194
102
}
330
49
100
AcDbEntity
  8
0
  6
Continuous
 62
     7
100
AcDbCircle
 10
-104.9999999999993
 20
332.9150275531074
 30
0.0
 40
1.999999999999982
100
AcDbArc
 50
-130.8227123470818
 51
-90.0
  0
ARC
  5
169
102
{ACAD_REACTORS
330
194
330
194
102
}
330
49
100
AcDbEntity
  8
0
  6
Continuous
 62
     7
100
AcDbCircle
 10
-114.9999999999993
 20
332.9150275531074
 30
0.0
 40
2.0
100
AcDbArc
 50
-90.0
 51
-49.17728765292036
  0
ARC
  5
16A
102
{ACAD_REACTORS
330
194
330
194
102
}
330
49
100
AcDbEntity
  8
0
  6
Continuous
 62
     7
100
AcDbCircle
 10
-114.9999999999993
 20
332.9150275531074
 30
0.0
 40
1.999999999999868
100
AcDbArc
 50
-119.9999999999989
 51
-90.0
  0
ARC
  5
16B
102
{ACAD_REACTORS
330
194
330
194
102
}
330
49
100
AcDbEntity
  8
0
  6
Continuous
 62
     7
100
AcDbCircle
 10
-104.9999999999993
 20
332.9150275531074
 30
0.0
 40
2.0
100
AcDbArc
 50
-90.0
 51
-49.17728765292036
  0
ARC
  5
16C
102
{ACAD_REACTORS
330
192
330
192
102
}
330
49
100
AcDbEntity
  8
0
  6
Continuous
 62
     7
100
AcDbCircle
 10
110.0000000000008
 20
331.8108644970756
 30
0.0
 40
3.104163056032462
100
AcDbArc
 50
90.0
 51
130.8227123470818
  0
ARC
  5
16D
102
{ACAD_REACTORS
330
192
330
192
102
}
330
49
100
AcDbEntity
  8
0
  6
Continuous
 62
     7
100
AcDbCircle
 10
100.0000000000013
 20
331.8108644970753
 30
0.0
 40
2.104163056032406
100
AcDbArc
 50
49.17728765294009
 51
148.3484733849827
  0
ARC
  5
16E
102
{ACAD_REACTORS
330
192
330
192
102
}
330
49
100
AcDbEntity
  8
0
  6
Continuous
 62
     7
100
AcDbCircle
 10
100.0000000000013
 20
331.8108644970753
 30
0.0
 40
3.104163056032803
100
AcDbArc
 50
90.00000000001101
 51
137.323984086326
  0
ARC
  5
16F
102
{ACAD_REACTORS
330
192
330
192
102
}
330
49
100
AcDbEntity
  8
0
  6
Continuous
 62
     7
100
AcDbCircle
 10
100.0000000000013
 20
331.8108644970753
 30
0.0
 40
3.104163056032332
100
AcDbArc
 50
49.17728765293201
 51
90.00000000001101
  0
ARC
  5
170
102
{ACAD_REACTORS
330
192
330
192
102
}
330
49
100
AcDbEntity
  8
0
  6
Continuous
 62
     7
100
AcDbCircle
 10
110.0000000000008
 20
331.8108644970756
 30
0.0
 40
2.104163056032473
100
AcDbArc
 50
49.17728765292377
 51
130.8227123470824
  0
ARC
  5
171
102
{ACAD_REACTORS
330
192
330
192
102
}
330
49
100
AcDbEntity
  8
0
  6
Continuous
 62
     7
100
AcDbCircle
 10
110.0000000000008
 20
331.8108644970756
 30
0.0
 40
3.104163056032399
100
AcDbArc
 50
49.17728765292095
 51
90.0
  0
ARC
  5
172
102
{ACAD_REACTORS
330
192
330
192
102
}
330
49
100
AcDbEntity
  8
0
  6
Continuous
 62
     7
100
AcDbCircle
 10
100.0000000000013
 20
331.8108644970753
 30
0.0
 40
3.104163056033137
100
AcDbArc
 50
137.323984086326
 51
149.6217856186905
  0
ARC
  5
173
102
{ACAD_REACTORS
330
191
330
191
102
}
330
49
100
AcDbEntity
  8
0
  6
Continuous
 62
     7
100
AcDbCircle
 10
83.5232308968026
 20
333.9150275531081
 30
0.0
 40
0.9999999999999393
100
AcDbArc
 50
-147.6988118683049
 51
-90.0
  0
ARC
  5
174
102
{ACAD_REACTORS
330
192
330
192
102
}
330
49
100
AcDbEntity
  8
0
  6
Continuous
 62
     7
100
AcDbCircle
 10
96.47676910319876
 20
333.9150275531081
 30
0.0
 40
2.0
100
AcDbArc
 50
-90.0
 51
-29.99999999999327
  0
ARC
  5
175
102
{ACAD_REACTORS
330
192
330
192
102
}
330
49
100
AcDbEntity
  8
0
  6
Continuous
 62
     7
100
AcDbCircle
 10
96.47676910319876
 20
333.9150275531081
 30
0.0
 40
1.0
100
AcDbArc
 50
-90.0
 51
-32.30118813169162
  0
ARC
  5
176
102
{ACAD_REACTORS
330
192
330
192
102
}
330
49
100
AcDbEntity
  8
0
  6
Continuous
 62
     7
100
AcDbCircle
 10
115.0000000000008
 20
332.9150275531074
 30
0.0
 40
1.000000000000077
100
AcDbArc
 50
-130.822712347085
 51
-60.00000000000109
  0
ARC
  5
177
102
{ACAD_REACTORS
330
192
330
192
102
}
330
49
100
AcDbEntity
  8
0
  6
Continuous
 62
     7
100
AcDbCircle
 10
105.0000000000007
 20
332.9150275531074
 30
0.0
 40
1.000000000000013
100
AcDbArc
 50
-130.8227123470807
 51
-49.17728765291928
  0
ARC
  5
178
102
{ACAD_REACTORS
330
193
330
193
102
}
330
49
100
AcDbEntity
  8
0
  6
Continuous
 62
     7
100
AcDbCircle
 10
-79.99999999999875
 20
331.8108644970753
 30
0.0
 40
3.104163056032
100
AcDbArc
 50
15.00000000000976
 51
90.0000000000084
  0
ARC
  5
179
102
{ACAD_REACTORS
330
193
330
193
102
}
330
49
100
AcDbEntity
  8
0
  6
Continuous
 62
     7
100
AcDbCircle
 10
-79.99999999999875
 20
331.8108644970753
 30
0.0
 40
3.104163056032803
100
AcDbArc
 50
90.0000000000084
 51
137.3239840855882
  0
ARC
  5
17A
102
{ACAD_REACTORS
330
193
330
193
102
}
330
49
100
AcDbEntity
  8
0
  6
Continuous
 62
     7
100
AcDbCircle
 10
-79.99999999999875
 20
331.8108644970753
 30
0.0
 40
2.104163056032065
100
AcDbArc
 50
15.00000000001175
 51
148.3484733849749
  0
ARC
  5
17B
102
{ACAD_REACTORS
330
194
330
194
102
}
330
49
100
AcDbEntity
  8
0
  6
Continuous
 62
     7
100
AcDbCircle
 10
-99.99999999999932
 20
331.8108644970756
 30
0.0
 40
3.104163056032498
100
AcDbArc
 50
30.37821438130876
 51
42.67601591367844
  0
ARC
  5
17C
102
{ACAD_REACTORS
330
194
330
194
102
}
330
49
100
AcDbEntity
  8
0
  6
Continuous
 62
     7
100
AcDbCircle
 10
-99.99999999999932
 20
331.8108644970756
 30
0.0
 40
3.104163056032372
100
AcDbArc
 50
42.67601591367844
 51
90.0
  0
ARC
  5
17D
102
{ACAD_REACTORS
330
193
330
193
102
}
330
49
100
AcDbEntity
  8
0
  6
Continuous
 62
     7
100
AcDbCircle
 10
-79.99999999999875
 20
331.8108644970753
 30
0.0
 40
3.104163056033133
100
AcDbArc
 50
137.3239840855882
 51
149.6217856186911
  0
ARC
  5
17E
102
{ACAD_REACTORS
330
194
330
194
102
}
330
49
100
AcDbEntity
  8
0
  6
Continuous
 62
     7
100
AcDbCircle
 10
-99.99999999999932
 20
331.8108644970756
 30
0.0
 40
2.104163056032389
100
AcDbArc
 50
31.65152661501287
 51
130.8227123470801
  0
ARC
  5
17F
102
{ACAD_REACTORS
330
194
330
194
102
}
330
49
100
AcDbEntity
  8
0
  6
Continuous
 62
     7
100
AcDbCircle
 10
-96.4767691031974
 20
333.9150275531081
 30
0.0
 40
0.9999999999999393
100
AcDbArc
 50
-147.6988118683049
 51
-90.0
  0
ARC
  5
180
102
{ACAD_REACTORS
330
194
330
194
102
}
330
49
100
AcDbEntity
  8
0
  6
Continuous
 62
     7
100
AcDbCircle
 10
-99.99999999999932
 20
331.8108644970756
 30
0.0
 40
3.104163056032462
100
AcDbArc
 50
90.0
 51
130.822712347083
  0
ARC
  5
181
102
{ACAD_REACTORS
330
194
330
194
102
}
330
49
100
AcDbEntity
  8
0
  6
Continuous
 62
     7
100
AcDbCircle
 10
-96.4767691031974
 20
333.9150275531081
 30
0.0
 40
2.000000000000066
100
AcDbArc
 50
-150.0000000000011
 51
-90.0
  0
ARC
  5
182
102
{ACAD_REACTORS
330
193
330
193
102
}
330
49
100
AcDbEntity
  8
0
  6
Continuous
 62
     7
100
AcDbCircle
 10
-83.52323089680124
 20
333.9150275531081
 30
0.0
 40
2.0
100
AcDbArc
 50
-90.0
 51
-29.99999999998579
  0
ARC
  5
183
102
{ACAD_REACTORS
330
193
330
193
102
}
330
49
100
AcDbEntity
  8
0
  6
Continuous
 62
     7
100
AcDbCircle
 10
-83.52323089680124
 20
333.9150275531081
 30
0.0
 40
1.0
100
AcDbArc
 50
-90.0
 51
-32.30118813169511
  0
ARC
  5
184
102
{ACAD_REACTORS
330
194
330
194
102
}
330
49
100
AcDbEntity
  8
0
  6
Continuous
 62
     7
100
AcDbCircle
 10
-104.9999999999993
 20
332.9150275531074
 30
0.0
 40
1.000000000000013
100
AcDbArc
 50
-130.8227123470807
 51
-49.17728765291928
  0
ARC
  5
185
102
{ACAD_REACTORS
330
194
330
194
102
}
330
49
100
AcDbEntity
  8
0
  6
Continuous
 62
     7
100
AcDbCircle
 10
-109.9999999999993
 20
331.8108644970756
 30
0.0
 40
3.104163056032529
100
AcDbArc
 50
49.17728765291817
 51
89.99999999999817
  0
ARC
  5
186
102
{ACAD_REACTORS
330
194
330
194
102
}
330
49
100
AcDbEntity
  8
0
  6
Continuous
 62
     7
100
AcDbCircle
 10
-109.9999999999993
 20
331.8108644970756
 30
0.0
 40
2.104163056032538
100
AcDbArc
 50
49.17728765292172
 51
130.8227123470803
  0
ARC
  5
187
102
{ACAD_REACTORS
330
194
330
194
102
}
330
49
100
AcDbEntity
  8
0
  6
Continuous
 62
     7
100
AcDbCircle
 10
-109.9999999999993
 20
331.8108644970756
 30
0.0
 40
3.104163056032462
100
AcDbArc
 50
89.99999999999817
 51
130.8227123470818
  0
ARC
  5
188
102
{ACAD_REACTORS
330
194
330
194
102
}
330
49
100
AcDbEntity
  8
0
  6
Continuous
 62
     7
100
AcDbCircle
 10
-114.9999999999993
 20
332.9150275531074
 30
0.0
 40
0.9999999999999831
100
AcDbArc
 50
-119.999999999994
 51
-49.17728765291928
  0
SPLINE
  5
189
330
49
100
AcDbEntity
  8
0
  6
Continuous
 62
     7
100
AcDbSpline
210
0.0
220
0.0
230
1.0
 70
     8
 71
     3
 72
    15
 73
    11
 74
     9
 42
0.0000000001
 43
0.0000000001
 44
0.00000001
 40
0.0
 40
0.0
 40
0.0
 40
0.0
 40
0.2213523946082225
 40
0.480919253345514
 40
0.7535028052633228
 40
0.992147779340865
 40
1.265747442034895
 40
1.525587484242366
 40
1.834320237182238
 40
2.076892105873613
 40
2.076892105873613
 40
2.076892105873613
 40
2.076892105873613
 10
-54.09106117574891
 20
332.5079723170456
 30
0.0
 10
-54.02569909655531
 20
332.4737260139609
 30
0.0
 10
-53.88369077367934
 20
332.3993210971381
 30
0.0
 10
-53.65616321243738
 20
332.292720447051
 30
0.0
 10
-53.41903896185123
 20
332.1935528831447
 30
0.0
 10
-53.17301034255048
 20
332.1043753355092
 30
0.0
 10
-52.92659121597395
 20
332.0294331813813
 30
0.0
 10
-52.65311151737918
 20
331.9656881320445
 30
0.0
 10
-52.38534261953117
 20
331.923241983098
 30
0.0
 10
-52.20153335201529
 20
331.9175375022713
 30
0.0
 10
-52.12065799607831
 20
331.9150275531074
 30
0.0
 11
-54.09106117574891
 21
332.5079723170456
 31
0.0
 11
-53.89429491457129
 21
332.406582371484
 31
0.0
 11
-53.65937510024287
 21
332.2961847492694
 31
0.0
 11
-53.40774871982138
 21
332.1913708310519
 31
0.0
 11
-53.18333647801126
 21
332.1101885092187
 31
0.0
 11
-52.92141798841046
 21
332.0310969152815
 31
0.0
 11
-52.66834950675593
 21
331.9721631293226
 31
0.0
 11
-52.362932340558
 21
331.9270381104366
 31
0.0
 11
-52.12065799607831
 21
331.9150275531074
 31
0.0
  0
SPLINE
  5
18A
330
49
100
AcDbEntity
  8
0
  6
Continuous
 62
     7
100
AcDbSpline
210
0.0
220
0.0
230
1.0
 70
     8
 71
     3
 72
    15
 73
    11
 74
     9
 42
0.0000000001
 43
0.0000000001
 44
0.00000001
 40
0.0
 40
0.0
 40
0.0
 40
0.0
 40
0.0454234426060784
 40
0.1235669092700958
 40
0.2224386584370931
 40
0.3492289717396284
 40
0.4900943198189507
 40
0.6536449152126159
 40
0.8130780202935228
 40
1.017510553621956
 40
1.017510553621956
 40
1.017510553621956
 40
1.017510553621956
 10
-55.58718683689563
 20
331.9150275531074
 30
0.0
 10
-55.57253948083817
 20
331.919230454803
 30
0.0
 10
-55.53269378854454
 20
331.9306637487743
 30
0.0
 10
-55.47300833585027
 20
331.9767909203114
 30
0.0
 10
-55.39214155665028
 20
332.0368905309001
 30
0.0
 10
-55.29655310803334
 20
332.1133142448933
 30
0.0
 10
-55.18340657953242
 20
332.2018528193417
 30
0.0
 10
-55.06051332040089
 20
332.2957201388788
 30
0.0
 10
-54.91903484463066
 20
332.4001037204649
 30
0.0
 10
-54.81932095612542
 20
332.4691690064715
 30
0.0
 10
-54.76329818100362
 20
332.5079723170702
 30
0.0
 11
-55.58718683689563
 21
331.9150275531074
 31
0.0
 11
-55.54414877282305
 21
331.9295538802093
 31
0.0
 11
-55.47864416785308
 21
331.9721631293226
 31
0.0
 11
-55.3998061634441
 21
332.0318304725193
 31
0.0
 11
-55.30012767212349
 21
332.1101885092188
 31
0.0
 11
-55.18919306142202
 21
332.1970018632493
 31
0.0
 11
-55.05914863680357
 21
332.2961847492694
 31
0.0
 11
-54.9307012327114
 21
332.3906314505232
 31
0.0
 11
-54.76329818100362
 21
332.5079723170702
 31
0.0
  0
SPLINE
  5
18B
330
49
100
AcDbEntity
  8
0
  6
Continuous
 62
     7
100
AcDbSpline
210
0.0
220
0.0
230
1.0
 70
     8
 71
     3
 72
    11
 73
     7
 74
     5
 42
0.0000000001
 43
0.0000000001
 44
0.00000001
 40
0.0
 40
0.0
 40
0.0
 40
0.0
 40
0.1787555020358288
 40
0.3354601605297198
 40
0.5108122356743513
 40
0.7083368536295376
 40
0.7083368536295376
 40
0.7083368536295376
 40
0.7083368536295376
 10
-54.76329818100362
 20
332.5079723170702
 30
0.0
 10
-54.71108237185813
 20
332.5378144833851
 30
0.0
 10
-54.61309196866133
 20
332.5938175590304
 30
0.0
 10
-54.44074326214314
 20
332.6159327722897
 30
0.0
 10
-54.26369953910907
 20
332.5898189512472
 30
0.0
 10
-54.15084421990785
 20
332.5363150379304
 30
0.0
 10
-54.09106117574891
 20
332.5079723170456
 30
0.0
 11
-54.76329818100362
 21
332.5079723170702
 31
0.0
 11
-54.60233638476367
 21
332.5857208196879
 31
0.0
 11
-54.44726361874643
 21
332.6082771321846
 31
0.0
 11
-54.27372175673145
 21
332.5831460282315
 31
0.0
 11
-54.09106117574891
 21
332.5079723170456
 31
0.0
  0
SPLINE
  5
18C
330
49
100
AcDbEntity
  8
0
  6
Continuous
 62
     7
100
AcDbSpline
210
0.0
220
0.0
230
1.0
 70
     8
 71
     3
 72
    13
 73
     9
 74
     7
 42
0.0000000001
 43
0.0000000001
 44
0.00000001
 40
0.0
 40
0.0
 40
0.0
 40
0.0
 40
0.5070967666757527
 40
1.08388131680338
 40
1.351656204404466
 40
1.595108954395815
 40
1.854675813046186
 40
2.076028207746983
 40
2.076028207746983
 40
2.076028207746983
 40
2.076028207746983
 10
52.12065799608001
 20
331.9150275531074
 30
0.0
 10
52.28974695567462
 20
331.9257362767019
 30
0.0
 10
52.65116192856777
 20
331.9486253704483
 30
0.0
 10
53.08738861293771
 20
332.0731805897818
 30
0.0
 10
53.42808652073345
 20
332.1970088988911
 30
0.0
 10
53.66495637768278
 20
332.2968760863762
 30
0.0
 10
53.88369144849382
 20
332.3993137639818
 30
0.0
 10
54.02569930923188
 20
332.4737237025952
 30
0.0
 10
54.09106117574413
 20
332.5079723170702
 30
0.0
 11
52.12065799608001
 21
331.9150275531074
 31
0.0
 11
52.62538391326383
 21
331.9640059084897
 31
0.0
 11
53.18333647801285
 21
332.1101885092188
 31
0.0
 11
53.43488474668973
 21
332.2019864337892
 31
0.0
 11
53.65937510024423
 21
332.2961847492695
 31
0.0
 11
53.89429491449344
 21
332.4065823714483
 31
0.0
 11
54.09106117574413
 21
332.5079723170702
 31
0.0
  0
SPLINE
  5
18D
330
49
100
AcDbEntity
  8
0
  6
Continuous
 62
     7
100
AcDbSpline
210
0.0
220
0.0
230
1.0
 70
     8
 71
     3
 72
    15
 73
    11
 74
     9
 42
0.0000000001
 43
0.0000000001
 44
0.00000001
 40
0.0
 40
0.0
 40
0.0
 40
0.0
 40
0.2044325333278434
 40
0.3638656384031805
 40
0.5274162338096091
 40
0.6682815818761526
 40
0.7950718951793663
 40
0.8939436443457558
 40
0.9720871110099555
 40
1.017510553615663
 40
1.017510553615663
 40
1.017510553615663
 40
1.017510553615663
 10
54.76329818099509
 20
332.5079723170456
 30
0.0
 10
54.81932095612207
 20
332.4691690064546
 30
0.0
 10
54.91903484463513
 20
332.4001037204628
 30
0.0
 10
55.06051332040721
 20
332.2957201388753
 30
0.0
 10
55.18340657953708
 20
332.2018528193391
 30
0.0
 10
55.29655310803807
 20
332.1133142448905
 30
0.0
 10
55.39214155665186
 20
332.0368905309
 30
0.0
 10
55.47300833585186
 20
331.9767909203113
 30
0.0
 10
55.53269378854583
 20
331.9306637487741
 30
0.0
 10
55.57253948083942
 20
331.919230454803
 30
0.0
 10
55.58718683689676
 20
331.9150275531074
 30
0.0
 11
54.76329818099509
 21
332.5079723170456
 31
0.0
 11
54.93070123271542
 21
332.3906314505175
 31
0.0
 11
55.05914863680494
 21
332.2961847492695
 31
0.0
 11
55.18919306143341
 21
332.1970018632415
 31
0.0
 11
55.30012767212475
 21
332.1101885092188
 31
0.0
 11
55.399806163446
 21
332.031830472519
 31
0.0
 11
55.47864416785444
 21
331.9721631293226
 31
0.0
 11
55.54414877282451
 21
331.9295538802091
 31
0.0
 11
55.58718683689676
 21
331.9150275531074
 31
0.0
  0
SPLINE
  5
18E
330
49
100
AcDbEntity
  8
0
  6
Continuous
 62
     7
100
AcDbSpline
210
0.0
220
0.0
230
1.0
 70
     8
 71
     3
 72
    11
 73
     7
 74
     5
 42
0.0000000001
 43
0.0000000001
 44
0.00000001
 40
0.0
 40
0.0
 40
0.0
 40
0.0
 40
0.1878850024813078
 40
0.3727690923660631
 40
0.529511343440366
 40
0.7083112440905064
 40
0.7083112440905064
 40
0.7083112440905064
 40
0.7083112440905064
 10
54.09106117574413
 20
332.5079723170702
 30
0.0
 10
54.14782579801903
 20
332.5350311260902
 30
0.0
 10
54.26044839399243
 20
332.5887165589118
 30
0.0
 10
54.43746364977617
 20
332.6163644209417
 30
0.0
 10
54.61305019756057
 20
332.5938307826185
 30
0.0
 10
54.71106771609931
 20
332.5378191573798
 30
0.0
 10
54.76329818099509
 20
332.5079723170456
 30
0.0
 11
54.09106117574413
 21
332.5079723170702
 31
0.0
 11
54.26440197395844
 21
332.5804550172946
 31
0.0
 11
54.44718068337386
 21
332.6082771321846
 31
0.0
 11
54.60229331441604
 21
332.5857337304224
 31
0.0
 11
54.76329818099509
 21
332.5079723170456
 31
0.0
  0
SPLINE
  5
18F
330
49
100
AcDbEntity
  8
0
  6
Continuous
 62
     7
100
AcDbSpline
210
0.0
220
0.0
230
1.0
 70
     8
 71
     3
 72
    21
 73
    17
 74
    15
 42
0.0000000001
 43
0.0000000001
 44
0.00000001
 40
0.0
 40
0.0
 40
0.0
 40
0.0
 40
0.2120741209662426
 40
0.4240589333455301
 40
0.6351382710055345
 40
0.8443758353309856
 40
1.248831158762617
 40
1.643245064056687
 40
1.878889190785612
 40
2.10944709784528
 40
2.335790755938196
 40
2.525782417955147
 40
2.709901268495903
 40
2.890463484302367
 40
2.895356808133422
 40
2.900231025924884
 40
2.900231025924884
 40
2.900231025924884
 40
2.900231025924884
 10
52.12065799608001
 20
330.9150275531081
 30
0.0
 10
52.19135227657389
 20
330.9158683643105
 30
0.0
 10
52.33271106680854
 20
330.9175496326333
 30
0.0
 10
52.5441427822103
 20
330.9295234812629
 30
0.0
 10
52.75424102745737
 20
330.946402631286
 30
0.0
 10
53.02779187744964
 20
330.9740230100554
 30
0.0
 10
53.36143129836369
 20
331.014130807843
 30
0.0
 10
53.70382461773436
 20
331.0552199635049
 30
0.0
 10
53.98939342015443
 20
331.0828094588808
 30
0.0
 10
54.21976292694856
 20
331.0983477563151
 30
0.0
 10
54.4353995246335
 20
331.1040737245787
 30
0.0
 10
54.6355818887543
 20
331.099583817889
 30
0.0
 10
54.82004205502459
 20
331.0857028434331
 30
0.0
 10
54.9422208825581
 20
331.0692525838426
 30
0.0
 10
55.00479150114936
 20
331.0587669601151
 30
0.0
 10
55.00800142546873
 20
331.0582220352828
 30
0.0
 10
55.00960324820278
 20
331.0579501058235
 30
0.0
 11
52.12065799608001
 21
330.9150275531081
 31
0.0
 11
52.33269245373829
 21
330.919128961301
 31
0.0
 11
52.54437882434847
 21
330.9303735678913
 31
0.0
 11
52.75478866557122
 21
330.9471719458965
 31
0.0
 11
52.9629935350672
 21
330.9679346683338
 31
0.0
 11
53.36475743575843
 21
331.0145166042483
 31
0.0
 11
53.75658225737345
 21
331.0596346478194
 31
0.0
 11
53.99117909138069
 21
331.0818265367795
 31
0.0
 11
54.2212462324171
 21
331.0968617994332
 31
0.0
 11
54.44752246416431
 21
331.1023861550669
 31
0.0
 11
54.63745988917745
 21
331.0978467481298
 31
0.0
 11
54.8210423225436
 21
331.0838024865325
 31
0.0
 11
54.99997152571268
 21
331.0595732886461
 31
0.0
 11
55.00479749607729
 21
331.0587641977022
 31
0.0
 11
55.00960324820278
 21
331.0579501058235
 31
0.0
  0
SPLINE
  5
190
330
49
100
AcDbEntity
  8
0
  6
Continuous
 62
     7
100
AcDbSpline
210
0.0
220
0.0
230
1.0
 70
     8
 71
     3
 72
    21
 73
    17
 74
    15
 42
0.0000000001
 43
0.0000000001
 44
0.00000001
 40
0.0
 40
0.0
 40
0.0
 40
0.0
 40
0.0050600425757632
 40
0.0101406732990661
 40
0.1907864642705627
 40
0.3749813732031571
 40
0.565040886495478
 40
0.7913792326239799
 40
1.021932644108265
 40
1.257571380500173
 40
1.652061149905034
 40
2.056590509109098
 40
2.265649216571508
 40
2.476544815851628
 40
2.688343467484235
 40
2.90023110435465
 40
2.90023110435465
 40
2.90023110435465
 40
2.90023110435465
 10
-55.00960324820142
 20
331.0579501047123
 30
0.0
 10
-55.00794035218351
 20
331.0582323700272
 30
0.0
 10
-55.00460779420685
 20
331.0587980491295
 30
0.0
 10
-54.9418859885752
 20
331.0693025766608
 30
0.0
 10
-54.81959014858773
 20
331.0857513002263
 30
0.0
 10
-54.63505221403484
 20
331.0996100723527
 30
0.0
 10
-54.43482301560607
 20
331.1040715017614
 30
0.0
 10
-54.21916790708407
 20
331.0983183854164
 30
0.0
 10
-53.98880492774765
 20
331.0827598874439
 30
0.0
 10
-53.70321588693942
 20
331.0551518456559
 30
0.0
 10
-53.36077577170987
 20
331.0140491133348
 30
0.0
 10
-53.02714498644076
 20
330.9739495455581
 30
0.0
 10
-52.7536884012689
 20
330.9463530605103
 30
0.0
 10
-52.54377161373949
 20
330.9294994289049
 30
0.0
 10
-52.33252467268125
 20
330.9175452055512
 30
0.0
 10
-52.19129010926758
 20
330.915866888086
 30
0.0
 10
-52.12065799607865
 20
330.9150275531081
 30
0.0
 11
-55.00960324820142
 21
331.0579501047123
 31
0.0
 11
-55.00461425426179
 21
331.0587950723678
 31
0.0
 11
-54.99960347372303
 21
331.0596346478194
 31
0.0
 11
-54.82058808654605
 21
331.0838501996321
 31
0.0
 11
-54.6369277253842
 21
331.0978729031726
 31
0.0
 11
-54.44692180665993
 21
331.1023861550669
 31
0.0
 11
-54.22065157039844
 21
331.0968339383605
 31
0.0
 11
-53.99059026567951
 21
331.0817783208684
 31
0.0
 11
-53.75600008977187
 21
331.0595732886461
 31
0.0
 11
-53.36410091700065
 21
331.0144377533514
 31
0.0
 11
-52.9622624464763
 21
330.9678561468452
 31
0.0
 11
-52.7542345139894
 21
330.9471215749644
 31
0.0
 11
-52.54400698200119
 21
330.9303484241016
 31
0.0
 11
-52.33250606965115
 21
330.9191219861764
 31
0.0
 11
-52.12065799607865
 21
330.9150275531081
 31
0.0
  0
HATCH
  5
191
330
49
100
AcDbEntity
  8
0
  6
Continuous
 62
     3
100
AcDbHatch
 10
0.0
 20
0.0
 30
0.0
210
0.0
220
0.0
230
1.0
  2
_USER
 70
     0
 71
     1
 91
        1
 92
        1
 93
       16
 72
     1
 10
86.50000000000068
 20
331.9150275531081
 11
83.5232308968026
 21
331.9150275531081
 72
     2
 10
83.5232308968026
 20
333.9150275531081
 40
1.999999999999965
 50
90.0
 51
150.0000000000126
 73
     0
 72
     2
 10
80.00000000000011
 20
331.8108644970753
 40
2.104163056033164
 50
31.6515266150235
 51
164.9999999999874
 73
     1
 72
     1
 10
77.96753456145564
 20
332.3554619699779
 11
77.93904923166349
 21
332.2491532719236
 72
     2
 10
76.20038274434307
 20
332.715027553108
 40
1.799999999999898
 50
14.99999999999408
 51
90.0
 73
     0
 72
     1
 10
76.20038274434307
 20
330.9150275531081
 11
74.0000000000008
 21
330.9150275531081
 72
     1
 10
74.0000000000008
 20
330.9150275531081
 11
74.0000000000008
 21
331.9150275531074
 72
     1
 10
74.0000000000008
 20
331.9150275531074
 11
76.20038274434296
 21
331.9150275531074
 72
     2
 10
76.20038274434307
 20
332.715027553108
 40
0.8000000000005798
 50
269.9999999999919
 51
344.9999999999611
 73
     1
 72
     1
 10
76.97312340537428
 20
332.5079723170254
 11
77.00160873516654
 21
332.6142810150805
 72
     2
 10
80.00000000000011
 20
331.8108644970753
 40
3.104163056032803
 50
195.0000000000097
 51
270.0000000000105
 73
     0
 72
     2
 10
80.00000000000011
 20
331.8108644970753
 40
3.104163056033133
 50
270.0000000000105
 51
317.3239840855882
 73
     0
 72
     2
 10
80.00000000000011
 20
331.8108644970753
 40
3.104163056033161
 50
317.3239840855882
 51
329.6217856186911
 73
     0
 72
     2
 10
83.5232308968026
 20
333.9150275531081
 40
0.9999999999999393
 50
212.3011881316951
 51
270.0
 73
     1
 72
     1
 10
83.5232308968026
 20
332.9150275531081
 11
86.50000000000068
 21
332.9150275531081
 72
     1
 10
86.50000000000068
 20
332.9150275531081
 11
86.50000000000068
 21
331.9150275531081
 97
       16
330
12D
330
173
330
161
330
15D
330
15F
330
106
330
160
330
10C
330
109
330
10E
330
162
330
108
330
15E
330
163
330
12C
330
12B
 75
     1
 76
     0
 52
225.0
 41
5.0
 77
     0
 78
     1
 53
225.0
 43
0.0
 44
0.0
 45
3.535533905932736
 46
-3.53553390593274
 79
     0
 98
        1
 10
0.0
 20
0.0
  0
HATCH
  5
192
330
49
100
AcDbEntity
  8
0
  6
Continuous
 62
     3
100
AcDbHatch
 10
0.0
 20
0.0
 30
0.0
210
0.0
220
0.0
230
1.0
  2
_USER
 70
     0
 71
     1
 91
        1
 92
        1
 93
       27
 72
     2
 10
100.0000000000013
 20
331.8108644970753
 40
3.104163056033137
 50
210.3782143813095
 51
222.676015913674
 73
     0
 72
     2
 10
100.0000000000013
 20
331.8108644970753
 40
3.104163056032803
 50
222.676015913674
 51
269.999999999989
 73
     0
 72
     2
 10
100.0000000000013
 20
331.8108644970753
 40
3.104163056032332
 50
269.999999999989
 51
310.822712347068
 73
     0
 72
     1
 10
102.0292554269016
 20
334.1598963595309
 11
104.346279370552
 21
332.1582915762745
 72
     2
 10
105.0000000000007
 20
332.9150275531074
 40
1.000000000000013
 50
229.1772876529193
 51
310.8227123470807
 73
     1
 72
     1
 10
105.6537206294494
 20
332.1582915762745
 11
107.9707445730998
 21
334.1598963595309
 72
     2
 10
110.0000000000008
 20
331.8108644970756
 40
3.104163056032462
 50
229.1772876529182
 51
270.0
 73
     0
 72
     2
 10
110.0000000000008
 20
331.8108644970756
 40
3.104163056032399
 50
270.0
 51
310.8227123470791
 73
     0
 72
     1
 10
112.0292554269016
 20
334.1598963595309
 11
114.346279370552
 21
332.1582915762745
 72
     2
 10
115.0000000000008
 20
332.9150275531074
 40
1.000000000000077
 50
229.1772876529149
 51
299.9999999999989
 73
     1
 72
     1
 10
115.5000000000008
 20
332.0490021493229
 11
118.5000000000008
 21
333.7810529568918
 72
     1
 10
118.5000000000008
 20
333.7810529568918
 11
119.0000000000008
 21
332.9150275531074
 72
     1
 10
119.0000000000008
 20
332.9150275531074
 11
116.0000000000008
 21
331.1829767455386
 72
     2
 10
115.0000000000008
 20
332.9150275531074
 40
2.0
 50
59.99999999999865
 51
90.0
 73
     0
 72
     2
 10
115.0000000000008
 20
332.9150275531074
 40
1.999999999999982
 50
90.0
 51
130.8227123470818
 73
     0
 72
     1
 10
113.6925587411034
 20
331.4015555994417
 11
111.3755347974529
 21
333.4031603826981
 72
     2
 10
110.0000000000008
 20
331.8108644970756
 40
2.104163056032473
 50
49.17728765292377
 51
130.8227123470824
 73
     1
 72
     1
 10
108.6244652025484
 20
333.4031603826981
 11
106.3074412588982
 21
331.4015555994417
 72
     2
 10
105.0000000000007
 20
332.9150275531074
 40
2.0
 50
49.17728765291605
 51
90.0
 73
     0
 72
     2
 10
105.0000000000007
 20
332.9150275531074
 40
2.000000000000047
 50
90.0
 51
130.822712347084
 73
     0
 72
     1
 10
103.6925587411032
 20
331.4015555994417
 11
101.3755347974529
 21
333.4031603826981
 72
     2
 10
100.0000000000013
 20
331.8108644970753
 40
2.104163056032406
 50
49.17728765294009
 51
148.3484733849827
 73
     1
 72
     2
 10
96.47676910319876
 20
333.9150275531081
 40
2.0
 50
29.99999999999327
 51
90.0
 73
     0
 72
     1
 10
96.47676910319876
 20
331.9150275531081
 11
93.50000000000068
 21
331.9150275531081
 72
     1
 10
93.50000000000068
 20
331.9150275531081
 11
93.50000000000068
 21
332.9150275531081
 72
     1
 10
93.50000000000068
 20
332.9150275531081
 11
96.47676910319876
 21
332.9150275531081
 72
     2
 10
96.47676910319876
 20
333.9150275531081
 40
1.0
 50
270.0
 51
327.6988118683084
 73
     1
 97
       27
330
13C
330
129
330
136
330
174
330
16D
330
122
330
167
330
166
330
11D
330
170
330
126
330
165
330
164
330
11C
330
12E
330
120
330
176
330
11E
330
171
330
16C
330
121
330
177
330
11F
330
16F
330
16E
330
172
330
175
 75
     1
 76
     0
 52
225.0
 41
5.0
 77
     0
 78
     1
 53
225.0
 43
0.0
 44
0.0
 45
3.535533905932736
 46
-3.53553390593274
 79
     0
 98
        1
 10
0.0
 20
0.0
  0
HATCH
  5
193
330
49
100
AcDbEntity
  8
0
  6
Continuous
 62
     3
100
AcDbHatch
 10
0.0
 20
0.0
 30
0.0
210
0.0
220
0.0
230
1.0
  2
_USER
 70
     0
 71
     1
 91
        1
 92
        1
 93
       16
 72
     2
 10
-79.99999999999875
 20
331.8108644970753
 40
3.104163056032803
 50
222.6760159144118
 51
269.9999999999916
 73
     0
 72
     2
 10
-79.99999999999875
 20
331.8108644970753
 40
3.104163056032
 50
269.9999999999916
 51
344.9999999999902
 73
     0
 72
     1
 10
-77.00160873516518
 20
332.6142810150805
 11
-76.9731234053728
 21
332.5079723170254
 72
     2
 10
-76.2003827443416
 20
332.7150275531074
 40
0.7999999999999498
 50
194.9999999999997
 51
270.0
 73
     1
 72
     1
 10
-76.2003827443416
 20
331.9150275531074
 11
-73.99999999999932
 21
331.9150275531074
 72
     1
 10
-73.99999999999932
 20
331.9150275531074
 11
-73.99999999999932
 21
330.9150275531081
 72
     1
 10
-73.99999999999932
 20
330.9150275531081
 11
-76.20038274434182
 21
330.9150275531081
 72
     2
 10
-76.2003827443416
 20
332.7150275531074
 40
1.800000000000008
 50
90.00000000000723
 51
165.0000000000243
 73
     0
 72
     1
 10
-77.93904923166212
 20
332.2491532719236
 11
-77.96753456145416
 21
332.3554619699779
 72
     2
 10
-79.99999999999875
 20
331.8108644970753
 40
2.104163056032065
 50
15.00000000001175
 51
148.3484733849749
 73
     1
 72
     2
 10
-83.52323089680124
 20
333.9150275531081
 40
2.0
 50
29.99999999998579
 51
90.0
 73
     0
 72
     1
 10
-83.52323089680124
 20
331.9150275531081
 11
-86.4999999999992
 21
331.9150275531081
 72
     1
 10
-86.4999999999992
 20
331.9150275531081
 11
-86.4999999999992
 21
332.9150275531081
 72
     1
 10
-86.4999999999992
 20
332.9150275531081
 11
-83.52323089680124
 21
332.9150275531081
 72
     2
 10
-83.52323089680124
 20
333.9150275531081
 40
1.0
 50
270.0
 51
327.6988118683049
 73
     1
 72
     2
 10
-79.99999999999875
 20
331.8108644970753
 40
3.104163056033133
 50
210.3782143813089
 51
222.6760159144118
 73
     0
 97
       16
330
183
330
132
330
148
330
14B
330
182
330
17A
330
105
330
15B
330
102
330
FC
330
100
330
15C
330
104
330
178
330
179
330
17D
 75
     1
 76
     0
 52
225.0
 41
5.0
 77
     0
 78
     1
 53
225.0
 43
0.0
 44
0.0
 45
3.535533905932736
 46
-3.53553390593274
 79
     0
 98
        1
 10
0.0
 20
0.0
  0
HATCH
  5
194
330
49
100
AcDbEntity
  8
0
  6
Continuous
 62
     3
100
AcDbHatch
 10
0.0
 20
0.0
 30
0.0
210
0.0
220
0.0
230
1.0
  2
_USER
 70
     0
 71
     1
 91
        1
 92
        1
 93
       27
 72
     2
 10
-109.9999999999993
 20
331.8108644970756
 40
3.104163056032462
 50
229.1772876529182
 51
270.0000000000018
 73
     0
 72
     2
 10
-109.9999999999993
 20
331.8108644970756
 40
3.104163056032529
 50
270.0000000000018
 51
310.8227123470818
 73
     0
 72
     1
 10
-107.9707445730983
 20
334.1598963595309
 11
-105.653720629448
 21
332.1582915762745
 72
     2
 10
-104.9999999999993
 20
332.9150275531074
 40
1.000000000000013
 50
229.1772876529193
 51
310.8227123470807
 73
     1
 72
     1
 10
-104.3462793705506
 20
332.1582915762745
 11
-102.0292554269004
 21
334.1598963595309
 72
     2
 10
-99.99999999999932
 20
331.8108644970756
 40
3.104163056032462
 50
229.177287652917
 51
270.0
 73
     0
 72
     2
 10
-99.99999999999932
 20
331.8108644970756
 40
3.104163056032372
 50
270.0
 51
317.3239840863216
 73
     0
 72
     2
 10
-99.99999999999932
 20
331.8108644970756
 40
3.104163056032498
 50
317.3239840863216
 51
329.6217856186912
 73
     0
 72
     2
 10
-96.4767691031974
 20
333.9150275531081
 40
0.9999999999999393
 50
212.3011881316951
 51
270.0
 73
     1
 72
     1
 10
-96.4767691031974
 20
332.9150275531081
 11
-93.49999999999932
 21
332.9150275531081
 72
     1
 10
-93.49999999999932
 20
332.9150275531081
 11
-93.49999999999932
 21
331.9150275531081
 72
     1
 10
-93.49999999999932
 20
331.9150275531081
 11
-96.4767691031974
 21
331.9150275531081
 72
     2
 10
-96.4767691031974
 20
333.9150275531081
 40
2.000000000000066
 50
90.0
 51
150.0000000000011
 73
     0
 72
     2
 10
-99.99999999999932
 20
331.8108644970756
 40
2.104163056032389
 50
31.65152661501287
 51
130.8227123470801
 73
     1
 72
     1
 10
-101.3755347974516
 20
333.4031603826981
 11
-103.692558741102
 21
331.4015555994417
 72
     2
 10
-104.9999999999993
 20
332.9150275531074
 40
2.0
 50
49.17728765292036
 51
90.0
 73
     0
 72
     2
 10
-104.9999999999993
 20
332.9150275531074
 40
1.999999999999982
 50
90.0
 51
130.8227123470818
 73
     0
 72
     1
 10
-106.3074412588967
 20
331.4015555994417
 11
-108.6244652025471
 21
333.4031603826981
 72
     2
 10
-109.9999999999993
 20
331.8108644970756
 40
2.104163056032538
 50
49.17728765292172
 51
130.8227123470803
 73
     1
 72
     1
 10
-111.3755347974516
 20
333.4031603826981
 11
-113.692558741102
 21
331.4015555994417
 72
     2
 10
-114.9999999999993
 20
332.9150275531074
 40
2.0
 50
49.17728765292036
 51
90.0
 73
     0
 72
     2
 10
-114.9999999999993
 20
332.9150275531074
 40
1.999999999999868
 50
90.0
 51
119.9999999999989
 73
     0
 72
     1
 10
-115.9999999999992
 20
331.1829767455386
 11
-118.9999999999993
 21
332.9150275531074
 72
     1
 10
-118.9999999999993
 20
332.9150275531074
 11
-118.4999999999993
 21
333.7810529568918
 72
     1
 10
-118.4999999999993
 20
333.7810529568918
 11
-115.4999999999992
 21
332.0490021493229
 72
     2
 10
-114.9999999999993
 20
332.9150275531074
 40
0.9999999999999831
 50
240.000000000006
 51
310.8227123470808
 73
     1
 72
     1
 10
-114.3462793705506
 20
332.1582915762745
 11
-112.0292554269003
 21
334.1598963595309
 97
       27
330
188
330
140
330
12F
330
13E
330
16A
330
169
330
154
330
186
330
153
330
168
330
16B
330
143
330
17E
330
181
330
14E
330
14A
330
14D
330
17F
330
17B
330
17C
330
180
330
142
330
184
330
141
330
185
330
187
330
13F
 75
     1
 76
     0
 52
225.0
 41
5.0
 77
     0
 78
     1
 53
225.0
 43
0.0
 44
0.0
 45
3.535533905932736
 46
-3.53553390593274
 79
     0
 98
        1
 10
0.0
 20
0.0
  0
ENDBLK
  5
4B
330
49
100
AcDbEntity
  8
0
100
AcDbBlockEnd
  0
BLOCK
  5
50
330
4C
100
AcDbEntity
  8
0
100
AcDbBlockBegin
  2
Bgr_8300_1__2
 70
     0
 71
     0
 10
80.05532523838417
 20
-111.5358292721151
 30
0.0
  3
Bgr_8300_1__2
  1

  0
INSERT
  5
4D
330
4C
100
AcDbEntity
  8
1
100
AcDbBlockReference
  2
EPDM_Folie_400x400
 10
-0.00000000000011
 20
336.271071842876
 30
0.0
  0
INSERT
  5
4E
330
4C
100
AcDbEntity
  8
0
100
AcDbBlockReference
  2
8300-Lippendichtung
 10
108.9999999999994
 20
-404.6476770006932
 30
0.0
  0
INSERT
  5
4F
330
4C
100
AcDbEntity
  8
0
100
AcDbBlockReference
  2
8300-Klemmring__1
 10
119.0000000000008
 20
383.9150275531074
 30
0.0
  0
ENDBLK
  5
51
330
4C
100
AcDbEntity
  8
0
100
AcDbBlockEnd
  0
BLOCK
  5
53
330
52
100
AcDbEntity
  8
0
100
AcDbBlockBegin
  2
Blechschraube6_3x19_2_3_3
 70
     0
 71
     0
 10
132.1358139164297
 20
-599.4499618179798
 30
0.0
  3
Blechschraube6_3x19_2_3_3
  1

  0
LINE
  5
195
330
52
100
AcDbEntity
  8
1
  6
DOT_CENTER
 62
     2
100
AcDbLine
 10
63.63961030668099
 20
-57.03961030689709
 30
0.0
 11
63.63961030668099
 21
-70.23961030689793
 31
0.0
  0
LINE
  5
196
330
52
100
AcDbEntity
  8
1
  6
DOT_CENTER
 62
     2
100
AcDbLine
 10
70.23961030668147
 20
-63.63961030689757
 30
0.0
 11
57.03961030668052
 21
-63.63961030689757
 31
0.0
  0
LINE
  5
197
330
52
100
AcDbEntity
  8
0
  6
Continuous
 62
     7
100
AcDbLine
 10
60.35852139343547
 20
-64.95659760500541
 30
0.0
 11
61.22454679721989
 21
-64.45659760500541
 31
0.0
  0
LINE
  5
198
330
52
100
AcDbEntity
  8
0
  6
Continuous
 62
     7
100
AcDbLine
 10
65.82262300857326
 20
-66.4206992201432
 30
0.0
 11
64.95659760478873
 21
-66.9206992201432
 31
0.0
  0
LINE
  5
199
330
52
100
AcDbEntity
  8
0
  6
Continuous
 62
     7
100
AcDbLine
 10
66.92069921992652
 20
-62.32262300878995
 30
0.0
 11
66.05467381613892
 21
-62.82262300879177
 31
0.0
  0
LINE
  5
19A
330
52
100
AcDbEntity
  8
0
  6
Continuous
 62
     7
100
AcDbLine
 10
60.85852139343547
 20
-65.82262300878995
 30
0.0
 11
60.35852139343547
 21
-64.95659760500541
 31
0.0
  0
LINE
  5
19B
330
52
100
AcDbEntity
  8
0
  6
Continuous
 62
     7
100
AcDbLine
 10
64.95659760478873
 20
-66.9206992201432
 30
0.0
 11
64.4565976047852
 21
-66.05467381635242
 31
0.0
  0
LINE
  5
19C
330
52
100
AcDbEntity
  8
0
  6
Continuous
 62
     7
100
AcDbLine
 10
66.42069921992652
 20
-61.45659760500541
 30
0.0
 11
66.92069921992652
 21
-62.32262300878995
 31
0.0
  0
LINE
  5
19D
330
52
100
AcDbEntity
  8
0
  6
Continuous
 62
     7
100
AcDbLine
 10
61.72454679722944
 20
-65.32262300878426
 30
0.0
 11
60.85852139343547
 21
-65.82262300878995
 31
0.0
  0
LINE
  5
19E
330
52
100
AcDbEntity
  8
0
  6
Continuous
 62
     7
100
AcDbLine
 10
65.32262300857133
 20
-65.5546738163556
 30
0.0
 11
65.82262300857326
 21
-66.4206992201432
 31
0.0
  0
LINE
  5
19F
330
52
100
AcDbEntity
  8
0
  6
Continuous
 62
     7
100
AcDbLine
 10
62.15639844979808
 20
-63.24218488764166
 30
0.0
 11
62.95659760478873
 21
-63.45659760500541
 31
0.0
  0
LINE
  5
1A0
330
52
100
AcDbEntity
  8
0
  6
Continuous
 62
     7
100
AcDbLine
 10
61.95659760479066
 20
-61.72454679743976
 30
0.0
 11
61.45659760478873
 21
-60.85852139365215
 31
0.0
  0
LINE
  5
1A1
330
52
100
AcDbEntity
  8
0
  6
Continuous
 62
     7
100
AcDbLine
 10
64.32262300857326
 20
-63.82262300878995
 30
0.0
 11
63.45659760478873
 21
-64.32262300878995
 31
0.0
  0
LINE
  5
1A2
330
52
100
AcDbEntity
  8
0
  6
Continuous
 62
     7
100
AcDbLine
 10
63.82262300857326
 20
-62.95659760500541
 30
0.0
 11
64.32262300857326
 21
-63.82262300878995
 31
0.0
  0
LINE
  5
1A3
330
52
100
AcDbEntity
  8
0
  6
Continuous
 62
     7
100
AcDbLine
 10
62.95659760478873
 20
-63.45659760500541
 30
0.0
 11
63.82262300857326
 21
-62.95659760500541
 31
0.0
  0
LINE
  5
1A4
330
52
100
AcDbEntity
  8
0
  6
Continuous
 62
     7
100
AcDbLine
 10
63.82262300857326
 20
-62.95659760500541
 30
0.0
 11
64.03703572593702
 21
-62.15639845001476
 31
0.0
  0
LINE
  5
1A5
330
52
100
AcDbEntity
  8
0
  6
Continuous
 62
     7
100
AcDbLine
 10
65.12282216356402
 20
-64.0370357261537
 30
0.0
 11
64.32262300857326
 21
-63.82262300878995
 31
0.0
  0
LINE
  5
1A6
330
52
100
AcDbEntity
  8
0
  6
Continuous
 62
     7
100
AcDbLine
 10
63.45659760478873
 20
-64.32262300878995
 30
0.0
 11
63.24218488742497
 21
-65.1228221637806
 31
0.0
  0
LINE
  5
1A7
330
52
100
AcDbEntity
  8
0
  6
Continuous
 62
     7
100
AcDbLine
 10
63.45659760478873
 20
-64.32262300878995
 30
0.0
 11
62.95659760478873
 21
-63.45659760500541
 31
0.0
  0
LINE
  5
1A8
330
52
100
AcDbEntity
  8
0
  6
Continuous
 62
     7
100
AcDbLine
 10
65.55467381613255
 20
-61.9565976050111
 30
0.0
 11
66.42069921992652
 21
-61.45659760500541
 31
0.0
  0
LINE
  5
1A9
330
52
100
AcDbEntity
  8
0
  6
Continuous
 62
     7
100
AcDbLine
 10
61.45659760478873
 20
-60.85852139365215
 30
0.0
 11
62.32262300857326
 21
-60.35852139365215
 31
0.0
  0
LINE
  5
1AA
330
52
100
AcDbEntity
  8
0
  6
Continuous
 62
     7
100
AcDbLine
 10
62.32262300857326
 20
-60.35852139365215
 30
0.0
 11
62.82262300857872
 21
-61.22454679744624
 31
0.0
  0
ARC
  5
1AB
330
52
100
AcDbEntity
  8
0
  6
Continuous
 62
     7
100
AcDbCircle
 10
62.72454679721989
 20
-67.05467381635879
 30
0.0
 40
2.000000000000098
100
AcDbArc
 50
30.00000000020897
 51
74.99999999999926
  0
ARC
  5
1AC
330
52
100
AcDbEntity
  8
0
  6
Continuous
 62
     7
100
AcDbCircle
 10
62.72454679721989
 20
-67.05467381635879
 30
0.0
 40
2.000000000000061
100
AcDbArc
 50
74.99999999999926
 51
119.999999999682
  0
ARC
  5
1AD
330
52
100
AcDbEntity
  8
0
  6
Continuous
 62
     7
100
AcDbCircle
 10
67.0546738161421
 20
-64.55467381635879
 30
0.0
 40
1.999999999999951
100
AcDbArc
 50
164.9999999999984
 51
-150.0000000001061
  0
ARC
  5
1AE
330
52
100
AcDbEntity
  8
0
  6
Continuous
 62
     7
100
AcDbCircle
 10
60.22454679721989
 20
-62.72454679743657
 30
0.0
 40
2.000000000000071
100
AcDbArc
 50
-15.00000000000108
 51
29.99999999989371
  0
ARC
  5
1AF
330
52
100
AcDbEntity
  8
0
  6
Continuous
 62
     7
100
AcDbCircle
 10
64.5546738161421
 20
-60.22454679743657
 30
0.0
 40
2.000000000000068
100
AcDbArc
 50
-105.0000000000007
 51
-60.00000000031791
  0
ARC
  5
1B0
330
52
100
AcDbEntity
  8
0
  6
Continuous
 62
     7
100
AcDbCircle
 10
60.22454679721989
 20
-62.72454679743657
 30
0.0
 40
1.999999999999973
100
AcDbArc
 50
-59.99999999999956
 51
-15.00000000000108
  0
ARC
  5
1B1
330
52
100
AcDbEntity
  8
0
  6
Continuous
 62
     7
100
AcDbCircle
 10
67.0546738161421
 20
-64.55467381635879
 30
0.0
 40
1.999999999999977
100
AcDbArc
 50
120.0000000001057
 51
164.9999999999984
  0
ARC
  5
1B2
330
52
100
AcDbEntity
  8
0
  6
Continuous
 62
     7
100
AcDbCircle
 10
64.5546738161421
 20
-60.22454679743657
 30
0.0
 40
2.000000000000076
100
AcDbArc
 50
-149.9999999996814
 51
-105.0000000000007
  0
CIRCLE
  5
1B3
330
52
100
AcDbEntity
  8
0
  6
Continuous
 62
     3
100
AcDbCircle
 10
63.63961030668099
 20
-63.63961030689757
 30
0.0
 40
5.425531914894076
  0
CIRCLE
  5
1B4
330
52
100
AcDbEntity
  8
0
  6
Continuous
 62
     7
100
AcDbCircle
 10
63.63961030668099
 20
-63.63961030689757
 30
0.0
 40
6.000000000000412
  0
ENDBLK
  5
54
330
52
100
AcDbEntity
  8
0
100
AcDbBlockEnd
  0
BLOCK
  5
56
330
55
100
AcDbEntity
  8
0
100
AcDbBlockBegin
  2
Blechschraube6_3x19_2_3_4
 70
     0
 71
     0
 10
68.49620360959557
 20
-625.8103515110823
 30
0.0
  3
Blechschraube6_3x19_2_3_4
  1

  0
LINE
  5
1B5
330
55
100
AcDbEntity
  8
1
  6
DOT_CENTER
 62
     2
100
AcDbLine
 10
-0.00000000015314
 20
-83.39999999999952
 30
0.0
 11
-0.00000000015314
 21
-96.60000000000048
 31
0.0
  0
LINE
  5
1B6
330
55
100
AcDbEntity
  8
1
  6
DOT_CENTER
 62
     2
100
AcDbLine
 10
6.59999999984734
 20
-90.0
 30
0.0
 11
-6.60000000015361
 21
-90.0
 31
0.0
  0
LINE
  5
1B7
330
55
100
AcDbEntity
  8
0
  6
Continuous
 62
     7
100
AcDbLine
 10
-2.5442240884164
 20
-89.8359153003911
 30
0.0
 11
-3.51014991471618
 21
-89.57709625528582
 31
0.0
  0
LINE
  5
1B8
330
55
100
AcDbEntity
  8
0
  6
Continuous
 62
     7
100
AcDbLine
 10
-1.38882957115652
 20
-93.2513308694605
 30
0.0
 11
-1.13001052605205
 21
-92.28540504316447
 31
0.0
  0
LINE
  5
1B9
330
55
100
AcDbEntity
  8
0
  6
Continuous
 62
     7
100
AcDbLine
 10
-3.51014991471618
 20
-89.57709625528582
 30
0.0
 11
-3.25133086961364
 21
-88.61117042899673
 31
0.0
  0
LINE
  5
1BA
330
55
100
AcDbEntity
  8
0
  6
Continuous
 62
     7
100
AcDbLine
 10
3.51014991440979
 20
-90.4229037447144
 30
0.0
 11
3.25133086930725
 21
-91.38882957100338
 31
0.0
  0
LINE
  5
1BB
330
55
100
AcDbEntity
  8
0
  6
Continuous
 62
     7
100
AcDbLine
 10
-0.42290374486754
 20
-93.51014991456316
 30
0.0
 11
-1.38882957115652
 21
-93.2513308694605
 31
0.0
  0
LINE
  5
1BC
330
55
100
AcDbEntity
  8
0
  6
Continuous
 62
     7
100
AcDbLine
 10
3.25133086930725
 20
-91.38882957100338
 30
0.0
 11
2.28540504301463
 21
-91.13001052589993
 31
0.0
  0
LINE
  5
1BD
330
55
100
AcDbEntity
  8
0
  6
Continuous
 62
     7
100
AcDbLine
 10
-0.61237243584901
 20
-90.35355339059333
 30
0.0
 11
-1.32981137106333
 21
-90.76776695296644
 31
0.0
  0
LINE
  5
1BE
330
55
100
AcDbEntity
  8
0
  6
Continuous
 62
     7
100
AcDbLine
 10
0.76776695281319
 20
-91.32981137091019
 30
0.0
 11
0.35355339044008
 21
-90.61237243569587
 31
0.0
  0
LINE
  5
1BF
330
55
100
AcDbEntity
  8
0
  6
Continuous
 62
     7
100
AcDbLine
 10
0.61237243554262
 20
-89.64644660940678
 30
0.0
 11
0.35355339044008
 21
-90.61237243569587
 31
0.0
  0
LINE
  5
1C0
330
55
100
AcDbEntity
  8
0
  6
Continuous
 62
     7
100
AcDbLine
 10
-0.35355339074647
 20
-89.38762756430435
 30
0.0
 11
0.61237243554262
 21
-89.64644660940678
 31
0.0
  0
LINE
  5
1C1
330
55
100
AcDbEntity
  8
0
  6
Continuous
 62
     7
100
AcDbLine
 10
-0.76776695311958
 20
-88.67018862909003
 30
0.0
 11
-0.35355339074647
 21
-89.38762756430435
 31
0.0
  0
LINE
  5
1C2
330
55
100
AcDbEntity
  8
0
  6
Continuous
 62
     7
100
AcDbLine
 10
0.35355339044008
 20
-90.61237243569587
 30
0.0
 11
-0.61237243584901
 21
-90.35355339059333
 31
0.0
  0
LINE
  5
1C3
330
55
100
AcDbEntity
  8
0
  6
Continuous
 62
     7
100
AcDbLine
 10
-0.61237243584901
 20
-90.35355339059333
 30
0.0
 11
-0.35355339074647
 21
-89.38762756430435
 31
0.0
  0
LINE
  5
1C4
330
55
100
AcDbEntity
  8
0
  6
Continuous
 62
     7
100
AcDbLine
 10
0.61237243554262
 20
-89.64644660940678
 30
0.0
 11
1.32981137075683
 21
-89.23223304703367
 31
0.0
  0
LINE
  5
1C5
330
55
100
AcDbEntity
  8
0
  6
Continuous
 62
     7
100
AcDbLine
 10
1.38882957085014
 20
-86.74866913053961
 30
0.0
 11
1.13001052574464
 21
-87.71459495683939
 31
0.0
  0
LINE
  5
1C6
330
55
100
AcDbEntity
  8
0
  6
Continuous
 62
     7
100
AcDbLine
 10
2.54422408811001
 20
-90.16408469960902
 30
0.0
 11
3.51014991440979
 21
-90.4229037447144
 31
0.0
  0
LINE
  5
1C7
330
55
100
AcDbEntity
  8
0
  6
Continuous
 62
     7
100
AcDbLine
 10
0.42290374456104
 20
-86.48985008543707
 30
0.0
 11
1.38882957085014
 21
-86.74866913053961
 31
0.0
  0
LINE
  5
1C8
330
55
100
AcDbEntity
  8
0
  6
Continuous
 62
     7
100
AcDbLine
 10
-3.25133086961364
 20
-88.61117042899673
 30
0.0
 11
-2.28540504332466
 21
-88.86998947409927
 31
0.0
  0
LINE
  5
1C9
330
55
100
AcDbEntity
  8
0
  6
Continuous
 62
     7
100
AcDbLine
 10
-0.16408469976398
 20
-92.54422408827043
 30
0.0
 11
-0.42290374486754
 21
-93.51014991456316
 31
0.0
  0
LINE
  5
1CA
330
55
100
AcDbEntity
  8
0
  6
Continuous
 62
     7
100
AcDbLine
 10
0.16408469945759
 20
-87.45577591172969
 30
0.0
 11
0.42290374456104
 21
-86.48985008543707
 31
0.0
  0
ARC
  5
1CB
330
55
100
AcDbEntity
  8
0
  6
Continuous
 62
     7
100
AcDbCircle
 10
-3.06186217863217
 20
-91.76776695296644
 30
0.0
 40
2.000000000000103
100
AcDbArc
 50
-14.99999999979137
 51
30.00000000000055
  0
ARC
  5
1CC
330
55
100
AcDbEntity
  8
0
  6
Continuous
 62
     7
100
AcDbCircle
 10
-3.06186217863217
 20
-91.76776695296644
 30
0.0
 40
1.999999999999967
100
AcDbArc
 50
30.00000000000055
 51
74.99999999968247
  0
ARC
  5
1CD
330
55
100
AcDbEntity
  8
0
  6
Continuous
 62
     7
100
AcDbCircle
 10
1.76776695281319
 20
-93.06186217847903
 30
0.0
 40
1.999999999999998
100
AcDbArc
 50
75.00000000010668
 51
120.0000000000006
  0
ARC
  5
1CE
330
55
100
AcDbEntity
  8
0
  6
Continuous
 62
     7
100
AcDbCircle
 10
1.76776695281319
 20
-93.06186217847903
 30
0.0
 40
1.999999999999967
100
AcDbArc
 50
120.0000000000006
 51
164.9999999998941
  0
ARC
  5
1CF
330
55
100
AcDbEntity
  8
0
  6
Continuous
 62
     7
100
AcDbCircle
 10
3.06186217832578
 20
-88.23223304703367
 30
0.0
 40
2.00000000000012
100
AcDbArc
 50
165.00000000032
 51
-150.0000000000011
  0
ARC
  5
1D0
330
55
100
AcDbEntity
  8
0
  6
Continuous
 62
     7
100
AcDbCircle
 10
-1.76776695311958
 20
-86.93813782152108
 30
0.0
 40
2.000000000000066
100
AcDbArc
 50
-60.00000000000109
 51
-15.00000000010585
  0
ARC
  5
1D1
330
55
100
AcDbEntity
  8
0
  6
Continuous
 62
     7
100
AcDbCircle
 10
-1.76776695311958
 20
-86.93813782152108
 30
0.0
 40
2.000000000000061
100
AcDbArc
 50
-105.0000000000007
 51
-60.00000000000109
  0
ARC
  5
1D2
330
55
100
AcDbEntity
  8
0
  6
Continuous
 62
     7
100
AcDbCircle
 10
3.06186217832578
 20
-88.23223304703367
 30
0.0
 40
2.000000000000065
100
AcDbArc
 50
-150.0000000000011
 51
-105.0000000003175
  0
CIRCLE
  5
1D3
330
55
100
AcDbEntity
  8
0
  6
Continuous
 62
     3
100
AcDbCircle
 10
-0.00000000015314
 20
-90.0
 30
0.0
 40
5.425531914894044
  0
CIRCLE
  5
1D4
330
55
100
AcDbEntity
  8
0
  6
Continuous
 62
     7
100
AcDbCircle
 10
-0.00000000015314
 20
-90.0
 30
0.0
 40
6.000000000000512
  0
ENDBLK
  5
57
330
55
100
AcDbEntity
  8
0
100
AcDbBlockEnd
  0
BLOCK
  5
59
330
58
100
AcDbEntity
  8
0
100
AcDbBlockBegin
  2
Blechschraube6_3x19_2_3_5
 70
     0
 71
     0
 10
4.85659330285102
 20
-599.4499618177633
 30
0.0
  3
Blechschraube6_3x19_2_3_5
  1

  0
LINE
  5
1D5
330
58
100
AcDbEntity
  8
1
  6
DOT_CENTER
 62
     2
100
AcDbLine
 10
-63.63961030689757
 20
-57.03961030668052
 30
0.0
 11
-63.63961030689757
 21
-70.23961030668147
 31
0.0
  0
LINE
  5
1D6
330
58
100
AcDbEntity
  8
1
  6
DOT_CENTER
 62
     2
100
AcDbLine
 10
-57.03961030689698
 20
-63.63961030668099
 30
0.0
 11
-70.23961030689793
 21
-63.63961030668099
 31
0.0
  0
LINE
  5
1D7
330
58
100
AcDbEntity
  8
0
  6
Continuous
 62
     7
100
AcDbLine
 10
-62.32262300878983
 20
-66.92069921992652
 30
0.0
 11
-62.82262300879177
 21
-66.05467381613892
 31
0.0
  0
LINE
  5
1D8
330
58
100
AcDbEntity
  8
0
  6
Continuous
 62
     7
100
AcDbLine
 10
-66.4206992201432
 20
-65.82262300857326
 30
0.0
 11
-66.9206992201432
 21
-64.95659760478873
 31
0.0
  0
LINE
  5
1D9
330
58
100
AcDbEntity
  8
0
  6
Continuous
 62
     7
100
AcDbLine
 10
-61.45659760500553
 20
-66.42069921992652
 30
0.0
 11
-62.32262300878983
 21
-66.92069921992652
 31
0.0
  0
LINE
  5
1DA
330
58
100
AcDbEntity
  8
0
  6
Continuous
 62
     7
100
AcDbLine
 10
-65.82262300878983
 20
-60.85852139343547
 30
0.0
 11
-64.95659760500553
 21
-60.35852139343547
 31
0.0
  0
LINE
  5
1DB
330
58
100
AcDbEntity
  8
0
  6
Continuous
 62
     7
100
AcDbLine
 10
-66.9206992201432
 20
-64.95659760478873
 30
0.0
 11
-66.05467381635242
 21
-64.4565976047852
 31
0.0
  0
LINE
  5
1DC
330
58
100
AcDbEntity
  8
0
  6
Continuous
 62
     7
100
AcDbLine
 10
-64.95659760500553
 20
-60.35852139343547
 30
0.0
 11
-64.45659760500553
 21
-61.22454679721989
 31
0.0
  0
LINE
  5
1DD
330
58
100
AcDbEntity
  8
0
  6
Continuous
 62
     7
100
AcDbLine
 10
-65.32262300878426
 20
-61.72454679722944
 30
0.0
 11
-65.82262300878983
 21
-60.85852139343547
 31
0.0
  0
LINE
  5
1DE
330
58
100
AcDbEntity
  8
0
  6
Continuous
 62
     7
100
AcDbLine
 10
-65.5546738163556
 20
-65.32262300857133
 30
0.0
 11
-66.4206992201432
 21
-65.82262300857326
 31
0.0
  0
LINE
  5
1DF
330
58
100
AcDbEntity
  8
0
  6
Continuous
 62
     7
100
AcDbLine
 10
-63.24218488764154
 20
-62.15639844979808
 30
0.0
 11
-63.45659760500553
 21
-62.95659760478873
 31
0.0
  0
LINE
  5
1E0
330
58
100
AcDbEntity
  8
0
  6
Continuous
 62
     7
100
AcDbLine
 10
-61.72454679743987
 20
-61.95659760479066
 30
0.0
 11
-60.85852139365215
 21
-61.45659760478873
 31
0.0
  0
LINE
  5
1E1
330
58
100
AcDbEntity
  8
0
  6
Continuous
 62
     7
100
AcDbLine
 10
-63.82262300878983
 20
-64.32262300857326
 30
0.0
 11
-64.32262300878983
 21
-63.45659760478873
 31
0.0
  0
LINE
  5
1E2
330
58
100
AcDbEntity
  8
0
  6
Continuous
 62
     7
100
AcDbLine
 10
-62.95659760500553
 20
-63.82262300857326
 30
0.0
 11
-63.82262300878983
 21
-64.32262300857326
 31
0.0
  0
LINE
  5
1E3
330
58
100
AcDbEntity
  8
0
  6
Continuous
 62
     7
100
AcDbLine
 10
-63.45659760500553
 20
-62.95659760478873
 30
0.0
 11
-62.95659760500553
 21
-63.82262300857326
 31
0.0
  0
LINE
  5
1E4
330
58
100
AcDbEntity
  8
0
  6
Continuous
 62
     7
100
AcDbLine
 10
-62.95659760500553
 20
-63.82262300857326
 30
0.0
 11
-62.15639845001465
 21
-64.03703572593702
 31
0.0
  0
LINE
  5
1E5
330
58
100
AcDbEntity
  8
0
  6
Continuous
 62
     7
100
AcDbLine
 10
-64.03703572615382
 20
-65.12282216356391
 30
0.0
 11
-63.82262300878983
 21
-64.32262300857326
 31
0.0
  0
LINE
  5
1E6
330
58
100
AcDbEntity
  8
0
  6
Continuous
 62
     7
100
AcDbLine
 10
-64.32262300878983
 20
-63.45659760478873
 30
0.0
 11
-65.12282216378071
 21
-63.24218488742497
 31
0.0
  0
LINE
  5
1E7
330
58
100
AcDbEntity
  8
0
  6
Continuous
 62
     7
100
AcDbLine
 10
-64.32262300878983
 20
-63.45659760478873
 30
0.0
 11
-63.45659760500553
 21
-62.95659760478873
 31
0.0
  0
LINE
  5
1E8
330
58
100
AcDbEntity
  8
0
  6
Continuous
 62
     7
100
AcDbLine
 10
-61.9565976050111
 20
-65.55467381613255
 30
0.0
 11
-61.45659760500553
 21
-66.42069921992652
 31
0.0
  0
LINE
  5
1E9
330
58
100
AcDbEntity
  8
0
  6
Continuous
 62
     7
100
AcDbLine
 10
-60.35852139365215
 20
-62.32262300857326
 30
0.0
 11
-61.22454679744624
 21
-62.82262300857872
 31
0.0
  0
LINE
  5
1EA
330
58
100
AcDbEntity
  8
0
  6
Continuous
 62
     7
100
AcDbLine
 10
-60.85852139365215
 20
-61.45659760478873
 30
0.0
 11
-60.35852139365215
 21
-62.32262300857326
 31
0.0
  0
ARC
  5
1EB
330
58
100
AcDbEntity
  8
0
  6
Continuous
 62
     7
100
AcDbCircle
 10
-67.05467381635879
 20
-62.72454679721989
 30
0.0
 40
2.000000000000098
100
AcDbArc
 50
-59.99999999979104
 51
-15.00000000000159
  0
ARC
  5
1EC
330
58
100
AcDbEntity
  8
0
  6
Continuous
 62
     7
100
AcDbCircle
 10
-67.05467381635879
 20
-62.72454679721989
 30
0.0
 40
1.999999999999951
100
AcDbArc
 50
-15.00000000000159
 51
29.99999999968202
  0
ARC
  5
1ED
330
58
100
AcDbEntity
  8
0
  6
Continuous
 62
     7
100
AcDbCircle
 10
-64.55467381635879
 20
-67.0546738161421
 30
0.0
 40
2.000000000000032
100
AcDbArc
 50
75.0000000000024
 51
119.9999999998939
  0
ARC
  5
1EE
330
58
100
AcDbEntity
  8
0
  6
Continuous
 62
     7
100
AcDbCircle
 10
-62.72454679743657
 20
-60.22454679721989
 30
0.0
 40
2.00000000000004
100
AcDbArc
 50
-104.9999999999977
 51
-60.00000000010911
  0
ARC
  5
1EF
330
58
100
AcDbEntity
  8
0
  6
Continuous
 62
     7
100
AcDbCircle
 10
-60.22454679743657
 20
-64.5546738161421
 30
0.0
 40
1.999999999999958
100
AcDbArc
 50
164.9999999999985
 51
-150.0000000003179
  0
ARC
  5
1F0
330
58
100
AcDbEntity
  8
0
  6
Continuous
 62
     7
100
AcDbCircle
 10
-62.72454679743657
 20
-60.22454679721989
 30
0.0
 40
2.000000000000072
100
AcDbArc
 50
-150.0000000000012
 51
-104.9999999999977
  0
ARC
  5
1F1
330
58
100
AcDbEntity
  8
0
  6
Continuous
 62
     7
100
AcDbCircle
 10
-64.55467381635879
 20
-67.0546738161421
 30
0.0
 40
1.999999999999977
100
AcDbArc
 50
30.00000000010568
 51
75.0000000000024
  0
ARC
  5
1F2
330
58
100
AcDbEntity
  8
0
  6
Continuous
 62
     7
100
AcDbCircle
 10
-60.22454679743657
 20
-64.5546738161421
 30
0.0
 40
2.000000000000076
100
AcDbArc
 50
120.0000000003186
 51
164.9999999999985
  0
CIRCLE
  5
1F3
330
58
100
AcDbEntity
  8
0
  6
Continuous
 62
     3
100
AcDbCircle
 10
-63.63961030689757
 20
-63.63961030668099
 30
0.0
 40
5.425531914893978
  0
CIRCLE
  5
1F4
330
58
100
AcDbEntity
  8
0
  6
Continuous
 62
     7
100
AcDbCircle
 10
-63.63961030689757
 20
-63.63961030668099
 30
0.0
 40
6.000000000000511
  0
ENDBLK
  5
5A
330
58
100
AcDbEntity
  8
0
100
AcDbBlockEnd
  0
BLOCK
  5
5C
330
5B
100
AcDbEntity
  8
0
100
AcDbBlockBegin
  2
Blechschraube6_3x19_2_3_8
 70
     0
 71
     0
 10
68.49620360990173
 20
-445.8103515110822
 30
0.0
  3
Blechschraube6_3x19_2_3_8
  1

  0
LINE
  5
1F5
330
5B
100
AcDbEntity
  8
1
  6
DOT_CENTER
 62
     2
100
AcDbLine
 10
0.00000000015302
 20
96.60000000000048
 30
0.0
 11
0.00000000015302
 21
83.39999999999952
 31
0.0
  0
LINE
  5
1F6
330
5B
100
AcDbEntity
  8
1
  6
DOT_CENTER
 62
     2
100
AcDbLine
 10
6.6000000001535
 20
90.0
 30
0.0
 11
-6.59999999984734
 21
90.0
 31
0.0
  0
LINE
  5
1F7
330
5B
100
AcDbEntity
  8
0
  6
Continuous
 62
     7
100
AcDbLine
 10
-3.51014991440979
 20
90.4229037447144
 30
0.0
 11
-3.25133086930725
 21
91.38882957100338
 31
0.0
  0
LINE
  5
1F8
330
5B
100
AcDbEntity
  8
0
  6
Continuous
 62
     7
100
AcDbLine
 10
-3.25133086930725
 20
91.38882957100338
 30
0.0
 11
-2.28540504301463
 21
91.13001052589993
 31
0.0
  0
LINE
  5
1F9
330
5B
100
AcDbEntity
  8
0
  6
Continuous
 62
     7
100
AcDbLine
 10
-1.38882957085014
 20
86.74866913053961
 30
0.0
 11
-1.13001052574475
 21
87.71459495683939
 31
0.0
  0
LINE
  5
1FA
330
5B
100
AcDbEntity
  8
0
  6
Continuous
 62
     7
100
AcDbLine
 10
-2.54422408811001
 20
90.16408469960913
 30
0.0
 11
-3.51014991440979
 21
90.4229037447144
 31
0.0
  0
LINE
  5
1FB
330
5B
100
AcDbEntity
  8
0
  6
Continuous
 62
     7
100
AcDbLine
 10
0.16408469976398
 20
92.54422408827043
 30
0.0
 11
0.42290374486754
 21
93.51014991456316
 31
0.0
  0
LINE
  5
1FC
330
5B
100
AcDbEntity
  8
0
  6
Continuous
 62
     7
100
AcDbLine
 10
-0.16408469945759
 20
87.45577591172969
 30
0.0
 11
-0.42290374456115
 21
86.48985008543707
 31
0.0
  0
LINE
  5
1FD
330
5B
100
AcDbEntity
  8
0
  6
Continuous
 62
     7
100
AcDbLine
 10
3.25133086961364
 20
88.61117042899673
 30
0.0
 11
2.28540504332466
 21
88.86998947409927
 31
0.0
  0
LINE
  5
1FE
330
5B
100
AcDbEntity
  8
0
  6
Continuous
 62
     7
100
AcDbLine
 10
-0.42290374456115
 20
86.48985008543707
 30
0.0
 11
-1.38882957085014
 21
86.74866913053961
 31
0.0
  0
LINE
  5
1FF
330
5B
100
AcDbEntity
  8
0
  6
Continuous
 62
     7
100
AcDbLine
 10
3.51014991471618
 20
89.57709625528582
 30
0.0
 11
3.25133086961364
 21
88.61117042899673
 31
0.0
  0
LINE
  5
200
330
5B
100
AcDbEntity
  8
0
  6
Continuous
 62
     7
100
AcDbLine
 10
2.5442240884164
 20
89.8359153003911
 30
0.0
 11
3.51014991471618
 21
89.57709625528582
 31
0.0
  0
LINE
  5
201
330
5B
100
AcDbEntity
  8
0
  6
Continuous
 62
     7
100
AcDbLine
 10
1.38882957115652
 20
93.25133086946062
 30
0.0
 11
1.13001052605205
 21
92.28540504316447
 31
0.0
  0
LINE
  5
202
330
5B
100
AcDbEntity
  8
0
  6
Continuous
 62
     7
100
AcDbLine
 10
0.42290374486754
 20
93.51014991456316
 30
0.0
 11
1.38882957115652
 21
93.25133086946062
 31
0.0
  0
LINE
  5
203
330
5B
100
AcDbEntity
  8
0
  6
Continuous
 62
     7
100
AcDbLine
 10
0.61237243584901
 20
90.35355339059333
 30
0.0
 11
1.32981137106333
 21
90.76776695296655
 31
0.0
  0
LINE
  5
204
330
5B
100
AcDbEntity
  8
0
  6
Continuous
 62
     7
100
AcDbLine
 10
-0.76776695281319
 20
91.32981137091019
 30
0.0
 11
-0.35355339044008
 21
90.61237243569587
 31
0.0
  0
LINE
  5
205
330
5B
100
AcDbEntity
  8
0
  6
Continuous
 62
     7
100
AcDbLine
 10
0.35355339074647
 20
89.38762756430435
 30
0.0
 11
-0.61237243554262
 21
89.64644660940678
 31
0.0
  0
LINE
  5
206
330
5B
100
AcDbEntity
  8
0
  6
Continuous
 62
     7
100
AcDbLine
 10
-0.61237243554262
 20
89.64644660940678
 30
0.0
 11
-0.35355339044008
 21
90.61237243569587
 31
0.0
  0
LINE
  5
207
330
5B
100
AcDbEntity
  8
0
  6
Continuous
 62
     7
100
AcDbLine
 10
0.61237243584901
 20
90.35355339059333
 30
0.0
 11
0.35355339074647
 21
89.38762756430435
 31
0.0
  0
LINE
  5
208
330
5B
100
AcDbEntity
  8
0
  6
Continuous
 62
     7
100
AcDbLine
 10
0.76776695311958
 20
88.67018862909003
 30
0.0
 11
0.35355339074647
 21
89.38762756430435
 31
0.0
  0
LINE
  5
209
330
5B
100
AcDbEntity
  8
0
  6
Continuous
 62
     7
100
AcDbLine
 10
-0.61237243554262
 20
89.64644660940678
 30
0.0
 11
-1.32981137075694
 21
89.23223304703367
 31
0.0
  0
LINE
  5
20A
330
5B
100
AcDbEntity
  8
0
  6
Continuous
 62
     7
100
AcDbLine
 10
-0.35355339044008
 20
90.61237243569587
 30
0.0
 11
0.61237243584901
 21
90.35355339059333
 31
0.0
  0
ARC
  5
20B
330
5B
100
AcDbEntity
  8
0
  6
Continuous
 62
     7
100
AcDbCircle
 10
3.06186217863217
 20
91.76776695296655
 30
0.0
 40
2.000000000000073
100
AcDbArc
 50
165.0000000002118
 51
-149.9999999999995
  0
ARC
  5
20C
330
5B
100
AcDbEntity
  8
0
  6
Continuous
 62
     7
100
AcDbCircle
 10
3.06186217863217
 20
91.76776695296655
 30
0.0
 40
1.999999999999967
100
AcDbArc
 50
-149.9999999999995
 51
-105.0000000003167
  0
ARC
  5
20D
330
5B
100
AcDbEntity
  8
0
  6
Continuous
 62
     7
100
AcDbCircle
 10
-1.76776695281319
 20
93.06186217847903
 30
0.0
 40
1.999999999999998
100
AcDbArc
 50
-104.9999999998933
 51
-59.99999999999946
  0
ARC
  5
20E
330
5B
100
AcDbEntity
  8
0
  6
Continuous
 62
     7
100
AcDbCircle
 10
-1.76776695281319
 20
93.06186217847903
 30
0.0
 40
1.999999999999967
100
AcDbArc
 50
-59.99999999999946
 51
-15.00000000010585
  0
ARC
  5
20F
330
5B
100
AcDbEntity
  8
0
  6
Continuous
 62
     7
100
AcDbCircle
 10
-3.06186217832578
 20
88.23223304703367
 30
0.0
 40
2.000000000000011
100
AcDbArc
 50
-14.99999999968081
 51
30.00000000000055
  0
ARC
  5
210
330
5B
100
AcDbEntity
  8
0
  6
Continuous
 62
     7
100
AcDbCircle
 10
1.76776695311958
 20
86.93813782152108
 30
0.0
 40
2.000000000000061
100
AcDbArc
 50
74.99999999999928
 51
119.9999999999989
  0
ARC
  5
211
330
5B
100
AcDbEntity
  8
0
  6
Continuous
 62
     7
100
AcDbCircle
 10
1.76776695311958
 20
86.93813782152108
 30
0.0
 40
2.000000000000066
100
AcDbArc
 50
119.9999999999989
 51
164.9999999998941
  0
ARC
  5
212
330
5B
100
AcDbEntity
  8
0
  6
Continuous
 62
     7
100
AcDbCircle
 10
-3.06186217832578
 20
88.23223304703367
 30
0.0
 40
1.999999999999967
100
AcDbArc
 50
30.00000000000055
 51
74.99999999968331
  0
CIRCLE
  5
213
330
5B
100
AcDbEntity
  8
0
  6
Continuous
 62
     3
100
AcDbCircle
 10
0.00000000015302
 20
90.0
 30
0.0
 40
5.425531914894123
  0
CIRCLE
  5
214
330
5B
100
AcDbEntity
  8
0
  6
Continuous
 62
     7
100
AcDbCircle
 10
0.00000000015302
 20
90.0
 30
0.0
 40
6.000000000000373
  0
ENDBLK
  5
5D
330
5B
100
AcDbEntity
  8
0
100
AcDbBlockEnd
  0
BLOCK
  5
5F
330
5E
100
AcDbEntity
  8
0
100
AcDbBlockBegin
  2
Blechschraube6_3x19_2_3
 70
     0
 71
     0
 10
132.1358139166462
 20
-472.1707412044013
 30
0.0
  3
Blechschraube6_3x19_2_3
  1

  0
LINE
  5
215
330
5E
100
AcDbEntity
  8
1
  6
DOT_CENTER
 62
     2
100
AcDbLine
 10
63.63961030689757
 20
70.23961030668147
 30
0.0
 11
63.63961030689757
 21
57.03961030668052
 31
0.0
  0
LINE
  5
216
330
5E
100
AcDbEntity
  8
1
  6
DOT_CENTER
 62
     2
100
AcDbLine
 10
70.23961030689804
 20
63.63961030668099
 30
0.0
 11
57.03961030689709
 21
63.63961030668099
 31
0.0
  0
LINE
  5
217
330
5E
100
AcDbEntity
  8
0
  6
Continuous
 62
     7
100
AcDbLine
 10
64.95659760500553
 20
60.35852139343547
 30
0.0
 11
64.45659760500553
 21
61.22454679721989
 31
0.0
  0
LINE
  5
218
330
5E
100
AcDbEntity
  8
0
  6
Continuous
 62
     7
100
AcDbLine
 10
62.32262300878995
 20
66.92069921992652
 30
0.0
 11
62.82262300879177
 21
66.05467381613892
 31
0.0
  0
LINE
  5
219
330
5E
100
AcDbEntity
  8
0
  6
Continuous
 62
     7
100
AcDbLine
 10
61.45659760500541
 20
66.42069921992652
 30
0.0
 11
62.32262300878995
 21
66.92069921992652
 31
0.0
  0
LINE
  5
21A
330
5E
100
AcDbEntity
  8
0
  6
Continuous
 62
     7
100
AcDbLine
 10
66.9206992201432
 20
64.95659760478873
 30
0.0
 11
66.05467381635242
 21
64.4565976047852
 31
0.0
  0
LINE
  5
21B
330
5E
100
AcDbEntity
  8
0
  6
Continuous
 62
     7
100
AcDbLine
 10
66.4206992201432
 20
65.82262300857326
 30
0.0
 11
66.9206992201432
 21
64.95659760478873
 31
0.0
  0
LINE
  5
21C
330
5E
100
AcDbEntity
  8
0
  6
Continuous
 62
     7
100
AcDbLine
 10
65.32262300878438
 20
61.72454679722944
 30
0.0
 11
65.82262300878995
 21
60.85852139343547
 31
0.0
  0
LINE
  5
21D
330
5E
100
AcDbEntity
  8
0
  6
Continuous
 62
     7
100
AcDbLine
 10
65.5546738163556
 20
65.32262300857133
 30
0.0
 11
66.4206992201432
 21
65.82262300857326
 31
0.0
  0
LINE
  5
21E
330
5E
100
AcDbEntity
  8
0
  6
Continuous
 62
     7
100
AcDbLine
 10
63.24218488764166
 20
62.15639844979808
 30
0.0
 11
63.45659760500541
 21
62.95659760478873
 31
0.0
  0
LINE
  5
21F
330
5E
100
AcDbEntity
  8
0
  6
Continuous
 62
     7
100
AcDbLine
 10
61.72454679743976
 20
61.95659760479066
 30
0.0
 11
60.85852139365215
 21
61.45659760478873
 31
0.0
  0
LINE
  5
220
330
5E
100
AcDbEntity
  8
0
  6
Continuous
 62
     7
100
AcDbLine
 10
64.32262300878995
 20
63.45659760478873
 30
0.0
 11
65.1228221637806
 21
63.24218488742497
 31
0.0
  0
LINE
  5
221
330
5E
100
AcDbEntity
  8
0
  6
Continuous
 62
     7
100
AcDbLine
 10
64.0370357261537
 20
65.12282216356391
 30
0.0
 11
63.82262300878995
 21
64.32262300857326
 31
0.0
  0
LINE
  5
222
330
5E
100
AcDbEntity
  8
0
  6
Continuous
 62
     7
100
AcDbLine
 10
62.95659760500541
 20
63.82262300857326
 30
0.0
 11
62.15639845001476
 21
64.03703572593702
 31
0.0
  0
LINE
  5
223
330
5E
100
AcDbEntity
  8
0
  6
Continuous
 62
     7
100
AcDbLine
 10
63.45659760500541
 20
62.95659760478873
 30
0.0
 11
62.95659760500541
 21
63.82262300857326
 31
0.0
  0
LINE
  5
224
330
5E
100
AcDbEntity
  8
0
  6
Continuous
 62
     7
100
AcDbLine
 10
62.95659760500541
 20
63.82262300857326
 30
0.0
 11
63.82262300878995
 21
64.32262300857326
 31
0.0
  0
LINE
  5
225
330
5E
100
AcDbEntity
  8
0
  6
Continuous
 62
     7
100
AcDbLine
 10
63.82262300878995
 20
64.32262300857326
 30
0.0
 11
64.32262300878995
 21
63.45659760478873
 31
0.0
  0
LINE
  5
226
330
5E
100
AcDbEntity
  8
0
  6
Continuous
 62
     7
100
AcDbLine
 10
64.32262300878995
 20
63.45659760478873
 30
0.0
 11
63.45659760500541
 21
62.95659760478873
 31
0.0
  0
LINE
  5
227
330
5E
100
AcDbEntity
  8
0
  6
Continuous
 62
     7
100
AcDbLine
 10
61.9565976050111
 20
65.55467381613255
 30
0.0
 11
61.45659760500541
 21
66.42069921992652
 31
0.0
  0
LINE
  5
228
330
5E
100
AcDbEntity
  8
0
  6
Continuous
 62
     7
100
AcDbLine
 10
60.85852139365215
 20
61.45659760478873
 30
0.0
 11
60.35852139365215
 21
62.32262300857326
 31
0.0
  0
LINE
  5
229
330
5E
100
AcDbEntity
  8
0
  6
Continuous
 62
     7
100
AcDbLine
 10
60.35852139365215
 20
62.32262300857326
 30
0.0
 11
61.22454679744624
 21
62.82262300857872
 31
0.0
  0
LINE
  5
22A
330
5E
100
AcDbEntity
  8
0
  6
Continuous
 62
     7
100
AcDbLine
 10
65.82262300878995
 20
60.85852139343547
 30
0.0
 11
64.95659760500553
 21
60.35852139343547
 31
0.0
  0
ARC
  5
22B
330
5E
100
AcDbEntity
  8
0
  6
Continuous
 62
     7
100
AcDbCircle
 10
67.05467381635879
 20
62.72454679721989
 30
0.0
 40
2.000000000000098
100
AcDbArc
 50
120.000000000209
 51
164.9999999999993
  0
ARC
  5
22C
330
5E
100
AcDbEntity
  8
0
  6
Continuous
 62
     7
100
AcDbCircle
 10
67.05467381635879
 20
62.72454679721989
 30
0.0
 40
2.000000000000061
100
AcDbArc
 50
164.9999999999993
 51
-150.0000000003164
  0
ARC
  5
22D
330
5E
100
AcDbEntity
  8
0
  6
Continuous
 62
     7
100
AcDbCircle
 10
64.55467381635879
 20
67.0546738161421
 30
0.0
 40
2.000000000000061
100
AcDbArc
 50
-105.0000000000007
 51
-60.00000000010613
  0
ARC
  5
22E
330
5E
100
AcDbEntity
  8
0
  6
Continuous
 62
     7
100
AcDbCircle
 10
62.72454679743657
 20
60.22454679721989
 30
0.0
 40
2.000000000000071
100
AcDbArc
 50
74.99999999999892
 51
119.9999999998937
  0
ARC
  5
22F
330
5E
100
AcDbEntity
  8
0
  6
Continuous
 62
     7
100
AcDbCircle
 10
60.22454679743657
 20
64.5546738161421
 30
0.0
 40
2.000000000000068
100
AcDbArc
 50
-15.00000000000069
 51
29.9999999996821
  0
ARC
  5
230
330
5E
100
AcDbEntity
  8
0
  6
Continuous
 62
     7
100
AcDbCircle
 10
62.72454679743657
 20
60.22454679721989
 30
0.0
 40
2.000000000000072
100
AcDbArc
 50
29.99999999999881
 51
74.99999999999892
  0
ARC
  5
231
330
5E
100
AcDbEntity
  8
0
  6
Continuous
 62
     7
100
AcDbCircle
 10
64.55467381635879
 20
67.0546738161421
 30
0.0
 40
1.999999999999977
100
AcDbArc
 50
-149.9999999998943
 51
-105.0000000000007
  0
ARC
  5
232
330
5E
100
AcDbEntity
  8
0
  6
Continuous
 62
     7
100
AcDbCircle
 10
60.22454679743657
 20
64.5546738161421
 30
0.0
 40
2.000000000000076
100
AcDbArc
 50
-59.99999999968136
 51
-15.00000000000069
  0
CIRCLE
  5
233
330
5E
100
AcDbEntity
  8
0
  6
Continuous
 62
     3
100
AcDbCircle
 10
63.63961030689757
 20
63.63961030668099
 30
0.0
 40
5.425531914894076
  0
CIRCLE
  5
234
330
5E
100
AcDbEntity
  8
0
  6
Continuous
 62
     7
100
AcDbCircle
 10
63.63961030689757
 20
63.63961030668099
 30
0.0
 40
6.000000000000412
  0
ENDBLK
  5
60
330
5E
100
AcDbEntity
  8
0
100
AcDbBlockEnd
  0
BLOCK
  5
62
330
61
100
AcDbEntity
  8
0
100
AcDbBlockBegin
  2
Blechschraube6_3x19_2_3_2
 70
     0
 71
     0
 10
158.4962036097486
 20
-535.8103515112354
 30
0.0
  3
Blechschraube6_3x19_2_3_2
  1

  0
LINE
  5
235
330
61
100
AcDbEntity
  8
1
  6
DOT_CENTER
 62
     2
100
AcDbLine
 10
90.0
 20
6.59999999984734
 30
0.0
 11
90.0
 21
-6.6000000001535
 31
0.0
  0
LINE
  5
236
330
61
100
AcDbEntity
  8
1
  6
DOT_CENTER
 62
     2
100
AcDbLine
 10
96.60000000000048
 20
-0.00000000015314
 30
0.0
 11
83.39999999999952
 21
-0.00000000015314
 31
0.0
  0
LINE
  5
237
330
61
100
AcDbEntity
  8
0
  6
Continuous
 62
     7
100
AcDbLine
 10
89.57709625528582
 20
-3.51014991471618
 30
0.0
 11
88.61117042899673
 21
-3.25133086961364
 31
0.0
  0
LINE
  5
238
330
61
100
AcDbEntity
  8
0
  6
Continuous
 62
     7
100
AcDbLine
 10
93.51014991456304
 20
-0.42290374486754
 30
0.0
 11
93.25133086946062
 21
-1.38882957115652
 31
0.0
  0
LINE
  5
239
330
61
100
AcDbEntity
  8
0
  6
Continuous
 62
     7
100
AcDbLine
 10
91.3888295710035
 20
3.25133086930725
 30
0.0
 11
91.13001052589993
 21
2.28540504301463
 31
0.0
  0
LINE
  5
23A
330
61
100
AcDbEntity
  8
0
  6
Continuous
 62
     7
100
AcDbLine
 10
89.8359153003911
 20
-2.5442240884164
 30
0.0
 11
89.57709625528582
 21
-3.51014991471618
 31
0.0
  0
LINE
  5
23B
330
61
100
AcDbEntity
  8
0
  6
Continuous
 62
     7
100
AcDbLine
 10
93.25133086946062
 20
-1.38882957115652
 30
0.0
 11
92.28540504316447
 21
-1.13001052605205
 31
0.0
  0
LINE
  5
23C
330
61
100
AcDbEntity
  8
0
  6
Continuous
 62
     7
100
AcDbLine
 10
90.4229037447144
 20
3.51014991440979
 30
0.0
 11
91.3888295710035
 21
3.25133086930725
 31
0.0
  0
LINE
  5
23D
330
61
100
AcDbEntity
  8
0
  6
Continuous
 62
     7
100
AcDbLine
 10
90.35355339059333
 20
-0.61237243584901
 30
0.0
 11
90.76776695296644
 21
-1.32981137106333
 31
0.0
  0
LINE
  5
23E
330
61
100
AcDbEntity
  8
0
  6
Continuous
 62
     7
100
AcDbLine
 10
91.32981137091019
 20
0.76776695281319
 30
0.0
 11
90.61237243569587
 21
0.35355339044008
 31
0.0
  0
LINE
  5
23F
330
61
100
AcDbEntity
  8
0
  6
Continuous
 62
     7
100
AcDbLine
 10
89.64644660940678
 20
0.61237243554262
 30
0.0
 11
90.61237243569587
 21
0.35355339044008
 31
0.0
  0
LINE
  5
240
330
61
100
AcDbEntity
  8
0
  6
Continuous
 62
     7
100
AcDbLine
 10
89.38762756430424
 20
-0.35355339074647
 30
0.0
 11
89.64644660940678
 21
0.61237243554262
 31
0.0
  0
LINE
  5
241
330
61
100
AcDbEntity
  8
0
  6
Continuous
 62
     7
100
AcDbLine
 10
90.35355339059333
 20
-0.61237243584901
 30
0.0
 11
89.38762756430424
 21
-0.35355339074647
 31
0.0
  0
LINE
  5
242
330
61
100
AcDbEntity
  8
0
  6
Continuous
 62
     7
100
AcDbLine
 10
88.67018862909003
 20
-0.76776695311958
 30
0.0
 11
89.38762756430424
 21
-0.35355339074647
 31
0.0
  0
LINE
  5
243
330
61
100
AcDbEntity
  8
0
  6
Continuous
 62
     7
100
AcDbLine
 10
89.64644660940678
 20
0.61237243554262
 30
0.0
 11
89.23223304703379
 21
1.32981137075694
 31
0.0
  0
LINE
  5
244
330
61
100
AcDbEntity
  8
0
  6
Continuous
 62
     7
100
AcDbLine
 10
90.61237243569587
 20
0.35355339044008
 30
0.0
 11
90.35355339059333
 21
-0.61237243584901
 31
0.0
  0
LINE
  5
245
330
61
100
AcDbEntity
  8
0
  6
Continuous
 62
     7
100
AcDbLine
 10
86.74866913053961
 20
1.38882957085014
 30
0.0
 11
87.71459495683939
 21
1.13001052574475
 31
0.0
  0
LINE
  5
246
330
61
100
AcDbEntity
  8
0
  6
Continuous
 62
     7
100
AcDbLine
 10
90.16408469960902
 20
2.54422408811001
 30
0.0
 11
90.4229037447144
 21
3.51014991440979
 31
0.0
  0
LINE
  5
247
330
61
100
AcDbEntity
  8
0
  6
Continuous
 62
     7
100
AcDbLine
 10
86.48985008543707
 20
0.42290374456104
 30
0.0
 11
86.74866913053961
 21
1.38882957085014
 31
0.0
  0
LINE
  5
248
330
61
100
AcDbEntity
  8
0
  6
Continuous
 62
     7
100
AcDbLine
 10
88.61117042899673
 20
-3.25133086961364
 30
0.0
 11
88.86998947409927
 21
-2.28540504332466
 31
0.0
  0
LINE
  5
249
330
61
100
AcDbEntity
  8
0
  6
Continuous
 62
     7
100
AcDbLine
 10
92.54422408827043
 20
-0.16408469976398
 30
0.0
 11
93.51014991456304
 21
-0.42290374486754
 31
0.0
  0
LINE
  5
24A
330
61
100
AcDbEntity
  8
0
  6
Continuous
 62
     7
100
AcDbLine
 10
87.45577591172969
 20
0.16408469945759
 30
0.0
 11
86.48985008543707
 21
0.42290374456104
 31
0.0
  0
ARC
  5
24B
330
61
100
AcDbEntity
  8
0
  6
Continuous
 62
     7
100
AcDbCircle
 10
91.76776695296644
 20
-3.06186217863217
 30
0.0
 40
2.000000000000103
100
AcDbArc
 50
75.00000000020863
 51
120.0000000000006
  0
ARC
  5
24C
330
61
100
AcDbEntity
  8
0
  6
Continuous
 62
     7
100
AcDbCircle
 10
91.76776695296644
 20
-3.06186217863217
 30
0.0
 40
1.999999999999967
100
AcDbArc
 50
120.0000000000006
 51
164.9999999996825
  0
ARC
  5
24D
330
61
100
AcDbEntity
  8
0
  6
Continuous
 62
     7
100
AcDbCircle
 10
93.06186217847903
 20
1.76776695281319
 30
0.0
 40
1.999999999999998
100
AcDbArc
 50
165.0000000001067
 51
-149.9999999999995
  0
ARC
  5
24E
330
61
100
AcDbEntity
  8
0
  6
Continuous
 62
     7
100
AcDbCircle
 10
93.06186217847903
 20
1.76776695281319
 30
0.0
 40
1.999999999999967
100
AcDbArc
 50
-149.9999999999995
 51
-105.0000000001059
  0
ARC
  5
24F
330
61
100
AcDbEntity
  8
0
  6
Continuous
 62
     7
100
AcDbCircle
 10
86.93813782152108
 20
-1.76776695311958
 30
0.0
 40
2.000000000000061
100
AcDbArc
 50
-15.00000000000073
 51
29.99999999999892
  0
ARC
  5
250
330
61
100
AcDbEntity
  8
0
  6
Continuous
 62
     7
100
AcDbCircle
 10
86.93813782152108
 20
-1.76776695311958
 30
0.0
 40
2.000000000000066
100
AcDbArc
 50
29.99999999999892
 51
74.99999999989416
  0
ARC
  5
251
330
61
100
AcDbEntity
  8
0
  6
Continuous
 62
     7
100
AcDbCircle
 10
88.23223304703379
 20
3.06186217832578
 30
0.0
 40
2.00000000000004
100
AcDbArc
 50
-104.999999999684
 51
-59.99999999999945
  0
ARC
  5
252
330
61
100
AcDbEntity
  8
0
  6
Continuous
 62
     7
100
AcDbCircle
 10
88.23223304703379
 20
3.06186217832578
 30
0.0
 40
1.999999999999967
100
AcDbArc
 50
-59.99999999999945
 51
-15.00000000031838
  0
CIRCLE
  5
253
330
61
100
AcDbEntity
  8
0
  6
Continuous
 62
     3
100
AcDbCircle
 10
90.0
 20
-0.00000000015314
 30
0.0
 40
5.425531914894044
  0
CIRCLE
  5
254
330
61
100
AcDbEntity
  8
0
  6
Continuous
 62
     7
100
AcDbCircle
 10
90.0
 20
-0.00000000015314
 30
0.0
 40
6.000000000000512
  0
ENDBLK
  5
63
330
61
100
AcDbEntity
  8
0
100
AcDbBlockEnd
  0
BLOCK
  5
65
330
64
100
AcDbEntity
  8
0
100
AcDbBlockBegin
  2
Blechschraube6_3x19_2_3_7
 70
     0
 71
     0
 10
4.85659330306748
 20
-472.1707412041848
 30
0.0
  3
Blechschraube6_3x19_2_3_7
  1

  0
LINE
  5
255
330
64
100
AcDbEntity
  8
1
  6
DOT_CENTER
 62
     2
100
AcDbLine
 10
-63.63961030668099
 20
70.23961030689804
 30
0.0
 11
-63.63961030668099
 21
57.03961030689709
 31
0.0
  0
LINE
  5
256
330
64
100
AcDbEntity
  8
1
  6
DOT_CENTER
 62
     2
100
AcDbLine
 10
-57.03961030668052
 20
63.63961030689757
 30
0.0
 11
-70.23961030668147
 21
63.63961030689757
 31
0.0
  0
LINE
  5
257
330
64
100
AcDbEntity
  8
0
  6
Continuous
 62
     7
100
AcDbLine
 10
-62.32262300857315
 20
60.35852139365215
 30
0.0
 11
-62.82262300857872
 21
61.22454679744624
 31
0.0
  0
LINE
  5
258
330
64
100
AcDbEntity
  8
0
  6
Continuous
 62
     7
100
AcDbLine
 10
-61.45659760478884
 20
60.85852139365215
 30
0.0
 11
-62.32262300857315
 21
60.35852139365215
 31
0.0
  0
LINE
  5
259
330
64
100
AcDbEntity
  8
0
  6
Continuous
 62
     7
100
AcDbLine
 10
-60.35852139343547
 20
64.95659760500541
 30
0.0
 11
-61.22454679721989
 21
64.45659760500541
 31
0.0
  0
LINE
  5
25A
330
64
100
AcDbEntity
  8
0
  6
Continuous
 62
     7
100
AcDbLine
 10
-60.85852139343547
 20
65.82262300878995
 30
0.0
 11
-60.35852139343547
 21
64.95659760500541
 31
0.0
  0
LINE
  5
25B
330
64
100
AcDbEntity
  8
0
  6
Continuous
 62
     7
100
AcDbLine
 10
-64.95659760478884
 20
66.9206992201432
 30
0.0
 11
-64.4565976047852
 21
66.05467381635242
 31
0.0
  0
LINE
  5
25C
330
64
100
AcDbEntity
  8
0
  6
Continuous
 62
     7
100
AcDbLine
 10
-65.82262300857315
 20
66.4206992201432
 30
0.0
 11
-64.95659760478884
 21
66.9206992201432
 31
0.0
  0
LINE
  5
25D
330
64
100
AcDbEntity
  8
0
  6
Continuous
 62
     7
100
AcDbLine
 10
-66.92069921992652
 20
62.32262300878995
 30
0.0
 11
-66.05467381613892
 21
62.82262300879177
 31
0.0
  0
LINE
  5
25E
330
64
100
AcDbEntity
  8
0
  6
Continuous
 62
     7
100
AcDbLine
 10
-66.42069921992652
 20
61.45659760500541
 30
0.0
 11
-66.92069921992652
 21
62.32262300878995
 31
0.0
  0
LINE
  5
25F
330
64
100
AcDbEntity
  8
0
  6
Continuous
 62
     7
100
AcDbLine
 10
-61.72454679722944
 20
65.32262300878426
 30
0.0
 11
-60.85852139343547
 21
65.82262300878995
 31
0.0
  0
LINE
  5
260
330
64
100
AcDbEntity
  8
0
  6
Continuous
 62
     7
100
AcDbLine
 10
-65.32262300857144
 20
65.5546738163556
 30
0.0
 11
-65.82262300857315
 21
66.4206992201432
 31
0.0
  0
LINE
  5
261
330
64
100
AcDbEntity
  8
0
  6
Continuous
 62
     7
100
AcDbLine
 10
-62.15639844979808
 20
63.24218488764166
 30
0.0
 11
-62.95659760478884
 21
63.45659760500541
 31
0.0
  0
LINE
  5
262
330
64
100
AcDbEntity
  8
0
  6
Continuous
 62
     7
100
AcDbLine
 10
-61.95659760479066
 20
61.72454679743976
 30
0.0
 11
-61.45659760478884
 21
60.85852139365215
 31
0.0
  0
LINE
  5
263
330
64
100
AcDbEntity
  8
0
  6
Continuous
 62
     7
100
AcDbLine
 10
-64.32262300857315
 20
63.82262300878995
 30
0.0
 11
-63.45659760478884
 21
64.32262300878995
 31
0.0
  0
LINE
  5
264
330
64
100
AcDbEntity
  8
0
  6
Continuous
 62
     7
100
AcDbLine
 10
-63.82262300857315
 20
62.95659760500541
 30
0.0
 11
-64.32262300857315
 21
63.82262300878995
 31
0.0
  0
LINE
  5
265
330
64
100
AcDbEntity
  8
0
  6
Continuous
 62
     7
100
AcDbLine
 10
-62.95659760478884
 20
63.45659760500541
 30
0.0
 11
-63.82262300857315
 21
62.95659760500541
 31
0.0
  0
LINE
  5
266
330
64
100
AcDbEntity
  8
0
  6
Continuous
 62
     7
100
AcDbLine
 10
-63.82262300857315
 20
62.95659760500541
 30
0.0
 11
-64.03703572593713
 21
62.15639845001476
 31
0.0
  0
LINE
  5
267
330
64
100
AcDbEntity
  8
0
  6
Continuous
 62
     7
100
AcDbLine
 10
-65.12282216356402
 20
64.0370357261537
 30
0.0
 11
-64.32262300857315
 21
63.82262300878995
 31
0.0
  0
LINE
  5
268
330
64
100
AcDbEntity
  8
0
  6
Continuous
 62
     7
100
AcDbLine
 10
-63.45659760478884
 20
64.32262300878995
 30
0.0
 11
-63.24218488742486
 21
65.1228221637806
 31
0.0
  0
LINE
  5
269
330
64
100
AcDbEntity
  8
0
  6
Continuous
 62
     7
100
AcDbLine
 10
-63.45659760478884
 20
64.32262300878995
 30
0.0
 11
-62.95659760478884
 21
63.45659760500541
 31
0.0
  0
LINE
  5
26A
330
64
100
AcDbEntity
  8
0
  6
Continuous
 62
     7
100
AcDbLine
 10
-65.55467381613266
 20
61.9565976050111
 30
0.0
 11
-66.42069921992652
 21
61.45659760500541
 31
0.0
  0
ARC
  5
26B
330
64
100
AcDbEntity
  8
0
  6
Continuous
 62
     7
100
AcDbCircle
 10
-62.72454679721989
 20
67.05467381635879
 30
0.0
 40
2.000000000000098
100
AcDbArc
 50
-149.999999999791
 51
-104.9999999999978
  0
ARC
  5
26C
330
64
100
AcDbEntity
  8
0
  6
Continuous
 62
     7
100
AcDbCircle
 10
-62.72454679721989
 20
67.05467381635879
 30
0.0
 40
2.000000000000033
100
AcDbArc
 50
-104.9999999999978
 51
-60.00000000031799
  0
ARC
  5
26D
330
64
100
AcDbEntity
  8
0
  6
Continuous
 62
     7
100
AcDbCircle
 10
-67.0546738161421
 20
64.55467381635879
 30
0.0
 40
1.999999999999951
100
AcDbArc
 50
-15.00000000000159
 51
29.99999999989551
  0
ARC
  5
26E
330
64
100
AcDbEntity
  8
0
  6
Continuous
 62
     7
100
AcDbCircle
 10
-60.22454679721989
 20
62.72454679743657
 30
0.0
 40
2.000000000000071
100
AcDbArc
 50
164.9999999999989
 51
-150.0000000001063
  0
ARC
  5
26F
330
64
100
AcDbEntity
  8
0
  6
Continuous
 62
     7
100
AcDbCircle
 10
-64.5546738161421
 20
60.22454679743657
 30
0.0
 40
2.000000000000038
100
AcDbArc
 50
75.00000000000246
 51
119.9999999996849
  0
ARC
  5
270
330
64
100
AcDbEntity
  8
0
  6
Continuous
 62
     7
100
AcDbCircle
 10
-60.22454679721989
 20
62.72454679743657
 30
0.0
 40
1.999999999999973
100
AcDbArc
 50
120.0000000000005
 51
164.9999999999989
  0
ARC
  5
271
330
64
100
AcDbEntity
  8
0
  6
Continuous
 62
     7
100
AcDbCircle
 10
-67.0546738161421
 20
64.55467381635879
 30
0.0
 40
1.999999999999977
100
AcDbArc
 50
-59.99999999989433
 51
-15.00000000000159
  0
ARC
  5
272
330
64
100
AcDbEntity
  8
0
  6
Continuous
 62
     7
100
AcDbCircle
 10
-64.5546738161421
 20
60.22454679743657
 30
0.0
 40
2.000000000000076
100
AcDbArc
 50
30.00000000031863
 51
75.00000000000246
  0
CIRCLE
  5
273
330
64
100
AcDbEntity
  8
0
  6
Continuous
 62
     3
100
AcDbCircle
 10
-63.63961030668099
 20
63.63961030689757
 30
0.0
 40
5.425531914894076
  0
CIRCLE
  5
274
330
64
100
AcDbEntity
  8
0
  6
Continuous
 62
     7
100
AcDbCircle
 10
-63.63961030668099
 20
63.63961030689757
 30
0.0
 40
6.000000000000511
  0
ENDBLK
  5
66
330
64
100
AcDbEntity
  8
0
100
AcDbBlockEnd
  0
BLOCK
  5
68
330
67
100
AcDbEntity
  8
0
100
AcDbBlockBegin
  2
Blechschraube6_3x19_2_3_6
 70
     0
 71
     0
 10
-21.50379639025141
 20
-535.8103515109293
 30
0.0
  3
Blechschraube6_3x19_2_3_6
  1

  0
LINE
  5
275
330
67
100
AcDbEntity
  8
1
  6
DOT_CENTER
 62
     2
100
AcDbLine
 10
-90.0
 20
6.6000000001535
 30
0.0
 11
-90.0
 21
-6.59999999984746
 31
0.0
  0
LINE
  5
276
330
67
100
AcDbEntity
  8
1
  6
DOT_CENTER
 62
     2
100
AcDbLine
 10
-83.39999999999952
 20
0.00000000015302
 30
0.0
 11
-96.60000000000048
 21
0.00000000015302
 31
0.0
  0
LINE
  5
277
330
67
100
AcDbEntity
  8
0
  6
Continuous
 62
     7
100
AcDbLine
 10
-93.25133086946062
 20
1.38882957115652
 30
0.0
 11
-92.28540504316447
 21
1.13001052605205
 31
0.0
  0
LINE
  5
278
330
67
100
AcDbEntity
  8
0
  6
Continuous
 62
     7
100
AcDbLine
 10
-93.51014991456304
 20
0.42290374486743
 30
0.0
 11
-93.25133086946062
 21
1.38882957115652
 31
0.0
  0
LINE
  5
279
330
67
100
AcDbEntity
  8
0
  6
Continuous
 62
     7
100
AcDbLine
 10
-91.38882957100338
 20
-3.25133086930725
 30
0.0
 11
-91.13001052589993
 21
-2.28540504301463
 31
0.0
  0
LINE
  5
27A
330
67
100
AcDbEntity
  8
0
  6
Continuous
 62
     7
100
AcDbLine
 10
-90.4229037447144
 20
-3.51014991440979
 30
0.0
 11
-91.38882957100338
 21
-3.25133086930725
 31
0.0
  0
LINE
  5
27B
330
67
100
AcDbEntity
  8
0
  6
Continuous
 62
     7
100
AcDbLine
 10
-90.35355339059333
 20
0.61237243584901
 30
0.0
 11
-90.76776695296644
 21
1.32981137106321
 31
0.0
  0
LINE
  5
27C
330
67
100
AcDbEntity
  8
0
  6
Continuous
 62
     7
100
AcDbLine
 10
-91.32981137091019
 20
-0.76776695281319
 30
0.0
 11
-90.61237243569587
 21
-0.35355339044008
 31
0.0
  0
LINE
  5
27D
330
67
100
AcDbEntity
  8
0
  6
Continuous
 62
     7
100
AcDbLine
 10
-89.38762756430424
 20
0.35355339074647
 30
0.0
 11
-89.64644660940678
 21
-0.61237243554262
 31
0.0
  0
LINE
  5
27E
330
67
100
AcDbEntity
  8
0
  6
Continuous
 62
     7
100
AcDbLine
 10
-89.64644660940678
 20
-0.61237243554262
 30
0.0
 11
-90.61237243569587
 21
-0.35355339044008
 31
0.0
  0
LINE
  5
27F
330
67
100
AcDbEntity
  8
0
  6
Continuous
 62
     7
100
AcDbLine
 10
-90.35355339059333
 20
0.61237243584901
 30
0.0
 11
-89.38762756430424
 21
0.35355339074647
 31
0.0
  0
LINE
  5
280
330
67
100
AcDbEntity
  8
0
  6
Continuous
 62
     7
100
AcDbLine
 10
-88.67018862909003
 20
0.76776695311958
 30
0.0
 11
-89.38762756430424
 21
0.35355339074647
 31
0.0
  0
LINE
  5
281
330
67
100
AcDbEntity
  8
0
  6
Continuous
 62
     7
100
AcDbLine
 10
-89.64644660940678
 20
-0.61237243554262
 30
0.0
 11
-89.23223304703367
 21
-1.32981137075694
 31
0.0
  0
LINE
  5
282
330
67
100
AcDbEntity
  8
0
  6
Continuous
 62
     7
100
AcDbLine
 10
-90.61237243569587
 20
-0.35355339044008
 30
0.0
 11
-90.35355339059333
 21
0.61237243584901
 31
0.0
  0
LINE
  5
283
330
67
100
AcDbEntity
  8
0
  6
Continuous
 62
     7
100
AcDbLine
 10
-92.54422408827043
 20
0.16408469976398
 30
0.0
 11
-93.51014991456304
 21
0.42290374486743
 31
0.0
  0
LINE
  5
284
330
67
100
AcDbEntity
  8
0
  6
Continuous
 62
     7
100
AcDbLine
 10
-87.4557759117298
 20
-0.16408469945759
 30
0.0
 11
-86.48985008543707
 21
-0.42290374456115
 31
0.0
  0
LINE
  5
285
330
67
100
AcDbEntity
  8
0
  6
Continuous
 62
     7
100
AcDbLine
 10
-86.74866913053961
 20
-1.38882957085014
 30
0.0
 11
-87.71459495683939
 21
-1.13001052574475
 31
0.0
  0
LINE
  5
286
330
67
100
AcDbEntity
  8
0
  6
Continuous
 62
     7
100
AcDbLine
 10
-90.16408469960913
 20
-2.54422408811001
 30
0.0
 11
-90.4229037447144
 21
-3.51014991440979
 31
0.0
  0
LINE
  5
287
330
67
100
AcDbEntity
  8
0
  6
Continuous
 62
     7
100
AcDbLine
 10
-89.8359153003912
 20
2.5442240884164
 30
0.0
 11
-89.57709625528582
 21
3.51014991471618
 31
0.0
  0
LINE
  5
288
330
67
100
AcDbEntity
  8
0
  6
Continuous
 62
     7
100
AcDbLine
 10
-88.61117042899673
 20
3.25133086961364
 30
0.0
 11
-88.86998947409927
 21
2.28540504332455
 31
0.0
  0
LINE
  5
289
330
67
100
AcDbEntity
  8
0
  6
Continuous
 62
     7
100
AcDbLine
 10
-86.48985008543707
 20
-0.42290374456115
 30
0.0
 11
-86.74866913053961
 21
-1.38882957085014
 31
0.0
  0
LINE
  5
28A
330
67
100
AcDbEntity
  8
0
  6
Continuous
 62
     7
100
AcDbLine
 10
-89.57709625528582
 20
3.51014991471618
 30
0.0
 11
-88.61117042899673
 21
3.25133086961364
 31
0.0
  0
ARC
  5
28B
330
67
100
AcDbEntity
  8
0
  6
Continuous
 62
     7
100
AcDbCircle
 10
-91.76776695296644
 20
3.06186217863217
 30
0.0
 40
2.000000000000103
100
AcDbArc
 50
-104.9999999997914
 51
-60.00000000000109
  0
ARC
  5
28C
330
67
100
AcDbEntity
  8
0
  6
Continuous
 62
     7
100
AcDbCircle
 10
-91.76776695296644
 20
3.06186217863217
 30
0.0
 40
2.000000000000065
100
AcDbArc
 50
-60.00000000000109
 51
-15.00000000031838
  0
ARC
  5
28D
330
67
100
AcDbEntity
  8
0
  6
Continuous
 62
     7
100
AcDbCircle
 10
-93.06186217847903
 20
-1.76776695281319
 30
0.0
 40
1.999999999999998
100
AcDbArc
 50
-14.99999999989332
 51
30.00000000000054
  0
ARC
  5
28E
330
67
100
AcDbEntity
  8
0
  6
Continuous
 62
     7
100
AcDbCircle
 10
-93.06186217847903
 20
-1.76776695281319
 30
0.0
 40
1.999999999999967
100
AcDbArc
 50
30.00000000000054
 51
74.99999999989416
  0
ARC
  5
28F
330
67
100
AcDbEntity
  8
0
  6
Continuous
 62
     7
100
AcDbCircle
 10
-88.23223304703367
 20
-3.06186217832578
 30
0.0
 40
2.000000000000011
100
AcDbArc
 50
75.00000000031919
 51
120.0000000000006
  0
ARC
  5
290
330
67
100
AcDbEntity
  8
0
  6
Continuous
 62
     7
100
AcDbCircle
 10
-86.93813782152108
 20
1.76776695311958
 30
0.0
 40
2.000000000000032
100
AcDbArc
 50
165.0000000000024
 51
-150.0000000000011
  0
ARC
  5
291
330
67
100
AcDbEntity
  8
0
  6
Continuous
 62
     7
100
AcDbCircle
 10
-86.93813782152108
 20
1.76776695311958
 30
0.0
 40
2.000000000000066
100
AcDbArc
 50
-150.0000000000011
 51
-105.000000000109
  0
ARC
  5
292
330
67
100
AcDbEntity
  8
0
  6
Continuous
 62
     7
100
AcDbCircle
 10
-88.23223304703367
 20
-3.06186217832578
 30
0.0
 40
1.999999999999967
100
AcDbArc
 50
120.0000000000006
 51
164.9999999996833
  0
CIRCLE
  5
293
330
67
100
AcDbEntity
  8
0
  6
Continuous
 62
     3
100
AcDbCircle
 10
-90.0
 20
0.00000000015302
 30
0.0
 40
5.425531914894014
  0
CIRCLE
  5
294
330
67
100
AcDbEntity
  8
0
  6
Continuous
 62
     7
100
AcDbCircle
 10
-90.0
 20
0.00000000015302
 30
0.0
 40
6.000000000000373
  0
ENDBLK
  5
69
330
67
100
AcDbEntity
  8
0
100
AcDbBlockEnd
  0
BLOCK
  5
73
330
6A
100
AcDbEntity
  8
0
100
AcDbBlockBegin
  2
Bgr_Blechschrauben_1
 70
     0
 71
     0
 10
-21.50379639025141
 20
-625.8103515110823
 30
0.0
  3
Bgr_Blechschrauben_1
  1

  0
INSERT
  5
6B
330
6A
100
AcDbEntity
  8
0
100
AcDbBlockReference
  2
Blechschraube6_3x19_2_3_3
 10
132.1358139164297
 20
-599.4499618179798
 30
0.0
  0
INSERT
  5
6C
330
6A
100
AcDbEntity
  8
0
100
AcDbBlockReference
  2
Blechschraube6_3x19_2_3_4
 10
68.49620360959557
 20
-625.8103515110823
 30
0.0
  0
INSERT
  5
6D
330
6A
100
AcDbEntity
  8
0
100
AcDbBlockReference
  2
Blechschraube6_3x19_2_3_5
 10
4.85659330285102
 20
-599.4499618177633
 30
0.0
  0
INSERT
  5
6E
330
6A
100
AcDbEntity
  8
0
100
AcDbBlockReference
  2
Blechschraube6_3x19_2_3_8
 10
68.49620360990173
 20
-445.8103515110822
 30
0.0
  0
INSERT
  5
6F
330
6A
100
AcDbEntity
  8
0
100
AcDbBlockReference
  2
Blechschraube6_3x19_2_3
 10
132.1358139166462
 20
-472.1707412044013
 30
0.0
  0
INSERT
  5
70
330
6A
100
AcDbEntity
  8
0
100
AcDbBlockReference
  2
Blechschraube6_3x19_2_3_2
 10
158.4962036097486
 20
-535.8103515112354
 30
0.0
  0
INSERT
  5
71
330
6A
100
AcDbEntity
  8
0
100
AcDbBlockReference
  2
Blechschraube6_3x19_2_3_7
 10
4.85659330306748
 20
-472.1707412041848
 30
0.0
  0
INSERT
  5
72
330
6A
100
AcDbEntity
  8
0
100
AcDbBlockReference
  2
Blechschraube6_3x19_2_3_6
 10
-21.50379639025141
 20
-535.8103515109293
 30
0.0
  0
ENDBLK
  5
74
330
6A
100
AcDbEntity
  8
0
100
AcDbBlockEnd
  0
BLOCK
  5
76
330
75
100
AcDbEntity
  8
0
100
AcDbBlockBegin
  2
8300-Klemmring__3
 70
     0
 71
     0
 10
-44.50379639025096
 20
-648.810351511082
 30
0.0
  3
8300-Klemmring__3
  1

  0
LINE
  5
295
330
75
100
AcDbEntity
  8
1
  6
DOT_CENTER
 62
     2
100
AcDbLine
 10
0.0
 20
260.060206593006
 30
0.0
 11
0.0
 21
-265.8436584366901
 31
0.0
  0
LINE
  5
296
330
75
100
AcDbEntity
  8
1
  6
DOT_CENTER
 62
     2
100
AcDbLine
 10
257.991872186414
 20
0.0
 30
0.0
 11
-259.6427506340938
 21
0.0
 31
0.0
  0
LINE
  5
297
330
75
100
AcDbEntity
  8
0
  6
Continuous
 62
     7
100
AcDbLine
 10
41.01661348587504
 20
83.13164093858597
 30
0.0
 11
40.38144630727356
 21
83.39473579833702
 31
0.0
  0
LINE
  5
298
330
75
100
AcDbEntity
  8
0
  6
Continuous
 62
     7
100
AcDbLine
 10
33.91698506718819
 20
82.486979153947
 30
0.0
 11
33.96892412728403
 21
82.93901187846632
 31
0.0
  0
LINE
  5
299
330
75
100
AcDbEntity
  8
0
  6
Continuous
 62
     7
100
AcDbLine
 10
25.1995717587489
 20
85.2860558248949
 30
0.0
 11
25.31095306926261
 21
84.90167261289389
 31
0.0
  0
LINE
  5
29A
330
75
100
AcDbEntity
  8
0
  6
Continuous
 62
     7
100
AcDbLine
 10
25.11210816275798
 20
85.72818150767796
 30
0.0
 11
25.1995717587489
 21
85.2860558248949
 31
0.0
  0
LINE
  5
29B
330
75
100
AcDbEntity
  8
0
  6
Continuous
 62
     7
100
AcDbLine
 10
25.15414018111744
 20
86.31961688828403
 30
0.0
 11
25.11210816275798
 21
85.72818150767796
 31
0.0
  0
LINE
  5
29C
330
75
100
AcDbEntity
  8
0
  6
Continuous
 62
     7
100
AcDbLine
 10
25.26382171199521
 20
86.74773189828056
 30
0.0
 11
25.15414018111744
 21
86.31961688828403
 31
0.0
  0
LINE
  5
29D
330
75
100
AcDbEntity
  8
0
  6
Continuous
 62
     7
100
AcDbLine
 10
26.74630757671105
 20
83.63063418391266
 30
0.0
 11
27.11668011592565
 21
83.54487036755768
 31
0.0
  0
LINE
  5
29E
330
75
100
AcDbEntity
  8
0
  6
Continuous
 62
     7
100
AcDbLine
 10
26.74601594063176
 20
88.36622085981128
 30
0.0
 11
26.39545748488979
 21
88.17317936399274
 31
0.0
  0
LINE
  5
29F
330
75
100
AcDbEntity
  8
0
  6
Continuous
 62
     7
100
AcDbLine
 10
26.39985275201934
 20
83.77414047104946
 30
0.0
 11
26.74630757671105
 21
83.63063418391266
 31
0.0
  0
LINE
  5
2A0
330
75
100
AcDbEntity
  8
0
  6
Continuous
 62
     7
100
AcDbLine
 10
29.79575577856076
 20
85.27644041923816
 30
0.0
 11
29.90543730943853
 21
85.70455542923457
 31
0.0
  0
LINE
  5
2A1
330
75
100
AcDbEntity
  8
0
  6
Continuous
 62
     7
100
AcDbLine
 10
29.90543730943853
 20
85.70455542923457
 30
0.0
 11
29.94746932779799
 21
86.29599080984076
 31
0.0
  0
LINE
  5
2A2
330
75
100
AcDbEntity
  8
0
  6
Continuous
 62
     7
100
AcDbLine
 10
29.94746932779799
 20
86.29599080984076
 30
0.0
 11
29.88392344632985
 21
86.79585896340564
 31
0.0
  0
LINE
  5
2A3
330
75
100
AcDbEntity
  8
0
  6
Continuous
 62
     7
100
AcDbLine
 10
29.88392344632985
 20
86.79585896340564
 30
0.0
 11
29.77254213581614
 21
87.18024217540665
 31
0.0
  0
LINE
  5
2A4
330
75
100
AcDbEntity
  8
0
  6
Continuous
 62
     7
100
AcDbLine
 10
29.77254213581614
 20
87.18024217540665
 30
0.0
 11
29.57950063999772
 21
87.53080063114862
 31
0.0
  0
LINE
  5
2A5
330
75
100
AcDbEntity
  8
0
  6
Continuous
 62
     7
100
AcDbLine
 10
29.57950063999772
 20
87.53080063114862
 30
0.0
 11
29.33862371513351
 21
87.76587414532662
 31
0.0
  0
LINE
  5
2A6
330
75
100
AcDbEntity
  8
0
  6
Continuous
 62
     7
100
AcDbLine
 10
29.33862371513351
 20
87.76587414532662
 30
0.0
 11
28.98226184870543
 21
88.0487830885503
 31
0.0
  0
LINE
  5
2A7
330
75
100
AcDbEntity
  8
0
  6
Continuous
 62
     7
100
AcDbLine
 10
29.65224949142385
 20
84.92998559454645
 30
0.0
 11
29.79575577856076
 21
85.27644041923816
 31
0.0
  0
LINE
  5
2A8
330
75
100
AcDbEntity
  8
0
  6
Continuous
 62
     7
100
AcDbLine
 10
29.4270830189821
 20
84.54970601359548
 30
0.0
 11
29.65224949142385
 21
84.92998559454645
 31
0.0
  0
LINE
  5
2A9
330
75
100
AcDbEntity
  8
0
  6
Continuous
 62
     7
100
AcDbLine
 10
28.66412000566606
 20
83.85099295352586
 30
0.0
 11
29.03859617593093
 21
84.10177692012633
 31
0.0
  0
LINE
  5
2AA
330
75
100
AcDbEntity
  8
0
  6
Continuous
 62
     7
100
AcDbLine
 10
28.31356154992432
 20
83.65795145770744
 30
0.0
 11
28.66412000566606
 21
83.85099295352586
 31
0.0
  0
LINE
  5
2AB
330
75
100
AcDbEntity
  8
0
  6
Continuous
 62
     7
100
AcDbLine
 10
27.84751815261836
 20
83.51274539093447
 30
0.0
 11
28.31356154992432
 21
83.65795145770744
 31
0.0
  0
LINE
  5
2AC
330
75
100
AcDbEntity
  8
0
  6
Continuous
 62
     7
100
AcDbLine
 10
27.56871284044496
 20
83.49293130746196
 30
0.0
 11
27.84751815261836
 21
83.51274539093447
 31
0.0
  0
LINE
  5
2AD
330
75
100
AcDbEntity
  8
0
  6
Continuous
 62
     7
100
AcDbLine
 10
27.11668011592565
 20
83.54487036755768
 30
0.0
 11
27.56871284044496
 21
83.49293130746196
 31
0.0
  0
LINE
  5
2AE
330
75
100
AcDbEntity
  8
0
  6
Continuous
 62
     7
100
AcDbLine
 10
28.98226184870543
 20
88.0487830885503
 30
0.0
 11
28.65972473853662
 21
88.25003184646914
 31
0.0
  0
LINE
  5
2AF
330
75
100
AcDbEntity
  8
0
  6
Continuous
 62
     7
100
AcDbLine
 10
39.16064715875211
 20
83.22391223740533
 30
0.0
 11
39.39982430398027
 21
83.80133694522488
 31
0.0
  0
LINE
  5
2B0
330
75
100
AcDbEntity
  8
0
  6
Continuous
 62
     7
100
AcDbLine
 10
39.39982430398027
 20
83.80133694522488
 30
0.0
 11
36.10850346940879
 21
85.16464667302546
 31
0.0
  0
LINE
  5
2B1
330
75
100
AcDbEntity
  8
0
  6
Continuous
 62
     7
100
AcDbLine
 10
36.50449350278211
 20
84.32412710545498
 30
0.0
 11
39.16064715875211
 21
83.22391223740533
 31
0.0
  0
LINE
  5
2B2
330
75
100
AcDbEntity
  8
0
  6
Continuous
 62
     7
100
AcDbLine
 10
29.03859617593093
 20
84.10177692012633
 30
0.0
 11
29.4270830189821
 21
84.54970601359548
 31
0.0
  0
LINE
  5
2B3
330
75
100
AcDbEntity
  8
0
  6
Continuous
 62
     7
100
AcDbLine
 10
34.22621557634886
 20
84.05012949610989
 30
0.0
 11
34.40354661974493
 21
84.31492413549688
 31
0.0
  0
LINE
  5
2B4
330
75
100
AcDbEntity
  8
0
  6
Continuous
 62
     7
100
AcDbLine
 10
34.40354661974493
 20
84.31492413549688
 30
0.0
 11
34.49921747783617
 21
84.54589401862484
 31
0.0
  0
LINE
  5
2B5
330
75
100
AcDbEntity
  8
0
  6
Continuous
 62
     7
100
AcDbLine
 10
34.49921747783617
 20
84.54589401862484
 30
0.0
 11
34.56106357966826
 21
84.85852408705728
 31
0.0
  0
LINE
  5
2B6
330
75
100
AcDbEntity
  8
0
  6
Continuous
 62
     7
100
AcDbLine
 10
35.06943063141307
 20
80.85957885853759
 30
0.0
 11
35.6912912090063
 21
82.3608830988685
 31
0.0
  0
LINE
  5
2B7
330
75
100
AcDbEntity
  8
0
  6
Continuous
 62
     7
100
AcDbLine
 10
36.10850346940879
 20
85.16464667302546
 30
0.0
 11
34.19508630758332
 21
80.54524901046909
 31
0.0
  0
LINE
  5
2B8
330
75
100
AcDbEntity
  8
0
  6
Continuous
 62
     7
100
AcDbLine
 10
27.94289737463032
 20
88.47930194996093
 30
0.0
 11
27.49086465011112
 21
88.53124101005676
 31
0.0
  0
LINE
  5
2B9
330
75
100
AcDbEntity
  8
0
  6
Continuous
 62
     7
100
AcDbLine
 10
27.49086465011112
 20
88.53124101005676
 30
0.0
 11
27.2120593379376
 21
88.51142692658414
 31
0.0
  0
LINE
  5
2BA
330
75
100
AcDbEntity
  8
0
  6
Continuous
 62
     7
100
AcDbLine
 10
27.2120593379376
 20
88.51142692658414
 30
0.0
 11
26.74601594063176
 21
88.36622085981128
 31
0.0
  0
LINE
  5
2BB
330
75
100
AcDbEntity
  8
0
  6
Continuous
 62
     7
100
AcDbLine
 10
28.65972473853662
 20
88.25003184646914
 30
0.0
 11
28.31326991384481
 21
88.39353813360606
 31
0.0
  0
LINE
  5
2BC
330
75
100
AcDbEntity
  8
0
  6
Continuous
 62
     7
100
AcDbLine
 10
28.31326991384481
 20
88.39353813360606
 30
0.0
 11
27.94289737463032
 21
88.47930194996093
 31
0.0
  0
LINE
  5
2BD
330
75
100
AcDbEntity
  8
0
  6
Continuous
 62
     7
100
AcDbLine
 10
26.39545748488979
 20
88.17317936399274
 30
0.0
 11
26.02098131462503
 21
87.92239539739228
 31
0.0
  0
LINE
  5
2BE
330
75
100
AcDbEntity
  8
0
  6
Continuous
 62
     7
100
AcDbLine
 10
26.02098131462503
 20
87.92239539739228
 30
0.0
 11
25.63249447157386
 21
87.47446630392324
 31
0.0
  0
LINE
  5
2BF
330
75
100
AcDbEntity
  8
0
  6
Continuous
 62
     7
100
AcDbLine
 10
26.52665287887612
 20
87.50999083981822
 30
0.0
 11
26.81946886383605
 21
87.72695005015953
 31
0.0
  0
LINE
  5
2C0
330
75
100
AcDbEntity
  8
0
  6
Continuous
 62
     7
100
AcDbLine
 10
26.81946886383605
 20
87.72695005015953
 30
0.0
 11
27.0644494197503
 21
87.82842431893687
 31
0.0
  0
LINE
  5
2C1
330
75
100
AcDbEntity
  8
0
  6
Continuous
 62
     7
100
AcDbLine
 10
27.0644494197503
 20
87.82842431893687
 30
0.0
 11
27.285512261142
 21
87.87215611693239
 31
0.0
  0
LINE
  5
2C2
330
75
100
AcDbEntity
  8
0
  6
Continuous
 62
     7
100
AcDbLine
 10
27.285512261142
 20
87.87215611693239
 30
0.0
 11
27.67980251487927
 21
87.84413477135945
 31
0.0
  0
LINE
  5
2C3
330
75
100
AcDbEntity
  8
0
  6
Continuous
 62
     7
100
AcDbLine
 10
27.67980251487927
 20
87.84413477135945
 30
0.0
 11
28.05017505409387
 21
87.75837095500458
 31
0.0
  0
LINE
  5
2C4
330
75
100
AcDbEntity
  8
0
  6
Continuous
 62
     7
100
AcDbLine
 10
28.05017505409387
 20
87.75837095500458
 30
0.0
 11
28.39662987878558
 21
87.61486466786755
 31
0.0
  0
LINE
  5
2C5
330
75
100
AcDbEntity
  8
0
  6
Continuous
 62
     7
100
AcDbLine
 10
28.39662987878558
 20
87.61486466786755
 30
0.0
 11
28.71916698895439
 21
87.4136159099487
 31
0.0
  0
LINE
  5
2C6
330
75
100
AcDbEntity
  8
0
  6
Continuous
 62
     7
100
AcDbLine
 10
26.26766165017534
 20
87.21137144417207
 30
0.0
 11
26.52665287887612
 21
87.50999083981822
 31
0.0
  0
LINE
  5
2C7
330
75
100
AcDbEntity
  8
0
  6
Continuous
 62
     7
100
AcDbLine
 10
25.63249447157386
 20
87.47446630392324
 30
0.0
 11
25.40732799913212
 21
87.09418672297227
 31
0.0
  0
LINE
  5
2C8
330
75
100
AcDbEntity
  8
0
  6
Continuous
 62
     7
100
AcDbLine
 10
28.71916698895439
 20
87.4136159099487
 30
0.0
 11
29.01778638460053
 21
87.15462468124792
 31
0.0
  0
LINE
  5
2C9
330
75
100
AcDbEntity
  8
0
  6
Continuous
 62
     7
100
AcDbLine
 10
29.01778638460053
 20
87.15462468124792
 30
0.0
 11
29.14317836790087
 21
86.96738659611538
 31
0.0
  0
LINE
  5
2CA
330
75
100
AcDbEntity
  8
0
  6
Continuous
 62
     7
100
AcDbLine
 10
26.04249517773371
 20
86.83109186322133
 30
0.0
 11
26.26766165017534
 21
87.21137144417207
 31
0.0
  0
LINE
  5
2CB
330
75
100
AcDbEntity
  8
0
  6
Continuous
 62
     7
100
AcDbLine
 10
26.04179110595533
 20
84.86954763627068
 30
0.0
 11
25.91639912265509
 21
85.05678572140312
 31
0.0
  0
LINE
  5
2CC
330
75
100
AcDbEntity
  8
0
  6
Continuous
 62
     7
100
AcDbLine
 10
26.34041050160136
 20
84.61055640757002
 30
0.0
 11
26.04179110595533
 21
84.86954763627068
 31
0.0
  0
LINE
  5
2CD
330
75
100
AcDbEntity
  8
0
  6
Continuous
 62
     7
100
AcDbLine
 10
28.79191584038063
 20
84.81280087334653
 30
0.0
 11
28.53292461167985
 21
84.51418147770039
 31
0.0
  0
LINE
  5
2CE
330
75
100
AcDbEntity
  8
0
  6
Continuous
 62
     7
100
AcDbLine
 10
25.31095306926261
 20
84.90167261289389
 30
0.0
 11
25.53781932134018
 21
84.4694539718472
 31
0.0
  0
LINE
  5
2CF
330
75
100
AcDbEntity
  8
0
  6
Continuous
 62
     7
100
AcDbLine
 10
25.53781932134018
 20
84.4694539718472
 30
0.0
 11
25.72095377542246
 21
84.2582981721921
 31
0.0
  0
LINE
  5
2D0
330
75
100
AcDbEntity
  8
0
  6
Continuous
 62
     7
100
AcDbLine
 10
26.66294761177039
 20
84.40930764965105
 30
0.0
 11
26.34041050160136
 21
84.61055640757002
 31
0.0
  0
LINE
  5
2D1
330
75
100
AcDbEntity
  8
0
  6
Continuous
 62
     7
100
AcDbLine
 10
27.00940243646221
 20
84.26580136251414
 30
0.0
 11
26.66294761177039
 21
84.40930764965105
 31
0.0
  0
LINE
  5
2D2
330
75
100
AcDbEntity
  8
0
  6
Continuous
 62
     7
100
AcDbLine
 10
28.24010862671992
 20
84.29722226735907
 30
0.0
 11
27.99512807080555
 21
84.19574799858174
 31
0.0
  0
LINE
  5
2D3
330
75
100
AcDbEntity
  8
0
  6
Continuous
 62
     7
100
AcDbLine
 10
28.53292461167985
 20
84.51418147770039
 30
0.0
 11
28.24010862671992
 21
84.29722226735907
 31
0.0
  0
LINE
  5
2D4
330
75
100
AcDbEntity
  8
0
  6
Continuous
 62
     7
100
AcDbLine
 10
25.40732799913212
 20
87.09418672297227
 30
0.0
 11
25.26382171199521
 21
86.74773189828056
 31
0.0
  0
LINE
  5
2D5
330
75
100
AcDbEntity
  8
0
  6
Continuous
 62
     7
100
AcDbLine
 10
29.14317836790087
 20
86.96738659611538
 30
0.0
 11
29.24465263667821
 21
86.72240604020124
 31
0.0
  0
LINE
  5
2D6
330
75
100
AcDbEntity
  8
0
  6
Continuous
 62
     7
100
AcDbLine
 10
25.91639912265509
 20
85.05678572140312
 30
0.0
 11
25.81492485387776
 21
85.30176627731737
 31
0.0
  0
LINE
  5
2D7
330
75
100
AcDbEntity
  8
0
  6
Continuous
 62
     7
100
AcDbLine
 10
29.01708231282237
 20
85.19308045429727
 30
0.0
 11
28.79191584038063
 21
84.81280087334653
 31
0.0
  0
LINE
  5
2D8
330
75
100
AcDbEntity
  8
0
  6
Continuous
 62
     7
100
AcDbLine
 10
25.81492485387776
 20
85.30176627731737
 30
0.0
 11
25.76128601414598
 21
85.66223177479571
 31
0.0
  0
LINE
  5
2D9
330
75
100
AcDbEntity
  8
0
  6
Continuous
 62
     7
100
AcDbLine
 10
29.16058859995928
 20
85.53953527898909
 30
0.0
 11
29.01708231282237
 21
85.19308045429727
 31
0.0
  0
LINE
  5
2DA
330
75
100
AcDbEntity
  8
0
  6
Continuous
 62
     7
100
AcDbLine
 10
25.76128601414598
 20
85.66223177479571
 30
0.0
 11
25.78930735971892
 21
86.05652202853298
 31
0.0
  0
LINE
  5
2DB
330
75
100
AcDbEntity
  8
0
  6
Continuous
 62
     7
100
AcDbLine
 10
29.27027013083705
 20
85.96765028898562
 30
0.0
 11
29.16058859995928
 21
85.53953527898909
 31
0.0
  0
LINE
  5
2DC
330
75
100
AcDbEntity
  8
0
  6
Continuous
 62
     7
100
AcDbLine
 10
25.78930735971892
 20
86.05652202853298
 30
0.0
 11
25.89898889059668
 21
86.48463703852951
 31
0.0
  0
LINE
  5
2DD
330
75
100
AcDbEntity
  8
0
  6
Continuous
 62
     7
100
AcDbLine
 10
29.29829147640999
 20
86.361940542723
 30
0.0
 11
29.27027013083705
 21
85.96765028898562
 31
0.0
  0
LINE
  5
2DE
330
75
100
AcDbEntity
  8
0
  6
Continuous
 62
     7
100
AcDbLine
 10
26.07731564185053
 20
83.97538922896842
 30
0.0
 11
26.39985275201934
 21
83.77414047104946
 31
0.0
  0
LINE
  5
2DF
330
75
100
AcDbEntity
  8
0
  6
Continuous
 62
     7
100
AcDbLine
 10
27.37977497567658
 20
84.18003754615927
 30
0.0
 11
27.00940243646221
 21
84.26580136251414
 31
0.0
  0
LINE
  5
2E0
330
75
100
AcDbEntity
  8
0
  6
Continuous
 62
     7
100
AcDbLine
 10
27.77406522941396
 20
84.15201620058622
 30
0.0
 11
27.37977497567658
 21
84.18003754615927
 31
0.0
  0
LINE
  5
2E1
330
75
100
AcDbEntity
  8
0
  6
Continuous
 62
     7
100
AcDbLine
 10
27.99512807080555
 20
84.19574799858174
 30
0.0
 11
27.77406522941396
 21
84.15201620058622
 31
0.0
  0
LINE
  5
2E2
330
75
100
AcDbEntity
  8
0
  6
Continuous
 62
     7
100
AcDbLine
 10
25.89898889059668
 20
86.48463703852951
 30
0.0
 11
26.04249517773371
 21
86.83109186322133
 31
0.0
  0
LINE
  5
2E3
330
75
100
AcDbEntity
  8
0
  6
Continuous
 62
     7
100
AcDbLine
 10
29.24465263667821
 20
86.72240604020124
 30
0.0
 11
29.29829147640999
 21
86.361940542723
 31
0.0
  0
LINE
  5
2E4
330
75
100
AcDbEntity
  8
0
  6
Continuous
 62
     7
100
AcDbLine
 10
33.26200380511398
 20
83.02887932587146
 30
0.0
 11
33.22407541780467
 21
82.77399172822084
 31
0.0
  0
LINE
  5
2E5
330
75
100
AcDbEntity
  8
0
  6
Continuous
 62
     7
100
AcDbLine
 10
34.47359998367733
 20
85.30064976984033
 30
0.0
 11
34.33830095864084
 21
85.62729051105941
 31
0.0
  0
LINE
  5
2E6
330
75
100
AcDbEntity
  8
0
  6
Continuous
 62
     7
100
AcDbLine
 10
33.70893719072546
 20
85.41443493176826
 30
0.0
 11
33.8343291740257
 21
85.22719684663593
 31
0.0
  0
LINE
  5
2E7
330
75
100
AcDbEntity
  8
0
  6
Continuous
 62
     7
100
AcDbLine
 10
33.50188502212041
 20
85.56784826064154
 30
0.0
 11
33.70893719072546
 21
85.41443493176826
 31
0.0
  0
LINE
  5
2E8
330
75
100
AcDbEntity
  8
0
  6
Continuous
 62
     7
100
AcDbLine
 10
33.02523051130004
 20
83.6005006230049
 30
0.0
 11
33.18444725085942
 21
83.33160235256776
 31
0.0
  0
LINE
  5
2E9
330
75
100
AcDbEntity
  8
0
  6
Continuous
 62
     7
100
AcDbLine
 10
32.76043587191316
 20
83.77783166640086
 30
0.0
 11
33.02523051130004
 21
83.6005006230049
 31
0.0
  0
LINE
  5
2EA
330
75
100
AcDbEntity
  8
0
  6
Continuous
 62
     7
100
AcDbLine
 10
33.68841903547457
 20
83.73169601699124
 30
0.0
 11
33.85173940608411
 21
83.79934552950954
 31
0.0
  0
LINE
  5
2EB
330
75
100
AcDbEntity
  8
0
  6
Continuous
 62
     7
100
AcDbLine
 10
33.8814605312931
 20
83.38113756124937
 30
0.0
 11
33.68841903547457
 21
83.73169601699124
 31
0.0
  0
LINE
  5
2EC
330
75
100
AcDbEntity
  8
0
  6
Continuous
 62
     7
100
AcDbLine
 10
33.63888382679295
 20
84.4287092974248
 30
0.0
 11
33.45164574166063
 21
84.30331731412457
 31
0.0
  0
LINE
  5
2ED
330
75
100
AcDbEntity
  8
0
  6
Continuous
 62
     7
100
AcDbLine
 10
33.76837944114345
 20
84.57801899524793
 30
0.0
 11
33.63888382679295
 21
84.4287092974248
 31
0.0
  0
LINE
  5
2EE
330
75
100
AcDbEntity
  8
0
  6
Continuous
 62
     7
100
AcDbLine
 10
33.85173940608411
 20
83.79934552950954
 30
0.0
 11
34.22621557634886
 21
84.05012949610989
 31
0.0
  0
LINE
  5
2EF
330
75
100
AcDbEntity
  8
0
  6
Continuous
 62
     7
100
AcDbLine
 10
33.45164574166063
 20
84.30331731412457
 30
0.0
 11
33.23058290026916
 21
84.25958551612928
 31
0.0
  0
LINE
  5
2F0
330
75
100
AcDbEntity
  8
0
  6
Continuous
 62
     7
100
AcDbLine
 10
33.18444725085942
 20
83.33160235256776
 30
0.0
 11
33.26200380511398
 21
83.02887932587146
 31
0.0
  0
LINE
  5
2F1
330
75
100
AcDbEntity
  8
0
  6
Continuous
 62
     7
100
AcDbLine
 10
33.23058290026916
 20
84.25958551612928
 30
0.0
 11
32.97569530261842
 21
84.29751390343847
 31
0.0
  0
LINE
  5
2F2
330
75
100
AcDbEntity
  8
0
  6
Continuous
 62
     7
100
AcDbLine
 10
33.96892412728403
 20
82.93901187846632
 30
0.0
 11
33.8814605312931
 21
83.38113756124937
 31
0.0
  0
LINE
  5
2F3
330
75
100
AcDbEntity
  8
0
  6
Continuous
 62
     7
100
AcDbLine
 10
33.86405029923469
 20
84.80898887837577
 30
0.0
 11
33.76837944114345
 21
84.57801899524793
 31
0.0
  0
LINE
  5
2F4
330
75
100
AcDbEntity
  8
0
  6
Continuous
 62
     7
100
AcDbLine
 10
34.06359927751748
 20
85.94402421054224
 30
0.0
 11
33.79880463813061
 21
86.12135525393819
 31
0.0
  0
LINE
  5
2F5
330
75
100
AcDbEntity
  8
0
  6
Continuous
 62
     7
100
AcDbLine
 10
33.8343291740257
 20
85.22719684663593
 30
0.0
 11
33.8780609720211
 21
85.00613400524446
 31
0.0
  0
LINE
  5
2F6
330
75
100
AcDbEntity
  8
0
  6
Continuous
 62
     7
100
AcDbLine
 10
34.33830095864084
 20
85.62729051105941
 30
0.0
 11
34.06359927751748
 21
85.94402421054224
 31
0.0
  0
LINE
  5
2F7
330
75
100
AcDbEntity
  8
0
  6
Continuous
 62
     7
100
AcDbLine
 10
34.56106357966826
 20
84.85852408705728
 30
0.0
 11
34.47359998367733
 21
85.30064976984033
 31
0.0
  0
LINE
  5
2F8
330
75
100
AcDbEntity
  8
0
  6
Continuous
 62
     7
100
AcDbLine
 10
33.8780609720211
 20
85.00613400524446
 30
0.0
 11
33.86405029923469
 21
84.80898887837577
 31
0.0
  0
LINE
  5
2F9
330
75
100
AcDbEntity
  8
0
  6
Continuous
 62
     7
100
AcDbLine
 10
35.93046835423456
 20
82.93830780668816
 30
0.0
 11
36.50449350278211
 21
84.32412710545498
 31
0.0
  0
LINE
  5
2FA
330
75
100
AcDbEntity
  8
0
  6
Continuous
 62
     7
100
AcDbLine
 10
33.79880463813061
 20
86.12135525393819
 30
0.0
 11
31.60459074841629
 21
87.03022840580536
 31
0.0
  0
LINE
  5
2FB
330
75
100
AcDbEntity
  8
0
  6
Continuous
 62
     7
100
AcDbLine
 10
31.60459074841629
 20
87.03022840580536
 30
0.0
 11
29.69117358659082
 21
82.41083074324888
 31
0.0
  0
LINE
  5
2FC
330
75
100
AcDbEntity
  8
0
  6
Continuous
 62
     7
100
AcDbLine
 10
25.72095377542246
 20
84.2582981721921
 30
0.0
 11
26.07731564185053
 21
83.97538922896842
 31
0.0
  0
LINE
  5
2FD
330
75
100
AcDbEntity
  8
0
  6
Continuous
 62
     7
100
AcDbLine
 10
31.47439106228762
 20
84.91937448103181
 30
0.0
 11
32.00058078178961
 21
86.18970883823488
 31
0.0
  0
LINE
  5
2FE
330
75
100
AcDbEntity
  8
0
  6
Continuous
 62
     7
100
AcDbLine
 10
32.00058078178961
 20
86.18970883823488
 30
0.0
 11
33.50188502212041
 21
85.56784826064154
 31
0.0
  0
LINE
  5
2FF
330
75
100
AcDbEntity
  8
0
  6
Continuous
 62
     7
100
AcDbLine
 10
32.97569530261842
 20
84.29751390343847
 30
0.0
 11
31.47439106228762
 21
84.91937448103181
 31
0.0
  0
LINE
  5
300
330
75
100
AcDbEntity
  8
0
  6
Continuous
 62
     7
100
AcDbLine
 10
31.25913163158225
 20
84.3996922439942
 30
0.0
 11
32.76043587191316
 21
83.77783166640086
 31
0.0
  0
LINE
  5
301
330
75
100
AcDbEntity
  8
0
  6
Continuous
 62
     7
100
AcDbLine
 10
30.58943562494335
 20
82.78290306209942
 30
0.0
 11
31.25913163158225
 21
84.3996922439942
 31
0.0
  0
LINE
  5
302
330
75
100
AcDbEntity
  8
0
  6
Continuous
 62
     7
100
AcDbLine
 10
41.90115648752044
 20
78.57098145466921
 30
0.0
 11
41.01661348587504
 21
83.13164093858597
 31
0.0
  0
LINE
  5
303
330
75
100
AcDbEntity
  8
0
  6
Continuous
 62
     7
100
AcDbLine
 10
33.22407541780467
 20
82.77399172822084
 30
0.0
 11
33.12840455971343
 21
82.543021845093
 31
0.0
  0
LINE
  5
304
330
75
100
AcDbEntity
  8
0
  6
Continuous
 62
     7
100
AcDbLine
 10
33.12840455971343
 20
82.543021845093
 30
0.0
 11
32.97499123084015
 21
82.33596967648805
 31
0.0
  0
LINE
  5
305
330
75
100
AcDbEntity
  8
0
  6
Continuous
 62
     7
100
AcDbLine
 10
32.97499123084015
 20
82.33596967648805
 30
0.0
 11
32.70609296040311
 21
82.17675293692866
 31
0.0
  0
LINE
  5
306
330
75
100
AcDbEntity
  8
0
  6
Continuous
 62
     7
100
AcDbLine
 10
32.09073986527426
 20
82.16104248450608
 30
0.0
 11
30.58943562494335
 21
82.78290306209942
 31
0.0
  0
LINE
  5
307
330
75
100
AcDbEntity
  8
0
  6
Continuous
 62
     7
100
AcDbLine
 10
35.6912912090063
 20
82.3608830988685
 30
0.0
 11
38.11647498184846
 21
81.35633908891009
 31
0.0
  0
LINE
  5
308
330
75
100
AcDbEntity
  8
0
  6
Continuous
 62
     7
100
AcDbLine
 10
38.35565212707661
 20
81.93376379672975
 30
0.0
 11
35.93046835423456
 21
82.93830780668816
 31
0.0
  0
LINE
  5
309
330
75
100
AcDbEntity
  8
0
  6
Continuous
 62
     7
100
AcDbLine
 10
33.79739649457406
 20
82.19826680003723
 30
0.0
 11
33.91698506718819
 21
82.486979153947
 31
0.0
  0
LINE
  5
30A
330
75
100
AcDbEntity
  8
0
  6
Continuous
 62
     7
100
AcDbLine
 10
29.69117358659082
 20
82.41083074324888
 30
0.0
 11
31.88538747630514
 21
81.50195759138182
 31
0.0
  0
LINE
  5
30B
330
75
100
AcDbEntity
  8
0
  6
Continuous
 62
     7
100
AcDbLine
 10
40.38144630727356
 20
83.39473579833702
 30
0.0
 11
38.4680291454481
 21
78.77533813578066
 31
0.0
  0
LINE
  5
30C
330
75
100
AcDbEntity
  8
0
  6
Continuous
 62
     7
100
AcDbLine
 10
32.40336993370681
 20
82.099196382674
 30
0.0
 11
32.09073986527426
 21
82.16104248450608
 31
0.0
  0
LINE
  5
30D
330
75
100
AcDbEntity
  8
0
  6
Continuous
 62
     7
100
AcDbLine
 10
32.3951626716065
 20
81.42610081676321
 30
0.0
 11
32.81337063986655
 21
81.45582194197209
 31
0.0
  0
LINE
  5
30E
330
75
100
AcDbEntity
  8
0
  6
Continuous
 62
     7
100
AcDbLine
 10
33.51448755135039
 20
81.84190493360916
 30
0.0
 11
33.79739649457406
 21
82.19826680003723
 31
0.0
  0
LINE
  5
30F
330
75
100
AcDbEntity
  8
0
  6
Continuous
 62
     7
100
AcDbLine
 10
33.22167156639057
 20
81.62494572326796
 30
0.0
 11
33.51448755135039
 21
81.84190493360916
 31
0.0
  0
LINE
  5
310
330
75
100
AcDbEntity
  8
0
  6
Continuous
 62
     7
100
AcDbLine
 10
32.81337063986655
 20
81.45582194197209
 30
0.0
 11
33.22167156639057
 21
81.62494572326796
 31
0.0
  0
LINE
  5
311
330
75
100
AcDbEntity
  8
0
  6
Continuous
 62
     7
100
AcDbLine
 10
32.70609296040311
 20
82.17675293692866
 30
0.0
 11
32.40336993370681
 21
82.099196382674
 31
0.0
  0
LINE
  5
312
330
75
100
AcDbEntity
  8
0
  6
Continuous
 62
     7
100
AcDbLine
 10
31.88538747630514
 20
81.50195759138182
 30
0.0
 11
32.3951626716065
 21
81.42610081676321
 31
0.0
  0
LINE
  5
313
330
75
100
AcDbEntity
  8
0
  6
Continuous
 62
     7
100
AcDbLine
 10
38.11647498184846
 20
81.35633908891009
 30
0.0
 11
38.35565212707661
 21
81.93376379672975
 31
0.0
  0
LINE
  5
314
330
75
100
AcDbEntity
  8
0
  6
Continuous
 62
     7
100
AcDbLine
 10
37.54414961293674
 20
79.15802156814573
 30
0.0
 11
37.783326758165
 21
79.73544627596527
 31
0.0
  0
LINE
  5
315
330
75
100
AcDbEntity
  8
0
  6
Continuous
 62
     7
100
AcDbLine
 10
37.783326758165
 20
79.73544627596527
 30
0.0
 11
35.06943063141307
 21
80.85957885853759
 31
0.0
  0
LINE
  5
316
330
75
100
AcDbEntity
  8
0
  6
Continuous
 62
     7
100
AcDbLine
 10
34.19508630758332
 20
80.54524901046909
 30
0.0
 11
37.54414961293674
 21
79.15802156814573
 31
0.0
  0
LINE
  5
317
330
75
100
AcDbEntity
  8
0
  6
Continuous
 62
     7
100
AcDbLine
 10
38.4680291454481
 20
78.77533813578066
 30
0.0
 11
39.04545385326765
 21
78.53616099055239
 31
0.0
  0
LINE
  5
318
330
75
100
AcDbEntity
  8
0
  6
Continuous
 62
     7
100
AcDbLine
 10
39.04545385326765
 20
78.53616099055239
 30
0.0
 11
40.52835215368236
 21
82.11619417903376
 31
0.0
  0
LINE
  5
319
330
75
100
AcDbEntity
  8
0
  6
Continuous
 62
     7
100
AcDbLine
 10
40.52835215368236
 20
82.11619417903376
 30
0.0
 11
41.41289515532776
 21
77.55553469511676
 31
0.0
  0
LINE
  5
31A
330
75
100
AcDbEntity
  8
0
  6
Continuous
 62
     7
100
AcDbLine
 10
41.41289515532776
 20
77.55553469511676
 30
0.0
 11
42.04806233392935
 21
77.29243983536594
 31
0.0
  0
LINE
  5
31B
330
75
100
AcDbEntity
  8
0
  6
Continuous
 62
     7
100
AcDbLine
 10
42.04806233392935
 20
77.29243983536594
 30
0.0
 11
43.9614794957547
 21
81.9118374979223
 31
0.0
  0
LINE
  5
31C
330
75
100
AcDbEntity
  8
0
  6
Continuous
 62
     7
100
AcDbLine
 10
43.9614794957547
 20
81.9118374979223
 30
0.0
 11
43.38405478793516
 21
82.15101464315046
 31
0.0
  0
LINE
  5
31D
330
75
100
AcDbEntity
  8
0
  6
Continuous
 62
     7
100
AcDbLine
 10
43.38405478793516
 20
82.15101464315046
 30
0.0
 11
41.90115648752044
 21
78.57098145466921
 31
0.0
  0
LINE
  5
31E
330
75
100
AcDbEntity
  8
0
  6
Continuous
 62
     7
100
AcDbLine
 10
-34.37697733107882
 20
-80.90286416195613
 30
0.0
 11
-35.02753916610254
 21
-82.47345936723275
 31
0.0
  0
LINE
  5
31F
330
75
100
AcDbEntity
  8
0
  6
Continuous
 62
     7
100
AcDbLine
 10
-32.25205440625655
 20
-81.78303605641509
 30
0.0
 11
-33.82105647898391
 21
-85.5709421397089
 31
0.0
  0
LINE
  5
320
330
75
100
AcDbEntity
  8
0
  6
Continuous
 62
     7
100
AcDbLine
 10
-32.92887948009275
 20
-85.50753707256843
 30
0.0
 11
-31.51295078026487
 21
-82.08918280229989
 31
0.0
  0
LINE
  5
321
330
75
100
AcDbEntity
  8
0
  6
Continuous
 62
     7
100
AcDbLine
 10
-29.14369304405273
 20
-85.7765419901474
 30
0.0
 11
-25.72538672885412
 21
-87.19245082624832
 31
0.0
  0
LINE
  5
322
330
75
100
AcDbEntity
  8
0
  6
Continuous
 62
     7
100
AcDbLine
 10
-25.41923998296215
 20
-86.45334720023925
 30
0.0
 11
-28.83754629816065
 21
-85.03743836413844
 31
0.0
  0
LINE
  5
323
330
75
100
AcDbEntity
  8
0
  6
Continuous
 62
     7
100
AcDbLine
 10
-38.20155862499667
 20
-83.86471796085368
 30
0.0
 11
-37.55099678998408
 21
-82.29412275560401
 31
0.0
  0
LINE
  5
324
330
75
100
AcDbEntity
  8
0
  6
Continuous
 62
     7
100
AcDbLine
 10
-37.33339183506848
 20
-79.67827717840703
 30
0.0
 11
-38.94066225100221
 21
-83.55857121495524
 31
0.0
  0
LINE
  5
325
330
75
100
AcDbEntity
  8
0
  6
Continuous
 62
     7
100
AcDbLine
 10
-37.55099678998408
 20
-82.29412275560401
 30
0.0
 11
-35.33368591191868
 21
-83.21256299329605
 31
0.0
  0
LINE
  5
326
330
75
100
AcDbEntity
  8
0
  6
Continuous
 62
     7
100
AcDbLine
 10
-35.33368591191868
 20
-83.21256299329605
 30
0.0
 11
-35.98424774702528
 21
-84.78315819850684
 31
0.0
  0
LINE
  5
327
330
75
100
AcDbEntity
  8
0
  6
Continuous
 62
     7
100
AcDbLine
 10
-31.26589632153616
 20
-86.19636725084058
 30
0.0
 11
-32.92887948009275
 21
-85.50753707256843
 31
0.0
  0
LINE
  5
328
330
75
100
AcDbEntity
  8
0
  6
Continuous
 62
     7
100
AcDbLine
 10
-33.60457803891484
 20
-86.09356732568517
 30
0.0
 11
-31.57204306742926
 21
-86.93547087685238
 31
0.0
  0
LINE
  5
329
330
75
100
AcDbEntity
  8
0
  6
Continuous
 62
     7
100
AcDbLine
 10
-35.2451441210136
 20
-85.08930494439994
 30
0.0
 11
-33.63787370508726
 21
-81.20901090784093
 31
0.0
  0
LINE
  5
32A
330
75
100
AcDbEntity
  8
0
  6
Continuous
 62
     7
100
AcDbLine
 10
-35.02753916610254
 20
-82.47345936723275
 30
0.0
 11
-37.24485004417466
 21
-81.55501912953787
 31
0.0
  0
LINE
  5
32B
330
75
100
AcDbEntity
  8
0
  6
Continuous
 62
     7
100
AcDbLine
 10
-39.73932478179381
 20
-80.52177386223036
 30
0.0
 11
-43.15763109699242
 21
-79.10586502612955
 31
0.0
  0
LINE
  5
32C
330
75
100
AcDbEntity
  8
0
  6
Continuous
 62
     7
100
AcDbLine
 10
-43.46377784288438
 20
-79.8449686521385
 30
0.0
 11
-40.04547152768589
 21
-81.26087748823932
 31
0.0
  0
LINE
  5
32D
330
75
100
AcDbEntity
  8
0
  6
Continuous
 62
     7
100
AcDbLine
 10
-37.24485004417466
 20
-81.55501912953787
 30
0.0
 11
-36.59428820907715
 21
-79.98442392429183
 31
0.0
  0
ARC
  5
32E
330
75
100
AcDbEntity
  8
0
  6
Continuous
 62
     7
100
AcDbCircle
 10
89.99999999998647
 20
-0.00000000015314
 30
0.0
 40
7.717824259149552
100
AcDbArc
 50
179.9999999999021
 51
-0.00000000009706
  0
ARC
  5
32F
330
75
100
AcDbEntity
  8
0
  6
Continuous
 62
     7
100
AcDbCircle
 10
0.00000000015314
 20
89.99999999998647
 30
0.0
 40
7.717824259149552
100
AcDbArc
 50
89.99999999990294
 51
-90.00000000009791
  0
ARC
  5
330
330
75
100
AcDbEntity
  8
0
  6
Continuous
 62
     7
100
AcDbCircle
 10
-0.00000000008311
 20
-89.99999999998647
 30
0.0
 40
7.717824259149552
100
AcDbArc
 50
89.99999999938305
 51
-90.00000000061696
  0
ARC
  5
331
330
75
100
AcDbEntity
  8
0
  6
Continuous
 62
     7
100
AcDbCircle
 10
-89.99999999998647
 20
0.00000000015314
 30
0.0
 40
7.717824259149552
100
AcDbArc
 50
179.999999999903
 51
-0.0000000000979
  0
ARC
  5
332
330
75
100
AcDbEntity
  8
0
  6
Continuous
 62
     7
100
AcDbCircle
 10
89.99999999998647
 20
-0.00000000015314
 30
0.0
 40
7.717824259149552
100
AcDbArc
 50
-0.00000000009706
 51
179.9999999999021
  0
ARC
  5
333
330
75
100
AcDbEntity
  8
0
  6
Continuous
 62
     7
100
AcDbCircle
 10
-63.63961030667133
 20
63.63961030688802
 30
0.0
 40
7.717824259149368
100
AcDbArc
 50
-45.00000000009847
 51
134.9999999999027
  0
ARC
  5
334
330
75
100
AcDbEntity
  8
0
  6
Continuous
 62
     7
100
AcDbCircle
 10
-63.63961030688802
 20
-63.63961030667144
 30
0.0
 40
7.717824259149534
100
AcDbArc
 50
44.99999999990276
 51
-135.0000000000967
  0
ARC
  5
335
330
75
100
AcDbEntity
  8
0
  6
Continuous
 62
     7
100
AcDbCircle
 10
63.63961030688802
 20
63.63961030667144
 30
0.0
 40
7.717824259149534
100
AcDbArc
 50
-135.0000000000973
 51
44.99999999990273
  0
ARC
  5
336
330
75
100
AcDbEntity
  8
0
  6
Continuous
 62
     7
100
AcDbCircle
 10
0.0
 20
0.0
 30
0.0
 40
97.71782425913602
100
AcDbArc
 50
179.9999999999025
 51
-135.0000000000974
  0
ARC
  5
337
330
75
100
AcDbEntity
  8
0
  6
Continuous
 62
     7
100
AcDbCircle
 10
0.0
 20
0.0
 30
0.0
 40
82.28217574083703
100
AcDbArc
 50
179.9999999999025
 51
-135.0000000000975
  0
ARC
  5
338
330
75
100
AcDbEntity
  8
0
  6
Continuous
 62
     7
100
AcDbCircle
 10
-63.63961030667133
 20
63.63961030688802
 30
0.0
 40
7.717824259149529
100
AcDbArc
 50
134.9999999999027
 51
-45.00000000009847
  0
ARC
  5
339
330
75
100
AcDbEntity
  8
0
  6
Continuous
 62
     7
100
AcDbCircle
 10
0.0
 20
0.0
 30
0.0
 40
82.28217574083705
100
AcDbArc
 50
134.9999999999025
 51
179.9999999999025
  0
ARC
  5
33A
330
75
100
AcDbEntity
  8
0
  6
Continuous
 62
     7
100
AcDbCircle
 10
-89.99999999998647
 20
0.00000000015314
 30
0.0
 40
7.717824259149438
100
AcDbArc
 50
-0.0000000000979
 51
179.999999999903
  0
ARC
  5
33B
330
75
100
AcDbEntity
  8
0
  6
Continuous
 62
     7
100
AcDbCircle
 10
0.0
 20
0.0
 30
0.0
 40
97.71782425913595
100
AcDbArc
 50
134.9999999999025
 51
179.9999999999025
  0
ARC
  5
33C
330
75
100
AcDbEntity
  8
0
  6
Continuous
 62
     7
100
AcDbCircle
 10
0.0
 20
0.0
 30
0.0
 40
74.00000000000007
100
AcDbArc
 50
138.0195430915918
 51
-138.019543091592
  0
ARC
  5
33D
330
75
100
AcDbEntity
  8
0
  6
Continuous
 62
     7
100
AcDbCircle
 10
63.6396103067209
 20
-63.63961030683856
 30
0.0
 40
7.717824259149529
100
AcDbArc
 50
-45.00000000061649
 51
134.9999999993823
  0
ARC
  5
33E
330
75
100
AcDbEntity
  8
0
  6
Continuous
 62
     7
100
AcDbCircle
 10
0.0
 20
0.0
 30
0.0
 40
97.71782425913604
100
AcDbArc
 50
-45.00000000009748
 51
-0.00000000009746
  0
ARC
  5
33F
330
75
100
AcDbEntity
  8
0
  6
Continuous
 62
     7
100
AcDbCircle
 10
0.0
 20
0.0
 30
0.0
 40
82.28217574083698
100
AcDbArc
 50
-45.0
 51
-0.00000000009745
  0
ARC
  5
340
330
75
100
AcDbEntity
  8
0
  6
Continuous
 62
     7
100
AcDbCircle
 10
0.0
 20
0.0
 30
0.0
 40
97.71782425913602
100
AcDbArc
 50
-0.00000000009746
 51
44.99999999990253
  0
ARC
  5
341
330
75
100
AcDbEntity
  8
0
  6
Continuous
 62
     7
100
AcDbCircle
 10
0.0
 20
0.0
 30
0.0
 40
82.28217574083692
100
AcDbArc
 50
-0.00000000009745
 51
44.99999999990249
  0
ARC
  5
342
330
75
100
AcDbEntity
  8
0
  6
Continuous
 62
     7
100
AcDbCircle
 10
0.0
 20
0.0
 30
0.0
 40
73.99999999999999
100
AcDbArc
 50
-41.98045690840812
 51
41.98045690840812
  0
ARC
  5
343
330
75
100
AcDbEntity
  8
0
  6
Continuous
 62
     7
100
AcDbCircle
 10
0.00000000015314
 20
89.99999999998647
 30
0.0
 40
7.717824259149552
100
AcDbArc
 50
-90.00000000009791
 51
89.99999999990294
  0
ARC
  5
344
330
75
100
AcDbEntity
  8
0
  6
Continuous
 62
     7
100
AcDbCircle
 10
63.63961030688802
 20
63.63961030667144
 30
0.0
 40
7.717824259149529
100
AcDbArc
 50
44.99999999990273
 51
-135.0000000000973
  0
ARC
  5
345
330
75
100
AcDbEntity
  8
0
  6
Continuous
 62
     7
100
AcDbCircle
 10
0.0
 20
0.0
 30
0.0
 40
82.28217574083696
100
AcDbArc
 50
44.99999999990249
 51
89.99999999990254
  0
ARC
  5
346
330
75
100
AcDbEntity
  8
0
  6
Continuous
 62
     7
100
AcDbCircle
 10
0.0
 20
0.0
 30
0.0
 40
97.71782425913604
100
AcDbArc
 50
44.99999999990253
 51
89.99999999990254
  0
ARC
  5
347
330
75
100
AcDbEntity
  8
0
  6
Continuous
 62
     7
100
AcDbCircle
 10
0.0
 20
0.0
 30
0.0
 40
97.71782425913602
100
AcDbArc
 50
89.99999999990254
 51
134.9999999999025
  0
ARC
  5
348
330
75
100
AcDbEntity
  8
0
  6
Continuous
 62
     7
100
AcDbCircle
 10
0.0
 20
0.0
 30
0.0
 40
82.28217574083692
100
AcDbArc
 50
89.99999999990254
 51
134.9999999999025
  0
ARC
  5
349
330
75
100
AcDbEntity
  8
0
  6
Continuous
 62
     7
100
AcDbCircle
 10
0.0
 20
0.0
 30
0.0
 40
73.99999999999999
100
AcDbArc
 50
48.01954309159189
 51
131.9804569084081
  0
ARC
  5
34A
330
75
100
AcDbEntity
  8
0
  6
Continuous
 62
     7
100
AcDbCircle
 10
0.0
 20
0.0
 30
0.0
 40
74.0
100
AcDbArc
 50
-131.980456908408
 51
-90.0
  0
ARC
  5
34B
330
75
100
AcDbEntity
  8
0
  6
Continuous
 62
     7
100
AcDbCircle
 10
-25.57231335590814
 20
-86.82289901324373
 30
0.0
 40
0.4000000000000489
100
AcDbArc
 50
-112.4999999999883
 51
67.50000000000408
  0
ARC
  5
34C
330
75
100
AcDbEntity
  8
0
  6
Continuous
 62
     7
100
AcDbCircle
 10
-28.99061967110663
 20
-85.40699017714292
 30
0.0
 40
0.3999999999999438
100
AcDbArc
 50
67.5000000000055
 51
-112.5000000000105
  0
ARC
  5
34D
330
75
100
AcDbEntity
  8
0
  6
Continuous
 62
     7
100
AcDbCircle
 10
-38.57111043799944
 20
-83.71164458790452
 30
0.0
 40
0.3999999999996314
100
AcDbArc
 50
157.4999999994752
 51
-22.5000000005101
  0
ARC
  5
34E
330
75
100
AcDbEntity
  8
0
  6
Continuous
 62
     7
100
AcDbCircle
 10
-31.41896969448271
 20
-86.56591906384654
 30
0.0
 40
0.4000000000014232
100
AcDbArc
 50
-112.4999999999954
 51
67.50000000001128
  0
ARC
  5
34F
330
75
100
AcDbEntity
  8
0
  6
Continuous
 62
     7
100
AcDbCircle
 10
-35.61469593401944
 20
-84.93623157145339
 30
0.0
 40
0.4000000000014232
100
AcDbArc
 50
157.5000000000046
 51
-22.49999999999581
  0
ARC
  5
350
330
75
100
AcDbEntity
  8
0
  6
Continuous
 62
     7
100
AcDbCircle
 10
-33.45150466596124
 20
-85.7240155126625
 30
0.0
 40
0.400000000019672
100
AcDbArc
 50
157.4999999999945
 51
-112.5000000000059
  0
ARC
  5
351
330
75
100
AcDbEntity
  8
0
  6
Continuous
 62
     7
100
AcDbCircle
 10
-63.63961030688802
 20
-63.63961030667144
 30
0.0
 40
7.717824259149449
100
AcDbArc
 50
-135.0000000000967
 51
44.99999999990276
  0
ARC
  5
352
330
75
100
AcDbEntity
  8
0
  6
Continuous
 62
     7
100
AcDbCircle
 10
-31.88250259326071
 20
-81.93610942935743
 30
0.0
 40
0.3999999999906172
100
AcDbArc
 50
-22.50000000000201
 51
157.5000000000128
  0
ARC
  5
353
330
75
100
AcDbEntity
  8
0
  6
Continuous
 62
     7
100
AcDbCircle
 10
-43.3107044699384
 20
-79.47541683913403
 30
0.0
 40
0.3999999999999452
100
AcDbArc
 50
67.50000000000503
 51
-112.499999999995
  0
ARC
  5
354
330
75
100
AcDbEntity
  8
0
  6
Continuous
 62
     7
100
AcDbCircle
 10
-39.89239815473979
 20
-80.89132567523484
 30
0.0
 40
0.3999999999999914
100
AcDbArc
 50
-112.500000000011
 51
67.50000000000597
  0
ARC
  5
355
330
75
100
AcDbEntity
  8
0
  6
Continuous
 62
     7
100
AcDbCircle
 10
-34.00742551808298
 20
-81.05593753489859
 30
0.0
 40
0.3999999999904654
100
AcDbArc
 50
-22.4999999999934
 51
157.4999999999978
  0
ARC
  5
356
330
75
100
AcDbEntity
  8
0
  6
Continuous
 62
     7
100
AcDbCircle
 10
-36.96384002207276
 20
-79.83135055134949
 30
0.0
 40
0.3999999999903605
100
AcDbArc
 50
-22.49999999999962
 51
157.4999999999916
  0
ARC
  5
357
330
75
100
AcDbEntity
  8
0
  6
Continuous
 62
     7
100
AcDbCircle
 10
0.0
 20
0.0
 30
0.0
 40
82.28217574083696
100
AcDbArc
 50
-135.0000000000975
 51
-90.0
  0
ARC
  5
358
330
75
100
AcDbEntity
  8
0
  6
Continuous
 62
     7
100
AcDbCircle
 10
0.0
 20
0.0
 30
0.0
 40
97.71782425913595
100
AcDbArc
 50
-135.0000000000974
 51
-90.00000000009746
  0
ARC
  5
359
330
75
100
AcDbEntity
  8
0
  6
Continuous
 62
     7
100
AcDbCircle
 10
-0.00000000008311
 20
-89.99999999998647
 30
0.0
 40
7.717824259149552
100
AcDbArc
 50
-90.00000000061696
 51
89.99999999938305
  0
ARC
  5
35A
330
75
100
AcDbEntity
  8
0
  6
Continuous
 62
     7
100
AcDbCircle
 10
0.0
 20
0.0
 30
0.0
 40
82.28217574083692
100
AcDbArc
 50
-90.0
 51
-45.0
  0
ARC
  5
35B
330
75
100
AcDbEntity
  8
0
  6
Continuous
 62
     7
100
AcDbCircle
 10
63.6396103067209
 20
-63.63961030683856
 30
0.0
 40
7.717824259149519
100
AcDbArc
 50
134.9999999993823
 51
-45.00000000061649
  0
ARC
  5
35C
330
75
100
AcDbEntity
  8
0
  6
Continuous
 62
     7
100
AcDbCircle
 10
0.0
 20
0.0
 30
0.0
 40
97.71782425913602
100
AcDbArc
 50
-90.00000000009746
 51
-45.00000000009748
  0
ARC
  5
35D
330
75
100
AcDbEntity
  8
0
  6
Continuous
 62
     7
100
AcDbCircle
 10
0.0
 20
0.0
 30
0.0
 40
74.0
100
AcDbArc
 50
-90.0
 51
-48.01954309159189
  0
CIRCLE
  5
35E
330
75
100
AcDbEntity
  8
0
  6
Continuous
 62
     3
100
AcDbCircle
 10
-63.63961030668099
 20
63.63961030689757
 30
0.0
 40
6.476769103198105
  0
CIRCLE
  5
35F
330
75
100
AcDbEntity
  8
0
  6
Continuous
 62
     7
100
AcDbCircle
 10
-63.63961030668099
 20
63.63961030689757
 30
0.0
 40
7.32201985547507
  0
CIRCLE
  5
360
330
75
100
AcDbEntity
  8
0
  6
Continuous
 62
     3
100
AcDbCircle
 10
-63.63961030689757
 20
-63.63961030668099
 30
0.0
 40
6.476769103198023
  0
CIRCLE
  5
361
330
75
100
AcDbEntity
  8
0
  6
Continuous
 62
     7
100
AcDbCircle
 10
-63.63961030689757
 20
-63.63961030668099
 30
0.0
 40
7.32201985547507
  0
CIRCLE
  5
362
330
75
100
AcDbEntity
  8
0
  6
Continuous
 62
     3
100
AcDbCircle
 10
63.63961030689757
 20
63.63961030668099
 30
0.0
 40
6.476769103198023
  0
CIRCLE
  5
363
330
75
100
AcDbEntity
  8
0
  6
Continuous
 62
     7
100
AcDbCircle
 10
63.63961030689757
 20
63.63961030668099
 30
0.0
 40
7.32201985547507
  0
CIRCLE
  5
364
330
75
100
AcDbEntity
  8
0
  6
Continuous
 62
     3
100
AcDbCircle
 10
-90.0
 20
0.00000000007651
 30
0.0
 40
6.47676910319808
  0
CIRCLE
  5
365
330
75
100
AcDbEntity
  8
0
  6
Continuous
 62
     7
100
AcDbCircle
 10
-90.0
 20
0.00000000007651
 30
0.0
 40
7.322019855474991
  0
CIRCLE
  5
366
330
75
100
AcDbEntity
  8
0
  6
Continuous
 62
     3
100
AcDbCircle
 10
63.63961030673511
 20
-63.63961030684345
 30
0.0
 40
6.476769103198029
  0
CIRCLE
  5
367
330
75
100
AcDbEntity
  8
0
  6
Continuous
 62
     7
100
AcDbCircle
 10
63.63961030673511
 20
-63.63961030684345
 30
0.0
 40
7.322019855475066
  0
CIRCLE
  5
368
330
75
100
AcDbEntity
  8
0
  6
Continuous
 62
     3
100
AcDbCircle
 10
90.0
 20
-0.00000000007651
 30
0.0
 40
6.47676910319808
  0
CIRCLE
  5
369
330
75
100
AcDbEntity
  8
0
  6
Continuous
 62
     7
100
AcDbCircle
 10
90.0
 20
-0.00000000007651
 30
0.0
 40
7.322019855474991
  0
CIRCLE
  5
36A
330
75
100
AcDbEntity
  8
0
  6
Continuous
 62
     3
100
AcDbCircle
 10
0.00000000007662
 20
90.0
 30
0.0
 40
6.47676910319808
  0
CIRCLE
  5
36B
330
75
100
AcDbEntity
  8
0
  6
Continuous
 62
     7
100
AcDbCircle
 10
0.00000000007662
 20
90.0
 30
0.0
 40
7.322019855475105
  0
CIRCLE
  5
36C
330
75
100
AcDbEntity
  8
0
  6
Continuous
 62
     3
100
AcDbCircle
 10
-0.00000000007662
 20
-90.0
 30
0.0
 40
6.47676910319808
  0
CIRCLE
  5
36D
330
75
100
AcDbEntity
  8
0
  6
Continuous
 62
     7
100
AcDbCircle
 10
-0.00000000007662
 20
-90.0
 30
0.0
 40
7.322019855474991
  0
CIRCLE
  5
36E
330
75
100
AcDbEntity
  8
0
  6
Continuous
 62
     3
100
AcDbCircle
 10
0.0
 20
0.0
 30
0.0
 40
102.029255426901
  0
CIRCLE
  5
36F
330
75
100
AcDbEntity
  8
0
  6
Continuous
 62
     3
100
AcDbCircle
 10
0.0
 20
0.0
 30
0.0
 40
107.9707445730989
  0
CIRCLE
  5
370
330
75
100
AcDbEntity
  8
0
  6
Continuous
 62
     3
100
AcDbCircle
 10
0.0
 20
0.0
 30
0.0
 40
112.029255426901
  0
CIRCLE
  5
371
330
75
100
AcDbEntity
  8
0
  6
Continuous
 62
     7
100
AcDbCircle
 10
0.0
 20
0.0
 30
0.0
 40
118.5000000000001
  0
CIRCLE
  5
372
330
75
100
AcDbEntity
  8
0
  6
Continuous
 62
     7
100
AcDbCircle
 10
0.0
 20
0.0
 30
0.0
 40
119.0000000000001
  0
SPLINE
  5
373
330
75
100
AcDbEntity
  8
0
  6
Continuous
 62
     7
100
AcDbSpline
210
0.0
220
0.0
230
1.0
 70
     8
 71
     3
 72
    43
 73
    39
 74
    37
 42
0.0000000001
 43
0.0000000001
 44
0.00000001
 40
0.0
 40
0.0
 40
0.0
 40
0.0
 40
0.3907967327047781
 40
0.7791187161120996
 40
1.24774598070298
 40
1.714333364992684
 40
2.282167899466768
 40
2.849193372675262
 40
3.520315990722191
 40
4.191019167523089
 40
4.957257977258781
 40
5.723287034790243
 40
6.569377519584758
 40
7.415354049149025
 40
8.321398475926971
 40
9.227382887797694
 40
10.17051911290886
 40
11.11362912797241
 40
12.06930488155747
 40
13.02498063520026
 40
13.96809065034826
 40
14.91122687548483
 40
15.8172112873535
 40
16.72325571413327
 40
17.56923224370017
 40
18.4153227284955
 40
19.1813517860274
 40
19.94759059576453
 40
20.6182937725648
 40
21.28941639060671
 40
21.85644186381127
 40
22.42427639828525
 40
22.89086378257591
 40
23.35949104716704
 40
23.74781303057316
 40
24.13860976327395
 40
24.49679243110143
 40
24.85497509893836
 40
24.85497509893836
 40
24.85497509893836
 40
24.85497509893836
 10
-24.45695815843374
 20
-87.6694273956582
 30
0.0
 10
-24.54110232525097
 20
-87.76962030408804
 30
0.0
 10
-24.70885780970762
 20
-87.96937164192323
 30
0.0
 10
-25.05623222744502
 20
-88.20543648905111
 30
0.0
 10
-25.45491791905637
 20
-88.39640717358805
 30
0.0
 10
-25.93271316466266
 20
-88.55150063727396
 30
0.0
 10
-26.45644022000042
 20
-88.6592208327273
 30
0.0
 10
-27.05476532260506
 20
-88.73048792226108
 30
0.0
 10
-27.69107559169609
 20
-88.75686644966846
 30
0.0
 10
-28.39397419010992
 20
-88.74338329560098
 30
0.0
 10
-29.12654984333015
 20
-88.68761340591811
 30
0.0
 10
-29.91357935760069
 20
-88.59022771485277
 30
0.0
 10
-30.72167214620444
 20
-88.45320452681159
 30
0.0
 10
-31.56939854317015
 20
-88.27510296679809
 30
0.0
 10
-32.42915827577838
 20
-88.06022425528249
 30
0.0
 10
-33.31212236406837
 20
-87.8069988061863
 30
0.0
 10
-34.19775775165824
 20
-87.52019791753418
 30
0.0
 10
-35.08937719365747
 20
-87.1997209271613
 30
0.0
 10
-35.97413776827491
 20
-86.8492512947617
 30
0.0
 10
-36.84757742406211
 20
-86.47145054636559
 30
0.0
 10
-37.70465903072635
 20
-86.06759184579451
 30
0.0
 10
-38.53369667281632
 20
-85.64415191071537
 30
0.0
 10
-39.33710399721389
 20
-85.19885944877652
 30
0.0
 10
-40.09698813637539
 20
-84.74285970493634
 30
0.0
 10
-40.82235801313309
 20
-84.26936344455899
 30
0.0
 10
-41.49065602879444
 20
-83.7948455697961
 30
0.0
 10
-42.11603167970174
 20
-83.30719377826111
 30
0.0
 10
-42.67347734289959
 20
-82.82861971968897
 30
0.0
 10
-43.18003184080314
 20
-82.34112975798712
 30
0.0
 10
-43.6113321093145
 20
-81.87253673024793
 30
0.0
 10
-43.98397570064132
 20
-81.39906764922925
 30
0.0
 10
-44.27828146033468
 20
-80.95255314840125
 30
0.0
 10
-44.50601657064716
 20
-80.50507639369651
 30
0.0
 10
-44.65441174139692
 20
-80.08798062914165
 30
0.0
 10
-44.72835144496666
 20
-79.67588440156268
 30
0.0
 10
-44.71200136384537
 20
-79.2949494050882
 30
0.0
 10
-44.62242010476416
 20
-78.93117971291218
 30
0.0
 10
-44.49151314665623
 20
-78.7296522087016
 30
0.0
 10
-44.42605966760141
 20
-78.62888845659495
 30
0.0
 11
-24.45695815843374
 21
-87.6694273956582
 31
0.0
 11
-24.72175693915369
 21
-87.9568359759441
 31
0.0
 11
-25.03789171216113
 21
-88.1823415592296
 31
0.0
 11
-25.45944372787809
 21
-88.38704967133779
 31
0.0
 11
-25.90245393651057
 21
-88.53349331997342
 31
0.0
 11
-26.45791746853512
 21
-88.65137598677481
 31
0.0
 11
-27.02080893796175
 21
-88.719721293227
 31
0.0
 11
-27.69124425042423
 21
-88.75008673834978
 31
0.0
 11
-28.36183979394115
 21
-88.73807139873458
 31
0.0
 11
-29.12599620294989
 21
-88.68161879812106
 31
0.0
 11
-29.88629777529425
 21
-88.58811994212144
 31
0.0
 11
-30.72066807682848
 21
-88.44777996785362
 31
0.0
 11
-31.54864522871776
 21
-88.27419965640408
 31
0.0
 11
-32.42782556948065
 21
-88.05520552015511
 31
0.0
 11
-33.29875238012295
 21
-87.80561736928018
 31
0.0
 11
-34.19614372252119
 21
-87.5154541088463
 31
0.0
 11
-35.08366364586443
 21
-87.19644801771014
 31
0.0
 11
-35.97224264240329
 21
-86.84467605620613
 31
0.0
 11
-36.84930321593853
 21
-86.46509616151893
 31
0.0
 11
-37.70244594253225
 21
-86.06309617553299
 31
0.0
 11
-38.54217385524854
 21
-85.63372108104099
 31
0.0
 11
-39.33449758295774
 21
-85.19436830130925
 31
0.0
 11
-40.11102420258098
 21
-84.72754615925172
 31
0.0
 11
-40.81923227665834
 21
-84.26481771578871
 31
0.0
 11
-41.50845652237094
 21
-83.77406416502919
 31
0.0
 11
-42.11218459503338
 21
-83.30256344258805
 31
0.0
 11
-42.69244279044142
 21
-82.80214128059961
 31
0.0
 11
-43.17512157481526
 21
-82.33645475246576
 31
0.0
 11
-43.62771931843919
 21
-81.84091378451865
 31
0.0
 11
-43.97741626388402
 21
-81.39456197976213
 31
0.0
 11
-44.28683266100067
 21
-80.91843431648616
 31
0.0
 11
-44.49653688664876
 21
-80.50162749681482
 31
0.0
 11
-44.64986868134983
 21
-80.05879471364275
 31
0.0
 11
-44.71395319597618
 21
-79.67579714474503
 31
0.0
 11
-44.69796565338353
 21
-79.28532757516058
 31
0.0
 11
-44.60418377061008
 21
-78.93964017013188
 31
0.0
 11
-44.42605966760141
 21
-78.62888845659495
 31
0.0
  0
SPLINE
  5
374
330
75
100
AcDbEntity
  8
0
  6
Continuous
 62
     7
100
AcDbSpline
210
0.0
220
0.0
230
1.0
 70
     8
 71
     3
 72
    43
 73
    39
 74
    37
 42
0.0000000001
 43
0.0000000001
 44
0.00000001
 40
0.0
 40
0.0
 40
0.0
 40
0.0
 40
0.3907967327154882
 40
0.7791187161260169
 40
1.247745980713774
 40
1.714333364995638
 40
2.282167899463645
 40
2.849193372674073
 40
3.520315990723097
 40
4.191019167521673
 40
4.95725797725438
 40
5.723287034784407
 40
6.569377519578911
 40
7.415354049145183
 40
8.3213984759245
 40
9.227382887792862
 40
10.17051911292938
 40
11.11362912807757
 40
12.06930488172045
 40
13.02498063530561
 40
13.9680906503694
 40
14.91122687548039
 40
15.81721128735053
 40
16.72325571412786
 40
17.56923224369164
 40
18.41532272848593
 40
19.18135178601635
 40
19.94759059574839
 40
20.61829377254756
 40
21.28941639059992
 40
21.85644186381245
 40
22.42427639827984
 40
22.89086378256077
 40
23.35949104714834
 40
23.74781303055771
 40
24.13860976326917
 40
24.49679243110358
 40
24.85497509893362
 40
24.85497509893362
 40
24.85497509893362
 40
24.85497509893362
 10
-44.42605966760141
 20
-78.62888845659495
 30
0.0
 10
-44.34191550078295
 20
-78.52869554816141
 30
0.0
 10
-44.17416001632547
 20
-78.3289442103208
 30
0.0
 10
-43.8267855985866
 20
-78.09287936318836
 30
0.0
 10
-43.42809990697618
 20
-77.90190867865441
 30
0.0
 10
-42.95030466137066
 20
-77.74681521498354
 30
0.0
 10
-42.42657760603495
 20
-77.63909501954345
 30
0.0
 10
-41.82825250343381
 20
-77.56782792999152
 30
0.0
 10
-41.19194223434261
 20
-77.54144940256185
 30
0.0
 10
-40.48904363592955
 20
-77.55493255663791
 30
0.0
 10
-39.75646798271294
 20
-77.61070244633697
 30
0.0
 10
-38.96943846844466
 20
-77.70808813740753
 30
0.0
 10
-38.16134567984126
 20
-77.84511132545192
 30
0.0
 10
-37.31361928287533
 20
-78.02321288546987
 30
0.0
 10
-36.45385955026777
 20
-78.23809159698956
 30
0.0
 10
-35.57089546197132
 20
-78.49131704609272
 30
0.0
 10
-34.68526007434896
 20
-78.77811793476087
 30
0.0
 10
-33.79364063229669
 20
-79.09859492515132
 30
0.0
 10
-32.90888005765011
 20
-79.44906455755418
 30
0.0
 10
-32.03544040188962
 20
-79.82686530594187
 30
0.0
 10
-31.17835879528038
 20
-80.23072400649863
 30
0.0
 10
-30.34932115322338
 20
-80.65416394156274
 30
0.0
 10
-29.54591382883197
 20
-81.09945640349443
 30
0.0
 10
-28.78602968967017
 20
-81.55545614733148
 30
0.0
 10
-28.0606598129129
 20
-82.02895240770542
 30
0.0
 10
-27.39236179725318
 20
-82.50347028246749
 30
0.0
 10
-26.76698614634662
 20
-82.99112207399904
 30
0.0
 10
-26.20954048314245
 20
-83.46969613255973
 30
0.0
 10
-25.70298598523219
 20
-83.95718609425708
 30
0.0
 10
-25.27168571672613
 20
-84.42577912200942
 30
0.0
 10
-24.89904212540372
 20
-84.89924820303605
 30
0.0
 10
-24.60473636570141
 20
-85.34576270385428
 30
0.0
 10
-24.3770012553815
 20
-85.79323945854807
 30
0.0
 10
-24.22860608463104
 20
-86.21033522309948
 30
0.0
 10
-24.15466638106296
 20
-86.6224314506826
 30
0.0
 10
-24.17101646219015
 20
-87.00336644716367
 30
0.0
 10
-24.26059772127161
 20
-87.36713613934323
 30
0.0
 10
-24.39150467937996
 20
-87.5686636435536
 30
0.0
 10
-24.45695815843374
 20
-87.6694273956582
 30
0.0
 11
-44.42605966760141
 21
-78.62888845659495
 31
0.0
 11
-44.16126088687703
 21
-78.34147987629856
 31
0.0
 11
-43.84512611386815
 21
-78.11597429300957
 31
0.0
 11
-43.42357409815256
 21
-77.9112661809057
 31
0.0
 11
-42.98056388952407
 21
-77.76482253228299
 31
0.0
 11
-42.42510035750367
 21
-77.64693986549129
 31
0.0
 11
-41.86220888807665
 21
-77.57859455902627
 31
0.0
 11
-41.19177357561288
 21
-77.5482291138858
 31
0.0
 11
-40.52117803209836
 21
-77.56024445350496
 31
0.0
 11
-39.7570216230936
 21
-77.61669705413198
 31
0.0
 11
-38.99672005075151
 21
-77.71019591013825
 31
0.0
 11
-38.16234974921793
 21
-77.85053588440991
 31
0.0
 11
-37.33437259732752
 21
-78.0241161958638
 31
0.0
 11
-36.45519225656436
 21
-78.24311033211735
 31
0.0
 11
-35.58426544592562
 21
-78.49269848299616
 31
0.0
 11
-34.68687410350446
 21
-78.78286174344157
 31
0.0
 11
-33.7993541800811
 21
-79.10186783460507
 31
0.0
 11
-32.91077518348682
 21
-79.45363979612613
 31
0.0
 11
-32.03371461000557
 21
-79.83321969079299
 31
0.0
 11
-31.18057188349128
 21
-80.23521967674995
 31
0.0
 11
-30.34084397079869
 21
-80.66459477123209
 31
0.0
 11
-29.548520243087
 21
-81.10394755096239
 31
0.0
 11
-28.77199362346435
 21
-81.57076969301616
 31
0.0
 11
-28.06378554938846
 21
-82.03349813647571
 31
0.0
 11
-27.37456130367631
 21
-82.52425168723408
 31
0.0
 11
-26.7708332310128
 21
-82.99575240967144
 31
0.0
 11
-26.19057503560165
 21
-83.49617457164848
 31
0.0
 11
-25.70789625122532
 21
-83.96186109977818
 31
0.0
 11
-25.25529850760113
 21
-84.4574020677392
 31
0.0
 11
-24.90560156215525
 21
-84.90375387250502
 31
0.0
 11
-24.59618516503397
 21
-85.37988153577012
 31
0.0
 11
-24.38648093938188
 21
-85.79668835542856
 31
0.0
 11
-24.2331491446794
 21
-86.23952113859636
 31
0.0
 11
-24.16906463005445
 21
-86.62251870749762
 31
0.0
 11
-24.18505217265152
 21
-87.01298827709256
 31
0.0
 11
-24.27883405542771
 21
-87.3586756821277
 31
0.0
 11
-24.45695815843374
 21
-87.6694273956582
 31
0.0
  0
SPLINE
  5
375
330
75
100
AcDbEntity
  8
0
  6
Continuous
 62
     7
100
AcDbSpline
210
0.0
220
0.0
230
1.0
 70
     8
 71
     3
 72
    49
 73
    45
 74
    43
 42
0.0000000001
 43
0.0000000001
 44
0.00000001
 40
0.0
 40
0.0
 40
0.0
 40
0.0
 40
0.2472640119693014
 40
0.4932094637155154
 40
0.7446226464070709
 40
0.9851129147565563
 40
1.430384030803763
 40
1.873943008744862
 40
2.091811857880641
 40
2.303481699356002
 40
2.512865733043982
 40
2.722061233192475
 40
3.139474908219662
 40
3.551212769325666
 40
4.363404763986316
 40
5.169579150575053
 40
5.969930051557694
 40
6.76720218568726
 40
8.353971733842679
 40
9.936219975487665
 40
11.51479959792997
 40
13.09262492230261
 40
14.67079843896138
 40
16.25102634054196
 40
17.83345190330757
 40
19.42526957310728
 40
20.22511411264497
 40
21.03082140077936
 40
21.4371631881903
 40
21.84358134240832
 40
22.2543869729271
 40
22.67090570685628
 40
23.08645788445052
 40
23.5148823593192
 40
23.95848782810944
 40
24.40325870586929
 40
24.64019736603463
 40
24.88812562491738
 40
25.13387425478715
 40
25.38061105553673
 40
25.63769027475739
 40
25.90205732800123
 40
26.1646379311215
 40
26.42823177332834
 40
26.42823177332834
 40
26.42823177332834
 40
26.42823177332834
 10
-44.82584213067491
 20
-78.32859862623286
 30
0.0
 10
-44.77443341253765
 20
-78.26408968275813
 30
0.0
 10
-44.6718901184253
 20
-78.13541579624055
 30
0.0
 10
-44.49338058760669
 20
-77.961995951327
 30
0.0
 10
-44.29989416754021
 20
-77.80949812738244
 30
0.0
 10
-44.03579775256122
 20
-77.6418418387262
 30
0.0
 10
-43.69699171801317
 20
-77.47566930184084
 30
0.0
 10
-43.35043827883876
 20
-77.34716932601592
 30
0.0
 10
-43.0697402894961
 20
-77.26983956418798
 30
0.0
 10
-42.86229737801192
 20
-77.2214819375213
 30
0.0
 10
-42.65648901364045
 20
-77.1791856510997
 30
0.0
 10
-42.38189960191013
 20
-77.1314402422198
 30
0.0
 10
-42.03816298643882
 20
-77.08898441201025
 30
0.0
 10
-41.49228381423253
 20
-77.05009916159267
 30
0.0
 10
-40.81497141514985
 20
-77.04195694270963
 30
0.0
 10
-40.00946496900862
 20
-77.08525833872581
 30
0.0
 10
-39.21237447498332
 20
-77.17005576795806
 30
0.0
 10
-38.1627860398262
 20
-77.33013525096784
 30
0.0
 10
-36.86786269236954
 20
-77.60268568805556
 30
0.0
 10
-35.34287928439368
 20
-78.02883425742573
 30
0.0
 10
-33.84623231529298
 20
-78.53613224561613
 30
0.0
 10
-32.37948187476346
 20
-79.12049243165133
 30
0.0
 10
-30.94346497400455
 20
-79.7781677640263
 30
0.0
 10
-29.54392633643948
 20
-80.51376880351171
 30
0.0
 10
-28.18431816315925
 20
-81.329948683673
 30
0.0
 10
-27.09772512973616
 20
-82.09026417398513
 30
0.0
 10
-26.26489889512345
 20
-82.75585746010039
 30
0.0
 10
-25.76359101306956
 20
-83.20197778356626
 30
0.0
 10
-25.37843576119493
 20
-83.57989607713895
 30
0.0
 10
-25.09837445103143
 20
-83.87650952838038
 30
0.0
 10
-24.82635386847947
 20
-84.18509831458803
 30
0.0
 10
-24.56887771988712
 20
-84.50996402181408
 30
0.0
 10
-24.32733684927192
 20
-84.85402991704613
 30
0.0
 10
-24.10341441384848
 20
-85.22070690133629
 30
0.0
 10
-23.91114466031287
 20
-85.61617527323187
 30
0.0
 10
-23.78499022194406
 20
-85.97040448044285
 30
0.0
 10
-23.70905727739012
 20
-86.27110515873721
 30
0.0
 10
-23.67160977087551
 20
-86.5122500091858
 30
0.0
 10
-23.66150786135291
 20
-86.75931527509724
 30
0.0
 10
-23.67594419721108
 20
-87.00915586709016
 30
0.0
 10
-23.7188891575049
 20
-87.26224545693397
 30
0.0
 10
-23.79540019189769
 20
-87.51285700532128
 30
0.0
 10
-23.90706405254211
 20
-87.75299338478331
 30
0.0
 10
-24.00707428547389
 20
-87.89738326312354
 30
0.0
 10
-24.05717569536296
 20
-87.96971722602404
 30
0.0
 11
-44.82584213067491
 21
-78.32859862623286
 31
0.0
 11
-44.66767132700967
 21
-78.13854208600588
 31
0.0
 11
-44.49195504367424
 21
-77.96645794087499
 31
0.0
 11
-44.29451510958566
 21
-77.81081070878204
 31
0.0
 11
-44.09196949908862
 21
-77.68115406668767
 31
0.0
 11
-43.69354860653111
 21
-77.48233968300379
 31
0.0
 11
-43.27728005785666
 21
-77.3291565824456
 31
0.0
 11
-43.06739598556343
 21
-77.2707142038034
 31
0.0
 11
-42.86135575301881
 21
-77.22222147895559
 31
0.0
 11
-42.6562275826407
 21
-77.18022020182292
 31
0.0
 11
-42.45011030085645
 21
-77.14446515417573
 31
0.0
 11
-42.03596074595421
 21
-77.09236599608298
 31
0.0
 11
-41.62532119272669
 21
-77.06231231755177
 31
0.0
 11
-40.81320987574892
 21
-77.0508648275445
 31
0.0
 11
-40.00810571685219
 21
-77.09239114352499
 31
0.0
 11
-39.21215241255528
 21
-77.17617599945109
 31
0.0
 11
-38.42383984068227
 21
-77.29536553291136
 31
0.0
 11
-36.87057419540604
 21
-77.61971632165398
 31
0.0
 11
-35.34595697054476
 21
-78.04286146914473
 31
0.0
 11
-33.85076465025713
 21
-78.54913565349841
 31
0.0
 11
-32.38479350603711
 21
-79.13262632055819
 31
0.0
 11
-30.95038753823105
 21
-79.79073814100016
 31
0.0
 11
-29.55187517770719
 21
-80.52645778760188
 31
0.0
 11
-28.19690007930974
 21
-81.34383967167865
 31
0.0
 11
-26.89490132389471
 21
-82.25963590162519
 31
0.0
 11
-26.270928659557
 21
-82.76004513574019
 31
0.0
 11
-25.67007719262915
 21
-83.2968335007813
 31
0.0
 11
-25.38029973500892
 21
-83.5816890312726
 31
0.0
 11
-25.10107758573503
 21
-83.87700362189224
 31
0.0
 11
-24.83033111838159
 21
-84.18596578216687
 31
0.0
 11
-24.57191712117958
 21
-84.51263084268612
 31
0.0
 11
-24.33342800351971
 21
-84.85293446162241
 31
0.0
 11
-24.11192626171203
 21
-85.2196557577625
 31
0.0
 11
-23.91882560116343
 21
-85.61902769823442
 31
0.0
 11
-23.77052006919052
 21
-86.03834452700414
 31
0.0
 11
-23.71347769041064
 21
-86.26831429828741
 31
0.0
 11
-23.67618107104943
 21
-86.51342118055891
 31
0.0
 11
-23.66555619311091
 21
-86.75894002108171
 31
0.0
 11
-23.68017303223598
 21
-87.00524348605558
 31
0.0
 11
-23.72376472545485
 21
-87.25859993305745
 31
0.0
 11
-23.80136556694487
 21
-87.51132121874758
 31
0.0
 11
-23.91331826710661
 21
-87.74883998866167
 31
0.0
 11
-24.05717569536296
 21
-87.96971722602404
 31
0.0
  0
SPLINE
  5
376
330
75
100
AcDbEntity
  8
0
  6
Continuous
 62
     7
100
AcDbSpline
210
0.0
220
0.0
230
1.0
 70
     8
 71
     3
 72
    49
 73
    45
 74
    43
 42
0.0000000001
 43
0.0000000001
 44
0.00000001
 40
0.0
 40
0.0
 40
0.0
 40
0.0
 40
0.2472640119631694
 40
0.4932094637043988
 40
0.744622646391754
 40
0.9851129147379539
 40
1.430384030781177
 40
1.873943008720743
 40
2.091811857859788
 40
2.303481699342755
 40
2.51286573303882
 40
2.72206123319453
 40
3.139474908231537
 40
3.55121276933546
 40
4.36340476397963
 40
5.16957915056566
 40
5.969930051554563
 40
6.767202185686627
 40
8.35397173384142
 40
9.936219975485535
 40
11.51479959783305
 40
13.0926249221425
 40
14.67079843889686
 40
16.25102634054157
 40
17.8334519033076
 40
19.42526957311364
 40
20.22511411266096
 40
21.03082140079743
 40
21.43716318820181
 40
21.8435813424098
 40
22.25438697292043
 40
22.6709057068505
 40
23.08645788445642
 40
23.51488235933475
 40
23.95848782812606
 40
24.40325870588393
 40
24.6401973660465
 40
24.88812562492516
 40
25.13387425479008
 40
25.38061105553388
 40
25.63769027475099
 40
25.90205732799429
 40
26.16863250845392
 40
26.42815796455292
 40
26.42815796455292
 40
26.42815796455292
 40
26.42815796455292
 10
-24.05717569536296
 20
-87.96971722602404
 30
0.0
 10
-24.10858441349957
 20
-88.03422616949665
 30
0.0
 10
-24.21112770761091
 20
-88.1629000560103
 30
0.0
 10
-24.38963723842765
 20
-88.33631990091847
 30
0.0
 10
-24.58312365849186
 20
-88.48881772485906
 30
0.0
 10
-24.84722007346817
 20
-88.65647401351237
 30
0.0
 10
-25.18602610801256
 20
-88.8226465503981
 30
0.0
 10
-25.53257954718364
 20
-88.95114652622917
 30
0.0
 10
-25.8132775365269
 20
-89.02847628806656
 30
0.0
 10
-26.02072044801597
 20
-89.0768339147403
 30
0.0
 10
-26.22652881239443
 20
-89.11913020116577
 30
0.0
 10
-26.50111822413302
 20
-89.16687561004747
 30
0.0
 10
-26.84485483961058
 20
-89.20933144024885
 30
0.0
 10
-27.39073401181543
 20
-89.24821669064478
 30
0.0
 10
-28.06804641089027
 20
-89.25635890952414
 30
0.0
 10
-28.87355285702803
 20
-89.21305751352446
 30
0.0
 10
-29.67064335105646
 20
-89.12826008430108
 30
0.0
 10
-30.72023178621705
 20
-88.96818060129573
 30
0.0
 10
-32.01515513367519
 20
-88.69563016421364
 30
0.0
 10
-33.54013854162257
 20
-88.26948159486105
 30
0.0
 10
-35.03678551067547
 20
-87.7621836066937
 30
0.0
 10
-36.50353595118056
 20
-87.17782342065352
 30
0.0
 10
-37.93955285197292
 20
-86.52014808827518
 30
0.0
 10
-39.33909148959003
 20
-85.78454704877285
 30
0.0
 10
-40.69869966288611
 20
-84.96836716859342
 30
0.0
 10
-41.78529269631655
 20
-84.2080516782784
 30
0.0
 10
-42.61811893092363
 20
-83.54245839215312
 30
0.0
 10
-43.11942681298179
 20
-83.0963380686728
 30
0.0
 10
-43.50458206482973
 20
-82.71841977511244
 30
0.0
 10
-43.78464337505606
 20
-82.42180632384681
 30
0.0
 10
-44.05666395735897
 20
-82.11321753777342
 30
0.0
 10
-44.314140106911
 20
-81.78835183007932
 30
0.0
 10
-44.55568097392651
 20
-81.44428593661252
 30
0.0
 10
-44.77960342333877
 20
-81.07760894541084
 30
0.0
 10
-44.97187312246123
 20
-80.68214060033351
 30
0.0
 10
-45.0980277338431
 20
-80.32791130782073
 30
0.0
 10
-45.17396030326444
 20
-80.02721081448206
 30
0.0
 10
-45.21140903532371
 20
-79.78606535980381
 30
0.0
 10
-45.22150633645806
 20
-79.5390023659866
 30
0.0
 10
-45.2070874752328
 20
-79.28915315842649
 30
0.0
 10
-45.16407393144409
 20
-79.03609738252302
 30
0.0
 10
-45.08743900324839
 20
-78.78407787059415
 30
0.0
 10
-44.97452695810553
 20
-78.54455063762293
 30
0.0
 10
-44.87495900448366
 20
-78.39993668994444
 30
0.0
 10
-44.82584213067491
 20
-78.32859862623286
 30
0.0
 11
-24.05717569536296
 21
-87.96971722602404
 31
0.0
 11
-24.21534649902618
 21
-88.15977376624473
 31
0.0
 11
-24.39106278235971
 21
-88.33185791137043
 31
0.0
 11
-24.58850271644604
 21
-88.48750514345944
 31
0.0
 11
-24.79104832694069
 21
-88.61716178555146
 31
0.0
 11
-25.18946921949352
 21
-88.81597616923581
 31
0.0
 11
-25.60573776816356
 21
-88.96915926980152
 31
0.0
 11
-25.81562184045825
 21
-89.02760164845068
 31
0.0
 11
-26.02166207300905
 21
-89.07609437330541
 31
0.0
 11
-26.22679024339457
 21
-89.11809565044224
 31
0.0
 11
-26.43290752518593
 21
-89.15385069809061
 31
0.0
 11
-26.84705708009907
 21
-89.20594985617545
 31
0.0
 11
-27.25769663332551
 21
-89.2360035346928
 31
0.0
 11
-28.0698079502869
 21
-89.24745102469294
 31
0.0
 11
-28.87491210918154
 21
-89.20592470872435
 31
0.0
 11
-29.67086541348566
 21
-89.12213985280698
 31
0.0
 11
-30.45917798536182
 21
-89.00295031935082
 31
0.0
 11
-32.01244363063896
 21
-88.67859953061559
 31
0.0
 11
-33.53706085550152
 21
-88.25545438313276
 31
0.0
 11
-35.03225317570043
 21
-87.7491801988126
 31
0.0
 11
-36.49822431985973
 21
-87.16568953177114
 31
0.0
 11
-37.9326302877556
 21
-86.50757771129568
 31
0.0
 11
-39.33114264833915
 21
-85.77185806466969
 31
0.0
 11
-40.68611774673526
 21
-84.95447618058988
 31
0.0
 11
-41.98811650215347
 21
-84.03867995063686
 31
0.0
 11
-42.61208916649387
 21
-83.53827071650983
 31
0.0
 11
-43.21294063341642
 21
-83.00148235145966
 31
0.0
 11
-43.50271809103088
 21
-82.71662682097185
 31
0.0
 11
-43.78194024030034
 21
-82.42131223036182
 31
0.0
 11
-44.05268670765398
 21
-82.1123500700982
 31
0.0
 11
-44.31110070486011
 21
-81.78568500958107
 31
0.0
 11
-44.54958982252313
 21
-81.44538139063273
 31
0.0
 11
-44.77109156432766
 21
-81.07866009447946
 31
0.0
 11
-44.9641922248695
 21
-80.67928815400309
 31
0.0
 11
-45.11249775683905
 21
-80.25997132523428
 31
0.0
 11
-45.16954013561855
 21
-80.03000155395377
 31
0.0
 11
-45.20683675498054
 21
-79.78489467168652
 31
0.0
 11
-45.21746163292102
 21
-79.53937583116866
 31
0.0
 11
-45.20284479379876
 21
-79.29307236620042
 31
0.0
 11
-45.15925310058219
 21
-79.03971591920174
 31
0.0
 11
-45.08165225909295
 21
-78.78699463351194
 31
0.0
 11
-44.96725059858862
 21
-78.54621550877116
 31
0.0
 11
-44.82584213067491
 21
-78.32859862623286
 31
0.0
  0
ENDBLK
  5
77
330
75
100
AcDbEntity
  8
0
100
AcDbBlockEnd
  0
BLOCK
  5
7A
330
78
100
AcDbEntity
  8
0
100
AcDbBlockBegin
  2
Bgr_8300_unten_1
 70
     0
 71
     0
 10
-44.50379639025096
 20
-648.810351511082
 30
0.0
  3
Bgr_8300_unten_1
  1

  0
INSERT
  5
79
330
78
100
AcDbEntity
  8
0
100
AcDbBlockReference
  2
8300-Klemmring__3
 10
-44.50379639025096
 20
-648.810351511082
 30
0.0
  0
ENDBLK
  5
7B
330
78
100
AcDbEntity
  8
0
100
AcDbBlockEnd
  0
BLOCK
  5
7D
330
7C
100
AcDbEntity
  8
0
100
AcDbBlockBegin
  2
8300-Dichtfolie_1_1
 70
     0
 71
     0
 10
-175.503796390251
 20
-779.810351511082
 30
0.0
  3
8300-Dichtfolie_1_1
  1

  0
LINE
  5
377
330
7C
100
AcDbEntity
  8
0
  6
Continuous
 62
     7
100
AcDbLine
 10
250.0
 20
250.0
 30
0.0
 11
250.0
 21
-250.0000000000001
 31
0.0
  0
LINE
  5
378
330
7C
100
AcDbEntity
  8
0
  6
Continuous
 62
     7
100
AcDbLine
 10
-250.0
 20
-250.0000000000001
 30
0.0
 11
250.0
 21
-250.0000000000001
 31
0.0
  0
LINE
  5
379
330
7C
100
AcDbEntity
  8
0
  6
Continuous
 62
     7
100
AcDbLine
 10
-250.0
 20
250.0
 30
0.0
 11
-250.0
 21
-250.0000000000001
 31
0.0
  0
LINE
  5
37A
330
7C
100
AcDbEntity
  8
0
  6
Continuous
 62
     7
100
AcDbLine
 10
-250.0
 20
250.0
 30
0.0
 11
250.0
 21
250.0
 31
0.0
  0
ARC
  5
37B
330
7C
100
AcDbEntity
  8
0
  6
Continuous
 62
     7
100
AcDbCircle
 10
0.0
 20
0.0
 30
0.0
 40
73.99999999999999
100
AcDbArc
 50
131.9804569084081
 51
138.0195430915918
  0
ARC
  5
37C
330
7C
100
AcDbEntity
  8
0
  6
Continuous
 62
     7
100
AcDbCircle
 10
0.0
 20
0.0
 30
0.0
 40
73.99999999999999
100
AcDbArc
 50
41.98045690840812
 51
48.01954309159189
  0
ARC
  5
37D
330
7C
100
AcDbEntity
  8
0
  6
Continuous
 62
     7
100
AcDbCircle
 10
0.0
 20
0.0
 30
0.0
 40
74.0
100
AcDbArc
 50
-138.019543091592
 51
-131.980456908408
  0
ARC
  5
37E
330
7C
100
AcDbEntity
  8
0
  6
Continuous
 62
     7
100
AcDbCircle
 10
0.0
 20
0.0
 30
0.0
 40
73.99999999999999
100
AcDbArc
 50
-48.01954309159189
 51
-41.98045690840812
  0
ARC
  5
37F
330
7C
100
AcDbEntity
  8
0
  6
Continuous
 62
     7
100
AcDbCircle
 10
0.0
 20
0.0
 30
0.0
 40
74.00000000000007
100
AcDbArc
 50
138.0195430915918
 51
-138.019543091592
  0
ARC
  5
380
330
7C
100
AcDbEntity
  8
0
  6
Continuous
 62
     7
100
AcDbCircle
 10
0.0
 20
0.0
 30
0.0
 40
73.99999999999999
100
AcDbArc
 50
-41.98045690840812
 51
41.98045690840812
  0
ARC
  5
381
330
7C
100
AcDbEntity
  8
0
  6
Continuous
 62
     7
100
AcDbCircle
 10
0.0
 20
0.0
 30
0.0
 40
73.99999999999999
100
AcDbArc
 50
48.01954309159189
 51
131.9804569084081
  0
ARC
  5
382
330
7C
100
AcDbEntity
  8
0
  6
Continuous
 62
     7
100
AcDbCircle
 10
0.0
 20
0.0
 30
0.0
 40
74.0
100
AcDbArc
 50
-131.980456908408
 51
-90.0
  0
ARC
  5
383
330
7C
100
AcDbEntity
  8
0
  6
Continuous
 62
     7
100
AcDbCircle
 10
0.0
 20
0.0
 30
0.0
 40
74.0
100
AcDbArc
 50
-90.0
 51
-48.01954309159189
  0
ENDBLK
  5
7E
330
7C
100
AcDbEntity
  8
0
100
AcDbBlockEnd
  0
BLOCK
  5
83
330
7F
100
AcDbEntity
  8
0
100
AcDbBlockBegin
  2
Bgr_Draufsicht
 70
     0
 71
     0
 10
-175.503796390251
 20
-779.810351511082
 30
0.0
  3
Bgr_Draufsicht
  1

  0
INSERT
  5
80
330
7F
100
AcDbEntity
  8
0
100
AcDbBlockReference
  2
Bgr_Blechschrauben_1
 10
-21.50379639025141
 20
-625.8103515110823
 30
0.0
  0
INSERT
  5
81
330
7F
100
AcDbEntity
  8
0
100
AcDbBlockReference
  2
Bgr_8300_unten_1
 10
-44.50379639025096
 20
-648.810351511082
 30
0.0
  0
INSERT
  5
82
330
7F
100
AcDbEntity
  8
0
100
AcDbBlockReference
  2
8300-Dichtfolie_1_1
 10
-175.503796390251
 20
-779.810351511082
 30
0.0
  0
ENDBLK
  5
84
330
7F
100
AcDbEntity
  8
0
100
AcDbBlockEnd
  0
BLOCK
  5
88
330
85
100
AcDbEntity
  8
0
100
AcDbBlockBegin
  2
Bgr_8300_1__4
 70
     0
 71
     0
 10
0.0
 20
0.0
 30
0.0
  3
Bgr_8300_1__4
  1

  0
INSERT
  5
86
330
85
100
AcDbEntity
  8
0
100
AcDbBlockReference
  2
Bgr_8300_1__2
 10
80.05532523838417
 20
-111.5358292721151
 30
0.0
  0
INSERT
  5
87
330
85
100
AcDbEntity
  8
0
100
AcDbBlockReference
  2
Bgr_Draufsicht
 10
-175.503796390251
 20
-779.810351511082
 30
0.0
  0
DIMENSION
  5
38F
330
85
100
AcDbEntity
  8
1
100
AcDbDimension
  2
*D19
 10
-250.0
 20
-291.451532093815
 30
0.0
 11
-12.87228682608861
 21
-284.451532093815
 31
0.0
 70
    32
  1
<>
 71
     5
 42
-1.0
 53
0.00013888888889
  3
ME10_DIM_10
100
AcDbAlignedDimension
 13
250.0
 23
-250.0000000000001
 33
0.0
 14
-250.0
 24
-250.0000000000001
 34
0.0
100
AcDbRotatedDimension
  0
DIMENSION
  5
39A
330
85
100
AcDbEntity
  8
1
100
AcDbDimension
  2
*D20
 10
269.620901185503
 20
-250.0
 30
0.0
 11
262.620901185503
 21
25.36648039144768
 31
0.0
 70
    32
  1
<>
 71
     5
 42
-1.0
 53
90.0
  3
ME10_DIM_11
100
AcDbAlignedDimension
 13
250.0
 23
250.0
 33
0.0
 14
250.0
 24
-250.0000000000001
 34
0.0
 50
90.0
100
AcDbRotatedDimension
  0
DIMENSION
  5
3A5
330
85
100
AcDbEntity
  8
1
100
AcDbDimension
  2
*D21
 10
-89.99999999999996
 20
-272.5898572819411
 30
0.0
 11
24.96796876420945
 21
-265.5898572819411
 31
0.0
 70
    32
  1
<>
 71
     5
 42
-1.0
 53
0.00013888888889
  3
ME10_DIM_12
100
AcDbAlignedDimension
 13
90.0
 23
-6.6000000001535
 33
0.0
 14
-90.0
 24
-6.59999999984746
 34
0.0
100
AcDbRotatedDimension
  0
DIMENSION
  5
3B0
330
85
100
AcDbEntity
  8
1
100
AcDbDimension
  2
*D22
 10
-54.37437714251028
 20
50.20287862362427
 30
0.0
 11
-20.48477524826512
 21
29.12600625110269
 31
0.0
 70
    33
  1
<>
 71
     5
 42
-1.0
 53
-41.98045690840815
  3
ME10_DIM_13
100
AcDbAlignedDimension
 13
55.0096032482021
 23
-49.49690445346448
 33
0.0
 14
-55.0096032482021
 24
49.4969044534646
 34
0.0
  0
INSERT
  5
3B8
330
85
100
AcDbEntity
  8
1
100
AcDbBlockReference
  2
*D23
 10
0.0
 20
0.0
 30
0.0
  0
ENDBLK
  5
89
330
85
100
AcDbEntity
  8
0
100
AcDbBlockEnd
  0
BLOCK
  5
38C
330
384
100
AcDbEntity
  8
0
100
AcDbBlockBegin
  2
*D19
 70
     1
 71
     0
 10
0.0
 20
0.0
 30
0.0
  3
*D19
  1

  0
LINE
  5
385
330
384
100
AcDbEntity
  8
1
  6
Continuous
 62
     4
100
AcDbLine
 10
-250.0
 20
-291.451532093815
 30
0.0
 11
250.0
 21
-291.451532093815
 31
0.0
  0
LINE
  5
386
330
384
100
AcDbEntity
  8
1
  6
Continuous
 62
     4
100
AcDbLine
 10
250.0
 20
-249.9999999999999
 30
0.0
 11
250.0
 21
-293.451532093815
 31
0.0
  0
LINE
  5
387
330
384
100
AcDbEntity
  8
1
  6
Continuous
 62
     4
100
AcDbLine
 10
-250.0
 20
-249.9999999999999
 30
0.0
 11
-250.0
 21
-293.451532093815
 31
0.0
  0
SOLID
  5
388
330
384
100
AcDbEntity
  8
1
 62
     4
100
AcDbTrace
 10
-240.0
 20
-290.135007117941
 30
0.0
 11
-240.0
 21
-292.768057069689
 31
0.0
 12
-250.0
 22
-291.451532093815
 32
0.0
 13
-250.0
 23
-291.451532093815
 33
0.0
  0
SOLID
  5
389
330
384
100
AcDbEntity
  8
1
 62
     4
100
AcDbTrace
 10
240.0
 20
-292.768057069689
 30
0.0
 11
240.0
 21
-290.135007117941
 31
0.0
 12
250.0
 22
-291.451532093815
 32
0.0
 13
250.0
 23
-291.451532093815
 33
0.0
  0
MTEXT
  5
38B
330
384
100
AcDbEntity
  8
1
 62
     1
100
AcDbMText
 10
-24.87228682608861
 20
-289.451532093815
 30
0.0
 40
10.0
 41
0.0
 71
     7
 72
     1
  1
500
  7
CONVERTER_11
 11
0.9999999999970619
 21
2.424068405545306E-6
 31
0.0
 73
     1
 44
0.60024009603842
  0
ENDBLK
  5
38D
330
384
100
AcDbEntity
  8
0
100
AcDbBlockEnd
  0
BLOCK
  5
397
330
390
100
AcDbEntity
  8
0
100
AcDbBlockBegin
  2
*D20
 70
     1
 71
     0
 10
0.0
 20
0.0
 30
0.0
  3
*D20
  1

  0
LINE
  5
391
330
390
100
AcDbEntity
  8
1
  6
Continuous
 62
     4
100
AcDbLine
 10
269.620901185503
 20
-250.0
 30
0.0
 11
269.620901185503
 21
250.0000000000001
 31
0.0
  0
LINE
  5
392
330
390
100
AcDbEntity
  8
1
  6
Continuous
 62
     4
100
AcDbLine
 10
250.0
 20
250.0000000000001
 30
0.0
 11
271.620901185503
 21
250.0000000000001
 31
0.0
  0
LINE
  5
393
330
390
100
AcDbEntity
  8
1
  6
Continuous
 62
     4
100
AcDbLine
 10
250.0
 20
-250.0
 30
0.0
 11
271.620901185503
 21
-250.0
 31
0.0
  0
SOLID
  5
394
330
390
100
AcDbEntity
  8
1
 62
     4
100
AcDbTrace
 10
268.304376209629
 20
-240.0
 30
0.0
 11
270.9374261613769
 21
-240.0
 31
0.0
 12
269.620901185503
 22
-250.0
 32
0.0
 13
269.620901185503
 23
-250.0
 33
0.0
  0
SOLID
  5
395
330
390
100
AcDbEntity
  8
1
 62
     4
100
AcDbTrace
 10
270.9374261613769
 20
240.0000000000001
 30
0.0
 11
268.304376209629
 21
240.0000000000001
 31
0.0
 12
269.620901185503
 22
250.0000000000001
 32
0.0
 13
269.620901185503
 23
250.0000000000001
 33
0.0
  0
MTEXT
  5
396
330
390
100
AcDbEntity
  8
1
 62
     1
100
AcDbMText
 10
267.620901185503
 20
13.36648039144768
 30
0.0
 40
10.0
 41
0.0
 71
     7
 72
     1
  1
500
  7
CONVERTER_11
 11
0.0
 21
1.0
 31
0.0
 73
     1
 44
0.60024009603842
  0
ENDBLK
  5
398
330
390
100
AcDbEntity
  8
0
100
AcDbBlockEnd
  0
BLOCK
  5
3A2
330
39B
100
AcDbEntity
  8
0
100
AcDbBlockBegin
  2
*D21
 70
     1
 71
     0
 10
0.0
 20
0.0
 30
0.0
  3
*D21
  1

  0
LINE
  5
39C
330
39B
100
AcDbEntity
  8
1
  6
Continuous
 62
     4
100
AcDbLine
 10
-89.99999999999996
 20
-272.5898572819411
 30
0.0
 11
90.00000000000004
 21
-272.5898572819411
 31
0.0
  0
LINE
  5
39D
330
39B
100
AcDbEntity
  8
1
  6
Continuous
 62
     4
100
AcDbLine
 10
90.00000000000003
 20
-6.60000000015356
 30
0.0
 11
90.00000000000003
 21
-274.5898572819411
 31
0.0
  0
LINE
  5
39E
330
39B
100
AcDbEntity
  8
1
  6
Continuous
 62
     4
100
AcDbLine
 10
-89.99999999999996
 20
-6.59999999984746
 30
0.0
 11
-89.99999999999996
 21
-274.5898572819411
 31
0.0
  0
SOLID
  5
39F
330
39B
100
AcDbEntity
  8
1
 62
     4
100
AcDbTrace
 10
-79.99999999999996
 20
-271.2733323060671
 30
0.0
 11
-79.99999999999996
 21
-273.906382257815
 31
0.0
 12
-89.99999999999996
 22
-272.5898572819411
 32
0.0
 13
-89.99999999999996
 23
-272.5898572819411
 33
0.0
  0
SOLID
  5
3A0
330
39B
100
AcDbEntity
  8
1
 62
     4
100
AcDbTrace
 10
80.00000000000004
 20
-273.906382257815
 30
0.0
 11
80.00000000000004
 21
-271.2733323060671
 31
0.0
 12
90.00000000000004
 22
-272.5898572819411
 32
0.0
 13
90.00000000000004
 23
-272.5898572819411
 33
0.0
  0
MTEXT
  5
3A1
330
39B
100
AcDbEntity
  8
1
 62
     1
100
AcDbMText
 10
14.46796876420945
 20
-270.5898572819411
 30
0.0
 40
10.0
 41
0.0
 71
     7
 72
     1
  1
180
  7
CONVERTER_11
 11
0.9999999999970619
 21
2.424068405545306E-6
 31
0.0
 73
     1
 44
0.60024009603842
  0
ENDBLK
  5
3A3
330
39B
100
AcDbEntity
  8
0
100
AcDbBlockEnd
  0
BLOCK
  5
3AD
330
3A6
100
AcDbEntity
  8
0
100
AcDbBlockBegin
  2
*D22
 70
     1
 71
     0
 10
0.0
 20
0.0
 30
0.0
  3
*D22
  1

  0
LINE
  5
3A7
330
3A6
100
AcDbEntity
  8
1
  6
Continuous
 62
     4
100
AcDbLine
 10
-54.37437714251028
 20
50.20287862362427
 30
0.0
 11
55.64482935389395
 21
-48.79093028330486
 31
0.0
  0
LINE
  5
3A8
330
3A6
100
AcDbEntity
  8
1
  6
Continuous
 62
     4
100
AcDbLine
 10
55.00960324820213
 20
-49.49690445346451
 30
0.0
 11
56.98258352831195
 21
-47.30418424956972
 31
0.0
  0
LINE
  5
3A9
330
3A6
100
AcDbEntity
  8
1
  6
Continuous
 62
     4
100
AcDbLine
 10
-55.00960324820208
 20
49.49690445346458
 30
0.0
 11
-53.03662296809229
 21
51.68962465735945
 31
0.0
  0
SOLID
  5
3AA
330
3A6
100
AcDbEntity
  8
1
 62
     4
100
AcDbTrace
 10
-46.06005358273391
 20
44.4927768946314
 30
0.0
 11
-47.8212403649348
 21
42.53543860843749
 31
0.0
 12
-54.37437714251028
 22
50.20287862362427
 32
0.0
 13
-54.37437714251028
 23
50.20287862362427
 33
0.0
  0
SOLID
  5
3AB
330
3A6
100
AcDbEntity
  8
1
 62
     4
100
AcDbTrace
 10
47.33050579411757
 20
-43.08082855431199
 30
0.0
 11
49.09169257631847
 21
-41.12349026811808
 31
0.0
 12
55.64482935389395
 22
-48.79093028330486
 32
0.0
 13
55.64482935389395
 23
-48.79093028330486
 33
0.0
  0
MTEXT
  5
3AC
330
3A6
100
AcDbEntity
  8
1
 62
     1
100
AcDbMText
 10
-45.46131547515705
 20
44.87346440454603
 30
0.0
 40
10.0
 41
0.0
 71
     7
 72
     1
  1
\C1;{\Fgdt;n}\C1;148
  7
CONVERTER_11
 11
0.7433730168675956
 21
-0.6688770872089802
 31
0.0
 73
     1
 44
0.60024009603842
  0
ENDBLK
  5
3AE
330
3A6
100
AcDbEntity
  8
0
100
AcDbBlockEnd
  0
BLOCK
  5
3B6
330
3B1
100
AcDbEntity
  8
0
100
AcDbBlockBegin
  2
*D23
 70
     1
 71
     0
 10
0.0
 20
0.0
 30
0.0
  3
*D23
  1

  0
LINE
  5
3B2
330
3B1
100
AcDbEntity
  8
1
  6
Continuous
 62
     4
100
AcDbLine
 10
-122.5312986719472
 20
-54.24095174096871
 30
0.0
 11
161.0066162306978
 21
71.27282739675525
 31
0.0
  0
SOLID
  5
3B3
330
3B1
100
AcDbEntity
  8
1
 62
     4
100
AcDbTrace
 10
117.4263280671569
 20
53.42088275830489
 30
0.0
 11
118.4921425101742
 21
51.01318850415728
 31
0.0
 12
108.8151085221024
 22
48.16920341175584
 32
0.0
 13
108.8151085221024
 23
48.16920341175584
 33
0.0
  0
SOLID
  5
3B4
330
3B1
100
AcDbEntity
  8
1
 62
     4
100
AcDbTrace
 10
-117.426328067157
 20
-53.42088275830486
 30
0.0
 11
-118.4921425101743
 21
-51.01318850415725
 31
0.0
 12
-108.8151085221024
 22
-48.16920341175582
 32
0.0
 13
-108.8151085221024
 23
-48.16920341175582
 33
0.0
  0
MTEXT
  5
3B5
330
3B1
100
AcDbEntity
  8
1
 62
     1
100
AcDbMText
 10
108.2584097527237
 20
50.10996574344831
 30
0.0
 40
10.0
 41
0.0
 71
     7
 72
     1
  1
\C1; {\Fgdt;n}\C1;238
  7
CONVERTER_11
 11
0.9144126766563216
 21
0.4047832219475276
 31
0.0
 73
     1
 44
0.60024009603842
  0
ENDBLK
  5
3B7
330
3B1
100
AcDbEntity
  8
0
100
AcDbBlockEnd
  0
ENDSEC
  0
SECTION
  2
ENTITIES
  0
INSERT
  5
8A
330
1F
100
AcDbEntity
  8
0
100
AcDbBlockReference
  2
Bgr_8300_1__4
 10
0.0
 20
0.0
 30
0.0
  0
ENDSEC
  0
SECTION
  2
OBJECTS
  0
DICTIONARY
  5
C
330
0
100
AcDbDictionary
281
     1
  3
ACAD_GROUP
350
D
  3
ACAD_LAYOUT
350
1A
  3
ACAD_MLINESTYLE
350
17
  3
ACAD_PLOTSETTINGS
350
19
  3
ACAD_PLOTSTYLENAME
350
E
  3
ACAD_TABLESTYLE
350
3B9
  3
ACAD_VISUALSTYLE
350
2A
  0
DICTIONARY
  5
D
102
{ACAD_REACTORS
330
C
102
}
330
C
100
AcDbDictionary
281
     1
  0
DICTIONARY
  5
1A
102
{ACAD_REACTORS
330
C
102
}
330
C
100
AcDbDictionary
281
     1
  3
Layout1
350
1E
  3
Layout2
350
26
  3
Model
350
22
  0
DICTIONARY
  5
17
102
{ACAD_REACTORS
330
C
102
}
330
C
100
AcDbDictionary
281
     1
  3
Standard
350
18
  0
DICTIONARY
  5
19
102
{ACAD_REACTORS
330
C
102
}
330
C
100
AcDbDictionary
281
     1
  0
ACDBDICTIONARYWDFLT
  5
E
102
{ACAD_REACTORS
330
C
102
}
330
C
100
AcDbDictionary
281
     1
  3
Normal
350
F
100
AcDbDictionaryWithDefault
340
F
  0
DICTIONARY
  5
3B9
102
{ACAD_REACTORS
330
C
102
}
330
C
100
AcDbDictionary
281
     1
  0
DICTIONARY
  5
2A
102
{ACAD_REACTORS
330
C
102
}
330
C
100
AcDbDictionary
281
     1
  3
2dWireframe
350
2F
  3
3D Hidden
350
31
  3
3dWireframe
350
30
  3
Basic
350
32
  3
Brighten
350
36
  3
ColorChange
350
3A
  3
Conceptual
350
34
  3
Dim
350
35
  3
Facepattern
350
39
  3
Flat
350
2B
  3
FlatWithEdges
350
2C
  3
Gouraud
350
2D
  3
GouraudWithEdges
350
2E
  3
Linepattern
350
38
  3
Realistic
350
33
  3
Thicken
350
37
  0
LAYOUT
  5
1E
102
{ACAD_REACTORS
330
1A
102
}
330
1A
100
AcDbPlotSettings
  1

  2
none_device
  4

  6

 40
0.0
 41
0.0
 42
0.0
 43
0.0
 44
0.0
 45
0.0
 46
0.0
 47
0.0
 48
0.0
 49
0.0
140
0.0
141
0.0
142
1.0
143
1.0
 70
   688
 72
     0
 73
     0
 74
     5
  7

 75
    16
147
1.0
148
0.0
149
0.0
100
AcDbLayout
  1
Layout1
 70
     1
 71
     1
 10
0.0
 20
0.0
 11
12.0
 21
9.0
 12
0.0
 22
0.0
 32
0.0
 14
1.00000000000000E+20
 24
1.00000000000000E+20
 34
1.00000000000000E+20
 15
-1.00000000000000E+20
 25
-1.00000000000000E+20
 35
-1.00000000000000E+20
146
0.0
 13
0.0
 23
0.0
 33
0.0
 16
1.0
 26
0.0
 36
0.0
 17
0.0
 27
1.0
 37
0.0
 76
     0
330
1B
  0
LAYOUT
  5
26
102
{ACAD_REACTORS
330
1A
102
}
330
1A
100
AcDbPlotSettings
  1

  2
none_device
  4

  6

 40
0.0
 41
0.0
 42
0.0
 43
0.0
 44
0.0
 45
0.0
 46
0.0
 47
0.0
 48
0.0
 49
0.0
140
0.0
141
0.0
142
1.0
143
1.0
 70
   688
 72
     0
 73
     0
 74
     5
  7

 75
    16
147
1.0
148
0.0
149
0.0
100
AcDbLayout
  1
Layout2
 70
     1
 71
     2
 10
0.0
 20
0.0
 11
0.0
 21
0.0
 12
0.0
 22
0.0
 32
0.0
 14
0.0
 24
0.0
 34
0.0
 15
0.0
 25
0.0
 35
0.0
146
0.0
 13
0.0
 23
0.0
 33
0.0
 16
1.0
 26
0.0
 36
0.0
 17
0.0
 27
1.0
 37
0.0
 76
     0
330
23
  0
LAYOUT
  5
22
102
{ACAD_REACTORS
330
1A
102
}
330
1A
100
AcDbPlotSettings
  1

  2
none_device
  4

  6

 40
0.0
 41
0.0
 42
0.0
 43
0.0
 44
0.0
 45
0.0
 46
0.0
 47
0.0
 48
0.0
 49
0.0
140
0.0
141
0.0
142
1.0
143
1.0
 70
  1712
 72
     0
 73
     0
 74
     0
  7

 75
     0
147
1.0
148
0.0
149
0.0
100
AcDbLayout
  1
Model
 70
     1
 71
     0
 10
0.0
 20
0.0
 11
12.0
 21
9.0
 12
0.0
 22
0.0
 32
0.0
 14
-259.6427506340938
 24
-293.451532093815
 34
0.0
 15
271.620901185503
 25
337.7685202252554
 35
0.0
146
0.0
 13
0.0
 23
0.0
 33
0.0
 16
1.0
 26
0.0
 36
0.0
 17
0.0
 27
1.0
 37
0.0
 76
     0
330
1F
331
29
  0
MLINESTYLE
  5
18
102
{ACAD_REACTORS
330
17
102
}
330
17
100
AcDbMlineStyle
  2
Standard
 70
     0
  3

 62
   256
 51
90.0
 52
90.0
 71
     2
 49
0.5
 62
   256
  6
BYLAYER
 49
-0.5
 62
   256
  6
BYLAYER
  0
ACDBPLACEHOLDER
  5
F
102
{ACAD_REACTORS
330
E
102
}
330
E
  0
VISUALSTYLE
  5
2F
102
{ACAD_REACTORS
330
2A
102
}
330
2A
100
AcDbVisualStyle
  2
2dWireframe
 70
     4
 71
     0
 72
     2
 73
     0
 90
        0
 40
-0.6
 41
-30.0
 62
     5
 63
     7
 74
     1
 91
        4
 64
     7
 65
   257
 75
     1
175
     1
 42
1.0
 92
        0
 66
   257
 43
1.0
 76
     1
 77
     6
 78
     2
 67
     7
 79
     5
170
     0
171
     0
290
     0
174
     0
 93
        1
 44
0.0
173
     0
291
     0
 45
0.0
1001
ACAD
1000
AcDbSavedByObjectVersion
1070
     0
  0
VISUALSTYLE
  5
31
102
{ACAD_REACTORS
330
2A
102
}
330
2A
100
AcDbVisualStyle
  2
3D Hidden
 70
     6
 71
     1
 72
     2
 73
     2
 90
        0
 40
-0.6
 41
-30.0
 62
     5
 63
     7
 74
     2
 91
        2
 64
     7
 65
   257
 75
     2
175
     1
 42
40.0
 92
        0
 66
   257
 43
1.0
 76
     1
 77
     6
 78
     2
 67
     7
 79
     3
170
     0
171
     0
290
     0
174
     0
 93
        1
 44
0.0
173
     0
291
     0
 45
0.0
1001
ACAD
1000
AcDbSavedByObjectVersion
1070
     0
  0
VISUALSTYLE
  5
30
102
{ACAD_REACTORS
330
2A
102
}
330
2A
100
AcDbVisualStyle
  2
3dWireframe
 70
     5
 71
     0
 72
     2
 73
     0
 90
        0
 40
-0.6
 41
-30.0
 62
     5
 63
     7
 74
     1
 91
        4
 64
     7
 65
   257
 75
     1
175
     1
 42
1.0
 92
        0
 66
   257
 43
1.0
 76
     1
 77
     6
 78
     2
 67
     7
 79
     5
170
     0
171
     0
290
     0
174
     0
 93
        1
 44
0.0
173
     0
291
     0
 45
0.0
1001
ACAD
1000
AcDbSavedByObjectVersion
1070
     0
  0
VISUALSTYLE
  5
32
102
{ACAD_REACTORS
330
2A
102
}
330
2A
100
AcDbVisualStyle
  2
Basic
 70
     7
 71
     1
 72
     0
 73
     1
 90
        0
 40
-0.6
 41
-30.0
 62
     5
 63
     7
 74
     0
 91
        4
 64
     7
 65
   257
 75
     1
175
     1
 42
1.0
 92
        8
 66
     7
 43
1.0
 76
     1
 77
     6
 78
     2
 67
     7
 79
     5
170
     0
171
     0
290
     0
174
     0
 93
        1
 44
0.0
173
     0
291
     1
 45
0.0
1001
ACAD
1000
AcDbSavedByObjectVersion
1070
     0
  0
VISUALSTYLE
  5
36
102
{ACAD_REACTORS
330
2A
102
}
330
2A
100
AcDbVisualStyle
  2
Brighten
 70
    12
 71
     2
 72
     2
 73
     0
 90
        0
 40
-0.6
 41
-30.0
 62
     5
 63
     7
 74
     1
 91
        4
 64
     7
 65
   257
 75
     1
175
     1
 42
1.0
 92
        8
 66
     7
 43
1.0
 76
     1
 77
     6
 78
     2
 67
     7
 79
     5
170
     0
171
     0
290
     0
174
     0
 93
        1
 44
50.0
173
     0
291
     1
 45
0.0
1001
ACAD
1000
AcDbSavedByObjectVersion
1070
     0
  0
VISUALSTYLE
  5
3A
102
{ACAD_REACTORS
330
2A
102
}
330
2A
100
AcDbVisualStyle
  2
ColorChange
 70
    16
 71
     2
 72
     2
 73
     3
 90
        0
 40
-0.6
 41
-30.0
 62
     5
 63
     8
 74
     1
 91
        4
 64
     7
 65
   257
 75
     1
175
     1
 42
1.0
 92
        8
 66
     8
 43
1.0
 76
     1
 77
     6
 78
     2
 67
     7
 79
     5
170
     0
171
     0
290
     0
174
     0
 93
        1
 44
0.0
173
     0
291
     1
 45
0.0
1001
ACAD
1000
AcDbSavedByObjectVersion
1070
     0
  0
VISUALSTYLE
  5
34
102
{ACAD_REACTORS
330
2A
102
}
330
2A
100
AcDbVisualStyle
  2
Conceptual
 70
     9
 71
     3
 72
     2
 73
     0
 90
        0
 40
-0.6
 41
-30.0
 62
     5
 63
     7
 74
     2
 91
        2
 64
     7
 65
   257
 75
     1
175
     1
 42
40.0
 92
        8
 66
     7
 43
1.0
 76
     1
 77
     6
 78
     2
 67
     7
 79
     3
170
     0
171
     0
290
     0
174
     0
 93
        1
 44
0.0
173
     0
291
     0
 45
0.0
1001
ACAD
1000
AcDbSavedByObjectVersion
1070
     0
  0
VISUALSTYLE
  5
35
102
{ACAD_REACTORS
330
2A
102
}
330
2A
100
AcDbVisualStyle
  2
Dim
 70
    11
 71
     2
 72
     2
 73
     0
 90
        0
 40
-0.6
 41
-30.0
 62
     5
 63
     7
 74
     1
 91
        4
 64
     7
 65
   257
 75
     1
175
     1
 42
1.0
 92
        8
 66
     7
 43
1.0
 76
     1
 77
     6
 78
     2
 67
     7
 79
     5
170
     0
171
     0
290
     0
174
     0
 93
        1
 44
-50.0
173
     0
291
     1
 45
0.0
1001
ACAD
1000
AcDbSavedByObjectVersion
1070
     0
  0
VISUALSTYLE
  5
39
102
{ACAD_REACTORS
330
2A
102
}
330
2A
100
AcDbVisualStyle
  2
Facepattern
 70
    15
 71
     2
 72
     2
 73
     0
 90
        0
 40
-0.6
 41
-30.0
 62
     5
 63
     7
 74
     1
 91
        4
 64
     7
 65
   257
 75
     1
175
     1
 42
1.0
 92
        8
 66
     7
 43
1.0
 76
     1
 77
     6
 78
     2
 67
     7
 79
     5
170
     0
171
     0
290
     0
174
     0
 93
        1
 44
0.0
173
     0
291
     1
 45
0.0
1001
ACAD
1000
AcDbSavedByObjectVersion
1070
     0
  0
VISUALSTYLE
  5
2B
102
{ACAD_REACTORS
330
2A
102
}
330
2A
100
AcDbVisualStyle
  2
Flat
 70
     0
 71
     2
 72
     1
 73
     1
 90
        2
 40
-0.6
 41
30.0
 62
     5
 63
     7
 74
     0
 91
        4
 64
     7
 65
   257
 75
     1
175
     1
 42
1.0
 92
        8
 66
     7
 43
1.0
 76
     1
 77
     6
 78
     2
 67
     7
 79
     5
170
     0
171
     0
290
     0
174
     0
 93
       13
 44
0.0
173
     0
291
     1
 45
0.0
1001
ACAD
1000
AcDbSavedByObjectVersion
1070
     0
  0
VISUALSTYLE
  5
2C
102
{ACAD_REACTORS
330
2A
102
}
330
2A
100
AcDbVisualStyle
  2
FlatWithEdges
 70
     1
 71
     2
 72
     1
 73
     1
 90
        2
 40
-0.6
 41
30.0
 62
     5
 63
     7
 74
     1
 91
        4
 64
     7
 65
   257
 75
     1
175
     1
 42
1.0
 92
        0
 66
   257
 43
1.0
 76
     1
 77
     6
 78
     2
 67
     7
 79
     5
170
     0
171
     0
290
     0
174
     0
 93
       13
 44
0.0
173
     0
291
     1
 45
0.0
1001
ACAD
1000
AcDbSavedByObjectVersion
1070
     0
  0
VISUALSTYLE
  5
2D
102
{ACAD_REACTORS
330
2A
102
}
330
2A
100
AcDbVisualStyle
  2
Gouraud
 70
     2
 71
     2
 72
     2
 73
     1
 90
        2
 40
-0.6
 41
30.0
 62
     5
 63
     7
 74
     0
 91
        4
 64
     7
 65
   257
 75
     1
175
     1
 42
1.0
 92
        0
 66
     7
 43
1.0
 76
     1
 77
     6
 78
     2
 67
     7
 79
     5
170
     0
171
     0
290
     0
174
     0
 93
       13
 44
0.0
173
     0
291
     1
 45
0.0
1001
ACAD
1000
AcDbSavedByObjectVersion
1070
     0
  0
VISUALSTYLE
  5
2E
102
{ACAD_REACTORS
330
2A
102
}
330
2A
100
AcDbVisualStyle
  2
GouraudWithEdges
 70
     3
 71
     2
 72
     2
 73
     1
 90
        2
 40
-0.6
 41
30.0
 62
     5
 63
     7
 74
     1
 91
        4
 64
     7
 65
   257
 75
     1
175
     1
 42
1.0
 92
        0
 66
   257
 43
1.0
 76
     1
 77
     6
 78
     2
 67
     7
 79
     5
170
     0
171
     0
290
     0
174
     0
 93
       13
 44
0.0
173
     0
291
     1
 45
0.0
1001
ACAD
1000
AcDbSavedByObjectVersion
1070
     0
  0
VISUALSTYLE
  5
38
102
{ACAD_REACTORS
330
2A
102
}
330
2A
100
AcDbVisualStyle
  2
Linepattern
 70
    14
 71
     2
 72
     2
 73
     0
 90
        0
 40
-0.6
 41
-30.0
 62
     5
 63
     7
 74
     1
 91
        4
 64
     7
 65
   257
 75
     7
175
     7
 42
1.0
 92
        8
 66
     7
 43
1.0
 76
     1
 77
     6
 78
     2
 67
     7
 79
     5
170
     0
171
     0
290
     0
174
     0
 93
        1
 44
0.0
173
     0
291
     1
 45
0.0
1001
ACAD
1000
AcDbSavedByObjectVersion
1070
     0
  0
VISUALSTYLE
  5
33
102
{ACAD_REACTORS
330
2A
102
}
330
2A
100
AcDbVisualStyle
  2
Realistic
 70
     8
 71
     2
 72
     2
 73
     0
 90
        0
 40
-0.6
 41
-30.0
 62
     5
 63
     7
 74
     1
 91
        0
 64
     7
 65
   257
 75
     1
175
     1
 42
1.0
 92
        8
 66
     8
 43
1.0
 76
     1
 77
     6
 78
     2
 67
     7
 79
     5
170
     0
171
     0
290
     0
174
     0
 93
       13
 44
0.0
173
     0
291
     0
 45
0.0
1001
ACAD
1000
AcDbSavedByObjectVersion
1070
     0
  0
VISUALSTYLE
  5
37
102
{ACAD_REACTORS
330
2A
102
}
330
2A
100
AcDbVisualStyle
  2
Thicken
 70
    13
 71
     2
 72
     2
 73
     0
 90
        0
 40
-0.6
 41
-30.0
 62
     5
 63
     7
 74
     1
 91
        4
 64
     7
 65
   257
 75
     1
175
     1
 42
1.0
 92
       12
 66
     7
 43
1.0
 76
     1
 77
     6
 78
     2
 67
     7
 79
     5
170
     0
171
     0
290
     0
174
     0
 93
        1
 44
0.0
173
     0
291
     1
 45
0.0
1001
ACAD
1000
AcDbSavedByObjectVersion
1070
     0
  0
ENDSEC
  0
EOF
