  0
SECTION
  2
HEADER
  9
$ACADVER
  1
AC1015
  9
$ACADMAINTVER
 70
     6
  9
$DWGCODEPAGE
  3
ANSI_1252
  9
$INSBASE
 10
0.0
 20
0.0
 30
0.0
  9
$EXTMIN
 10
826.8931532557301
 20
-1782.84543270091
 30
0.0
  9
$EXTMAX
 10
1252.24124178692
 20
-1227.2917896691
 30
0.0
  9
$LIMMIN
 10
0.0
 20
0.0
  9
$LIMMAX
 10
12.0
 20
9.0
  9
$ORTHOMODE
 70
     0
  9
$REGENMODE
 70
     1
  9
$FILLMODE
 70
     1
  9
$QTEXTMODE
 70
     0
  9
$MIRRTEXT
 70
     1
  9
$LTSCALE
 40
1.0
  9
$ATTMODE
 70
     1
  9
$TEXTSIZE
 40
0.2
  9
$TRACEWID
 40
0.05
  9
$TEXTSTYLE
  7
Standard
  9
$CLAYER
  8
0
  9
$CELTYPE
  6
ByLayer
  9
$CECOLOR
 62
   256
  9
$CELTSCALE
 40
1.0
  9
$DISPSILH
 70
     0
  9
$DIMSCALE
 40
1.0
  9
$DIMASZ
 40
0.18
  9
$DIMEXO
 40
0.0625
  9
$DIMDLI
 40
0.38
  9
$DIMRND
 40
0.0
  9
$DIMDLE
 40
0.0
  9
$DIMEXE
 40
0.18
  9
$DIMTP
 40
0.0
  9
$DIMTM
 40
0.0
  9
$DIMTXT
 40
0.18
  9
$DIMCEN
 40
0.09
  9
$DIMTSZ
 40
0.0
  9
$DIMTOL
 70
     0
  9
$DIMLIM
 70
     0
  9
$DIMTIH
 70
     1
  9
$DIMTOH
 70
     1
  9
$DIMSE1
 70
     0
  9
$DIMSE2
 70
     0
  9
$DIMTAD
 70
     0
  9
$DIMZIN
 70
     0
  9
$DIMBLK
  1

  9
$DIMASO
 70
     1
  9
$DIMSHO
 70
     1
  9
$DIMPOST
  1

  9
$DIMAPOST
  1

  9
$DIMALT
 70
     0
  9
$DIMALTD
 70
     2
  9
$DIMALTF
 40
25.4
  9
$DIMLFAC
 40
1.0
  9
$DIMTOFL
 70
     0
  9
$DIMTVP
 40
0.0
  9
$DIMTIX
 70
     0
  9
$DIMSOXD
 70
     0
  9
$DIMSAH
 70
     0
  9
$DIMBLK1
  1

  9
$DIMBLK2
  1

  9
$DIMSTYLE
  2
Standard
  9
$DIMCLRD
 70
     0
  9
$DIMCLRE
 70
     0
  9
$DIMCLRT
 70
     0
  9
$DIMTFAC
 40
1.0
  9
$DIMGAP
 40
0.09
  9
$DIMJUST
 70
     0
  9
$DIMSD1
 70
     0
  9
$DIMSD2
 70
     0
  9
$DIMTOLJ
 70
     1
  9
$DIMTZIN
 70
     0
  9
$DIMALTZ
 70
     0
  9
$DIMALTTZ
 70
     0
  9
$DIMUPT
 70
     0
  9
$DIMDEC
 70
     4
  9
$DIMTDEC
 70
     4
  9
$DIMALTU
 70
     2
  9
$DIMALTTD
 70
     2
  9
$DIMTXSTY
  7
Standard
  9
$DIMAUNIT
 70
     0
  9
$DIMADEC
 70
     0
  9
$DIMALTRND
 40
0.0
  9
$DIMAZIN
 70
     0
  9
$DIMDSEP
 70
    46
  9
$DIMATFIT
 70
     3
  9
$DIMFRAC
 70
     0
  9
$DIMLDRBLK
  1

  9
$DIMLUNIT
 70
     2
  9
$DIMLWD
 70
    -2
  9
$DIMLWE
 70
    -2
  9
$DIMTMOVE
 70
     0
  9
$LUNITS
 70
     2
  9
$LUPREC
 70
     4
  9
$SKETCHINC
 40
0.1
  9
$FILLETRAD
 40
0.5
  9
$AUNITS
 70
     0
  9
$AUPREC
 70
     0
  9
$MENU
  1
.
  9
$ELEVATION
 40
0.0
  9
$PELEVATION
 40
0.0
  9
$THICKNESS
 40
0.0
  9
$LIMCHECK
 70
     0
  9
$CHAMFERA
 40
0.5
  9
$CHAMFERB
 40
0.5
  9
$CHAMFERC
 40
1.0
  9
$CHAMFERD
 40
0.0
  9
$SKPOLY
 70
     0
  9
$TDCREATE
 40
2454704.45809331
  9
$TDUCREATE
 40
2454704.374759977
  9
$TDUPDATE
 40
2454704.458093322
  9
$TDUUPDATE
 40
2454704.374759988
  9
$TDINDWG
 40
0.0000000116
  9
$TDUSRTIMER
 40
0.0000000116
  9
$USRTIMER
 70
     1
  9
$ANGBASE
 50
0.0
  9
$ANGDIR
 70
     0
  9
$PDMODE
 70
     0
  9
$PDSIZE
 40
0.0
  9
$PLINEWID
 40
0.0
  9
$SPLFRAME
 70
     0
  9
$SPLINETYPE
 70
     6
  9
$SPLINESEGS
 70
     8
  9
$HANDSEED
  5
27A
  9
$SURFTAB1
 70
     6
  9
$SURFTAB2
 70
     6
  9
$SURFTYPE
 70
     6
  9
$SURFU
 70
     6
  9
$SURFV
 70
     6
  9
$UCSBASE
  2

  9
$UCSNAME
  2

  9
$UCSORG
 10
0.0
 20
0.0
 30
0.0
  9
$UCSXDIR
 10
1.0
 20
0.0
 30
0.0
  9
$UCSYDIR
 10
0.0
 20
1.0
 30
0.0
  9
$UCSORTHOREF
  2

  9
$UCSORTHOVIEW
 70
     0
  9
$UCSORGTOP
 10
0.0
 20
0.0
 30
0.0
  9
$UCSORGBOTTOM
 10
0.0
 20
0.0
 30
0.0
  9
$UCSORGLEFT
 10
0.0
 20
0.0
 30
0.0
  9
$UCSORGRIGHT
 10
0.0
 20
0.0
 30
0.0
  9
$UCSORGFRONT
 10
0.0
 20
0.0
 30
0.0
  9
$UCSORGBACK
 10
0.0
 20
0.0
 30
0.0
  9
$PUCSBASE
  2

  9
$PUCSNAME
  2

  9
$PUCSORG
 10
0.0
 20
0.0
 30
0.0
  9
$PUCSXDIR
 10
1.0
 20
0.0
 30
0.0
  9
$PUCSYDIR
 10
0.0
 20
1.0
 30
0.0
  9
$PUCSORTHOREF
  2

  9
$PUCSORTHOVIEW
 70
     0
  9
$PUCSORGTOP
 10
0.0
 20
0.0
 30
0.0
  9
$PUCSORGBOTTOM
 10
0.0
 20
0.0
 30
0.0
  9
$PUCSORGLEFT
 10
0.0
 20
0.0
 30
0.0
  9
$PUCSORGRIGHT
 10
0.0
 20
0.0
 30
0.0
  9
$PUCSORGFRONT
 10
0.0
 20
0.0
 30
0.0
  9
$PUCSORGBACK
 10
0.0
 20
0.0
 30
0.0
  9
$USERI1
 70
     0
  9
$USERI2
 70
     0
  9
$USERI3
 70
     0
  9
$USERI4
 70
     0
  9
$USERI5
 70
     0
  9
$USERR1
 40
15.5
  9
$USERR2
 40
0.0
  9
$USERR3
 40
0.0
  9
$USERR4
 40
0.0
  9
$USERR5
 40
0.0
  9
$WORLDVIEW
 70
     1
  9
$SHADEDGE
 70
     3
  9
$SHADEDIF
 70
    70
  9
$TILEMODE
 70
     1
  9
$MAXACTVP
 70
    64
  9
$PINSBASE
 10
0.0
 20
0.0
 30
0.0
  9
$PLIMCHECK
 70
     0
  9
$PEXTMIN
 10
1.00000000000000E+20
 20
1.00000000000000E+20
 30
1.00000000000000E+20
  9
$PEXTMAX
 10
-1.00000000000000E+20
 20
-1.00000000000000E+20
 30
-1.00000000000000E+20
  9
$PLIMMIN
 10
0.0
 20
0.0
  9
$PLIMMAX
 10
12.0
 20
9.0
  9
$UNITMODE
 70
     0
  9
$VISRETAIN
 70
     1
  9
$PLINEGEN
 70
     0
  9
$PSLTSCALE
 70
     1
  9
$TREEDEPTH
 70
  3020
  9
$CMLSTYLE
  2
Standard
  9
$CMLJUST
 70
     0
  9
$CMLSCALE
 40
1.0
  9
$PROXYGRAPHICS
 70
     1
  9
$MEASUREMENT
 70
     1
  9
$CELWEIGHT
370
    -1
  9
$ENDCAPS
280
     0
  9
$JOINSTYLE
280
     0
  9
$LWDISPLAY
290
     0
  9
$INSUNITS
 70
     1
  9
$HYPERLINKBASE
  1

  9
$STYLESHEET
  1

  9
$XEDIT
290
     1
  9
$CEPSNTYPE
380
     0
  9
$PSTYLEMODE
290
     1
  9
$FINGERPRINTGUID
  2
{A1795360-87AE-4338-AB57-70A5EEE704C1}
  9
$VERSIONGUID
  2
{FAEB1C32-E019-11D5-929B-00C0DF256EC4}
  9
$EXTNAMES
290
     1
  9
$PSVPSCALE
 40
0.0
  9
$OLESTARTUP
290
     0
  0
ENDSEC
  0
SECTION
  2
CLASSES
  0
CLASS
  1
ACDBDICTIONARYWDFLT
  2
AcDbDictionaryWithDefault
  3
ObjectDBX Classes
 90
        0
280
     0
281
     0
  0
CLASS
  1
VISUALSTYLE
  2
AcDbVisualStyle
  3
ObjectDBX Classes
 90
     4095
280
     0
281
     0
  0
CLASS
  1

  2
exOdDbCircle
  3

 90
        0
280
     0
281
     1
  0
CLASS
  1

  2
exOdDbSpline
  3

 90
        0
280
     0
281
     1
  0
CLASS
  1
ACDBPLACEHOLDER
  2
AcDbPlaceHolder
  3
ObjectDBX Classes
 90
        0
280
     0
281
     0
  0
CLASS
  1
LAYOUT
  2
AcDbLayout
  3
ObjectDBX Classes
 90
        0
280
     0
281
     0
  0
ENDSEC
  0
SECTION
  2
TABLES
  0
TABLE
  2
VPORT
  5
8
330
0
100
AcDbSymbolTable
 70
     1
  0
VPORT
  5
29
330
8
100
AcDbSymbolTableRecord
100
AcDbViewportTableRecord
  2
*Active
 70
     0
 10
0.0
 20
0.0
 11
1.0
 21
1.0
 12
1039.567197521325
 22
-1505.068611185005
 13
0.0
 23
0.0
 14
0.5
 24
0.5
 15
0.5
 25
0.5
 16
0.0
 26
0.0
 36
1.0
 17
0.0
 27
0.0
 37
0.0
 40
611.109007334991
 41
1.60267857142857
 42
50.0
 43
0.0
 44
0.0
 50
0.0
 51
0.0
 71
     0
 72
   100
 73
     1
 74
     3
 75
     0
 76
     0
 77
     0
 78
     0
281
     0
 65
     1
110
0.0
120
0.0
130
0.0
111
1.0
121
0.0
131
0.0
112
0.0
122
1.0
132
0.0
 79
     0
146
0.0
  0
ENDTAB
  0
TABLE
  2
LTYPE
  5
5
330
0
100
AcDbSymbolTable
 70
     8
  0
LTYPE
  5
14
330
5
100
AcDbSymbolTableRecord
100
AcDbLinetypeTableRecord
  2
ByBlock
 70
     0
  3

 72
    65
 73
     0
 40
0.0
  0
LTYPE
  5
15
330
5
100
AcDbSymbolTableRecord
100
AcDbLinetypeTableRecord
  2
ByLayer
 70
     0
  3

 72
    65
 73
     0
 40
0.0
  0
LTYPE
  5
16
330
5
100
AcDbSymbolTableRecord
100
AcDbLinetypeTableRecord
  2
Continuous
 70
     0
  3
Solid line
 72
    65
 73
     0
 40
0.0
  0
LTYPE
  5
3B
330
5
100
AcDbSymbolTableRecord
100
AcDbLinetypeTableRecord
  2
DASHED
 70
     0
  3
Dashed
 72
    65
 73
     2
 40
15.0
 49
7.0
 74
     0
 49
-8.0
 74
     0
  0
LTYPE
  5
3C
330
5
100
AcDbSymbolTableRecord
100
AcDbLinetypeTableRecord
  2
DOTTED
 70
     0
  3
Dotted
 72
    65
 73
     2
 40
1.0
 49
0.0
 74
     0
 49
-1.0
 74
     0
  0
LTYPE
  5
3D
330
5
100
AcDbSymbolTableRecord
100
AcDbLinetypeTableRecord
  2
DOT_CENTER
 70
     0
  3
Dot_Center
 72
    65
 73
     4
 40
14.0
 49
12.0
 74
     0
 49
-1.0
 74
     0
 49
0.0
 74
     0
 49
-1.0
 74
     0
  0
LTYPE
  5
3E
330
5
100
AcDbSymbolTableRecord
100
AcDbLinetypeTableRecord
  2
LONG_DASHED
 70
     0
  3
Long_Dashed
 72
    65
 73
     2
 40
15.0
 49
10.0
 74
     0
 49
-5.0
 74
     0
  0
LTYPE
  5
3F
330
5
100
AcDbSymbolTableRecord
100
AcDbLinetypeTableRecord
  2
DASH_CENTER
 70
     0
  3
Dash_Center
 72
    65
 73
     4
 40
14.0
 49
11.0
 74
     0
 49
-1.0
 74
     0
 49
1.0
 74
     0
 49
-1.0
 74
     0
  0
LTYPE
  5
40
330
5
100
AcDbSymbolTableRecord
100
AcDbLinetypeTableRecord
  2
PHANTOM
 70
     0
  3
Phantom
 72
    65
 73
     6
 40
13.0
 49
10.0
 74
     0
 49
-1.0
 74
     0
 49
0.0
 74
     0
 49
-1.0
 74
     0
 49
0.0
 74
     0
 49
-1.0
 74
     0
  0
LTYPE
  5
41
330
5
100
AcDbSymbolTableRecord
100
AcDbLinetypeTableRecord
  2
CENTER_DASH_DASH
 70
     0
  3
Center_Dash_Dash
 72
    65
 73
     6
 40
14.0
 49
9.0
 74
     0
 49
-1.0
 74
     0
 49
1.0
 74
     0
 49
-1.0
 74
     0
 49
1.0
 74
     0
 49
-1.0
 74
     0
  0
ENDTAB
  0
TABLE
  2
LAYER
  5
2
330
0
100
AcDbSymbolTable
 70
     2
  0
LAYER
  5
10
330
2
100
AcDbSymbolTableRecord
100
AcDbLayerTableRecord
  2
0
 70
     0
 62
     7
  6
Continuous
370
    -3
390
F
  0
LAYER
  5
42
330
2
100
AcDbSymbolTableRecord
100
AcDbLayerTableRecord
  2
1
 70
     0
 62
     7
  6
Continuous
370
    -3
390
F
  0
ENDTAB
  0
TABLE
  2
STYLE
  5
3
330
0
100
AcDbSymbolTable
 70
     2
  0
STYLE
  5
11
330
3
100
AcDbSymbolTableRecord
100
AcDbTextStyleTableRecord
  2
Standard
 70
     0
 40
0.0
 41
1.0
 50
0.0
 71
     0
 42
0.2
  3
txt
  4

  0
STYLE
  5
24D
330
3
100
AcDbSymbolTableRecord
100
AcDbTextStyleTableRecord
  2
CONVERTER_11
 70
     0
 40
0.0
 41
0.9
 50
0.0
 71
     0
 42
0.2
  3
txt.shx
  4

  0
ENDTAB
  0
TABLE
  2
VIEW
  5
6
330
0
100
AcDbSymbolTable
 70
     0
  0
ENDTAB
  0
TABLE
  2
UCS
  5
7
330
0
100
AcDbSymbolTable
 70
     0
  0
ENDTAB
  0
TABLE
  2
APPID
  5
9
330
0
100
AcDbSymbolTable
 70
     1
  0
APPID
  5
12
330
9
100
AcDbSymbolTableRecord
100
AcDbRegAppTableRecord
  2
ACAD
 70
     0
  0
ENDTAB
  0
TABLE
  2
DIMSTYLE
  5
A
330
0
100
AcDbSymbolTable
 70
     4
100
AcDbDimStyleTable
  0
DIMSTYLE
105
27
330
A
100
AcDbSymbolTableRecord
100
AcDbDimStyleTableRecord
  2
Standard
 70
     0
340
11
  0
DIMSTYLE
105
251
102
{ACAD_REACTORS
330
252
102
}
330
A
100
AcDbSymbolTableRecord
100
AcDbDimStyleTableRecord
  2
ME10_DIM_10
 70
     0
 41
10.0
 42
0.0
 44
2.0
 73
     0
 74
     0
 77
     1
 78
     8
140
10.0
147
2.0
172
     1
173
     1
176
     4
177
     4
178
     1
271
     2
340
24D
  0
DIMSTYLE
105
25C
102
{ACAD_REACTORS
330
25D
102
}
330
A
100
AcDbSymbolTableRecord
100
AcDbDimStyleTableRecord
  2
ME10_DIM_11
 70
     0
 41
10.0
 42
0.0
 44
2.0
 73
     0
 74
     0
 77
     1
 78
     8
140
10.0
147
2.0
172
     1
173
     1
176
     4
177
     4
178
     1
271
     2
340
24D
  0
DIMSTYLE
105
267
102
{ACAD_REACTORS
330
268
102
}
330
A
100
AcDbSymbolTableRecord
100
AcDbDimStyleTableRecord
  2
ME10_DIM_12
 70
     0
 41
10.0
 42
0.0
 44
2.0
 73
     0
 74
     0
 77
     1
 78
     8
140
10.0
147
2.0
172
     1
173
     1
176
     4
177
     4
178
     1
271
     2
340
24D
  0
ENDTAB
  0
TABLE
  2
BLOCK_RECORD
  5
1
330
0
100
AcDbSymbolTable
 70
    17
  0
BLOCK_RECORD
  5
1F
330
1
100
AcDbSymbolTableRecord
100
AcDbBlockTableRecord
  2
*Model_Space
340
22
  0
BLOCK_RECORD
  5
1B
330
1
100
AcDbSymbolTableRecord
100
AcDbBlockTableRecord
  2
*Paper_Space
340
1E
  0
BLOCK_RECORD
  5
23
330
1
100
AcDbSymbolTableRecord
100
AcDbBlockTableRecord
  2
*Paper_Space0
340
26
  0
BLOCK_RECORD
  5
43
330
1
100
AcDbSymbolTableRecord
100
AcDbBlockTableRecord
  2
HL_83_Lippendichtung
340
0
102
{BLKREFS
331
64
102
}
  0
BLOCK_RECORD
  5
46
330
1
100
AcDbSymbolTableRecord
100
AcDbBlockTableRecord
  2
EPDM_Folie_400x400
340
0
102
{BLKREFS
331
65
102
}
  0
BLOCK_RECORD
  5
49
330
1
100
AcDbSymbolTableRecord
100
AcDbBlockTableRecord
  2
HL_83_Niroflansch
340
0
102
{BLKREFS
331
66
102
}
  0
BLOCK_RECORD
  5
4C
330
1
100
AcDbSymbolTableRecord
100
AcDbBlockTableRecord
  2
Blechschraube6_3x19_2_3_2__1
340
0
102
{BLKREFS
331
67
102
}
  0
BLOCK_RECORD
  5
4F
330
1
100
AcDbSymbolTableRecord
100
AcDbBlockTableRecord
  2
Blechschraube6_3x19_2_3_2__2
340
0
102
{BLKREFS
331
68
102
}
  0
BLOCK_RECORD
  5
52
330
1
100
AcDbSymbolTableRecord
100
AcDbBlockTableRecord
  2
Blechschraube6_3x19_2_3_2__3
340
0
102
{BLKREFS
331
69
102
}
  0
BLOCK_RECORD
  5
55
330
1
100
AcDbSymbolTableRecord
100
AcDbBlockTableRecord
  2
Blechschraube6_3x19_2_3_2__4
340
0
102
{BLKREFS
331
6A
102
}
  0
BLOCK_RECORD
  5
58
330
1
100
AcDbSymbolTableRecord
100
AcDbBlockTableRecord
  2
Blechschraube6_3x19_2_3_2__5
340
0
102
{BLKREFS
331
6B
102
}
  0
BLOCK_RECORD
  5
5B
330
1
100
AcDbSymbolTableRecord
100
AcDbBlockTableRecord
  2
Blechschraube6_3x19_2_3_2__6
340
0
102
{BLKREFS
331
6C
102
}
  0
BLOCK_RECORD
  5
5E
330
1
100
AcDbSymbolTableRecord
100
AcDbBlockTableRecord
  2
Isolierfolie_EPDM
340
0
102
{BLKREFS
331
6D
102
}
  0
BLOCK_RECORD
  5
61
330
1
100
AcDbSymbolTableRecord
100
AcDbBlockTableRecord
  2
HL83-Klemmring-H4
340
0
102
{BLKREFS
331
6E
102
}
  0
BLOCK_RECORD
  5
247
330
1
100
AcDbSymbolTableRecord
100
AcDbBlockTableRecord
  2
*D12
340
0
  0
BLOCK_RECORD
  5
253
330
1
100
AcDbSymbolTableRecord
100
AcDbBlockTableRecord
  2
*D13
340
0
  0
BLOCK_RECORD
  5
25E
330
1
100
AcDbSymbolTableRecord
100
AcDbBlockTableRecord
  2
*D14
340
0
  0
BLOCK_RECORD
  5
269
330
1
100
AcDbSymbolTableRecord
100
AcDbBlockTableRecord
  2
*D15
340
0
102
{BLKREFS
331
270
102
}
  0
BLOCK_RECORD
  5
271
330
1
100
AcDbSymbolTableRecord
100
AcDbBlockTableRecord
  2
*D16
340
0
102
{BLKREFS
331
278
102
}
  0
ENDTAB
  0
ENDSEC
  0
SECTION
  2
BLOCKS
  0
BLOCK
  5
20
330
1F
100
AcDbEntity
  8
0
100
AcDbBlockBegin
  2
*Model_Space
 70
     0
 71
     0
 10
0.0
 20
0.0
 30
0.0
  3
*Model_Space
  1

  0
ENDBLK
  5
21
330
1F
100
AcDbEntity
  8
0
100
AcDbBlockEnd
  0
BLOCK
  5
1C
330
1B
100
AcDbEntity
 67
     1
  8
0
100
AcDbBlockBegin
  2
*Paper_Space
 70
     0
 71
     0
 10
0.0
 20
0.0
 30
0.0
  3
*Paper_Space
  1

  0
ENDBLK
  5
1D
330
1B
100
AcDbEntity
 67
     1
  8
0
100
AcDbBlockEnd
  0
BLOCK
  5
24
330
23
100
AcDbEntity
  8
0
100
AcDbBlockBegin
  2
*Paper_Space0
 70
     0
 71
     0
 10
0.0
 20
0.0
 30
0.0
  3
*Paper_Space0
  1

  0
ENDBLK
  5
25
330
23
100
AcDbEntity
  8
0
100
AcDbBlockEnd
  0
BLOCK
  5
44
330
43
100
AcDbEntity
  8
0
100
AcDbBlockBegin
  2
HL_83_Lippendichtung
 70
     0
 71
     0
 10
1026.89315325573
 20
-1293.22353674228
 30
0.0
  3
HL_83_Lippendichtung
  1

  0
LINE
  5
6F
330
43
100
AcDbEntity
  8
1
  6
Continuous
 62
     7
100
AcDbLine
 10
1026.89315325573
 20
-1285.72353674228
 30
0.0
 11
1116.39315325573
 21
-1285.72353674228
 31
0.0
  0
LINE
  5
70
330
43
100
AcDbEntity
  8
1
  6
Continuous
 62
     7
100
AcDbLine
 10
1116.89315325573
 20
-1293.22353674228
 30
0.0
 11
1117.89315325573
 21
-1292.22353674228
 31
0.0
  0
LINE
  5
71
330
43
100
AcDbEntity
  8
1
  6
Continuous
 62
     7
100
AcDbLine
 10
1117.89315325573
 20
-1292.22353674228
 30
0.0
 11
1117.89315325573
 21
-1286.589562146062
 31
0.0
  0
LINE
  5
72
330
43
100
AcDbEntity
  8
1
  6
Continuous
 62
     7
100
AcDbLine
 10
1117.89315325573
 20
-1286.589562146062
 30
0.0
 11
1116.39315325573
 21
-1285.72353674228
 31
0.0
  0
LINE
  5
73
330
43
100
AcDbEntity
  8
1
  6
Continuous
 62
     7
100
AcDbLine
 10
1026.89315325573
 20
-1293.22353674228
 30
0.0
 11
1116.89315325573
 21
-1293.22353674228
 31
0.0
  0
LINE
  5
74
330
43
100
AcDbEntity
  8
1
  6
Continuous
 62
     7
100
AcDbLine
 10
937.3931532557301
 20
-1285.72353674228
 30
0.0
 11
1026.89315325573
 21
-1285.72353674228
 31
0.0
  0
LINE
  5
75
330
43
100
AcDbEntity
  8
1
  6
Continuous
 62
     7
100
AcDbLine
 10
935.8931532557301
 20
-1292.22353674228
 30
0.0
 11
936.8931532557301
 21
-1293.22353674228
 31
0.0
  0
LINE
  5
76
330
43
100
AcDbEntity
  8
1
  6
Continuous
 62
     7
100
AcDbLine
 10
935.8931532557301
 20
-1286.589562146062
 30
0.0
 11
935.8931532557301
 21
-1292.22353674228
 31
0.0
  0
LINE
  5
77
330
43
100
AcDbEntity
  8
1
  6
Continuous
 62
     7
100
AcDbLine
 10
937.3931532557301
 20
-1285.72353674228
 30
0.0
 11
935.8931532557301
 21
-1286.589562146062
 31
0.0
  0
LINE
  5
78
330
43
100
AcDbEntity
  8
1
  6
Continuous
 62
     7
100
AcDbLine
 10
936.8931532557301
 20
-1293.22353674228
 30
0.0
 11
1026.89315325573
 21
-1293.22353674228
 31
0.0
  0
LINE
  5
79
330
43
100
AcDbEntity
  8
1
  6
Continuous
 62
     7
100
AcDbLine
 10
1117.89315325573
 20
-1286.589562146062
 30
0.0
 11
935.8931532557301
 21
-1286.589562146062
 31
0.0
  0
LINE
  5
7A
330
43
100
AcDbEntity
  8
1
  6
Continuous
 62
     7
100
AcDbLine
 10
935.8931532557301
 20
-1292.22353674228
 30
0.0
 11
1117.89315325573
 21
-1292.22353674228
 31
0.0
  0
LINE
  5
7B
330
43
100
AcDbEntity
  8
1
  6
PHANTOM
 62
     2
100
AcDbLine
 10
1026.89315325573
 20
-1293.22353674228
 30
0.0
 11
1026.89315325573
 21
-1285.72353674228
 31
0.0
  0
ENDBLK
  5
45
330
43
100
AcDbEntity
  8
0
100
AcDbBlockEnd
  0
BLOCK
  5
47
330
46
100
AcDbEntity
  8
0
100
AcDbBlockBegin
  2
EPDM_Folie_400x400
 70
     0
 71
     0
 10
1026.89315325573
 20
-1254.465640711664
 30
0.0
  3
EPDM_Folie_400x400
  1

  0
LINE
  5
7C
330
46
100
AcDbEntity
  8
1
  6
Continuous
 62
     7
100
AcDbLine
 10
826.8931532557301
 20
-1253.265640711663
 30
0.0
 11
826.8931532557301
 21
-1254.465640711664
 31
0.0
  0
LINE
  5
7D
330
46
100
AcDbEntity
  8
1
  6
Continuous
 62
     7
100
AcDbLine
 10
1226.89315325573
 20
-1253.265640711663
 30
0.0
 11
826.8931532557301
 21
-1253.265640711663
 31
0.0
  0
LINE
  5
7E
330
46
100
AcDbEntity
  8
1
  6
Continuous
 62
     7
100
AcDbLine
 10
1226.89315325573
 20
-1254.465640711664
 30
0.0
 11
1226.89315325573
 21
-1253.265640711663
 31
0.0
  0
LINE
  5
7F
330
46
100
AcDbEntity
  8
1
  6
Continuous
 62
     7
100
AcDbLine
 10
826.8931532557301
 20
-1254.465640711664
 30
0.0
 11
1226.89315325573
 21
-1254.465640711664
 31
0.0
  0
ENDBLK
  5
48
330
46
100
AcDbEntity
  8
0
100
AcDbBlockEnd
  0
BLOCK
  5
4A
330
49
100
AcDbEntity
  8
0
100
AcDbBlockBegin
  2
HL_83_Niroflansch
 70
     0
 71
     0
 10
1026.89315325573
 20
-1230.562543747081
 30
0.0
  3
HL_83_Niroflansch
  1

  0
LINE
  5
80
330
49
100
AcDbEntity
  8
1
  6
Continuous
 62
     7
100
AcDbLine
 10
928.8931532557301
 20
-1228.562543747081
 30
0.0
 11
933.0425269415839
 21
-1228.562543747081
 31
0.0
  0
LINE
  5
81
330
49
100
AcDbEntity
  8
1
  6
Continuous
 62
     7
100
AcDbLine
 10
947.7471065587063
 20
-1227.2917896691
 30
0.0
 11
935.8931502979369
 21
-1227.2917896691
 31
0.0
  0
LINE
  5
82
330
49
100
AcDbEntity
  8
1
  6
Continuous
 62
     7
100
AcDbLine
 10
1105.987096893639
 20
-1227.2917896691
 30
0.0
 11
947.7471065587063
 21
-1227.2917896691
 31
0.0
  0
LINE
  5
83
330
49
100
AcDbEntity
  8
1
  6
Continuous
 62
     7
100
AcDbLine
 10
1090.325199826047
 20
-1227.2917896691
 30
0.0
 11
1090.719533932804
 21
-1227.2917896691
 31
0.0
  0
LINE
  5
84
330
49
100
AcDbEntity
  8
1
  6
Continuous
 62
     7
100
AcDbLine
 10
1117.89315325573
 20
-1227.2917896691
 30
0.0
 11
1105.987096893639
 21
-1227.2917896691
 31
0.0
  0
LINE
  5
85
330
49
100
AcDbEntity
  8
1
  6
Continuous
 62
     7
100
AcDbLine
 10
1124.89315325573
 20
-1228.562543747081
 30
0.0
 11
933.0425269415839
 21
-1228.562543747081
 31
0.0
  0
LINE
  5
86
330
49
100
AcDbEntity
  8
1
  6
Continuous
 62
     7
100
AcDbLine
 10
1026.89315325573
 20
-1230.562543747081
 30
0.0
 11
969.8931532557301
 21
-1230.562543747081
 31
0.0
  0
LINE
  5
87
330
49
100
AcDbEntity
  8
1
  6
Continuous
 62
     7
100
AcDbLine
 10
928.8931532557301
 20
-1229.637064699651
 30
0.0
 11
928.8931532557301
 21
-1228.562543747081
 31
0.0
  0
LINE
  5
88
330
49
100
AcDbEntity
  8
1
  6
Continuous
 62
     7
100
AcDbLine
 10
928.8931532557301
 20
-1229.637064699651
 30
0.0
 11
930.9563681251868
 21
-1230.456595612348
 31
0.0
  0
LINE
  5
89
330
49
100
AcDbEntity
  8
1
  6
Continuous
 62
     7
100
AcDbLine
 10
939.2270133249306
 20
-1230.562543747081
 30
0.0
 11
939.6307107674777
 21
-1230.562543747081
 31
0.0
  0
LINE
  5
8A
330
49
100
AcDbEntity
  8
1
  6
Continuous
 62
     7
100
AcDbLine
 10
963.4611066854134
 20
-1227.2917896691
 30
0.0
 11
963.0667725786564
 21
-1227.2917896691
 31
0.0
  0
LINE
  5
8B
330
49
100
AcDbEntity
  8
1
  6
Continuous
 62
     7
100
AcDbLine
 10
1085.703763978175
 20
-1230.562543747081
 30
0.0
 11
1026.89315325573
 21
-1230.562543747081
 31
0.0
  0
LINE
  5
8C
330
49
100
AcDbEntity
  8
1
  6
Continuous
 62
     7
100
AcDbLine
 10
1124.89315325573
 20
-1228.562543747081
 30
0.0
 11
1124.89315325573
 21
-1229.637064699651
 31
0.0
  0
LINE
  5
8D
330
49
100
AcDbEntity
  8
1
  6
Continuous
 62
     7
100
AcDbLine
 10
1122.829938386273
 20
-1230.456595612348
 30
0.0
 11
1124.89315325573
 21
-1229.637064699651
 31
0.0
  0
LINE
  5
8E
330
49
100
AcDbEntity
  8
1
  6
Continuous
 62
     7
100
AcDbLine
 10
1114.155595743983
 20
-1230.562543747081
 30
0.0
 11
1114.55929318653
 21
-1230.562543747081
 31
0.0
  0
LINE
  5
8F
330
49
100
AcDbEntity
  8
1
  6
Continuous
 62
     7
100
AcDbLine
 10
1090.719533932804
 20
-1227.2917896691
 30
0.0
 11
1090.325199826047
 21
-1227.2917896691
 31
0.0
  0
LINE
  5
90
330
49
100
AcDbEntity
  8
1
  6
Continuous
 62
     7
100
AcDbLine
 10
1122.27620614326
 20
-1230.562543747081
 30
0.0
 11
1085.703763978175
 21
-1230.562543747081
 31
0.0
  0
LINE
  5
91
330
49
100
AcDbEntity
  8
1
  6
Continuous
 62
     7
100
AcDbLine
 10
931.5101003682005
 20
-1230.562543747081
 30
0.0
 11
969.8931532557301
 21
-1230.562543747081
 31
0.0
  0
LINE
  5
92
330
49
100
AcDbEntity
  8
1
  6
Continuous
 62
     7
100
AcDbLine
 10
928.8931532557301
 20
-1229.637064699651
 30
0.0
 11
1124.89315325573
 21
-1229.637064699651
 31
0.0
  0
ARC
  5
93
330
49
100
AcDbEntity
  8
1
  6
Continuous
 62
     7
100
AcDbCircle
 10
935.8931532557301
 20
-1231.124508555622
 30
0.0
 40
3.832718886523257
100
AcDbArc
 50
90.0000442164091
 51
138.052776737545
  0
ARC
  5
94
330
49
100
AcDbEntity
  8
1
  6
Continuous
 62
     7
100
AcDbCircle
 10
1117.89315325573
 20
-1231.124508555622
 30
0.0
 40
3.832718886525088
100
AcDbArc
 50
41.94722326241862
 51
90.0
  0
ARC
  5
95
330
49
100
AcDbEntity
  8
1
  6
Continuous
 62
     7
100
AcDbCircle
 10
931.5101003682005
 20
-1229.062543747081
 30
0.0
 40
1.50000000000254
100
AcDbArc
 50
-111.6635028242773
 51
-90.0
  0
ARC
  5
96
330
49
100
AcDbEntity
  8
1
  6
Continuous
 62
     7
100
AcDbCircle
 10
1122.27620614326
 20
-1229.062543747081
 30
0.0
 40
1.5
100
AcDbArc
 50
-90.0
 51
-68.33649717574696
  0
ENDBLK
  5
4B
330
49
100
AcDbEntity
  8
0
100
AcDbBlockEnd
  0
BLOCK
  5
4D
330
4C
100
AcDbEntity
  8
0
100
AcDbBlockBegin
  2
Blechschraube6_3x19_2_3_2__1
 70
     0
 71
     0
 10
985.6259619621451
 20
-1463.226851081355
 30
0.0
  3
Blechschraube6_3x19_2_3_2__1
  1

  0
LINE
  5
97
330
4C
100
AcDbEntity
  8
1
  6
PHANTOM
 62
     2
100
AcDbLine
 10
990.3931532557301
 20
-1594.248000020756
 30
0.0
 11
990.3931532557301
 21
-1607.448000020756
 31
0.0
  0
LINE
  5
98
330
4C
100
AcDbEntity
  8
1
  6
PHANTOM
 62
     2
100
AcDbLine
 10
996.99315325573
 20
-1600.848000020756
 30
0.0
 11
983.7931532557302
 21
-1600.848000020756
 31
0.0
  0
LINE
  5
99
330
4C
100
AcDbEntity
  8
0
  6
Continuous
 62
     7
100
AcDbLine
 10
990.8931532557301
 20
-1597.348000020756
 30
0.0
 11
990.8931532557301
 21
-1598.348000020756
 31
0.0
  0
LINE
  5
9A
330
4C
100
AcDbEntity
  8
0
  6
Continuous
 62
     7
100
AcDbLine
 10
992.8931532557265
 20
-1600.348000020756
 30
0.0
 11
993.8931532557301
 21
-1600.348000020756
 31
0.0
  0
LINE
  5
9B
330
4C
100
AcDbEntity
  8
0
  6
Continuous
 62
     7
100
AcDbLine
 10
991.4789396933568
 20
-1599.762213583129
 30
0.0
 11
990.8931532557301
 21
-1600.348000020756
 31
0.0
  0
LINE
  5
9C
330
4C
100
AcDbEntity
  8
0
  6
Continuous
 62
     7
100
AcDbLine
 10
989.8931532557301
 20
-1597.348000020756
 30
0.0
 11
990.8931532557301
 21
-1597.348000020756
 31
0.0
  0
LINE
  5
9D
330
4C
100
AcDbEntity
  8
0
  6
Continuous
 62
     7
100
AcDbLine
 10
989.8931532557301
 20
-1598.348000020767
 30
0.0
 11
989.8931532557301
 21
-1597.348000020756
 31
0.0
  0
LINE
  5
9E
330
4C
100
AcDbEntity
  8
0
  6
Continuous
 62
     7
100
AcDbLine
 10
986.8931532557301
 20
-1600.348000020756
 30
0.0
 11
987.8931532557374
 21
-1600.348000020756
 31
0.0
  0
LINE
  5
9F
330
4C
100
AcDbEntity
  8
0
  6
Continuous
 62
     7
100
AcDbLine
 10
989.8931532557301
 20
-1600.348000020756
 30
0.0
 11
990.8931532557301
 21
-1600.348000020756
 31
0.0
  0
LINE
  5
A0
330
4C
100
AcDbEntity
  8
0
  6
Continuous
 62
     7
100
AcDbLine
 10
989.8931532557301
 20
-1600.348000020756
 30
0.0
 11
989.3073668181034
 21
-1599.762213583129
 31
0.0
  0
LINE
  5
A1
330
4C
100
AcDbEntity
  8
0
  6
Continuous
 62
     7
100
AcDbLine
 10
989.8931532557301
 20
-1601.348000020756
 30
0.0
 11
989.8931532557301
 21
-1600.348000020756
 31
0.0
  0
LINE
  5
A2
330
4C
100
AcDbEntity
  8
0
  6
Continuous
 62
     7
100
AcDbLine
 10
990.8931532557301
 20
-1601.348000020756
 30
0.0
 11
991.4789396933568
 21
-1601.933786458383
 31
0.0
  0
LINE
  5
A3
330
4C
100
AcDbEntity
  8
0
  6
Continuous
 62
     7
100
AcDbLine
 10
990.8931532557301
 20
-1601.348000020756
 30
0.0
 11
989.8931532557301
 21
-1601.348000020756
 31
0.0
  0
LINE
  5
A4
330
4C
100
AcDbEntity
  8
0
  6
Continuous
 62
     7
100
AcDbLine
 10
990.8931532557301
 20
-1600.348000020756
 30
0.0
 11
990.8931532557301
 21
-1601.348000020756
 31
0.0
  0
LINE
  5
A5
330
4C
100
AcDbEntity
  8
0
  6
Continuous
 62
     7
100
AcDbLine
 10
989.3073668181034
 20
-1601.933786458383
 30
0.0
 11
989.8931532557301
 21
-1601.348000020756
 31
0.0
  0
LINE
  5
A6
330
4C
100
AcDbEntity
  8
0
  6
Continuous
 62
     7
100
AcDbLine
 10
990.8931532557301
 20
-1603.348000020745
 30
0.0
 11
990.8931532557301
 21
-1604.348000020756
 31
0.0
  0
LINE
  5
A7
330
4C
100
AcDbEntity
  8
0
  6
Continuous
 62
     7
100
AcDbLine
 10
990.8931532557301
 20
-1604.348000020756
 30
0.0
 11
989.8931532557301
 21
-1604.348000020756
 31
0.0
  0
LINE
  5
A8
330
4C
100
AcDbEntity
  8
0
  6
Continuous
 62
     7
100
AcDbLine
 10
989.8931532557301
 20
-1604.348000020756
 30
0.0
 11
989.8931532557301
 21
-1603.348000020752
 31
0.0
  0
LINE
  5
A9
330
4C
100
AcDbEntity
  8
0
  6
Continuous
 62
     7
100
AcDbLine
 10
993.8931532557301
 20
-1600.348000020756
 30
0.0
 11
993.8931532557301
 21
-1601.348000020756
 31
0.0
  0
LINE
  5
AA
330
4C
100
AcDbEntity
  8
0
  6
Continuous
 62
     7
100
AcDbLine
 10
993.8931532557301
 20
-1601.348000020756
 30
0.0
 11
992.8931532557192
 21
-1601.348000020756
 31
0.0
  0
LINE
  5
AB
330
4C
100
AcDbEntity
  8
0
  6
Continuous
 62
     7
100
AcDbLine
 10
987.8931532557338
 20
-1601.348000020756
 30
0.0
 11
986.8931532557301
 21
-1601.348000020756
 31
0.0
  0
LINE
  5
AC
330
4C
100
AcDbEntity
  8
0
  6
Continuous
 62
     7
100
AcDbLine
 10
986.8931532557301
 20
-1601.348000020756
 30
0.0
 11
986.8931532557301
 21
-1600.348000020756
 31
0.0
  0
ARC
  5
AD
330
4C
100
AcDbEntity
  8
0
  6
Continuous
 62
     7
100
AcDbCircle
 10
992.8931532557301
 20
-1598.348000020756
 30
0.0
 40
2.000000000000177
100
AcDbArc
 50
-135.0000000000046
 51
-90.00000000010422
  0
ARC
  5
AE
330
4C
100
AcDbEntity
  8
0
  6
Continuous
 62
     7
100
AcDbCircle
 10
992.8931532557301
 20
-1598.348000020756
 30
0.0
 40
2.0
100
AcDbArc
 50
180.0
 51
-135.0000000000046
  0
ARC
  5
AF
330
4C
100
AcDbEntity
  8
0
  6
Continuous
 62
     7
100
AcDbCircle
 10
987.8931532557301
 20
-1598.348000020756
 30
0.0
 40
2.0
100
AcDbArc
 50
-89.99999999979156
 51
-44.9999999999954
  0
ARC
  5
B0
330
4C
100
AcDbEntity
  8
0
  6
Continuous
 62
     7
100
AcDbCircle
 10
987.8931532557301
 20
-1598.348000020756
 30
0.0
 40
2.000000000000177
100
AcDbArc
 50
-44.9999999999954
 51
-0.00000000031266
  0
ARC
  5
B1
330
4C
100
AcDbEntity
  8
0
  6
Continuous
 62
     7
100
AcDbCircle
 10
992.8931532557301
 20
-1603.348000020756
 30
0.0
 40
2.000000000000016
100
AcDbArc
 50
135.0000000000092
 51
179.9999999996873
  0
ARC
  5
B2
330
4C
100
AcDbEntity
  8
0
  6
Continuous
 62
     7
100
AcDbCircle
 10
992.8931532557301
 20
-1603.348000020756
 30
0.0
 40
2.0
100
AcDbArc
 50
90.00000000031267
 51
135.0000000000092
  0
ARC
  5
B3
330
4C
100
AcDbEntity
  8
0
  6
Continuous
 62
     7
100
AcDbCircle
 10
987.8931532557301
 20
-1603.348000020756
 30
0.0
 40
2.000000000000016
100
AcDbArc
 50
44.99999999999079
 51
89.99999999989578
  0
ARC
  5
B4
330
4C
100
AcDbEntity
  8
0
  6
Continuous
 62
     7
100
AcDbCircle
 10
987.8931532557301
 20
-1603.348000020756
 30
0.0
 40
2.0
100
AcDbArc
 50
0.00000000011725
 51
44.99999999999079
  0
CIRCLE
  5
B5
330
4C
100
AcDbEntity
  8
0
  6
Continuous
 62
     3
100
AcDbCircle
 10
990.3931532557301
 20
-1600.848000020756
 30
0.0
 40
5.425531914894236
  0
CIRCLE
  5
B6
330
4C
100
AcDbEntity
  8
0
  6
Continuous
 62
     7
100
AcDbCircle
 10
990.3931532557301
 20
-1600.848000020756
 30
0.0
 40
6.0
  0
ENDBLK
  5
4E
330
4C
100
AcDbEntity
  8
0
100
AcDbBlockEnd
  0
BLOCK
  5
50
330
4F
100
AcDbEntity
  8
0
100
AcDbBlockBegin
  2
Blechschraube6_3x19_2_3_2__2
 70
     0
 71
     0
 10
1058.625961962145
 20
-1463.226851081355
 30
0.0
  3
Blechschraube6_3x19_2_3_2__2
  1

  0
LINE
  5
B7
330
4F
100
AcDbEntity
  8
0
  6
Continuous
 62
     7
100
AcDbLine
 10
1059.89315325573
 20
-1601.348000020756
 30
0.0
 11
1059.89315325573
 21
-1600.348000020756
 31
0.0
  0
LINE
  5
B8
330
4F
100
AcDbEntity
  8
0
  6
Continuous
 62
     7
100
AcDbLine
 10
1060.893153255734
 20
-1601.348000020756
 30
0.0
 11
1059.89315325573
 21
-1601.348000020756
 31
0.0
  0
LINE
  5
B9
330
4F
100
AcDbEntity
  8
0
  6
Continuous
 62
     7
100
AcDbLine
 10
1066.89315325573
 20
-1601.348000020756
 30
0.0
 11
1065.893153255719
 21
-1601.348000020756
 31
0.0
  0
LINE
  5
BA
330
4F
100
AcDbEntity
  8
0
  6
Continuous
 62
     7
100
AcDbLine
 10
1066.89315325573
 20
-1600.348000020756
 30
0.0
 11
1066.89315325573
 21
-1601.348000020756
 31
0.0
  0
LINE
  5
BB
330
4F
100
AcDbEntity
  8
0
  6
Continuous
 62
     7
100
AcDbLine
 10
1062.89315325573
 20
-1604.348000020756
 30
0.0
 11
1062.89315325573
 21
-1603.348000020752
 31
0.0
  0
LINE
  5
BC
330
4F
100
AcDbEntity
  8
0
  6
Continuous
 62
     7
100
AcDbLine
 10
1063.89315325573
 20
-1604.348000020756
 30
0.0
 11
1062.89315325573
 21
-1604.348000020756
 31
0.0
  0
LINE
  5
BD
330
4F
100
AcDbEntity
  8
0
  6
Continuous
 62
     7
100
AcDbLine
 10
1063.89315325573
 20
-1603.348000020745
 30
0.0
 11
1063.89315325573
 21
-1604.348000020756
 31
0.0
  0
LINE
  5
BE
330
4F
100
AcDbEntity
  8
0
  6
Continuous
 62
     7
100
AcDbLine
 10
1062.307366818103
 20
-1601.933786458383
 30
0.0
 11
1062.89315325573
 21
-1601.348000020756
 31
0.0
  0
LINE
  5
BF
330
4F
100
AcDbEntity
  8
0
  6
Continuous
 62
     7
100
AcDbLine
 10
1063.89315325573
 20
-1600.348000020756
 30
0.0
 11
1063.89315325573
 21
-1601.348000020756
 31
0.0
  0
LINE
  5
C0
330
4F
100
AcDbEntity
  8
0
  6
Continuous
 62
     7
100
AcDbLine
 10
1063.89315325573
 20
-1601.348000020756
 30
0.0
 11
1062.89315325573
 21
-1601.348000020756
 31
0.0
  0
LINE
  5
C1
330
4F
100
AcDbEntity
  8
0
  6
Continuous
 62
     7
100
AcDbLine
 10
1063.89315325573
 20
-1601.348000020756
 30
0.0
 11
1064.478939693357
 21
-1601.933786458383
 31
0.0
  0
LINE
  5
C2
330
4F
100
AcDbEntity
  8
0
  6
Continuous
 62
     7
100
AcDbLine
 10
1062.89315325573
 20
-1601.348000020756
 30
0.0
 11
1062.89315325573
 21
-1600.348000020756
 31
0.0
  0
LINE
  5
C3
330
4F
100
AcDbEntity
  8
0
  6
Continuous
 62
     7
100
AcDbLine
 10
1062.89315325573
 20
-1600.348000020756
 30
0.0
 11
1062.307366818103
 21
-1599.762213583129
 31
0.0
  0
LINE
  5
C4
330
4F
100
AcDbEntity
  8
0
  6
Continuous
 62
     7
100
AcDbLine
 10
1062.89315325573
 20
-1600.348000020756
 30
0.0
 11
1063.89315325573
 21
-1600.348000020756
 31
0.0
  0
LINE
  5
C5
330
4F
100
AcDbEntity
  8
0
  6
Continuous
 62
     7
100
AcDbLine
 10
1059.89315325573
 20
-1600.348000020756
 30
0.0
 11
1060.893153255737
 21
-1600.348000020756
 31
0.0
  0
LINE
  5
C6
330
4F
100
AcDbEntity
  8
0
  6
Continuous
 62
     7
100
AcDbLine
 10
1062.89315325573
 20
-1598.348000020767
 30
0.0
 11
1062.89315325573
 21
-1597.348000020756
 31
0.0
  0
LINE
  5
C7
330
4F
100
AcDbEntity
  8
0
  6
Continuous
 62
     7
100
AcDbLine
 10
1062.89315325573
 20
-1597.348000020756
 30
0.0
 11
1063.89315325573
 21
-1597.348000020756
 31
0.0
  0
LINE
  5
C8
330
4F
100
AcDbEntity
  8
0
  6
Continuous
 62
     7
100
AcDbLine
 10
1064.478939693357
 20
-1599.762213583129
 30
0.0
 11
1063.89315325573
 21
-1600.348000020756
 31
0.0
  0
LINE
  5
C9
330
4F
100
AcDbEntity
  8
0
  6
Continuous
 62
     7
100
AcDbLine
 10
1065.893153255727
 20
-1600.348000020756
 30
0.0
 11
1066.89315325573
 21
-1600.348000020756
 31
0.0
  0
LINE
  5
CA
330
4F
100
AcDbEntity
  8
0
  6
Continuous
 62
     7
100
AcDbLine
 10
1063.89315325573
 20
-1597.348000020756
 30
0.0
 11
1063.89315325573
 21
-1598.348000020756
 31
0.0
  0
LINE
  5
CB
330
4F
100
AcDbEntity
  8
1
  6
PHANTOM
 62
     2
100
AcDbLine
 10
1069.99315325573
 20
-1600.848000020756
 30
0.0
 11
1056.79315325573
 21
-1600.848000020756
 31
0.0
  0
LINE
  5
CC
330
4F
100
AcDbEntity
  8
1
  6
PHANTOM
 62
     2
100
AcDbLine
 10
1063.39315325573
 20
-1594.248000020756
 30
0.0
 11
1063.39315325573
 21
-1607.448000020756
 31
0.0
  0
ARC
  5
CD
330
4F
100
AcDbEntity
  8
0
  6
Continuous
 62
     7
100
AcDbCircle
 10
1060.89315325573
 20
-1603.348000020756
 30
0.0
 40
2.0
100
AcDbArc
 50
0.00000000011725
 51
45.0
  0
ARC
  5
CE
330
4F
100
AcDbEntity
  8
0
  6
Continuous
 62
     7
100
AcDbCircle
 10
1060.89315325573
 20
-1603.348000020756
 30
0.0
 40
1.999999999999694
100
AcDbArc
 50
45.0
 51
89.99999999988927
  0
ARC
  5
CF
330
4F
100
AcDbEntity
  8
0
  6
Continuous
 62
     7
100
AcDbCircle
 10
1065.89315325573
 20
-1603.348000020756
 30
0.0
 40
2.0
100
AcDbArc
 50
90.00000000031918
 51
135.0000000000046
  0
ARC
  5
D0
330
4F
100
AcDbEntity
  8
0
  6
Continuous
 62
     7
100
AcDbCircle
 10
1065.89315325573
 20
-1603.348000020756
 30
0.0
 40
1.999999999999855
100
AcDbArc
 50
135.0000000000046
 51
179.9999999996873
  0
ARC
  5
D1
330
4F
100
AcDbEntity
  8
0
  6
Continuous
 62
     7
100
AcDbCircle
 10
1060.89315325573
 20
-1598.348000020756
 30
0.0
 40
1.999999999999855
100
AcDbArc
 50
-45.0000000000046
 51
-0.00000000031266
  0
ARC
  5
D2
330
4F
100
AcDbEntity
  8
0
  6
Continuous
 62
     7
100
AcDbCircle
 10
1060.89315325573
 20
-1598.348000020756
 30
0.0
 40
2.0
100
AcDbArc
 50
-89.99999999980459
 51
-45.0000000000046
  0
ARC
  5
D3
330
4F
100
AcDbEntity
  8
0
  6
Continuous
 62
     7
100
AcDbCircle
 10
1065.89315325573
 20
-1598.348000020756
 30
0.0
 40
2.0
100
AcDbArc
 50
180.0
 51
-135.0
  0
ARC
  5
D4
330
4F
100
AcDbEntity
  8
0
  6
Continuous
 62
     7
100
AcDbCircle
 10
1065.89315325573
 20
-1598.348000020756
 30
0.0
 40
2.000000000000016
100
AcDbArc
 50
-135.0
 51
-90.00000000009119
  0
CIRCLE
  5
D5
330
4F
100
AcDbEntity
  8
0
  6
Continuous
 62
     7
100
AcDbCircle
 10
1063.39315325573
 20
-1600.848000020756
 30
0.0
 40
6.0
  0
CIRCLE
  5
D6
330
4F
100
AcDbEntity
  8
0
  6
Continuous
 62
     3
100
AcDbCircle
 10
1063.39315325573
 20
-1600.848000020756
 30
0.0
 40
5.425531914893782
  0
ENDBLK
  5
51
330
4F
100
AcDbEntity
  8
0
100
AcDbBlockEnd
  0
BLOCK
  5
53
330
52
100
AcDbEntity
  8
0
100
AcDbBlockBegin
  2
Blechschraube6_3x19_2_3_2__3
 70
     0
 71
     0
 10
949.1259619621451
 20
-1282.378851060599
 30
0.0
  3
Blechschraube6_3x19_2_3_2__3
  1

  0
LINE
  5
D7
330
52
100
AcDbEntity
  8
1
  6
PHANTOM
 62
     2
100
AcDbLine
 10
953.8931532557301
 20
-1531.028145544491
 30
0.0
 11
953.8931532557301
 21
-1544.228145544491
 31
0.0
  0
LINE
  5
D8
330
52
100
AcDbEntity
  8
1
  6
PHANTOM
 62
     2
100
AcDbLine
 10
960.49315325573
 20
-1537.628145544491
 30
0.0
 11
947.2931532557302
 21
-1537.628145544491
 31
0.0
  0
LINE
  5
D9
330
52
100
AcDbEntity
  8
0
  6
Continuous
 62
     7
100
AcDbLine
 10
950.3931532557301
 20
-1538.128145544491
 30
0.0
 11
950.3931532557301
 21
-1537.128145544491
 31
0.0
  0
LINE
  5
DA
330
52
100
AcDbEntity
  8
0
  6
Continuous
 62
     7
100
AcDbLine
 10
951.3931532557338
 20
-1538.128145544491
 30
0.0
 11
950.3931532557301
 21
-1538.128145544491
 31
0.0
  0
LINE
  5
DB
330
52
100
AcDbEntity
  8
0
  6
Continuous
 62
     7
100
AcDbLine
 10
957.3931532557301
 20
-1538.128145544491
 30
0.0
 11
956.3931532557192
 21
-1538.128145544491
 31
0.0
  0
LINE
  5
DC
330
52
100
AcDbEntity
  8
0
  6
Continuous
 62
     7
100
AcDbLine
 10
957.3931532557301
 20
-1537.128145544491
 30
0.0
 11
957.3931532557301
 21
-1538.128145544491
 31
0.0
  0
LINE
  5
DD
330
52
100
AcDbEntity
  8
0
  6
Continuous
 62
     7
100
AcDbLine
 10
953.3931532557301
 20
-1541.128145544491
 30
0.0
 11
953.3931532557301
 21
-1540.128145544487
 31
0.0
  0
LINE
  5
DE
330
52
100
AcDbEntity
  8
0
  6
Continuous
 62
     7
100
AcDbLine
 10
954.3931532557301
 20
-1541.128145544491
 30
0.0
 11
953.3931532557301
 21
-1541.128145544491
 31
0.0
  0
LINE
  5
DF
330
52
100
AcDbEntity
  8
0
  6
Continuous
 62
     7
100
AcDbLine
 10
954.3931532557301
 20
-1540.12814554448
 30
0.0
 11
954.3931532557301
 21
-1541.128145544491
 31
0.0
  0
LINE
  5
E0
330
52
100
AcDbEntity
  8
0
  6
Continuous
 62
     7
100
AcDbLine
 10
952.8073668181034
 20
-1538.713931982118
 30
0.0
 11
953.3931532557301
 21
-1538.128145544491
 31
0.0
  0
LINE
  5
E1
330
52
100
AcDbEntity
  8
0
  6
Continuous
 62
     7
100
AcDbLine
 10
954.3931532557301
 20
-1537.128145544491
 30
0.0
 11
954.3931532557301
 21
-1538.128145544491
 31
0.0
  0
LINE
  5
E2
330
52
100
AcDbEntity
  8
0
  6
Continuous
 62
     7
100
AcDbLine
 10
954.3931532557301
 20
-1538.128145544491
 30
0.0
 11
953.3931532557301
 21
-1538.128145544491
 31
0.0
  0
LINE
  5
E3
330
52
100
AcDbEntity
  8
0
  6
Continuous
 62
     7
100
AcDbLine
 10
954.3931532557301
 20
-1538.128145544491
 30
0.0
 11
954.9789396933568
 21
-1538.713931982118
 31
0.0
  0
LINE
  5
E4
330
52
100
AcDbEntity
  8
0
  6
Continuous
 62
     7
100
AcDbLine
 10
953.3931532557301
 20
-1538.128145544491
 30
0.0
 11
953.3931532557301
 21
-1537.128145544491
 31
0.0
  0
LINE
  5
E5
330
52
100
AcDbEntity
  8
0
  6
Continuous
 62
     7
100
AcDbLine
 10
953.3931532557301
 20
-1537.128145544491
 30
0.0
 11
952.8073668181034
 21
-1536.542359106864
 31
0.0
  0
LINE
  5
E6
330
52
100
AcDbEntity
  8
0
  6
Continuous
 62
     7
100
AcDbLine
 10
953.3931532557301
 20
-1537.128145544491
 30
0.0
 11
954.3931532557301
 21
-1537.128145544491
 31
0.0
  0
LINE
  5
E7
330
52
100
AcDbEntity
  8
0
  6
Continuous
 62
     7
100
AcDbLine
 10
950.3931532557301
 20
-1537.128145544491
 30
0.0
 11
951.3931532557374
 21
-1537.128145544491
 31
0.0
  0
LINE
  5
E8
330
52
100
AcDbEntity
  8
0
  6
Continuous
 62
     7
100
AcDbLine
 10
953.3931532557301
 20
-1535.128145544502
 30
0.0
 11
953.3931532557301
 21
-1534.128145544491
 31
0.0
  0
LINE
  5
E9
330
52
100
AcDbEntity
  8
0
  6
Continuous
 62
     7
100
AcDbLine
 10
953.3931532557301
 20
-1534.128145544491
 30
0.0
 11
954.3931532557301
 21
-1534.128145544491
 31
0.0
  0
LINE
  5
EA
330
52
100
AcDbEntity
  8
0
  6
Continuous
 62
     7
100
AcDbLine
 10
954.9789396933568
 20
-1536.542359106864
 30
0.0
 11
954.3931532557301
 21
-1537.128145544491
 31
0.0
  0
LINE
  5
EB
330
52
100
AcDbEntity
  8
0
  6
Continuous
 62
     7
100
AcDbLine
 10
956.3931532557265
 20
-1537.128145544491
 30
0.0
 11
957.3931532557301
 21
-1537.128145544491
 31
0.0
  0
LINE
  5
EC
330
52
100
AcDbEntity
  8
0
  6
Continuous
 62
     7
100
AcDbLine
 10
954.3931532557301
 20
-1534.128145544491
 30
0.0
 11
954.3931532557301
 21
-1535.128145544491
 31
0.0
  0
ARC
  5
ED
330
52
100
AcDbEntity
  8
0
  6
Continuous
 62
     7
100
AcDbCircle
 10
951.3931532557301
 20
-1540.128145544491
 30
0.0
 40
2.0
100
AcDbArc
 50
0.00000000011073
 51
44.99999999999079
  0
ARC
  5
EE
330
52
100
AcDbEntity
  8
0
  6
Continuous
 62
     7
100
AcDbCircle
 10
951.3931532557301
 20
-1540.128145544491
 30
0.0
 40
2.000000000000016
100
AcDbArc
 50
44.99999999999079
 51
89.99999999989578
  0
ARC
  5
EF
330
52
100
AcDbEntity
  8
0
  6
Continuous
 62
     7
100
AcDbCircle
 10
956.3931532557301
 20
-1540.128145544491
 30
0.0
 40
2.0
100
AcDbArc
 50
90.00000000031267
 51
135.0000000000092
  0
ARC
  5
F0
330
52
100
AcDbEntity
  8
0
  6
Continuous
 62
     7
100
AcDbCircle
 10
956.3931532557301
 20
-1540.128145544491
 30
0.0
 40
2.000000000000016
100
AcDbArc
 50
135.0000000000092
 51
179.9999999996873
  0
ARC
  5
F1
330
52
100
AcDbEntity
  8
0
  6
Continuous
 62
     7
100
AcDbCircle
 10
951.3931532557301
 20
-1535.128145544491
 30
0.0
 40
2.000000000000177
100
AcDbArc
 50
-44.9999999999954
 51
-0.00000000031918
  0
ARC
  5
F2
330
52
100
AcDbEntity
  8
0
  6
Continuous
 62
     7
100
AcDbCircle
 10
951.3931532557301
 20
-1535.128145544491
 30
0.0
 40
2.0
100
AcDbArc
 50
-89.99999999979156
 51
-44.9999999999954
  0
ARC
  5
F3
330
52
100
AcDbEntity
  8
0
  6
Continuous
 62
     7
100
AcDbCircle
 10
956.3931532557301
 20
-1535.128145544491
 30
0.0
 40
2.0
100
AcDbArc
 50
180.0
 51
-135.0000000000046
  0
ARC
  5
F4
330
52
100
AcDbEntity
  8
0
  6
Continuous
 62
     7
100
AcDbCircle
 10
956.3931532557301
 20
-1535.128145544491
 30
0.0
 40
2.000000000000177
100
AcDbArc
 50
-135.0000000000046
 51
-90.00000000010422
  0
CIRCLE
  5
F5
330
52
100
AcDbEntity
  8
0
  6
Continuous
 62
     7
100
AcDbCircle
 10
953.8931532557301
 20
-1537.628145544491
 30
0.0
 40
6.0
  0
CIRCLE
  5
F6
330
52
100
AcDbEntity
  8
0
  6
Continuous
 62
     3
100
AcDbCircle
 10
953.8931532557301
 20
-1537.628145544491
 30
0.0
 40
5.425531914894236
  0
ENDBLK
  5
54
330
52
100
AcDbEntity
  8
0
100
AcDbBlockEnd
  0
BLOCK
  5
56
330
55
100
AcDbEntity
  8
0
100
AcDbBlockBegin
  2
Blechschraube6_3x19_2_3_2__4
 70
     0
 71
     0
 10
985.6259619621451
 20
-1282.378851060599
 30
0.0
  3
Blechschraube6_3x19_2_3_2__4
  1

  0
LINE
  5
F7
330
55
100
AcDbEntity
  8
0
  6
Continuous
 62
     7
100
AcDbLine
 10
986.8931532557301
 20
-1474.908291068226
 30
0.0
 11
986.8931532557301
 21
-1473.908291068226
 31
0.0
  0
LINE
  5
F8
330
55
100
AcDbEntity
  8
0
  6
Continuous
 62
     7
100
AcDbLine
 10
987.8931532557338
 20
-1474.908291068226
 30
0.0
 11
986.8931532557301
 21
-1474.908291068226
 31
0.0
  0
LINE
  5
F9
330
55
100
AcDbEntity
  8
0
  6
Continuous
 62
     7
100
AcDbLine
 10
993.8931532557301
 20
-1474.908291068226
 30
0.0
 11
992.8931532557192
 21
-1474.908291068226
 31
0.0
  0
LINE
  5
FA
330
55
100
AcDbEntity
  8
0
  6
Continuous
 62
     7
100
AcDbLine
 10
993.8931532557301
 20
-1473.908291068226
 30
0.0
 11
993.8931532557301
 21
-1474.908291068226
 31
0.0
  0
LINE
  5
FB
330
55
100
AcDbEntity
  8
0
  6
Continuous
 62
     7
100
AcDbLine
 10
989.8931532557301
 20
-1477.908291068226
 30
0.0
 11
989.8931532557301
 21
-1476.908291068222
 31
0.0
  0
LINE
  5
FC
330
55
100
AcDbEntity
  8
0
  6
Continuous
 62
     7
100
AcDbLine
 10
990.8931532557301
 20
-1477.908291068226
 30
0.0
 11
989.8931532557301
 21
-1477.908291068226
 31
0.0
  0
LINE
  5
FD
330
55
100
AcDbEntity
  8
0
  6
Continuous
 62
     7
100
AcDbLine
 10
990.8931532557301
 20
-1476.908291068215
 30
0.0
 11
990.8931532557301
 21
-1477.908291068226
 31
0.0
  0
LINE
  5
FE
330
55
100
AcDbEntity
  8
0
  6
Continuous
 62
     7
100
AcDbLine
 10
989.3073668181034
 20
-1475.494077505853
 30
0.0
 11
989.8931532557301
 21
-1474.908291068226
 31
0.0
  0
LINE
  5
FF
330
55
100
AcDbEntity
  8
0
  6
Continuous
 62
     7
100
AcDbLine
 10
990.8931532557301
 20
-1473.908291068226
 30
0.0
 11
990.8931532557301
 21
-1474.908291068226
 31
0.0
  0
LINE
  5
100
330
55
100
AcDbEntity
  8
0
  6
Continuous
 62
     7
100
AcDbLine
 10
990.8931532557301
 20
-1474.908291068226
 30
0.0
 11
989.8931532557301
 21
-1474.908291068226
 31
0.0
  0
LINE
  5
101
330
55
100
AcDbEntity
  8
0
  6
Continuous
 62
     7
100
AcDbLine
 10
990.8931532557301
 20
-1474.908291068226
 30
0.0
 11
991.4789396933568
 21
-1475.494077505853
 31
0.0
  0
LINE
  5
102
330
55
100
AcDbEntity
  8
0
  6
Continuous
 62
     7
100
AcDbLine
 10
989.8931532557301
 20
-1474.908291068226
 30
0.0
 11
989.8931532557301
 21
-1473.908291068226
 31
0.0
  0
LINE
  5
103
330
55
100
AcDbEntity
  8
0
  6
Continuous
 62
     7
100
AcDbLine
 10
989.8931532557301
 20
-1473.908291068226
 30
0.0
 11
989.3073668181034
 21
-1473.322504630599
 31
0.0
  0
LINE
  5
104
330
55
100
AcDbEntity
  8
0
  6
Continuous
 62
     7
100
AcDbLine
 10
989.8931532557301
 20
-1473.908291068226
 30
0.0
 11
990.8931532557301
 21
-1473.908291068226
 31
0.0
  0
LINE
  5
105
330
55
100
AcDbEntity
  8
0
  6
Continuous
 62
     7
100
AcDbLine
 10
986.8931532557301
 20
-1473.908291068226
 30
0.0
 11
987.8931532557374
 21
-1473.908291068226
 31
0.0
  0
LINE
  5
106
330
55
100
AcDbEntity
  8
0
  6
Continuous
 62
     7
100
AcDbLine
 10
989.8931532557301
 20
-1471.908291068237
 30
0.0
 11
989.8931532557301
 21
-1470.908291068226
 31
0.0
  0
LINE
  5
107
330
55
100
AcDbEntity
  8
0
  6
Continuous
 62
     7
100
AcDbLine
 10
989.8931532557301
 20
-1470.908291068226
 30
0.0
 11
990.8931532557301
 21
-1470.908291068226
 31
0.0
  0
LINE
  5
108
330
55
100
AcDbEntity
  8
0
  6
Continuous
 62
     7
100
AcDbLine
 10
991.4789396933568
 20
-1473.322504630599
 30
0.0
 11
990.8931532557301
 21
-1473.908291068226
 31
0.0
  0
LINE
  5
109
330
55
100
AcDbEntity
  8
0
  6
Continuous
 62
     7
100
AcDbLine
 10
992.8931532557265
 20
-1473.908291068226
 30
0.0
 11
993.8931532557301
 21
-1473.908291068226
 31
0.0
  0
LINE
  5
10A
330
55
100
AcDbEntity
  8
0
  6
Continuous
 62
     7
100
AcDbLine
 10
990.8931532557301
 20
-1470.908291068226
 30
0.0
 11
990.8931532557301
 21
-1471.908291068226
 31
0.0
  0
LINE
  5
10B
330
55
100
AcDbEntity
  8
1
  6
PHANTOM
 62
     2
100
AcDbLine
 10
996.99315325573
 20
-1474.408291068226
 30
0.0
 11
983.7931532557302
 21
-1474.408291068226
 31
0.0
  0
LINE
  5
10C
330
55
100
AcDbEntity
  8
1
  6
PHANTOM
 62
     2
100
AcDbLine
 10
990.3931532557301
 20
-1467.808291068226
 30
0.0
 11
990.3931532557301
 21
-1481.008291068226
 31
0.0
  0
ARC
  5
10D
330
55
100
AcDbEntity
  8
0
  6
Continuous
 62
     7
100
AcDbCircle
 10
987.8931532557301
 20
-1476.908291068226
 30
0.0
 40
2.0
100
AcDbArc
 50
0.00000000011073
 51
44.99999999999079
  0
ARC
  5
10E
330
55
100
AcDbEntity
  8
0
  6
Continuous
 62
     7
100
AcDbCircle
 10
987.8931532557301
 20
-1476.908291068226
 30
0.0
 40
2.000000000000016
100
AcDbArc
 50
44.99999999999079
 51
89.99999999989578
  0
ARC
  5
10F
330
55
100
AcDbEntity
  8
0
  6
Continuous
 62
     7
100
AcDbCircle
 10
992.8931532557301
 20
-1476.908291068226
 30
0.0
 40
2.0
100
AcDbArc
 50
90.00000000031267
 51
135.0000000000092
  0
ARC
  5
110
330
55
100
AcDbEntity
  8
0
  6
Continuous
 62
     7
100
AcDbCircle
 10
992.8931532557301
 20
-1476.908291068226
 30
0.0
 40
2.000000000000016
100
AcDbArc
 50
135.0000000000092
 51
179.9999999996873
  0
ARC
  5
111
330
55
100
AcDbEntity
  8
0
  6
Continuous
 62
     7
100
AcDbCircle
 10
987.8931532557301
 20
-1471.908291068226
 30
0.0
 40
2.000000000000177
100
AcDbArc
 50
-44.9999999999954
 51
-0.00000000031918
  0
ARC
  5
112
330
55
100
AcDbEntity
  8
0
  6
Continuous
 62
     7
100
AcDbCircle
 10
987.8931532557301
 20
-1471.908291068226
 30
0.0
 40
2.0
100
AcDbArc
 50
-89.99999999979156
 51
-44.9999999999954
  0
ARC
  5
113
330
55
100
AcDbEntity
  8
0
  6
Continuous
 62
     7
100
AcDbCircle
 10
992.8931532557301
 20
-1471.908291068226
 30
0.0
 40
2.0
100
AcDbArc
 50
180.0
 51
-135.0000000000046
  0
ARC
  5
114
330
55
100
AcDbEntity
  8
0
  6
Continuous
 62
     7
100
AcDbCircle
 10
992.8931532557301
 20
-1471.908291068226
 30
0.0
 40
2.000000000000177
100
AcDbArc
 50
-135.0000000000046
 51
-90.00000000010422
  0
CIRCLE
  5
115
330
55
100
AcDbEntity
  8
0
  6
Continuous
 62
     7
100
AcDbCircle
 10
990.3931532557301
 20
-1474.408291068226
 30
0.0
 40
6.0
  0
CIRCLE
  5
116
330
55
100
AcDbEntity
  8
0
  6
Continuous
 62
     3
100
AcDbCircle
 10
990.3931532557301
 20
-1474.408291068226
 30
0.0
 40
5.425531914894236
  0
ENDBLK
  5
57
330
55
100
AcDbEntity
  8
0
100
AcDbBlockEnd
  0
BLOCK
  5
59
330
58
100
AcDbEntity
  8
0
100
AcDbBlockBegin
  2
Blechschraube6_3x19_2_3_2__5
 70
     0
 71
     0
 10
1095.125961962145
 20
-1400.00699660509
 30
0.0
  3
Blechschraube6_3x19_2_3_2__5
  1

  0
LINE
  5
117
330
58
100
AcDbEntity
  8
0
  6
Continuous
 62
     7
100
AcDbLine
 10
1096.39315325573
 20
-1538.128145544491
 30
0.0
 11
1096.39315325573
 21
-1537.128145544491
 31
0.0
  0
LINE
  5
118
330
58
100
AcDbEntity
  8
0
  6
Continuous
 62
     7
100
AcDbLine
 10
1097.393153255734
 20
-1538.128145544491
 30
0.0
 11
1096.39315325573
 21
-1538.128145544491
 31
0.0
  0
LINE
  5
119
330
58
100
AcDbEntity
  8
0
  6
Continuous
 62
     7
100
AcDbLine
 10
1103.39315325573
 20
-1538.128145544491
 30
0.0
 11
1102.393153255719
 21
-1538.128145544491
 31
0.0
  0
LINE
  5
11A
330
58
100
AcDbEntity
  8
0
  6
Continuous
 62
     7
100
AcDbLine
 10
1103.39315325573
 20
-1537.128145544491
 30
0.0
 11
1103.39315325573
 21
-1538.128145544491
 31
0.0
  0
LINE
  5
11B
330
58
100
AcDbEntity
  8
0
  6
Continuous
 62
     7
100
AcDbLine
 10
1099.39315325573
 20
-1541.128145544491
 30
0.0
 11
1099.39315325573
 21
-1540.128145544487
 31
0.0
  0
LINE
  5
11C
330
58
100
AcDbEntity
  8
0
  6
Continuous
 62
     7
100
AcDbLine
 10
1100.39315325573
 20
-1541.128145544491
 30
0.0
 11
1099.39315325573
 21
-1541.128145544491
 31
0.0
  0
LINE
  5
11D
330
58
100
AcDbEntity
  8
0
  6
Continuous
 62
     7
100
AcDbLine
 10
1100.39315325573
 20
-1540.12814554448
 30
0.0
 11
1100.39315325573
 21
-1541.128145544491
 31
0.0
  0
LINE
  5
11E
330
58
100
AcDbEntity
  8
0
  6
Continuous
 62
     7
100
AcDbLine
 10
1098.807366818103
 20
-1538.713931982118
 30
0.0
 11
1099.39315325573
 21
-1538.128145544491
 31
0.0
  0
LINE
  5
11F
330
58
100
AcDbEntity
  8
0
  6
Continuous
 62
     7
100
AcDbLine
 10
1100.39315325573
 20
-1537.128145544491
 30
0.0
 11
1100.39315325573
 21
-1538.128145544491
 31
0.0
  0
LINE
  5
120
330
58
100
AcDbEntity
  8
0
  6
Continuous
 62
     7
100
AcDbLine
 10
1100.39315325573
 20
-1538.128145544491
 30
0.0
 11
1099.39315325573
 21
-1538.128145544491
 31
0.0
  0
LINE
  5
121
330
58
100
AcDbEntity
  8
0
  6
Continuous
 62
     7
100
AcDbLine
 10
1100.39315325573
 20
-1538.128145544491
 30
0.0
 11
1100.978939693357
 21
-1538.713931982118
 31
0.0
  0
LINE
  5
122
330
58
100
AcDbEntity
  8
0
  6
Continuous
 62
     7
100
AcDbLine
 10
1099.39315325573
 20
-1538.128145544491
 30
0.0
 11
1099.39315325573
 21
-1537.128145544491
 31
0.0
  0
LINE
  5
123
330
58
100
AcDbEntity
  8
0
  6
Continuous
 62
     7
100
AcDbLine
 10
1099.39315325573
 20
-1537.128145544491
 30
0.0
 11
1098.807366818103
 21
-1536.542359106864
 31
0.0
  0
LINE
  5
124
330
58
100
AcDbEntity
  8
0
  6
Continuous
 62
     7
100
AcDbLine
 10
1099.39315325573
 20
-1537.128145544491
 30
0.0
 11
1100.39315325573
 21
-1537.128145544491
 31
0.0
  0
LINE
  5
125
330
58
100
AcDbEntity
  8
0
  6
Continuous
 62
     7
100
AcDbLine
 10
1096.39315325573
 20
-1537.128145544491
 30
0.0
 11
1097.393153255737
 21
-1537.128145544491
 31
0.0
  0
LINE
  5
126
330
58
100
AcDbEntity
  8
0
  6
Continuous
 62
     7
100
AcDbLine
 10
1099.39315325573
 20
-1535.128145544502
 30
0.0
 11
1099.39315325573
 21
-1534.128145544491
 31
0.0
  0
LINE
  5
127
330
58
100
AcDbEntity
  8
0
  6
Continuous
 62
     7
100
AcDbLine
 10
1099.39315325573
 20
-1534.128145544491
 30
0.0
 11
1100.39315325573
 21
-1534.128145544491
 31
0.0
  0
LINE
  5
128
330
58
100
AcDbEntity
  8
0
  6
Continuous
 62
     7
100
AcDbLine
 10
1100.978939693357
 20
-1536.542359106864
 30
0.0
 11
1100.39315325573
 21
-1537.128145544491
 31
0.0
  0
LINE
  5
129
330
58
100
AcDbEntity
  8
0
  6
Continuous
 62
     7
100
AcDbLine
 10
1102.393153255727
 20
-1537.128145544491
 30
0.0
 11
1103.39315325573
 21
-1537.128145544491
 31
0.0
  0
LINE
  5
12A
330
58
100
AcDbEntity
  8
0
  6
Continuous
 62
     7
100
AcDbLine
 10
1100.39315325573
 20
-1534.128145544491
 30
0.0
 11
1100.39315325573
 21
-1535.128145544491
 31
0.0
  0
LINE
  5
12B
330
58
100
AcDbEntity
  8
1
  6
PHANTOM
 62
     2
100
AcDbLine
 10
1106.49315325573
 20
-1537.628145544491
 30
0.0
 11
1093.29315325573
 21
-1537.628145544491
 31
0.0
  0
LINE
  5
12C
330
58
100
AcDbEntity
  8
1
  6
PHANTOM
 62
     2
100
AcDbLine
 10
1099.89315325573
 20
-1531.028145544491
 30
0.0
 11
1099.89315325573
 21
-1544.228145544491
 31
0.0
  0
ARC
  5
12D
330
58
100
AcDbEntity
  8
0
  6
Continuous
 62
     7
100
AcDbCircle
 10
1097.39315325573
 20
-1540.128145544491
 30
0.0
 40
2.0
100
AcDbArc
 50
0.00000000011073
 51
45.0
  0
ARC
  5
12E
330
58
100
AcDbEntity
  8
0
  6
Continuous
 62
     7
100
AcDbCircle
 10
1097.39315325573
 20
-1540.128145544491
 30
0.0
 40
1.999999999999694
100
AcDbArc
 50
45.0
 51
89.99999999988927
  0
ARC
  5
12F
330
58
100
AcDbEntity
  8
0
  6
Continuous
 62
     7
100
AcDbCircle
 10
1102.39315325573
 20
-1540.128145544491
 30
0.0
 40
2.0
100
AcDbArc
 50
90.00000000031918
 51
135.0000000000046
  0
ARC
  5
130
330
58
100
AcDbEntity
  8
0
  6
Continuous
 62
     7
100
AcDbCircle
 10
1102.39315325573
 20
-1540.128145544491
 30
0.0
 40
1.999999999999855
100
AcDbArc
 50
135.0000000000046
 51
179.9999999996873
  0
ARC
  5
131
330
58
100
AcDbEntity
  8
0
  6
Continuous
 62
     7
100
AcDbCircle
 10
1097.39315325573
 20
-1535.128145544491
 30
0.0
 40
1.999999999999855
100
AcDbArc
 50
-45.0000000000046
 51
-0.00000000031918
  0
ARC
  5
132
330
58
100
AcDbEntity
  8
0
  6
Continuous
 62
     7
100
AcDbCircle
 10
1097.39315325573
 20
-1535.128145544491
 30
0.0
 40
2.0
100
AcDbArc
 50
-89.99999999980459
 51
-45.0000000000046
  0
ARC
  5
133
330
58
100
AcDbEntity
  8
0
  6
Continuous
 62
     7
100
AcDbCircle
 10
1102.39315325573
 20
-1535.128145544491
 30
0.0
 40
2.0
100
AcDbArc
 50
180.0
 51
-135.0
  0
ARC
  5
134
330
58
100
AcDbEntity
  8
0
  6
Continuous
 62
     7
100
AcDbCircle
 10
1102.39315325573
 20
-1535.128145544491
 30
0.0
 40
2.000000000000016
100
AcDbArc
 50
-135.0
 51
-90.00000000009119
  0
CIRCLE
  5
135
330
58
100
AcDbEntity
  8
0
  6
Continuous
 62
     7
100
AcDbCircle
 10
1099.89315325573
 20
-1537.628145544491
 30
0.0
 40
6.0
  0
CIRCLE
  5
136
330
58
100
AcDbEntity
  8
0
  6
Continuous
 62
     3
100
AcDbCircle
 10
1099.89315325573
 20
-1537.628145544491
 30
0.0
 40
5.425531914893782
  0
ENDBLK
  5
5A
330
58
100
AcDbEntity
  8
0
100
AcDbBlockEnd
  0
BLOCK
  5
5C
330
5B
100
AcDbEntity
  8
0
100
AcDbBlockBegin
  2
Blechschraube6_3x19_2_3_2__6
 70
     0
 71
     0
 10
1058.625961962145
 20
-1336.787142128825
 30
0.0
  3
Blechschraube6_3x19_2_3_2__6
  1

  0
LINE
  5
137
330
5B
100
AcDbEntity
  8
1
  6
PHANTOM
 62
     2
100
AcDbLine
 10
1063.39315325573
 20
-1467.808291068226
 30
0.0
 11
1063.39315325573
 21
-1481.008291068226
 31
0.0
  0
LINE
  5
138
330
5B
100
AcDbEntity
  8
1
  6
PHANTOM
 62
     2
100
AcDbLine
 10
1069.99315325573
 20
-1474.408291068226
 30
0.0
 11
1056.79315325573
 21
-1474.408291068226
 31
0.0
  0
LINE
  5
139
330
5B
100
AcDbEntity
  8
0
  6
Continuous
 62
     7
100
AcDbLine
 10
1063.89315325573
 20
-1470.908291068226
 30
0.0
 11
1063.89315325573
 21
-1471.908291068226
 31
0.0
  0
LINE
  5
13A
330
5B
100
AcDbEntity
  8
0
  6
Continuous
 62
     7
100
AcDbLine
 10
1065.893153255727
 20
-1473.908291068226
 30
0.0
 11
1066.89315325573
 21
-1473.908291068226
 31
0.0
  0
LINE
  5
13B
330
5B
100
AcDbEntity
  8
0
  6
Continuous
 62
     7
100
AcDbLine
 10
1064.478939693357
 20
-1473.322504630599
 30
0.0
 11
1063.89315325573
 21
-1473.908291068226
 31
0.0
  0
LINE
  5
13C
330
5B
100
AcDbEntity
  8
0
  6
Continuous
 62
     7
100
AcDbLine
 10
1062.89315325573
 20
-1470.908291068226
 30
0.0
 11
1063.89315325573
 21
-1470.908291068226
 31
0.0
  0
LINE
  5
13D
330
5B
100
AcDbEntity
  8
0
  6
Continuous
 62
     7
100
AcDbLine
 10
1062.89315325573
 20
-1471.908291068237
 30
0.0
 11
1062.89315325573
 21
-1470.908291068226
 31
0.0
  0
LINE
  5
13E
330
5B
100
AcDbEntity
  8
0
  6
Continuous
 62
     7
100
AcDbLine
 10
1059.89315325573
 20
-1473.908291068226
 30
0.0
 11
1060.893153255737
 21
-1473.908291068226
 31
0.0
  0
LINE
  5
13F
330
5B
100
AcDbEntity
  8
0
  6
Continuous
 62
     7
100
AcDbLine
 10
1062.89315325573
 20
-1473.908291068226
 30
0.0
 11
1063.89315325573
 21
-1473.908291068226
 31
0.0
  0
LINE
  5
140
330
5B
100
AcDbEntity
  8
0
  6
Continuous
 62
     7
100
AcDbLine
 10
1062.89315325573
 20
-1473.908291068226
 30
0.0
 11
1062.307366818103
 21
-1473.322504630599
 31
0.0
  0
LINE
  5
141
330
5B
100
AcDbEntity
  8
0
  6
Continuous
 62
     7
100
AcDbLine
 10
1062.89315325573
 20
-1474.908291068226
 30
0.0
 11
1062.89315325573
 21
-1473.908291068226
 31
0.0
  0
LINE
  5
142
330
5B
100
AcDbEntity
  8
0
  6
Continuous
 62
     7
100
AcDbLine
 10
1063.89315325573
 20
-1474.908291068226
 30
0.0
 11
1064.478939693357
 21
-1475.494077505853
 31
0.0
  0
LINE
  5
143
330
5B
100
AcDbEntity
  8
0
  6
Continuous
 62
     7
100
AcDbLine
 10
1063.89315325573
 20
-1474.908291068226
 30
0.0
 11
1062.89315325573
 21
-1474.908291068226
 31
0.0
  0
LINE
  5
144
330
5B
100
AcDbEntity
  8
0
  6
Continuous
 62
     7
100
AcDbLine
 10
1063.89315325573
 20
-1473.908291068226
 30
0.0
 11
1063.89315325573
 21
-1474.908291068226
 31
0.0
  0
LINE
  5
145
330
5B
100
AcDbEntity
  8
0
  6
Continuous
 62
     7
100
AcDbLine
 10
1062.307366818103
 20
-1475.494077505853
 30
0.0
 11
1062.89315325573
 21
-1474.908291068226
 31
0.0
  0
LINE
  5
146
330
5B
100
AcDbEntity
  8
0
  6
Continuous
 62
     7
100
AcDbLine
 10
1063.89315325573
 20
-1476.908291068215
 30
0.0
 11
1063.89315325573
 21
-1477.908291068226
 31
0.0
  0
LINE
  5
147
330
5B
100
AcDbEntity
  8
0
  6
Continuous
 62
     7
100
AcDbLine
 10
1063.89315325573
 20
-1477.908291068226
 30
0.0
 11
1062.89315325573
 21
-1477.908291068226
 31
0.0
  0
LINE
  5
148
330
5B
100
AcDbEntity
  8
0
  6
Continuous
 62
     7
100
AcDbLine
 10
1062.89315325573
 20
-1477.908291068226
 30
0.0
 11
1062.89315325573
 21
-1476.908291068222
 31
0.0
  0
LINE
  5
149
330
5B
100
AcDbEntity
  8
0
  6
Continuous
 62
     7
100
AcDbLine
 10
1066.89315325573
 20
-1473.908291068226
 30
0.0
 11
1066.89315325573
 21
-1474.908291068226
 31
0.0
  0
LINE
  5
14A
330
5B
100
AcDbEntity
  8
0
  6
Continuous
 62
     7
100
AcDbLine
 10
1066.89315325573
 20
-1474.908291068226
 30
0.0
 11
1065.893153255719
 21
-1474.908291068226
 31
0.0
  0
LINE
  5
14B
330
5B
100
AcDbEntity
  8
0
  6
Continuous
 62
     7
100
AcDbLine
 10
1060.893153255734
 20
-1474.908291068226
 30
0.0
 11
1059.89315325573
 21
-1474.908291068226
 31
0.0
  0
LINE
  5
14C
330
5B
100
AcDbEntity
  8
0
  6
Continuous
 62
     7
100
AcDbLine
 10
1059.89315325573
 20
-1474.908291068226
 30
0.0
 11
1059.89315325573
 21
-1473.908291068226
 31
0.0
  0
ARC
  5
14D
330
5B
100
AcDbEntity
  8
0
  6
Continuous
 62
     7
100
AcDbCircle
 10
1065.89315325573
 20
-1471.908291068226
 30
0.0
 40
2.000000000000016
100
AcDbArc
 50
-135.0
 51
-90.00000000009119
  0
ARC
  5
14E
330
5B
100
AcDbEntity
  8
0
  6
Continuous
 62
     7
100
AcDbCircle
 10
1065.89315325573
 20
-1471.908291068226
 30
0.0
 40
2.0
100
AcDbArc
 50
180.0
 51
-135.0
  0
ARC
  5
14F
330
5B
100
AcDbEntity
  8
0
  6
Continuous
 62
     7
100
AcDbCircle
 10
1060.89315325573
 20
-1471.908291068226
 30
0.0
 40
2.0
100
AcDbArc
 50
-89.99999999980459
 51
-45.0000000000046
  0
ARC
  5
150
330
5B
100
AcDbEntity
  8
0
  6
Continuous
 62
     7
100
AcDbCircle
 10
1060.89315325573
 20
-1471.908291068226
 30
0.0
 40
1.999999999999855
100
AcDbArc
 50
-45.0000000000046
 51
-0.00000000031918
  0
ARC
  5
151
330
5B
100
AcDbEntity
  8
0
  6
Continuous
 62
     7
100
AcDbCircle
 10
1065.89315325573
 20
-1476.908291068226
 30
0.0
 40
1.999999999999855
100
AcDbArc
 50
135.0000000000046
 51
179.9999999996873
  0
ARC
  5
152
330
5B
100
AcDbEntity
  8
0
  6
Continuous
 62
     7
100
AcDbCircle
 10
1065.89315325573
 20
-1476.908291068226
 30
0.0
 40
2.0
100
AcDbArc
 50
90.00000000031918
 51
135.0000000000046
  0
ARC
  5
153
330
5B
100
AcDbEntity
  8
0
  6
Continuous
 62
     7
100
AcDbCircle
 10
1060.89315325573
 20
-1476.908291068226
 30
0.0
 40
1.999999999999694
100
AcDbArc
 50
45.0
 51
89.99999999988927
  0
ARC
  5
154
330
5B
100
AcDbEntity
  8
0
  6
Continuous
 62
     7
100
AcDbCircle
 10
1060.89315325573
 20
-1476.908291068226
 30
0.0
 40
2.0
100
AcDbArc
 50
0.00000000011073
 51
45.0
  0
CIRCLE
  5
155
330
5B
100
AcDbEntity
  8
0
  6
Continuous
 62
     3
100
AcDbCircle
 10
1063.39315325573
 20
-1474.408291068226
 30
0.0
 40
5.425531914893782
  0
CIRCLE
  5
156
330
5B
100
AcDbEntity
  8
0
  6
Continuous
 62
     7
100
AcDbCircle
 10
1063.39315325573
 20
-1474.408291068226
 30
0.0
 40
6.0
  0
ENDBLK
  5
5D
330
5B
100
AcDbEntity
  8
0
100
AcDbBlockEnd
  0
BLOCK
  5
5F
330
5E
100
AcDbEntity
  8
0
100
AcDbBlockBegin
  2
Isolierfolie_EPDM
 70
     0
 71
     0
 10
990.4007141293587
 20
-1516.184110993705
 30
0.0
  3
Isolierfolie_EPDM
  1

  0
LINE
  5
157
330
5E
100
AcDbEntity
  8
0
  6
Continuous
 62
     7
100
AcDbLine
 10
826.8931532557301
 20
-1737.628145544491
 30
0.0
 11
826.8931532557301
 21
-1337.628145544487
 31
0.0
  0
LINE
  5
158
330
5E
100
AcDbEntity
  8
0
  6
Continuous
 62
     7
100
AcDbLine
 10
1226.89315325573
 20
-1737.628145544491
 30
0.0
 11
826.8931532557301
 21
-1737.628145544491
 31
0.0
  0
LINE
  5
159
330
5E
100
AcDbEntity
  8
0
  6
Continuous
 62
     7
100
AcDbLine
 10
1226.89315325573
 20
-1337.628145544487
 30
0.0
 11
1226.89315325573
 21
-1737.628145544491
 31
0.0
  0
LINE
  5
15A
330
5E
100
AcDbEntity
  8
0
  6
Continuous
 62
     7
100
AcDbLine
 10
826.8931532557301
 20
-1337.628145544487
 30
0.0
 11
1226.89315325573
 21
-1337.628145544487
 31
0.0
  0
LINE
  5
15B
330
5E
100
AcDbEntity
  8
1
  6
PHANTOM
 62
     2
100
AcDbLine
 10
1026.89315325573
 20
-1737.628145544491
 30
0.0
 11
1026.89315325573
 21
-1337.628145544487
 31
0.0
  0
LINE
  5
15C
330
5E
100
AcDbEntity
  8
1
  6
PHANTOM
 62
     2
100
AcDbLine
 10
826.8931532557301
 20
-1537.628145544489
 30
0.0
 11
1226.89315325573
 21
-1537.628145544489
 31
0.0
  0
CIRCLE
  5
15D
330
5E
100
AcDbEntity
  8
0
  6
Continuous
 62
     7
100
AcDbCircle
 10
1026.89315325573
 20
-1537.628145544491
 30
0.0
 40
56.0
  0
ENDBLK
  5
60
330
5E
100
AcDbEntity
  8
0
100
AcDbBlockEnd
  0
BLOCK
  5
62
330
61
100
AcDbEntity
  8
0
100
AcDbBlockBegin
  2
HL83-Klemmring-H4
 70
     0
 71
     0
 10
1124.89315325573
 20
-1335.983374824296
 30
0.0
  3
HL83-Klemmring-H4
  1

  0
LINE
  5
15E
330
61
100
AcDbEntity
  8
1
  6
PHANTOM
 62
     2
100
AcDbLine
 10
953.8931532557301
 20
-1529.087820319742
 30
0.0
 11
953.8931532557301
 21
-1546.16847076924
 31
0.0
  0
LINE
  5
15F
330
61
100
AcDbEntity
  8
1
  6
PHANTOM
 62
     2
100
AcDbLine
 10
962.4334784804826
 20
-1537.628145544491
 30
0.0
 11
945.3528280309813
 21
-1537.628145544491
 31
0.0
  0
LINE
  5
160
330
61
100
AcDbEntity
  8
1
  6
PHANTOM
 62
     2
100
AcDbLine
 10
1099.89315325573
 20
-1529.087820319742
 30
0.0
 11
1099.89315325573
 21
-1546.16847076924
 31
0.0
  0
LINE
  5
161
330
61
100
AcDbEntity
  8
1
  6
PHANTOM
 62
     2
100
AcDbLine
 10
1108.433478480483
 20
-1537.628145544491
 30
0.0
 11
1091.352828030981
 21
-1537.628145544491
 31
0.0
  0
LINE
  5
162
330
61
100
AcDbEntity
  8
1
  6
PHANTOM
 62
     2
100
AcDbLine
 10
990.3931532557301
 20
-1465.867965843477
 30
0.0
 11
990.3931532557301
 21
-1482.948616292978
 31
0.0
  0
LINE
  5
163
330
61
100
AcDbEntity
  8
1
  6
PHANTOM
 62
     2
100
AcDbLine
 10
998.9334784804826
 20
-1474.408291068226
 30
0.0
 11
981.8528280309813
 21
-1474.408291068226
 31
0.0
  0
LINE
  5
164
330
61
100
AcDbEntity
  8
1
  6
PHANTOM
 62
     2
100
AcDbLine
 10
1063.39315325573
 20
-1592.307674796004
 30
0.0
 11
1063.39315325573
 21
-1609.388325245505
 31
0.0
  0
LINE
  5
165
330
61
100
AcDbEntity
  8
1
  6
PHANTOM
 62
     2
100
AcDbLine
 10
1071.933478480483
 20
-1600.848000020756
 30
0.0
 11
1054.852828030981
 21
-1600.848000020756
 31
0.0
  0
LINE
  5
166
330
61
100
AcDbEntity
  8
1
  6
PHANTOM
 62
     2
100
AcDbLine
 10
990.3931532557301
 20
-1592.307674796004
 30
0.0
 11
990.3931532557301
 21
-1609.388325245505
 31
0.0
  0
LINE
  5
167
330
61
100
AcDbEntity
  8
1
  6
PHANTOM
 62
     2
100
AcDbLine
 10
998.9334784804826
 20
-1600.848000020756
 30
0.0
 11
981.8528280309813
 21
-1600.848000020756
 31
0.0
  0
LINE
  5
168
330
61
100
AcDbEntity
  8
1
  6
PHANTOM
 62
     2
100
AcDbLine
 10
1026.89315325573
 20
-1429.828145544492
 30
0.0
 11
1026.89315325573
 21
-1645.42814554449
 31
0.0
  0
LINE
  5
169
330
61
100
AcDbEntity
  8
1
  6
PHANTOM
 62
     2
100
AcDbLine
 10
1134.693153255733
 20
-1537.628145544491
 30
0.0
 11
919.0931532557308
 21
-1537.628145544491
 31
0.0
  0
LINE
  5
16A
330
61
100
AcDbEntity
  8
0
  6
Continuous
 62
     7
100
AcDbLine
 10
1020.993153255732
 20
-1610.228145544679
 30
0.0
 11
1017.293205161951
 21
-1610.228145544679
 31
0.0
  0
LINE
  5
16B
330
61
100
AcDbEntity
  8
0
  6
Continuous
 62
     7
100
AcDbLine
 10
1026.0931532556
 20
-1610.228145544668
 30
0.0
 11
1023.693153255551
 21
-1610.228145544668
 31
0.0
  0
LINE
  5
16C
330
61
100
AcDbEntity
  8
0
  6
Continuous
 62
     7
100
AcDbLine
 10
1028.793153255641
 20
-1613.028145544689
 30
0.0
 11
1030.99315325559
 21
-1613.028145544689
 31
0.0
  0
LINE
  5
16D
330
61
100
AcDbEntity
  8
0
  6
Continuous
 62
     7
100
AcDbLine
 10
1022.89315325565
 20
-1608.52814554466
 30
0.0
 11
1022.893153255632
 21
-1612.728145544661
 31
0.0
  0
LINE
  5
16E
330
61
100
AcDbEntity
  8
0
  6
Continuous
 62
     7
100
AcDbLine
 10
1017.293205161951
 20
-1611.028145544678
 30
0.0
 11
1020.993153255732
 21
-1611.028145544678
 31
0.0
  0
LINE
  5
16F
330
61
100
AcDbEntity
  8
0
  6
Continuous
 62
     7
100
AcDbLine
 10
1023.693153255649
 20
-1612.728145544668
 30
0.0
 11
1023.693153255649
 21
-1611.028145544689
 31
0.0
  0
LINE
  5
170
330
61
100
AcDbEntity
  8
0
  6
Continuous
 62
     7
100
AcDbLine
 10
1023.693153255551
 20
-1610.228145544668
 30
0.0
 11
1023.693153255631
 21
-1608.52814554466
 31
0.0
  0
LINE
  5
171
330
61
100
AcDbEntity
  8
0
  6
Continuous
 62
     7
100
AcDbLine
 10
1026.093153255691
 20
-1611.028145544689
 30
0.0
 11
1026.093153255589
 21
-1612.728145544668
 31
0.0
  0
LINE
  5
172
330
61
100
AcDbEntity
  8
0
  6
Continuous
 62
     7
100
AcDbLine
 10
1028.39315325573
 20
-1608.52814554466
 30
0.0
 11
1028.393153255621
 21
-1612.628145544669
 31
0.0
  0
LINE
  5
173
330
61
100
AcDbEntity
  8
0
  6
Continuous
 62
     7
100
AcDbLine
 10
1026.89315325573
 20
-1612.728145544668
 30
0.0
 11
1026.89315325573
 21
-1608.52814554466
 31
0.0
  0
LINE
  5
174
330
61
100
AcDbEntity
  8
0
  6
Continuous
 62
     7
100
AcDbLine
 10
1029.193153255551
 20
-1612.228145544668
 30
0.0
 11
1029.193153255631
 21
-1608.52814554466
 31
0.0
  0
LINE
  5
175
330
61
100
AcDbEntity
  8
0
  6
Continuous
 62
     7
100
AcDbLine
 10
1032.793153255732
 20
-1611.028145544678
 30
0.0
 11
1036.493101349513
 21
-1611.028145544678
 31
0.0
  0
LINE
  5
176
330
61
100
AcDbEntity
  8
0
  6
Continuous
 62
     7
100
AcDbLine
 10
1023.693153255649
 20
-1611.028145544689
 30
0.0
 11
1026.093153255691
 21
-1611.028145544689
 31
0.0
  0
LINE
  5
177
330
61
100
AcDbEntity
  8
0
  6
Continuous
 62
     7
100
AcDbLine
 10
1030.99315325559
 20
-1612.228145544668
 30
0.0
 11
1029.193153255551
 21
-1612.228145544668
 31
0.0
  0
LINE
  5
178
330
61
100
AcDbEntity
  8
0
  6
Continuous
 62
     7
100
AcDbLine
 10
1026.0931532556
 20
-1608.52814554466
 30
0.0
 11
1026.0931532556
 21
-1610.228145544668
 31
0.0
  0
LINE
  5
179
330
61
100
AcDbEntity
  8
0
  6
Continuous
 62
     7
100
AcDbLine
 10
1036.493101349513
 20
-1610.228145544679
 30
0.0
 11
1032.793153255732
 21
-1610.228145544679
 31
0.0
  0
LINE
  5
17A
330
61
100
AcDbEntity
  8
0
  6
Continuous
 62
     7
100
AcDbLine
 10
1020.411961255731
 20
-1466.940645544491
 30
0.0
 11
1020.661961255731
 21
-1466.815645544491
 31
0.0
  0
LINE
  5
17B
330
61
100
AcDbEntity
  8
0
  6
Continuous
 62
     7
100
AcDbLine
 10
1019.974461255731
 20
-1467.065645544491
 30
0.0
 11
1020.411961255731
 21
-1466.940645544491
 31
0.0
  0
LINE
  5
17C
330
61
100
AcDbEntity
  8
0
  6
Continuous
 62
     7
100
AcDbLine
 10
1025.161961255731
 20
-1467.128145544491
 30
0.0
 11
1025.661961255731
 21
-1467.003145544491
 31
0.0
  0
LINE
  5
17D
330
61
100
AcDbEntity
  8
0
  6
Continuous
 62
     7
100
AcDbLine
 10
1025.661961255731
 20
-1467.003145544491
 30
0.0
 11
1026.036961255731
 21
-1466.815645544491
 31
0.0
  0
LINE
  5
17E
330
61
100
AcDbEntity
  8
0
  6
Continuous
 62
     7
100
AcDbLine
 10
1018.161961255731
 20
-1466.815645544491
 30
0.0
 11
1018.411961255731
 21
-1466.940645544491
 31
0.0
  0
LINE
  5
17F
330
61
100
AcDbEntity
  8
0
  6
Continuous
 62
     7
100
AcDbLine
 10
1018.411961255731
 20
-1466.940645544491
 30
0.0
 11
1018.849461255731
 21
-1467.065645544491
 31
0.0
  0
LINE
  5
180
330
61
100
AcDbEntity
  8
0
  6
Continuous
 62
     7
100
AcDbLine
 10
1018.849461255731
 20
-1467.065645544491
 30
0.0
 11
1019.224461255731
 21
-1467.128145544491
 31
0.0
  0
LINE
  5
181
330
61
100
AcDbEntity
  8
0
  6
Continuous
 62
     7
100
AcDbLine
 10
1019.224461255731
 20
-1467.128145544491
 30
0.0
 11
1019.599461255731
 21
-1467.128145544491
 31
0.0
  0
LINE
  5
182
330
61
100
AcDbEntity
  8
0
  6
Continuous
 62
     7
100
AcDbLine
 10
1019.599461255731
 20
-1467.128145544491
 30
0.0
 11
1019.974461255731
 21
-1467.065645544491
 31
0.0
  0
LINE
  5
183
330
61
100
AcDbEntity
  8
0
  6
Continuous
 62
     7
100
AcDbLine
 10
1035.474461255731
 20
-1467.128145544491
 30
0.0
 11
1036.161961255731
 21
-1467.128145544491
 31
0.0
  0
LINE
  5
184
330
61
100
AcDbEntity
  8
0
  6
Continuous
 62
     7
100
AcDbLine
 10
1032.286961255731
 20
-1467.128145544491
 30
0.0
 11
1032.911961255731
 21
-1467.128145544491
 31
0.0
  0
LINE
  5
185
330
61
100
AcDbEntity
  8
0
  6
Continuous
 62
     7
100
AcDbLine
 10
1027.661961255731
 20
-1467.128145544491
 30
0.0
 11
1031.286961255731
 21
-1467.128145544491
 31
0.0
  0
LINE
  5
186
330
61
100
AcDbEntity
  8
0
  6
Continuous
 62
     7
100
AcDbLine
 10
1022.786961255731
 20
-1467.128145544491
 30
0.0
 11
1025.161961255731
 21
-1467.128145544491
 31
0.0
  0
LINE
  5
187
330
61
100
AcDbEntity
  8
0
  6
Continuous
 62
     7
100
AcDbLine
 10
1026.036961255731
 20
-1466.815645544491
 30
0.0
 11
1026.349461255731
 21
-1466.503145544491
 31
0.0
  0
LINE
  5
188
330
61
100
AcDbEntity
  8
0
  6
Continuous
 62
     7
100
AcDbLine
 10
1026.286961255731
 20
-1464.628145544491
 30
0.0
 11
1025.974461255731
 21
-1464.378145544491
 31
0.0
  0
LINE
  5
189
330
61
100
AcDbEntity
  8
0
  6
Continuous
 62
     7
100
AcDbLine
 10
1026.099461255731
 20
-1464.253145544491
 30
0.0
 11
1026.349461255731
 21
-1463.878145544491
 31
0.0
  0
LINE
  5
18A
330
61
100
AcDbEntity
  8
0
  6
Continuous
 62
     7
100
AcDbLine
 10
1025.974461255731
 20
-1464.378145544491
 30
0.0
 11
1026.099461255731
 21
-1464.253145544491
 31
0.0
  0
LINE
  5
18B
330
61
100
AcDbEntity
  8
0
  6
Continuous
 62
     7
100
AcDbLine
 10
1025.099461255731
 20
-1464.690645544491
 30
0.0
 11
1025.411961255731
 21
-1464.753145544491
 31
0.0
  0
LINE
  5
18C
330
61
100
AcDbEntity
  8
0
  6
Continuous
 62
     7
100
AcDbLine
 10
1023.474461255731
 20
-1464.690645544491
 30
0.0
 11
1025.099461255731
 21
-1464.690645544491
 31
0.0
  0
LINE
  5
18D
330
61
100
AcDbEntity
  8
0
  6
Continuous
 62
     7
100
AcDbLine
 10
1023.474461255731
 20
-1466.440645544491
 30
0.0
 11
1023.474461255731
 21
-1464.690645544491
 31
0.0
  0
LINE
  5
18E
330
61
100
AcDbEntity
  8
0
  6
Continuous
 62
     7
100
AcDbLine
 10
1025.411961255731
 20
-1464.753145544491
 30
0.0
 11
1025.661961255731
 21
-1464.940645544491
 31
0.0
  0
LINE
  5
18F
330
61
100
AcDbEntity
  8
0
  6
Continuous
 62
     7
100
AcDbLine
 10
1025.849461255731
 20
-1465.190645544491
 30
0.0
 11
1025.911961255731
 21
-1465.440645544491
 31
0.0
  0
LINE
  5
190
330
61
100
AcDbEntity
  8
0
  6
Continuous
 62
     7
100
AcDbLine
 10
1025.349461255731
 20
-1464.065645544491
 30
0.0
 11
1025.099461255731
 21
-1464.128145544491
 31
0.0
  0
LINE
  5
191
330
61
100
AcDbEntity
  8
0
  6
Continuous
 62
     7
100
AcDbLine
 10
1025.661961255731
 20
-1464.940645544491
 30
0.0
 11
1025.849461255731
 21
-1465.190645544491
 31
0.0
  0
LINE
  5
192
330
61
100
AcDbEntity
  8
0
  6
Continuous
 62
     7
100
AcDbLine
 10
1025.911961255731
 20
-1465.690645544491
 30
0.0
 11
1025.849461255731
 21
-1465.940645544491
 31
0.0
  0
LINE
  5
193
330
61
100
AcDbEntity
  8
0
  6
Continuous
 62
     7
100
AcDbLine
 10
1025.911961255731
 20
-1465.440645544491
 30
0.0
 11
1025.911961255731
 21
-1465.690645544491
 31
0.0
  0
LINE
  5
194
330
61
100
AcDbEntity
  8
0
  6
Continuous
 62
     7
100
AcDbLine
 10
1025.099461255731
 20
-1464.128145544491
 30
0.0
 11
1023.474461255731
 21
-1464.128145544491
 31
0.0
  0
LINE
  5
195
330
61
100
AcDbEntity
  8
0
  6
Continuous
 62
     7
100
AcDbLine
 10
1025.411961255731
 20
-1466.378145544491
 30
0.0
 11
1025.099461255731
 21
-1466.440645544491
 31
0.0
  0
LINE
  5
196
330
61
100
AcDbEntity
  8
0
  6
Continuous
 62
     7
100
AcDbLine
 10
1025.099461255731
 20
-1466.440645544491
 30
0.0
 11
1023.474461255731
 21
-1466.440645544491
 31
0.0
  0
LINE
  5
197
330
61
100
AcDbEntity
  8
0
  6
Continuous
 62
     7
100
AcDbLine
 10
1025.849461255731
 20
-1465.940645544491
 30
0.0
 11
1025.661961255731
 21
-1466.190645544491
 31
0.0
  0
LINE
  5
198
330
61
100
AcDbEntity
  8
0
  6
Continuous
 62
     7
100
AcDbLine
 10
1025.661961255731
 20
-1466.190645544491
 30
0.0
 11
1025.411961255731
 21
-1466.378145544491
 31
0.0
  0
LINE
  5
199
330
61
100
AcDbEntity
  8
0
  6
Continuous
 62
     7
100
AcDbLine
 10
1025.536961255731
 20
-1463.940645544491
 30
0.0
 11
1025.349461255731
 21
-1464.065645544491
 31
0.0
  0
LINE
  5
19A
330
61
100
AcDbEntity
  8
0
  6
Continuous
 62
     7
100
AcDbLine
 10
1021.536961255731
 20
-1463.440645544491
 30
0.0
 11
1021.286961255731
 21
-1463.003145544491
 31
0.0
  0
LINE
  5
19B
330
61
100
AcDbEntity
  8
0
  6
Continuous
 62
     7
100
AcDbLine
 10
1017.786961255731
 20
-1465.253145544491
 30
0.0
 11
1017.724461255731
 21
-1464.815645544491
 31
0.0
  0
LINE
  5
19C
330
61
100
AcDbEntity
  8
0
  6
Continuous
 62
     7
100
AcDbLine
 10
1017.036961255731
 20
-1464.815645544491
 30
0.0
 11
1017.099461255731
 21
-1465.253145544491
 31
0.0
  0
LINE
  5
19D
330
61
100
AcDbEntity
  8
0
  6
Continuous
 62
     7
100
AcDbLine
 10
1021.036961255731
 20
-1464.003145544491
 30
0.0
 11
1021.099461255731
 21
-1464.440645544491
 31
0.0
  0
LINE
  5
19E
330
61
100
AcDbEntity
  8
0
  6
Continuous
 62
     7
100
AcDbLine
 10
1021.786961255731
 20
-1464.440645544491
 30
0.0
 11
1021.724461255731
 21
-1464.003145544491
 31
0.0
  0
LINE
  5
19F
330
61
100
AcDbEntity
  8
0
  6
Continuous
 62
     7
100
AcDbLine
 10
1017.724461255731
 20
-1464.440645544491
 30
0.0
 11
1017.786961255731
 21
-1464.003145544491
 31
0.0
  0
LINE
  5
1A0
330
61
100
AcDbEntity
  8
0
  6
Continuous
 62
     7
100
AcDbLine
 10
1017.036961255731
 20
-1464.440645544491
 30
0.0
 11
1017.036961255731
 21
-1464.815645544491
 31
0.0
  0
LINE
  5
1A1
330
61
100
AcDbEntity
  8
0
  6
Continuous
 62
     7
100
AcDbLine
 10
1017.724461255731
 20
-1464.815645544491
 30
0.0
 11
1017.724461255731
 21
-1464.440645544491
 31
0.0
  0
LINE
  5
1A2
330
61
100
AcDbEntity
  8
0
  6
Continuous
 62
     7
100
AcDbLine
 10
1017.536961255731
 20
-1463.065645544491
 30
0.0
 11
1017.286961255731
 21
-1463.440645544491
 31
0.0
  0
LINE
  5
1A3
330
61
100
AcDbEntity
  8
0
  6
Continuous
 62
     7
100
AcDbLine
 10
1018.099461255731
 20
-1463.315645544491
 30
0.0
 11
1018.286961255731
 21
-1463.128145544491
 31
0.0
  0
LINE
  5
1A4
330
61
100
AcDbEntity
  8
0
  6
Continuous
 62
     7
100
AcDbLine
 10
1018.286961255731
 20
-1463.128145544491
 30
0.0
 11
1018.474461255731
 21
-1463.003145544491
 31
0.0
  0
LINE
  5
1A5
330
61
100
AcDbEntity
  8
0
  6
Continuous
 62
     7
100
AcDbLine
 10
1017.911961255731
 20
-1463.628145544491
 30
0.0
 11
1018.099461255731
 21
-1463.315645544491
 31
0.0
  0
LINE
  5
1A6
330
61
100
AcDbEntity
  8
0
  6
Continuous
 62
     7
100
AcDbLine
 10
1021.724461255731
 20
-1464.003145544491
 30
0.0
 11
1021.536961255731
 21
-1463.440645544491
 31
0.0
  0
LINE
  5
1A7
330
61
100
AcDbEntity
  8
0
  6
Continuous
 62
     7
100
AcDbLine
 10
1020.911961255731
 20
-1463.628145544491
 30
0.0
 11
1021.036961255731
 21
-1464.003145544491
 31
0.0
  0
LINE
  5
1A8
330
61
100
AcDbEntity
  8
0
  6
Continuous
 62
     7
100
AcDbLine
 10
1023.474461255731
 20
-1464.128145544491
 30
0.0
 11
1023.474461255731
 21
-1462.753145544491
 31
0.0
  0
LINE
  5
1A9
330
61
100
AcDbEntity
  8
0
  6
Continuous
 62
     7
100
AcDbLine
 10
1017.286961255731
 20
-1463.440645544491
 30
0.0
 11
1017.099461255731
 21
-1464.003145544491
 31
0.0
  0
LINE
  5
1AA
330
61
100
AcDbEntity
  8
0
  6
Continuous
 62
     7
100
AcDbLine
 10
1017.786961255731
 20
-1464.003145544491
 30
0.0
 11
1017.911961255731
 21
-1463.628145544491
 31
0.0
  0
LINE
  5
1AB
330
61
100
AcDbEntity
  8
0
  6
Continuous
 62
     7
100
AcDbLine
 10
1017.099461255731
 20
-1464.003145544491
 30
0.0
 11
1017.036961255731
 21
-1464.440645544491
 31
0.0
  0
LINE
  5
1AC
330
61
100
AcDbEntity
  8
0
  6
Continuous
 62
     7
100
AcDbLine
 10
1026.349461255731
 20
-1463.003145544491
 30
0.0
 11
1026.099461255731
 21
-1462.628145544491
 31
0.0
  0
LINE
  5
1AD
330
61
100
AcDbEntity
  8
0
  6
Continuous
 62
     7
100
AcDbLine
 10
1025.349461255731
 20
-1462.815645544491
 30
0.0
 11
1025.536961255731
 21
-1462.940645544491
 31
0.0
  0
LINE
  5
1AE
330
61
100
AcDbEntity
  8
0
  6
Continuous
 62
     7
100
AcDbLine
 10
1025.536961255731
 20
-1462.940645544491
 30
0.0
 11
1025.661961255731
 21
-1463.128145544491
 31
0.0
  0
LINE
  5
1AF
330
61
100
AcDbEntity
  8
0
  6
Continuous
 62
     7
100
AcDbLine
 10
1025.661961255731
 20
-1463.128145544491
 30
0.0
 11
1025.724461255731
 21
-1463.315645544491
 31
0.0
  0
LINE
  5
1B0
330
61
100
AcDbEntity
  8
0
  6
Continuous
 62
     7
100
AcDbLine
 10
1025.724461255731
 20
-1463.315645544491
 30
0.0
 11
1025.724461255731
 21
-1463.565645544491
 31
0.0
  0
LINE
  5
1B1
330
61
100
AcDbEntity
  8
0
  6
Continuous
 62
     7
100
AcDbLine
 10
1025.099461255731
 20
-1462.753145544491
 30
0.0
 11
1025.349461255731
 21
-1462.815645544491
 31
0.0
  0
LINE
  5
1B2
330
61
100
AcDbEntity
  8
0
  6
Continuous
 62
     7
100
AcDbLine
 10
1025.724461255731
 20
-1463.565645544491
 30
0.0
 11
1025.661961255731
 21
-1463.753145544491
 31
0.0
  0
LINE
  5
1B3
330
61
100
AcDbEntity
  8
0
  6
Continuous
 62
     7
100
AcDbLine
 10
1025.661961255731
 20
-1463.753145544491
 30
0.0
 11
1025.536961255731
 21
-1463.940645544491
 31
0.0
  0
LINE
  5
1B4
330
61
100
AcDbEntity
  8
0
  6
Continuous
 62
     7
100
AcDbLine
 10
1021.786961255731
 20
-1464.815645544491
 30
0.0
 11
1021.786961255731
 21
-1464.440645544491
 31
0.0
  0
LINE
  5
1B5
330
61
100
AcDbEntity
  8
0
  6
Continuous
 62
     7
100
AcDbLine
 10
1021.099461255731
 20
-1464.440645544491
 30
0.0
 11
1021.099461255731
 21
-1464.815645544491
 31
0.0
  0
LINE
  5
1B6
330
61
100
AcDbEntity
  8
0
  6
Continuous
 62
     7
100
AcDbLine
 10
1017.786961255731
 20
-1462.753145544491
 30
0.0
 11
1017.536961255731
 21
-1463.065645544491
 31
0.0
  0
LINE
  5
1B7
330
61
100
AcDbEntity
  8
0
  6
Continuous
 62
     7
100
AcDbLine
 10
1018.474461255731
 20
-1463.003145544491
 30
0.0
 11
1018.849461255731
 21
-1462.878145544491
 31
0.0
  0
LINE
  5
1B8
330
61
100
AcDbEntity
  8
0
  6
Continuous
 62
     7
100
AcDbLine
 10
1019.224461255731
 20
-1462.815645544491
 30
0.0
 11
1019.599461255731
 21
-1462.815645544491
 31
0.0
  0
LINE
  5
1B9
330
61
100
AcDbEntity
  8
0
  6
Continuous
 62
     7
100
AcDbLine
 10
1019.599461255731
 20
-1462.815645544491
 30
0.0
 11
1019.974461255731
 21
-1462.878145544491
 31
0.0
  0
LINE
  5
1BA
330
61
100
AcDbEntity
  8
0
  6
Continuous
 62
     7
100
AcDbLine
 10
1018.849461255731
 20
-1462.878145544491
 30
0.0
 11
1019.224461255731
 21
-1462.815645544491
 31
0.0
  0
LINE
  5
1BB
330
61
100
AcDbEntity
  8
0
  6
Continuous
 62
     7
100
AcDbLine
 10
1023.474461255731
 20
-1462.753145544491
 30
0.0
 11
1025.099461255731
 21
-1462.753145544491
 31
0.0
  0
LINE
  5
1BC
330
61
100
AcDbEntity
  8
0
  6
Continuous
 62
     7
100
AcDbLine
 10
1019.974461255731
 20
-1462.878145544491
 30
0.0
 11
1020.349461255731
 21
-1463.003145544491
 31
0.0
  0
LINE
  5
1BD
330
61
100
AcDbEntity
  8
0
  6
Continuous
 62
     7
100
AcDbLine
 10
1021.286961255731
 20
-1463.003145544491
 30
0.0
 11
1021.036961255731
 21
-1462.690645544491
 31
0.0
  0
LINE
  5
1BE
330
61
100
AcDbEntity
  8
0
  6
Continuous
 62
     7
100
AcDbLine
 10
1020.724461255731
 20
-1463.315645544491
 30
0.0
 11
1020.911961255731
 21
-1463.628145544491
 31
0.0
  0
LINE
  5
1BF
330
61
100
AcDbEntity
  8
0
  6
Continuous
 62
     7
100
AcDbLine
 10
1020.536961255731
 20
-1463.128145544491
 30
0.0
 11
1020.724461255731
 21
-1463.315645544491
 31
0.0
  0
LINE
  5
1C0
330
61
100
AcDbEntity
  8
0
  6
Continuous
 62
     7
100
AcDbLine
 10
1020.349461255731
 20
-1463.003145544491
 30
0.0
 11
1020.536961255731
 21
-1463.128145544491
 31
0.0
  0
LINE
  5
1C1
330
61
100
AcDbEntity
  8
0
  6
Continuous
 62
     7
100
AcDbLine
 10
1032.911961255731
 20
-1463.253145544491
 30
0.0
 11
1035.474461255731
 21
-1467.128145544491
 31
0.0
  0
LINE
  5
1C2
330
61
100
AcDbEntity
  8
0
  6
Continuous
 62
     7
100
AcDbLine
 10
1026.661961255731
 20
-1465.440645544491
 30
0.0
 11
1026.536961255731
 21
-1465.003145544491
 31
0.0
  0
LINE
  5
1C3
330
61
100
AcDbEntity
  8
0
  6
Continuous
 62
     7
100
AcDbLine
 10
1026.536961255731
 20
-1466.190645544491
 30
0.0
 11
1026.661961255731
 21
-1465.753145544491
 31
0.0
  0
LINE
  5
1C4
330
61
100
AcDbEntity
  8
0
  6
Continuous
 62
     7
100
AcDbLine
 10
1028.349461255731
 20
-1464.253145544491
 30
0.0
 11
1028.349461255731
 21
-1462.753145544491
 31
0.0
  0
LINE
  5
1C5
330
61
100
AcDbEntity
  8
0
  6
Continuous
 62
     7
100
AcDbLine
 10
1026.661961255731
 20
-1465.753145544491
 30
0.0
 11
1026.661961255731
 21
-1465.440645544491
 31
0.0
  0
LINE
  5
1C6
330
61
100
AcDbEntity
  8
0
  6
Continuous
 62
     7
100
AcDbLine
 10
1026.411961255731
 20
-1463.565645544491
 30
0.0
 11
1026.411961255731
 21
-1463.315645544491
 31
0.0
  0
LINE
  5
1C7
330
61
100
AcDbEntity
  8
0
  6
Continuous
 62
     7
100
AcDbLine
 10
1030.974461255731
 20
-1464.878145544491
 30
0.0
 11
1030.974461255731
 21
-1464.253145544491
 31
0.0
  0
LINE
  5
1C8
330
61
100
AcDbEntity
  8
0
  6
Continuous
 62
     7
100
AcDbLine
 10
1028.349461255731
 20
-1464.878145544491
 30
0.0
 11
1030.974461255731
 21
-1464.878145544491
 31
0.0
  0
LINE
  5
1C9
330
61
100
AcDbEntity
  8
0
  6
Continuous
 62
     7
100
AcDbLine
 10
1030.974461255731
 20
-1464.253145544491
 30
0.0
 11
1028.349461255731
 21
-1464.253145544491
 31
0.0
  0
LINE
  5
1CA
330
61
100
AcDbEntity
  8
0
  6
Continuous
 62
     7
100
AcDbLine
 10
1036.161961255731
 20
-1467.128145544491
 30
0.0
 11
1036.161961255731
 21
-1462.128145544491
 31
0.0
  0
LINE
  5
1CB
330
61
100
AcDbEntity
  8
0
  6
Continuous
 62
     7
100
AcDbLine
 10
1032.911961255731
 20
-1467.128145544491
 30
0.0
 11
1032.911961255731
 21
-1463.253145544491
 31
0.0
  0
LINE
  5
1CC
330
61
100
AcDbEntity
  8
0
  6
Continuous
 62
     7
100
AcDbLine
 10
1032.286961255731
 20
-1462.128145544491
 30
0.0
 11
1032.286961255731
 21
-1467.128145544491
 31
0.0
  0
LINE
  5
1CD
330
61
100
AcDbEntity
  8
0
  6
Continuous
 62
     7
100
AcDbLine
 10
1035.536961255731
 20
-1466.003145544491
 30
0.0
 11
1032.974461255731
 21
-1462.128145544491
 31
0.0
  0
LINE
  5
1CE
330
61
100
AcDbEntity
  8
0
  6
Continuous
 62
     7
100
AcDbLine
 10
1032.974461255731
 20
-1462.128145544491
 30
0.0
 11
1032.286961255731
 21
-1462.128145544491
 31
0.0
  0
LINE
  5
1CF
330
61
100
AcDbEntity
  8
0
  6
Continuous
 62
     7
100
AcDbLine
 10
1035.536961255731
 20
-1462.128145544491
 30
0.0
 11
1035.536961255731
 21
-1466.003145544491
 31
0.0
  0
LINE
  5
1D0
330
61
100
AcDbEntity
  8
0
  6
Continuous
 62
     7
100
AcDbLine
 10
1031.286961255731
 20
-1466.503145544491
 30
0.0
 11
1028.349461255731
 21
-1466.503145544491
 31
0.0
  0
LINE
  5
1D1
330
61
100
AcDbEntity
  8
0
  6
Continuous
 62
     7
100
AcDbLine
 10
1028.349461255731
 20
-1462.753145544491
 30
0.0
 11
1031.224461255731
 21
-1462.753145544491
 31
0.0
  0
LINE
  5
1D2
330
61
100
AcDbEntity
  8
0
  6
Continuous
 62
     7
100
AcDbLine
 10
1031.224461255731
 20
-1462.753145544491
 30
0.0
 11
1031.224461255731
 21
-1462.128145544491
 31
0.0
  0
LINE
  5
1D3
330
61
100
AcDbEntity
  8
0
  6
Continuous
 62
     7
100
AcDbLine
 10
1031.224461255731
 20
-1462.128145544491
 30
0.0
 11
1027.661961255731
 21
-1462.128145544491
 31
0.0
  0
LINE
  5
1D4
330
61
100
AcDbEntity
  8
0
  6
Continuous
 62
     7
100
AcDbLine
 10
1028.349461255731
 20
-1466.503145544491
 30
0.0
 11
1028.349461255731
 21
-1464.878145544491
 31
0.0
  0
LINE
  5
1D5
330
61
100
AcDbEntity
  8
0
  6
Continuous
 62
     7
100
AcDbLine
 10
1027.661961255731
 20
-1462.128145544491
 30
0.0
 11
1027.661961255731
 21
-1467.128145544491
 31
0.0
  0
LINE
  5
1D6
330
61
100
AcDbEntity
  8
0
  6
Continuous
 62
     7
100
AcDbLine
 10
1026.349461255731
 20
-1466.503145544491
 30
0.0
 11
1026.536961255731
 21
-1466.190645544491
 31
0.0
  0
LINE
  5
1D7
330
61
100
AcDbEntity
  8
0
  6
Continuous
 62
     7
100
AcDbLine
 10
1026.411961255731
 20
-1463.315645544491
 30
0.0
 11
1026.349461255731
 21
-1463.003145544491
 31
0.0
  0
LINE
  5
1D8
330
61
100
AcDbEntity
  8
0
  6
Continuous
 62
     7
100
AcDbLine
 10
1026.349461255731
 20
-1463.878145544491
 30
0.0
 11
1026.411961255731
 21
-1463.565645544491
 31
0.0
  0
LINE
  5
1D9
330
61
100
AcDbEntity
  8
0
  6
Continuous
 62
     7
100
AcDbLine
 10
1031.286961255731
 20
-1467.128145544491
 30
0.0
 11
1031.286961255731
 21
-1466.503145544491
 31
0.0
  0
LINE
  5
1DA
330
61
100
AcDbEntity
  8
0
  6
Continuous
 62
     7
100
AcDbLine
 10
1025.474461255731
 20
-1462.190645544491
 30
0.0
 11
1025.161961255731
 21
-1462.128145544491
 31
0.0
  0
LINE
  5
1DB
330
61
100
AcDbEntity
  8
0
  6
Continuous
 62
     7
100
AcDbLine
 10
1017.099461255731
 20
-1465.253145544491
 30
0.0
 11
1017.286961255731
 21
-1465.815645544491
 31
0.0
  0
LINE
  5
1DC
330
61
100
AcDbEntity
  8
0
  6
Continuous
 62
     7
100
AcDbLine
 10
1021.536961255731
 20
-1465.815645544491
 30
0.0
 11
1021.724461255731
 21
-1465.253145544491
 31
0.0
  0
LINE
  5
1DD
330
61
100
AcDbEntity
  8
0
  6
Continuous
 62
     7
100
AcDbLine
 10
1026.536961255731
 20
-1465.003145544491
 30
0.0
 11
1026.286961255731
 21
-1464.628145544491
 31
0.0
  0
LINE
  5
1DE
330
61
100
AcDbEntity
  8
0
  6
Continuous
 62
     7
100
AcDbLine
 10
1021.724461255731
 20
-1465.253145544491
 30
0.0
 11
1021.786961255731
 21
-1464.815645544491
 31
0.0
  0
LINE
  5
1DF
330
61
100
AcDbEntity
  8
0
  6
Continuous
 62
     7
100
AcDbLine
 10
1018.099461255731
 20
-1465.940645544491
 30
0.0
 11
1017.911961255731
 21
-1465.628145544491
 31
0.0
  0
LINE
  5
1E0
330
61
100
AcDbEntity
  8
0
  6
Continuous
 62
     7
100
AcDbLine
 10
1017.911961255731
 20
-1465.628145544491
 30
0.0
 11
1017.786961255731
 21
-1465.253145544491
 31
0.0
  0
LINE
  5
1E1
330
61
100
AcDbEntity
  8
0
  6
Continuous
 62
     7
100
AcDbLine
 10
1020.724461255731
 20
-1465.940645544491
 30
0.0
 11
1020.536961255731
 21
-1466.128145544491
 31
0.0
  0
LINE
  5
1E2
330
61
100
AcDbEntity
  8
0
  6
Continuous
 62
     7
100
AcDbLine
 10
1020.911961255731
 20
-1465.628145544491
 30
0.0
 11
1020.724461255731
 21
-1465.940645544491
 31
0.0
  0
LINE
  5
1E3
330
61
100
AcDbEntity
  8
0
  6
Continuous
 62
     7
100
AcDbLine
 10
1021.036961255731
 20
-1465.253145544491
 30
0.0
 11
1020.911961255731
 21
-1465.628145544491
 31
0.0
  0
LINE
  5
1E4
330
61
100
AcDbEntity
  8
0
  6
Continuous
 62
     7
100
AcDbLine
 10
1021.099461255731
 20
-1464.815645544491
 30
0.0
 11
1021.036961255731
 21
-1465.253145544491
 31
0.0
  0
LINE
  5
1E5
330
61
100
AcDbEntity
  8
0
  6
Continuous
 62
     7
100
AcDbLine
 10
1017.286961255731
 20
-1465.815645544491
 30
0.0
 11
1017.536961255731
 21
-1466.190645544491
 31
0.0
  0
LINE
  5
1E6
330
61
100
AcDbEntity
  8
0
  6
Continuous
 62
     7
100
AcDbLine
 10
1018.286961255731
 20
-1466.128145544491
 30
0.0
 11
1018.099461255731
 21
-1465.940645544491
 31
0.0
  0
LINE
  5
1E7
330
61
100
AcDbEntity
  8
0
  6
Continuous
 62
     7
100
AcDbLine
 10
1025.849461255731
 20
-1462.378145544491
 30
0.0
 11
1025.474461255731
 21
-1462.190645544491
 31
0.0
  0
LINE
  5
1E8
330
61
100
AcDbEntity
  8
0
  6
Continuous
 62
     7
100
AcDbLine
 10
1026.099461255731
 20
-1462.628145544491
 30
0.0
 11
1025.849461255731
 21
-1462.378145544491
 31
0.0
  0
LINE
  5
1E9
330
61
100
AcDbEntity
  8
0
  6
Continuous
 62
     7
100
AcDbLine
 10
1017.786961255731
 20
-1466.503145544491
 30
0.0
 11
1018.161961255731
 21
-1466.815645544491
 31
0.0
  0
LINE
  5
1EA
330
61
100
AcDbEntity
  8
0
  6
Continuous
 62
     7
100
AcDbLine
 10
1020.661961255731
 20
-1466.815645544491
 30
0.0
 11
1021.036961255731
 21
-1466.503145544491
 31
0.0
  0
LINE
  5
1EB
330
61
100
AcDbEntity
  8
0
  6
Continuous
 62
     7
100
AcDbLine
 10
1021.286961255731
 20
-1466.190645544491
 30
0.0
 11
1021.536961255731
 21
-1465.815645544491
 31
0.0
  0
LINE
  5
1EC
330
61
100
AcDbEntity
  8
0
  6
Continuous
 62
     7
100
AcDbLine
 10
1021.036961255731
 20
-1462.690645544491
 30
0.0
 11
1020.724461255731
 21
-1462.440645544491
 31
0.0
  0
LINE
  5
1ED
330
61
100
AcDbEntity
  8
0
  6
Continuous
 62
     7
100
AcDbLine
 10
1022.786961255731
 20
-1462.128145544491
 30
0.0
 11
1022.786961255731
 21
-1467.128145544491
 31
0.0
  0
LINE
  5
1EE
330
61
100
AcDbEntity
  8
0
  6
Continuous
 62
     7
100
AcDbLine
 10
1019.599461255731
 20
-1466.440645544491
 30
0.0
 11
1019.224461255731
 21
-1466.440645544491
 31
0.0
  0
LINE
  5
1EF
330
61
100
AcDbEntity
  8
0
  6
Continuous
 62
     7
100
AcDbLine
 10
1019.974461255731
 20
-1462.190645544491
 30
0.0
 11
1019.599461255731
 21
-1462.128145544491
 31
0.0
  0
LINE
  5
1F0
330
61
100
AcDbEntity
  8
0
  6
Continuous
 62
     7
100
AcDbLine
 10
1020.724461255731
 20
-1462.440645544491
 30
0.0
 11
1020.411961255731
 21
-1462.315645544491
 31
0.0
  0
LINE
  5
1F1
330
61
100
AcDbEntity
  8
0
  6
Continuous
 62
     7
100
AcDbLine
 10
1020.411961255731
 20
-1462.315645544491
 30
0.0
 11
1019.974461255731
 21
-1462.190645544491
 31
0.0
  0
LINE
  5
1F2
330
61
100
AcDbEntity
  8
0
  6
Continuous
 62
     7
100
AcDbLine
 10
1021.036961255731
 20
-1466.503145544491
 30
0.0
 11
1021.286961255731
 21
-1466.190645544491
 31
0.0
  0
LINE
  5
1F3
330
61
100
AcDbEntity
  8
0
  6
Continuous
 62
     7
100
AcDbLine
 10
1020.349461255731
 20
-1466.253145544491
 30
0.0
 11
1019.974461255731
 21
-1466.378145544491
 31
0.0
  0
LINE
  5
1F4
330
61
100
AcDbEntity
  8
0
  6
Continuous
 62
     7
100
AcDbLine
 10
1019.974461255731
 20
-1466.378145544491
 30
0.0
 11
1019.599461255731
 21
-1466.440645544491
 31
0.0
  0
LINE
  5
1F5
330
61
100
AcDbEntity
  8
0
  6
Continuous
 62
     7
100
AcDbLine
 10
1020.536961255731
 20
-1466.128145544491
 30
0.0
 11
1020.349461255731
 21
-1466.253145544491
 31
0.0
  0
LINE
  5
1F6
330
61
100
AcDbEntity
  8
0
  6
Continuous
 62
     7
100
AcDbLine
 10
1019.224461255731
 20
-1462.128145544491
 30
0.0
 11
1018.849461255731
 21
-1462.190645544491
 31
0.0
  0
LINE
  5
1F7
330
61
100
AcDbEntity
  8
0
  6
Continuous
 62
     7
100
AcDbLine
 10
1019.599461255731
 20
-1462.128145544491
 30
0.0
 11
1019.224461255731
 21
-1462.128145544491
 31
0.0
  0
LINE
  5
1F8
330
61
100
AcDbEntity
  8
0
  6
Continuous
 62
     7
100
AcDbLine
 10
1019.224461255731
 20
-1466.440645544491
 30
0.0
 11
1018.849461255731
 21
-1466.378145544491
 31
0.0
  0
LINE
  5
1F9
330
61
100
AcDbEntity
  8
0
  6
Continuous
 62
     7
100
AcDbLine
 10
1018.849461255731
 20
-1466.378145544491
 30
0.0
 11
1018.474461255731
 21
-1466.253145544491
 31
0.0
  0
LINE
  5
1FA
330
61
100
AcDbEntity
  8
0
  6
Continuous
 62
     7
100
AcDbLine
 10
1018.411961255731
 20
-1462.315645544491
 30
0.0
 11
1018.161961255731
 21
-1462.440645544491
 31
0.0
  0
LINE
  5
1FB
330
61
100
AcDbEntity
  8
0
  6
Continuous
 62
     7
100
AcDbLine
 10
1018.849461255731
 20
-1462.190645544491
 30
0.0
 11
1018.411961255731
 21
-1462.315645544491
 31
0.0
  0
LINE
  5
1FC
330
61
100
AcDbEntity
  8
0
  6
Continuous
 62
     7
100
AcDbLine
 10
1018.474461255731
 20
-1466.253145544491
 30
0.0
 11
1018.286961255731
 21
-1466.128145544491
 31
0.0
  0
LINE
  5
1FD
330
61
100
AcDbEntity
  8
0
  6
Continuous
 62
     7
100
AcDbLine
 10
1018.161961255731
 20
-1462.440645544491
 30
0.0
 11
1017.786961255731
 21
-1462.753145544491
 31
0.0
  0
LINE
  5
1FE
330
61
100
AcDbEntity
  8
0
  6
Continuous
 62
     7
100
AcDbLine
 10
1017.536961255731
 20
-1466.190645544491
 30
0.0
 11
1017.786961255731
 21
-1466.503145544491
 31
0.0
  0
LINE
  5
1FF
330
61
100
AcDbEntity
  8
0
  6
Continuous
 62
     7
100
AcDbLine
 10
1025.161961255731
 20
-1462.128145544491
 30
0.0
 11
1022.786961255731
 21
-1462.128145544491
 31
0.0
  0
LINE
  5
200
330
61
100
AcDbEntity
  8
0
  6
Continuous
 62
     7
100
AcDbLine
 10
1036.161961255731
 20
-1462.128145544491
 30
0.0
 11
1035.536961255731
 21
-1462.128145544491
 31
0.0
  0
LINE
  5
201
330
61
100
AcDbEntity
  8
1
  6
PHANTOM
 62
     2
100
AcDbLine
 10
1071.933478480481
 20
-1474.408291068226
 30
0.0
 11
1054.852828030979
 21
-1474.408291068226
 31
0.0
  0
LINE
  5
202
330
61
100
AcDbEntity
  8
1
  6
PHANTOM
 62
     2
100
AcDbLine
 10
1063.39315325573
 20
-1465.867965843475
 30
0.0
 11
1063.39315325573
 21
-1482.948616292977
 31
0.0
  0
ARC
  5
203
330
61
100
AcDbEntity
  8
0
  6
Continuous
 62
     7
100
AcDbCircle
 10
1023.293153255641
 20
-1608.52814554466
 30
0.0
 40
0.3999999999900865
100
AcDbArc
 50
0.0
 51
180.0
  0
ARC
  5
204
330
61
100
AcDbEntity
  8
0
  6
Continuous
 62
     7
100
AcDbCircle
 10
1017.293205161951
 20
-1610.62814554468
 30
0.0
 40
0.4000000000010004
100
AcDbArc
 50
90.0
 51
-90.0
  0
ARC
  5
205
330
61
100
AcDbEntity
  8
0
  6
Continuous
 62
     7
100
AcDbCircle
 10
1020.993153255732
 20
-1610.62814554468
 30
0.0
 40
0.3999999999980446
100
AcDbArc
 50
-90.0
 51
90.0
  0
ARC
  5
206
330
61
100
AcDbEntity
  8
0
  6
Continuous
 62
     7
100
AcDbCircle
 10
1023.293153255641
 20
-1612.728145544664
 30
0.0
 40
0.4000000000089585
100
AcDbArc
 50
179.9999999995766
 51
-0.00000000058624
  0
ARC
  5
207
330
61
100
AcDbEntity
  8
0
  6
Continuous
 62
     7
100
AcDbCircle
 10
1028.793153255641
 20
-1612.628145544669
 30
0.0
 40
0.4000000000200998
100
AcDbArc
 50
180.0
 51
-90.0
  0
ARC
  5
208
330
61
100
AcDbEntity
  8
0
  6
Continuous
 62
     7
100
AcDbCircle
 10
1026.49315325566
 20
-1612.728145544668
 30
0.0
 40
0.4000000000710315
100
AcDbArc
 50
180.0
 51
0.0
  0
ARC
  5
209
330
61
100
AcDbEntity
  8
0
  6
Continuous
 62
     7
100
AcDbCircle
 10
1026.493153255667
 20
-1608.52814554466
 30
0.0
 40
0.4000000000630735
100
AcDbArc
 50
0.0
 51
180.0
  0
ARC
  5
20A
330
61
100
AcDbEntity
  8
0
  6
Continuous
 62
     7
100
AcDbCircle
 10
1028.793153255681
 20
-1608.52814554466
 30
0.0
 40
0.3999999999498414
100
AcDbArc
 50
0.0
 51
180.0
  0
ARC
  5
20B
330
61
100
AcDbEntity
  8
0
  6
Continuous
 62
     7
100
AcDbCircle
 10
1036.493101349513
 20
-1610.62814554468
 30
0.0
 40
0.3999999999980446
100
AcDbArc
 50
-90.0
 51
90.0
  0
ARC
  5
20C
330
61
100
AcDbEntity
  8
0
  6
Continuous
 62
     7
100
AcDbCircle
 10
1032.793153255732
 20
-1610.62814554468
 30
0.0
 40
0.4000000000010004
100
AcDbArc
 50
90.0
 51
-90.0
  0
ARC
  5
20D
330
61
100
AcDbEntity
  8
0
  6
Continuous
 62
     7
100
AcDbCircle
 10
1030.99315325559
 20
-1612.62814554468
 30
0.0
 40
0.4000000000091859
100
AcDbArc
 50
-90.0
 51
90.0
  0
ARC
  5
20E
330
61
100
AcDbEntity
  8
0
  6
Continuous
 62
     7
100
AcDbCircle
 10
1026.89315325573
 20
-1537.628145544491
 30
0.0
 40
80.76393202249837
100
AcDbArc
 50
-120.0000000000002
 51
-59.9999999999995
  0
ARC
  5
20F
330
61
100
AcDbEntity
  8
0
  6
Continuous
 62
     7
100
AcDbCircle
 10
1026.89315325573
 20
-1537.628145544491
 30
0.0
 40
60.09277029707957
100
AcDbArc
 50
91.72911401524512
 51
-151.7291140152458
  0
ARC
  5
210
330
61
100
AcDbEntity
  8
0
  6
Continuous
 62
     7
100
AcDbCircle
 10
1026.89315325573
 20
-1537.628145544491
 30
0.0
 40
59.1268444707919
100
AcDbArc
 50
92.99067082984703
 51
-152.9906708298486
  0
ARC
  5
211
330
61
100
AcDbEntity
  8
0
  6
Continuous
 62
     7
100
AcDbCircle
 10
1026.89315325573
 20
-1537.628145544491
 30
0.0
 40
80.76393202249892
100
AcDbArc
 50
180.0
 51
-120.0000000000002
  0
ARC
  5
212
330
61
100
AcDbEntity
  8
0
  6
Continuous
 62
     7
100
AcDbCircle
 10
977.9627179419087
 20
-1565.878145544491
 30
0.0
 40
3.999999999999711
100
AcDbArc
 50
159.5371993501552
 51
-176.9563840265308
  0
ARC
  5
213
330
61
100
AcDbEntity
  8
0
  6
Continuous
 62
     7
100
AcDbCircle
 10
977.9627179419087
 20
-1565.878145544491
 30
0.0
 40
3.999999999997457
100
AcDbArc
 50
-176.6369386231999
 51
-123.3630613768228
  0
ARC
  5
214
330
61
100
AcDbEntity
  8
0
  6
Continuous
 62
     7
100
AcDbCircle
 10
977.9627179419087
 20
-1565.878145544484
 30
0.0
 40
3.999999999998796
100
AcDbArc
 50
-176.95638402643
 51
-176.6369386230991
  0
ARC
  5
215
330
61
100
AcDbEntity
  8
0
  6
Continuous
 62
     7
100
AcDbCircle
 10
977.9627179419087
 20
-1565.878145544491
 30
0.0
 40
3.999999999999584
100
AcDbArc
 50
-123.0436159734645
 51
-99.53719935017641
  0
ARC
  5
216
330
61
100
AcDbEntity
  8
0
  6
Continuous
 62
     7
100
AcDbCircle
 10
977.9627179419124
 20
-1565.878145544491
 30
0.0
 40
3.99999999999977
100
AcDbArc
 50
-123.3630613768663
 51
-123.0436159735082
  0
ARC
  5
217
330
61
100
AcDbEntity
  8
0
  6
Continuous
 62
     7
100
AcDbCircle
 10
977.9627179419087
 20
-1565.878145544491
 30
0.0
 40
3.999999999998296
100
AcDbArc
 50
-99.53719935017641
 51
-65.17251655005634
  0
ARC
  5
218
330
61
100
AcDbEntity
  8
0
  6
Continuous
 62
     7
100
AcDbCircle
 10
977.9627179419087
 20
-1565.878145544491
 30
0.0
 40
3.999999999997727
100
AcDbArc
 50
125.1725165500772
 51
159.5371993501552
  0
ARC
  5
219
330
61
100
AcDbEntity
  8
0
  6
Continuous
 62
     7
100
AcDbCircle
 10
1026.89315325573
 20
-1481.128145544491
 30
0.0
 40
4.000000000001626
100
AcDbArc
 50
5.17251655008208
 51
174.8274834499131
  0
ARC
  5
21A
330
61
100
AcDbEntity
  8
0
  6
Continuous
 62
     7
100
AcDbCircle
 10
1026.89315325573
 20
-1537.628145544491
 30
0.0
 40
65.23606797749744
100
AcDbArc
 50
180.0
 51
-120.0000000000007
  0
ARC
  5
21B
330
61
100
AcDbEntity
  8
0
  6
Continuous
 62
     7
100
AcDbCircle
 10
1026.89315325573
 20
-1537.628145544491
 30
0.0
 40
65.23606797749983
100
AcDbArc
 50
120.0000000000007
 51
180.0
  0
ARC
  5
21C
330
61
100
AcDbEntity
  8
0
  6
Continuous
 62
     7
100
AcDbCircle
 10
1026.89315325573
 20
-1537.628145544491
 30
0.0
 40
56.99999999999931
100
AcDbArc
 50
94.00765009691092
 51
-154.0076500969111
  0
ARC
  5
21D
330
61
100
AcDbEntity
  8
0
  6
Continuous
 62
     7
100
AcDbCircle
 10
990.3931532557301
 20
-1600.848000020756
 30
0.0
 40
7.763932022501046
100
AcDbArc
 50
60.00000000000905
 51
-120.0000000000061
  0
ARC
  5
21E
330
61
100
AcDbEntity
  8
0
  6
Continuous
 62
     7
100
AcDbCircle
 10
953.8931532557301
 20
-1537.628145544491
 30
0.0
 40
7.763932022502559
100
AcDbArc
 50
0.0
 51
180.0
  0
ARC
  5
21F
330
61
100
AcDbEntity
  8
0
  6
Continuous
 62
     7
100
AcDbCircle
 10
953.8931532557301
 20
-1537.628145544491
 30
0.0
 40
7.763932022498921
100
AcDbArc
 50
180.0
 51
0.0
  0
ARC
  5
220
330
61
100
AcDbEntity
  8
0
  6
Continuous
 62
     7
100
AcDbCircle
 10
1026.89315325573
 20
-1537.628145544491
 30
0.0
 40
80.76393202250192
100
AcDbArc
 50
119.9999999999988
 51
180.0
  0
ARC
  5
221
330
61
100
AcDbEntity
  8
0
  6
Continuous
 62
     7
100
AcDbCircle
 10
990.3931532557301
 20
-1474.408291068226
 30
0.0
 40
7.763932022501046
100
AcDbArc
 50
119.999999999991
 51
-60.00000000000905
  0
ARC
  5
222
330
61
100
AcDbEntity
  8
0
  6
Continuous
 62
     7
100
AcDbCircle
 10
990.3931532557301
 20
-1474.408291068226
 30
0.0
 40
7.763932022501046
100
AcDbArc
 50
-60.00000000000905
 51
119.999999999991
  0
ARC
  5
223
330
61
100
AcDbEntity
  8
0
  6
Continuous
 62
     7
100
AcDbCircle
 10
1026.89315325573
 20
-1537.628145544491
 30
0.0
 40
65.23606797750006
100
AcDbArc
 50
59.99999999999901
 51
120.0000000000007
  0
ARC
  5
224
330
61
100
AcDbEntity
  8
0
  6
Continuous
 62
     7
100
AcDbCircle
 10
1026.893153255723
 20
-1481.128145544495
 30
0.0
 40
4.0000000000004
100
AcDbArc
 50
116.6369386230419
 51
116.9563840264022
  0
ARC
  5
225
330
61
100
AcDbEntity
  8
0
  6
Continuous
 62
     7
100
AcDbCircle
 10
1026.893153255737
 20
-1481.128145544491
 30
0.0
 40
3.999999999997846
100
AcDbArc
 50
63.0436159735219
 51
63.36306137688236
  0
ARC
  5
226
330
61
100
AcDbEntity
  8
0
  6
Continuous
 62
     7
100
AcDbCircle
 10
1075.823588569552
 20
-1565.878145544491
 30
0.0
 40
3.999999999999519
100
AcDbArc
 50
-56.63693862313913
 51
-3.36306137679746
  0
ARC
  5
227
330
61
100
AcDbEntity
  8
0
  6
Continuous
 62
     7
100
AcDbCircle
 10
1075.823588569552
 20
-1565.878145544506
 30
0.0
 40
3.999999999999754
100
AcDbArc
 50
-3.36306137658288
 51
-3.04361597325213
  0
ARC
  5
228
330
61
100
AcDbEntity
  8
0
  6
Continuous
 62
     7
100
AcDbCircle
 10
1026.89315325573
 20
-1537.628145544491
 30
0.0
 40
60.09277029707983
100
AcDbArc
 50
-148.270885984754
 51
-31.72911401524596
  0
ARC
  5
229
330
61
100
AcDbEntity
  8
0
  6
Continuous
 62
     7
100
AcDbCircle
 10
1026.89315325573
 20
-1537.628145544491
 30
0.0
 40
59.12684447079036
100
AcDbArc
 50
-147.009329170154
 51
-32.99067082984616
  0
ARC
  5
22A
330
61
100
AcDbEntity
  8
0
  6
Continuous
 62
     7
100
AcDbCircle
 10
1026.89315325573
 20
-1537.628145544491
 30
0.0
 40
56.99999999999845
100
AcDbArc
 50
-145.9923499030843
 51
-34.00765009691349
  0
ARC
  5
22B
330
61
100
AcDbEntity
  8
0
  6
Continuous
 62
     7
100
AcDbCircle
 10
1075.823588569552
 20
-1565.878145544491
 30
0.0
 40
4.000000000001235
100
AcDbArc
 50
-114.8274834498993
 51
-80.46280064983323
  0
ARC
  5
22C
330
61
100
AcDbEntity
  8
0
  6
Continuous
 62
     7
100
AcDbCircle
 10
1075.823588569552
 20
-1565.878145544491
 30
0.0
 40
3.999999999998184
100
AcDbArc
 50
-80.46280064983323
 51
-56.95638402654099
  0
ARC
  5
22D
330
61
100
AcDbEntity
  8
0
  6
Continuous
 62
     7
100
AcDbCircle
 10
1075.823588569548
 20
-1565.878145544491
 30
0.0
 40
4.000000000001443
100
AcDbArc
 50
-56.95638402649458
 51
-56.6369386230929
  0
ARC
  5
22E
330
61
100
AcDbEntity
  8
0
  6
Continuous
 62
     7
100
AcDbCircle
 10
1026.89315325573
 20
-1537.628145544491
 30
0.0
 40
59.12684447078985
100
AcDbArc
 50
-27.00932917015162
 51
87.00932917014946
  0
ARC
  5
22F
330
61
100
AcDbEntity
  8
0
  6
Continuous
 62
     7
100
AcDbCircle
 10
1026.89315325573
 20
-1537.628145544491
 30
0.0
 40
57.0000000000022
100
AcDbArc
 50
-25.99234990308739
 51
85.99234990308533
  0
ARC
  5
230
330
61
100
AcDbEntity
  8
0
  6
Continuous
 62
     7
100
AcDbCircle
 10
1026.89315325573
 20
-1537.628145544491
 30
0.0
 40
80.76393202250279
100
AcDbArc
 50
0.0
 51
60.00000000000095
  0
ARC
  5
231
330
61
100
AcDbEntity
  8
0
  6
Continuous
 62
     7
100
AcDbCircle
 10
1026.89315325573
 20
-1537.628145544491
 30
0.0
 40
65.23606797750085
100
AcDbArc
 50
0.0
 51
59.99999999999901
  0
ARC
  5
232
330
61
100
AcDbEntity
  8
0
  6
Continuous
 62
     7
100
AcDbCircle
 10
1026.89315325573
 20
-1537.628145544491
 30
0.0
 40
60.1022225211333
100
AcDbArc
 50
-28.29014358390806
 51
88.29014358390802
  0
ARC
  5
233
330
61
100
AcDbEntity
  8
0
  6
Continuous
 62
     7
100
AcDbCircle
 10
1075.823588569552
 20
-1565.878145544491
 30
0.0
 40
3.999999999998859
100
AcDbArc
 50
20.46280064984936
 51
54.82748344988816
  0
ARC
  5
234
330
61
100
AcDbEntity
  8
0
  6
Continuous
 62
     7
100
AcDbCircle
 10
1075.823588569552
 20
-1565.878145544491
 30
0.0
 40
4.0000000000016
100
AcDbArc
 50
-3.04361597346678
 51
20.46280064984936
  0
ARC
  5
235
330
61
100
AcDbEntity
  8
0
  6
Continuous
 62
     7
100
AcDbCircle
 10
1099.89315325573
 20
-1537.628145544491
 30
0.0
 40
7.763932022502786
100
AcDbArc
 50
0.0
 51
180.0
  0
ARC
  5
236
330
61
100
AcDbEntity
  8
0
  6
Continuous
 62
     7
100
AcDbCircle
 10
1099.89315325573
 20
-1537.628145544491
 30
0.0
 40
7.763932022499148
100
AcDbArc
 50
180.0
 51
0.0
  0
ARC
  5
237
330
61
100
AcDbEntity
  8
0
  6
Continuous
 62
     7
100
AcDbCircle
 10
1026.89315325573
 20
-1537.628145544491
 30
0.0
 40
80.7639320224986
100
AcDbArc
 50
-59.9999999999995
 51
0.0
  0
ARC
  5
238
330
61
100
AcDbEntity
  8
0
  6
Continuous
 62
     7
100
AcDbCircle
 10
1026.89315325573
 20
-1537.628145544491
 30
0.0
 40
65.23606797750006
100
AcDbArc
 50
-59.99999999999901
 51
0.0
  0
ARC
  5
239
330
61
100
AcDbEntity
  8
0
  6
Continuous
 62
     7
100
AcDbCircle
 10
1063.39315325573
 20
-1600.848000020756
 30
0.0
 40
7.763932022500819
100
AcDbArc
 50
119.999999999988
 51
-59.99999999999105
  0
ARC
  5
23A
330
61
100
AcDbEntity
  8
0
  6
Continuous
 62
     7
100
AcDbCircle
 10
1063.39315325573
 20
-1600.848000020756
 30
0.0
 40
7.763932022497729
100
AcDbArc
 50
-59.99999999999105
 51
119.999999999988
  0
ARC
  5
23B
330
61
100
AcDbEntity
  8
0
  6
Continuous
 62
     7
100
AcDbCircle
 10
990.3931532557301
 20
-1600.848000020756
 30
0.0
 40
7.763932022497501
100
AcDbArc
 50
-120.0000000000061
 51
60.00000000000905
  0
ARC
  5
23C
330
61
100
AcDbEntity
  8
0
  6
Continuous
 62
     7
100
AcDbCircle
 10
1026.89315325573
 20
-1537.628145544491
 30
0.0
 40
65.23606797749983
100
AcDbArc
 50
-120.0000000000007
 51
-59.99999999999901
  0
ARC
  5
23D
330
61
100
AcDbEntity
  8
0
  6
Continuous
 62
     7
100
AcDbCircle
 10
1026.89315325573
 20
-1537.628145544491
 30
0.0
 40
80.76393202250215
100
AcDbArc
 50
60.00000000000095
 51
119.9999999999988
  0
CIRCLE
  5
23E
330
61
100
AcDbEntity
  8
1
  6
Continuous
 62
     7
100
AcDbCircle
 10
1063.39315325573
 20
-1474.408291068226
 30
0.0
 40
7.763932022501273
  0
CIRCLE
  5
23F
330
61
100
AcDbEntity
  8
0
  6
Continuous
 62
     7
100
AcDbCircle
 10
1026.89315325573
 20
-1537.628145544491
 30
0.0
 40
98.00000000000077
  0
CIRCLE
  5
240
330
61
100
AcDbEntity
  8
0
  6
Continuous
 62
     7
100
AcDbCircle
 10
1026.89315325573
 20
-1537.628145544491
 30
0.0
 40
95.50000000000252
  0
CIRCLE
  5
241
330
61
100
AcDbEntity
  8
0
  6
Continuous
 62
     7
100
AcDbCircle
 10
1026.89315325573
 20
-1537.628145544491
 30
0.0
 40
87.88235294117752
  0
CIRCLE
  5
242
330
61
100
AcDbEntity
  8
0
  6
Continuous
 62
     7
100
AcDbCircle
 10
1026.89315325573
 20
-1537.628145544491
 30
0.0
 40
86.11764705882456
  0
CIRCLE
  5
243
330
61
100
AcDbEntity
  8
0
  6
Continuous
 62
     7
100
AcDbCircle
 10
1026.89315325573
 20
-1537.628145544491
 30
0.0
 40
94.1176470588258
  0
CIRCLE
  5
244
330
61
100
AcDbEntity
  8
0
  6
Continuous
 62
     7
100
AcDbCircle
 10
1026.89315325573
 20
-1537.628145544491
 30
0.0
 40
97.5000000000019
  0
SPLINE
  5
245
330
61
100
AcDbEntity
  8
0
  6
Continuous
 62
     7
100
AcDbSpline
210
0.0
220
0.0
230
1.0
 70
    11
 71
     3
 72
    91
 73
    87
 74
    85
 42
0.0000000001
 43
0.0000000001
 44
0.00000001
 40
0.0
 40
0.0
 40
0.0
 40
0.0
 40
0.2472640119644489
 40
0.4932094637053529
 40
0.7446226463920214
 40
0.9851129147385769
 40
1.430384030781728
 40
1.873943008720536
 40
2.091811857860092
 40
2.303481699343238
 40
2.512865733038951
 40
2.722061233194662
 40
3.139474908231193
 40
3.551212769335722
 40
4.363404763980403
 40
5.169579150565594
 40
5.969930051555002
 40
6.767202185687973
 40
8.353971733841409
 40
9.936219975484505
 40
11.51479959783296
 40
13.09262492214291
 40
14.67079843889726
 40
16.25102634054133
 40
17.83345190330761
 40
19.42526957311327
 40
20.22511411266034
 40
21.03082140079779
 40
21.43716318820222
 40
21.84358134240987
 40
22.25438697292109
 40
22.67090570685064
 40
23.08645788445641
 40
23.51488235933547
 40
23.95848782812647
 40
24.40325870588409
 40
24.64019736604681
 40
24.88812562492561
 40
25.1338742547909
 40
25.38061105553431
 40
25.63769027475087
 40
25.9020573279937
 40
26.1686325084536
 40
26.42815796455282
 40
26.67542197652184
 40
26.92136742826718
 40
27.17278061095864
 40
27.41327087930895
 40
27.85854199535628
 40
28.30210097329833
 40
28.51996982243342
 40
28.73163966390806
 40
28.94102369759584
 40
29.15021919774453
 40
29.56763287277297
 40
29.97937073387936
 40
30.79156272853925
 40
31.59773711512628
 40
32.39808801610919
 40
33.19536015023908
 40
34.78212969839529
 40
36.36437794004119
 40
37.94295756248303
 40
39.52078288685607
 40
41.09895640351373
 40
42.67918430509373
 40
44.2616098678603
 40
45.85342753766081
 40
46.65327207719854
 40
47.45897936533071
 40
47.8653211527424
 40
48.2717393069612
 40
48.68254493748031
 40
49.09906367140963
 40
49.51461584900308
 40
49.94304032387136
 40
50.38664579266089
 40
50.83141667042066
 40
51.06835533058545
 40
51.31628358946897
 40
51.56203221933957
 40
51.80876902008989
 40
52.0658482393097
 40
52.33021529255278
 40
52.59279589567434
 40
52.85638973788057
 40
52.85638973788057
 40
52.85638973788057
 40
52.85638973788057
 10
1038.331774352993
 20
-1611.107849338535
 30
0.0
 10
1038.30896539442
 20
-1611.187121095784
 30
0.0
 10
1038.26346910834
 20
-1611.345241885659
 30
0.0
 10
1038.164912707952
 20
-1611.573773570865
 30
0.0
 10
1038.044512955328
 20
-1611.788707236501
 30
0.0
 10
1037.864678966921
 20
-1612.044666772642
 30
0.0
 10
1037.615254482895
 20
-1612.327845634543
 30
0.0
 10
1037.344255665333
 20
-1612.57918439174
 30
0.0
 10
1037.114517356847
 20
-1612.758046245977
 30
0.0
 10
1036.941370759313
 20
-1612.88210783289
 30
0.0
 10
1036.76741471191
 20
-1612.999943957509
 30
0.0
 10
1036.531998551511
 20
-1613.149135782121
 30
0.0
 10
1036.230674470722
 20
-1613.31990216252
 30
0.0
 10
1035.741228617387
 20
-1613.564726364754
 30
0.0
 10
1035.118589447034
 20
-1613.831445027788
 30
0.0
 10
1034.357827801294
 20
-1614.099693725895
 30
0.0
 10
1033.588961637031
 20
-1614.326384442787
 30
0.0
 10
1032.558008598217
 20
-1614.580150389801
 30
0.0
 10
1031.257354884575
 20
-1614.823892330656
 30
0.0
 10
1029.685373929336
 20
-1615.013768274477
 30
0.0
 10
1028.10851789189
 20
-1615.117828045482
 30
0.0
 10
1026.529792218873
 20
-1615.139250722979
 30
0.0
 10
1024.951404142314
 20
-1615.081177820885
 30
0.0
 10
1023.376896709413
 20
-1614.937151325967
 30
0.0
 10
1021.808444027897
 20
-1614.703398962251
 30
0.0
 10
1020.513602822623
 20
-1614.416780194114
 30
0.0
 10
1019.489460187045
 20
-1614.120560982111
 30
0.0
 10
1018.855589238668
 20
-1613.900241767183
 30
0.0
 10
1018.355129114953
 20
-1613.698483324581
 30
0.0
 10
1017.98287714885
 20
-1613.531623051327
 30
0.0
 10
1017.613471085053
 20
-1613.350621958142
 30
0.0
 10
1017.251273414553
 20
-1613.149017036203
 30
0.0
 10
1016.896450440752
 20
-1612.923575289125
 30
0.0
 10
1016.549251837758
 20
-1612.670501326891
 30
0.0
 10
1016.220278713665
 20
-1612.378714670957
 30
0.0
 10
1015.968169052889
 20
-1612.099726676581
 30
0.0
 10
1015.782944094148
 20
-1611.850973957072
 30
0.0
 10
1015.656061369234
 20
-1611.642515043404
 30
0.0
 10
1015.552194178712
 20
-1611.418124824882
 30
0.0
 10
1015.469870412685
 20
-1611.181768225485
 30
0.0
 10
1015.412894709486
 20
-1610.931546672127
 30
0.0
 10
1015.386766942234
 20
-1610.669259740763
 30
0.0
 10
1015.401241201529
 20
-1610.405222041891
 30
0.0
 10
1015.448586480483
 20
-1610.151139650827
 30
0.0
 10
1015.524092565372
 20
-1609.911370661684
 30
0.0
 10
1015.621049907327
 20
-1609.682429443698
 30
0.0
 10
1015.741880259933
 20
-1609.467606058458
 30
0.0
 10
1015.921582322668
 20
-1609.211612735
 30
0.0
 10
1016.171067365634
 20
-1608.928449382768
 30
0.0
 10
1016.442048980046
 20
-1608.677106219696
 30
0.0
 10
1016.671789490919
 20
-1608.498244929519
 30
0.0
 10
1016.844935664081
 20
-1608.374183233931
 30
0.0
 10
1017.018891822223
 20
-1608.25634713768
 30
0.0
 10
1017.254307946561
 20
-1608.10715530384
 30
0.0
 10
1017.555632044811
 20
-1607.936388927909
 30
0.0
 10
1018.045077891402
 20
-1607.691564723928
 30
0.0
 10
1018.667717065013
 20
-1607.424846061722
 30
0.0
 10
1019.428478709727
 20
-1607.156597363364
 30
0.0
 10
1020.197344874264
 20
-1606.929906646553
 30
0.0
 10
1021.228297912987
 20
-1606.676140699522
 30
0.0
 10
1022.528951626674
 20
-1606.432398758679
 30
0.0
 10
1024.100932581933
 20
-1606.24252281486
 30
0.0
 10
1025.677788619437
 20
-1606.138463043861
 30
0.0
 10
1027.256514292472
 20
-1606.117040366348
 30
0.0
 10
1028.834902368998
 20
-1606.17511326845
 30
0.0
 10
1030.409409801845
 20
-1606.319139763376
 30
0.0
 10
1031.977862483341
 20
-1606.552892127082
 30
0.0
 10
1033.272703688604
 20
-1606.839510895218
 30
0.0
 10
1034.29684632419
 20
-1607.135730107211
 30
0.0
 10
1034.930717272538
 20
-1607.356049322123
 30
0.0
 10
1035.431177396321
 20
-1607.557807764734
 30
0.0
 10
1035.803429362237
 20
-1607.724668037959
 30
0.0
 10
1036.172835426774
 20
-1607.905669131294
 30
0.0
 10
1036.535033094468
 20
-1608.10727405272
 30
0.0
 10
1036.889856078841
 20
-1608.332715801736
 30
0.0
 10
1037.237054640716
 20
-1608.585789756392
 30
0.0
 10
1037.566027924677
 20
-1608.877576441719
 30
0.0
 10
1037.818137077082
 20
-1609.156564342594
 30
0.0
 10
1038.003363138082
 20
-1609.405317264832
 30
0.0
 10
1038.130242261961
 20
-1609.613775516205
 30
0.0
 10
1038.234122993385
 20
-1609.838168225167
 30
0.0
 10
1038.316395413449
 20
-1610.074515381057
 30
0.0
 10
1038.373572636548
 20
-1610.324773997813
 30
0.0
 10
1038.398790545388
 20
-1610.585588383234
 30
0.0
 10
1038.387522803946
 20
-1610.850177378693
 30
0.0
 10
1038.35038101094
 20
-1611.021848491204
 30
0.0
 10
1038.331774352993
 20
-1611.107849338535
 30
0.0
 11
1038.331774352993
 21
-1611.107849338535
 31
0.0
 11
1038.258375074002
 21
-1611.343968032112
 31
0.0
 11
1038.161888147614
 21
-1611.570196762092
 31
0.0
 11
1038.039041050625
 21
-1611.789553045772
 31
0.0
 11
1037.901530755513
 21
-1611.986851013089
 31
0.0
 11
1037.609520818311
 21
-1612.323000627632
 31
0.0
 11
1037.283559460872
 21
-1612.623822435962
 31
0.0
 11
1037.112016792336
 21
-1612.758135310612
 31
0.0
 11
1036.940217801
 21
-1612.881784929979
 31
0.0
 11
1036.766777275738
 21
-1612.999088202582
 31
0.0
 11
1036.590032602153
 21
-1613.110999228155
 31
0.0
 11
1036.227345789609
 21
-1613.317620747156
 31
0.0
 11
1035.859465355993
 21
-1613.502531679309
 31
0.0
 11
1035.113553096897
 21
-1613.823889327257
 31
0.0
 11
1034.353842409827
 21
-1614.09362403681
 31
0.0
 11
1033.586414366903
 21
-1614.320815065787
 31
0.0
 11
1032.812496656759
 21
-1614.51237245612
 31
0.0
 11
1031.253342645412
 21
-1614.807120429561
 31
0.0
 11
1029.682849359021
 21
-1614.999631041174
 31
0.0
 11
1028.107729034647
 21
-1615.104080013582
 31
0.0
 11
1026.530056088089
 21
-1615.126007798086
 31
0.0
 11
1024.952989282698
 21
-1615.066915156243
 31
0.0
 11
1023.379384617162
 21
-1614.922386343413
 31
0.0
 11
1021.814752351739
 21
-1614.685750471889
 31
0.0
 11
1020.261402305628
 21
-1614.337918431744
 31
0.0
 11
1019.493428408894
 21
-1614.114384583346
 31
0.0
 11
1018.732894022533
 21
-1613.848392701289
 31
0.0
 11
1018.356165068325
 21
-1613.69611353905
 31
0.0
 11
1017.985185438429
 21
-1613.530132123608
 31
0.0
 11
1017.61681361878
 21
-1613.348298494849
 31
0.0
 11
1017.253060909255
 21
-1613.145390086872
 31
0.0
 11
1016.902497137774
 21
-1612.922256372616
 31
0.0
 11
1016.557518047771
 21
-1612.668215119792
 31
0.0
 11
1016.226283274811
 21
-1612.373139981695
 31
0.0
 11
1015.928801225985
 21
-1612.042495815971
 31
0.0
 11
1015.788095318331
 21
-1611.85186062449
 31
0.0
 11
1015.659839392068
 21
-1611.639684190998
 31
0.0
 11
1015.556067292203
 21
-1611.416920324156
 31
0.0
 11
1015.475315235322
 21
-1611.18377197192
 31
0.0
 11
1015.418633393722
 21
-1610.933019317326
 31
0.0
 11
1015.393614973841
 21
-1610.669838737672
 31
0.0
 11
1015.407166144569
 21
-1610.403608212358
 31
0.0
 11
1015.454532158248
 21
-1610.148441750785
 31
0.0
 11
1015.527931437237
 21
-1609.912323057203
 31
0.0
 11
1015.624418363624
 21
-1609.686094327218
 31
0.0
 11
1015.747265460614
 21
-1609.466738043533
 31
0.0
 11
1015.884775755727
 21
-1609.269440076212
 31
0.0
 11
1016.176785692934
 21
-1608.933290461667
 31
0.0
 11
1016.502747050381
 21
-1608.632468653341
 31
0.0
 11
1016.674289718918
 21
-1608.498155778699
 31
0.0
 11
1016.84608871025
 21
-1608.374506159342
 31
0.0
 11
1017.019529235507
 21
-1608.257202886745
 31
0.0
 11
1017.196273909087
 21
-1608.145291861178
 31
0.0
 11
1017.558960721618
 21
-1607.938670342171
 31
0.0
 11
1017.926841155229
 21
-1607.753759410005
 31
0.0
 11
1018.672753414337
 21
-1607.432401762045
 31
0.0
 11
1019.432464101413
 21
-1607.162667052503
 31
0.0
 11
1020.199892144334
 21
-1606.935476023537
 31
0.0
 11
1020.973809854476
 21
-1606.74391863321
 31
0.0
 11
1022.532963865826
 21
-1606.449170659772
 31
0.0
 11
1024.103457152221
 21
-1606.256660048167
 31
0.0
 11
1025.678577476689
 21
-1606.152211075757
 31
0.0
 11
1027.256250423309
 21
-1606.130283291246
 31
0.0
 11
1028.833317228603
 21
-1606.189375933091
 31
0.0
 11
1030.406921894074
 21
-1606.333904745924
 31
0.0
 11
1031.971554159499
 21
-1606.570540617445
 31
0.0
 11
1033.524904205606
 21
-1606.918372657586
 31
0.0
 11
1034.292878102332
 21
-1607.141906505974
 31
0.0
 11
1035.053412488692
 21
-1607.407898388019
 31
0.0
 11
1035.430141442908
 21
-1607.560177550259
 31
0.0
 11
1035.801121072812
 21
-1607.726158965708
 31
0.0
 11
1036.169492892465
 21
-1607.907992594479
 31
0.0
 11
1036.533245601987
 21
-1608.110901002459
 31
0.0
 11
1036.88380937346
 21
-1608.334034716706
 31
0.0
 11
1037.22878846346
 21
-1608.588075969515
 31
0.0
 11
1037.560023236425
 21
-1608.883151107605
 31
0.0
 11
1037.857505285256
 21
-1609.213795273328
 31
0.0
 11
1037.998211192911
 21
-1609.404430464811
 31
0.0
 11
1038.126467119175
 21
-1609.616606898307
 31
0.0
 11
1038.230239219039
 21
-1609.839370765155
 31
0.0
 11
1038.310991275921
 21
-1610.072519117399
 31
0.0
 11
1038.367673117519
 21
-1610.323271771996
 31
0.0
 11
1038.392691537401
 21
-1610.58645235165
 31
0.0
 11
1038.380155227234
 21
-1610.848733525323
 31
0.0
 11
1038.331774352993
 21
-1611.107849338535
 31
0.0
  0
SPLINE
  5
246
330
61
100
AcDbEntity
  8
0
  6
Continuous
 62
     7
100
AcDbSpline
210
0.0
220
0.0
230
1.0
 70
    11
 71
     3
 72
    79
 73
    75
 74
    73
 42
0.0000000001
 43
0.0000000001
 44
0.00000001
 40
0.0
 40
0.0
 40
0.0
 40
0.0
 40
0.3907967327040699
 40
0.7791187161112422
 40
1.247745980702039
 40
1.714333364991912
 40
2.282167899466086
 40
2.849193372674578
 40
3.520315990721328
 40
4.191019167522149
 40
4.957257977257752
 40
5.723287034789058
 40
6.569377519583579
 40
7.415354049147878
 40
8.321398475925712
 40
9.22738288779624
 40
10.17051911290756
 40
11.1136291279712
 40
12.06930488155656
 40
13.02498063519904
 40
13.96809065034702
 40
14.91122687548336
 40
15.81721128735208
 40
16.72325571413188
 40
17.5692322436992
 40
18.41532272849477
 40
19.18135178602672
 40
19.94759059576369
 40
20.6182937725639
 40
21.2894163906056
 40
21.85644186381005
 40
22.42427639828372
 40
22.89086378257437
 40
23.35949104716569
 40
23.74781303057211
 40
24.13860976327274
 40
24.49679243110032
 40
24.85497509893738
 40
25.24577183165274
 40
25.63409381506315
 40
26.10272107965081
 40
26.56930846393305
 40
27.13714299840093
 40
27.70416847161128
 40
28.37529108966002
 40
29.04599426645854
 40
29.8122330761913
 40
30.57826213372138
 40
31.42435261851615
 40
32.27032914808257
 40
33.17637357486194
 40
34.08235798673044
 40
35.02549421186701
 40
35.96860422701492
 40
36.92427998065765
 40
37.87995573424286
 40
38.82306574930674
 40
39.76620197441769
 40
40.67218638628815
 40
41.57823081306505
 40
42.42420734262863
 40
43.27029782742321
 40
44.03632688495349
 40
44.80256569468553
 40
45.47326887148464
 40
46.14439148953659
 40
46.71141696274891
 40
47.27925149721683
 40
47.74583888149795
 40
48.21446614608517
 40
48.6027881294943
 40
48.99358486220551
 40
49.35176753004088
 40
49.70995019787235
 40
49.70995019787235
 40
49.70995019787235
 40
49.70995019787235
 10
1037.847507574917
 20
-1610.983407835607
 30
0.0
 10
1037.80811066751
 20
-1611.108174591579
 30
0.0
 10
1037.729566336535
 20
-1611.356918008786
 30
0.0
 10
1037.498972327828
 20
-1611.707947923887
 30
0.0
 10
1037.203716094484
 20
-1612.036952239542
 30
0.0
 10
1036.821642545357
 20
-1612.363084240823
 30
0.0
 10
1036.37900457244
 20
-1612.6630263918
 30
0.0
 10
1035.853496990793
 20
-1612.957837701096
 30
0.0
 10
1035.275717582262
 20
-1613.225713680491
 30
0.0
 10
1034.621164174079
 20
-1613.48224451866
 30
0.0
 10
1033.923010309247
 20
-1613.711064424494
 30
0.0
 10
1033.158621959009
 20
-1613.922274933652
 30
0.0
 10
1032.359605067335
 20
-1614.104925736753
 30
0.0
 10
1031.508251483714
 20
-1614.264792198046
 30
0.0
 10
1030.631706541015
 20
-1614.395285959989
 30
0.0
 10
1029.719048907879
 20
-1614.49923187842
 30
0.0
 10
1028.791074551542
 20
-1614.573180397434
 30
0.0
 10
1027.84468436362
 20
-1614.618306253816
 30
0.0
 10
1026.893153255692
 20
-1614.633097747192
 30
0.0
 10
1025.941622147677
 20
-1614.61830625382
 30
0.0
 10
1024.995231959875
 20
-1614.573180397394
 30
0.0
 10
1024.067257602867
 20
-1614.49923187855
 30
0.0
 10
1023.154599972002
 20
-1614.395285959513
 30
0.0
 10
1022.278055021053
 20
-1614.264792199771
 30
0.0
 10
1021.426701466264
 20
-1614.104925730788
 30
0.0
 10
1020.627684471891
 20
-1613.922274955079
 30
0.0
 10
1019.863296470454
 20
-1613.711064352883
 30
0.0
 10
1019.165141384513
 20
-1613.482244772761
 30
0.0
 10
1018.510591996034
 20
-1613.225712862402
 30
0.0
 10
1017.932798768431
 20
-1612.957840569022
 30
0.0
 10
1017.407335232982
 20
-1612.663017511116
 30
0.0
 10
1016.964548230001
 20
-1612.36311511149
 30
0.0
 10
1016.582938319245
 20
-1612.036859442203
 30
0.0
 10
1016.286115871421
 20
-1611.708272888827
 30
0.0
 10
1016.060439796026
 20
-1611.355931194874
 30
0.0
 10
1015.928586728147
 20
-1610.997421214347
 30
0.0
 10
1015.87620798894
 20
-1610.628145544661
 30
0.0
 10
1015.928586728148
 20
-1610.258869874971
 30
0.0
 10
1016.060439796023
 20
-1609.900359894433
 30
0.0
 10
1016.286115871418
 20
-1609.548018200472
 30
0.0
 10
1016.582938319243
 20
-1609.219431647102
 30
0.0
 10
1016.964548230002
 20
-1608.893175977826
 30
0.0
 10
1017.407335232987
 20
-1608.593273578211
 30
0.0
 10
1017.932798768431
 20
-1608.298450520293
 30
0.0
 10
1018.510591996029
 20
-1608.030578226892
 30
0.0
 10
1019.165141384512
 20
-1607.774046316541
 30
0.0
 10
1019.863296470456
 20
-1607.545226736435
 30
0.0
 10
1020.627684471891
 20
-1607.334016134244
 30
0.0
 10
1021.426701466263
 20
-1607.151365358539
 30
0.0
 10
1022.278055021054
 20
-1606.99149888956
 30
0.0
 10
1023.154599972002
 20
-1606.861005129822
 30
0.0
 10
1024.067257602867
 20
-1606.757059210787
 30
0.0
 10
1024.995231959874
 20
-1606.683110691943
 30
0.0
 10
1025.94162214768
 20
-1606.637984835512
 30
0.0
 10
1026.893153255683
 20
-1606.623193342142
 30
0.0
 10
1027.844684363654
 20
-1606.63798483551
 30
0.0
 10
1028.791074551415
 20
-1606.683110691948
 30
0.0
 10
1029.719048908343
 20
-1606.757059210778
 30
0.0
 10
1030.631706539357
 20
-1606.861005129855
 30
0.0
 10
1031.508251489737
 20
-1606.991498889441
 30
0.0
 10
1032.359605046506
 20
-1607.15136535895
 30
0.0
 10
1033.158622033824
 20
-1607.334016132777
 30
0.0
 10
1033.923010059209
 20
-1607.545226741359
 30
0.0
 10
1034.621165061302
 20
-1607.774046299103
 30
0.0
 10
1035.275714725809
 20
-1608.030578283079
 30
0.0
 10
1035.85350700449
 20
-1608.298450323365
 30
0.0
 10
1036.37897356448
 20
-1608.593274188026
 30
0.0
 10
1036.821750333944
 20
-1608.893173858015
 30
0.0
 10
1037.203392081592
 20
-1609.219438019263
 30
0.0
 10
1037.500106981376
 20
-1609.54799588594
 30
0.0
 10
1037.726120758978
 20
-1609.90042765648
 30
0.0
 10
1037.856792765632
 20
-1610.258622608111
 30
0.0
 10
1037.913239108264
 20
-1610.628983244965
 30
0.0
 10
1037.869418086032
 20
-1610.865266305393
 30
0.0
 10
1037.847507574917
 20
-1610.983407835607
 30
0.0
 11
1037.847507574917
 21
-1610.983407835607
 31
0.0
 11
1037.712851903169
 21
-1611.350272846692
 31
0.0
 11
1037.507078707501
 21
-1611.67959237958
 31
0.0
 11
1037.195953831266
 21
-1612.030038986791
 31
0.0
 11
1036.842707324925
 21
-1612.334867943644
 31
0.0
 11
1036.374637680178
 21
-1612.656344017729
 31
0.0
 11
1035.880748389009
 21
-1612.934896087072
 31
0.0
 11
1035.272967278717
 21
-1613.219514586868
 31
0.0
 11
1034.648819710064
 21
-1613.465039664844
 31
0.0
 11
1033.921227769175
 21
-1613.705314260043
 31
0.0
 11
1033.183020244814
 21
-1613.909887396009
 31
0.0
 11
1032.35845681764
 21
-1614.099529857044
 31
0.0
 11
1031.527079364246
 21
-1614.256015698454
 31
0.0
 11
1030.631017214301
 21
-1614.390139248705
 31
0.0
 11
1029.730872509379
 21
-1614.49283912579
 31
0.0
 11
1028.790750343036
 21
-1614.568180027472
 31
0.0
 11
1027.848710505261
 21
-1614.613095999682
 31
0.0
 11
1026.893153255701
 21
-1614.62814554466
 31
0.0
 11
1025.937596006084
 21
-1614.613095999678
 31
0.0
 11
1024.995556168225
 21
-1614.568180027466
 31
0.0
 11
1024.055434001856
 21
-1614.492839125786
 31
0.0
 11
1023.155289296936
 21
-1614.390139248704
 31
0.0
 11
1022.259227146989
 21
-1614.256015698454
 31
0.0
 11
1021.427849693592
 21
-1614.099529857044
 31
0.0
 11
1020.603286266417
 21
-1613.909887396009
 31
0.0
 11
1019.865078742056
 21
-1613.705314260043
 31
0.0
 11
1019.137486801165
 21
-1613.465039664844
 31
0.0
 11
1018.513339232512
 21
-1613.219514586869
 31
0.0
 11
1017.905558122226
 21
-1612.934896087072
 31
0.0
 11
1017.411668831061
 21
-1612.656344017728
 31
0.0
 11
1016.943599186316
 21
-1612.334867943644
 31
0.0
 11
1016.590352679973
 21
-1612.030038986791
 31
0.0
 11
1016.279227803738
 21
-1611.67959237958
 31
0.0
 11
1016.07345460807
 21
-1611.350272846693
 31
0.0
 11
1015.938798936324
 21
-1610.983407835611
 31
0.0
 11
1015.893153255657
 21
-1610.628145544664
 31
0.0
 11
1015.938798936324
 21
-1610.272883253708
 31
0.0
 11
1016.07345460807
 21
-1609.906018242611
 31
0.0
 11
1016.279227803737
 21
-1609.576698709718
 31
0.0
 11
1016.590352679973
 21
-1609.226252102512
 31
0.0
 11
1016.943599186316
 21
-1608.921423145672
 31
0.0
 11
1017.411668831061
 21
-1608.599947071598
 31
0.0
 11
1017.905558122226
 21
-1608.321395002243
 31
0.0
 11
1018.513339232512
 21
-1608.036776502429
 31
0.0
 11
1019.137486801165
 21
-1607.791251424459
 31
0.0
 11
1019.865078742056
 21
-1607.550976829273
 31
0.0
 11
1020.603286266417
 21
-1607.346403693314
 31
0.0
 11
1021.427849693592
 21
-1607.156761232283
 31
0.0
 11
1022.259227146989
 21
-1607.000275390877
 31
0.0
 11
1023.155289296936
 21
-1606.86615184063
 31
0.0
 11
1024.055434001856
 21
-1606.763451963551
 31
0.0
 11
1024.995556168226
 21
-1606.68811106187
 31
0.0
 11
1025.937596006084
 21
-1606.643195089655
 31
0.0
 11
1026.893153255701
 21
-1606.628145544671
 31
0.0
 11
1027.848710505261
 21
-1606.643195089655
 31
0.0
 11
1028.790750343036
 21
-1606.68811106187
 31
0.0
 11
1029.730872509379
 21
-1606.76345196355
 31
0.0
 11
1030.631017214302
 21
-1606.866151840631
 31
0.0
 11
1031.527079364246
 21
-1607.000275390877
 31
0.0
 11
1032.35845681764
 21
-1607.156761232284
 31
0.0
 11
1033.183020244814
 21
-1607.346403693319
 31
0.0
 11
1033.921227769175
 21
-1607.550976829281
 31
0.0
 11
1034.648819710064
 21
-1607.791251424469
 31
0.0
 11
1035.272967278717
 21
-1608.036776502439
 31
0.0
 11
1035.880748389009
 21
-1608.321395002248
 31
0.0
 11
1036.374637680178
 21
-1608.599947071599
 31
0.0
 11
1036.842707324925
 21
-1608.921423145673
 31
0.0
 11
1037.195953831266
 21
-1609.226252102512
 31
0.0
 11
1037.507078707501
 21
-1609.576698709718
 31
0.0
 11
1037.712851903168
 21
-1609.906018242609
 31
0.0
 11
1037.847507574915
 21
-1610.272883253702
 31
0.0
 11
1037.893153255583
 21
-1610.628145544656
 31
0.0
 11
1037.847507574917
 21
-1610.983407835607
 31
0.0
  0
ENDBLK
  5
63
330
61
100
AcDbEntity
  8
0
100
AcDbBlockEnd
  0
BLOCK
  5
24F
330
247
100
AcDbEntity
  8
0
100
AcDbBlockBegin
  2
*D12
 70
     1
 71
     0
 10
0.0
 20
0.0
 30
0.0
  3
*D12
  1

  0
LINE
  5
248
330
247
100
AcDbEntity
  8
1
  6
Continuous
 62
     4
100
AcDbLine
 10
953.8931532557301
 20
-1758.11134492424
 30
0.0
 11
1099.89315325573
 21
-1758.11134492424
 31
0.0
  0
LINE
  5
249
330
247
100
AcDbEntity
  8
1
  6
Continuous
 62
     4
100
AcDbLine
 10
1099.89315325573
 20
-1546.16847076924
 30
0.0
 11
1099.89315325573
 21
-1760.11134492424
 31
0.0
  0
LINE
  5
24A
330
247
100
AcDbEntity
  8
1
  6
Continuous
 62
     4
100
AcDbLine
 10
953.8931532557301
 20
-1546.16847076924
 30
0.0
 11
953.8931532557301
 21
-1760.11134492424
 31
0.0
  0
SOLID
  5
24B
330
247
100
AcDbEntity
  8
1
 62
     4
100
AcDbTrace
 10
963.8931532557301
 20
-1756.794819948366
 30
0.0
 11
963.8931532557301
 21
-1759.427869900114
 31
0.0
 12
953.8931532557301
 22
-1758.11134492424
 32
0.0
 13
953.8931532557301
 23
-1758.11134492424
 33
0.0
  0
SOLID
  5
24C
330
247
100
AcDbEntity
  8
1
 62
     4
100
AcDbTrace
 10
1089.89315325573
 20
-1759.427869900114
 30
0.0
 11
1089.89315325573
 21
-1756.794819948366
 31
0.0
 12
1099.89315325573
 22
-1758.11134492424
 32
0.0
 13
1099.89315325573
 23
-1758.11134492424
 33
0.0
  0
MTEXT
  5
24E
330
247
100
AcDbEntity
  8
1
 62
     1
100
AcDbMText
 10
992.11333312122
 20
-1756.11134492424
 30
0.0
 40
10.0
 41
0.0
 71
     7
 72
     1
  1
146
  7
CONVERTER_11
 11
0.9999999999970619
 21
2.424068405545306E-6
 31
0.0
 73
     1
 44
0.60024009603842
  0
ENDBLK
  5
250
330
247
100
AcDbEntity
  8
0
100
AcDbBlockEnd
  0
BLOCK
  5
25A
330
253
100
AcDbEntity
  8
0
100
AcDbBlockBegin
  2
*D13
 70
     1
 71
     0
 10
0.0
 20
0.0
 30
0.0
  3
*D13
  1

  0
LINE
  5
254
330
253
100
AcDbEntity
  8
1
  6
Continuous
 62
     4
100
AcDbLine
 10
1250.24124178692
 20
-1337.628145544487
 30
0.0
 11
1250.24124178692
 21
-1737.628145544491
 31
0.0
  0
LINE
  5
255
330
253
100
AcDbEntity
  8
1
  6
Continuous
 62
     4
100
AcDbLine
 10
1226.89315325573
 20
-1337.628145544487
 30
0.0
 11
1252.24124178692
 21
-1337.628145544487
 31
0.0
  0
LINE
  5
256
330
253
100
AcDbEntity
  8
1
  6
Continuous
 62
     4
100
AcDbLine
 10
1226.89315325573
 20
-1737.628145544491
 30
0.0
 11
1252.24124178692
 21
-1737.628145544491
 31
0.0
  0
SOLID
  5
257
330
253
100
AcDbEntity
  8
1
 62
     4
100
AcDbTrace
 10
1251.557766762794
 20
-1347.628145544487
 30
0.0
 11
1248.924716811046
 21
-1347.628145544487
 31
0.0
 12
1250.24124178692
 22
-1337.628145544487
 32
0.0
 13
1250.24124178692
 23
-1337.628145544487
 33
0.0
  0
SOLID
  5
258
330
253
100
AcDbEntity
  8
1
 62
     4
100
AcDbTrace
 10
1248.924716811046
 20
-1727.628145544491
 30
0.0
 11
1251.557766762794
 21
-1727.628145544491
 31
0.0
 12
1250.24124178692
 22
-1737.628145544491
 32
0.0
 13
1250.24124178692
 23
-1737.628145544491
 33
0.0
  0
MTEXT
  5
259
330
253
100
AcDbEntity
  8
1
 62
     1
100
AcDbMText
 10
1248.24124178692
 20
-1549.62814554449
 30
0.0
 40
10.0
 41
0.0
 71
     7
 72
     1
  1
400
  7
CONVERTER_11
 11
0.0
 21
1.0
 31
0.0
 73
     1
 44
0.60024009603842
  0
ENDBLK
  5
25B
330
253
100
AcDbEntity
  8
0
100
AcDbBlockEnd
  0
BLOCK
  5
265
330
25E
100
AcDbEntity
  8
0
100
AcDbBlockBegin
  2
*D14
 70
     1
 71
     0
 10
0.0
 20
0.0
 30
0.0
  3
*D14
  1

  0
LINE
  5
25F
330
25E
100
AcDbEntity
  8
1
  6
Continuous
 62
     4
100
AcDbLine
 10
826.8931532557301
 20
-1780.84543270091
 30
0.0
 11
1226.89315325573
 21
-1780.84543270091
 31
0.0
  0
LINE
  5
260
330
25E
100
AcDbEntity
  8
1
  6
Continuous
 62
     4
100
AcDbLine
 10
1226.89315325573
 20
-1737.628145544491
 30
0.0
 11
1226.89315325573
 21
-1782.84543270091
 31
0.0
  0
LINE
  5
261
330
25E
100
AcDbEntity
  8
1
  6
Continuous
 62
     4
100
AcDbLine
 10
826.8931532557301
 20
-1737.628145544491
 30
0.0
 11
826.8931532557301
 21
-1782.84543270091
 31
0.0
  0
SOLID
  5
262
330
25E
100
AcDbEntity
  8
1
 62
     4
100
AcDbTrace
 10
836.8931532557301
 20
-1779.528907725036
 30
0.0
 11
836.8931532557301
 21
-1782.161957676784
 31
0.0
 12
826.8931532557301
 22
-1780.84543270091
 32
0.0
 13
826.8931532557301
 23
-1780.84543270091
 33
0.0
  0
SOLID
  5
263
330
25E
100
AcDbEntity
  8
1
 62
     4
100
AcDbTrace
 10
1216.89315325573
 20
-1782.161957676784
 30
0.0
 11
1216.89315325573
 21
-1779.528907725036
 31
0.0
 12
1226.89315325573
 22
-1780.84543270091
 32
0.0
 13
1226.89315325573
 23
-1780.84543270091
 33
0.0
  0
MTEXT
  5
264
330
25E
100
AcDbEntity
  8
1
 62
     1
100
AcDbMText
 10
1053.01164705315
 20
-1778.84543270091
 30
0.0
 40
10.0
 41
0.0
 71
     7
 72
     1
  1
400
  7
CONVERTER_11
 11
0.9999999999970619
 21
2.424068405545306E-6
 31
0.0
 73
     1
 44
0.60024009603842
  0
ENDBLK
  5
266
330
25E
100
AcDbEntity
  8
0
100
AcDbBlockEnd
  0
BLOCK
  5
26E
330
269
100
AcDbEntity
  8
0
100
AcDbBlockBegin
  2
*D15
 70
     1
 71
     0
 10
0.0
 20
0.0
 30
0.0
  3
*D15
  1

  0
LINE
  5
26A
330
269
100
AcDbEntity
  8
1
  6
Continuous
 62
     4
100
AcDbLine
 10
932.7512031072432
 20
-1600.128491321454
 30
0.0
 11
1148.808962873866
 21
-1456.688880479411
 31
0.0
  0
SOLID
  5
26B
330
269
100
AcDbEntity
  8
1
 62
     4
100
AcDbTrace
 10
1116.141359891309
 20
-1476.796485610332
 30
0.0
 11
1117.597700886285
 21
-1478.990117975782
 31
0.0
 12
1108.538384357958
 22
-1483.424305844116
 32
0.0
 13
1108.538384357958
 23
-1483.424305844116
 33
0.0
  0
SOLID
  5
26C
330
269
100
AcDbEntity
  8
1
 62
     4
100
AcDbTrace
 10
937.6449466201509
 20
-1598.45980547865
 30
0.0
 11
936.1886056251751
 21
-1596.2661731132
 31
0.0
 12
945.2479221535025
 22
-1591.831985244866
 32
0.0
 13
945.2479221535025
 23
-1591.831985244866
 33
0.0
  0
MTEXT
  5
26D
330
269
100
AcDbEntity
  8
1
 62
     1
100
AcDbMText
 10
1116.544275908315
 20
-1475.708606424202
 30
0.0
 40
10.0
 41
0.0
 71
     7
 72
     1
  1
\C1;\U+00d8\C1;196
  7
CONVERTER_11
 11
0.8331146030839494
 21
0.5531004051058664
 31
0.0
 73
     1
 44
0.60024009603842
  0
ENDBLK
  5
26F
330
269
100
AcDbEntity
  8
0
100
AcDbBlockEnd
  0
BLOCK
  5
276
330
271
100
AcDbEntity
  8
0
100
AcDbBlockBegin
  2
*D16
 70
     1
 71
     0
 10
0.0
 20
0.0
 30
0.0
  3
*D16
  1

  0
LINE
  5
272
330
271
100
AcDbEntity
  8
1
  6
Continuous
 62
     4
100
AcDbLine
 10
1076.962079572821
 20
-1562.71006368194
 30
0.0
 11
976.8242269386387
 21
-1512.546227407042
 31
0.0
  0
SOLID
  5
273
330
271
100
AcDbEntity
  8
1
 62
     4
100
AcDbTrace
 10
986.3547668465258
 20
-1515.848052217094
 30
0.0
 11
985.1754464297121
 21
-1518.202230503224
 31
0.0
 12
976.8242269386387
 22
-1512.546227407042
 32
0.0
 13
976.8242269386387
 23
-1512.546227407042
 33
0.0
  0
SOLID
  5
274
330
271
100
AcDbEntity
  8
1
 62
     4
100
AcDbTrace
 10
1067.431539664934
 20
-1559.408238871888
 30
0.0
 11
1068.610860081748
 21
-1557.054060585758
 31
0.0
 12
1076.962079572821
 22
-1562.71006368194
 32
0.0
 13
1076.962079572821
 23
-1562.71006368194
 33
0.0
  0
MTEXT
  5
275
330
271
100
AcDbEntity
  8
1
 62
     1
100
AcDbMText
 10
988.8895099392197
 20
-1516.353387946466
 30
0.0
 40
10.0
 41
0.0
 71
     7
 72
     1
  1
\C1;\U+00d8\C1;112
  7
CONVERTER_11
 11
0.8940879699480604
 21
-0.4478913953115825
 31
0.0
 73
     1
 44
0.60024009603842
  0
ENDBLK
  5
277
330
271
100
AcDbEntity
  8
0
100
AcDbBlockEnd
  0
ENDSEC
  0
SECTION
  2
ENTITIES
  0
INSERT
  5
64
330
1F
100
AcDbEntity
  8
1
100
AcDbBlockReference
  2
HL_83_Lippendichtung
 10
1026.89315325573
 20
-1293.22353674228
 30
0.0
  0
INSERT
  5
65
330
1F
100
AcDbEntity
  8
1
100
AcDbBlockReference
  2
EPDM_Folie_400x400
 10
1026.89315325573
 20
-1254.465640711664
 30
0.0
  0
INSERT
  5
66
330
1F
100
AcDbEntity
  8
1
100
AcDbBlockReference
  2
HL_83_Niroflansch
 10
1026.89315325573
 20
-1230.562543747081
 30
0.0
  0
INSERT
  5
67
330
1F
100
AcDbEntity
  8
0
100
AcDbBlockReference
  2
Blechschraube6_3x19_2_3_2__1
 10
985.6259619621451
 20
-1463.226851081355
 30
0.0
  0
INSERT
  5
68
330
1F
100
AcDbEntity
  8
0
100
AcDbBlockReference
  2
Blechschraube6_3x19_2_3_2__2
 10
1058.625961962145
 20
-1463.226851081355
 30
0.0
  0
INSERT
  5
69
330
1F
100
AcDbEntity
  8
0
100
AcDbBlockReference
  2
Blechschraube6_3x19_2_3_2__3
 10
949.1259619621451
 20
-1282.378851060599
 30
0.0
  0
INSERT
  5
6A
330
1F
100
AcDbEntity
  8
0
100
AcDbBlockReference
  2
Blechschraube6_3x19_2_3_2__4
 10
985.6259619621451
 20
-1282.378851060599
 30
0.0
  0
INSERT
  5
6B
330
1F
100
AcDbEntity
  8
0
100
AcDbBlockReference
  2
Blechschraube6_3x19_2_3_2__5
 10
1095.125961962145
 20
-1400.00699660509
 30
0.0
  0
INSERT
  5
6C
330
1F
100
AcDbEntity
  8
0
100
AcDbBlockReference
  2
Blechschraube6_3x19_2_3_2__6
 10
1058.625961962145
 20
-1336.787142128825
 30
0.0
  0
INSERT
  5
6D
330
1F
100
AcDbEntity
  8
0
100
AcDbBlockReference
  2
Isolierfolie_EPDM
 10
990.4007141293587
 20
-1516.184110993705
 30
0.0
  0
INSERT
  5
6E
330
1F
100
AcDbEntity
  8
0
100
AcDbBlockReference
  2
HL83-Klemmring-H4
 10
1124.89315325573
 20
-1335.983374824296
 30
0.0
  0
DIMENSION
  5
252
330
1F
100
AcDbEntity
  8
1
100
AcDbDimension
  2
*D12
 10
953.8931532557301
 20
-1758.11134492424
 30
0.0
 11
1002.61333312122
 21
-1751.11134492424
 31
0.0
 70
    33
  1
<>
 71
     5
 42
-1.0
 53
0.00013888888889
  3
ME10_DIM_10
100
AcDbAlignedDimension
 13
1099.89315325573
 23
-1546.16847076924
 33
0.0
 14
953.8931532557301
 24
-1546.16847076924
 34
0.0
  0
DIMENSION
  5
25D
330
1F
100
AcDbEntity
  8
1
100
AcDbDimension
  2
*D13
 10
1250.24124178692
 20
-1337.628145544487
 30
0.0
 11
1243.24124178692
 21
-1537.62814554449
 31
0.0
 70
    32
  1
<>
 71
     5
 42
-1.0
 53
-90.0
  3
ME10_DIM_11
100
AcDbAlignedDimension
 13
1226.89315325573
 23
-1737.628145544491
 33
0.0
 14
1226.89315325573
 24
-1337.628145544487
 34
0.0
 50
-90.0
100
AcDbRotatedDimension
  0
DIMENSION
  5
268
330
1F
100
AcDbEntity
  8
1
100
AcDbDimension
  2
*D14
 10
826.8931532557301
 20
-1780.84543270091
 30
0.0
 11
1065.01164705315
 21
-1773.84543270091
 31
0.0
 70
    32
  1
<>
 71
     5
 42
-1.0
 53
0.00013888888889
  3
ME10_DIM_12
100
AcDbAlignedDimension
 13
1226.89315325573
 23
-1737.628145544491
 33
0.0
 14
826.8931532557301
 24
-1737.628145544491
 34
0.0
100
AcDbRotatedDimension
  0
INSERT
  5
270
330
1F
100
AcDbEntity
  8
1
100
AcDbBlockReference
  2
*D15
 10
0.0
 20
0.0
 30
0.0
  0
INSERT
  5
278
330
1F
100
AcDbEntity
  8
1
100
AcDbBlockReference
  2
*D16
 10
0.0
 20
0.0
 30
0.0
  0
ENDSEC
  0
SECTION
  2
OBJECTS
  0
DICTIONARY
  5
C
330
0
100
AcDbDictionary
281
     1
  3
ACAD_GROUP
350
D
  3
ACAD_LAYOUT
350
1A
  3
ACAD_MLINESTYLE
350
17
  3
ACAD_PLOTSETTINGS
350
19
  3
ACAD_PLOTSTYLENAME
350
E
  3
ACAD_TABLESTYLE
350
279
  3
ACAD_VISUALSTYLE
350
2A
  0
DICTIONARY
  5
D
102
{ACAD_REACTORS
330
C
102
}
330
C
100
AcDbDictionary
281
     1
  0
DICTIONARY
  5
1A
102
{ACAD_REACTORS
330
C
102
}
330
C
100
AcDbDictionary
281
     1
  3
Layout1
350
1E
  3
Layout2
350
26
  3
Model
350
22
  0
DICTIONARY
  5
17
102
{ACAD_REACTORS
330
C
102
}
330
C
100
AcDbDictionary
281
     1
  3
Standard
350
18
  0
DICTIONARY
  5
19
102
{ACAD_REACTORS
330
C
102
}
330
C
100
AcDbDictionary
281
     1
  0
ACDBDICTIONARYWDFLT
  5
E
102
{ACAD_REACTORS
330
C
102
}
330
C
100
AcDbDictionary
281
     1
  3
Normal
350
F
100
AcDbDictionaryWithDefault
340
F
  0
DICTIONARY
  5
279
102
{ACAD_REACTORS
330
C
102
}
330
C
100
AcDbDictionary
281
     1
  0
DICTIONARY
  5
2A
102
{ACAD_REACTORS
330
C
102
}
330
C
100
AcDbDictionary
281
     1
  3
2dWireframe
350
2F
  3
3D Hidden
350
31
  3
3dWireframe
350
30
  3
Basic
350
32
  3
Brighten
350
36
  3
ColorChange
350
3A
  3
Conceptual
350
34
  3
Dim
350
35
  3
Facepattern
350
39
  3
Flat
350
2B
  3
FlatWithEdges
350
2C
  3
Gouraud
350
2D
  3
GouraudWithEdges
350
2E
  3
Linepattern
350
38
  3
Realistic
350
33
  3
Thicken
350
37
  0
LAYOUT
  5
1E
102
{ACAD_REACTORS
330
1A
102
}
330
1A
100
AcDbPlotSettings
  1

  2
none_device
  4

  6

 40
0.0
 41
0.0
 42
0.0
 43
0.0
 44
0.0
 45
0.0
 46
0.0
 47
0.0
 48
0.0
 49
0.0
140
0.0
141
0.0
142
1.0
143
1.0
 70
   688
 72
     0
 73
     0
 74
     5
  7

 75
    16
147
1.0
148
0.0
149
0.0
100
AcDbLayout
  1
Layout1
 70
     1
 71
     1
 10
0.0
 20
0.0
 11
12.0
 21
9.0
 12
0.0
 22
0.0
 32
0.0
 14
1.00000000000000E+20
 24
1.00000000000000E+20
 34
1.00000000000000E+20
 15
-1.00000000000000E+20
 25
-1.00000000000000E+20
 35
-1.00000000000000E+20
146
0.0
 13
0.0
 23
0.0
 33
0.0
 16
1.0
 26
0.0
 36
0.0
 17
0.0
 27
1.0
 37
0.0
 76
     0
330
1B
  0
LAYOUT
  5
26
102
{ACAD_REACTORS
330
1A
102
}
330
1A
100
AcDbPlotSettings
  1

  2
none_device
  4

  6

 40
0.0
 41
0.0
 42
0.0
 43
0.0
 44
0.0
 45
0.0
 46
0.0
 47
0.0
 48
0.0
 49
0.0
140
0.0
141
0.0
142
1.0
143
1.0
 70
   688
 72
     0
 73
     0
 74
     5
  7

 75
    16
147
1.0
148
0.0
149
0.0
100
AcDbLayout
  1
Layout2
 70
     1
 71
     2
 10
0.0
 20
0.0
 11
0.0
 21
0.0
 12
0.0
 22
0.0
 32
0.0
 14
0.0
 24
0.0
 34
0.0
 15
0.0
 25
0.0
 35
0.0
146
0.0
 13
0.0
 23
0.0
 33
0.0
 16
1.0
 26
0.0
 36
0.0
 17
0.0
 27
1.0
 37
0.0
 76
     0
330
23
  0
LAYOUT
  5
22
102
{ACAD_REACTORS
330
1A
102
}
330
1A
100
AcDbPlotSettings
  1

  2
none_device
  4

  6

 40
0.0
 41
0.0
 42
0.0
 43
0.0
 44
0.0
 45
0.0
 46
0.0
 47
0.0
 48
0.0
 49
0.0
140
0.0
141
0.0
142
1.0
143
1.0
 70
  1712
 72
     0
 73
     0
 74
     0
  7

 75
     0
147
1.0
148
0.0
149
0.0
100
AcDbLayout
  1
Model
 70
     1
 71
     0
 10
0.0
 20
0.0
 11
12.0
 21
9.0
 12
0.0
 22
0.0
 32
0.0
 14
826.8931532557301
 24
-1782.84543270091
 34
0.0
 15
1252.24124178692
 25
-1227.2917896691
 35
0.0
146
0.0
 13
0.0
 23
0.0
 33
0.0
 16
1.0
 26
0.0
 36
0.0
 17
0.0
 27
1.0
 37
0.0
 76
     0
330
1F
331
29
  0
MLINESTYLE
  5
18
102
{ACAD_REACTORS
330
17
102
}
330
17
100
AcDbMlineStyle
  2
Standard
 70
     0
  3

 62
   256
 51
90.0
 52
90.0
 71
     2
 49
0.5
 62
   256
  6
BYLAYER
 49
-0.5
 62
   256
  6
BYLAYER
  0
ACDBPLACEHOLDER
  5
F
102
{ACAD_REACTORS
330
E
102
}
330
E
  0
VISUALSTYLE
  5
2F
102
{ACAD_REACTORS
330
2A
102
}
330
2A
100
AcDbVisualStyle
  2
2dWireframe
 70
     4
 71
     0
 72
     2
 73
     0
 90
        0
 40
-0.6
 41
-30.0
 62
     5
 63
     7
 74
     1
 91
        4
 64
     7
 65
   257
 75
     1
175
     1
 42
1.0
 92
        0
 66
   257
 43
1.0
 76
     1
 77
     6
 78
     2
 67
     7
 79
     5
170
     0
171
     0
290
     0
174
     0
 93
        1
 44
0.0
173
     0
291
     0
 45
0.0
1001
ACAD
1000
AcDbSavedByObjectVersion
1070
     0
  0
VISUALSTYLE
  5
31
102
{ACAD_REACTORS
330
2A
102
}
330
2A
100
AcDbVisualStyle
  2
3D Hidden
 70
     6
 71
     1
 72
     2
 73
     2
 90
        0
 40
-0.6
 41
-30.0
 62
     5
 63
     7
 74
     2
 91
        2
 64
     7
 65
   257
 75
     2
175
     1
 42
40.0
 92
        0
 66
   257
 43
1.0
 76
     1
 77
     6
 78
     2
 67
     7
 79
     3
170
     0
171
     0
290
     0
174
     0
 93
        1
 44
0.0
173
     0
291
     0
 45
0.0
1001
ACAD
1000
AcDbSavedByObjectVersion
1070
     0
  0
VISUALSTYLE
  5
30
102
{ACAD_REACTORS
330
2A
102
}
330
2A
100
AcDbVisualStyle
  2
3dWireframe
 70
     5
 71
     0
 72
     2
 73
     0
 90
        0
 40
-0.6
 41
-30.0
 62
     5
 63
     7
 74
     1
 91
        4
 64
     7
 65
   257
 75
     1
175
     1
 42
1.0
 92
        0
 66
   257
 43
1.0
 76
     1
 77
     6
 78
     2
 67
     7
 79
     5
170
     0
171
     0
290
     0
174
     0
 93
        1
 44
0.0
173
     0
291
     0
 45
0.0
1001
ACAD
1000
AcDbSavedByObjectVersion
1070
     0
  0
VISUALSTYLE
  5
32
102
{ACAD_REACTORS
330
2A
102
}
330
2A
100
AcDbVisualStyle
  2
Basic
 70
     7
 71
     1
 72
     0
 73
     1
 90
        0
 40
-0.6
 41
-30.0
 62
     5
 63
     7
 74
     0
 91
        4
 64
     7
 65
   257
 75
     1
175
     1
 42
1.0
 92
        8
 66
     7
 43
1.0
 76
     1
 77
     6
 78
     2
 67
     7
 79
     5
170
     0
171
     0
290
     0
174
     0
 93
        1
 44
0.0
173
     0
291
     1
 45
0.0
1001
ACAD
1000
AcDbSavedByObjectVersion
1070
     0
  0
VISUALSTYLE
  5
36
102
{ACAD_REACTORS
330
2A
102
}
330
2A
100
AcDbVisualStyle
  2
Brighten
 70
    12
 71
     2
 72
     2
 73
     0
 90
        0
 40
-0.6
 41
-30.0
 62
     5
 63
     7
 74
     1
 91
        4
 64
     7
 65
   257
 75
     1
175
     1
 42
1.0
 92
        8
 66
     7
 43
1.0
 76
     1
 77
     6
 78
     2
 67
     7
 79
     5
170
     0
171
     0
290
     0
174
     0
 93
        1
 44
50.0
173
     0
291
     1
 45
0.0
1001
ACAD
1000
AcDbSavedByObjectVersion
1070
     0
  0
VISUALSTYLE
  5
3A
102
{ACAD_REACTORS
330
2A
102
}
330
2A
100
AcDbVisualStyle
  2
ColorChange
 70
    16
 71
     2
 72
     2
 73
     3
 90
        0
 40
-0.6
 41
-30.0
 62
     5
 63
     8
 74
     1
 91
        4
 64
     7
 65
   257
 75
     1
175
     1
 42
1.0
 92
        8
 66
     8
 43
1.0
 76
     1
 77
     6
 78
     2
 67
     7
 79
     5
170
     0
171
     0
290
     0
174
     0
 93
        1
 44
0.0
173
     0
291
     1
 45
0.0
1001
ACAD
1000
AcDbSavedByObjectVersion
1070
     0
  0
VISUALSTYLE
  5
34
102
{ACAD_REACTORS
330
2A
102
}
330
2A
100
AcDbVisualStyle
  2
Conceptual
 70
     9
 71
     3
 72
     2
 73
     0
 90
        0
 40
-0.6
 41
-30.0
 62
     5
 63
     7
 74
     2
 91
        2
 64
     7
 65
   257
 75
     1
175
     1
 42
40.0
 92
        8
 66
     7
 43
1.0
 76
     1
 77
     6
 78
     2
 67
     7
 79
     3
170
     0
171
     0
290
     0
174
     0
 93
        1
 44
0.0
173
     0
291
     0
 45
0.0
1001
ACAD
1000
AcDbSavedByObjectVersion
1070
     0
  0
VISUALSTYLE
  5
35
102
{ACAD_REACTORS
330
2A
102
}
330
2A
100
AcDbVisualStyle
  2
Dim
 70
    11
 71
     2
 72
     2
 73
     0
 90
        0
 40
-0.6
 41
-30.0
 62
     5
 63
     7
 74
     1
 91
        4
 64
     7
 65
   257
 75
     1
175
     1
 42
1.0
 92
        8
 66
     7
 43
1.0
 76
     1
 77
     6
 78
     2
 67
     7
 79
     5
170
     0
171
     0
290
     0
174
     0
 93
        1
 44
-50.0
173
     0
291
     1
 45
0.0
1001
ACAD
1000
AcDbSavedByObjectVersion
1070
     0
  0
VISUALSTYLE
  5
39
102
{ACAD_REACTORS
330
2A
102
}
330
2A
100
AcDbVisualStyle
  2
Facepattern
 70
    15
 71
     2
 72
     2
 73
     0
 90
        0
 40
-0.6
 41
-30.0
 62
     5
 63
     7
 74
     1
 91
        4
 64
     7
 65
   257
 75
     1
175
     1
 42
1.0
 92
        8
 66
     7
 43
1.0
 76
     1
 77
     6
 78
     2
 67
     7
 79
     5
170
     0
171
     0
290
     0
174
     0
 93
        1
 44
0.0
173
     0
291
     1
 45
0.0
1001
ACAD
1000
AcDbSavedByObjectVersion
1070
     0
  0
VISUALSTYLE
  5
2B
102
{ACAD_REACTORS
330
2A
102
}
330
2A
100
AcDbVisualStyle
  2
Flat
 70
     0
 71
     2
 72
     1
 73
     1
 90
        2
 40
-0.6
 41
30.0
 62
     5
 63
     7
 74
     0
 91
        4
 64
     7
 65
   257
 75
     1
175
     1
 42
1.0
 92
        8
 66
     7
 43
1.0
 76
     1
 77
     6
 78
     2
 67
     7
 79
     5
170
     0
171
     0
290
     0
174
     0
 93
       13
 44
0.0
173
     0
291
     1
 45
0.0
1001
ACAD
1000
AcDbSavedByObjectVersion
1070
     0
  0
VISUALSTYLE
  5
2C
102
{ACAD_REACTORS
330
2A
102
}
330
2A
100
AcDbVisualStyle
  2
FlatWithEdges
 70
     1
 71
     2
 72
     1
 73
     1
 90
        2
 40
-0.6
 41
30.0
 62
     5
 63
     7
 74
     1
 91
        4
 64
     7
 65
   257
 75
     1
175
     1
 42
1.0
 92
        0
 66
   257
 43
1.0
 76
     1
 77
     6
 78
     2
 67
     7
 79
     5
170
     0
171
     0
290
     0
174
     0
 93
       13
 44
0.0
173
     0
291
     1
 45
0.0
1001
ACAD
1000
AcDbSavedByObjectVersion
1070
     0
  0
VISUALSTYLE
  5
2D
102
{ACAD_REACTORS
330
2A
102
}
330
2A
100
AcDbVisualStyle
  2
Gouraud
 70
     2
 71
     2
 72
     2
 73
     1
 90
        2
 40
-0.6
 41
30.0
 62
     5
 63
     7
 74
     0
 91
        4
 64
     7
 65
   257
 75
     1
175
     1
 42
1.0
 92
        0
 66
     7
 43
1.0
 76
     1
 77
     6
 78
     2
 67
     7
 79
     5
170
     0
171
     0
290
     0
174
     0
 93
       13
 44
0.0
173
     0
291
     1
 45
0.0
1001
ACAD
1000
AcDbSavedByObjectVersion
1070
     0
  0
VISUALSTYLE
  5
2E
102
{ACAD_REACTORS
330
2A
102
}
330
2A
100
AcDbVisualStyle
  2
GouraudWithEdges
 70
     3
 71
     2
 72
     2
 73
     1
 90
        2
 40
-0.6
 41
30.0
 62
     5
 63
     7
 74
     1
 91
        4
 64
     7
 65
   257
 75
     1
175
     1
 42
1.0
 92
        0
 66
   257
 43
1.0
 76
     1
 77
     6
 78
     2
 67
     7
 79
     5
170
     0
171
     0
290
     0
174
     0
 93
       13
 44
0.0
173
     0
291
     1
 45
0.0
1001
ACAD
1000
AcDbSavedByObjectVersion
1070
     0
  0
VISUALSTYLE
  5
38
102
{ACAD_REACTORS
330
2A
102
}
330
2A
100
AcDbVisualStyle
  2
Linepattern
 70
    14
 71
     2
 72
     2
 73
     0
 90
        0
 40
-0.6
 41
-30.0
 62
     5
 63
     7
 74
     1
 91
        4
 64
     7
 65
   257
 75
     7
175
     7
 42
1.0
 92
        8
 66
     7
 43
1.0
 76
     1
 77
     6
 78
     2
 67
     7
 79
     5
170
     0
171
     0
290
     0
174
     0
 93
        1
 44
0.0
173
     0
291
     1
 45
0.0
1001
ACAD
1000
AcDbSavedByObjectVersion
1070
     0
  0
VISUALSTYLE
  5
33
102
{ACAD_REACTORS
330
2A
102
}
330
2A
100
AcDbVisualStyle
  2
Realistic
 70
     8
 71
     2
 72
     2
 73
     0
 90
        0
 40
-0.6
 41
-30.0
 62
     5
 63
     7
 74
     1
 91
        0
 64
     7
 65
   257
 75
     1
175
     1
 42
1.0
 92
        8
 66
     8
 43
1.0
 76
     1
 77
     6
 78
     2
 67
     7
 79
     5
170
     0
171
     0
290
     0
174
     0
 93
       13
 44
0.0
173
     0
291
     0
 45
0.0
1001
ACAD
1000
AcDbSavedByObjectVersion
1070
     0
  0
VISUALSTYLE
  5
37
102
{ACAD_REACTORS
330
2A
102
}
330
2A
100
AcDbVisualStyle
  2
Thicken
 70
    13
 71
     2
 72
     2
 73
     0
 90
        0
 40
-0.6
 41
-30.0
 62
     5
 63
     7
 74
     1
 91
        4
 64
     7
 65
   257
 75
     1
175
     1
 42
1.0
 92
       12
 66
     7
 43
1.0
 76
     1
 77
     6
 78
     2
 67
     7
 79
     5
170
     0
171
     0
290
     0
174
     0
 93
        1
 44
0.0
173
     0
291
     1
 45
0.0
1001
ACAD
1000
AcDbSavedByObjectVersion
1070
     0
  0
ENDSEC
  0
EOF
