  0
SECTION
  2
HEADER
  9
$ACADVER
  1
AC1014
  9
$ACADMAINTVER
 70
             0
  9
$DWGCODEPAGE
  3
ANSI_1252
  9
$INSBASE
 10
0.0
 20
0.0
 30
0.0
  9
$EXTMIN
 10
1.00000000000000E+20
 20
1.00000000000000E+20
 30
1.00000000000000E+20
  9
$EXTMAX
 10
-1.00000000000000E+20
 20
-1.00000000000000E+20
 30
-1.00000000000000E+20
  9
$LIMMIN
 10
0.0
 20
0.0
  9
$LIMMAX
 10
0.0
 20
0.0
  9
$ORTHOMODE
 70
             0
  9
$REGENMODE
 70
             1
  9
$FILLMODE
 70
             1
  9
$QTEXTMODE
 70
             0
  9
$MIRRTEXT
 70
             1
  9
$DRAGMODE
 70
             2
  9
$LTSCALE
 40
1.0
  9
$OSMODE
 70
             0
  9
$ATTMODE
 70
             1
  9
$TEXTSIZE
 40
0.2
  9
$TRACEWID
 40
0.05
  9
$TEXTSTYLE
  7
STANDARD
  9
$CLAYER
  8
0
  9
$CELTYPE
  6
CONTINUOUS
  9
$CECOLOR
 62
           256
  9
$CELTSCALE
 40
1.0
  9
$DELOBJ
 70
             1
  9
$DISPSILH
 70
             0
  9
$DIMSCALE
 40
1.0
  9
$DIMASZ
 40
0.18
  9
$DIMEXO
 40
0.0625
  9
$DIMDLI
 40
0.38
  9
$DIMRND
 40
0.0
  9
$DIMDLE
 40
0.0
  9
$DIMEXE
 40
0.18
  9
$DIMTP
 40
0.0
  9
$DIMTM
 40
0.0
  9
$DIMTXT
 40
0.18
  9
$DIMCEN
 40
0.09
  9
$DIMTSZ
 40
0.0
  9
$DIMTOL
 70
             0
  9
$DIMLIM
 70
             0
  9
$DIMTIH
 70
             1
  9
$DIMTOH
 70
             1
  9
$DIMSE1
 70
             0
  9
$DIMSE2
 70
             0
  9
$DIMTAD
 70
             0
  9
$DIMZIN
 70
             0
  9
$DIMBLK
  1

  9
$DIMASO
 70
             1
  9
$DIMSHO
 70
             1
  9
$DIMPOST
  1

  9
$DIMAPOST
  1

  9
$DIMALT
 70
             0
  9
$DIMALTD
 70
             2
  9
$DIMALTF
 40
25.4
  9
$DIMLFAC
 40
1.0
  9
$DIMTOFL
 70
             0
  9
$DIMTVP
 40
0.0
  9
$DIMTIX
 70
             0
  9
$DIMSOXD
 70
             0
  9
$DIMSAH
 70
             0
  9
$DIMBLK1
  1

  9
$DIMBLK2
  1

  9
$DIMSTYLE
  2
STANDARD
  9
$DIMCLRD
 70
             0
  9
$DIMCLRE
 70
             0
  9
$DIMCLRT
 70
             0
  9
$DIMTFAC
 40
1.0
  9
$DIMGAP
 40
0.09
  9
$DIMJUST
 70
             0
  9
$DIMSD1
 70
             0
  9
$DIMSD2
 70
             0
  9
$DIMTOLJ
 70
             1
  9
$DIMTZIN
 70
             0
  9
$DIMALTZ
 70
             0
  9
$DIMALTTZ
 70
             0
  9
$DIMFIT
 70
             3
  9
$DIMUPT
 70
             0
  9
$DIMUNIT
 70
             2
  9
$DIMDEC
 70
             4
  9
$DIMTDEC
 70
             4
  9
$DIMALTU
 70
             2
  9
$DIMALTTD
 70
             2
  9
$DIMTXSTY
  7
STANDARD
  9
$DIMAUNIT
 70
             0
  9
$LUNITS
 70
             2
  9
$LUPREC
 70
             4
  9
$SKETCHINC
 40
0.1
  9
$FILLETRAD
 40
0.0
  9
$AUNITS
 70
             0
  9
$AUPREC
 70
             0
  9
$MENU
  1
acad
  9
$ELEVATION
 40
0.0
  9
$PELEVATION
 40
0.0
  9
$THICKNESS
 40
0.0
  9
$LIMCHECK
 70
             0
  9
$BLIPMODE
 70
             1
  9
$CHAMFERA
 40
0.0
  9
$CHAMFERB
 40
0.0
  9
$CHAMFERC
 40
0.0
  9
$CHAMFERD
 40
0.0
  9
$SKPOLY
 70
             0
  9
$TDCREATE
 40
0.000000000
  9
$TDUPDATE
 40
0.000000000
  9
$TDINDWG
 40
0.0000000000
  9
$TDUSRTIMER
 40
0.0000000000
  9
$USRTIMER
 70
             1
  9
$ANGBASE
 50
0.0
  9
$ANGDIR
 70
             0
  9
$PDMODE
 70
             0
  9
$PDSIZE
 40
0.0
  9
$PLINEWID
 40
0.0
  9
$COORDS
 70
             0
  9
$SPLFRAME
 70
             0
  9
$SPLINETYPE
 70
             6
  9
$SPLINESEGS
 70
             8
  9
$ATTDIA
 70
             0
  9
$ATTREQ
 70
             1
  9
$HANDLING
 70
             1
  9
$HANDSEED
  5
CA
  9
$SURFTAB1
 70
             6
  9
$SURFTAB2
 70
             6
  9
$SURFTYPE
 70
             6
  9
$SURFU
 70
             6
  9
$SURFV
 70
             6
  9
$UCSNAME
  2

  9
$UCSORG
 10
0.0
 20
0.0
 30
0.0
  9
$UCSXDIR
 10
1.0
 20
0.0
 30
0.0
  9
$UCSYDIR
 10
0.0
 20
1.0
 30
0.0
  9
$PUCSNAME
  2

  9
$PUCSORG
 10
0.0
 20
0.0
 30
0.0
  9
$PUCSXDIR
 10
1.0
 20
0.0
 30
0.0
  9
$PUCSYDIR
 10
0.0
 20
1.0
 30
0.0
  9
$USERI1
 70
             0
  9
$USERI2
 70
             0
  9
$USERI3
 70
             0
  9
$USERI4
 70
             0
  9
$USERI5
 70
             0
  9
$USERR1
 40
11.6
  9
$USERR2
 40
0.0
  9
$USERR3
 40
0.0
  9
$USERR4
 40
0.0
  9
$USERR5
 40
0.0
  9
$WORLDVIEW
 70
             1
  9
$SHADEDGE
 70
             3
  9
$SHADEDIF
 70
            70
  9
$TILEMODE
 70
             1
  9
$MAXACTVP
 70
            16
  9
$PINSBASE
 10
0.0
 20
0.0
 30
0.0
  9
$PLIMCHECK
 70
             0
  9
$PEXTMIN
 10
1.00000000000000E+20
 20
1.00000000000000E+20
 30
1.00000000000000E+20
  9
$PEXTMAX
 10
-1.00000000000000E+20
 20
-1.00000000000000E+20
 30
-1.00000000000000E+20
  9
$PLIMMIN
 10
0.0
 20
0.0
  9
$PLIMMAX
 10
12.0
 20
9.0
  9
$UNITMODE
 70
             0
  9
$VISRETAIN
 70
             0
  9
$PLINEGEN
 70
             1
  9
$PSLTSCALE
 70
             0
  9
$TREEDEPTH
 70
          3020
  9
$PICKSTYLE
 70
             1
  9
$CMLSTYLE
  2
STANDARD
  9
$CMLJUST
 70
             0
  9
$CMLSCALE
 40
1.0
  9
$PROXYGRAPHICS
 70
             0
  9
$MEASUREMENT
 70
             1
  0
ENDSEC
  0
SECTION
  2
CLASSES
  0
CLASS
  1
LWPOLYLINE
  2
AcDbPolyline
  3
"AutoCAD"
 90
        0
280
             0
281
             1
  0
CLASS
  1
IMAGE
  2
AcDbRasterImage
  3
ISM
 90
      127
280
             0
281
             1
  0
CLASS
  1
OLE2FRAME
  2
AcDbOle2Frame
  3
""
 90
        0
280
             0
281
             1
  0
CLASS
  1
HATCH
  2
AcDbHatch
  3
"ACAD_SEDONA"
 90
        0
280
             0
281
             1
  0
CLASS
  1
DICTIONARYVAR
  2
AcDbDictionaryVar
  3
"AutoCAD"
 90
        0
280
             0
281
             0
  0
CLASS
  1
RASTERVARIABLES
  2
AcDbRasterVariables
  3
ISM
 90
        0
280
             0
281
             0
  0
CLASS
  1
IMAGEDEF
  2
AcDbRasterImageDef
  3
ISM
 90
        0
280
             0
281
             0
  0
CLASS
  1
IMAGEDEF_REACTOR
  2
AcDbRasterImageDefReactor
  3
ISM
 90
        1
280
             0
281
             0
  0
CLASS
  1
IDBUFFER
  2
AcDbIdBuffer
  3
"Acad"
 90
        0
280
             0
281
             0
  0
CLASS
  1
SPATIAL_FILTER
  2
AcDbSpatialFilter
  3
"Acad"
 90
        0
280
             0
281
             0
  0
CLASS
  1
XRECORD
  2
AcDbXrecord
  3
"<Built In>"
 90
        0
280
             0
281
             0
  0
CLASS
  1
SORTENTSTABLE
  2
AcDbSortentsTable
  3
"AutoCAD"
 90
        0
280
             0
281
             0
  0
CLASS
  1
LAYER_INDEX
  2
AcDbLayerIndex
  3
"Acad"
 90
        0
280
             0
281
             0
  0
CLASS
  1
SPATIAL_INDEX
  2
AcDbSpatialIndex
  3
"Acad"
 90
        0
280
             0
281
             0
  0
CLASS
  1
OBJECT_PTR
  2
CAseDLPNTableRecord
  3
"ASE-LPNTableRecord"
 90
        1
280
             0
281
             0
  0
CLASS
  1
LAYOUT
  2
AcDbLayout
  3
"AutoCAD 2000"
 90
        1
280
             0
281
             0
  0
CLASS
  1
PLOTSETTINGS
  2
AcDbPlotSettings
  3
"AutoCAD 2000"
 90
        1
280
             0
281
             0
  0
CLASS
  1
ACDBDICTIONARYWDFLT
  2
AcDbDictionaryWithDefault
  3
"AutoCAD 2000"
 90
        1
280
             0
281
             0
  0
CLASS
  1
ACDBPLACEHOLDER
  2
AcDbPlaceHolder
  3
"AutoCAD 2000"
 90
        1
280
             0
281
             0
  0
ENDSEC
  0
SECTION
  2
TABLES
  0
TABLE
  2
VPORT
  5
7
100
AcDbSymbolTable
 70
             1
  0
VPORT
  5
15
100
AcDbSymbolTableRecord
100
AcDbViewportTableRecord
  2
*ACTIVE
 70
             0
 10
0.0
 20
0.0
 11
1.0
 21
1.0
 12
-0.01199950000009
 22
134.56713562084258
 13
0.0
 23
0.0
 14
1.0
 24
1.0
 15
0.0
 25
0.0
 16
0.0
 26
0.0
 36
1.0
 17
0.0
 27
0.0
 37
0.0
 40
343.17548746518122
 41
1.60267857142857
 42
50.0
 43
0.0
 44
0.0
 50
0.0
 51
0.0
 71
             0
 72
           100
 73
             1
 74
             1
 75
             0
 76
             0
 77
             0
 78
             0
  0
ENDTAB
  0
TABLE
  2
LTYPE
  5
4
100
AcDbSymbolTable
 70
            10
  0
LTYPE
  5
11
100
AcDbSymbolTableRecord
100
AcDbLinetypeTableRecord
  2
BYBLOCK
 70
            64
  3

 72
            65
 73
             0
 40
0.0
  0
LTYPE
  5
12
100
AcDbSymbolTableRecord
100
AcDbLinetypeTableRecord
  2
BYLAYER
 70
            64
  3

 72
            65
 73
             0
 40
0.0
  0
LTYPE
  5
13
100
AcDbSymbolTableRecord
100
AcDbLinetypeTableRecord
  2
CONTINUOUS
 70
            64
  3
Solid line
 72
            65
 73
             0
 40
0.0
  0
LTYPE
  5
1D
100
AcDbSymbolTableRecord
100
AcDbLinetypeTableRecord
  2
DASHED
 70
            64
  3
Dashed
 72
            65
 73
             2
 40
15.0
 49
12.0
 74
             0
 49
-3.0
 74
             0
  0
LTYPE
  5
1E
100
AcDbSymbolTableRecord
100
AcDbLinetypeTableRecord
  2
DOTTED
 70
            64
  3
Dotted
 72
            65
 73
             2
 40
3.5
 49
0.5
 74
             0
 49
-3.0
 74
             0
  0
LTYPE
  5
1F
100
AcDbSymbolTableRecord
100
AcDbLinetypeTableRecord
  2
DOT_CENTER
 70
            64
  3
Dot_Center
 72
            65
 73
             4
 40
2.0
 49
1.25
 74
             0
 49
-0.25
 74
             0
 49
0.25
 74
             0
 49
-0.25
 74
             0
  0
LTYPE
  5
20
100
AcDbSymbolTableRecord
100
AcDbLinetypeTableRecord
  2
LONG_DASHED
 70
            64
  3
Long_Dashed
 72
            65
 73
             2
 40
2.0
 49
1.5
 74
             0
 49
-0.5
 74
             0
  0
LTYPE
  5
21
100
AcDbSymbolTableRecord
100
AcDbLinetypeTableRecord
  2
DASH_CENTER
 70
            64
  3
Dash_Center
 72
            65
 73
             4
 40
36.0
 49
24.0
 74
             0
 49
-3.0
 74
             0
 49
6.0
 74
             0
 49
-3.0
 74
             0
  0
LTYPE
  5
22
100
AcDbSymbolTableRecord
100
AcDbLinetypeTableRecord
  2
PHANTOM
 70
            64
  3
Phantom
 72
            65
 73
             6
 40
2.5
 49
1.25
 74
             0
 49
-0.25
 74
             0
 49
0.25
 74
             0
 49
-0.25
 74
             0
 49
0.25
 74
             0
 49
-0.25
 74
             0
  0
LTYPE
  5
23
100
AcDbSymbolTableRecord
100
AcDbLinetypeTableRecord
  2
CENTER_DASH_DASH
 70
            64
  3
Center_Dash_Dash
 72
            65
 73
             6
 40
22.0
 49
12.0
 74
             0
 49
-3.0
 74
             0
 49
0.5
 74
             0
 49
-3.0
 74
             0
 49
0.5
 74
             0
 49
-3.0
 74
             0
  0
ENDTAB
  0
TABLE
  2
LAYER
  5
2
100
AcDbSymbolTable
 70
             5
  0
LAYER
  5
14
100
AcDbSymbolTableRecord
100
AcDbLayerTableRecord
  2
0
 70
             0
 62
             7
  6
CONTINUOUS
  0
LAYER
  5
24
100
AcDbSymbolTableRecord
100
AcDbLayerTableRecord
  2
1
 70
             0
 62
             7
  6
CONTINUOUS
  0
LAYER
  5
25
100
AcDbSymbolTableRecord
100
AcDbLayerTableRecord
  2
LC-002-002-----0
 70
             0
 62
             7
  6
CONTINUOUS
  0
LAYER
  5
26
100
AcDbSymbolTableRecord
100
AcDbLayerTableRecord
  2
LC-005-002-----0
 70
             0
 62
             7
  6
CONTINUOUS
  0
LAYER
  5
27
100
AcDbSymbolTableRecord
100
AcDbLayerTableRecord
  2
LC-007-002-RND-0
 70
             0
 62
             7
  6
CONTINUOUS
  0
ENDTAB
  0
TABLE
  2
STYLE
  5
3
100
AcDbSymbolTable
 70
             2
  0
STYLE
  5
17
100
AcDbSymbolTableRecord
100
AcDbTextStyleTableRecord
  2
STANDARD
 70
             0
 40
0.0
 41
1.0
 50
0.0
 71
             0
 42
0.0
  3
txt
  4

  0
STYLE
  5
AE
100
AcDbSymbolTableRecord
100
AcDbTextStyleTableRecord
  2
CONVERTER_1
 70
             0
 40
0.0
 41
0.9
 50
0.0
 71
             0
 42
0.0
  3
txt.shx
  4

  0
ENDTAB
  0
TABLE
  2
VIEW
  5
5
100
AcDbSymbolTable
 70
             0
  0
ENDTAB
  0
TABLE
  2
UCS
  5
6
100
AcDbSymbolTable
 70
             0
  0
ENDTAB
  0
TABLE
  2
APPID
  5
8
100
AcDbSymbolTable
 70
             1
  0
APPID
  5
16
100
AcDbSymbolTableRecord
100
AcDbRegAppTableRecord
  2
ACAD
 70
             0
  0
ENDTAB
  0
TABLE
  2
DIMSTYLE
  5
9
100
AcDbSymbolTable
 70
             4
  0
DIMSTYLE
105
18
100
AcDbSymbolTableRecord
100
AcDbDimStyleTableRecord
  2
STANDARD
 70
             0
  3

  4

  5

  6

  7

 40
1.0
 41
0.18
 42
0.0625
 43
0.38
 44
0.18
 45
0.0
 46
0.0
 47
0.0
 48
0.0
 71
             0
 72
             0
 73
             1
 74
             1
 75
             0
 76
             0
 77
             0
 78
             0
140
0.18
141
0.09
142
0.0
143
25.4
144
1.0
145
0.0
146
1.0
147
0.09
170
             0
171
             2
172
             0
173
             0
174
             0
175
             0
176
             0
177
             0
178
             0
270
             2
271
             4
272
             4
273
             2
274
             2
275
             0
280
             0
281
             0
282
             0
283
             1
284
             0
285
             0
286
             0
287
             0
288
             0
340
17
  0
DIMSTYLE
105
B1
100
AcDbSymbolTableRecord
100
AcDbDimStyleTableRecord
  2
ME10_DIM_0
 70
             0
  3
Ø<>
  4

  5

  6

  7

 40
1.0
 41
12.0
 42
0.0
 43
0.38
 44
2.0
 45
0.0
 46
0.0
 47
0.0
 48
0.0
 71
             0
 72
             0
 73
             0
 74
             0
 75
             0
 76
             0
 77
             1
 78
             8
140
12.0
141
0.09
142
0.0
143
25.4
144
1.0
145
0.0
146
1.0
147
0.625
170
             0
171
             2
172
             0
173
             1
174
             0
175
             0
176
             4
177
             4
178
             1
270
             2
271
             2
272
             4
273
             2
274
             2
275
             0
280
             0
281
             0
282
             0
283
             1
284
             0
285
             0
286
             0
287
             0
288
             0
340
17
  0
DIMSTYLE
105
BC
100
AcDbSymbolTableRecord
100
AcDbDimStyleTableRecord
  2
ME10_DIM_1
 70
             0
  3
Ø<>
  4

  5

  6

  7

 40
1.0
 41
12.0
 42
0.0
 43
0.38
 44
2.0
 45
0.0
 46
0.0
 47
0.0
 48
0.0
 71
             0
 72
             0
 73
             0
 74
             0
 75
             0
 76
             0
 77
             1
 78
             8
140
12.0
141
0.09
142
0.0
143
25.4
144
1.0
145
0.0
146
1.0
147
0.625
170
             0
171
             2
172
             0
173
             1
174
             0
175
             0
176
             4
177
             4
178
             1
270
             2
271
             1
272
             4
273
             2
274
             2
275
             0
280
             0
281
             0
282
             0
283
             1
284
             0
285
             0
286
             0
287
             0
288
             0
340
17
  0
DIMSTYLE
105
C7
100
AcDbSymbolTableRecord
100
AcDbDimStyleTableRecord
  2
ME10_DIM_2
 70
             0
  3
x500
  4

  5

  6

  7

 40
1.0
 41
12.0
 42
0.0
 43
0.38
 44
2.0
 45
0.0
 46
0.0
 47
0.0
 48
0.0
 71
             0
 72
             0
 73
             0
 74
             0
 75
             0
 76
             0
 77
             1
 78
             8
140
12.0
141
0.09
142
0.0
143
25.4
144
1.0
145
0.0
146
1.0
147
0.625
170
             0
171
             2
172
             0
173
             1
174
             0
175
             0
176
             4
177
             4
178
             1
270
             2
271
             2
272
             4
273
             2
274
             2
275
             0
280
             0
281
             0
282
             0
283
             1
284
             0
285
             0
286
             0
287
             0
288
             0
340
17
  0
ENDTAB
  0
TABLE
  2
BLOCK_RECORD
  5
1
100
AcDbSymbolTable
 70
             8
  0
BLOCK_RECORD
  5
A
100
AcDbSymbolTableRecord
100
AcDbBlockTableRecord
  2
*MODEL_SPACE
  0
BLOCK_RECORD
  5
B
100
AcDbSymbolTableRecord
100
AcDbBlockTableRecord
  2
*PAPER_SPACE
  0
BLOCK_RECORD
  5
28
100
AcDbSymbolTableRecord
100
AcDbBlockTableRecord
  2
084_4E_KLEMMRING_ZU_HL84
  0
BLOCK_RECORD
  5
2A
100
AcDbSymbolTableRecord
100
AcDbBlockTableRecord
  2
084_3E_EPDM-FOLIE_ZU_HL84
  0
BLOCK_RECORD
  5
2C
100
AcDbSymbolTableRecord
100
AcDbBlockTableRecord
  2
084_2E_EDELSTAHL-FLANSHL84
  0
BLOCK_RECORD
  5
2E
100
AcDbSymbolTableRecord
100
AcDbBlockTableRecord
  2
062B_3E_TRAGRING
  0
BLOCK_RECORD
  5
30
100
AcDbSymbolTableRecord
100
AcDbBlockTableRecord
  2
BAUSCHUTZ_ZU_HL84
  0
BLOCK_RECORD
  5
A7
100
AcDbSymbolTableRecord
100
AcDbBlockTableRecord
  2
*D5
  0
BLOCK_RECORD
  5
B3
100
AcDbSymbolTableRecord
100
AcDbBlockTableRecord
  2
*D6
  0
BLOCK_RECORD
  5
BE
100
AcDbSymbolTableRecord
100
AcDbBlockTableRecord
  2
*D7
  0
ENDTAB
  0
ENDSEC
  0
SECTION
  2
BLOCKS
  0
BLOCK
  5
D
100
AcDbEntity
  8
0
100
AcDbBlockBegin
  2
*MODEL_SPACE
 70
             0
 10
0.0
 20
0.0
 30
0.0
  3
*MODEL_SPACE
  1

  0
ENDBLK
  5
E
100
AcDbEntity
  8
0
100
AcDbBlockEnd
  0
BLOCK
  5
F
100
AcDbEntity
 67
             1
  8
0
100
AcDbBlockBegin
  2
*PAPER_SPACE
 70
             0
 10
0.0
 20
0.0
 30
0.0
  3
*PAPER_SPACE
  1

  0
ENDBLK
  5
10
100
AcDbEntity
 67
             1
  8
0
100
AcDbBlockEnd
  0
BLOCK
  5
29
100
AcDbEntity
  8
0
100
AcDbBlockBegin
  2
084_4E_KLEMMRING_ZU_HL84
 70
             0
 10
852.4785856675901
 20
872.71023674590174
 30
0.0
  3
084_4E_KLEMMRING_ZU_HL84
  1

  0
ARC
  5
49
100
AcDbEntity
  8
LC-007-002-RND-0
  6
CONTINUOUS
 62
             7
100
AcDbCircle
 10
91.42131749999982
 20
8.10141199999998
 40
1.07984999999986
100
AcDbArc
 50
-86.0000030000257
 51
0.0
  0
ARC
  5
48
100
AcDbEntity
  8
LC-007-002-RND-0
  6
CONTINUOUS
 62
             7
100
AcDbCircle
 10
-91.42131749999999
 20
8.10141199999998
 40
1.07985000000014
100
AcDbArc
 50
180.0
 51
-93.99999700003147
  0
LINE
  5
47
100
AcDbEntity
  8
1
  6
PHANTOM
 62
             2
100
AcDbLine
 10
-0.00000000000011
 20
18.2307952988939
 11
0.0
 21
-3.90577526367486
  0
LINE
  5
46
100
AcDbEntity
  8
LC-005-002-----0
  6
CONTINUOUS
 62
             7
100
AcDbLine
 10
91.49664349999983
 20
7.02419199999997
 11
89.35978549999987
 21
6.8747679999999
  0
LINE
  5
45
100
AcDbEntity
  8
LC-005-002-----0
  6
CONTINUOUS
 62
             7
100
AcDbLine
 10
92.5011674999999
 20
15.71517299999994
 11
92.5011674999999
 21
8.10141199999998
  0
LINE
  5
44
100
AcDbEntity
  8
LC-005-002-----0
  6
CONTINUOUS
 62
             7
100
AcDbLine
 10
87.64184249999988
 20
6.8747679999999
 11
87.64184249999988
 21
0.0
  0
LINE
  5
43
100
AcDbEntity
  8
LC-005-002-----0
  6
CONTINUOUS
 62
             7
100
AcDbLine
 10
-91.49664350000001
 20
7.02419199999997
 11
-89.3597855000001
 21
6.8747679999999
  0
LINE
  5
42
100
AcDbEntity
  8
LC-005-002-----0
  6
CONTINUOUS
 62
             7
100
AcDbLine
 10
-87.64184150000011
 20
6.8747679999999
 11
-87.64184150000011
 21
0.0
  0
LINE
  5
41
100
AcDbEntity
  8
LC-005-002-----0
  6
CONTINUOUS
 62
             7
100
AcDbLine
 10
-92.50116750000012
 20
15.71517299999994
 11
-92.50116750000012
 21
8.10141199999998
  0
LINE
  5
40
100
AcDbEntity
  8
LC-005-002-----0
  6
CONTINUOUS
 62
             7
100
AcDbLine
 10
-87.64184150000011
 20
0.0
 11
87.64184249999988
 21
0.0
  0
LINE
  5
3F
100
AcDbEntity
  8
LC-005-002-----0
  6
CONTINUOUS
 62
             7
100
AcDbLine
 10
-92.50116750000012
 20
15.71517299999994
 11
92.5011674999999
 21
15.71517299999994
  0
LINE
  5
3E
100
AcDbEntity
  8
1
  6
CONTINUOUS
 62
             7
100
AcDbLine
 10
89.35978549999987
 20
6.8747679999999
 11
87.64184249999988
 21
6.8747679999999
  0
LINE
  5
3D
100
AcDbEntity
  8
1
  6
CONTINUOUS
 62
             7
100
AcDbLine
 10
-87.64184150000011
 20
6.8747679999999
 11
-89.3597855000001
 21
6.8747679999999
  0
LINE
  5
3C
100
AcDbEntity
  8
1
  6
CONTINUOUS
 62
             7
100
AcDbLine
 10
-91.42131749999999
 20
8.10141199999998
 11
91.42131749999982
 21
8.10141199999998
  0
LINE
  5
3B
100
AcDbEntity
  8
1
  6
CONTINUOUS
 62
             7
100
AcDbLine
 10
87.64184249999988
 20
6.8747679999999
 11
-87.64184150000011
 21
6.8747679999999
  0
POINT
  5
3A
100
AcDbEntity
  8
0
 62
             7
100
AcDbPoint
 10
92.5011674999999
 20
15.71517299999994
  0
POINT
  5
39
100
AcDbEntity
  8
0
 62
             7
100
AcDbPoint
 10
-92.50116750000012
 20
15.71517299999994
  0
ENDBLK
  5
4A
100
AcDbEntity
  8
0
100
AcDbBlockEnd
  0
BLOCK
  5
2B
100
AcDbEntity
  8
0
100
AcDbBlockBegin
  2
084_3E_EPDM-FOLIE_ZU_HL84
 70
             0
 10
944.22522866759005
 20
1077.887431290686
 30
0.0
  3
084_3E_EPDM-FOLIE_ZU_HL84
  1

  0
LINE
  5
4E
100
AcDbEntity
  8
LC-005-002-----0
  6
CONTINUOUS
 62
             7
100
AcDbLine
 10
-250.0119995
 20
67.32835299999999
 11
-250.0119995
 21
68.52835299999993
  0
LINE
  5
4D
100
AcDbEntity
  8
LC-005-002-----0
  6
CONTINUOUS
 62
             7
100
AcDbLine
 10
249.98800049999991
 20
67.32835299999999
 11
249.98800049999991
 21
68.52835299999993
  0
LINE
  5
4C
100
AcDbEntity
  8
LC-005-002-----0
  6
CONTINUOUS
 62
             7
100
AcDbLine
 10
-250.0119995
 20
67.32835299999999
 11
249.98800049999991
 21
67.32835299999999
  0
LINE
  5
4B
100
AcDbEntity
  8
LC-005-002-----0
  6
CONTINUOUS
 62
             7
100
AcDbLine
 10
-250.0119995
 20
68.52835299999993
 11
249.98800049999991
 21
68.52835299999993
  0
ENDBLK
  5
4F
100
AcDbEntity
  8
0
100
AcDbBlockEnd
  0
BLOCK
  5
2D
100
AcDbEntity
  8
0
100
AcDbBlockBegin
  2
084_2E_EDELSTAHL-FLANSHL84
 70
             0
 10
834.72497666759
 20
926.36429026328267
 30
0.0
  3
084_2E_EDELSTAHL-FLANSHL84
  1

  0
ARC
  5
88
100
AcDbEntity
  8
LC-002-002-----0
  6
CONTINUOUS
 62
             7
100
AcDbCircle
 10
-104.0642845
 20
157.81032300000001
 40
7.0000000000002
100
AcDbArc
 50
-140.99309825998529
 51
-94.0168641734054
  0
ARC
  5
87
100
AcDbEntity
  8
LC-002-002-----0
  6
CONTINUOUS
 62
             7
100
AcDbCircle
 10
-85.46478650000012
 20
143.20403400000001
 40
6.30000000000013
100
AcDbArc
 50
0.0
 51
91.2794265155906
  0
ARC
  5
86
100
AcDbEntity
  8
LC-002-002-----0
  6
CONTINUOUS
 62
             7
100
AcDbCircle
 10
-75.66478649999999
 20
129.6150670000001
 40
3.5
100
AcDbArc
 50
180.0
 51
-90.0
  0
ARC
  5
85
100
AcDbEntity
  8
LC-002-002-----0
  6
CONTINUOUS
 62
             7
100
AcDbCircle
 10
-75.66450650000013
 20
125.81543499999989
 40
1.00000000000006
100
AcDbArc
 50
-0.00028000000538
 51
17.43550153852166
  0
ARC
  5
84
100
AcDbEntity
  8
LC-002-002-----0
  6
CONTINUOUS
 62
             7
100
AcDbCircle
 10
-75.66450650000013
 20
125.81543499999989
 40
0.30000000000018
100
AcDbArc
 50
-0.00027999987185
 51
89.99971999998702
  0
ARC
  5
83
100
AcDbEntity
  8
LC-002-002-----0
  6
CONTINUOUS
 62
             7
100
AcDbCircle
 10
-75.66426450000012
 20
122.1150670000001
 40
0.3000000000002
100
AcDbArc
 50
-90.0
 51
-3.38045568624119
  0
ARC
  5
82
100
AcDbEntity
  8
LC-002-002-----0
  6
CONTINUOUS
 62
             7
100
AcDbCircle
 10
-75.66478649999999
 20
120.3150669999999
 40
1.5
100
AcDbArc
 50
90.0
 51
180.0
  0
ARC
  5
81
100
AcDbEntity
  8
LC-002-002-----0
  6
CONTINUOUS
 62
             7
100
AcDbCircle
 10
-75.66478649999999
 20
120.3150669999999
 40
1.5
100
AcDbArc
 50
180.0
 51
-90.0
  0
ARC
  5
80
100
AcDbEntity
  8
LC-002-002-----0
  6
CONTINUOUS
 62
             7
100
AcDbCircle
 10
-75.66478649999999
 20
120.3150669999999
 40
0.80000000000013
100
AcDbArc
 50
180.0
 51
-90.0
  0
ARC
  5
7F
100
AcDbEntity
  8
LC-002-002-----0
  6
CONTINUOUS
 62
             7
100
AcDbCircle
 10
-75.66478649999999
 20
120.3150669999999
 40
0.8000000000002
100
AcDbArc
 50
90.0
 51
180.0
  0
ARC
  5
7E
100
AcDbEntity
  8
LC-002-002-----0
  6
CONTINUOUS
 62
             7
100
AcDbCircle
 10
-75.66478649999999
 20
122.1150670000001
 40
1.0
100
AcDbArc
 50
-90.0
 51
0.0
  0
ARC
  5
7D
100
AcDbEntity
  8
LC-002-002-----0
  6
CONTINUOUS
 62
             7
100
AcDbCircle
 10
75.64078749999993
 20
129.6150670000001
 40
3.5
100
AcDbArc
 50
-90.0
 51
0.0
  0
ARC
  5
7C
100
AcDbEntity
  8
LC-002-002-----0
  6
CONTINUOUS
 62
             7
100
AcDbCircle
 10
85.44078749999989
 20
143.20403400000001
 40
6.29999999999999
100
AcDbArc
 50
99.27941703322786
 51
180.0
  0
ARC
  5
7B
100
AcDbEntity
  8
LC-002-002-----0
  6
CONTINUOUS
 62
             7
100
AcDbCircle
 10
104.0402854999999
 20
157.81032300000001
 40
7.0000000000001
100
AcDbArc
 50
-86.01870614601062
 51
-39.00690400000018
  0
ARC
  5
7A
100
AcDbEntity
  8
LC-002-002-----0
  6
CONTINUOUS
 62
             7
100
AcDbCircle
 10
75.64078749999993
 20
122.1150670000001
 40
1.0
100
AcDbArc
 50
180.0
 51
-90.0
  0
ARC
  5
79
100
AcDbEntity
  8
LC-002-002-----0
  6
CONTINUOUS
 62
             7
100
AcDbCircle
 10
75.64078749999993
 20
120.3150669999999
 40
0.79999999999995
100
AcDbArc
 50
0.0
 51
90.0
  0
ARC
  5
78
100
AcDbEntity
  8
LC-002-002-----0
  6
CONTINUOUS
 62
             7
100
AcDbCircle
 10
75.64078749999993
 20
120.3150669999999
 40
0.8
100
AcDbArc
 50
-90.0
 51
0.0
  0
ARC
  5
77
100
AcDbEntity
  8
LC-002-002-----0
  6
CONTINUOUS
 62
             7
100
AcDbCircle
 10
75.64078749999993
 20
120.3150669999999
 40
1.5
100
AcDbArc
 50
-90.0
 51
0.0
  0
ARC
  5
76
100
AcDbEntity
  8
LC-002-002-----0
  6
CONTINUOUS
 62
             7
100
AcDbCircle
 10
75.64078749999993
 20
120.3150669999999
 40
1.5
100
AcDbArc
 50
0.0
 51
90.0
  0
ARC
  5
75
100
AcDbEntity
  8
LC-002-002-----0
  6
CONTINUOUS
 62
             7
100
AcDbCircle
 10
75.64026550000011
 20
122.1150670000001
 40
0.30000000000013
100
AcDbArc
 50
-176.61954431375884
 51
-90.0
  0
ARC
  5
74
100
AcDbEntity
  8
LC-002-002-----0
  6
CONTINUOUS
 62
             7
100
AcDbCircle
 10
75.64050750000018
 20
125.81543499999989
 40
0.3000000000006
100
AcDbArc
 50
90.00028000002384
 51
-179.99972000012815
  0
ARC
  5
73
100
AcDbEntity
  8
LC-002-002-----0
  6
CONTINUOUS
 62
             7
100
AcDbCircle
 10
75.64050750000018
 20
125.81543499999989
 40
1.00000000000032
100
AcDbArc
 50
162.56449846148223
 51
-179.99971999999462
  0
LINE
  5
72
100
AcDbEntity
  8
1
  6
PHANTOM
 62
             2
100
AcDbLine
 10
-0.0119995
 20
158.33919074237991
 11
-0.0119995
 21
109.5219778919051
  0
LINE
  5
71
100
AcDbEntity
  8
LC-002-002-----0
  6
CONTINUOUS
 62
             7
100
AcDbLine
 10
-109.50377554361791
 20
153.40442500000009
 11
108.5431504999999
 21
153.40442500000009
  0
LINE
  5
70
100
AcDbEntity
  8
LC-002-002-----0
  6
CONTINUOUS
 62
             7
100
AcDbLine
 10
-10.0119995
 20
119.5150669999999
 11
9.9880005
 21
119.5150669999999
  0
LINE
  5
6F
100
AcDbEntity
  8
LC-002-002-----0
  6
CONTINUOUS
 62
             7
100
AcDbLine
 10
-10.0119995
 20
118.8150669999999
 11
9.9880005
 21
118.8150669999999
  0
LINE
  5
6E
100
AcDbEntity
  8
LC-002-002-----0
  6
CONTINUOUS
 62
             7
100
AcDbLine
 10
9.9880005
 20
126.1150670000001
 11
9.9880005
 21
118.8150669999999
  0
LINE
  5
6D
100
AcDbEntity
  8
LC-002-002-----0
  6
CONTINUOUS
 62
             7
100
AcDbLine
 10
-10.0119995
 20
126.1150670000001
 11
-10.0119995
 21
118.8150669999999
  0
LINE
  5
6C
100
AcDbEntity
  8
LC-002-002-----0
  6
CONTINUOUS
 62
             7
100
AcDbLine
 10
-104.5546351235859
 20
150.8275186732304
 11
-85.60545510184329
 21
149.50246335535931
  0
LINE
  5
6B
100
AcDbEntity
  8
LC-002-002-----0
  6
CONTINUOUS
 62
             7
100
AcDbLine
 10
-79.16478649999999
 20
143.20403400000001
 11
-79.16478649999999
 21
129.6150670000001
  0
LINE
  5
6A
100
AcDbEntity
  8
LC-002-002-----0
  6
CONTINUOUS
 62
             7
100
AcDbLine
 10
-74.66478649999999
 20
125.8150669999999
 11
-74.66478649999999
 21
122.1150670000001
  0
LINE
  5
69
100
AcDbEntity
  8
LC-002-002-----0
  6
CONTINUOUS
 62
             7
100
AcDbLine
 10
-75.36478650000009
 20
125.8150669999999
 11
-75.36478650000009
 21
122.0973772426229
  0
LINE
  5
68
100
AcDbEntity
  8
LC-002-002-----0
  6
CONTINUOUS
 62
             7
100
AcDbLine
 10
-75.66478649999999
 20
118.8150669999999
 11
-69.26478650000013
 21
118.8150669999999
  0
LINE
  5
67
100
AcDbEntity
  8
LC-002-002-----0
  6
CONTINUOUS
 62
             7
100
AcDbLine
 10
-69.26478650000013
 20
118.8150669999999
 11
-69.26478650000013
 21
119.5150669999999
  0
LINE
  5
66
100
AcDbEntity
  8
LC-002-002-----0
  6
CONTINUOUS
 62
             7
100
AcDbLine
 10
-75.66478649999999
 20
119.5150669999999
 11
-69.26478650000013
 21
119.5150669999999
  0
LINE
  5
65
100
AcDbEntity
  8
LC-002-002-----0
  6
CONTINUOUS
 62
             7
100
AcDbLine
 10
-74.66478649999999
 20
125.8150669999999
 11
-74.66478649999999
 21
122.1150670000001
  0
LINE
  5
64
100
AcDbEntity
  8
LC-002-002-----0
  6
CONTINUOUS
 62
             7
100
AcDbLine
 10
79.14078749999993
 20
143.20403400000001
 11
79.14078749999993
 21
129.6150670000001
  0
LINE
  5
63
100
AcDbEntity
  8
LC-002-002-----0
  6
CONTINUOUS
 62
             7
100
AcDbLine
 10
104.52630097044501
 20
150.82721559981709
 11
84.42491695975269
 21
149.42159035643601
  0
LINE
  5
62
100
AcDbEntity
  8
LC-002-002-----0
  6
CONTINUOUS
 62
             7
100
AcDbLine
 10
-109.5037755000001
 20
153.40442500000009
 11
-108.5671495000001
 21
153.40442500000009
  0
LINE
  5
61
100
AcDbEntity
  8
LC-002-002-----0
  6
CONTINUOUS
 62
             7
100
AcDbLine
 10
108.5431504999999
 20
153.404167
 11
109.4797765
 21
153.404167
  0
LINE
  5
60
100
AcDbEntity
  8
1
  6
CONTINUOUS
 62
             7
100
AcDbLine
 10
-0.0119995
 20
129.6150670000001
 11
-77.66478649999999
 21
129.6150670000001
  0
LINE
  5
5F
100
AcDbEntity
  8
1
  6
CONTINUOUS
 62
             7
100
AcDbLine
 10
77.64078749999993
 20
143.20403400000001
 11
-77.66478650000005
 21
143.20403400000001
  0
LINE
  5
5E
100
AcDbEntity
  8
1
  6
CONTINUOUS
 62
             7
100
AcDbLine
 10
96.98800049999994
 20
150.82721559981709
 11
-97.0119995
 21
150.82721559981709
  0
LINE
  5
5D
100
AcDbEntity
  8
1
  6
CONTINUOUS
 62
             7
100
AcDbLine
 10
77.64078749999993
 20
129.6150670000001
 11
-0.0119995
 21
129.6150670000001
  0
LINE
  5
5C
100
AcDbEntity
  8
1
  6
CONTINUOUS
 62
             7
100
AcDbLine
 10
81.98800049999994
 20
149.42159035643601
 11
-82.0119995
 21
149.42159035643601
  0
LINE
  5
5B
100
AcDbEntity
  8
1
  6
CONTINUOUS
 62
             7
100
AcDbLine
 10
75.64078749999993
 20
126.1150670000001
 11
9.9880005
 21
126.1150670000001
  0
LINE
  5
5A
100
AcDbEntity
  8
1
  6
CONTINUOUS
 62
             7
100
AcDbLine
 10
-74.71045164592931
 20
126.1150670000001
 11
-75.66478649999999
 21
126.1150670000001
  0
LINE
  5
59
100
AcDbEntity
  8
1
  6
CONTINUOUS
 62
             7
100
AcDbLine
 10
-10.0119995
 20
126.1150670000001
 11
-74.71045164592931
 21
126.1150670000001
  0
LINE
  5
58
100
AcDbEntity
  8
1
  6
CONTINUOUS
 62
             7
100
AcDbLine
 10
9.9880005
 20
126.1150670000001
 11
-10.0119995
 21
126.1150670000001
  0
LINE
  5
57
100
AcDbEntity
  8
1
  6
CONTINUOUS
 62
             7
100
AcDbLine
 10
75.64078749999993
 20
126.1150670000001
 11
74.68645264592914
 21
126.1150670000001
  0
LINE
  5
56
100
AcDbEntity
  8
1
  6
CONTINUOUS
 62
             7
100
AcDbLine
 10
75.64078749999993
 20
126.1150670000001
 11
74.68645264592914
 21
126.1150670000001
  0
LINE
  5
55
100
AcDbEntity
  8
LC-002-002-----0
  6
CONTINUOUS
 62
             7
100
AcDbLine
 10
74.64078749999993
 20
122.1150670000001
 11
74.64078749999993
 21
125.8150669999999
  0
LINE
  5
54
100
AcDbEntity
  8
LC-002-002-----0
  6
CONTINUOUS
 62
             7
100
AcDbLine
 10
69.24078749999984
 20
119.5150669999999
 11
75.64078749999993
 21
119.5150669999999
  0
LINE
  5
53
100
AcDbEntity
  8
LC-002-002-----0
  6
CONTINUOUS
 62
             7
100
AcDbLine
 10
69.24078749999984
 20
119.5150669999999
 11
69.24078750000007
 21
118.8150669999999
  0
LINE
  5
52
100
AcDbEntity
  8
LC-002-002-----0
  6
CONTINUOUS
 62
             7
100
AcDbLine
 10
69.24078750000007
 20
118.8150669999999
 11
75.64078749999993
 21
118.8150669999999
  0
LINE
  5
51
100
AcDbEntity
  8
LC-002-002-----0
  6
CONTINUOUS
 62
             7
100
AcDbLine
 10
75.34078750000009
 20
122.0973772426229
 11
75.34078750000009
 21
125.8150669999999
  0
LINE
  5
50
100
AcDbEntity
  8
LC-002-002-----0
  6
CONTINUOUS
 62
             7
100
AcDbLine
 10
74.64078749999993
 20
122.1150670000001
 11
74.64078749999993
 21
125.8150669999999
  0
ENDBLK
  5
89
100
AcDbEntity
  8
0
100
AcDbBlockEnd
  0
BLOCK
  5
2F
100
AcDbEntity
  8
0
100
AcDbBlockBegin
  2
062B_3E_TRAGRING
 70
             0
 10
867.26396566759001
 20
1017.704528316318
 30
0.0
  3
062B_3E_TRAGRING
  1

  0
LINE
  5
92
100
AcDbEntity
  8
1
  6
PHANTOM
 62
             2
100
AcDbLine
 10
-0.01199950000012
 20
197.4356136590699
 11
-0.01199950000012
 21
224.76264041776011
  0
LINE
  5
91
100
AcDbEntity
  8
LC-002-002-----0
  6
CONTINUOUS
 62
             7
100
AcDbLine
 10
-76.96478650000023
 20
204.40194024870999
 11
-76.96478650000023
 21
218.89737724870989
  0
LINE
  5
90
100
AcDbEntity
  8
LC-002-002-----0
  6
CONTINUOUS
 62
             7
100
AcDbLine
 10
76.94078749999989
 20
204.40194024870999
 11
76.94078749999989
 21
218.89737724870989
  0
LINE
  5
8F
100
AcDbEntity
  8
LC-002-002-----0
  6
CONTINUOUS
 62
             7
100
AcDbLine
 10
73.93800049999999
 20
200.39822024870989
 11
66.93800049999999
 21
200.39822024870989
  0
LINE
  5
8E
100
AcDbEntity
  8
LC-002-002-----0
  6
CONTINUOUS
 62
             7
100
AcDbLine
 10
76.93800049999999
 20
204.39822424870991
 11
73.93800049999999
 21
200.39822024870989
  0
LINE
  5
8D
100
AcDbEntity
  8
LC-002-002-----0
  6
CONTINUOUS
 62
             7
100
AcDbLine
 10
-73.9619995000001
 20
200.39822024870989
 11
66.93800049999999
 21
200.39822024870989
  0
LINE
  5
8C
100
AcDbEntity
  8
LC-002-002-----0
  6
CONTINUOUS
 62
             7
100
AcDbLine
 10
76.93800049999999
 20
218.89737724870989
 11
-76.9619995000001
 21
218.89737724870989
  0
LINE
  5
8B
100
AcDbEntity
  8
LC-002-002-----0
  6
CONTINUOUS
 62
             7
100
AcDbLine
 10
-76.9619995000001
 20
204.39822424870991
 11
-73.9619995000001
 21
200.39822024870989
  0
LINE
  5
8A
100
AcDbEntity
  8
1
  6
CONTINUOUS
 62
             7
100
AcDbLine
 10
-76.96478650000023
 20
204.40194024870999
 11
76.94078749999989
 21
204.40194024870999
  0
ENDBLK
  5
93
100
AcDbEntity
  8
0
100
AcDbBlockEnd
  0
BLOCK
  5
31
100
AcDbEntity
  8
0
100
AcDbBlockBegin
  2
BAUSCHUTZ_ZU_HL84
 70
             0
 10
833.22522866759027
 20
1096.0400958745879
 30
0.0
  3
BAUSCHUTZ_ZU_HL84
  1

  0
ARC
  5
A4
100
AcDbEntity
  8
LC-002-002-----0
  6
CONTINUOUS
 62
             7
100
AcDbCircle
 10
109.9964764999999
 20
267.20160499999992
 40
0.9999999999998
100
AcDbArc
 50
0.0
 51
90.01359099999355
  0
ARC
  5
A3
100
AcDbEntity
  8
LC-002-002-----0
  6
CONTINUOUS
 62
             7
100
AcDbCircle
 10
-110.0035235000001
 20
267.20160499999992
 40
0.9999999999997
100
AcDbArc
 50
180.0
 51
-89.98640900000076
  0
ARC
  5
A2
100
AcDbEntity
  8
LC-002-002-----0
  6
CONTINUOUS
 62
             7
100
AcDbCircle
 10
-110.0035235000001
 20
267.20160499999992
 40
0.99999999999983
100
AcDbArc
 50
89.98640900000076
 51
180.0
  0
ARC
  5
A1
100
AcDbEntity
  8
LC-002-002-----0
  6
CONTINUOUS
 62
             7
100
AcDbCircle
 10
109.9964764999999
 20
267.20160499999992
 40
0.99999999999978
100
AcDbArc
 50
-90.01359099999355
 51
0.0
  0
LINE
  5
A0
100
AcDbEntity
  8
1
  6
PHANTOM
 62
             2
100
AcDbLine
 10
-0.00352350000009
 20
273.04004650536001
 11
-0.00352350000009
 21
250.94058613440001
  0
LINE
  5
9F
100
AcDbEntity
  8
LC-002-002-----0
  6
CONTINUOUS
 62
             7
100
AcDbLine
 10
-68.00352350000009
 20
268.20160499999992
 11
109.9962394999999
 21
268.20160499999992
  0
LINE
  5
9E
100
AcDbEntity
  8
LC-002-002-----0
  6
CONTINUOUS
 62
             7
100
AcDbLine
 10
65.99647649999992
 20
270.20160499999992
 11
67.99647649999992
 21
268.20160499999992
  0
LINE
  5
9D
100
AcDbEntity
  8
LC-002-002-----0
  6
CONTINUOUS
 62
             7
100
AcDbLine
 10
65.99647649999992
 20
270.20160499999992
 11
-0.00352350000009
 21
270.20160499999992
  0
LINE
  5
9C
100
AcDbEntity
  8
LC-002-002-----0
  6
CONTINUOUS
 62
             7
100
AcDbLine
 10
78.59647649999982
 20
266.20160499999992
 11
109.9964764999999
 21
266.20160499999992
  0
LINE
  5
9B
100
AcDbEntity
  8
LC-002-002-----0
  6
CONTINUOUS
 62
             7
100
AcDbLine
 10
78.59647649999982
 20
266.20160499999992
 11
78.59647649999982
 21
256.20160499999992
  0
LINE
  5
9A
100
AcDbEntity
  8
LC-002-002-----0
  6
CONTINUOUS
 62
             7
100
AcDbLine
 10
-68.00352350000009
 20
268.20160499999992
 11
-110.0032865000001
 21
268.20160499999992
  0
LINE
  5
99
100
AcDbEntity
  8
LC-002-002-----0
  6
CONTINUOUS
 62
             7
100
AcDbLine
 10
-66.00352350000009
 20
270.20160499999992
 11
-68.00352350000009
 21
268.20160499999992
  0
LINE
  5
98
100
AcDbEntity
  8
LC-002-002-----0
  6
CONTINUOUS
 62
             7
100
AcDbLine
 10
-66.00352350000009
 20
270.20160499999992
 11
-0.00352350000009
 21
270.20160499999992
  0
LINE
  5
97
100
AcDbEntity
  8
LC-002-002-----0
  6
CONTINUOUS
 62
             7
100
AcDbLine
 10
78.59647649999982
 20
266.20160499999992
 11
-110.0035235000001
 21
266.20160499999992
  0
LINE
  5
96
100
AcDbEntity
  8
LC-002-002-----0
  6
CONTINUOUS
 62
             7
100
AcDbLine
 10
-78.60352350000011
 20
266.20160499999992
 11
-78.60352350000011
 21
256.20160499999992
  0
LINE
  5
95
100
AcDbEntity
  8
LC-002-002-----0
  6
CONTINUOUS
 62
             7
100
AcDbLine
 10
-78.60352350000011
 20
256.20160499999992
 11
-0.00352350000009
 21
256.20160499999992
  0
LINE
  5
94
100
AcDbEntity
  8
LC-002-002-----0
  6
CONTINUOUS
 62
             7
100
AcDbLine
 10
78.59647649999982
 20
256.20160499999992
 11
-0.00352350000009
 21
256.20160499999992
  0
ENDBLK
  5
A5
100
AcDbEntity
  8
0
100
AcDbBlockEnd
  0
BLOCK
  5
A8
100
AcDbEntity
  8
0
100
AcDbBlockBegin
  2
*D5
 70
             1
 10
0.0
 20
0.0
 30
0.0
  3
*D5
  1

  0
LINE
  5
A9
100
AcDbEntity
  8
0
  6
CONTINUOUS
 62
             4
100
AcDbLine
 10
-92.50116750000012
 20
27.8490990911622
 11
92.5011674999999
 21
27.8490990911622
  0
LINE
  5
AA
100
AcDbEntity
  8
0
  6
CONTINUOUS
 62
             4
100
AcDbLine
 10
92.5011674999999
 20
15.71517299999994
 11
92.5011674999999
 21
29.8490990911622
  0
LINE
  5
AB
100
AcDbEntity
  8
0
  6
CONTINUOUS
 62
             4
100
AcDbLine
 10
-92.50116750000012
 20
15.71517299999994
 11
-92.50116750000012
 21
29.8490990911622
  0
SOLID
  5
AC
100
AcDbEntity
  8
0
 62
             4
100
AcDbTrace
 10
80.5011674999999
 20
26.26926912011346
 11
80.5011674999999
 21
29.42892906221095
 12
92.5011674999999
 22
27.8490990911622
 13
92.5011674999999
 23
27.8490990911622
  0
SOLID
  5
AD
100
AcDbEntity
  8
0
 62
             4
100
AcDbTrace
 10
-80.50116750000012
 20
29.42892906221095
 11
-80.50116750000012
 21
26.26926912011345
 12
-92.50116750000012
 22
27.8490990911622
 13
-92.50116750000012
 23
27.8490990911622
  0
MTEXT
  5
AF
100
AcDbEntity
  8
0
 62
             1
100
AcDbMText
 10
-14.49857484243695
 20
29.84907523832909
 30
0.0
 40
12.0
 41
0.0
 71
             7
 72
             1
  1
\C1;Ø\C1;185
  7
CONVERTER_1
 11
0.99999999999706
 21
0.00000242406841
 31
0.0
  0
ENDBLK
  5
B0
100
AcDbEntity
  8
0
100
AcDbBlockEnd
  0
BLOCK
  5
B4
100
AcDbEntity
  8
0
100
AcDbBlockBegin
  2
*D6
 70
             1
 10
0.0
 20
0.0
 30
0.0
  3
*D6
  1

  0
LINE
  5
B5
100
AcDbEntity
  8
0
  6
CONTINUOUS
 62
             4
100
AcDbLine
 10
-109.50377550000009
 20
166.96752987361
 11
109.47977650000001
 21
166.96752987361
  0
LINE
  5
B6
100
AcDbEntity
  8
0
  6
CONTINUOUS
 62
             4
100
AcDbLine
 10
109.47977650000001
 20
153.404167
 11
109.47977650000001
 21
168.96752987361
  0
LINE
  5
B7
100
AcDbEntity
  8
0
  6
CONTINUOUS
 62
             4
100
AcDbLine
 10
-109.50377550000009
 20
153.40442500000003
 11
-109.50377550000009
 21
168.96752987361
  0
SOLID
  5
B8
100
AcDbEntity
  8
0
 62
             4
100
AcDbTrace
 10
-97.50377550000009
 20
168.54735984465876
 11
-97.50377550000009
 21
165.38769990256125
 12
-109.50377550000009
 22
166.96752987361
 13
-109.50377550000009
 23
166.96752987361
  0
SOLID
  5
B9
100
AcDbEntity
  8
0
 62
             4
100
AcDbTrace
 10
97.47977650000001
 20
165.38769990256125
 11
97.47977650000001
 21
168.54735984465876
 12
109.47977650000001
 22
166.96752987361
 13
109.47977650000001
 23
166.96752987361
  0
MTEXT
  5
BA
100
AcDbEntity
  8
0
 62
             1
100
AcDbMText
 10
-16.80085794745918
 20
168.96750602077688
 30
0.0
 40
12.0
 41
0.0
 71
             7
 72
             1
  1
\C1;Ø\C1;220
  7
CONVERTER_1
 11
0.99999999999706
 21
0.00000242406841
 31
0.0
  0
ENDBLK
  5
BB
100
AcDbEntity
  8
0
100
AcDbBlockEnd
  0
BLOCK
  5
BF
100
AcDbEntity
  8
0
100
AcDbBlockBegin
  2
*D7
 70
             1
 10
0.0
 20
0.0
 30
0.0
  3
*D7
  1

  0
LINE
  5
C0
100
AcDbEntity
  8
0
  6
CONTINUOUS
 62
             4
100
AcDbLine
 10
-250.01199950000009
 20
81.60679927999991
 11
249.98800049999991
 21
81.60679927999991
  0
LINE
  5
C1
100
AcDbEntity
  8
0
  6
CONTINUOUS
 62
             4
100
AcDbLine
 10
-250.01199950000009
 20
68.52835299999993
 11
-250.01199950000009
 21
83.60679927999991
  0
LINE
  5
C2
100
AcDbEntity
  8
0
  6
CONTINUOUS
 62
             4
100
AcDbLine
 10
249.98800049999991
 20
68.52835299999993
 11
249.98800049999991
 21
83.60679927999991
  0
SOLID
  5
C3
100
AcDbEntity
  8
0
 62
             4
100
AcDbTrace
 10
237.98800049999991
 20
80.02696930895115
 11
237.98800049999991
 21
83.18662925104866
 12
249.98800049999991
 22
81.60679927999991
 13
249.98800049999991
 23
81.60679927999991
  0
SOLID
  5
C4
100
AcDbEntity
  8
0
 62
             4
100
AcDbTrace
 10
-238.01199950000009
 20
83.18662925104866
 11
-238.01199950000009
 21
80.02696930895115
 12
-250.01199950000009
 22
81.60679927999991
 13
-250.01199950000009
 23
81.60679927999991
  0
MTEXT
  5
C5
100
AcDbEntity
  8
0
 62
             1
100
AcDbMText
 10
-36.45857484246609
 20
83.60679927999991
 30
0.0
 40
12.0
 41
0.0
 71
             7
 72
             1
  1
\C1;500\C1;x500
  7
CONVERTER_1
 11
0.99999999999706
 21
0.00000242406841
 31
0.0
  0
ENDBLK
  5
C6
100
AcDbEntity
  8
0
100
AcDbBlockEnd
  0
ENDSEC
  0
SECTION
  2
ENTITIES
  0
DIMENSION
  5
C8
100
AcDbEntity
  8
1
100
AcDbDimension
  2
*D7
 10
249.98800049999991
 20
81.60679927999991
 11
0.74142515753391
 21
89.60679927999991
 31
0.0
 53
0.00013888888889
  1
<>
  3
ME10_DIM_2
100
AcDbAlignedDimension
 13
-250.0119995
 23
68.52835299999993
 14
249.98800049999991
 24
68.52835299999993
100
AcDbRotatedDimension
  0
DIMENSION
  5
BD
100
AcDbEntity
  8
1
100
AcDbDimension
  2
*D6
 10
-109.50377550000009
 20
166.96752987361
 11
0.23914205251191
 21
174.96752987361
 31
0.0
 53
180.0
  1
Ø220
  3
ME10_DIM_1
100
AcDbAlignedDimension
 13
109.4797765
 23
153.404167
 14
-109.5037755000001
 24
153.40442500000009
 50
180.0
100
AcDbRotatedDimension
  0
DIMENSION
  5
B2
100
AcDbEntity
  8
1
100
AcDbDimension
  2
*D5
 10
92.5011674999999
 20
27.8490990911622
 11
0.74142515753414
 21
35.8490990911622
 31
0.0
 53
0.00013888888889
  1
<>
  3
ME10_DIM_0
100
AcDbAlignedDimension
 13
-92.50116750000012
 23
15.71517299999994
 14
92.5011674999999
 24
15.71517299999994
100
AcDbRotatedDimension
  0
INSERT
  5
34
100
AcDbEntity
  8
1
100
AcDbBlockReference
  2
084_4E_KLEMMRING_ZU_HL84
 10
852.4785856675901
 20
872.71023674590174
  0
INSERT
  5
35
100
AcDbEntity
  8
1
100
AcDbBlockReference
  2
084_3E_EPDM-FOLIE_ZU_HL84
 10
944.22522866759005
 20
1077.887431290686
  0
INSERT
  5
36
100
AcDbEntity
  8
1
100
AcDbBlockReference
  2
084_2E_EDELSTAHL-FLANSHL84
 10
834.72497666759
 20
926.36429026328267
  0
INSERT
  5
37
100
AcDbEntity
  8
1
100
AcDbBlockReference
  2
062B_3E_TRAGRING
 10
867.26396566759001
 20
1017.704528316318
  0
INSERT
  5
38
100
AcDbEntity
  8
1
100
AcDbBlockReference
  2
BAUSCHUTZ_ZU_HL84
 10
833.22522866759027
 20
1096.0400958745879
  0
ENDSEC
  0
SECTION
  2
OBJECTS
  0
DICTIONARY
  5
19
100
AcDbDictionary
  3
ACAD_GROUP
350
1A
  3
ACAD_MLINESTYLE
350
1B
  0
DICTIONARY
  5
1A
102
{ACAD_REACTORS
330
19
102
}
100
AcDbDictionary
  0
DICTIONARY
  5
1B
102
{ACAD_REACTORS
330
19
102
}
100
AcDbDictionary
  3
STANDARD
350
1C
  0
MLINESTYLE
  5
1C
102
{ACAD_REACTORS
330
1B
102
}
100
AcDbMlineStyle
  2
STANDARD
 70
             0
  3

 62
             0
 51
90.0
 52
90.0
 71
             2
 49
0.5
 62
           256
  6
BYLAYER
 49
-0.5
 62
           256
  6
BYLAYER
  0
ENDSEC
  0
EOF
