  0
SECTION
  2
HEADER
  9
$ACADVER
  1
AC1014
  9
$ACADMAINTVER
 70
             0
  9
$DWGCODEPAGE
  3
ANSI_1252
  9
$INSBASE
 10
0.0
 20
0.0
 30
0.0
  9
$EXTMIN
 10
-217.57363899999999
 20
-255.67075500000001
 30
0.0
  9
$EXTMAX
 10
610.48094899999978
 20
133.677842
 30
0.0
  9
$LIMMIN
 10
0.0
 20
0.0
  9
$LIMMAX
 10
0.0
 20
0.0
  9
$ORTHOMODE
 70
             0
  9
$REGENMODE
 70
             1
  9
$FILLMODE
 70
             1
  9
$QTEXTMODE
 70
             0
  9
$MIRRTEXT
 70
             1
  9
$DRAGMODE
 70
             2
  9
$LTSCALE
 40
1.0
  9
$OSMODE
 70
             0
  9
$ATTMODE
 70
             1
  9
$TEXTSIZE
 40
0.2
  9
$TRACEWID
 40
0.05
  9
$TEXTSTYLE
  7
STANDARD
  9
$CLAYER
  8
0
  9
$CELTYPE
  6
CONTINUOUS
  9
$CECOLOR
 62
           256
  9
$CELTSCALE
 40
1.0
  9
$DELOBJ
 70
             1
  9
$DISPSILH
 70
             0
  9
$DIMSCALE
 40
1.0
  9
$DIMASZ
 40
0.18
  9
$DIMEXO
 40
0.0625
  9
$DIMDLI
 40
0.38
  9
$DIMRND
 40
0.0
  9
$DIMDLE
 40
0.0
  9
$DIMEXE
 40
0.18
  9
$DIMTP
 40
0.0
  9
$DIMTM
 40
0.0
  9
$DIMTXT
 40
0.18
  9
$DIMCEN
 40
0.09
  9
$DIMTSZ
 40
0.0
  9
$DIMTOL
 70
             0
  9
$DIMLIM
 70
             0
  9
$DIMTIH
 70
             1
  9
$DIMTOH
 70
             1
  9
$DIMSE1
 70
             0
  9
$DIMSE2
 70
             0
  9
$DIMTAD
 70
             0
  9
$DIMZIN
 70
             0
  9
$DIMBLK
  1

  9
$DIMASO
 70
             1
  9
$DIMSHO
 70
             1
  9
$DIMPOST
  1

  9
$DIMAPOST
  1

  9
$DIMALT
 70
             0
  9
$DIMALTD
 70
             2
  9
$DIMALTF
 40
25.4
  9
$DIMLFAC
 40
1.0
  9
$DIMTOFL
 70
             0
  9
$DIMTVP
 40
0.0
  9
$DIMTIX
 70
             0
  9
$DIMSOXD
 70
             0
  9
$DIMSAH
 70
             0
  9
$DIMBLK1
  1

  9
$DIMBLK2
  1

  9
$DIMSTYLE
  2
STANDARD
  9
$DIMCLRD
 70
             0
  9
$DIMCLRE
 70
             0
  9
$DIMCLRT
 70
             0
  9
$DIMTFAC
 40
1.0
  9
$DIMGAP
 40
0.09
  9
$DIMJUST
 70
             0
  9
$DIMSD1
 70
             0
  9
$DIMSD2
 70
             0
  9
$DIMTOLJ
 70
             1
  9
$DIMTZIN
 70
             0
  9
$DIMALTZ
 70
             0
  9
$DIMALTTZ
 70
             0
  9
$DIMFIT
 70
             3
  9
$DIMUPT
 70
             0
  9
$DIMUNIT
 70
             2
  9
$DIMDEC
 70
             4
  9
$DIMTDEC
 70
             4
  9
$DIMALTU
 70
             2
  9
$DIMALTTD
 70
             2
  9
$DIMTXSTY
  7
STANDARD
  9
$DIMAUNIT
 70
             0
  9
$LUNITS
 70
             2
  9
$LUPREC
 70
             4
  9
$SKETCHINC
 40
0.1
  9
$FILLETRAD
 40
0.0
  9
$AUNITS
 70
             0
  9
$AUPREC
 70
             0
  9
$MENU
  1
acad
  9
$ELEVATION
 40
0.0
  9
$PELEVATION
 40
0.0
  9
$THICKNESS
 40
0.0
  9
$LIMCHECK
 70
             0
  9
$BLIPMODE
 70
             1
  9
$CHAMFERA
 40
0.0
  9
$CHAMFERB
 40
0.0
  9
$CHAMFERC
 40
0.0
  9
$CHAMFERD
 40
0.0
  9
$SKPOLY
 70
             0
  9
$TDCREATE
 40
0.000000000
  9
$TDUPDATE
 40
0.000000000
  9
$TDINDWG
 40
0.0000000000
  9
$TDUSRTIMER
 40
0.0000000000
  9
$USRTIMER
 70
             1
  9
$ANGBASE
 50
0.0
  9
$ANGDIR
 70
             0
  9
$PDMODE
 70
             0
  9
$PDSIZE
 40
0.0
  9
$PLINEWID
 40
0.0
  9
$COORDS
 70
             0
  9
$SPLFRAME
 70
             0
  9
$SPLINETYPE
 70
             6
  9
$SPLINESEGS
 70
             8
  9
$ATTDIA
 70
             0
  9
$ATTREQ
 70
             1
  9
$HANDLING
 70
             1
  9
$HANDSEED
  5
151
  9
$SURFTAB1
 70
             6
  9
$SURFTAB2
 70
             6
  9
$SURFTYPE
 70
             6
  9
$SURFU
 70
             6
  9
$SURFV
 70
             6
  9
$UCSNAME
  2

  9
$UCSORG
 10
0.0
 20
0.0
 30
0.0
  9
$UCSXDIR
 10
1.0
 20
0.0
 30
0.0
  9
$UCSYDIR
 10
0.0
 20
1.0
 30
0.0
  9
$PUCSNAME
  2

  9
$PUCSORG
 10
0.0
 20
0.0
 30
0.0
  9
$PUCSXDIR
 10
1.0
 20
0.0
 30
0.0
  9
$PUCSYDIR
 10
0.0
 20
1.0
 30
0.0
  9
$USERI1
 70
             0
  9
$USERI2
 70
             0
  9
$USERI3
 70
             0
  9
$USERI4
 70
             0
  9
$USERI5
 70
             0
  9
$USERR1
 40
12.01
  9
$USERR2
 40
0.0
  9
$USERR3
 40
0.0
  9
$USERR4
 40
0.0
  9
$USERR5
 40
0.0
  9
$WORLDVIEW
 70
             1
  9
$SHADEDGE
 70
             3
  9
$SHADEDIF
 70
            70
  9
$TILEMODE
 70
             1
  9
$MAXACTVP
 70
            16
  9
$PINSBASE
 10
0.0
 20
0.0
 30
0.0
  9
$PLIMCHECK
 70
             0
  9
$PEXTMIN
 10
1.00000000000000E+20
 20
1.00000000000000E+20
 30
1.00000000000000E+20
  9
$PEXTMAX
 10
-1.00000000000000E+20
 20
-1.00000000000000E+20
 30
-1.00000000000000E+20
  9
$PLIMMIN
 10
0.0
 20
0.0
  9
$PLIMMAX
 10
12.0
 20
9.0
  9
$UNITMODE
 70
             0
  9
$VISRETAIN
 70
             0
  9
$PLINEGEN
 70
             1
  9
$PSLTSCALE
 70
             0
  9
$TREEDEPTH
 70
          3020
  9
$PICKSTYLE
 70
             1
  9
$CMLSTYLE
  2
STANDARD
  9
$CMLJUST
 70
             0
  9
$CMLSCALE
 40
1.0
  9
$PROXYGRAPHICS
 70
             0
  9
$MEASUREMENT
 70
             1
  0
ENDSEC
  0
SECTION
  2
CLASSES
  0
CLASS
  1
LWPOLYLINE
  2
AcDbPolyline
  3
"AutoCAD"
 90
        0
280
             0
281
             1
  0
CLASS
  1
IMAGE
  2
AcDbRasterImage
  3
ISM
 90
      127
280
             0
281
             1
  0
CLASS
  1
OLE2FRAME
  2
AcDbOle2Frame
  3
""
 90
        0
280
             0
281
             1
  0
CLASS
  1
HATCH
  2
AcDbHatch
  3
"ACAD_SEDONA"
 90
        0
280
             0
281
             1
  0
CLASS
  1
DICTIONARYVAR
  2
AcDbDictionaryVar
  3
"AutoCAD"
 90
        0
280
             0
281
             0
  0
CLASS
  1
RASTERVARIABLES
  2
AcDbRasterVariables
  3
ISM
 90
        0
280
             0
281
             0
  0
CLASS
  1
IMAGEDEF
  2
AcDbRasterImageDef
  3
ISM
 90
        0
280
             0
281
             0
  0
CLASS
  1
IMAGEDEF_REACTOR
  2
AcDbRasterImageDefReactor
  3
ISM
 90
        1
280
             0
281
             0
  0
CLASS
  1
IDBUFFER
  2
AcDbIdBuffer
  3
"Acad"
 90
        0
280
             0
281
             0
  0
CLASS
  1
SPATIAL_FILTER
  2
AcDbSpatialFilter
  3
"Acad"
 90
        0
280
             0
281
             0
  0
CLASS
  1
XRECORD
  2
AcDbXrecord
  3
"<Built In>"
 90
        0
280
             0
281
             0
  0
CLASS
  1
SORTENTSTABLE
  2
AcDbSortentsTable
  3
"AutoCAD"
 90
        0
280
             0
281
             0
  0
CLASS
  1
LAYER_INDEX
  2
AcDbLayerIndex
  3
"Acad"
 90
        0
280
             0
281
             0
  0
CLASS
  1
SPATIAL_INDEX
  2
AcDbSpatialIndex
  3
"Acad"
 90
        0
280
             0
281
             0
  0
CLASS
  1
OBJECT_PTR
  2
CAseDLPNTableRecord
  3
"ASE-LPNTableRecord"
 90
        1
280
             0
281
             0
  0
CLASS
  1
LAYOUT
  2
AcDbLayout
  3
"AutoCAD 2000"
 90
        0
280
             0
281
             0
  0
CLASS
  1
PLOTSETTINGS
  2
AcDbPlotSettings
  3
"AutoCAD 2000"
 90
        0
280
             0
281
             0
  0
CLASS
  1
ACDBDICTIONARYWDFLT
  2
AcDbDictionaryWithDefault
  3
"AutoCAD 2000"
 90
        0
280
             0
281
             0
  0
CLASS
  1
ACDBPLACEHOLDER
  2
AcDbPlaceHolder
  3
"AutoCAD 2000"
 90
        0
280
             0
281
             0
  0
ENDSEC
  0
SECTION
  2
TABLES
  0
TABLE
  2
VPORT
  5
7
100
AcDbSymbolTable
 70
             1
  0
VPORT
  5
15
100
AcDbSymbolTableRecord
100
AcDbViewportTableRecord
  2
*ACTIVE
 70
             0
 10
0.0
 20
0.0
 11
1.0
 21
1.0
 12
196.45365499999991
 22
-60.99645650000001
 13
0.0
 23
0.0
 14
1.0
 24
1.0
 15
0.0
 25
0.0
 16
0.0
 26
0.0
 36
1.0
 17
0.0
 27
0.0
 37
0.0
 40
568.33607376935947
 41
1.60267857142857
 42
50.0
 43
0.0
 44
0.0
 50
0.0
 51
0.0
 71
             0
 72
           100
 73
             1
 74
             1
 75
             0
 76
             0
 77
             0
 78
             0
  0
ENDTAB
  0
TABLE
  2
LTYPE
  5
4
100
AcDbSymbolTable
 70
            10
  0
LTYPE
  5
11
100
AcDbSymbolTableRecord
100
AcDbLinetypeTableRecord
  2
BYBLOCK
 70
            64
  3

 72
            65
 73
             0
 40
0.0
  0
LTYPE
  5
12
100
AcDbSymbolTableRecord
100
AcDbLinetypeTableRecord
  2
BYLAYER
 70
            64
  3

 72
            65
 73
             0
 40
0.0
  0
LTYPE
  5
13
100
AcDbSymbolTableRecord
100
AcDbLinetypeTableRecord
  2
CONTINUOUS
 70
            64
  3
Solid line
 72
            65
 73
             0
 40
0.0
  0
LTYPE
  5
1D
100
AcDbSymbolTableRecord
100
AcDbLinetypeTableRecord
  2
DASHED
 70
            64
  3
Dashed
 72
            65
 73
             2
 40
15.0
 49
7.0
 74
             0
 49
-8.0
 74
             0
  0
LTYPE
  5
1E
100
AcDbSymbolTableRecord
100
AcDbLinetypeTableRecord
  2
DOTTED
 70
            64
  3
Dotted
 72
            65
 73
             2
 40
1.0
 49
0.0
 74
             0
 49
-1.0
 74
             0
  0
LTYPE
  5
1F
100
AcDbSymbolTableRecord
100
AcDbLinetypeTableRecord
  2
DOT_CENTER
 70
            64
  3
Dot_Center
 72
            65
 73
             4
 40
14.0
 49
12.0
 74
             0
 49
-1.0
 74
             0
 49
0.0
 74
             0
 49
-1.0
 74
             0
  0
LTYPE
  5
20
100
AcDbSymbolTableRecord
100
AcDbLinetypeTableRecord
  2
LONG_DASHED
 70
            64
  3
Long_Dashed
 72
            65
 73
             2
 40
15.0
 49
10.0
 74
             0
 49
-5.0
 74
             0
  0
LTYPE
  5
21
100
AcDbSymbolTableRecord
100
AcDbLinetypeTableRecord
  2
DASH_CENTER
 70
            64
  3
Dash_Center
 72
            65
 73
             4
 40
14.0
 49
11.0
 74
             0
 49
-1.0
 74
             0
 49
1.0
 74
             0
 49
-1.0
 74
             0
  0
LTYPE
  5
22
100
AcDbSymbolTableRecord
100
AcDbLinetypeTableRecord
  2
PHANTOM
 70
            64
  3
Phantom
 72
            65
 73
             6
 40
13.0
 49
10.0
 74
             0
 49
-1.0
 74
             0
 49
0.0
 74
             0
 49
-1.0
 74
             0
 49
0.0
 74
             0
 49
-1.0
 74
             0
  0
LTYPE
  5
23
100
AcDbSymbolTableRecord
100
AcDbLinetypeTableRecord
  2
CENTER_DASH_DASH
 70
            64
  3
Center_Dash_Dash
 72
            65
 73
             6
 40
14.0
 49
9.0
 74
             0
 49
-1.0
 74
             0
 49
1.0
 74
             0
 49
-1.0
 74
             0
 49
1.0
 74
             0
 49
-1.0
 74
             0
  0
ENDTAB
  0
TABLE
  2
LAYER
  5
2
100
AcDbSymbolTable
 70
             5
  0
LAYER
  5
14
100
AcDbSymbolTableRecord
100
AcDbLayerTableRecord
  2
0
 70
             0
 62
             7
  6
CONTINUOUS
  0
LAYER
  5
24
100
AcDbSymbolTableRecord
100
AcDbLayerTableRecord
  2
1
 70
             0
 62
             7
  6
CONTINUOUS
  0
LAYER
  5
25
100
AcDbSymbolTableRecord
100
AcDbLayerTableRecord
  2
LC-001-002-----0
 70
             0
 62
             7
  6
CONTINUOUS
  0
LAYER
  5
26
100
AcDbSymbolTableRecord
100
AcDbLayerTableRecord
  2
LC-003-002-RND-0
 70
             0
 62
             7
  6
CONTINUOUS
  0
LAYER
  5
27
100
AcDbSymbolTableRecord
100
AcDbLayerTableRecord
  2
LC-004-003-----0
 70
             0
 62
             7
  6
CONTINUOUS
  0
ENDTAB
  0
TABLE
  2
STYLE
  5
3
100
AcDbSymbolTable
 70
             2
  0
STYLE
  5
17
100
AcDbSymbolTableRecord
100
AcDbTextStyleTableRecord
  2
STANDARD
 70
             0
 40
0.0
 41
1.0
 50
0.0
 71
             0
 42
0.0
  3
txt
  4

  0
STYLE
  5
FE
100
AcDbSymbolTableRecord
100
AcDbTextStyleTableRecord
  2
CONVERTER_1
 70
             0
 40
0.0
 41
0.9
 50
0.0
 71
             0
 42
0.0
  3
txt.shx
  4

  0
ENDTAB
  0
TABLE
  2
VIEW
  5
5
100
AcDbSymbolTable
 70
             0
  0
ENDTAB
  0
TABLE
  2
UCS
  5
6
100
AcDbSymbolTable
 70
             0
  0
ENDTAB
  0
TABLE
  2
APPID
  5
8
100
AcDbSymbolTable
 70
             1
  0
APPID
  5
16
100
AcDbSymbolTableRecord
100
AcDbRegAppTableRecord
  2
ACAD
 70
             0
  0
ENDTAB
  0
TABLE
  2
DIMSTYLE
  5
9
100
AcDbSymbolTable
 70
             9
  0
DIMSTYLE
105
18
100
AcDbSymbolTableRecord
100
AcDbDimStyleTableRecord
  2
STANDARD
 70
             0
  3

  4

  5

  6

  7

 40
1.0
 41
0.18
 42
0.0625
 43
0.38
 44
0.18
 45
0.0
 46
0.0
 47
0.0
 48
0.0
 71
             0
 72
             0
 73
             1
 74
             1
 75
             0
 76
             0
 77
             0
 78
             0
140
0.18
141
0.09
142
0.0
143
25.4
144
1.0
145
0.0
146
1.0
147
0.09
170
             0
171
             2
172
             0
173
             0
174
             0
175
             0
176
             0
177
             0
178
             0
270
             2
271
             4
272
             4
273
             2
274
             2
275
             0
280
             0
281
             0
282
             0
283
             1
284
             0
285
             0
286
             0
287
             3
288
             0
340
17
  0
DIMSTYLE
105
101
100
AcDbSymbolTableRecord
100
AcDbDimStyleTableRecord
  2
ME10_DIM_0
 70
             0
  3

  4

  5

  6

  7

 40
1.0
 41
7.0
 42
0.0
 43
0.38
 44
2.0
 45
0.0
 46
0.0
 47
0.0
 48
0.0
 71
             0
 72
             0
 73
             0
 74
             0
 75
             0
 76
             0
 77
             1
 78
             8
140
7.0
141
0.09
142
0.0
143
25.4
144
1.0
145
0.0
146
1.0
147
0.625
170
             0
171
             2
172
             1
173
             1
174
             0
175
             0
176
             4
177
             4
178
             1
270
             2
271
             2
272
             4
273
             2
274
             2
275
             0
280
             0
281
             0
282
             0
283
             1
284
             0
285
             0
286
             0
287
             3
288
             0
340
FE
  0
DIMSTYLE
105
10C
100
AcDbSymbolTableRecord
100
AcDbDimStyleTableRecord
  2
ME10_DIM_1
 70
             0
  3
Ø<>
  4

  5

  6

  7

 40
1.0
 41
7.0
 42
0.0
 43
0.38
 44
2.0
 45
0.0
 46
0.0
 47
0.0
 48
0.0
 71
             0
 72
             0
 73
             0
 74
             0
 75
             0
 76
             0
 77
             1
 78
             8
140
7.0
141
0.09
142
0.0
143
25.4
144
1.0
145
0.0
146
1.0
147
0.625
170
             0
171
             2
172
             1
173
             1
174
             0
175
             0
176
             4
177
             4
178
             1
270
             2
271
             2
272
             4
273
             2
274
             2
275
             0
280
             0
281
             0
282
             0
283
             1
284
             0
285
             0
286
             0
287
             3
288
             0
340
FE
  0
DIMSTYLE
105
117
100
AcDbSymbolTableRecord
100
AcDbDimStyleTableRecord
  2
ME10_DIM_2
 70
             0
  3
Ø<>
  4

  5

  6

  7

 40
1.0
 41
7.0
 42
0.0
 43
0.38
 44
2.0
 45
0.0
 46
0.0
 47
0.0
 48
0.0
 71
             0
 72
             0
 73
             0
 74
             0
 75
             0
 76
             0
 77
             1
 78
             8
140
7.0
141
0.09
142
0.0
143
25.4
144
1.0
145
0.0
146
1.0
147
0.625
170
             0
171
             2
172
             1
173
             1
174
             0
175
             0
176
             4
177
             4
178
             1
270
             2
271
             2
272
             4
273
             2
274
             2
275
             0
280
             0
281
             0
282
             0
283
             1
284
             0
285
             0
286
             0
287
             3
288
             0
340
FE
  0
DIMSTYLE
105
122
100
AcDbSymbolTableRecord
100
AcDbDimStyleTableRecord
  2
ME10_DIM_3
 70
             0
  3
Ø<>
  4

  5

  6

  7

 40
1.0
 41
7.0
 42
0.0
 43
0.38
 44
2.0
 45
0.0
 46
0.0
 47
0.0
 48
0.0
 71
             0
 72
             0
 73
             0
 74
             0
 75
             0
 76
             0
 77
             1
 78
             8
140
7.0
141
0.09
142
0.0
143
25.4
144
1.0
145
0.0
146
1.0
147
0.625
170
             0
171
             2
172
             1
173
             1
174
             0
175
             0
176
             4
177
             4
178
             1
270
             2
271
             2
272
             4
273
             2
274
             2
275
             0
280
             0
281
             0
282
             0
283
             1
284
             0
285
             0
286
             0
287
             3
288
             0
340
FE
  0
DIMSTYLE
105
12D
100
AcDbSymbolTableRecord
100
AcDbDimStyleTableRecord
  2
ME10_DIM_4
 70
             0
  3
Ø<>
  4

  5

  6

  7

 40
1.0
 41
7.0
 42
0.0
 43
0.38
 44
2.0
 45
0.0
 46
0.0
 47
0.0
 48
0.0
 71
             0
 72
             0
 73
             0
 74
             0
 75
             0
 76
             0
 77
             1
 78
             8
140
7.0
141
0.09
142
0.0
143
25.4
144
1.0
145
0.0
146
1.0
147
0.625
170
             0
171
             2
172
             1
173
             1
174
             0
175
             0
176
             4
177
             4
178
             1
270
             2
271
             2
272
             4
273
             2
274
             2
275
             0
280
             0
281
             0
282
             0
283
             1
284
             0
285
             0
286
             0
287
             3
288
             0
340
FE
  0
DIMSTYLE
105
138
100
AcDbSymbolTableRecord
100
AcDbDimStyleTableRecord
  2
ME10_DIM_5
 70
             0
  3
Ø<>
  4

  5

  6

  7

 40
1.0
 41
7.0
 42
0.0
 43
0.38
 44
2.0
 45
0.0
 46
0.0
 47
0.0
 48
0.0
 71
             0
 72
             0
 73
             0
 74
             0
 75
             0
 76
             0
 77
             1
 78
             8
140
7.0
141
0.09
142
0.0
143
25.4
144
1.0
145
0.0
146
1.0
147
0.625
170
             0
171
             2
172
             1
173
             1
174
             0
175
             0
176
             4
177
             4
178
             1
270
             2
271
             2
272
             4
273
             2
274
             2
275
             0
280
             0
281
             0
282
             0
283
             1
284
             0
285
             0
286
             0
287
             3
288
             0
340
FE
  0
DIMSTYLE
105
143
100
AcDbSymbolTableRecord
100
AcDbDimStyleTableRecord
  2
ME10_DIM_6
 70
             0
  3

  4

  5

  6

  7

 40
1.0
 41
7.0
 42
0.0
 43
0.38
 44
2.0
 45
0.0
 46
0.0
 47
0.0
 48
0.0
 71
             0
 72
             0
 73
             0
 74
             0
 75
             0
 76
             0
 77
             1
 78
             8
140
7.0
141
0.09
142
0.0
143
25.4
144
1.0
145
0.0
146
1.0
147
0.625
170
             0
171
             2
172
             1
173
             1
174
             0
175
             0
176
             4
177
             4
178
             1
270
             2
271
             2
272
             4
273
             2
274
             2
275
             0
280
             0
281
             0
282
             0
283
             1
284
             0
285
             0
286
             0
287
             3
288
             0
340
FE
  0
DIMSTYLE
105
14E
100
AcDbSymbolTableRecord
100
AcDbDimStyleTableRecord
  2
ME10_DIM_7
 70
             0
  3

  4

  5

  6

  7

 40
1.0
 41
7.0
 42
0.0
 43
0.38
 44
2.0
 45
0.0
 46
0.0
 47
0.0
 48
0.0
 71
             0
 72
             0
 73
             0
 74
             0
 75
             0
 76
             0
 77
             1
 78
             8
140
7.0
141
0.09
142
0.0
143
25.4
144
1.0
145
0.0
146
1.0
147
0.625
170
             0
171
             2
172
             1
173
             1
174
             0
175
             0
176
             4
177
             4
178
             1
270
             2
271
             2
272
             4
273
             2
274
             2
275
             0
280
             0
281
             0
282
             0
283
             1
284
             0
285
             0
286
             0
287
             3
288
             0
340
FE
  0
ENDTAB
  0
TABLE
  2
BLOCK_RECORD
  5
1
100
AcDbSymbolTable
 70
            10
  0
BLOCK_RECORD
  5
A
100
AcDbSymbolTableRecord
100
AcDbBlockTableRecord
  2
*MODEL_SPACE
  0
BLOCK_RECORD
  5
B
100
AcDbSymbolTableRecord
100
AcDbBlockTableRecord
  2
*PAPER_SPACE
  0
BLOCK_RECORD
  5
28
100
AcDbSymbolTableRecord
100
AcDbBlockTableRecord
  2
HL_860_BRANDSCHUTZELEMT__1
  0
BLOCK_RECORD
  5
2A
100
AcDbSymbolTableRecord
100
AcDbBlockTableRecord
  2
HL_860_BRANDSCHUTZELEMT__2
  0
BLOCK_RECORD
  5
F7
100
AcDbSymbolTableRecord
100
AcDbBlockTableRecord
  2
*D2
  0
BLOCK_RECORD
  5
103
100
AcDbSymbolTableRecord
100
AcDbBlockTableRecord
  2
*D3
  0
BLOCK_RECORD
  5
10E
100
AcDbSymbolTableRecord
100
AcDbBlockTableRecord
  2
*D4
  0
BLOCK_RECORD
  5
119
100
AcDbSymbolTableRecord
100
AcDbBlockTableRecord
  2
*D5
  0
BLOCK_RECORD
  5
124
100
AcDbSymbolTableRecord
100
AcDbBlockTableRecord
  2
*D6
  0
BLOCK_RECORD
  5
12F
100
AcDbSymbolTableRecord
100
AcDbBlockTableRecord
  2
*D7
  0
BLOCK_RECORD
  5
13A
100
AcDbSymbolTableRecord
100
AcDbBlockTableRecord
  2
*D8
  0
BLOCK_RECORD
  5
145
100
AcDbSymbolTableRecord
100
AcDbBlockTableRecord
  2
*D9
  0
ENDTAB
  0
ENDSEC
  0
SECTION
  2
BLOCKS
  0
BLOCK
  5
D
100
AcDbEntity
  8
0
100
AcDbBlockBegin
  2
*MODEL_SPACE
 70
             0
 10
0.0
 20
0.0
 30
0.0
  3
*MODEL_SPACE
  1

  0
ENDBLK
  5
E
100
AcDbEntity
  8
0
100
AcDbBlockEnd
  0
BLOCK
  5
F
100
AcDbEntity
 67
             1
  8
0
100
AcDbBlockBegin
  2
*PAPER_SPACE
 70
             0
 10
0.0
 20
0.0
 30
0.0
  3
*PAPER_SPACE
  1

  0
ENDBLK
  5
10
100
AcDbEntity
 67
             1
  8
0
100
AcDbBlockEnd
  0
BLOCK
  5
29
100
AcDbEntity
  8
0
100
AcDbBlockBegin
  2
HL_860_BRANDSCHUTZELEMT__1
 70
             0
 10
244.43363299999999
 20
-255.67075500000001
 30
0.0
  3
HL_860_BRANDSCHUTZELEMT__1
  1

  0
CIRCLE
  5
AE
100
AcDbEntity
  8
LC-001-002-----0
  6
CONTINUOUS
 62
             7
100
AcDbCircle
 10
462.00727200000011
 20
-60.99645600000002
 40
112.5499999999999
  0
CIRCLE
  5
AD
100
AcDbEntity
  8
LC-001-002-----0
  6
CONTINUOUS
 62
             7
100
AcDbCircle
 10
462.00727200000011
 20
-60.99645600000002
 40
104.49999999999994
  0
CIRCLE
  5
AC
100
AcDbEntity
  8
LC-001-002-----0
  6
CONTINUOUS
 62
             7
100
AcDbCircle
 10
462.00727200000011
 20
-60.99645600000002
 40
100.49999999999994
  0
CIRCLE
  5
AB
100
AcDbEntity
  8
LC-001-002-----0
  6
CONTINUOUS
 62
             7
100
AcDbCircle
 10
462.00727200000011
 20
-60.99645600000002
 40
95.75346599999995
  0
CIRCLE
  5
AA
100
AcDbEntity
  8
LC-001-002-----0
  6
CONTINUOUS
 62
             7
100
AcDbCircle
 10
462.00727200000011
 20
-60.99645600000002
 40
64.99999999999994
  0
ARC
  5
A9
100
AcDbEntity
  8
LC-001-002-----0
  6
CONTINUOUS
 62
             7
100
AcDbCircle
 10
462.00727200000011
 20
-60.99645600000002
 40
134.97607000000033
100
AcDbArc
 50
-19.89387800000004
 51
-10.10612200000019
  0
ARC
  5
A8
100
AcDbEntity
  8
LC-001-002-----0
  6
CONTINUOUS
 62
             7
100
AcDbCircle
 10
462.00727200000011
 20
-60.99645600000002
 40
134.97606999999968
100
AcDbArc
 50
-29.89387800000018
 51
-20.10612200000004
  0
ARC
  5
A7
100
AcDbEntity
  8
LC-001-002-----0
  6
CONTINUOUS
 62
             7
100
AcDbCircle
 10
462.00727200000011
 20
-60.99645600000002
 40
134.97607000000002
100
AcDbArc
 50
-39.89387799999974
 51
-30.10612200000001
  0
ARC
  5
A6
100
AcDbEntity
  8
LC-001-002-----0
  6
CONTINUOUS
 62
             7
100
AcDbCircle
 10
462.00727200000011
 20
-60.99645600000002
 40
134.97607000000019
100
AcDbArc
 50
-49.89387799999988
 51
-40.10612200000016
  0
ARC
  5
A5
100
AcDbEntity
  8
LC-001-002-----0
  6
CONTINUOUS
 62
             7
100
AcDbCircle
 10
462.00727200000011
 20
-60.99645600000002
 40
134.97606999999988
100
AcDbArc
 50
-54.68628099999984
 51
-50.10612200000025
  0
ARC
  5
A4
100
AcDbEntity
  8
LC-001-002-----0
  6
CONTINUOUS
 62
             7
100
AcDbCircle
 10
462.00727200000011
 20
-60.99645600000002
 40
134.97607000000019
100
AcDbArc
 50
-69.89387799999999
 51
-65.31371899999992
  0
ARC
  5
A3
100
AcDbEntity
  8
LC-001-002-----0
  6
CONTINUOUS
 62
             7
100
AcDbCircle
 10
462.00727200000011
 20
-60.99645600000002
 40
134.97606999999962
100
AcDbArc
 50
-79.89387799999983
 51
-70.10612200000001
  0
ARC
  5
A2
100
AcDbEntity
  8
LC-001-002-----0
  6
CONTINUOUS
 62
             7
100
AcDbCircle
 10
462.00727200000011
 20
-60.99645600000002
 40
134.97607000000002
100
AcDbArc
 50
-89.89387800000012
 51
-80.10612200000007
  0
ARC
  5
A1
100
AcDbEntity
  8
LC-001-002-----0
  6
CONTINUOUS
 62
             7
100
AcDbCircle
 10
462.00727200000011
 20
-60.99645600000002
 40
134.97606999999982
100
AcDbArc
 50
-99.89387799999993
 51
-90.10612199999994
  0
ARC
  5
A0
100
AcDbEntity
  8
LC-001-002-----0
  6
CONTINUOUS
 62
             7
100
AcDbCircle
 10
462.00727200000011
 20
-60.99645600000002
 40
134.97607000000045
100
AcDbArc
 50
-109.89387800000006
 51
-100.10612200000027
  0
ARC
  5
9F
100
AcDbEntity
  8
LC-001-002-----0
  6
CONTINUOUS
 62
             7
100
AcDbCircle
 10
462.00727200000011
 20
-60.99645600000002
 40
134.97606999999974
100
AcDbArc
 50
-119.89387800000017
 51
-110.10612200000007
  0
ARC
  5
9E
100
AcDbEntity
  8
LC-001-002-----0
  6
CONTINUOUS
 62
             7
100
AcDbCircle
 10
462.00727200000011
 20
-60.99645600000002
 40
134.97607000000019
100
AcDbArc
 50
-129.89387799999983
 51
-120.10612200000001
  0
ARC
  5
9D
100
AcDbEntity
  8
LC-001-002-----0
  6
CONTINUOUS
 62
             7
100
AcDbCircle
 10
462.00727200000011
 20
-60.99645600000002
 40
134.97607000000022
100
AcDbArc
 50
-139.89387799999986
 51
-130.10612199999986
  0
ARC
  5
9C
100
AcDbEntity
  8
LC-001-002-----0
  6
CONTINUOUS
 62
             7
100
AcDbCircle
 10
462.00727200000011
 20
-60.99645600000002
 40
134.97606999999991
100
AcDbArc
 50
-149.89387800000003
 51
-140.10612200000034
  0
ARC
  5
9B
100
AcDbEntity
  8
LC-001-002-----0
  6
CONTINUOUS
 62
             7
100
AcDbCircle
 10
462.00727200000011
 20
-60.99645600000002
 40
134.97607000000036
100
AcDbArc
 50
-159.89387799999997
 51
-150.10612199999986
  0
ARC
  5
9A
100
AcDbEntity
  8
LC-001-002-----0
  6
CONTINUOUS
 62
             7
100
AcDbCircle
 10
462.00727200000011
 20
-60.99645600000002
 40
134.97606999999988
100
AcDbArc
 50
-169.89387799999983
 51
-160.106122
  0
ARC
  5
99
100
AcDbEntity
  8
LC-001-002-----0
  6
CONTINUOUS
 62
             7
100
AcDbCircle
 10
462.00727200000011
 20
-60.99645600000002
 40
134.97606999999968
100
AcDbArc
 50
-174.68628099999989
 51
-170.10612200000006
  0
ARC
  5
98
100
AcDbEntity
  8
LC-001-002-----0
  6
CONTINUOUS
 62
             7
100
AcDbCircle
 10
462.00727200000011
 20
-60.99645600000002
 40
134.97606999999988
100
AcDbArc
 50
170.10612200000003
 51
174.68628099999984
  0
ARC
  5
97
100
AcDbEntity
  8
LC-001-002-----0
  6
CONTINUOUS
 62
             7
100
AcDbCircle
 10
462.00727200000011
 20
-60.99645600000002
 40
134.97607000000056
100
AcDbArc
 50
160.10612199999997
 51
169.89387799999977
  0
ARC
  5
96
100
AcDbEntity
  8
LC-001-002-----0
  6
CONTINUOUS
 62
             7
100
AcDbCircle
 10
462.00727200000011
 20
-60.99645600000002
 40
134.97606999999977
100
AcDbArc
 50
150.10612199999986
 51
159.89387799999997
  0
ARC
  5
95
100
AcDbEntity
  8
LC-001-002-----0
  6
CONTINUOUS
 62
             7
100
AcDbCircle
 10
462.00727200000011
 20
-60.99645600000002
 40
134.9760699999994
100
AcDbArc
 50
140.10612199999997
 51
149.89387800000003
  0
ARC
  5
94
100
AcDbEntity
  8
LC-001-002-----0
  6
CONTINUOUS
 62
             7
100
AcDbCircle
 10
462.00727200000011
 20
-60.99645600000002
 40
134.97607000000036
100
AcDbArc
 50
130.1061220000002
 51
139.89387799999983
  0
ARC
  5
93
100
AcDbEntity
  8
LC-001-002-----0
  6
CONTINUOUS
 62
             7
100
AcDbCircle
 10
462.00727200000011
 20
-60.99645600000002
 40
134.97606999999988
100
AcDbArc
 50
120.106122
 51
129.8938779999998
  0
ARC
  5
92
100
AcDbEntity
  8
LC-001-002-----0
  6
CONTINUOUS
 62
             7
100
AcDbCircle
 10
462.00727200000011
 20
-60.99645600000002
 40
134.97607000000036
100
AcDbArc
 50
110.10612200000004
 51
119.89387800000017
  0
ARC
  5
91
100
AcDbEntity
  8
LC-001-002-----0
  6
CONTINUOUS
 62
             7
100
AcDbCircle
 10
462.00727200000011
 20
-60.99645600000002
 40
134.97606999999979
100
AcDbArc
 50
100.10612200000025
 51
109.89387800000006
  0
ARC
  5
90
100
AcDbEntity
  8
LC-001-002-----0
  6
CONTINUOUS
 62
             7
100
AcDbCircle
 10
462.00727200000011
 20
-60.99645600000002
 40
134.97607000000005
100
AcDbArc
 50
90.10612199999994
 51
99.89387799999993
  0
ARC
  5
8F
100
AcDbEntity
  8
LC-001-002-----0
  6
CONTINUOUS
 62
             7
100
AcDbCircle
 10
462.00727200000011
 20
-60.99645600000002
 40
134.97606999999988
100
AcDbArc
 50
80.10612200000007
 51
89.89387800000012
  0
ARC
  5
8E
100
AcDbEntity
  8
LC-001-002-----0
  6
CONTINUOUS
 62
             7
100
AcDbCircle
 10
462.00727200000011
 20
-60.99645600000002
 40
134.97607000000045
100
AcDbArc
 50
70.10612200000003
 51
79.89387799999985
  0
ARC
  5
8D
100
AcDbEntity
  8
LC-001-002-----0
  6
CONTINUOUS
 62
             7
100
AcDbCircle
 10
462.00727200000011
 20
-60.99645600000002
 40
134.97607000000019
100
AcDbArc
 50
65.31371899999992
 51
69.893878
  0
ARC
  5
8C
100
AcDbEntity
  8
LC-001-002-----0
  6
CONTINUOUS
 62
             7
100
AcDbCircle
 10
462.00727200000011
 20
-60.99645600000002
 40
134.97607000000013
100
AcDbArc
 50
50.10612200000026
 51
54.68628099999987
  0
ARC
  5
8B
100
AcDbEntity
  8
LC-001-002-----0
  6
CONTINUOUS
 62
             7
100
AcDbCircle
 10
462.00727200000011
 20
-60.99645600000002
 40
134.97607000000022
100
AcDbArc
 50
40.10612200000018
 51
49.89387799999989
  0
ARC
  5
8A
100
AcDbEntity
  8
LC-001-002-----0
  6
CONTINUOUS
 62
             7
100
AcDbCircle
 10
462.00727200000011
 20
-60.99645600000002
 40
134.97606999999974
100
AcDbArc
 50
30.10612200000004
 51
39.89387799999978
  0
ARC
  5
89
100
AcDbEntity
  8
LC-001-002-----0
  6
CONTINUOUS
 62
             7
100
AcDbCircle
 10
462.00727200000011
 20
-60.99645600000002
 40
134.97607000000031
100
AcDbArc
 50
20.10612200000005
 51
29.89387800000016
  0
ARC
  5
88
100
AcDbEntity
  8
LC-001-002-----0
  6
CONTINUOUS
 62
             7
100
AcDbCircle
 10
462.00727200000011
 20
-60.99645600000002
 40
134.97606999999971
100
AcDbArc
 50
10.10612200000023
 51
19.89387800000007
  0
ARC
  5
87
100
AcDbEntity
  8
LC-001-002-----0
  6
CONTINUOUS
 62
             7
100
AcDbCircle
 10
462.00727200000011
 20
-60.99645600000002
 40
134.97606999999999
100
AcDbArc
 50
0.10612199999991
 51
9.89387799999999
  0
ARC
  5
86
100
AcDbEntity
  8
LC-001-002-----0
  6
CONTINUOUS
 62
             7
100
AcDbCircle
 10
462.00727200000011
 20
-60.99645600000002
 40
120.49999999999993
100
AcDbArc
 50
-174.04574300000021
 51
-65.95425699999993
  0
ARC
  5
85
100
AcDbEntity
  8
LC-001-002-----0
  6
CONTINUOUS
 62
             7
100
AcDbCircle
 10
462.00727200000011
 20
-60.99645600000002
 40
120.50000000000031
100
AcDbArc
 50
65.95425699999994
 51
174.04574300000013
  0
ARC
  5
84
100
AcDbEntity
  8
LC-001-002-----0
  6
CONTINUOUS
 62
             7
100
AcDbCircle
 10
462.00727200000011
 20
-60.99645600000002
 40
134.97606999999977
100
AcDbArc
 50
-9.89387799999994
 51
-0.10612199999991
  0
ARC
  5
83
100
AcDbEntity
  8
LC-001-002-----0
  6
CONTINUOUS
 62
             7
100
AcDbCircle
 10
462.00727200000011
 20
-60.99645600000002
 40
120.50000000000014
100
AcDbArc
 50
-54.04574300000031
 51
54.04574300000031
  0
LINE
  5
82
100
AcDbEntity
  8
LC-001-002-----0
  6
CONTINUOUS
 62
             7
100
AcDbLine
 10
580.62778100000003
 20
-82.16630900000001
 11
594.88934000000006
 21
-84.68100699999997
  0
LINE
  5
81
100
AcDbEntity
  8
LC-001-002-----0
  6
CONTINUOUS
 62
             7
100
AcDbLine
 10
575.32057200000008
 20
-101.9730799999999
 11
588.92879400000004
 21
-106.9260679999999
  0
LINE
  5
80
100
AcDbEntity
  8
LC-001-002-----0
  6
CONTINUOUS
 62
             7
100
AcDbLine
 10
575.14956200000006
 20
-102.442927
 11
588.75778400000002
 21
-107.395914
  0
LINE
  5
7F
100
AcDbEntity
  8
LC-001-002-----0
  6
CONTINUOUS
 62
             7
100
AcDbLine
 10
566.48357300000009
 20
-121.0272019999999
 11
579.02497800000003
 21
-128.26798500000001
  0
LINE
  5
7E
100
AcDbEntity
  8
LC-001-002-----0
  6
CONTINUOUS
 62
             7
100
AcDbLine
 10
566.23357300000009
 20
-121.46021399999999
 11
578.77497800000003
 21
-128.700998
  0
LINE
  5
7D
100
AcDbEntity
  8
LC-001-002-----0
  6
CONTINUOUS
 62
             7
100
AcDbLine
 10
554.47211300000004
 20
-138.257319
 11
565.56563700000004
 21
-147.56589099999991
  0
LINE
  5
7C
100
AcDbEntity
  8
LC-001-002-----0
  6
CONTINUOUS
 62
             7
100
AcDbLine
 10
554.15071900000009
 20
-138.64034100000001
 11
565.24424400000009
 21
-147.948913
  0
LINE
  5
7B
100
AcDbEntity
  8
LC-001-002-----0
  6
CONTINUOUS
 62
             7
100
AcDbLine
 10
539.65115700000001
 20
-153.13990400000009
 11
548.95972900000004
 21
-164.233428
  0
LINE
  5
7A
100
AcDbEntity
  8
LC-001-002-----0
  6
CONTINUOUS
 62
             7
100
AcDbLine
 10
539.26813400000003
 20
-153.461298
 11
548.57670600000006
 21
-164.554822
  0
LINE
  5
79
100
AcDbEntity
  8
LC-001-002-----0
  6
CONTINUOUS
 62
             7
100
AcDbLine
 10
503.45374199999998
 20
-174.138747
 11
508.40672999999998
 21
-187.74696900000001
  0
LINE
  5
78
100
AcDbEntity
  8
LC-001-002-----0
  6
CONTINUOUS
 62
             7
100
AcDbLine
 10
502.98389600000007
 20
-174.30975699999991
 11
507.93688400000008
 21
-187.917979
  0
LINE
  5
77
100
AcDbEntity
  8
LC-001-002-----0
  6
CONTINUOUS
 62
             7
100
AcDbLine
 10
483.1771250000001
 20
-179.61696499999999
 11
485.691822
 21
-193.878525
  0
LINE
  5
76
100
AcDbEntity
  8
LC-001-002-----0
  6
CONTINUOUS
 62
             7
100
AcDbLine
 10
482.68472100000008
 20
-179.703789
 11
485.19941799999998
 21
-193.965349
  0
LINE
  5
75
100
AcDbEntity
  8
LC-001-002-----0
  6
CONTINUOUS
 62
             7
100
AcDbLine
 10
462.25727200000011
 20
-181.49095899999989
 11
462.25727200000011
 21
-195.97252700000001
  0
LINE
  5
74
100
AcDbEntity
  8
LC-001-002-----0
  6
CONTINUOUS
 62
             7
100
AcDbLine
 10
461.75727200000011
 20
-181.49095899999989
 11
461.75727200000011
 21
-195.97252700000001
  0
LINE
  5
73
100
AcDbEntity
  8
LC-001-002-----0
  6
CONTINUOUS
 62
             7
100
AcDbLine
 10
441.32982299999998
 20
-179.703789
 11
438.81512500000008
 21
-193.965349
  0
LINE
  5
72
100
AcDbEntity
  8
LC-001-002-----0
  6
CONTINUOUS
 62
             7
100
AcDbLine
 10
440.83741900000012
 20
-179.61696499999999
 11
438.322721
 21
-193.878525
  0
LINE
  5
71
100
AcDbEntity
  8
LC-001-002-----0
  6
CONTINUOUS
 62
             7
100
AcDbLine
 10
421.03064799999999
 20
-174.30975699999991
 11
416.07765999999998
 21
-187.917979
  0
LINE
  5
70
100
AcDbEntity
  8
LC-001-002-----0
  6
CONTINUOUS
 62
             7
100
AcDbLine
 10
420.56080100000008
 20
-174.138747
 11
415.60781400000008
 21
-187.74696900000001
  0
LINE
  5
6F
100
AcDbEntity
  8
LC-001-002-----0
  6
CONTINUOUS
 62
             7
100
AcDbLine
 10
401.97652699999998
 20
-165.47275699999989
 11
394.73574300000013
 21
-178.014162
  0
LINE
  5
6E
100
AcDbEntity
  8
LC-001-002-----0
  6
CONTINUOUS
 62
             7
100
AcDbLine
 10
401.54351400000007
 20
-165.22275699999989
 11
394.30273
 21
-177.764162
  0
LINE
  5
6D
100
AcDbEntity
  8
LC-001-002-----0
  6
CONTINUOUS
 62
             7
100
AcDbLine
 10
384.74640900000009
 20
-153.461298
 11
375.43783700000012
 21
-164.554822
  0
LINE
  5
6C
100
AcDbEntity
  8
LC-001-002-----0
  6
CONTINUOUS
 62
             7
100
AcDbLine
 10
384.36338699999999
 20
-153.13990400000009
 11
375.05481500000008
 21
-164.233428
  0
LINE
  5
6B
100
AcDbEntity
  8
LC-001-002-----0
  6
CONTINUOUS
 62
             7
100
AcDbLine
 10
369.86382400000002
 20
-138.64034100000001
 11
358.77030000000002
 21
-147.948913
  0
LINE
  5
6A
100
AcDbEntity
  8
LC-001-002-----0
  6
CONTINUOUS
 62
             7
100
AcDbLine
 10
369.54243000000008
 20
-138.257319
 11
358.44890600000008
 21
-147.56589099999991
  0
LINE
  5
69
100
AcDbEntity
  8
LC-001-002-----0
  6
CONTINUOUS
 62
             7
100
AcDbLine
 10
357.78097100000002
 20
-121.46021399999999
 11
345.23956600000008
 21
-128.700998
  0
LINE
  5
68
100
AcDbEntity
  8
LC-001-002-----0
  6
CONTINUOUS
 62
             7
100
AcDbLine
 10
357.53097100000002
 20
-121.0272019999999
 11
344.98956600000008
 21
-128.26798500000001
  0
LINE
  5
67
100
AcDbEntity
  8
LC-001-002-----0
  6
CONTINUOUS
 62
             7
100
AcDbLine
 10
348.86498100000011
 20
-102.442927
 11
335.25675899999999
 21
-107.395914
  0
LINE
  5
66
100
AcDbEntity
  8
LC-001-002-----0
  6
CONTINUOUS
 62
             7
100
AcDbLine
 10
348.69397099999998
 20
-101.9730799999999
 11
335.08574900000008
 21
-106.9260679999999
  0
LINE
  5
65
100
AcDbEntity
  8
LC-001-002-----0
  6
CONTINUOUS
 62
             7
100
AcDbLine
 10
343.38676300000009
 20
-82.16630900000001
 11
329.12520300000011
 21
-84.68100699999997
  0
LINE
  5
64
100
AcDbEntity
  8
LC-001-002-----0
  6
CONTINUOUS
 62
             7
100
AcDbLine
 10
343.29993899999999
 20
-81.67390500000005
 11
329.03837900000008
 21
-84.188603
  0
LINE
  5
63
100
AcDbEntity
  8
LC-001-002-----0
  6
CONTINUOUS
 62
             7
100
AcDbLine
 10
343.29993899999999
 20
-40.319007
 11
329.03837900000008
 21
-37.80430999999993
  0
LINE
  5
62
100
AcDbEntity
  8
LC-001-002-----0
  6
CONTINUOUS
 62
             7
100
AcDbLine
 10
343.38676300000009
 20
-39.82660299999992
 11
329.12520300000011
 21
-37.31190599999997
  0
LINE
  5
61
100
AcDbEntity
  8
LC-001-002-----0
  6
CONTINUOUS
 62
             7
100
AcDbLine
 10
348.69397099999998
 20
-20.01983200000001
 11
335.08574900000008
 21
-15.066844
  0
LINE
  5
60
100
AcDbEntity
  8
LC-001-002-----0
  6
CONTINUOUS
 62
             7
100
AcDbLine
 10
348.86498100000011
 20
-19.54998599999993
 11
335.25675899999999
 21
-14.59699799999999
  0
LINE
  5
5F
100
AcDbEntity
  8
LC-001-002-----0
  6
CONTINUOUS
 62
             7
100
AcDbLine
 10
357.53097100000002
 20
-0.965711
 11
344.98956600000008
 21
6.27507300000002
  0
LINE
  5
5E
100
AcDbEntity
  8
LC-001-002-----0
  6
CONTINUOUS
 62
             7
100
AcDbLine
 10
357.78097100000002
 20
-0.53269799999998
 11
345.23956600000008
 21
6.70808499999998
  0
LINE
  5
5D
100
AcDbEntity
  8
LC-001-002-----0
  6
CONTINUOUS
 62
             7
100
AcDbLine
 10
369.54243000000008
 20
16.26440600000001
 11
358.44890600000008
 21
25.57297800000004
  0
LINE
  5
5C
100
AcDbEntity
  8
LC-001-002-----0
  6
CONTINUOUS
 62
             7
100
AcDbLine
 10
369.86382400000002
 20
16.64742899999999
 11
358.77030000000002
 21
25.95600100000002
  0
LINE
  5
5B
100
AcDbEntity
  8
LC-001-002-----0
  6
CONTINUOUS
 62
             7
100
AcDbLine
 10
384.36338699999999
 20
31.14699100000001
 11
375.05481500000008
 21
42.24051600000001
  0
LINE
  5
5A
100
AcDbEntity
  8
LC-001-002-----0
  6
CONTINUOUS
 62
             7
100
AcDbLine
 10
384.74640900000009
 20
31.46838500000001
 11
375.43783700000012
 21
42.56190900000001
  0
LINE
  5
59
100
AcDbEntity
  8
LC-001-002-----0
  6
CONTINUOUS
 62
             7
100
AcDbLine
 10
401.54351400000007
 20
43.22984500000001
 11
394.30273
 21
55.77125000000001
  0
LINE
  5
58
100
AcDbEntity
  8
LC-001-002-----0
  6
CONTINUOUS
 62
             7
100
AcDbLine
 10
401.97652699999998
 20
43.47984500000001
 11
394.73574300000013
 21
56.02125000000001
  0
LINE
  5
57
100
AcDbEntity
  8
LC-001-002-----0
  6
CONTINUOUS
 62
             7
100
AcDbLine
 10
420.56080100000008
 20
52.14583400000004
 11
415.60781400000008
 21
65.75405599999999
  0
LINE
  5
56
100
AcDbEntity
  8
LC-001-002-----0
  6
CONTINUOUS
 62
             7
100
AcDbLine
 10
421.03064799999999
 20
52.316844
 11
416.07765999999998
 21
65.92506600000002
  0
LINE
  5
55
100
AcDbEntity
  8
LC-001-002-----0
  6
CONTINUOUS
 62
             7
100
AcDbLine
 10
440.83741900000012
 20
57.624053
 11
438.322721
 21
71.88561200000004
  0
LINE
  5
54
100
AcDbEntity
  8
LC-001-002-----0
  6
CONTINUOUS
 62
             7
100
AcDbLine
 10
441.32982299999998
 20
57.71087700000004
 11
438.81512500000008
 21
71.97243600000002
  0
LINE
  5
53
100
AcDbEntity
  8
LC-001-002-----0
  6
CONTINUOUS
 62
             7
100
AcDbLine
 10
461.75727200000011
 20
59.49804699999999
 11
461.75727200000011
 21
73.97961400000003
  0
LINE
  5
52
100
AcDbEntity
  8
LC-001-002-----0
  6
CONTINUOUS
 62
             7
100
AcDbLine
 10
462.25727200000011
 20
59.49804699999999
 11
462.25727200000011
 21
73.97961400000003
  0
LINE
  5
51
100
AcDbEntity
  8
LC-001-002-----0
  6
CONTINUOUS
 62
             7
100
AcDbLine
 10
482.68472100000008
 20
57.71087700000004
 11
485.19941799999998
 21
71.97243600000002
  0
LINE
  5
50
100
AcDbEntity
  8
LC-001-002-----0
  6
CONTINUOUS
 62
             7
100
AcDbLine
 10
483.1771250000001
 20
57.624053
 11
485.691822
 21
71.88561200000004
  0
LINE
  5
4F
100
AcDbEntity
  8
LC-001-002-----0
  6
CONTINUOUS
 62
             7
100
AcDbLine
 10
502.98389600000007
 20
52.316844
 11
507.93688400000008
 21
65.92506600000002
  0
LINE
  5
4E
100
AcDbEntity
  8
LC-001-002-----0
  6
CONTINUOUS
 62
             7
100
AcDbLine
 10
503.45374199999998
 20
52.14583400000004
 11
508.40672999999998
 21
65.75405599999999
  0
LINE
  5
4D
100
AcDbEntity
  8
LC-001-002-----0
  6
CONTINUOUS
 62
             7
100
AcDbLine
 10
539.26813400000003
 20
31.46838500000001
 11
548.57670600000006
 21
42.56190900000001
  0
LINE
  5
4C
100
AcDbEntity
  8
LC-001-002-----0
  6
CONTINUOUS
 62
             7
100
AcDbLine
 10
539.65115700000001
 20
31.14699100000001
 11
548.95972900000004
 21
42.24051600000001
  0
LINE
  5
4B
100
AcDbEntity
  8
LC-001-002-----0
  6
CONTINUOUS
 62
             7
100
AcDbLine
 10
554.15071900000009
 20
16.64742899999999
 11
565.24424400000009
 21
25.95600100000002
  0
LINE
  5
4A
100
AcDbEntity
  8
LC-001-002-----0
  6
CONTINUOUS
 62
             7
100
AcDbLine
 10
554.47211300000004
 20
16.26440600000001
 11
565.56563700000004
 21
25.57297800000004
  0
LINE
  5
49
100
AcDbEntity
  8
LC-001-002-----0
  6
CONTINUOUS
 62
             7
100
AcDbLine
 10
566.23357300000009
 20
-0.53269799999998
 11
578.77497800000003
 21
6.70808499999998
  0
LINE
  5
48
100
AcDbEntity
  8
LC-001-002-----0
  6
CONTINUOUS
 62
             7
100
AcDbLine
 10
566.48357300000009
 20
-0.965711
 11
579.02497800000003
 21
6.27507300000002
  0
LINE
  5
47
100
AcDbEntity
  8
LC-001-002-----0
  6
CONTINUOUS
 62
             7
100
AcDbLine
 10
575.14956200000006
 20
-19.54998599999993
 11
588.75778400000002
 21
-14.59699799999999
  0
LINE
  5
46
100
AcDbEntity
  8
LC-001-002-----0
  6
CONTINUOUS
 62
             7
100
AcDbLine
 10
575.32057200000008
 20
-20.01983200000001
 11
588.92879400000004
 21
-15.066844
  0
LINE
  5
45
100
AcDbEntity
  8
LC-001-002-----0
  6
CONTINUOUS
 62
             7
100
AcDbLine
 10
580.62778100000003
 20
-39.82660299999992
 11
594.88934000000006
 21
-37.31190599999997
  0
LINE
  5
44
100
AcDbEntity
  8
LC-001-002-----0
  6
CONTINUOUS
 62
             7
100
AcDbLine
 10
580.71460500000001
 20
-40.319007
 11
594.97616400000004
 21
-37.80430999999993
  0
LINE
  5
43
100
AcDbEntity
  8
LC-001-002-----0
  6
CONTINUOUS
 62
             7
100
AcDbLine
 10
582.50177500000007
 20
-60.74645600000002
 11
596.98334199999999
 21
-60.74645600000002
  0
LINE
  5
42
100
AcDbEntity
  8
LC-001-002-----0
  6
CONTINUOUS
 62
             7
100
AcDbLine
 10
582.50177500000007
 20
-61.24645600000002
 11
596.98334199999999
 21
-61.24645600000002
  0
LINE
  5
41
100
AcDbEntity
  8
LC-001-002-----0
  6
CONTINUOUS
 62
             7
100
AcDbLine
 10
580.71460500000001
 20
-81.67390500000005
 11
594.97616400000004
 21
-84.188603
  0
LINE
  5
40
100
AcDbEntity
  8
LC-001-002-----0
  6
CONTINUOUS
 62
             7
100
AcDbLine
 10
559.96877400000005
 20
133.677842
 11
507.10880900000012
 21
42.12169800000004
  0
LINE
  5
3F
100
AcDbEntity
  8
LC-001-002-----0
  6
CONTINUOUS
 62
             7
100
AcDbLine
 10
581.61940900000002
 20
-243.17075500000001
 11
528.75944400000003
 21
-151.61461099999991
  0
LINE
  5
3E
100
AcDbEntity
  8
LC-001-002-----0
  6
CONTINUOUS
 62
             7
100
AcDbLine
 10
581.61940900000002
 20
121.177842
 11
528.75944400000003
 21
29.62169800000004
  0
LINE
  5
3D
100
AcDbEntity
  8
LC-001-002-----0
  6
CONTINUOUS
 62
             7
100
AcDbLine
 10
559.96877400000005
 20
-255.67075500000001
 11
507.10880900000012
 21
-164.11461099999991
  0
LINE
  5
3C
100
AcDbEntity
  8
LC-001-002-----0
  6
CONTINUOUS
 62
             7
100
AcDbLine
 10
244.43363299999999
 20
-48.49645600000002
 11
350.15356200000008
 21
-48.49645600000002
  0
LINE
  5
3B
100
AcDbEntity
  8
LC-001-002-----0
  6
CONTINUOUS
 62
             7
100
AcDbLine
 10
244.43363299999999
 20
-73.49645600000002
 11
350.15356200000008
 21
-73.49645600000002
  0
LINE
  5
3A
100
AcDbEntity
  8
LC-004-003-----0
  6
CONTINUOUS
 62
             2
100
AcDbLine
 10
531.95224300000007
 20
35.15178800000001
 11
510.30160799999999
 21
47.65178800000001
  0
LINE
  5
39
100
AcDbEntity
  8
LC-004-003-----0
  6
CONTINUOUS
 62
             2
100
AcDbLine
 10
510.30160799999999
 20
-169.644701
 11
531.95224300000007
 21
-157.144701
  0
LINE
  5
38
100
AcDbEntity
  8
LC-004-003-----0
  6
CONTINUOUS
 62
             2
100
AcDbLine
 10
553.12022899999999
 20
71.81581599999998
 11
531.46959400000003
 21
84.31581599999998
  0
LINE
  5
37
100
AcDbEntity
  8
LC-004-003-----0
  6
CONTINUOUS
 62
             2
100
AcDbLine
 10
531.46959400000003
 20
-206.308728
 11
553.12022899999999
 21
-193.808728
  0
LINE
  5
36
100
AcDbEntity
  8
LC-004-003-----0
  6
CONTINUOUS
 62
             2
100
AcDbLine
 10
343.76796400000001
 20
-48.49645600000002
 11
343.76796400000001
 21
-73.49645600000002
  0
LINE
  5
35
100
AcDbEntity
  8
LC-004-003-----0
  6
CONTINUOUS
 62
             2
100
AcDbLine
 10
301.43199099999998
 20
-48.49645600000002
 11
301.43199099999998
 21
-73.49645600000002
  0
LINE
  5
34
100
AcDbEntity
  8
LC-001-002-----0
  6
CONTINUOUS
 62
             7
100
AcDbLine
 10
581.61940900000002
 20
121.177842
 11
559.96877400000005
 21
133.677842
  0
LINE
  5
33
100
AcDbEntity
  8
LC-001-002-----0
  6
CONTINUOUS
 62
             7
100
AcDbLine
 10
559.96877400000005
 20
-255.67075500000001
 11
581.61940900000002
 21
-243.17075500000001
  0
LINE
  5
32
100
AcDbEntity
  8
LC-001-002-----0
  6
CONTINUOUS
 62
             7
100
AcDbLine
 10
244.43363299999999
 20
-48.49645600000002
 11
244.43363299999999
 21
-73.49645600000002
  0
LINE
  5
31
100
AcDbEntity
  8
1
  6
PHANTOM
 62
             2
100
AcDbLine
 10
610.48094899999978
 20
-60.99645600000002
 11
313.53359500000028
 21
-60.99645600000002
  0
LINE
  5
30
100
AcDbEntity
  8
1
  6
PHANTOM
 62
             2
100
AcDbLine
 10
462.00727200000011
 20
87.47722099999972
 11
462.00727200000011
 21
-209.47013299999981
  0
ENDBLK
  5
AF
100
AcDbEntity
  8
0
100
AcDbBlockEnd
  0
BLOCK
  5
2B
100
AcDbEntity
  8
0
100
AcDbBlockBegin
  2
HL_860_BRANDSCHUTZELEMT__2
 70
             0
 10
-217.57363899999999
 20
-176.99645599999999
 30
0.0
  3
HL_860_BRANDSCHUTZELEMT__2
  1

  0
ARC
  5
F4
100
AcDbEntity
  8
LC-003-002-RND-0
  6
CONTINUOUS
 62
             7
100
AcDbCircle
 10
71.21224300000006
 20
47.00354400000003
 40
2.0
100
AcDbArc
 50
90.0
 51
172.36925999999107
  0
ARC
  5
F3
100
AcDbEntity
  8
LC-003-002-RND-0
  6
CONTINUOUS
 62
             7
100
AcDbCircle
 10
92.99685300000004
 20
47.00354400000003
 40
2.0
100
AcDbArc
 50
90.0
 51
172.36925999999107
  0
ARC
  5
F2
100
AcDbEntity
  8
LC-003-002-RND-0
  6
CONTINUOUS
 62
             7
100
AcDbCircle
 10
92.74461900000006
 20
47.00354400000003
 40
1.0
100
AcDbArc
 50
90.0
 51
172.36926000001642
  0
ARC
  5
F1
100
AcDbEntity
  8
LC-003-002-RND-0
  6
CONTINUOUS
 62
             7
100
AcDbCircle
 10
-164.41191499999999
 20
44.0
 40
5.00000000000006
100
AcDbArc
 50
15.0000000000044
 51
90.0
  0
ARC
  5
F0
100
AcDbEntity
  8
LC-003-002-RND-0
  6
CONTINUOUS
 62
             7
100
AcDbCircle
 10
-164.41191499999999
 20
44.0
 40
3.99999999999999
100
AcDbArc
 50
14.9999999999986
 51
90.0
  0
ARC
  5
EF
100
AcDbEntity
  8
LC-003-002-RND-0
  6
CONTINUOUS
 62
             7
100
AcDbCircle
 10
115.5000000000001
 20
-104.99645599999999
 40
6.0
100
AcDbArc
 50
-90.0
 51
1.78395599999764
  0
ARC
  5
EE
100
AcDbEntity
  8
LC-003-002-RND-0
  6
CONTINUOUS
 62
             7
100
AcDbCircle
 10
72.50000000000006
 20
-164.99645599999999
 40
6.0
100
AcDbArc
 50
-90.0
 51
0.0
  0
ARC
  5
ED
100
AcDbEntity
  8
LC-003-002-RND-0
  6
CONTINUOUS
 62
             7
100
AcDbCircle
 10
83.50000000000006
 20
-115.99645599999999
 40
5.0
100
AcDbArc
 50
90.0
 51
180.0
  0
ARC
  5
EC
100
AcDbEntity
  8
LC-003-002-RND-0
  6
CONTINUOUS
 62
             7
100
AcDbCircle
 10
-115.5
 20
-104.99645599999999
 40
6.00000000000001
100
AcDbArc
 50
178.21604400000223
 51
-90.0
  0
ARC
  5
EB
100
AcDbEntity
  8
LC-003-002-RND-0
  6
CONTINUOUS
 62
             7
100
AcDbCircle
 10
-72.49999999999999
 20
-164.99645599999999
 40
6.0
100
AcDbArc
 50
180.0
 51
-90.0
  0
ARC
  5
EA
100
AcDbEntity
  8
LC-003-002-RND-0
  6
CONTINUOUS
 62
             7
100
AcDbCircle
 10
-83.49999999999999
 20
-115.99645599999999
 40
5.0
100
AcDbArc
 50
0.0
 51
90.0
  0
ARC
  5
E9
100
AcDbEntity
  8
LC-003-002-RND-0
  6
CONTINUOUS
 62
             7
100
AcDbCircle
 10
-105.5
 20
-30.74999999999994
 40
1.0
100
AcDbArc
 50
0.0
 51
90.0
  0
ARC
  5
E8
100
AcDbEntity
  8
LC-003-002-RND-0
  6
CONTINUOUS
 62
             7
100
AcDbCircle
 10
-108.55
 20
-25.74999999999994
 40
4.0
100
AcDbArc
 50
180.0
 51
-90.0
  0
ARC
  5
E7
100
AcDbEntity
  8
LC-003-002-RND-0
  6
CONTINUOUS
 62
             7
100
AcDbCircle
 10
-108.55
 20
-9.75
 40
4.0
100
AcDbArc
 50
90.0
 51
180.0
  0
ARC
  5
E6
100
AcDbEntity
  8
LC-003-002-RND-0
  6
CONTINUOUS
 62
             7
100
AcDbCircle
 10
108.55
 20
-9.75
 40
4.0
100
AcDbArc
 50
0.0
 51
90.0
  0
ARC
  5
E5
100
AcDbEntity
  8
LC-003-002-RND-0
  6
CONTINUOUS
 62
             7
100
AcDbCircle
 10
108.55
 20
-25.74999999999994
 40
4.0
100
AcDbArc
 50
-90.0
 51
0.0
  0
ARC
  5
E4
100
AcDbEntity
  8
LC-003-002-RND-0
  6
CONTINUOUS
 62
             7
100
AcDbCircle
 10
105.5000000000001
 20
-30.74999999999994
 40
1.0
100
AcDbArc
 50
90.0
 51
180.0
  0
LINE
  5
E3
100
AcDbEntity
  8
LC-001-002-----0
  6
CONTINUOUS
 62
             7
100
AcDbLine
 10
58.91134900000003
 20
-29.74999999999994
 11
0.00000000000001
 21
-29.74999999999994
  0
LINE
  5
E2
100
AcDbEntity
  8
LC-001-002-----0
  6
CONTINUOUS
 62
             7
100
AcDbLine
 10
62.12673900000004
 20
-5.75
 11
0.00000000000001
 21
-5.75
  0
LINE
  5
E1
100
AcDbEntity
  8
LC-001-002-----0
  6
CONTINUOUS
 62
             7
100
AcDbLine
 10
-121.44277200000001
 20
-100.90821200000001
 11
-134.963424
 21
-100.90821200000001
  0
LINE
  5
E0
100
AcDbEntity
  8
LC-001-002-----0
  6
CONTINUOUS
 62
             7
100
AcDbLine
 10
0.00000000000001
 20
-100.90821200000001
 11
-120.40749599999999
 21
-100.90821200000001
  0
LINE
  5
DF
100
AcDbEntity
  8
LC-001-002-----0
  6
CONTINUOUS
 62
             7
100
AcDbLine
 10
71.91926700000005
 20
-100.90821200000001
 11
91.75347500000004
 21
47.13633200000004
  0
LINE
  5
DE
100
AcDbEntity
  8
LC-001-002-----0
  6
CONTINUOUS
 62
             7
100
AcDbLine
 10
71.16256600000003
 20
-100.90821200000001
 11
91.01456400000006
 21
47.26911999999999
  0
LINE
  5
DD
100
AcDbEntity
  8
LC-001-002-----0
  6
CONTINUOUS
 62
             7
100
AcDbLine
 10
69.22995400000002
 20
47.26911999999999
 11
49.37795600000004
 21
-100.90821200000001
  0
LINE
  5
DC
100
AcDbEntity
  8
LC-001-002-----0
  6
CONTINUOUS
 62
             7
100
AcDbLine
 10
-135.04106999999999
 20
-101.1979900000001
 11
-134.963424
 21
-100.90821200000001
  0
LINE
  5
DB
100
AcDbEntity
  8
LC-001-002-----0
  6
CONTINUOUS
 62
             7
100
AcDbLine
 10
134.963425
 20
-100.90821200000001
 11
0.00000000000001
 21
-100.90821200000001
  0
LINE
  5
DA
100
AcDbEntity
  8
LC-001-002-----0
  6
CONTINUOUS
 62
             7
100
AcDbLine
 10
135.04107099999999
 20
-101.1979900000001
 11
134.963425
 21
-100.90821200000001
  0
LINE
  5
D9
100
AcDbEntity
  8
LC-001-002-----0
  6
CONTINUOUS
 62
             7
100
AcDbLine
 10
-121.49709199999999
 20
-104.8096709999999
 11
-135.04106999999999
 21
-101.1979900000001
  0
LINE
  5
D8
100
AcDbEntity
  8
LC-001-002-----0
  6
CONTINUOUS
 62
             7
100
AcDbLine
 10
121.49709200000009
 20
-104.8096709999999
 11
135.04107099999999
 21
-101.1979900000001
  0
LINE
  5
D7
100
AcDbEntity
  8
LC-001-002-----0
  6
CONTINUOUS
 62
             7
100
AcDbLine
 10
114.84899800000009
 20
48.00354400000003
 11
114.84899800000009
 21
49.00354400000003
  0
LINE
  5
D6
100
AcDbEntity
  8
LC-001-002-----0
  6
CONTINUOUS
 62
             7
100
AcDbLine
 10
92.74461900000006
 20
48.00354400000003
 11
114.84899800000009
 21
48.00354400000003
  0
LINE
  5
D5
100
AcDbEntity
  8
LC-001-002-----0
  6
CONTINUOUS
 62
             7
100
AcDbLine
 10
71.21224300000006
 20
49.00354400000003
 11
114.612138
 21
49.00354400000003
  0
LINE
  5
D4
100
AcDbEntity
  8
LC-001-002-----0
  6
CONTINUOUS
 62
             7
100
AcDbLine
 10
-121.44277200000001
 20
-100.90821200000001
 11
-160.54821200000001
 21
45.03527600000001
  0
LINE
  5
D3
100
AcDbEntity
  8
LC-001-002-----0
  6
CONTINUOUS
 62
             7
100
AcDbLine
 10
-164.41191499999999
 20
49.0
 11
-217.57363899999999
 21
49.0
  0
LINE
  5
D2
100
AcDbEntity
  8
LC-001-002-----0
  6
CONTINUOUS
 62
             7
100
AcDbLine
 10
-120.40749599999999
 20
-100.90821200000001
 11
-159.58228600000001
 21
45.29409500000003
  0
LINE
  5
D1
100
AcDbEntity
  8
LC-001-002-----0
  6
CONTINUOUS
 62
             7
100
AcDbLine
 10
-164.41191499999999
 20
48.0
 11
-217.57363899999999
 21
48.0
  0
LINE
  5
D0
100
AcDbEntity
  8
LC-001-002-----0
  6
CONTINUOUS
 62
             7
100
AcDbLine
 10
-217.57363899999999
 20
48.0
 11
-217.57363899999999
 21
49.0
  0
LINE
  5
CF
100
AcDbEntity
  8
LC-001-002-----0
  6
CONTINUOUS
 62
             7
100
AcDbLine
 10
78.50000000000006
 20
-115.99645599999999
 11
78.50000000000006
 21
-164.99645599999999
  0
LINE
  5
CE
100
AcDbEntity
  8
LC-001-002-----0
  6
CONTINUOUS
 62
             7
100
AcDbLine
 10
72.50000000000006
 20
-170.99645599999999
 11
0.00000000000001
 21
-170.99645599999999
  0
LINE
  5
CD
100
AcDbEntity
  8
LC-001-002-----0
  6
CONTINUOUS
 62
             7
100
AcDbLine
 10
115.5000000000001
 20
-110.99645599999999
 11
0.00000000000001
 21
-110.99645599999999
  0
LINE
  5
CC
100
AcDbEntity
  8
LC-001-002-----0
  6
CONTINUOUS
 62
             7
100
AcDbLine
 10
-120.5
 20
-104.99645599999999
 11
-120.5
 21
-104.99645599999999
  0
LINE
  5
CB
100
AcDbEntity
  8
LC-001-002-----0
  6
CONTINUOUS
 62
             7
100
AcDbLine
 10
-78.49999999999999
 20
-115.99645599999999
 11
-78.49999999999999
 21
-164.99645599999999
  0
LINE
  5
CA
100
AcDbEntity
  8
LC-001-002-----0
  6
CONTINUOUS
 62
             7
100
AcDbLine
 10
-72.49999999999999
 20
-170.99645599999999
 11
0.00000000000001
 21
-170.99645599999999
  0
LINE
  5
C9
100
AcDbEntity
  8
LC-001-002-----0
  6
CONTINUOUS
 62
             7
100
AcDbLine
 10
-115.5
 20
-110.99645599999999
 11
0.00000000000001
 21
-110.99645599999999
  0
LINE
  5
C8
100
AcDbEntity
  8
LC-001-002-----0
  6
CONTINUOUS
 62
             7
100
AcDbLine
 10
-121.5
 20
-104.99645599999999
 11
-121.5
 21
-104.99645599999999
  0
LINE
  5
C7
100
AcDbEntity
  8
LC-001-002-----0
  6
CONTINUOUS
 62
             7
100
AcDbLine
 10
104.5000000000001
 20
-100.90821200000001
 11
104.5000000000001
 21
-30.74999999999994
  0
LINE
  5
C6
100
AcDbEntity
  8
LC-001-002-----0
  6
CONTINUOUS
 62
             7
100
AcDbLine
 10
-104.5
 20
-5.75
 11
-104.5
 21
0.0
  0
LINE
  5
C5
100
AcDbEntity
  8
LC-001-002-----0
  6
CONTINUOUS
 62
             7
100
AcDbLine
 10
-104.5
 20
0.0
 11
62.89709300000004
 21
0.0
  0
LINE
  5
C4
100
AcDbEntity
  8
LC-001-002-----0
  6
CONTINUOUS
 62
             7
100
AcDbLine
 10
-108.55
 20
-29.74999999999994
 11
0.00000000000001
 21
-29.74999999999994
  0
LINE
  5
C3
100
AcDbEntity
  8
LC-001-002-----0
  6
CONTINUOUS
 62
             7
100
AcDbLine
 10
-104.5
 20
-100.90821200000001
 11
-104.5
 21
-30.74999999999994
  0
LINE
  5
C2
100
AcDbEntity
  8
LC-001-002-----0
  6
CONTINUOUS
 62
             7
100
AcDbLine
 10
-108.55
 20
-5.75
 11
0.00000000000001
 21
-5.75
  0
LINE
  5
C1
100
AcDbEntity
  8
LC-001-002-----0
  6
CONTINUOUS
 62
             7
100
AcDbLine
 10
-112.55
 20
-25.74999999999994
 11
-112.55
 21
-9.75
  0
LINE
  5
C0
100
AcDbEntity
  8
LC-001-002-----0
  6
CONTINUOUS
 62
             7
100
AcDbLine
 10
112.55
 20
-25.74999999999994
 11
112.55
 21
-9.75
  0
LINE
  5
BF
100
AcDbEntity
  8
LC-001-002-----0
  6
CONTINUOUS
 62
             7
100
AcDbLine
 10
108.55
 20
-5.75
 11
83.91134900000003
 21
-5.75
  0
LINE
  5
BE
100
AcDbEntity
  8
LC-001-002-----0
  6
CONTINUOUS
 62
             7
100
AcDbLine
 10
108.55
 20
-29.74999999999994
 11
80.69595900000002
 21
-29.74999999999994
  0
LINE
  5
BD
100
AcDbEntity
  8
LC-001-002-----0
  6
CONTINUOUS
 62
             7
100
AcDbLine
 10
104.5000000000001
 20
-5.75
 11
104.5000000000001
 21
0.0
  0
LINE
  5
BC
100
AcDbEntity
  8
LC-001-002-----0
  6
CONTINUOUS
 62
             7
100
AcDbLine
 10
104.5000000000001
 20
0.0
 11
84.68170300000003
 21
0.0
  0
LINE
  5
BB
100
AcDbEntity
  8
LC-001-002-----0
  6
CONTINUOUS
 62
             7
100
AcDbLine
 10
-120.5
 20
-104.99645599999999
 11
121.5000000000001
 21
-104.99645599999999
  0
LINE
  5
BA
100
AcDbEntity
  8
1
  6
DOT_CENTER
 62
             2
100
AcDbLine
 10
-64.99999999999999
 20
-176.99645599999999
 11
-65.0
 21
-173.99645599999999
  0
LINE
  5
B9
100
AcDbEntity
  8
1
  6
DOT_CENTER
 62
             2
100
AcDbLine
 10
-99.99999999999999
 20
6.0
 11
-99.99999999999999
 21
3.0
  0
LINE
  5
B8
100
AcDbEntity
  8
1
  6
DOT_CENTER
 62
             2
100
AcDbLine
 10
65.00000000000003
 20
-173.99645599999999
 11
65.00000000000001
 21
-176.99645599999999
  0
LINE
  5
B7
100
AcDbEntity
  8
1
  6
DOT_CENTER
 62
             2
100
AcDbLine
 10
100.0
 20
3.0
 11
100.0
 21
6.0
  0
LINE
  5
B6
100
AcDbEntity
  8
1
  6
CONTINUOUS
 62
             3
100
AcDbLine
 10
-72.49999999999999
 20
-164.99645599999999
 11
72.50000000000006
 21
-164.99645599999999
  0
LINE
  5
B5
100
AcDbEntity
  8
1
  6
PHANTOM
 62
             2
100
AcDbLine
 10
0.00000000000001
 20
4.72854334598337
 11
0.00000000000004
 21
-176.25439798175299
  0
POINT
  5
B4
100
AcDbEntity
  8
LC-004-003-----0
 62
             7
100
AcDbPoint
 10
114.84899800000009
 20
48.00354400000003
  0
POINT
  5
B3
100
AcDbEntity
  8
LC-004-003-----0
 62
             7
100
AcDbPoint
 10
104.5000000000001
 20
0.0
  0
POINT
  5
B2
100
AcDbEntity
  8
LC-004-003-----0
 62
             7
100
AcDbPoint
 10
72.50000000000006
 20
-170.99645599999999
  0
POINT
  5
B1
100
AcDbEntity
  8
LC-004-003-----0
 62
             7
100
AcDbPoint
 10
104.5000000000001
 20
0.0
  0
POINT
  5
B0
100
AcDbEntity
  8
LC-004-003-----0
 62
             7
100
AcDbPoint
 10
104.5000000000001
 20
-104.99645599999999
  0
ENDBLK
  5
F5
100
AcDbEntity
  8
0
100
AcDbBlockEnd
  0
BLOCK
  5
F8
100
AcDbEntity
  8
0
100
AcDbBlockBegin
  2
*D2
 70
             1
 10
0.0
 20
0.0
 30
0.0
  3
*D2
  1

  0
LINE
  5
F9
100
AcDbEntity
  8
0
  6
CONTINUOUS
 62
             4
100
AcDbLine
 10
142.90376524622701
 20
0.0
 11
142.90376524622701
 21
48.00354400000003
  0
LINE
  5
FA
100
AcDbEntity
  8
0
  6
CONTINUOUS
 62
             4
100
AcDbLine
 10
114.84899800000005
 20
48.00354400000003
 11
144.90376524622701
 21
48.00354400000003
  0
LINE
  5
FB
100
AcDbEntity
  8
0
  6
CONTINUOUS
 62
             4
100
AcDbLine
 10
104.50000000000006
 20
0.0
 11
144.90376524622701
 21
0.0
  0
SOLID
  5
FC
100
AcDbEntity
  8
0
 62
             4
100
AcDbTrace
 10
141.98219776311524
 20
7.0
 11
143.82533272933878
 21
7.0
 12
142.90376524622701
 22
0.0
 13
142.90376524622701
 23
0.0
  0
SOLID
  5
FD
100
AcDbEntity
  8
0
 62
             4
100
AcDbTrace
 10
143.82533272933878
 20
41.00354400000003
 11
141.98219776311524
 21
41.00354400000003
 12
142.90376524622701
 22
48.00354400000003
 13
142.90376524622701
 23
48.00354400000003
  0
MTEXT
  5
FF
100
AcDbEntity
  8
0
 62
             1
100
AcDbMText
 10
140.90376524622701
 20
18.2924588028845
 30
0.0
 40
7.0
 41
0.0
 71
             7
 72
             1
  1
48
  7
CONVERTER_1
 11
0.0
 21
1.0
 31
0.0
  0
ENDBLK
  5
100
100
AcDbEntity
  8
0
100
AcDbBlockEnd
  0
BLOCK
  5
104
100
AcDbEntity
  8
0
100
AcDbBlockBegin
  2
*D3
 70
             1
 10
0.0
 20
0.0
 30
0.0
  3
*D3
  1

  0
LINE
  5
105
100
AcDbEntity
  8
0
  6
CONTINUOUS
 62
             4
100
AcDbLine
 10
-99.99999999999999
 20
16.0
 11
100.0
 21
16.0
  0
LINE
  5
106
100
AcDbEntity
  8
0
  6
CONTINUOUS
 62
             4
100
AcDbLine
 10
100.0
 20
6.0
 11
100.0
 21
18.0
  0
LINE
  5
107
100
AcDbEntity
  8
0
  6
CONTINUOUS
 62
             4
100
AcDbLine
 10
-99.99999999999999
 20
6.0
 11
-99.99999999999999
 21
18.0
  0
SOLID
  5
108
100
AcDbEntity
  8
0
 62
             4
100
AcDbTrace
 10
-92.99999999999999
 20
16.92156748311177
 11
-92.99999999999999
 21
15.07843251688823
 12
-99.99999999999999
 22
16.0
 13
-99.99999999999999
 23
16.0
  0
SOLID
  5
109
100
AcDbEntity
  8
0
 62
             4
100
AcDbTrace
 10
93.0
 20
15.07843251688823
 11
93.0
 21
16.92156748311177
 12
100.0
 22
16.0
 13
100.0
 23
16.0
  0
MTEXT
  5
10A
100
AcDbEntity
  8
0
 62
             1
100
AcDbMText
 10
-29.60799959238174
 20
17.99998608584735
 30
0.0
 40
7.0
 41
0.0
 71
             7
 72
             1
  1
\C1;Ø\C1;200
  7
CONVERTER_1
 11
0.99999999999706
 21
0.00000242406841
 31
0.0
  0
ENDBLK
  5
10B
100
AcDbEntity
  8
0
100
AcDbBlockEnd
  0
BLOCK
  5
10F
100
AcDbEntity
  8
0
100
AcDbBlockBegin
  2
*D4
 70
             1
 10
0.0
 20
0.0
 30
0.0
  3
*D4
  1

  0
LINE
  5
110
100
AcDbEntity
  8
0
  6
CONTINUOUS
 62
             4
100
AcDbLine
 10
-135.04107000000002
 20
-231.04366272853801
 11
134.96342500000006
 21
-231.04366272853801
  0
LINE
  5
111
100
AcDbEntity
  8
0
  6
CONTINUOUS
 62
             4
100
AcDbLine
 10
134.96342500000006
 20
-100.90821200000001
 11
134.96342500000006
 21
-233.04366272853801
  0
LINE
  5
112
100
AcDbEntity
  8
0
  6
CONTINUOUS
 62
             4
100
AcDbLine
 10
-135.04107000000002
 20
-101.1979900000001
 11
-135.04107000000002
 21
-233.04366272853801
  0
SOLID
  5
113
100
AcDbEntity
  8
0
 62
             4
100
AcDbTrace
 10
-128.04107000000002
 20
-230.12209524542624
 11
-128.04107000000002
 21
-231.96523021164978
 12
-135.04107000000002
 22
-231.04366272853801
 13
-135.04107000000002
 23
-231.04366272853801
  0
SOLID
  5
114
100
AcDbEntity
  8
0
 62
             4
100
AcDbTrace
 10
127.96342500000006
 20
-231.96523021164978
 11
127.96342500000006
 21
-230.12209524542624
 12
134.96342500000006
 22
-231.04366272853801
 13
134.96342500000006
 23
-231.04366272853801
  0
MTEXT
  5
115
100
AcDbEntity
  8
0
 62
             1
100
AcDbMText
 10
18.42155682975824
 20
-229.04367664269066
 30
0.0
 40
7.0
 41
0.0
 71
             7
 72
             1
  1
\C1;Ø\C1;270
  7
CONVERTER_1
 11
0.99999999999706
 21
0.00000242406841
 31
0.0
  0
ENDBLK
  5
116
100
AcDbEntity
  8
0
100
AcDbBlockEnd
  0
BLOCK
  5
11A
100
AcDbEntity
  8
0
100
AcDbBlockBegin
  2
*D5
 70
             1
 10
0.0
 20
0.0
 30
0.0
  3
*D5
  1

  0
LINE
  5
11B
100
AcDbEntity
  8
0
  6
CONTINUOUS
 62
             4
100
AcDbLine
 10
-121.49709199999999
 20
-215.919545069131
 11
121.49999999999999
 21
-215.919545069131
  0
LINE
  5
11C
100
AcDbEntity
  8
0
  6
CONTINUOUS
 62
             4
100
AcDbLine
 10
121.49999999999999
 20
-104.99645600000001
 11
121.49999999999999
 21
-217.919545069131
  0
LINE
  5
11D
100
AcDbEntity
  8
0
  6
CONTINUOUS
 62
             4
100
AcDbLine
 10
-121.49709199999999
 20
-104.80967099999991
 11
-121.49709199999999
 21
-217.919545069131
  0
SOLID
  5
11E
100
AcDbEntity
  8
0
 62
             4
100
AcDbTrace
 10
-114.49709199999999
 20
-214.99797758601923
 11
-114.49709199999999
 21
-216.84111255224278
 12
-121.49709199999999
 22
-215.919545069131
 13
-121.49709199999999
 23
-215.919545069131
  0
SOLID
  5
11F
100
AcDbEntity
  8
0
 62
             4
100
AcDbTrace
 10
114.49999999999999
 20
-216.84111255224278
 11
114.49999999999999
 21
-214.99797758601923
 12
121.49999999999999
 22
-215.919545069131
 13
121.49999999999999
 23
-215.919545069131
  0
MTEXT
  5
120
100
AcDbEntity
  8
0
 62
             1
100
AcDbMText
 10
-30.99307312295114
 20
-213.91955898328365
 30
0.0
 40
7.0
 41
0.0
 71
             7
 72
             1
  1
\C1;Ø\C1;243
  7
CONVERTER_1
 11
0.99999999999706
 21
0.00000242406841
 31
0.0
  0
ENDBLK
  5
121
100
AcDbEntity
  8
0
100
AcDbBlockEnd
  0
BLOCK
  5
125
100
AcDbEntity
  8
0
100
AcDbBlockBegin
  2
*D6
 70
             1
 10
0.0
 20
0.0
 30
0.0
  3
*D6
  1

  0
LINE
  5
126
100
AcDbEntity
  8
0
  6
CONTINUOUS
 62
             4
100
AcDbLine
 10
-78.50000000000003
 20
-202.418809763437
 11
78.50000000000006
 21
-202.418809763437
  0
LINE
  5
127
100
AcDbEntity
  8
0
  6
CONTINUOUS
 62
             4
100
AcDbLine
 10
78.50000000000006
 20
-164.99645600000002
 11
78.50000000000006
 21
-204.418809763437
  0
LINE
  5
128
100
AcDbEntity
  8
0
  6
CONTINUOUS
 62
             4
100
AcDbLine
 10
-78.50000000000003
 20
-164.99645600000002
 11
-78.50000000000003
 21
-204.418809763437
  0
SOLID
  5
129
100
AcDbEntity
  8
0
 62
             4
100
AcDbTrace
 10
-71.50000000000003
 20
-201.49724228032522
 11
-71.50000000000003
 21
-203.34037724654877
 12
-78.50000000000003
 22
-202.418809763437
 13
-78.50000000000003
 23
-202.418809763437
  0
SOLID
  5
12A
100
AcDbEntity
  8
0
 62
             4
100
AcDbTrace
 10
71.50000000000006
 20
-203.34037724654877
 11
71.50000000000006
 21
-201.49724228032522
 12
78.50000000000006
 22
-202.418809763437
 13
78.50000000000006
 23
-202.418809763437
  0
MTEXT
  5
12B
100
AcDbEntity
  8
0
 62
             1
100
AcDbMText
 10
16.30628751657023
 20
-200.41882367758964
 30
0.0
 40
7.0
 41
0.0
 71
             7
 72
             1
  1
\C1;Ø\C1;157
  7
CONVERTER_1
 11
0.99999999999706
 21
0.00000242406841
 31
0.0
  0
ENDBLK
  5
12C
100
AcDbEntity
  8
0
100
AcDbBlockEnd
  0
BLOCK
  5
130
100
AcDbEntity
  8
0
100
AcDbBlockBegin
  2
*D7
 70
             1
 10
0.0
 20
0.0
 30
0.0
  3
*D7
  1

  0
LINE
  5
131
100
AcDbEntity
  8
0
  6
CONTINUOUS
 62
             4
100
AcDbLine
 10
-64.99999999999997
 20
-189.14145681145601
 11
65.00000000000001
 21
-189.14145681145601
  0
LINE
  5
132
100
AcDbEntity
  8
0
  6
CONTINUOUS
 62
             4
100
AcDbLine
 10
65.00000000000001
 20
-176.99645600000002
 11
65.00000000000001
 21
-191.14145681145601
  0
LINE
  5
133
100
AcDbEntity
  8
0
  6
CONTINUOUS
 62
             4
100
AcDbLine
 10
-64.99999999999997
 20
-176.99645600000002
 11
-64.99999999999997
 21
-191.14145681145601
  0
SOLID
  5
134
100
AcDbEntity
  8
0
 62
             4
100
AcDbTrace
 10
-57.99999999999997
 20
-188.21988932834424
 11
-57.99999999999997
 21
-190.06302429456778
 12
-64.99999999999997
 22
-189.14145681145601
 13
-64.99999999999997
 23
-189.14145681145601
  0
SOLID
  5
135
100
AcDbEntity
  8
0
 62
             4
100
AcDbTrace
 10
58.00000000000001
 20
-190.06302429456778
 11
58.00000000000001
 21
-188.21988932834424
 12
65.00000000000001
 22
-189.14145681145601
 13
65.00000000000001
 23
-189.14145681145601
  0
MTEXT
  5
136
100
AcDbEntity
  8
0
 62
             1
100
AcDbMText
 10
-31.32814665352054
 20
-187.14147072560866
 30
0.0
 40
7.0
 41
0.0
 71
             7
 72
             1
  1
\C1;Ø\C1;130
  7
CONVERTER_1
 11
0.99999999999706
 21
0.00000242406841
 31
0.0
  0
ENDBLK
  5
137
100
AcDbEntity
  8
0
100
AcDbBlockEnd
  0
BLOCK
  5
13B
100
AcDbEntity
  8
0
100
AcDbBlockBegin
  2
*D8
 70
             1
 10
0.0
 20
0.0
 30
0.0
  3
*D8
  1

  0
LINE
  5
13C
100
AcDbEntity
  8
0
  6
CONTINUOUS
 62
             4
100
AcDbLine
 10
162.101265259347
 20
0.0
 11
162.101265259347
 21
-104.99645600000002
  0
LINE
  5
13D
100
AcDbEntity
  8
0
  6
CONTINUOUS
 62
             4
100
AcDbLine
 10
121.50000000000006
 20
-104.99645600000002
 11
164.101265259347
 21
-104.99645600000002
  0
LINE
  5
13E
100
AcDbEntity
  8
0
  6
CONTINUOUS
 62
             4
100
AcDbLine
 10
104.50000000000006
 20
0.0
 11
164.101265259347
 21
0.0
  0
SOLID
  5
13F
100
AcDbEntity
  8
0
 62
             4
100
AcDbTrace
 10
163.02283274245877
 20
-7.0
 11
161.17969777623523
 21
-7.0
 12
162.101265259347
 22
0.0
 13
162.101265259347
 23
0.0
  0
SOLID
  5
140
100
AcDbEntity
  8
0
 62
             4
100
AcDbTrace
 10
161.17969777623523
 20
-97.99645600000002
 11
163.02283274245877
 21
-97.99645600000002
 12
162.101265259347
 22
-104.99645600000002
 13
162.101265259347
 23
-104.99645600000002
  0
MTEXT
  5
141
100
AcDbEntity
  8
0
 62
             1
100
AcDbMText
 10
160.101265259347
 20
-59.98658537843299
 30
0.0
 40
7.0
 41
0.0
 71
             7
 72
             1
  1
105
  7
CONVERTER_1
 11
0.0
 21
1.0
 31
0.0
  0
ENDBLK
  5
142
100
AcDbEntity
  8
0
100
AcDbBlockEnd
  0
BLOCK
  5
146
100
AcDbEntity
  8
0
100
AcDbBlockBegin
  2
*D9
 70
             1
 10
0.0
 20
0.0
 30
0.0
  3
*D9
  1

  0
LINE
  5
147
100
AcDbEntity
  8
0
  6
CONTINUOUS
 62
             4
100
AcDbLine
 10
178.81891233360599
 20
0.0
 11
178.81891233360599
 21
-170.99645600000002
  0
LINE
  5
148
100
AcDbEntity
  8
0
  6
CONTINUOUS
 62
             4
100
AcDbLine
 10
72.5000000000001
 20
-170.99645600000002
 11
180.81891233360599
 21
-170.99645600000002
  0
LINE
  5
149
100
AcDbEntity
  8
0
  6
CONTINUOUS
 62
             4
100
AcDbLine
 10
104.50000000000006
 20
0.0
 11
180.81891233360599
 21
0.0
  0
SOLID
  5
14A
100
AcDbEntity
  8
0
 62
             4
100
AcDbTrace
 10
179.74047981671777
 20
-7.0
 11
177.89734485049422
 21
-7.0
 12
178.81891233360599
 22
0.0
 13
178.81891233360599
 23
0.0
  0
SOLID
  5
14B
100
AcDbEntity
  8
0
 62
             4
100
AcDbTrace
 10
177.89734485049422
 20
-163.99645600000002
 11
179.74047981671777
 21
-163.99645600000002
 12
178.81891233360599
 22
-170.99645600000002
 13
178.81891233360599
 23
-170.99645600000002
  0
MTEXT
  5
14C
100
AcDbEntity
  8
0
 62
             1
100
AcDbMText
 10
176.81891233360599
 20
-103.60520673929639
 30
0.0
 40
7.0
 41
0.0
 71
             7
 72
             1
  1
171
  7
CONVERTER_1
 11
0.0
 21
1.0
 31
0.0
  0
ENDBLK
  5
14D
100
AcDbEntity
  8
0
100
AcDbBlockEnd
  0
ENDSEC
  0
SECTION
  2
ENTITIES
  0
DIMENSION
  5
14F
100
AcDbEntity
  8
1
100
AcDbDimension
  2
*D9
 10
178.81891233360599
 20
0.0
 11
173.31891233360599
 21
-97.3052067392964
 31
0.0
 53
-89.99999999999999
  1
<>
  3
ME10_DIM_7
100
AcDbAlignedDimension
 13
72.50000000000006
 23
-170.99645599999999
 14
104.5000000000001
 24
0.0
 50
-89.99999999999999
100
AcDbRotatedDimension
  0
DIMENSION
  5
144
100
AcDbEntity
  8
1
100
AcDbDimension
  2
*D8
 10
162.101265259347
 20
0.0
 11
156.601265259347
 21
-52.63658537843299
 31
0.0
 53
-89.99999999999999
  1
<>
  3
ME10_DIM_6
100
AcDbAlignedDimension
 13
121.5000000000001
 23
-104.99645599999999
 14
104.5000000000001
 24
0.0
 50
-89.99999999999999
100
AcDbRotatedDimension
  0
DIMENSION
  5
139
100
AcDbEntity
  8
1
100
AcDbDimension
  2
*D7
 10
-64.99999999999997
 20
-189.14145681145601
 11
-22.4381466535374
 21
-183.64145681145601
 31
0.0
 53
0.00013888888889
  1
<>
  3
ME10_DIM_5
100
AcDbAlignedDimension
 13
65.00000000000001
 23
-176.99645599999999
 14
-64.99999999999999
 24
-176.99645599999999
100
AcDbRotatedDimension
  0
DIMENSION
  5
12E
100
AcDbEntity
  8
1
100
AcDbDimension
  2
*D6
 10
-78.50000000000003
 20
-202.418809763437
 11
25.19628751655337
 21
-196.918809763437
 31
0.0
 53
0.00013888888889
  1
<>
  3
ME10_DIM_4
100
AcDbAlignedDimension
 13
78.50000000000006
 23
-164.99645599999999
 14
-78.49999999999999
 24
-164.99645599999999
100
AcDbRotatedDimension
  0
DIMENSION
  5
123
100
AcDbEntity
  8
1
100
AcDbDimension
  2
*D5
 10
-121.49709199999999
 20
-215.919545069131
 11
-21.053073122968
 21
-210.419545069131
 31
0.0
 53
0.00013888888889
  1
<>
  3
ME10_DIM_3
100
AcDbAlignedDimension
 13
121.5000000000001
 23
-104.99645599999999
 14
-121.49709199999999
 24
-104.8096709999999
100
AcDbRotatedDimension
  0
DIMENSION
  5
118
100
AcDbEntity
  8
1
100
AcDbDimension
  2
*D4
 10
-135.04107000000002
 20
-231.04366272853801
 11
28.36155682974137
 21
-225.54366272853801
 31
0.0
 53
0.00013888888889
  1
<>
  3
ME10_DIM_2
100
AcDbAlignedDimension
 13
134.963425
 23
-100.90821200000001
 14
-135.04106999999999
 24
-101.1979900000001
100
AcDbRotatedDimension
  0
DIMENSION
  5
10D
100
AcDbEntity
  8
1
100
AcDbDimension
  2
*D3
 10
-99.99999999999999
 20
16.0
 11
-19.6679995923986
 21
21.5
 31
0.0
 53
0.00013888888889
  1
<>
  3
ME10_DIM_1
100
AcDbAlignedDimension
 13
100.0
 23
6.0
 14
-99.99999999999999
 24
6.0
100
AcDbRotatedDimension
  0
DIMENSION
  5
102
100
AcDbEntity
  8
1
100
AcDbDimension
  2
*D2
 10
142.90376524622701
 20
0.0
 11
137.40376524622701
 21
23.5424588028845
 31
0.0
 53
-89.99999999999999
  1
<>
  3
ME10_DIM_0
100
AcDbAlignedDimension
 13
114.84899800000009
 23
48.00354400000003
 14
104.5000000000001
 24
0.0
 50
-89.99999999999999
100
AcDbRotatedDimension
  0
INSERT
  5
2E
100
AcDbEntity
  8
1
100
AcDbBlockReference
  2
HL_860_BRANDSCHUTZELEMT__1
 10
244.43363299999999
 20
-255.67075500000001
  0
INSERT
  5
2F
100
AcDbEntity
  8
1
100
AcDbBlockReference
  2
HL_860_BRANDSCHUTZELEMT__2
 10
-217.57363899999999
 20
-176.99645599999999
  0
ENDSEC
  0
SECTION
  2
OBJECTS
  0
DICTIONARY
  5
19
100
AcDbDictionary
  3
ACAD_GROUP
350
1A
  3
ACAD_MLINESTYLE
350
1B
  0
DICTIONARY
  5
1A
102
{ACAD_REACTORS
330
19
102
}
100
AcDbDictionary
  0
DICTIONARY
  5
1B
102
{ACAD_REACTORS
330
19
102
}
100
AcDbDictionary
  3
STANDARD
350
1C
  0
MLINESTYLE
  5
1C
102
{ACAD_REACTORS
330
1B
102
}
100
AcDbMlineStyle
  2
STANDARD
 70
             0
  3

 62
             0
 51
90.0
 52
90.0
 71
             2
 49
0.5
 62
           256
  6
BYLAYER
 49
-0.5
 62
           256
  6
BYLAYER
  0
ENDSEC
  0
EOF
