  0
SECTION
  2
HEADER
  9
$ACADVER
  1
AC1015
  9
$ACADMAINTVER
 70
     6
  9
$DWGCODEPAGE
  3
ANSI_1252
  9
$INSBASE
 10
0.0
 20
0.0
 30
0.0
  9
$EXTMIN
 10
-32.5305547184937
 20
-395.434014375805
 30
0.0
  9
$EXTMAX
 10
100.2209442795644
 20
18.02752917128452
 30
0.0
  9
$LIMMIN
 10
0.0
 20
0.0
  9
$LIMMAX
 10
12.0
 20
9.0
  9
$ORTHOMODE
 70
     0
  9
$REGENMODE
 70
     1
  9
$FILLMODE
 70
     1
  9
$QTEXTMODE
 70
     0
  9
$MIRRTEXT
 70
     1
  9
$LTSCALE
 40
1.0
  9
$ATTMODE
 70
     1
  9
$TEXTSIZE
 40
0.2
  9
$TRACEWID
 40
0.05
  9
$TEXTSTYLE
  7
Standard
  9
$CLAYER
  8
0
  9
$CELTYPE
  6
ByLayer
  9
$CECOLOR
 62
   256
  9
$CELTSCALE
 40
1.0
  9
$DISPSILH
 70
     0
  9
$DIMSCALE
 40
1.0
  9
$DIMASZ
 40
0.18
  9
$DIMEXO
 40
0.0625
  9
$DIMDLI
 40
0.38
  9
$DIMRND
 40
0.0
  9
$DIMDLE
 40
0.0
  9
$DIMEXE
 40
0.18
  9
$DIMTP
 40
0.0
  9
$DIMTM
 40
0.0
  9
$DIMTXT
 40
0.18
  9
$DIMCEN
 40
0.09
  9
$DIMTSZ
 40
0.0
  9
$DIMTOL
 70
     0
  9
$DIMLIM
 70
     0
  9
$DIMTIH
 70
     1
  9
$DIMTOH
 70
     1
  9
$DIMSE1
 70
     0
  9
$DIMSE2
 70
     0
  9
$DIMTAD
 70
     0
  9
$DIMZIN
 70
     0
  9
$DIMBLK
  1

  9
$DIMASO
 70
     1
  9
$DIMSHO
 70
     1
  9
$DIMPOST
  1

  9
$DIMAPOST
  1

  9
$DIMALT
 70
     0
  9
$DIMALTD
 70
     2
  9
$DIMALTF
 40
25.4
  9
$DIMLFAC
 40
1.0
  9
$DIMTOFL
 70
     0
  9
$DIMTVP
 40
0.0
  9
$DIMTIX
 70
     0
  9
$DIMSOXD
 70
     0
  9
$DIMSAH
 70
     0
  9
$DIMBLK1
  1

  9
$DIMBLK2
  1

  9
$DIMSTYLE
  2
Standard
  9
$DIMCLRD
 70
     0
  9
$DIMCLRE
 70
     0
  9
$DIMCLRT
 70
     0
  9
$DIMTFAC
 40
1.0
  9
$DIMGAP
 40
0.09
  9
$DIMJUST
 70
     0
  9
$DIMSD1
 70
     0
  9
$DIMSD2
 70
     0
  9
$DIMTOLJ
 70
     1
  9
$DIMTZIN
 70
     0
  9
$DIMALTZ
 70
     0
  9
$DIMALTTZ
 70
     0
  9
$DIMUPT
 70
     0
  9
$DIMDEC
 70
     4
  9
$DIMTDEC
 70
     4
  9
$DIMALTU
 70
     2
  9
$DIMALTTD
 70
     2
  9
$DIMTXSTY
  7
Standard
  9
$DIMAUNIT
 70
     0
  9
$DIMADEC
 70
     0
  9
$DIMALTRND
 40
0.0
  9
$DIMAZIN
 70
     0
  9
$DIMDSEP
 70
    46
  9
$DIMATFIT
 70
     3
  9
$DIMFRAC
 70
     0
  9
$DIMLDRBLK
  1

  9
$DIMLUNIT
 70
     2
  9
$DIMLWD
 70
    -2
  9
$DIMLWE
 70
    -2
  9
$DIMTMOVE
 70
     0
  9
$LUNITS
 70
     2
  9
$LUPREC
 70
     4
  9
$SKETCHINC
 40
0.1
  9
$FILLETRAD
 40
0.5
  9
$AUNITS
 70
     0
  9
$AUPREC
 70
     0
  9
$MENU
  1
.
  9
$ELEVATION
 40
0.0
  9
$PELEVATION
 40
0.0
  9
$THICKNESS
 40
0.0
  9
$LIMCHECK
 70
     0
  9
$CHAMFERA
 40
0.5
  9
$CHAMFERB
 40
0.5
  9
$CHAMFERC
 40
1.0
  9
$CHAMFERD
 40
0.0
  9
$SKPOLY
 70
     0
  9
$TDCREATE
 40
2454819.328215671
  9
$TDUCREATE
 40
2454819.286549005
  9
$TDUPDATE
 40
2454819.328215683
  9
$TDUUPDATE
 40
2454819.286549016
  9
$TDINDWG
 40
0.0000000116
  9
$TDUSRTIMER
 40
0.0000000116
  9
$USRTIMER
 70
     1
  9
$ANGBASE
 50
0.0
  9
$ANGDIR
 70
     0
  9
$PDMODE
 70
     0
  9
$PDSIZE
 40
0.0
  9
$PLINEWID
 40
0.0
  9
$SPLFRAME
 70
     0
  9
$SPLINETYPE
 70
     6
  9
$SPLINESEGS
 70
     8
  9
$HANDSEED
  5
2C8
  9
$SURFTAB1
 70
     6
  9
$SURFTAB2
 70
     6
  9
$SURFTYPE
 70
     6
  9
$SURFU
 70
     6
  9
$SURFV
 70
     6
  9
$UCSBASE
  2

  9
$UCSNAME
  2

  9
$UCSORG
 10
0.0
 20
0.0
 30
0.0
  9
$UCSXDIR
 10
1.0
 20
0.0
 30
0.0
  9
$UCSYDIR
 10
0.0
 20
1.0
 30
0.0
  9
$UCSORTHOREF
  2

  9
$UCSORTHOVIEW
 70
     0
  9
$UCSORGTOP
 10
0.0
 20
0.0
 30
0.0
  9
$UCSORGBOTTOM
 10
0.0
 20
0.0
 30
0.0
  9
$UCSORGLEFT
 10
0.0
 20
0.0
 30
0.0
  9
$UCSORGRIGHT
 10
0.0
 20
0.0
 30
0.0
  9
$UCSORGFRONT
 10
0.0
 20
0.0
 30
0.0
  9
$UCSORGBACK
 10
0.0
 20
0.0
 30
0.0
  9
$PUCSBASE
  2

  9
$PUCSNAME
  2

  9
$PUCSORG
 10
0.0
 20
0.0
 30
0.0
  9
$PUCSXDIR
 10
1.0
 20
0.0
 30
0.0
  9
$PUCSYDIR
 10
0.0
 20
1.0
 30
0.0
  9
$PUCSORTHOREF
  2

  9
$PUCSORTHOVIEW
 70
     0
  9
$PUCSORGTOP
 10
0.0
 20
0.0
 30
0.0
  9
$PUCSORGBOTTOM
 10
0.0
 20
0.0
 30
0.0
  9
$PUCSORGLEFT
 10
0.0
 20
0.0
 30
0.0
  9
$PUCSORGRIGHT
 10
0.0
 20
0.0
 30
0.0
  9
$PUCSORGFRONT
 10
0.0
 20
0.0
 30
0.0
  9
$PUCSORGBACK
 10
0.0
 20
0.0
 30
0.0
  9
$USERI1
 70
     0
  9
$USERI2
 70
     0
  9
$USERI3
 70
     0
  9
$USERI4
 70
     0
  9
$USERI5
 70
     0
  9
$USERR1
 40
15.5
  9
$USERR2
 40
0.0
  9
$USERR3
 40
0.0
  9
$USERR4
 40
0.0
  9
$USERR5
 40
0.0
  9
$WORLDVIEW
 70
     1
  9
$SHADEDGE
 70
     3
  9
$SHADEDIF
 70
    70
  9
$TILEMODE
 70
     1
  9
$MAXACTVP
 70
    64
  9
$PINSBASE
 10
0.0
 20
0.0
 30
0.0
  9
$PLIMCHECK
 70
     0
  9
$PEXTMIN
 10
1.00000000000000E+20
 20
1.00000000000000E+20
 30
1.00000000000000E+20
  9
$PEXTMAX
 10
-1.00000000000000E+20
 20
-1.00000000000000E+20
 30
-1.00000000000000E+20
  9
$PLIMMIN
 10
0.0
 20
0.0
  9
$PLIMMAX
 10
12.0
 20
9.0
  9
$UNITMODE
 70
     0
  9
$VISRETAIN
 70
     1
  9
$PLINEGEN
 70
     0
  9
$PSLTSCALE
 70
     1
  9
$TREEDEPTH
 70
  3020
  9
$CMLSTYLE
  2
Standard
  9
$CMLJUST
 70
     0
  9
$CMLSCALE
 40
1.0
  9
$PROXYGRAPHICS
 70
     1
  9
$MEASUREMENT
 70
     1
  9
$CELWEIGHT
370
    -1
  9
$ENDCAPS
280
     0
  9
$JOINSTYLE
280
     0
  9
$LWDISPLAY
290
     0
  9
$INSUNITS
 70
     1
  9
$HYPERLINKBASE
  1

  9
$STYLESHEET
  1

  9
$XEDIT
290
     1
  9
$CEPSNTYPE
380
     0
  9
$PSTYLEMODE
290
     1
  9
$FINGERPRINTGUID
  2
{EC4B9B31-030B-4FEB-A13C-23B98001EAE4}
  9
$VERSIONGUID
  2
{FAEB1C32-E019-11D5-929B-00C0DF256EC4}
  9
$EXTNAMES
290
     1
  9
$PSVPSCALE
 40
0.0
  9
$OLESTARTUP
290
     0
  0
ENDSEC
  0
SECTION
  2
CLASSES
  0
CLASS
  1
ACDBDICTIONARYWDFLT
  2
AcDbDictionaryWithDefault
  3
ObjectDBX Classes
 90
        0
280
     0
281
     0
  0
CLASS
  1
VISUALSTYLE
  2
AcDbVisualStyle
  3
ObjectDBX Classes
 90
     4095
280
     0
281
     0
  0
CLASS
  1

  2
exOdDbCircle
  3

 90
        0
280
     0
281
     1
  0
CLASS
  1

  2
exOdDbSpline
  3

 90
        0
280
     0
281
     1
  0
CLASS
  1
ACDBPLACEHOLDER
  2
AcDbPlaceHolder
  3
ObjectDBX Classes
 90
        0
280
     0
281
     0
  0
CLASS
  1
LAYOUT
  2
AcDbLayout
  3
ObjectDBX Classes
 90
        0
280
     0
281
     0
  0
ENDSEC
  0
SECTION
  2
TABLES
  0
TABLE
  2
VPORT
  5
8
330
0
100
AcDbSymbolTable
 70
     1
  0
VPORT
  5
29
330
8
100
AcDbSymbolTableRecord
100
AcDbViewportTableRecord
  2
*Active
 70
     0
 10
0.0
 20
0.0
 11
1.0
 21
1.0
 12
33.84519478053535
 22
-188.7032426022602
 13
0.0
 23
0.0
 14
0.5
 24
0.5
 15
0.5
 25
0.5
 16
0.0
 26
0.0
 36
1.0
 17
0.0
 27
0.0
 37
0.0
 40
454.8076979017985
 41
1.60267857142857
 42
50.0
 43
0.0
 44
0.0
 50
0.0
 51
0.0
 71
     0
 72
   100
 73
     1
 74
     3
 75
     0
 76
     0
 77
     0
 78
     0
281
     0
 65
     1
110
0.0
120
0.0
130
0.0
111
1.0
121
0.0
131
0.0
112
0.0
122
1.0
132
0.0
 79
     0
146
0.0
  0
ENDTAB
  0
TABLE
  2
LTYPE
  5
5
330
0
100
AcDbSymbolTable
 70
     8
  0
LTYPE
  5
14
330
5
100
AcDbSymbolTableRecord
100
AcDbLinetypeTableRecord
  2
ByBlock
 70
     0
  3

 72
    65
 73
     0
 40
0.0
  0
LTYPE
  5
15
330
5
100
AcDbSymbolTableRecord
100
AcDbLinetypeTableRecord
  2
ByLayer
 70
     0
  3

 72
    65
 73
     0
 40
0.0
  0
LTYPE
  5
16
330
5
100
AcDbSymbolTableRecord
100
AcDbLinetypeTableRecord
  2
Continuous
 70
     0
  3
Solid line
 72
    65
 73
     0
 40
0.0
  0
LTYPE
  5
3B
330
5
100
AcDbSymbolTableRecord
100
AcDbLinetypeTableRecord
  2
DASHED
 70
     0
  3
Dashed
 72
    65
 73
     2
 40
15.0
 49
7.0
 74
     0
 49
-8.0
 74
     0
  0
LTYPE
  5
3C
330
5
100
AcDbSymbolTableRecord
100
AcDbLinetypeTableRecord
  2
DOTTED
 70
     0
  3
Dotted
 72
    65
 73
     2
 40
1.0
 49
0.0
 74
     0
 49
-1.0
 74
     0
  0
LTYPE
  5
3D
330
5
100
AcDbSymbolTableRecord
100
AcDbLinetypeTableRecord
  2
DOT_CENTER
 70
     0
  3
Dot_Center
 72
    65
 73
     4
 40
14.0
 49
12.0
 74
     0
 49
-1.0
 74
     0
 49
0.0
 74
     0
 49
-1.0
 74
     0
  0
LTYPE
  5
3E
330
5
100
AcDbSymbolTableRecord
100
AcDbLinetypeTableRecord
  2
LONG_DASHED
 70
     0
  3
Long_Dashed
 72
    65
 73
     2
 40
15.0
 49
10.0
 74
     0
 49
-5.0
 74
     0
  0
LTYPE
  5
3F
330
5
100
AcDbSymbolTableRecord
100
AcDbLinetypeTableRecord
  2
DASH_CENTER
 70
     0
  3
Dash_Center
 72
    65
 73
     4
 40
14.0
 49
11.0
 74
     0
 49
-1.0
 74
     0
 49
1.0
 74
     0
 49
-1.0
 74
     0
  0
LTYPE
  5
40
330
5
100
AcDbSymbolTableRecord
100
AcDbLinetypeTableRecord
  2
PHANTOM
 70
     0
  3
Phantom
 72
    65
 73
     6
 40
13.0
 49
10.0
 74
     0
 49
-1.0
 74
     0
 49
0.0
 74
     0
 49
-1.0
 74
     0
 49
0.0
 74
     0
 49
-1.0
 74
     0
  0
LTYPE
  5
41
330
5
100
AcDbSymbolTableRecord
100
AcDbLinetypeTableRecord
  2
CENTER_DASH_DASH
 70
     0
  3
Center_Dash_Dash
 72
    65
 73
     6
 40
14.0
 49
9.0
 74
     0
 49
-1.0
 74
     0
 49
1.0
 74
     0
 49
-1.0
 74
     0
 49
1.0
 74
     0
 49
-1.0
 74
     0
  0
ENDTAB
  0
TABLE
  2
LAYER
  5
2
330
0
100
AcDbSymbolTable
 70
     2
  0
LAYER
  5
10
330
2
100
AcDbSymbolTableRecord
100
AcDbLayerTableRecord
  2
0
 70
     0
 62
     7
  6
Continuous
370
    -3
390
F
  0
LAYER
  5
42
330
2
100
AcDbSymbolTableRecord
100
AcDbLayerTableRecord
  2
1
 70
     0
 62
     7
  6
Continuous
370
    -3
390
F
  0
ENDTAB
  0
TABLE
  2
STYLE
  5
3
330
0
100
AcDbSymbolTable
 70
     3
  0
STYLE
  5
11
330
3
100
AcDbSymbolTableRecord
100
AcDbTextStyleTableRecord
  2
Standard
 70
     0
 40
0.0
 41
1.0
 50
0.0
 71
     0
 42
0.2
  3
txt
  4

  0
STYLE
  5
F1
330
3
100
AcDbSymbolTableRecord
100
AcDbTextStyleTableRecord
  2
CONVERTER_11
 70
     0
 40
0.0
 41
0.9
 50
0.0
 71
     0
 42
0.2
  3
txt.shx
  4

  0
STYLE
  5
2C3
330
3
100
AcDbSymbolTableRecord
100
AcDbTextStyleTableRecord
  2
CONVERTER_12
 70
     0
 40
0.0
 41
0.95
 50
0.0
 71
     0
 42
0.2
  3
simplex.shx
  4

  0
ENDTAB
  0
TABLE
  2
VIEW
  5
6
330
0
100
AcDbSymbolTable
 70
     0
  0
ENDTAB
  0
TABLE
  2
UCS
  5
7
330
0
100
AcDbSymbolTable
 70
     0
  0
ENDTAB
  0
TABLE
  2
APPID
  5
9
330
0
100
AcDbSymbolTable
 70
     1
  0
APPID
  5
12
330
9
100
AcDbSymbolTableRecord
100
AcDbRegAppTableRecord
  2
ACAD
 70
     0
  0
ENDTAB
  0
TABLE
  2
DIMSTYLE
  5
A
330
0
100
AcDbSymbolTable
 70
    13
100
AcDbDimStyleTable
  0
DIMSTYLE
105
27
330
A
100
AcDbSymbolTableRecord
100
AcDbDimStyleTableRecord
  2
Standard
 70
     0
340
11
  0
DIMSTYLE
105
F5
102
{ACAD_REACTORS
330
F6
102
}
330
A
100
AcDbSymbolTableRecord
100
AcDbDimStyleTableRecord
  2
ME10_DIM_10
 70
     0
 41
7.0
 42
0.0
 44
2.0
 73
     0
 74
     0
 77
     1
 78
     8
140
7.0
147
2.0
172
     1
173
     1
176
     4
177
     4
178
     1
271
     2
340
F1
  0
DIMSTYLE
105
100
102
{ACAD_REACTORS
330
101
102
}
330
A
100
AcDbSymbolTableRecord
100
AcDbDimStyleTableRecord
  2
ME10_DIM_11
 70
     0
 41
7.0
 42
0.0
 44
2.0
 73
     0
 74
     0
 77
     1
 78
     8
140
7.0
147
2.0
172
     1
173
     1
176
     4
177
     4
178
     1
271
     2
340
F1
  0
DIMSTYLE
105
24D
102
{ACAD_REACTORS
330
24E
102
}
330
A
100
AcDbSymbolTableRecord
100
AcDbDimStyleTableRecord
  2
ME10_DIM_12
 70
     0
 41
7.0
 42
0.0
 44
2.0
 73
     0
 74
     0
 77
     1
 78
     8
140
7.0
147
2.0
172
     1
173
     1
176
     4
177
     4
178
     1
271
     2
340
F1
  0
DIMSTYLE
105
258
102
{ACAD_REACTORS
330
259
102
}
330
A
100
AcDbSymbolTableRecord
100
AcDbDimStyleTableRecord
  2
ME10_DIM_13
 70
     0
 41
7.0
 42
0.0
 44
2.0
 73
     0
 74
     0
 77
     1
 78
     8
140
7.0
147
2.0
172
     1
173
     1
176
     4
177
     4
178
     1
271
     2
340
F1
  0
DIMSTYLE
105
264
102
{ACAD_REACTORS
330
265
102
}
330
A
100
AcDbSymbolTableRecord
100
AcDbDimStyleTableRecord
  2
ME10_DIM_14
 70
     0
  3
DN<>
 41
7.0
 42
0.0
 44
2.0
 73
     0
 74
     0
 77
     1
 78
     8
140
7.0
147
2.0
172
     1
173
     1
176
     4
177
     4
178
     1
271
     2
340
F1
  0
DIMSTYLE
105
270
102
{ACAD_REACTORS
330
271
102
}
330
A
100
AcDbSymbolTableRecord
100
AcDbDimStyleTableRecord
  2
ME10_DIM_15
 70
     0
  3
R<>
 41
7.0
 42
0.0
 44
2.0
 73
     0
 74
     0
 77
     1
 78
     8
140
7.0
147
2.0
172
     1
173
     1
176
     4
177
     4
178
     1
271
     2
340
F1
  0
DIMSTYLE
105
27B
102
{ACAD_REACTORS
330
27C
102
}
330
A
100
AcDbSymbolTableRecord
100
AcDbDimStyleTableRecord
  2
ME10_DIM_16
 70
     0
 41
7.0
 42
0.0
 44
2.0
 73
     0
 74
     0
 77
     1
 78
     8
140
7.0
147
2.0
172
     1
173
     1
176
     4
177
     4
178
     1
271
     2
340
F1
  0
DIMSTYLE
105
287
102
{ACAD_REACTORS
330
288
102
}
330
A
100
AcDbSymbolTableRecord
100
AcDbDimStyleTableRecord
  2
ME10_DIM_17
 70
     0
  3
DN<>
 41
7.0
 42
0.0
 44
2.0
 73
     0
 74
     0
 77
     1
 78
     8
140
7.0
147
2.0
172
     1
173
     1
176
     4
177
     4
178
     1
271
     2
340
F1
  0
DIMSTYLE
105
293
102
{ACAD_REACTORS
330
294
102
}
330
A
100
AcDbSymbolTableRecord
100
AcDbDimStyleTableRecord
  2
ME10_DIM_18
 70
     0
  3
DN<>
 41
7.0
 42
0.0
 44
2.0
 73
     0
 74
     0
 77
     1
 78
     8
140
7.0
147
2.0
172
     1
173
     1
176
     4
177
     4
178
     1
271
     2
340
F1
  0
DIMSTYLE
105
29F
102
{ACAD_REACTORS
330
2A0
102
}
330
A
100
AcDbSymbolTableRecord
100
AcDbDimStyleTableRecord
  2
ME10_DIM_19
 70
     0
  3
DN<>
 41
7.0
 42
0.0
 44
2.0
 73
     0
 74
     0
 77
     1
 78
     8
140
7.0
147
2.0
172
     1
173
     1
176
     4
177
     4
178
     1
271
     2
340
F1
  0
DIMSTYLE
105
2AA
102
{ACAD_REACTORS
330
2AB
102
}
330
A
100
AcDbSymbolTableRecord
100
AcDbDimStyleTableRecord
  2
ME10_DIM_20
 70
     0
 41
7.0
 42
0.0
 44
2.0
 73
     0
 74
     0
 77
     1
 78
     8
140
7.0
147
2.0
172
     1
173
     1
176
     4
177
     4
178
     1
271
     2
340
F1
  0
DIMSTYLE
105
2B5
102
{ACAD_REACTORS
330
2B6
102
}
330
A
100
AcDbSymbolTableRecord
100
AcDbDimStyleTableRecord
  2
ME10_DIM_21
 70
     0
 41
7.0
 42
0.0
 44
2.0
 73
     0
 74
     0
 77
     1
 78
     8
140
7.0
147
2.0
172
     1
173
     1
176
     4
177
     4
178
     1
271
     2
340
F1
  0
ENDTAB
  0
TABLE
  2
BLOCK_RECORD
  5
1
330
0
100
AcDbSymbolTable
 70
    28
  0
BLOCK_RECORD
  5
1F
330
1
100
AcDbSymbolTableRecord
100
AcDbBlockTableRecord
  2
*Model_Space
340
22
  0
BLOCK_RECORD
  5
1B
330
1
100
AcDbSymbolTableRecord
100
AcDbBlockTableRecord
  2
*Paper_Space
340
1E
  0
BLOCK_RECORD
  5
23
330
1
100
AcDbSymbolTableRecord
100
AcDbBlockTableRecord
  2
*Paper_Space0
340
26
  0
BLOCK_RECORD
  5
43
330
1
100
AcDbSymbolTableRecord
100
AcDbBlockTableRecord
  2
HL903-Isolierplatte-10984
340
0
102
{BLKREFS
331
50
102
}
  0
BLOCK_RECORD
  5
46
330
1
100
AcDbSymbolTableRecord
100
AcDbBlockTableRecord
  2
HL903-Schutzgitter-10895__1
340
0
102
{BLKREFS
331
51
102
}
  0
BLOCK_RECORD
  5
49
330
1
100
AcDbSymbolTableRecord
100
AcDbBlockTableRecord
  2
HL903-Koerper-10892__2
340
0
102
{BLKREFS
331
52
102
}
  0
BLOCK_RECORD
  5
4C
330
1
100
AcDbSymbolTableRecord
100
AcDbBlockTableRecord
  2
HL903-Deckel-HL-10893__3
340
0
102
{BLKREFS
331
53
102
}
  0
BLOCK_RECORD
  5
4F
330
1
100
AcDbSymbolTableRecord
100
AcDbBlockTableRecord
  2
Bgr_903__4
340
0
102
{BLKREFS
331
57
102
}
  0
BLOCK_RECORD
  5
56
330
1
100
AcDbSymbolTableRecord
100
AcDbBlockTableRecord
  2
Drfsicht3
340
0
102
{BLKREFS
331
7A
102
}
  0
BLOCK_RECORD
  5
5A
330
1
100
AcDbSymbolTableRecord
100
AcDbBlockTableRecord
  2
01008D-KeildichtungT40
340
0
102
{BLKREFS
331
6D
102
}
  0
BLOCK_RECORD
  5
5D
330
1
100
AcDbSymbolTableRecord
100
AcDbBlockTableRecord
  2
HL903-Deckel-HL-10893__5
340
0
102
{BLKREFS
331
6E
102
}
  0
BLOCK_RECORD
  5
60
330
1
100
AcDbSymbolTableRecord
100
AcDbBlockTableRecord
  2
HL903-Koerper-10892__6
340
0
102
{BLKREFS
331
6F
102
}
  0
BLOCK_RECORD
  5
63
330
1
100
AcDbSymbolTableRecord
100
AcDbBlockTableRecord
  2
HL903-Schutzgitter-10895__7
340
0
102
{BLKREFS
331
70
102
}
  0
BLOCK_RECORD
  5
66
330
1
100
AcDbSymbolTableRecord
100
AcDbBlockTableRecord
  2
01047D-Holländermutter6_4
340
0
102
{BLKREFS
331
71
102
}
  0
BLOCK_RECORD
  5
69
330
1
100
AcDbSymbolTableRecord
100
AcDbBlockTableRecord
  2
0904_0E-AnschlußadapterDN30_40_50
340
0
102
{BLKREFS
331
72
102
}
  0
BLOCK_RECORD
  5
6C
330
1
100
AcDbSymbolTableRecord
100
AcDbBlockTableRecord
  2
Bgr_903__8
340
0
102
{BLKREFS
331
76
102
}
  0
BLOCK_RECORD
  5
75
330
1
100
AcDbSymbolTableRecord
100
AcDbBlockTableRecord
  2
SA_links3
340
0
102
{BLKREFS
331
7B
102
}
  0
BLOCK_RECORD
  5
79
330
1
100
AcDbSymbolTableRecord
100
AcDbBlockTableRecord
  2
2
340
0
102
{BLKREFS
331
7E
102
}
  0
BLOCK_RECORD
  5
EB
330
1
100
AcDbSymbolTableRecord
100
AcDbBlockTableRecord
  2
*D16
340
0
  0
BLOCK_RECORD
  5
F7
330
1
100
AcDbSymbolTableRecord
100
AcDbBlockTableRecord
  2
*D17
340
0
  0
BLOCK_RECORD
  5
244
330
1
100
AcDbSymbolTableRecord
100
AcDbBlockTableRecord
  2
*D18
340
0
  0
BLOCK_RECORD
  5
24F
330
1
100
AcDbSymbolTableRecord
100
AcDbBlockTableRecord
  2
*D19
340
0
  0
BLOCK_RECORD
  5
25A
330
1
100
AcDbSymbolTableRecord
100
AcDbBlockTableRecord
  2
*D20
340
0
  0
BLOCK_RECORD
  5
266
330
1
100
AcDbSymbolTableRecord
100
AcDbBlockTableRecord
  2
*D21
340
0
  0
BLOCK_RECORD
  5
272
330
1
100
AcDbSymbolTableRecord
100
AcDbBlockTableRecord
  2
*D22
340
0
  0
BLOCK_RECORD
  5
27D
330
1
100
AcDbSymbolTableRecord
100
AcDbBlockTableRecord
  2
*D23
340
0
  0
BLOCK_RECORD
  5
289
330
1
100
AcDbSymbolTableRecord
100
AcDbBlockTableRecord
  2
*D24
340
0
  0
BLOCK_RECORD
  5
295
330
1
100
AcDbSymbolTableRecord
100
AcDbBlockTableRecord
  2
*D25
340
0
  0
BLOCK_RECORD
  5
2A1
330
1
100
AcDbSymbolTableRecord
100
AcDbBlockTableRecord
  2
*D26
340
0
  0
BLOCK_RECORD
  5
2AC
330
1
100
AcDbSymbolTableRecord
100
AcDbBlockTableRecord
  2
*D27
340
0
  0
ENDTAB
  0
ENDSEC
  0
SECTION
  2
BLOCKS
  0
BLOCK
  5
20
330
1F
100
AcDbEntity
  8
0
100
AcDbBlockBegin
  2
*Model_Space
 70
     0
 71
     0
 10
0.0
 20
0.0
 30
0.0
  3
*Model_Space
  1

  0
ENDBLK
  5
21
330
1F
100
AcDbEntity
  8
0
100
AcDbBlockEnd
  0
BLOCK
  5
1C
330
1B
100
AcDbEntity
 67
     1
  8
0
100
AcDbBlockBegin
  2
*Paper_Space
 70
     0
 71
     0
 10
0.0
 20
0.0
 30
0.0
  3
*Paper_Space
  1

  0
ENDBLK
  5
1D
330
1B
100
AcDbEntity
 67
     1
  8
0
100
AcDbBlockEnd
  0
BLOCK
  5
24
330
23
100
AcDbEntity
  8
0
100
AcDbBlockBegin
  2
*Paper_Space0
 70
     0
 71
     0
 10
0.0
 20
0.0
 30
0.0
  3
*Paper_Space0
  1

  0
ENDBLK
  5
25
330
23
100
AcDbEntity
  8
0
100
AcDbBlockEnd
  0
BLOCK
  5
44
330
43
100
AcDbEntity
  8
0
100
AcDbBlockBegin
  2
HL903-Isolierplatte-10984
 70
     0
 71
     0
 10
61.49999955839678
 20
-367.7842331858755
 30
0.0
  3
HL903-Isolierplatte-10984
  1

  0
ARC
  5
7F
330
43
100
AcDbEntity
  8
0
  6
Continuous
 62
     3
100
AcDbCircle
 10
-36.50000044156502
 20
-340.1113123342125
 30
0.0
 40
97.99999999996571
100
AcDbArc
 50
-16.40210752777682
 51
16.40210752777692
  0
ENDBLK
  5
45
330
43
100
AcDbEntity
  8
0
100
AcDbBlockEnd
  0
BLOCK
  5
47
330
46
100
AcDbEntity
  8
0
100
AcDbBlockBegin
  2
HL903-Schutzgitter-10895__1
 70
     0
 71
     0
 10
65.4999995581876
 20
-368.7517064228861
 30
0.0
  3
HL903-Schutzgitter-10895__1
  1

  0
ARC
  5
80
330
46
100
AcDbEntity
  8
0
  6
Continuous
 62
     7
100
AcDbCircle
 10
-36.50000044156502
 20
-340.1113123334674
 30
0.0
 40
101.9999999999657
100
AcDbArc
 50
-16.30725121756004
 51
16.30725121756008
  0
ENDBLK
  5
48
330
46
100
AcDbEntity
  8
0
100
AcDbBlockEnd
  0
BLOCK
  5
4A
330
49
100
AcDbEntity
  8
0
100
AcDbBlockBegin
  2
HL903-Koerper-10892__2
 70
     0
 71
     0
 10
33.2073529654682
 20
-371.9360129859972
 30
0.0
  3
HL903-Koerper-10892__2
  1

  0
LINE
  5
81
330
49
100
AcDbEntity
  8
0
  6
Continuous
 62
     3
100
AcDbLine
 10
33.2073529654682
 20
-371.4387520383131
 30
0.0
 11
33.15508873383442
 21
-371.9360129859972
 31
0.0
  0
LINE
  5
82
330
49
100
AcDbEntity
  8
0
  6
Continuous
 62
     3
100
AcDbLine
 10
33.2073529654682
 20
-308.7838726301119
 30
0.0
 11
33.15508873383442
 21
-308.2866116824278
 31
0.0
  0
ENDBLK
  5
4B
330
49
100
AcDbEntity
  8
0
100
AcDbBlockEnd
  0
BLOCK
  5
4D
330
4C
100
AcDbEntity
  8
0
100
AcDbBlockBegin
  2
HL903-Deckel-HL-10893__3
 70
     0
 71
     0
 10
65.4999995581876
 20
-376.2927739595729
 30
0.0
  3
HL903-Deckel-HL-10893__3
  1

  0
LINE
  5
83
330
4C
100
AcDbEntity
  8
1
  6
DOT_CENTER
 62
     2
100
AcDbLine
 10
-2.90315006403625
 20
-340.1113123342125
 30
0.0
 11
68.62255845841833
 21
-340.1113123342125
 31
0.0
  0
LINE
  5
84
330
4C
100
AcDbEntity
  8
1
  6
DOT_CENTER
 62
     2
100
AcDbLine
 10
22.49999955843498
 20
-333.8786797925498
 30
0.0
 11
22.49999955843498
 21
-346.3639366056407
 31
0.0
  0
LINE
  5
85
330
4C
100
AcDbEntity
  8
0
  6
Continuous
 62
     7
100
AcDbLine
 10
50.49999955839928
 20
-328.6113123343063
 30
0.0
 11
50.49999955839928
 21
-351.6113123343063
 31
0.0
  0
LINE
  5
86
330
4C
100
AcDbEntity
  8
0
  6
Continuous
 62
     7
100
AcDbLine
 10
53.43522039730442
 20
-336.3006984507931
 30
0.0
 11
53.38520289729718
 21
-336.3448138858722
 31
0.0
  0
LINE
  5
87
330
4C
100
AcDbEntity
  8
0
  6
Continuous
 62
     7
100
AcDbLine
 10
53.38520289729718
 20
-336.3448138858722
 30
0.0
 11
53.35185789729508
 21
-336.4183396109027
 31
0.0
  0
LINE
  5
88
330
4C
100
AcDbEntity
  8
0
  6
Continuous
 62
     7
100
AcDbLine
 10
53.1684603972891
 20
-336.4624550458296
 30
0.0
 11
53.18513289729503
 21
-336.3448138858722
 31
0.0
  0
LINE
  5
89
330
4C
100
AcDbEntity
  8
0
  6
Continuous
 62
     7
100
AcDbLine
 10
53.35185789729508
 20
-336.4183396109027
 30
0.0
 11
53.33518539728902
 21
-336.5065704809088
 31
0.0
  0
LINE
  5
8A
330
4C
100
AcDbEntity
  8
0
  6
Continuous
 62
     7
100
AcDbLine
 10
53.23515039729307
 20
-336.2565830158661
 30
0.0
 11
53.30184039728715
 21
-336.1977624358113
 31
0.0
  0
LINE
  5
8B
330
4C
100
AcDbEntity
  8
0
  6
Continuous
 62
     7
100
AcDbLine
 10
53.18513289729503
 20
-336.3448138858722
 30
0.0
 11
53.23515039729307
 21
-336.2565830158661
 31
0.0
  0
LINE
  5
8C
330
4C
100
AcDbEntity
  8
0
  6
Continuous
 62
     7
100
AcDbLine
 10
53.30184039728715
 20
-336.1977624358113
 30
0.0
 11
53.40187539729311
 21
-336.1389418559087
 31
0.0
  0
LINE
  5
8D
330
4C
100
AcDbEntity
  8
0
  6
Continuous
 62
     7
100
AcDbLine
 10
53.1684603972891
 20
-336.9771351208904
 30
0.0
 11
53.1684603972891
 21
-336.4624550458296
 31
0.0
  0
LINE
  5
8E
330
4C
100
AcDbEntity
  8
0
  6
Continuous
 62
     3
100
AcDbLine
 10
55.65692678448602
 20
-307.9325897611689
 30
0.0
 11
55.2388129314154
 21
-303.9545021796958
 31
0.0
  0
LINE
  5
8F
330
4C
100
AcDbEntity
  8
0
  6
Continuous
 62
     7
100
AcDbLine
 10
55.2388129314154
 20
-303.9545021796958
 30
0.0
 11
32.94603180729905
 21
-306.2975678916912
 31
0.0
  0
LINE
  5
90
330
4C
100
AcDbEntity
  8
0
  6
Continuous
 62
     7
100
AcDbLine
 10
53.0995091242844
 20
-340.1113123344164
 30
0.0
 11
55.90048912429245
 21
-340.1113123344164
 31
0.0
  0
LINE
  5
91
330
4C
100
AcDbEntity
  8
0
  6
Continuous
 62
     7
100
AcDbLine
 10
54.23323912429248
 20
-342.202710734386
 30
0.0
 11
54.23323912429248
 21
-340.6341619342947
 31
0.0
  0
LINE
  5
92
330
4C
100
AcDbEntity
  8
0
  6
Continuous
 62
     7
100
AcDbLine
 10
54.23323912429248
 20
-340.6341619342947
 30
0.0
 11
53.0995091242844
 21
-340.6341619342947
 31
0.0
  0
LINE
  5
93
330
4C
100
AcDbEntity
  8
0
  6
Continuous
 62
     7
100
AcDbLine
 10
55.90048912429245
 20
-340.6341619342947
 30
0.0
 11
54.7667591243038
 21
-340.6341619342947
 31
0.0
  0
LINE
  5
94
330
4C
100
AcDbEntity
  8
0
  6
Continuous
 62
     7
100
AcDbLine
 10
54.7667591243038
 20
-342.202710734386
 30
0.0
 11
55.90048912429245
 21
-342.202710734386
 31
0.0
  0
LINE
  5
95
330
4C
100
AcDbEntity
  8
0
  6
Continuous
 62
     7
100
AcDbLine
 10
52.99999955839928
 20
-354.1113123343063
 30
0.0
 11
55.99999955839928
 21
-354.1113123343063
 31
0.0
  0
LINE
  5
96
330
4C
100
AcDbEntity
  8
0
  6
Continuous
 62
     7
100
AcDbLine
 10
53.0995091242844
 20
-342.2027107342338
 30
0.0
 11
54.23323912429248
 21
-342.202710734386
 31
0.0
  0
LINE
  5
97
330
4C
100
AcDbEntity
  8
0
  6
Continuous
 62
     7
100
AcDbLine
 10
54.7667591243038
 20
-340.6341619342947
 30
0.0
 11
54.7667591243038
 21
-342.202710734386
 31
0.0
  0
LINE
  5
98
330
4C
100
AcDbEntity
  8
0
  6
Continuous
 62
     7
100
AcDbLine
 10
55.90048912428244
 20
-342.7255603342642
 30
0.0
 11
53.0995091242844
 21
-342.7255603344164
 31
0.0
  0
LINE
  5
99
330
4C
100
AcDbEntity
  8
0
  6
Continuous
 62
     7
100
AcDbLine
 10
55.63372912422835
 20
-338.608119734386
 30
0.0
 11
55.63372912422835
 21
-337.4317081343556
 31
0.0
  0
LINE
  5
9A
330
4C
100
AcDbEntity
  8
0
  6
Continuous
 62
     7
100
AcDbLine
 10
54.50226039728909
 20
-336.815378525854
 30
0.0
 11
54.50226039728909
 21
-336.9771351208904
 31
0.0
  0
LINE
  5
9B
330
4C
100
AcDbEntity
  8
0
  6
Continuous
 62
     7
100
AcDbLine
 10
53.9687403972971
 20
-336.53598077086
 30
0.0
 11
53.9687403972971
 21
-336.815378525854
 31
0.0
  0
LINE
  5
9C
330
4C
100
AcDbEntity
  8
0
  6
Continuous
 62
     7
100
AcDbLine
 10
53.9687403972971
 20
-336.815378525854
 30
0.0
 11
54.50226039728909
 21
-336.815378525854
 31
0.0
  0
LINE
  5
9D
330
4C
100
AcDbEntity
  8
0
  6
Continuous
 62
     7
100
AcDbLine
 10
53.98541289729315
 20
-336.447749900854
 30
0.0
 11
53.9687403972971
 21
-336.53598077086
 31
0.0
  0
LINE
  5
9E
330
4C
100
AcDbEntity
  8
0
  6
Continuous
 62
     7
100
AcDbLine
 10
53.33518539728902
 20
-336.815378525854
 30
0.0
 11
53.80201539729717
 21
-336.815378525854
 31
0.0
  0
LINE
  5
9F
330
4C
100
AcDbEntity
  8
0
  6
Continuous
 62
     7
100
AcDbLine
 10
53.33518539728902
 20
-336.5065704809088
 30
0.0
 11
53.33518539728902
 21
-336.815378525854
 31
0.0
  0
LINE
  5
A0
330
4C
100
AcDbEntity
  8
0
  6
Continuous
 62
     7
100
AcDbLine
 10
53.80201539729717
 20
-336.815378525854
 30
0.0
 11
53.80201539728716
 21
-336.5065704809088
 31
0.0
  0
LINE
  5
A1
330
4C
100
AcDbEntity
  8
0
  6
Continuous
 62
     7
100
AcDbLine
 10
54.01875789729502
 20
-336.3742241758236
 30
0.0
 11
53.98541289729315
 21
-336.447749900854
 31
0.0
  0
LINE
  5
A2
330
4C
100
AcDbEntity
  8
0
  6
Continuous
 62
     7
100
AcDbLine
 10
53.80201539728716
 20
-336.5065704809088
 30
0.0
 11
53.785342897281
 21
-336.4183396109027
 31
0.0
  0
LINE
  5
A3
330
4C
100
AcDbEntity
  8
0
  6
Continuous
 62
     7
100
AcDbLine
 10
53.785342897281
 20
-336.4183396109027
 30
0.0
 11
53.75199789728913
 21
-336.3448138858722
 31
0.0
  0
LINE
  5
A4
330
4C
100
AcDbEntity
  8
0
  6
Continuous
 62
     7
100
AcDbLine
 10
54.06877539729317
 20
-336.3301087408965
 30
0.0
 11
54.01875789729502
 21
-336.3742241758236
 31
0.0
  0
LINE
  5
A5
330
4C
100
AcDbEntity
  8
0
  6
Continuous
 62
     7
100
AcDbLine
 10
54.15213789729307
 20
-336.3006984507931
 30
0.0
 11
54.06877539729317
 21
-336.3301087408965
 31
0.0
  0
LINE
  5
A6
330
4C
100
AcDbEntity
  8
0
  6
Continuous
 62
     7
100
AcDbLine
 10
53.75199789728913
 20
-336.3448138858722
 30
0.0
 11
53.70198039729098
 21
-336.3006984507931
 31
0.0
  0
LINE
  5
A7
330
4C
100
AcDbEntity
  8
0
  6
Continuous
 62
     7
100
AcDbLine
 10
53.70198039729098
 20
-336.3006984507931
 30
0.0
 11
53.61861789729096
 21
-336.2712881608417
 31
0.0
  0
LINE
  5
A8
330
4C
100
AcDbEntity
  8
0
  6
Continuous
 62
     7
100
AcDbLine
 10
54.3855528972972
 20
-336.2859933058174
 30
0.0
 11
54.25217289727902
 21
-336.3006984507931
 31
0.0
  0
LINE
  5
A9
330
4C
100
AcDbEntity
  8
0
  6
Continuous
 62
     7
100
AcDbLine
 10
54.25217289727902
 20
-336.3006984507931
 30
0.0
 11
54.15213789729307
 21
-336.3006984507931
 31
0.0
  0
LINE
  5
AA
330
4C
100
AcDbEntity
  8
0
  6
Continuous
 62
     7
100
AcDbLine
 10
53.40187539729311
 20
-336.1389418559087
 30
0.0
 11
53.51858289729501
 21
-336.1242367107809
 31
0.0
  0
LINE
  5
AB
330
4C
100
AcDbEntity
  8
0
  6
Continuous
 62
     7
100
AcDbLine
 10
53.51858289729501
 20
-336.1242367107809
 30
0.0
 11
53.61861789729096
 21
-336.1242367107809
 31
0.0
  0
LINE
  5
AC
330
4C
100
AcDbEntity
  8
0
  6
Continuous
 62
     7
100
AcDbLine
 10
53.61861789729096
 20
-336.1242367107809
 30
0.0
 11
53.73532539729308
 21
-336.1389418559087
 31
0.0
  0
LINE
  5
AD
330
4C
100
AcDbEntity
  8
0
  6
Continuous
 62
     7
100
AcDbLine
 10
53.51858289729501
 20
-336.2712881608417
 30
0.0
 11
53.43522039730442
 21
-336.3006984507931
 31
0.0
  0
LINE
  5
AE
330
4C
100
AcDbEntity
  8
0
  6
Continuous
 62
     7
100
AcDbLine
 10
54.03543039729095
 20
-336.1389418559087
 30
0.0
 11
54.15213789729307
 21
-336.1242367107809
 31
0.0
  0
LINE
  5
AF
330
4C
100
AcDbEntity
  8
0
  6
Continuous
 62
     7
100
AcDbLine
 10
54.15213789729307
 20
-336.1242367107809
 30
0.0
 11
54.25217289729903
 21
-336.1242367107809
 31
0.0
  0
LINE
  5
B0
330
4C
100
AcDbEntity
  8
0
  6
Continuous
 62
     7
100
AcDbLine
 10
54.25217289729903
 20
-336.1242367107809
 30
0.0
 11
54.36888039729104
 21
-336.1095315658052
 31
0.0
  0
LINE
  5
B1
330
4C
100
AcDbEntity
  8
0
  6
Continuous
 62
     7
100
AcDbLine
 10
54.50226039728909
 20
-336.0654161308783
 30
0.0
 11
54.50226039728909
 21
-336.2565830158661
 31
0.0
  0
LINE
  5
B2
330
4C
100
AcDbEntity
  8
0
  6
Continuous
 62
     7
100
AcDbLine
 10
53.61861789729096
 20
-336.2712881608417
 30
0.0
 11
53.51858289729501
 21
-336.2712881608417
 31
0.0
  0
LINE
  5
B3
330
4C
100
AcDbEntity
  8
0
  6
Continuous
 62
     7
100
AcDbLine
 10
55.99999955839928
 20
-326.1113123343063
 30
0.0
 11
52.99999955839928
 21
-326.1113123343063
 31
0.0
  0
LINE
  5
B4
330
4C
100
AcDbEntity
  8
0
  6
Continuous
 62
     7
100
AcDbLine
 10
54.50226039728909
 20
-336.2565830158661
 30
0.0
 11
54.3855528972972
 21
-336.2859933058174
 31
0.0
  0
LINE
  5
B5
330
4C
100
AcDbEntity
  8
0
  6
Continuous
 62
     7
100
AcDbLine
 10
53.88537789729719
 20
-336.2712881608417
 30
0.0
 11
53.935395397295
 21
-336.1977624358113
 31
0.0
  0
LINE
  5
B6
330
4C
100
AcDbEntity
  8
0
  6
Continuous
 62
     7
100
AcDbLine
 10
53.83536039728904
 20
-336.1977624358113
 30
0.0
 11
53.88537789729719
 21
-336.2712881608417
 31
0.0
  0
LINE
  5
B7
330
4C
100
AcDbEntity
  8
0
  6
Continuous
 62
     7
100
AcDbLine
 10
53.935395397295
 20
-336.1977624358113
 30
0.0
 11
54.03543039729095
 21
-336.1389418559087
 31
0.0
  0
LINE
  5
B8
330
4C
100
AcDbEntity
  8
0
  6
Continuous
 62
     7
100
AcDbLine
 10
53.73532539729308
 20
-336.1389418559087
 30
0.0
 11
53.83536039728904
 21
-336.1977624358113
 31
0.0
  0
LINE
  5
B9
330
4C
100
AcDbEntity
  8
0
  6
Continuous
 62
     7
100
AcDbLine
 10
54.36888039729104
 20
-336.1095315658052
 30
0.0
 11
54.50226039728909
 21
-336.0654161308783
 31
0.0
  0
LINE
  5
BA
330
4C
100
AcDbEntity
  8
0
  6
Continuous
 62
     7
100
AcDbLine
 10
54.50226039728909
 20
-336.9771351208904
 30
0.0
 11
53.1684603972891
 21
-336.9771351208904
 31
0.0
  0
LINE
  5
BB
330
4C
100
AcDbEntity
  8
0
  6
Continuous
 62
     7
100
AcDbLine
 10
53.0995091242844
 20
-338.608119734386
 30
0.0
 11
55.63372912422835
 21
-338.608119734386
 31
0.0
  0
LINE
  5
BC
330
4C
100
AcDbEntity
  8
0
  6
Continuous
 62
     7
100
AcDbLine
 10
55.90048912422435
 20
-339.1309693343402
 30
0.0
 11
53.0995091242844
 21
-339.1309693342643
 31
0.0
  0
LINE
  5
BD
330
4C
100
AcDbEntity
  8
0
  6
Continuous
 62
     3
100
AcDbLine
 10
33.15508873383442
 20
-371.9360129859972
 30
0.0
 11
32.94603180729905
 21
-373.9250567767338
 31
0.0
  0
LINE
  5
BE
330
4C
100
AcDbEntity
  8
0
  6
Continuous
 62
     3
100
AcDbLine
 10
33.2073529654682
 20
-371.4387520383131
 30
0.0
 11
33.15508873383442
 21
-371.9360129859972
 31
0.0
  0
LINE
  5
BF
330
4C
100
AcDbEntity
  8
0
  6
Continuous
 62
     3
100
AcDbLine
 10
33.36414566036967
 20
-369.9469691952607
 30
0.0
 11
33.2073529654682
 21
-371.4387520383131
 31
0.0
  0
LINE
  5
C0
330
4C
100
AcDbEntity
  8
0
  6
Continuous
 62
     3
100
AcDbLine
 10
55.65692678449534
 20
-372.290034907257
 30
0.0
 11
33.36414566036967
 21
-369.9469691952607
 31
0.0
  0
LINE
  5
C1
330
4C
100
AcDbEntity
  8
0
  6
Continuous
 62
     3
100
AcDbLine
 10
59.96499985263813
 20
-373.2549952653581
 30
0.0
 11
56.18205866463018
 21
-371.955242993549
 31
0.0
  0
LINE
  5
C2
330
4C
100
AcDbEntity
  8
0
  6
Continuous
 62
     7
100
AcDbLine
 10
55.23881293142472
 20
-376.2681224887301
 30
0.0
 11
32.94603180729905
 21
-373.9250567767338
 31
0.0
  0
LINE
  5
C3
330
4C
100
AcDbEntity
  8
0
  6
Continuous
 62
     3
100
AcDbLine
 10
33.36414566036967
 20
-310.2756554731643
 30
0.0
 11
33.2073529654682
 21
-308.7838726301119
 31
0.0
  0
LINE
  5
C4
330
4C
100
AcDbEntity
  8
0
  6
Continuous
 62
     3
100
AcDbLine
 10
33.2073529654682
 20
-308.7838726301119
 30
0.0
 11
33.15508873383442
 21
-308.2866116824278
 31
0.0
  0
LINE
  5
C5
330
4C
100
AcDbEntity
  8
0
  6
Continuous
 62
     3
100
AcDbLine
 10
33.15508873383442
 20
-308.2866116824278
 30
0.0
 11
32.94603180729905
 21
-306.2975678916912
 31
0.0
  0
LINE
  5
C6
330
4C
100
AcDbEntity
  8
0
  6
Continuous
 62
     3
100
AcDbLine
 10
55.65692678448602
 20
-307.9325897611689
 30
0.0
 11
33.36414566036967
 21
-310.2756554731643
 31
0.0
  0
LINE
  5
C7
330
4C
100
AcDbEntity
  8
0
  6
Continuous
 62
     7
100
AcDbLine
 10
56.16724912422035
 20
-337.4317081343556
 30
0.0
 11
56.16724912423979
 21
-338.8695445343251
 31
0.0
  0
LINE
  5
C8
330
4C
100
AcDbEntity
  8
0
  6
Continuous
 62
     7
100
AcDbLine
 10
58.49999955839928
 20
-351.6113123343063
 30
0.0
 11
58.49999955839928
 21
-328.6113123343063
 31
0.0
  0
LINE
  5
C9
330
4C
100
AcDbEntity
  8
0
  6
Continuous
 62
     3
100
AcDbLine
 10
59.96499985262835
 20
-306.9676294030666
 30
0.0
 11
56.18205866462085
 21
-308.2673816748768
 31
0.0
  0
LINE
  5
CA
330
4C
100
AcDbEntity
  8
0
  6
Continuous
 62
     3
100
AcDbLine
 10
55.23881293142472
 20
-376.2681224887301
 30
0.0
 11
55.65692678449534
 21
-372.290034907257
 31
0.0
  0
ARC
  5
CB
330
4C
100
AcDbEntity
  8
0
  6
Continuous
 62
     7
100
AcDbCircle
 10
52.99999955839928
 20
-351.6113123343063
 30
0.0
 40
2.5
100
AcDbArc
 50
180.0
 51
-90.0
  0
ARC
  5
CC
330
4C
100
AcDbEntity
  8
0
  6
Continuous
 62
     7
100
AcDbCircle
 10
52.99999955839928
 20
-328.6113123343063
 30
0.0
 40
2.5
100
AcDbArc
 50
90.0
 51
180.0
  0
ARC
  5
CD
330
4C
100
AcDbEntity
  8
0
  6
Continuous
 62
     3
100
AcDbCircle
 10
36.49999955839928
 20
-340.1113123342125
 30
0.0
 40
30.00000000000002
100
AcDbArc
 50
96.00000000000001
 51
-96.00000000000001
  0
ARC
  5
CE
330
4C
100
AcDbEntity
  8
0
  6
Continuous
 62
     7
100
AcDbCircle
 10
36.49999955839928
 20
-340.1113123342125
 30
0.0
 40
34.00000000000005
100
AcDbArc
 50
96.00000000000001
 51
-96.00000000000001
  0
ARC
  5
CF
330
4C
100
AcDbEntity
  8
0
  6
Continuous
 62
     7
100
AcDbCircle
 10
55.7091910161198
 20
-308.4298507088531
 30
0.0
 40
4.500000000000026
100
AcDbArc
 50
18.96182289788883
 51
95.99999999999937
  0
ARC
  5
D0
330
4C
100
AcDbEntity
  8
0
  6
Continuous
 62
     7
100
AcDbCircle
 10
55.70919101612913
 20
-371.7927739595729
 30
0.0
 40
4.49999999999997
100
AcDbArc
 50
-95.9999999999997
 51
-18.96182289787123
  0
ARC
  5
D1
330
4C
100
AcDbEntity
  8
0
  6
Continuous
 62
     3
100
AcDbCircle
 10
55.7091910161198
 20
-308.4298507088531
 30
0.0
 40
0.500000000000106
100
AcDbArc
 50
18.96182289789012
 51
95.99999999999454
  0
ARC
  5
D2
330
4C
100
AcDbEntity
  8
0
  6
Continuous
 62
     7
100
AcDbCircle
 10
-36.50000044156502
 20
-340.1113123334674
 30
0.0
 40
101.9999999999657
100
AcDbArc
 50
-16.30725121756004
 51
16.30725121756008
  0
ARC
  5
D3
330
4C
100
AcDbEntity
  8
0
  6
Continuous
 62
     7
100
AcDbCircle
 10
-36.50000044318324
 20
-340.111312339317
 30
0.0
 40
101.9999999998763
100
AcDbArc
 50
-18.96182289487203
 51
-16.30725121415115
  0
ARC
  5
D4
330
4C
100
AcDbEntity
  8
0
  6
Continuous
 62
     7
100
AcDbCircle
 10
-36.50000044039507
 20
-340.1113123379069
 30
0.0
 40
102.0000000000894
100
AcDbArc
 50
16.30725122013803
 51
18.96182290005722
  0
ARC
  5
D5
330
4C
100
AcDbEntity
  8
0
  6
Continuous
 62
     7
100
AcDbCircle
 10
55.99999955839928
 20
-328.6113123343063
 30
0.0
 40
2.5
100
AcDbArc
 50
0.0
 51
90.0
  0
ARC
  5
D6
330
4C
100
AcDbEntity
  8
0
  6
Continuous
 62
     7
100
AcDbCircle
 10
55.99999955839928
 20
-351.6113123343063
 30
0.0
 40
2.5
100
AcDbArc
 50
-90.0
 51
0.0
  0
ARC
  5
D7
330
4C
100
AcDbEntity
  8
0
  6
Continuous
 62
     3
100
AcDbCircle
 10
-36.50000044182514
 20
-340.1113123350422
 30
0.0
 40
97.99999999998094
100
AcDbArc
 50
-18.96182289737123
 51
-16.40210752726854
  0
ARC
  5
D8
330
4C
100
AcDbEntity
  8
0
  6
Continuous
 62
     3
100
AcDbCircle
 10
-36.50000044177125
 20
-340.1113123335796
 30
0.0
 40
97.99999999998485
100
AcDbArc
 50
16.40210752738788
 51
18.96182289749161
  0
ARC
  5
D9
330
4C
100
AcDbEntity
  8
0
  6
Continuous
 62
     3
100
AcDbCircle
 10
-36.50000044156502
 20
-340.1113123342125
 30
0.0
 40
97.99999999996571
100
AcDbArc
 50
-16.40210752777682
 51
16.40210752777692
  0
ARC
  5
DA
330
4C
100
AcDbEntity
  8
0
  6
Continuous
 62
     3
100
AcDbCircle
 10
55.70919101612913
 20
-371.7927739595729
 30
0.0
 40
0.499999999999943
100
AcDbArc
 50
-95.99999999999672
 51
-18.96182289786521
  0
CIRCLE
  5
DB
330
4C
100
AcDbEntity
  8
0
  6
Continuous
 62
     7
100
AcDbCircle
 10
22.49999955843498
 20
-340.1113123342125
 30
0.0
 40
2.783882181415038
  0
SPLINE
  5
DC
330
4C
100
AcDbEntity
  8
0
  6
Continuous
 62
     7
100
AcDbSpline
210
0.0
220
0.0
230
1.0
 70
     8
 71
     3
 72
    67
 73
    63
 74
    61
 42
0.0000000001
 43
0.0000000001
 44
0.00000001
 40
0.0
 40
0.0
 40
0.0
 40
0.0
 40
0.0138442945493304
 40
0.0279684976330489
 40
0.042359348739896
 40
0.0570011458641815
 40
0.0718763375396427
 40
0.0869650306482366
 40
0.1022456371724253
 40
0.1176945207283871
 40
0.1332866634656724
 40
0.1489954812773602
 40
0.1647934617161393
 40
0.1806521596578164
 40
0.196542748387082
 40
0.2124361874458073
 40
0.2283036302851062
 40
0.2441167389946204
 40
0.2554669020908452
 40
0.2667644826684552
 40
0.2779997978332373
 40
0.2891635815453664
 40
0.300246935115718
 40
0.3112414574876884
 40
0.3221391616675497
 40
0.3329326145261663
 40
0.3436148239086204
 40
0.3541793838012648
 40
0.364620338018223
 40
0.3749323269300047
 40
0.3951462274819692
 40
0.4147928637962707
 40
0.4344395001105721
 40
0.4546534006624802
 40
0.4649653895793536
 40
0.4754063437913882
 40
0.4859709036788408
 40
0.4966531130663225
 40
0.5074465659250439
 40
0.5183442701049605
 40
0.5293387924811046
 40
0.5404221460471286
 40
0.551585929759403
 40
0.5628212449241888
 40
0.5741188255016808
 40
0.5854689885980223
 40
0.601282097308284
 40
0.6171495401467892
 40
0.6330429792055144
 40
0.6489335679347069
 40
0.6647922658764122
 40
0.6805902463152285
 40
0.6962990641268597
 40
0.7118912068642211
 40
0.727340090420099
 40
0.7426206969443472
 40
0.757709390052911
 40
0.7725845817283861
 40
0.7872263788526993
 40
0.8016172299595173
 40
0.8157414330432402
 40
0.829585727592572
 40
0.829585727592572
 40
0.829585727592572
 40
0.829585727592572
 10
53.0995091242844
 20
-340.6341619342947
 30
0.0
 10
53.09489386989936
 20
-340.6340939717104
 30
0.0
 10
53.08557004838687
 20
-340.6339566724515
 30
0.0
 10
53.07148554213821
 20
-340.6328319650776
 30
0.0
 10
53.05721330156194
 20
-340.6309879264943
 30
0.0
 10
53.04281372414684
 20
-340.6283257137649
 30
0.0
 10
53.02835377215772
 20
-340.6248329308336
 30
0.0
 10
53.01390425551672
 20
-340.6204854338654
 30
0.0
 10
52.99954190090895
 20
-340.6152674868536
 30
0.0
 10
52.98534446516075
 20
-340.6091761225804
 30
0.0
 10
52.97139449611112
 20
-340.6022112612404
 30
0.0
 10
52.95777186292193
 20
-340.5943891598002
 30
0.0
 10
52.94455971423636
 20
-340.5857285356918
 30
0.0
 10
52.93183431502875
 20
-340.5762651758206
 30
0.0
 10
52.91967350764544
 20
-340.5660368110423
 30
0.0
 10
52.9081440967589
 20
-340.5550972606999
 30
0.0
 10
52.89731290811976
 20
-340.5435014931057
 30
0.0
 10
52.88816344117659
 20
-340.532443156873
 30
0.0
 10
52.88051244839413
 20
-340.5221515064646
 30
0.0
 10
52.87417034861848
 20
-340.5128015716829
 30
0.0
 10
52.86827130384199
 20
-340.5032390342168
 30
0.0
 10
52.8628236274413
 20
-340.4934941160791
 30
0.0
 10
52.85783512033701
 20
-340.4835962247928
 30
0.0
 10
52.85330887342685
 20
-340.4735759057107
 30
0.0
 10
52.84924733226515
 20
-340.463462532066
 30
0.0
 10
52.84564853035894
 20
-340.4532858478668
 30
0.0
 10
52.84250989303689
 20
-340.4430741578758
 30
0.0
 10
52.83982487018201
 20
-340.4328555151888
 30
0.0
 10
52.83758642790414
 20
-340.4226560841136
 30
0.0
 10
52.83519920695036
 20
-340.4092076763684
 30
0.0
 10
52.8332601637366
 20
-340.392577235203
 30
0.0
 10
52.83249724100951
 20
-340.3727371343556
 30
0.0
 10
52.8332601637366
 20
-340.3528970335082
 30
0.0
 10
52.83519920695059
 20
-340.3362665923412
 30
0.0
 10
52.83758642790444
 20
-340.3228181845959
 30
0.0
 10
52.83982487018204
 20
-340.3126187535223
 30
0.0
 10
52.84250989303644
 20
-340.3024001108371
 30
0.0
 10
52.84564853035842
 20
-340.2921884208458
 30
0.0
 10
52.84924733226511
 20
-340.282011736645
 30
0.0
 10
52.85330887342739
 20
-340.2718983629991
 30
0.0
 10
52.85783512033763
 20
-340.261878043917
 30
0.0
 10
52.86282362744205
 20
-340.2519801526308
 30
0.0
 10
52.86827130384192
 20
-340.2422352344943
 30
0.0
 10
52.87417034861846
 20
-340.2326726970282
 30
0.0
 10
52.88051244839414
 20
-340.2233227622465
 30
0.0
 10
52.88816344117668
 20
-340.2130311118379
 30
0.0
 10
52.89731290812001
 20
-340.2019727756052
 30
0.0
 10
52.90814409675907
 20
-340.1903770080111
 30
0.0
 10
52.91967350764542
 20
-340.1794374576687
 30
0.0
 10
52.93183431502879
 20
-340.1692090928908
 30
0.0
 10
52.94455971423638
 20
-340.1597457330193
 30
0.0
 10
52.95777186292187
 20
-340.1510851089108
 30
0.0
 10
52.97139449611117
 20
-340.1432630074708
 30
0.0
 10
52.98534446516068
 20
-340.1362981461307
 30
0.0
 10
52.99954190090897
 20
-340.1302067818576
 30
0.0
 10
53.01390425551667
 20
-340.1249888348457
 30
0.0
 10
53.02835377215773
 20
-340.1206413378776
 30
0.0
 10
53.04281372414685
 20
-340.1171485549462
 30
0.0
 10
53.0572133015619
 20
-340.1144863422168
 30
0.0
 10
53.07148554213823
 20
-340.1126423036337
 30
0.0
 10
53.08557004838685
 20
-340.1115175962597
 30
0.0
 10
53.09489386989935
 20
-340.1113802970008
 30
0.0
 10
53.0995091242844
 20
-340.1113123344164
 30
0.0
 11
53.0995091242844
 21
-340.6341619342947
 31
0.0
 11
53.08566931048526
 21
-340.6338097332532
 31
0.0
 11
53.0715867556828
 21
-340.6327258684157
 31
0.0
 11
53.05731595175293
 21
-340.6308709423324
 31
0.0
 11
53.04291769944189
 21
-340.6282115150602
 31
0.0
 11
53.02845848616302
 21
-340.6247183104086
 31
0.0
 11
53.01400978485219
 21
-340.6203704729972
 31
0.0
 11
52.99964758976002
 21
-340.6151527830983
 31
0.0
 11
52.98545065918245
 21
-340.6090605613934
 31
0.0
 11
52.97150047029402
 21
-340.6020958542842
 31
0.0
 11
52.95787827646211
 21
-340.594272632937
 31
0.0
 11
52.94466576614671
 21
-340.5856120465187
 31
0.0
 11
52.93194097063918
 21
-340.5761474873796
 31
0.0
 11
52.91977987546855
 21
-340.5659191652096
 31
0.0
 11
52.90825139885442
 21
-340.5549786153116
 31
0.0
 11
52.89742009713036
 21
-340.5433829848751
 31
0.0
 11
52.88734059078797
 21
-340.5311986523553
 31
0.0
 11
52.88056884360164
 21
-340.5220898850207
 31
0.0
 11
52.87422730711944
 21
-340.5127400057727
 31
0.0
 11
52.86832844101737
 21
-340.5031778048983
 31
0.0
 11
52.86288132063726
 21
-340.4934331167896
 31
0.0
 11
52.85789304945077
 21
-340.4835357496177
 31
0.0
 11
52.85336736454929
 21
-340.473515884431
 31
0.0
 11
52.84930607389756
 21
-340.4634032253032
 31
0.0
 11
52.84570780349111
 21
-340.4532272204539
 31
0.0
 11
52.84256939775913
 21
-340.4430164415046
 31
0.0
 11
52.83988484166105
 21
-340.4327986587568
 31
0.0
 11
52.83764656814829
 21
-340.4226004404495
 31
0.0
 11
52.83584457350958
 21
-340.4124471192865
 31
0.0
 11
52.8335029856085
 21
-340.3923693021336
 31
0.0
 11
52.83274912434649
 21
-340.3727371343556
 31
0.0
 11
52.8335029856085
 21
-340.3531049665776
 31
0.0
 11
52.83584457350958
 21
-340.3330271494247
 31
0.0
 11
52.83764656814924
 21
-340.3228738282567
 31
0.0
 11
52.83988484166105
 21
-340.3126756099543
 31
0.0
 11
52.84256939775774
 21
-340.3024578272115
 31
0.0
 11
52.84570780349111
 21
-340.2922470482573
 31
0.0
 11
52.84930607389755
 21
-340.2820710434079
 31
0.0
 11
52.85336736454929
 21
-340.2719583842801
 31
0.0
 11
52.8578930494526
 21
-340.2619385190896
 31
0.0
 11
52.86288132063726
 21
-340.2520411519216
 31
0.0
 11
52.86832844101736
 21
-340.2422964638127
 31
0.0
 11
52.87422730711944
 21
-340.2327342629384
 31
0.0
 11
52.88056884360159
 21
-340.2233843836905
 31
0.0
 11
52.88734059078797
 21
-340.2142756163558
 31
0.0
 11
52.89742009713092
 21
-340.2020912838355
 31
0.0
 11
52.90825139885442
 21
-340.1904956533995
 31
0.0
 11
52.91977987546855
 21
-340.1795551035015
 31
0.0
 11
52.93194097063918
 21
-340.1693267813316
 31
0.0
 11
52.9446657661467
 21
-340.1598622221925
 31
0.0
 11
52.95787827646211
 21
-340.1512016357741
 31
0.0
 11
52.97150047029402
 21
-340.143378414427
 31
0.0
 11
52.98545065918245
 21
-340.1364137073177
 31
0.0
 11
52.99964758975997
 21
-340.1303214856129
 31
0.0
 11
53.01400978485219
 21
-340.1251037957139
 31
0.0
 11
53.028458486163
 21
-340.1207559583026
 31
0.0
 11
53.04291769944189
 21
-340.117262753651
 31
0.0
 11
53.05731595175293
 21
-340.1146033263786
 31
0.0
 11
53.0715867556828
 21
-340.1127484002955
 31
0.0
 11
53.08566931048526
 21
-340.111664535458
 31
0.0
 11
53.0995091242844
 21
-340.1113123344164
 31
0.0
  0
SPLINE
  5
DD
330
4C
100
AcDbEntity
  8
0
  6
Continuous
 62
     7
100
AcDbSpline
210
0.0
220
0.0
230
1.0
 70
     8
 71
     3
 72
    67
 73
    63
 74
    61
 42
0.0000000001
 43
0.0000000001
 44
0.00000001
 40
0.0
 40
0.0
 40
0.0
 40
0.0
 40
0.0138442945573769
 40
0.0279684976493445
 40
0.0423593487645181
 40
0.0570011458973833
 40
0.0718763375815017
 40
0.0869650306988831
 40
0.1022456372319731
 40
0.1176945207968141
 40
0.1332866635431875
 40
0.148995481364057
 40
0.1647934618119786
 40
0.180652159762978
 40
0.1965427485014011
 40
0.2124361875694133
 40
0.2283036304179528
 40
0.2441167391365954
 40
0.2554669022414209
 40
0.2667644828236968
 40
0.277999797995033
 40
0.2891635817136622
 40
0.3002469352904737
 40
0.3112414576688045
 40
0.3221391618600182
 40
0.3329326147200181
 40
0.3436148241086177
 40
0.3541793840073735
 40
0.3646203382303291
 40
0.3749323271482894
 40
0.3951462277119873
 40
0.4147928640376657
 40
0.4344395003633441
 40
0.4546534009270984
 40
0.4649653898450028
 40
0.475406344068014
 40
0.4859709039667679
 40
0.4966531133553696
 40
0.507446566220305
 40
0.5183442704065814
 40
0.5293387927849121
 40
0.5404221463617237
 40
0.551585930080459
 40
0.562821245251691
 40
0.5741188258339589
 40
0.5854689889387473
 40
0.6012820976573944
 40
0.6171495405058876
 40
0.6330429795739388
 40
0.6489335683123986
 40
0.6647922662633641
 40
0.6805902467113168
 40
0.6962990645321359
 40
0.7118912072785537
 40
0.7273400908434555
 40
0.7426206973764745
 40
0.7577093904938886
 40
0.7725845821779936
 40
0.7872263793108935
 40
0.8016172304260383
 40
0.8157414335180059
 40
0.8295857280753828
 40
0.8295857280753828
 40
0.8295857280753828
 40
0.8295857280753828
 10
53.0995091242844
 20
-342.7255603344164
 30
0.0
 10
53.09489386989667
 20
-342.725492371832
 30
0.0
 10
53.08557004837875
 20
-342.7253550725731
 30
0.0
 10
53.07148554212191
 20
-342.7242303651984
 30
0.0
 10
53.05721330153733
 20
-342.7223863266142
 30
0.0
 10
53.04281372411381
 20
-342.7197241138833
 30
0.0
 10
53.02835377211633
 20
-342.7162313309497
 30
0.0
 10
53.01390425546684
 20
-342.7118838339792
 30
0.0
 10
52.99954190085081
 20
-342.7066658869642
 30
0.0
 10
52.98534446509437
 20
-342.7005745226872
 30
0.0
 10
52.97139449603652
 20
-342.6936096613436
 30
0.0
 10
52.95777186283948
 20
-342.6857875598986
 30
0.0
 10
52.94455971414619
 20
-342.6771269357855
 30
0.0
 10
52.93183431493117
 20
-342.6676635759083
 30
0.0
 10
52.91967350754075
 20
-342.6574352111246
 30
0.0
 10
52.90814409664753
 20
-342.6464956607754
 30
0.0
 10
52.89731290800214
 20
-342.6348998931745
 30
0.0
 10
52.88816344105317
 20
-342.6238415569351
 30
0.0
 10
52.88051244826627
 20
-342.6135499065205
 30
0.0
 10
52.87417034848706
 20
-342.6041999717335
 30
0.0
 10
52.86827130370743
 20
-342.594637434262
 30
0.0
 10
52.86282362730343
 20
-342.5848925161189
 30
0.0
 10
52.85783512019639
 20
-342.574994624827
 30
0.0
 10
52.85330887328288
 20
-342.5649743057373
 30
0.0
 10
52.84924733211886
 20
-342.554860932087
 30
0.0
 10
52.84564853021082
 20
-342.5446842478815
 30
0.0
 10
52.84250989288729
 20
-342.5344725578863
 30
0.0
 10
52.83982487003088
 20
-342.5242539151933
 30
0.0
 10
52.83758642775169
 20
-342.5140544841123
 30
0.0
 10
52.83519920679651
 20
-342.5006060763591
 30
0.0
 10
52.83326016358161
 20
-342.483975635184
 30
0.0
 10
52.83249724085408
 20
-342.4641355343252
 30
0.0
 10
52.83326016358161
 20
-342.4442954334661
 30
0.0
 10
52.8351992067965
 20
-342.4276649922911
 30
0.0
 10
52.83758642775172
 20
-342.4142165845381
 30
0.0
 10
52.83982487003088
 20
-342.4040171534569
 30
0.0
 10
52.84250989288728
 20
-342.3937985107639
 30
0.0
 10
52.84564853021128
 20
-342.3835868207669
 30
0.0
 10
52.84924733211951
 20
-342.3734101365619
 30
0.0
 10
52.85330887328355
 20
-342.3632967629111
 30
0.0
 10
52.85783512019638
 20
-342.3532764438233
 30
0.0
 10
52.86282362730347
 20
-342.3433785525311
 30
0.0
 10
52.86827130370737
 20
-342.3336336343879
 30
0.0
 10
52.8741703484871
 20
-342.3240710969168
 30
0.0
 10
52.88051244826625
 20
-342.3147211621296
 30
0.0
 10
52.88816344105317
 20
-342.3044295117153
 30
0.0
 10
52.89731290800216
 20
-342.2933711754758
 30
0.0
 10
52.90814409664759
 20
-342.2817754078749
 30
0.0
 10
52.91967350754074
 20
-342.2708358575256
 30
0.0
 10
52.93183431493118
 20
-342.2606074927419
 30
0.0
 10
52.94455971414622
 20
-342.2511441328648
 30
0.0
 10
52.95777186283944
 20
-342.2424835087514
 30
0.0
 10
52.9713944960366
 20
-342.2346614073067
 30
0.0
 10
52.98534446509441
 20
-342.2276965459629
 30
0.0
 10
52.99954190085072
 20
-342.2216051816858
 30
0.0
 10
53.01390425546691
 20
-342.2163872346712
 30
0.0
 10
53.0283537721163
 20
-342.2120397377004
 30
0.0
 10
53.04281372411386
 20
-342.2085469547671
 30
0.0
 10
53.0572133015373
 20
-342.2058847420359
 30
0.0
 10
53.07148554212192
 20
-342.2040407034518
 30
0.0
 10
53.08557004837874
 20
-342.2029159960771
 30
0.0
 10
53.09489386989667
 20
-342.2027786968183
 30
0.0
 10
53.0995091242844
 20
-342.2027107342338
 30
0.0
 11
53.0995091242844
 21
-342.7255603344164
 31
0.0
 11
53.08566931047721
 21
-342.7252081333747
 31
0.0
 11
53.07158675566654
 21
-342.7241242685365
 31
0.0
 11
53.0573159517284
 21
-342.7222693424522
 31
0.0
 11
53.04291769940892
 21
-342.7196099151784
 31
0.0
 11
53.02845848612166
 21
-342.7161167105247
 31
0.0
 11
53.0140097848024
 21
-342.7117688731108
 31
0.0
 11
52.99964758970189
 21
-342.7065511832088
 31
0.0
 11
52.98545065911617
 21
-342.7004589615004
 31
0.0
 11
52.97150047021954
 21
-342.6934942543872
 31
0.0
 11
52.95787827637969
 21
-342.6856710330355
 31
0.0
 11
52.94466576605663
 21
-342.6770104466121
 31
0.0
 11
52.93194097054163
 21
-342.6675458874675
 31
0.0
 11
52.91977987536396
 21
-342.6573175652916
 31
0.0
 11
52.90825139874312
 21
-342.6463770153872
 31
0.0
 11
52.89742009701277
 21
-342.6347813849439
 31
0.0
 11
52.88734059066451
 21
-342.6225970524171
 31
0.0
 11
52.88056884347309
 21
-342.6134882850756
 31
0.0
 11
52.87422730698836
 21
-342.6041384058237
 31
0.0
 11
52.86832844088283
 21
-342.5945762049437
 31
0.0
 11
52.86288132049947
 21
-342.5848315168294
 31
0.0
 11
52.85789304931013
 21
-342.5749341496517
 31
0.0
 11
52.85336736440604
 21
-342.5649142844592
 31
0.0
 11
52.84930607375017
 21
-342.5548016253209
 31
0.0
 11
52.84570780334343
 21
-342.5446256204702
 31
0.0
 11
52.84256939760958
 21
-342.534414841515
 31
0.0
 11
52.83988484150996
 21
-342.5241970587613
 31
0.0
 11
52.83764656799589
 21
-342.5139988404482
 31
0.0
 11
52.8358445733561
 21
-342.5038455192791
 31
0.0
 11
52.83350298545365
 21
-342.4837677021145
 31
0.0
 11
52.8327491241912
 21
-342.4641355343251
 31
0.0
 11
52.83350298545365
 21
-342.4445033665357
 31
0.0
 11
52.8358445733561
 21
-342.4244255493711
 31
0.0
 11
52.83764656799589
 21
-342.4142722282021
 31
0.0
 11
52.83988484150996
 21
-342.4040740098889
 31
0.0
 11
52.84256939760957
 21
-342.3938562271352
 31
0.0
 11
52.84570780334343
 21
-342.38364544818
 31
0.0
 11
52.84930607375195
 21
-342.3734694433247
 31
0.0
 11
52.85336736440604
 21
-342.363356784191
 31
0.0
 11
52.85789304931013
 21
-342.3533369189985
 31
0.0
 11
52.86288132049947
 21
-342.3434395518208
 31
0.0
 11
52.86832844088285
 21
-342.3336948637063
 31
0.0
 11
52.87422730698836
 21
-342.3241326628265
 31
0.0
 11
52.88056884347307
 21
-342.3147827835746
 31
0.0
 11
52.88734059066451
 21
-342.3056740162331
 31
0.0
 11
52.89742009701278
 21
-342.2934896837064
 31
0.0
 11
52.90825139874312
 21
-342.2818940532631
 31
0.0
 11
52.91977987536396
 21
-342.2709535033586
 31
0.0
 11
52.93194097054163
 21
-342.2607251811827
 31
0.0
 11
52.94466576605663
 21
-342.2512606220381
 31
0.0
 11
52.95787827637969
 21
-342.2426000356147
 31
0.0
 11
52.97150047021955
 21
-342.2347768142631
 31
0.0
 11
52.98545065911617
 21
-342.2278121071498
 31
0.0
 11
52.99964758970188
 21
-342.2217198854412
 31
0.0
 11
53.0140097848024
 21
-342.2165021955394
 31
0.0
 11
53.02845848612166
 21
-342.2121543581255
 31
0.0
 11
53.04291769940892
 21
-342.2086611534718
 31
0.0
 11
53.05731595172841
 21
-342.2060017261979
 31
0.0
 11
53.07158675566654
 21
-342.2041468001137
 31
0.0
 11
53.08566931047721
 21
-342.2030629352755
 31
0.0
 11
53.0995091242844
 21
-342.2027107342338
 31
0.0
  0
SPLINE
  5
DE
330
4C
100
AcDbEntity
  8
0
  6
Continuous
 62
     7
100
AcDbSpline
210
0.0
220
0.0
230
1.0
 70
     8
 71
     3
 72
    67
 73
    63
 74
    61
 42
0.0000000001
 43
0.0000000001
 44
0.00000001
 40
0.0
 40
0.0
 40
0.0
 40
0.0
 40
0.0138442945493318
 40
0.0279684976330547
 40
0.0423593487398944
 40
0.05700114586418
 40
0.0718763375396334
 40
0.0869650306482449
 40
0.1022456371724075
 40
0.1176945207283982
 40
0.1332866634656835
 40
0.148995481277343
 40
0.1647934617160865
 40
0.1806521596578317
 40
0.1965427483870973
 40
0.2124361874458225
 40
0.2283036302850799
 40
0.2441167389945503
 40
0.2554669020908166
 40
0.2667644826684776
 40
0.2779997978330661
 40
0.2891635815453891
 40
0.3002469351113939
 40
0.3112414574876074
 40
0.322139161667524
 40
0.3329326145261919
 40
0.343614823913659
 40
0.3541793838012891
 40
0.3646203380132591
 40
0.374932326930028
 40
0.3951462274820506
 40
0.4147928637962948
 40
0.4344395001105394
 40
0.454653400662504
 40
0.4649653895744076
 40
0.475406343791298
 40
0.4859709036787596
 40
0.4966531130663395
 40
0.507446565924968
 40
0.5183442701049742
 40
0.5293387924767892
 40
0.5404221460471408
 40
0.5515859297561185
 40
0.5628212449240994
 40
0.574118825499817
 40
0.5854689885979348
 40
0.6012820973082448
 40
0.6171495401467452
 40
0.6330429792055096
 40
0.648933567934702
 40
0.6647922658764415
 40
0.6805902463151597
 40
0.6962990641268759
 40
0.7118912068641612
 40
0.7273400904201324
 40
0.742620696944315
 40
0.7577093900528925
 40
0.772584581728367
 40
0.7872263788526872
 40
0.8016172299594981
 40
0.8157414330432167
 40
0.8295857275925484
 40
0.8295857275925484
 40
0.8295857275925484
 40
0.8295857275925484
 10
53.0995091242844
 20
-339.1309693342643
 30
0.0
 10
53.09489386989934
 20
-339.1309013716799
 30
0.0
 10
53.08557004838684
 20
-339.1307640724211
 30
0.0
 10
53.07148554213821
 20
-339.1296393650471
 30
0.0
 10
53.05721330156194
 20
-339.1277953264638
 30
0.0
 10
53.04281372414684
 20
-339.1251331137345
 30
0.0
 10
53.02835377215777
 20
-339.121640330803
 30
0.0
 10
53.01390425551674
 20
-339.117292833835
 30
0.0
 10
52.99954190090891
 20
-339.1120748868231
 30
0.0
 10
52.98534446516079
 20
-339.1059835225499
 30
0.0
 10
52.97139449611112
 20
-339.0990186612099
 30
0.0
 10
52.95777186292192
 20
-339.0911965597697
 30
0.0
 10
52.94455971423639
 20
-339.0825359356614
 30
0.0
 10
52.93183431502875
 20
-339.0730725757899
 30
0.0
 10
52.91967350764546
 20
-339.062844211012
 30
0.0
 10
52.90814409675889
 20
-339.0519046606693
 30
0.0
 10
52.89731290811979
 20
-339.0403088930752
 30
0.0
 10
52.88816344117654
 20
-339.0292505568426
 30
0.0
 10
52.88051244839414
 20
-339.0189589064341
 30
0.0
 10
52.87417034861853
 20
-339.0096089716524
 30
0.0
 10
52.86827130384201
 20
-339.0000464341863
 30
0.0
 10
52.86282362744203
 20
-338.9903015160498
 30
0.0
 10
52.85783512033769
 20
-338.9804036247638
 30
0.0
 10
52.85330887342737
 20
-338.9703833056817
 30
0.0
 10
52.84924733226515
 20
-338.9602699320357
 30
0.0
 10
52.84564853035838
 20
-338.9500932478347
 30
0.0
 10
52.84250989303649
 20
-338.9398815578437
 30
0.0
 10
52.83982487018204
 20
-338.9296629151582
 30
0.0
 10
52.83758642790449
 20
-338.9194634840846
 30
0.0
 10
52.83519920695055
 20
-338.9060150763397
 30
0.0
 10
52.8332601637366
 20
-338.8893846351725
 30
0.0
 10
52.83249724100949
 20
-338.8695445343251
 30
0.0
 10
52.83326016373663
 20
-338.8497044334778
 30
0.0
 10
52.83519920695032
 20
-338.8330739923122
 30
0.0
 10
52.83758642790423
 20
-338.8196255845671
 30
0.0
 10
52.83982487018157
 20
-338.8094261534936
 30
0.0
 10
52.84250989303655
 20
-338.7992075108065
 30
0.0
 10
52.84564853035833
 20
-338.7889958208154
 30
0.0
 10
52.84924733226526
 20
-338.7788191366146
 30
0.0
 10
52.85330887342678
 20
-338.7687057629699
 30
0.0
 10
52.85783512033707
 20
-338.7586854438878
 30
0.0
 10
52.86282362744082
 20
-338.7487875526025
 30
0.0
 10
52.8682713038415
 20
-338.739042634465
 30
0.0
 10
52.87417034861753
 20
-338.7294800969991
 30
0.0
 10
52.88051244839375
 20
-338.7201301622167
 30
0.0
 10
52.88816344117633
 20
-338.709838511808
 30
0.0
 10
52.89731290812
 20
-338.6987801755749
 30
0.0
 10
52.90814409675909
 20
-338.6871844079806
 30
0.0
 10
52.91967350764538
 20
-338.6762448576382
 30
0.0
 10
52.93183431502881
 20
-338.6660164928603
 30
0.0
 10
52.94455971423633
 20
-338.6565531329887
 30
0.0
 10
52.95777186292197
 20
-338.6478925088806
 30
0.0
 10
52.97139449611108
 20
-338.6400704074402
 30
0.0
 10
52.98534446516078
 20
-338.6331055461005
 30
0.0
 10
52.99954190090892
 20
-338.627014181827
 30
0.0
 10
53.01390425551672
 20
-338.6217962348153
 30
0.0
 10
53.02835377215774
 20
-338.617448737847
 30
0.0
 10
53.04281372414686
 20
-338.6139559549159
 30
0.0
 10
53.05721330156192
 20
-338.6112937421862
 30
0.0
 10
53.07148554213821
 20
-338.6094497036032
 30
0.0
 10
53.08557004838686
 20
-338.6083249962292
 30
0.0
 10
53.09489386989934
 20
-338.6081876969703
 30
0.0
 10
53.0995091242844
 20
-338.608119734386
 30
0.0
 11
53.0995091242844
 21
-339.1309693342643
 31
0.0
 11
53.08566931048526
 21
-339.1306171332228
 31
0.0
 11
53.0715867556828
 21
-339.1295332683852
 31
0.0
 11
53.05731595175293
 21
-339.127678342302
 31
0.0
 11
53.04291769944189
 21
-339.1250189150297
 31
0.0
 11
53.02845848616305
 21
-339.121525710378
 31
0.0
 11
53.01400978485219
 21
-339.1171778729667
 31
0.0
 11
52.99964758976002
 21
-339.1119601830678
 31
0.0
 11
52.98545065918245
 21
-339.1058679613629
 31
0.0
 11
52.97150047029402
 21
-339.0989032542537
 31
0.0
 11
52.95787827646211
 21
-339.0910800329066
 31
0.0
 11
52.94466576614675
 21
-339.0824194464882
 31
0.0
 11
52.93194097063918
 21
-339.0729548873491
 31
0.0
 11
52.91977987546855
 21
-339.0627265651791
 31
0.0
 11
52.90825139885442
 21
-339.0517860152811
 31
0.0
 11
52.89742009713036
 21
-339.0401903848446
 31
0.0
 11
52.88734059078797
 21
-339.0280060523249
 31
0.0
 11
52.88056884360164
 21
-339.0188972849903
 31
0.0
 11
52.87422730711944
 21
-339.0095474057422
 31
0.0
 11
52.86832844101746
 21
-338.999985204868
 31
0.0
 11
52.86288132063726
 21
-338.9902405167591
 31
0.0
 11
52.85789304945264
 21
-338.9803431495911
 31
0.0
 11
52.85336736454929
 21
-338.9703232844006
 31
0.0
 11
52.84930607389755
 21
-338.9602106252728
 31
0.0
 11
52.84570780349111
 21
-338.9500346204234
 31
0.0
 11
52.84256939775779
 21
-338.9398238414693
 31
0.0
 11
52.83988484166105
 21
-338.9296060587263
 31
0.0
 11
52.83764656814928
 21
-338.9194078404239
 31
0.0
 11
52.83584457350958
 21
-338.909254519256
 31
0.0
 11
52.83350298560849
 21
-338.889176702103
 31
0.0
 11
52.83274912434649
 21
-338.8695445343251
 31
0.0
 11
52.8335029856085
 21
-338.8499123665471
 31
0.0
 11
52.83584457350958
 21
-338.8298345493942
 31
0.0
 11
52.83764656814834
 21
-338.8196812282311
 31
0.0
 11
52.83988484166105
 21
-338.8094830099239
 31
0.0
 11
52.84256939775777
 21
-338.7992652271811
 31
0.0
 11
52.84570780349111
 21
-338.7890544482268
 31
0.0
 11
52.84930607389759
 21
-338.7788784433775
 31
0.0
 11
52.85336736454929
 21
-338.7687657842496
 31
0.0
 11
52.85789304945077
 21
-338.758745919063
 31
0.0
 11
52.86288132063726
 21
-338.7488485518911
 31
0.0
 11
52.86832844101579
 21
-338.7391038637851
 31
0.0
 11
52.87422730711944
 21
-338.729541662908
 31
0.0
 11
52.88056884360053
 21
-338.7201917836615
 31
0.0
 11
52.88734059078797
 21
-338.7110830163254
 31
0.0
 11
52.89742009713093
 21
-338.6988986838051
 31
0.0
 11
52.90825139885442
 21
-338.6873030533691
 31
0.0
 11
52.91977987546855
 21
-338.676362503471
 31
0.0
 11
52.93194097063918
 21
-338.6661341813011
 31
0.0
 11
52.94466576614674
 21
-338.656669622162
 31
0.0
 11
52.95787827646211
 21
-338.6480090357437
 31
0.0
 11
52.97150047029402
 21
-338.6401858143965
 31
0.0
 11
52.98545065918245
 21
-338.6332211072873
 31
0.0
 11
52.99964758976
 21
-338.6271288855824
 31
0.0
 11
53.01400978485219
 21
-338.6219111956835
 31
0.0
 11
53.02845848616302
 21
-338.6175633582722
 31
0.0
 11
53.04291769944189
 21
-338.6140701536205
 31
0.0
 11
53.05731595175294
 21
-338.6114107263481
 31
0.0
 11
53.0715867556828
 21
-338.609555800265
 31
0.0
 11
53.08566931048526
 21
-338.6084719354275
 31
0.0
 11
53.0995091242844
 21
-338.608119734386
 31
0.0
  0
SPLINE
  5
DF
330
4C
100
AcDbEntity
  8
0
  6
Continuous
 62
     7
100
AcDbSpline
210
0.0
220
0.0
230
1.0
 70
    11
 71
     3
 72
    79
 73
    75
 74
    73
 42
0.0000000001
 43
0.0000000001
 44
0.00000001
 40
0.0
 40
0.0
 40
0.0
 40
0.0
 40
0.2600089525168072
 40
0.5175370272136564
 40
0.8273250237398018
 40
1.134940466478534
 40
1.508499801079787
 40
1.880925323370418
 40
2.321168947870544
 40
2.760724436711048
 40
3.262523178246099
 40
3.763906246141662
 40
4.3174512748784
 40
4.870739274281068
 40
5.463162944097336
 40
6.055436769950892
 40
6.671915855856725
 40
7.288325545841275
 40
7.912922095970719
 40
8.537518646138471
 40
9.153928336179513
 40
9.770407422104325
 40
10.36268124795771
 40
10.95510491777409
 40
11.5083929171767
 40
12.06193794591356
 40
12.56332101380906
 40
13.06511975534411
 40
13.50467524418456
 40
13.94491886868469
 40
14.31734439097532
 40
14.69090372557662
 40
14.9985191683154
 40
15.30830716484154
 40
15.56583523953116
 40
15.82584419203312
 40
16.06463939032982
 40
16.30343458863345
 40
16.5634435411461
 40
16.82097161583904
 40
17.13075961236269
 40
17.43837505509496
 40
17.81193438969126
 40
18.18435991198491
 40
18.62460353648928
 40
19.06415902532851
 40
19.56595776686068
 40
20.06734083475461
 40
20.62088586349059
 40
21.174173862893
 40
21.76659753270929
 40
22.35887135856272
 40
22.97535044448748
 40
23.59176013452858
 40
24.21635668469627
 40
24.84095323482577
 40
25.45736292481032
 40
26.07384201071621
 40
26.66611583656965
 40
27.25853950638594
 40
27.81182750578852
 40
28.36537253452536
 40
28.86675560242027
 40
29.36855434395288
 40
29.80810983279178
 40
30.24835345729437
 40
30.62077897958626
 40
30.99433831418185
 40
31.30195375691408
 40
31.61174175343776
 40
31.86926982812954
 40
32.12927878063856
 40
32.36807397894205
 40
32.60686917723829
 40
32.60686917723829
 40
32.60686917723829
 40
32.60686917723829
 10
54.73692354611228
 20
-332.9519626166628
 30
0.0
 10
54.82007896594378
 20
-332.9776781457737
 30
0.0
 10
54.98559637740104
 20
-333.0288638390371
 30
0.0
 10
55.21976358474357
 20
-333.1794649046682
 30
0.0
 10
55.43924320467616
 20
-333.3724273230559
 30
0.0
 10
55.65680555913755
 20
-333.6221352393793
 30
0.0
 10
55.85690622985607
 20
-333.9114684334181
 30
0.0
 10
56.05355281924468
 20
-334.2549446978412
 30
0.0
 10
56.23223780402301
 20
-334.6326000347805
 30
0.0
 10
56.40333846891383
 20
-335.0604158282119
 30
0.0
 10
56.55595812706943
 20
-335.5167335537955
 30
0.0
 10
56.6968256199951
 20
-336.0163291491795
 30
0.0
 10
56.81864547492319
 20
-336.5385588438881
 30
0.0
 10
56.92526660896054
 20
-337.0949879139585
 30
0.0
 10
57.01229798575537
 20
-337.6678816489166
 30
0.0
 10
57.08162273793208
 20
-338.2643742113138
 30
0.0
 10
57.13094130662989
 20
-338.8708772262484
 30
0.0
 10
57.16103697049651
 20
-339.4894148423957
 30
0.0
 10
57.17090184628928
 20
-340.1113123342899
 30
0.0
 10
57.16103697050156
 20
-340.7332098262407
 30
0.0
 10
57.13094130660881
 20
-341.3517474423139
 30
0.0
 10
57.08162273801582
 20
-341.9582504576782
 30
0.0
 10
57.01229798545991
 20
-342.5547430186311
 30
0.0
 10
56.925266610034
 20
-343.1276367588388
 30
0.0
 10
56.81864547120949
 20
-343.6840658105506
 30
0.0
 10
56.69682563334028
 20
-344.20629557068
 30
0.0
 10
56.55595808243756
 20
-344.705890943722
 30
0.0
 10
56.40333862742526
 20
-345.1622094483603
 30
0.0
 10
56.2322372930805
 20
-345.5900226744349
 30
0.0
 10
56.05355461310368
 20
-345.9676868502918
 30
0.0
 10
55.85690066373441
 20
-346.3111348891764
 30
0.0
 10
55.65682495737551
 20
-346.6005638215775
 30
0.0
 10
55.43918469123037
 20
-346.8499729464585
 30
0.0
 10
55.21996933488543
 20
-347.0439488161556
 30
0.0
 10
54.98496854981163
 20
-347.1913531097094
 30
0.0
 10
54.74600893430571
 20
-347.2773877529136
 30
0.0
 10
54.49999912428252
 20
-347.3115562725102
 30
0.0
 10
54.2539893142561
 20
-347.2773877529128
 30
0.0
 10
54.01502969874178
 20
-347.1913531097113
 30
0.0
 10
53.78002891366333
 20
-347.0439488161575
 30
0.0
 10
53.56081355732053
 20
-346.8499729464602
 30
0.0
 10
53.34317329118538
 20
-346.6005638215763
 30
0.0
 10
53.14309758483616
 20
-346.3111348891727
 30
0.0
 10
52.94644363545952
 20
-345.9676868502918
 30
0.0
 10
52.76776095547148
 20
-345.5900226744375
 30
0.0
 10
52.59665962113132
 20
-345.1622094483609
 30
0.0
 10
52.44404016612896
 20
-344.7058909437212
 30
0.0
 10
52.30317261523174
 20
-344.2062955706797
 30
0.0
 10
52.18135277736601
 20
-343.6840658105504
 30
0.0
 10
52.07473163854279
 20
-343.1276367588385
 30
0.0
 10
51.98770026311682
 20
-342.5547430186313
 30
0.0
 10
51.91837551056106
 20
-341.9582504576781
 30
0.0
 10
51.86905694196811
 20
-341.3517474423144
 30
0.0
 10
51.83896127807486
 20
-340.7332098262392
 30
0.0
 10
51.82909640228933
 20
-340.1113123342957
 30
0.0
 10
51.83896127807382
 20
-339.4894148423739
 30
0.0
 10
51.86905694197101
 20
-338.8708772263287
 30
0.0
 10
51.91837551055634
 20
-338.2643742110182
 30
0.0
 10
51.98770026313713
 20
-337.6678816499716
 30
0.0
 10
52.07473163846882
 20
-337.094987910125
 30
0.0
 10
52.18135277762205
 20
-336.5385588571509
 30
0.0
 10
52.30317261431913
 20
-336.0163291015194
 30
0.0
 10
52.44404016920605
 20
-335.5167337131924
 30
0.0
 10
52.59665961024383
 20
-335.0604152621121
 30
0.0
 10
52.76776099060714
 20
-334.6326018595325
 30
0.0
 10
52.94644351213826
 20
-334.2549382913442
 30
0.0
 10
53.14309796750224
 20
-333.9114883119862
 30
0.0
 10
53.34317195757656
 20
-333.6220659614964
 30
0.0
 10
53.56081758005968
 20
-333.372636295009
 30
0.0
 10
53.78001476855292
 20
-333.1787300990463
 30
0.0
 10
54.01507286124033
 20
-333.0311060307033
 30
0.0
 10
54.25383113264687
 20
-332.9458435425069
 30
0.0
 10
54.50053617428361
 20
-332.9090088084308
 30
0.0
 10
54.65812775550353
 20
-332.9376446805856
 30
0.0
 10
54.73692354611228
 20
-332.9519626166628
 30
0.0
 11
54.73692354611228
 21
-332.9519626166628
 31
0.0
 11
54.98158582200279
 21
-333.0399684468388
 31
0.0
 11
55.20120901848545
 21
-333.1744539881576
 31
0.0
 11
55.43492186083491
 21
-333.377793384519
 31
0.0
 11
55.638212292162
 21
-333.6086618776968
 31
0.0
 11
55.85260468597168
 21
-333.9145744108566
 31
0.0
 11
56.03837106101919
 21
-334.2373616837705
 31
0.0
 11
56.22818313853526
 21
-334.6345843217734
 31
0.0
 11
56.39192381303754
 21
-335.0425034550381
 31
0.0
 11
56.55216294057605
 21
-335.5180298991102
 31
0.0
 11
56.68859276495172
 21
-336.0004942851463
 31
0.0
 11
56.81506532221563
 21
-336.539397607736
 31
0.0
 11
56.91942572985017
 21
-337.0827543189317
 31
0.0
 11
57.00887272551002
 21
-337.6683864897744
 31
0.0
 11
57.07736327353533
 21
-338.2566868634123
 31
0.0
 11
57.12760812086633
 21
-338.8711149866911
 31
0.0
 11
57.15756258273634
 21
-339.4867964271463
 31
0.0
 11
57.1675991242853
 21
-340.1113123342834
 31
0.0
 11
57.15756258273634
 21
-340.7358282414589
 31
0.0
 11
57.12760812086631
 21
-341.3515096819706
 31
0.0
 11
57.07736327353533
 21
-341.9659378052685
 31
0.0
 11
57.00887272551002
 21
-342.5542381789061
 31
0.0
 11
56.91942572985018
 21
-343.139870349749
 31
0.0
 11
56.81506532221563
 21
-343.6832270609446
 31
0.0
 11
56.68859276495171
 21
-344.2221303835345
 31
0.0
 11
56.55216294057605
 21
-344.7045947695705
 31
0.0
 11
56.39192381303754
 21
-345.1801212136426
 31
0.0
 11
56.22818313853527
 21
-345.5880403469072
 31
0.0
 11
56.03837106101919
 21
-345.9852629849102
 31
0.0
 11
55.85260468597167
 21
-346.308050257824
 31
0.0
 11
55.638212292162
 21
-346.6139627909839
 31
0.0
 11
55.4349218608349
 21
-346.8448312841618
 31
0.0
 11
55.20120901848545
 21
-347.0481706805232
 31
0.0
 11
54.98158582200343
 21
-347.1826562218292
 31
0.0
 11
54.73692354611485
 21
-347.2706620519667
 31
0.0
 11
54.49999912428488
 21
-347.3004943343147
 31
0.0
 11
54.26307470244793
 21
-347.2706620519667
 31
0.0
 11
54.01841242654798
 21
-347.1826562218293
 31
0.0
 11
53.79878923006213
 21
-347.0481706805232
 31
0.0
 11
53.56507638771593
 21
-346.8448312841618
 31
0.0
 11
53.36178595639875
 21
-346.6139627909839
 31
0.0
 11
53.14739356259778
 21
-346.308050257824
 31
0.0
 11
52.96162718754422
 21
-345.9852629849102
 31
0.0
 11
52.77181511001854
 21
-345.5880403469071
 31
0.0
 11
52.60807443551926
 21
-345.1801212136426
 31
0.0
 11
52.44783530798976
 21
-344.7045947695705
 31
0.0
 11
52.31140548361991
 21
-344.2221303835345
 31
0.0
 11
52.18493292635956
 21
-343.6832270609447
 31
0.0
 11
52.08057251872638
 21
-343.139870349749
 31
0.0
 11
51.99112552306674
 21
-342.5542381789062
 31
0.0
 11
51.92263497504152
 21
-341.9659378052685
 31
0.0
 11
51.87239012771052
 21
-341.3515096819706
 31
0.0
 11
51.84243566584051
 21
-340.7358282414589
 31
0.0
 11
51.83239912429156
 21
-340.1113123342835
 31
0.0
 11
51.84243566584051
 21
-339.4867964271463
 31
0.0
 11
51.87239012771051
 21
-338.8711149866911
 31
0.0
 11
51.92263497504151
 21
-338.2566868634122
 31
0.0
 11
51.99112552306675
 21
-337.6683864897745
 31
0.0
 11
52.08057251872638
 21
-337.0827543189317
 31
0.0
 11
52.18493292636079
 21
-336.5393976077361
 31
0.0
 11
52.31140548362487
 21
-336.0004942851463
 31
0.0
 11
52.44783530799815
 21
-335.5180298991102
 31
0.0
 11
52.60807443552901
 21
-335.0425034550381
 31
0.0
 11
52.77181511002713
 21
-334.6345843217735
 31
0.0
 11
52.9616271875488
 21
-334.2373616837705
 31
0.0
 11
53.14739356259894
 21
-333.9145744108567
 31
0.0
 11
53.36178595639875
 21
-333.6086618776968
 31
0.0
 11
53.56507638771593
 21
-333.377793384519
 31
0.0
 11
53.79878923006213
 21
-333.1744539881576
 31
0.0
 11
54.01841242654667
 21
-333.0399684468516
 31
0.0
 11
54.26307470244272
 21
-332.951962616714
 31
0.0
 11
54.49999912427793
 21
-332.9221303343532
 31
0.0
 11
54.73692354611228
 21
-332.9519626166628
 31
0.0
  0
SPLINE
  5
E0
330
4C
100
AcDbEntity
  8
0
  6
Continuous
 62
     7
100
AcDbSpline
210
0.0
220
0.0
230
1.0
 70
    11
 71
     3
 72
   167
 73
   163
 74
   161
 42
0.0000000001
 43
0.0000000001
 44
0.00000001
 40
0.0
 40
0.0
 40
0.0
 40
0.0
 40
0.0311279525200453
 40
0.062653246169854
 40
0.0945683696653933
 40
0.126864702847049
 40
0.1595327979211437
 40
0.1925620540311449
 40
0.2259410055587215
 40
0.2596570096637972
 40
0.2936965375975063
 40
0.3280448837970424
 40
0.3626864556225741
 40
0.3976045128615447
 40
0.4327814505579284
 40
0.4681985778124413
 40
0.503836387937298
 40
0.539674384641763
 40
0.5756913332386993
 40
0.6118651412228073
 40
0.6481730839191502
 40
0.6845917445716793
 40
0.7210972078802667
 40
0.7576650623666406
 40
0.7942705554471705
 40
0.8308886582937869
 40
0.8674941766965547
 40
0.9040618759389227
 40
0.9405665426527619
 40
0.9769831647353457
 40
1.013286940829463
 40
1.049453508071259
 40
1.085458897621525
 40
1.121279801476945
 40
1.166488180368975
 40
1.211317489882782
 40
1.255725004820573
 40
1.299670767830548
 40
1.343117083623937
 40
1.386029400455065
 40
1.428375662287155
 40
1.470127165254235
 40
1.511257800145886
 40
1.551744859011667
 40
1.592113146347743
 40
1.633121897555181
 40
1.674756660042669
 40
1.71699136533707
 40
1.759797880642798
 40
1.803144709644615
 40
1.843137398384244
 40
1.883523470336523
 40
1.92427319119418
 40
1.965354850658617
 40
2.006735359737339
 40
2.048379969740196
 40
2.090252841484611
 40
2.13231687406885
 40
2.174534221482813
 40
2.216866236303587
 40
2.259273908573879
 40
2.301717923858614
 40
2.344159001644235
 40
2.38655806121159
 40
2.428876441422406
 40
2.471076163468755
 40
2.513639275089849
 40
2.556005202265595
 40
2.598137634155363
 40
2.640001823073782
 40
2.681564398956096
 40
2.722793857876336
 40
2.763660248560504
 40
2.804135696789966
 40
2.844193982002565
 40
2.883811081589966
 40
2.922964659894083
 40
2.961634618340994
 40
2.999802520485615
 40
3.037452136079111
 40
3.07456882599252
 40
3.111140069934315
 40
3.147711313875996
 40
3.184828003789462
 40
3.222477619383014
 40
3.260645521527579
 40
3.299315479956179
 40
3.338469058278663
 40
3.378086157885209
 40
3.418144443078608
 40
3.45861989130797
 40
3.499486281992341
 40
3.540715740896313
 40
3.58227831679479
 40
3.624142505713206
 40
3.666274937603026
 40
3.708640864771912
 40
3.751203976399867
 40
3.793403698446163
 40
3.835722078656989
 40
3.878121138224302
 40
3.920562216009963
 40
3.963006231294655
 40
4.005413903564988
 40
4.047745918385695
 40
4.089963265799653
 40
4.132027298384006
 40
4.173900170128381
 40
4.21554478013129
 40
4.25692528921001
 40
4.298006948674399
 40
4.338756669532063
 40
4.379142741484341
 40
4.419135430223999
 40
4.462482259225831
 40
4.505288774531545
 40
4.547523479825938
 40
4.589158242313421
 40
4.630166993520862
 40
4.670535280856939
 40
4.711022339722685
 40
4.752152974614376
 40
4.793904477581456
 40
4.836250739413546
 40
4.879163056244692
 40
4.922609372038035
 40
4.966555135048081
 40
5.010962649985831
 40
5.055791959499625
 40
5.101000338391668
 40
5.136821242247088
 40
5.172826631797354
 40
5.208993199039138
 40
5.245296975133267
 40
5.28171359721582
 40
5.318218263929692
 40
5.354785963172089
 40
5.391391481574826
 40
5.428009584424299
 40
5.46461507750197
 40
5.501182931988335
 40
5.537688395296931
 40
5.574107055949461
 40
5.610414998645804
 40
5.6465888066266
 40
5.682605755226851
 40
5.718443751936241
 40
5.754081562056174
 40
5.789498689310694
 40
5.82467562700702
 40
5.859593684245938
 40
5.894235256071576
 40
5.928583602278391
 40
5.962623130204822
 40
5.996339134309787
 40
6.029718085837364
 40
6.062747341947363
 40
6.095415437021443
 40
6.127711770197228
 40
6.15962689369865
 40
6.191152187348459
 40
6.222280139868562
 40
6.222280139868562
 40
6.222280139868562
 40
6.222280139868562
 10
52.83501039728901
 20
-336.5167213342643
 30
0.0
 10
52.83510759744705
 20
-336.5063448998926
 30
0.0
 10
52.83530323850074
 20
-336.4854595783595
 30
0.0
 10
52.83689939775666
 20
-336.453968664406
 30
0.0
 10
52.83949232580799
 20
-336.4221573423171
 30
0.0
 10
52.84320962367887
 20
-336.3900722055168
 30
0.0
 10
52.84805855394964
 20
-336.3577633796369
 30
0.0
 10
52.85407402754699
 20
-336.3252837633168
 30
0.0
 10
52.8612813925973
 20
-336.2926897221316
 30
0.0
 10
52.86970223889716
 20
-336.2600397918137
 30
0.0
 10
52.87935662467234
 20
-336.2273958230195
 30
0.0
 10
52.89025755764117
 20
-336.194821011358
 30
0.0
 10
52.90241693481525
 20
-336.1623816227092
 30
0.0
 10
52.91583853133275
 20
-336.1301442332117
 30
0.0
 10
52.93052492266681
 20
-336.0981781551959
 30
0.0
 10
52.94646984614981
 20
-336.0665517973443
 30
0.0
 10
52.96366578563345
 20
-336.0353358912449
 30
0.0
 10
52.98209593986444
 20
-336.0045989202133
 30
0.0
 10
53.00174229025432
 20
-335.9744112151056
 30
0.0
 10
53.02257738884957
 20
-335.9448394477459
 30
0.0
 10
53.04457270968138
 20
-335.9159516231667
 30
0.0
 10
53.06769048005706
 20
-335.8878106866263
 30
0.0
 10
53.09189209493832
 20
-335.8604803907389
 30
0.0
 10
53.11713021402711
 20
-335.8340181189074
 30
0.0
 10
53.14335701122135
 20
-335.8084815538899
 30
0.0
 10
53.17051674289228
 20
-335.7839208698912
 30
0.0
 10
53.19855361303753
 20
-335.7603860787833
 30
0.0
 10
53.22740498623968
 20
-335.7379187831759
 30
0.0
 10
53.25700867421271
 20
-335.7165600325849
 30
0.0
 10
53.28729691998201
 20
-335.6963418572132
 30
0.0
 10
53.3182029637069
 20
-335.6772954306897
 30
0.0
 10
53.34965581950738
 20
-335.6594426260135
 30
0.0
 10
53.38158623030779
 20
-335.6428042226225
 30
0.0
 10
53.41680907788466
 20
-335.6260155009501
 30
0.0
 10
53.4553875407181
 20
-335.609493866421
 30
0.0
 10
53.49734026996855
 20
-335.5936933406384
 30
0.0
 10
53.53954802517002
 20
-335.5798870820217
 30
0.0
 10
53.58187123066811
 20
-335.5680517664649
 30
0.0
 10
53.62417849466764
 20
-335.558161126398
 30
0.0
 10
53.66634240060709
 20
-335.5501708789942
 30
0.0
 10
53.70824435143538
 20
-335.5440346046682
 30
0.0
 10
53.7497722918068
 20
-335.5396912749769
 30
0.0
 10
53.79082343717324
 20
-335.5370784816308
 30
0.0
 10
53.8314847509757
 20
-335.5361186586683
 30
0.0
 10
53.87211147127979
 20
-335.5367696466628
 30
0.0
 10
53.91306243941809
 20
-335.5390602878691
 30
0.0
 10
53.95450675906591
 20
-335.5430677345337
 30
0.0
 10
53.99634563983557
 20
-335.5488563712902
 30
0.0
 10
54.03846837043647
 20
-335.5564883998204
 30
0.0
 10
54.07950229954973
 20
-335.5657293447968
 30
0.0
 10
54.1193413088881
 20
-335.57643482794
 30
0.0
 10
54.15789991039333
 20
-335.5884486913531
 30
0.0
 10
54.19628901558254
 20
-335.6021179326961
 30
0.0
 10
54.23440324128629
 20
-335.6174486136506
 30
0.0
 10
54.27213225216788
 20
-335.6344447064576
 30
0.0
 10
54.30936734555622
 20
-335.6530944468591
 30
0.0
 10
54.34599590600872
 20
-335.6733839134183
 30
0.0
 10
54.38190976720379
 20
-335.6952825839488
 30
0.0
 10
54.41699794145018
 20
-335.7187579380009
 30
0.0
 10
54.45115686352857
 20
-335.743760718522
 30
0.0
 10
54.48428129460272
 20
-335.7702400806349
 30
0.0
 10
54.51627630886355
 20
-335.7981290890528
 30
0.0
 10
54.54704643161931
 20
-335.8273598779454
 30
0.0
 10
54.5765090780076
 20
-335.8578498965375
 30
0.0
 10
54.60458213652993
 20
-335.8895165461616
 30
0.0
 10
54.63130762045907
 20
-335.9223989248257
 30
0.0
 10
54.6565981109428
 20
-335.9564175519763
 30
0.0
 10
54.68038075868203
 20
-335.9914796640638
 30
0.0
 10
54.70250223677847
 20
-336.0273392176559
 30
0.0
 10
54.72293100730372
 20
-336.0638826506198
 30
0.0
 10
54.74163791320608
 20
-336.1009997454188
 30
0.0
 10
54.7586113379125
 20
-336.1385759420499
 30
0.0
 10
54.77384211790314
 20
-336.1765010905666
 30
0.0
 10
54.78733762375478
 20
-336.2146636667719
 30
0.0
 10
54.79910751823031
 20
-336.2529574657081
 30
0.0
 10
54.80917633743495
 20
-336.2912775172816
 30
0.0
 10
54.81757055646242
 20
-336.3295248650146
 30
0.0
 10
54.82432939098796
 20
-336.3676039034528
 30
0.0
 10
54.82949351034505
 20
-336.4054254946313
 30
0.0
 10
54.83311391993195
 20
-336.4429054029711
 30
0.0
 10
54.83524251340919
 20
-336.4799660782633
 30
0.0
 10
54.83594260756574
 20
-336.5167213342642
 30
0.0
 10
54.83524251340916
 20
-336.5534765902654
 30
0.0
 10
54.83311391993195
 20
-336.5905372655574
 30
0.0
 10
54.82949351034505
 20
-336.6280171738971
 30
0.0
 10
54.82432939098877
 20
-336.6658387650697
 30
0.0
 10
54.81757055646361
 20
-336.7039178035078
 30
0.0
 10
54.80917633743516
 20
-336.7421651512473
 30
0.0
 10
54.79910751822857
 20
-336.7804852028265
 30
0.0
 10
54.78733762375268
 20
-336.8187790017627
 30
0.0
 10
54.77384211790302
 20
-336.8569415779618
 30
0.0
 10
54.75861133791462
 20
-336.8948667264738
 30
0.0
 10
54.74163791320831
 20
-336.9324429231046
 30
0.0
 10
54.72293100730636
 20
-336.9695600179041
 30
0.0
 10
54.70250223677845
 20
-337.0061034508726
 30
0.0
 10
54.68038075868323
 20
-337.0419630044628
 30
0.0
 10
54.65659811094417
 20
-337.0770251165505
 30
0.0
 10
54.63130762046049
 20
-337.1110437437009
 30
0.0
 10
54.60458213652992
 20
-337.1439261223669
 30
0.0
 10
54.57650907800762
 20
-337.175592771991
 30
0.0
 10
54.54704643161928
 20
-337.2060827905831
 30
0.0
 10
54.51627630886361
 20
-337.2353135794757
 30
0.0
 10
54.48428129460265
 20
-337.2632025878935
 30
0.0
 10
54.45115686352865
 20
-337.2896819500065
 30
0.0
 10
54.41699794145008
 20
-337.3146847305275
 30
0.0
 10
54.38190976720394
 20
-337.3381600845797
 30
0.0
 10
54.34599590600875
 20
-337.3600587551103
 30
0.0
 10
54.30936734555617
 20
-337.3803482216692
 30
0.0
 10
54.27213225216792
 20
-337.3989979620712
 30
0.0
 10
54.23440324128633
 20
-337.4159940548778
 30
0.0
 10
54.19628901558249
 20
-337.4313247358325
 30
0.0
 10
54.15789991039335
 20
-337.4449939771753
 30
0.0
 10
54.11934130888807
 20
-337.4570078405884
 30
0.0
 10
54.07950229954976
 20
-337.4677133237317
 30
0.0
 10
54.03846837043647
 20
-337.4769542687084
 30
0.0
 10
53.99634563983557
 20
-337.4845862972384
 30
0.0
 10
53.95450675906591
 20
-337.4903749339948
 30
0.0
 10
53.91306243941809
 20
-337.4943823806594
 30
0.0
 10
53.87211147127979
 20
-337.4966730218657
 30
0.0
 10
53.83148475097572
 20
-337.4973240098604
 30
0.0
 10
53.79082343717326
 20
-337.4963641868976
 30
0.0
 10
53.74977229180681
 20
-337.4937513935517
 30
0.0
 10
53.70824435143538
 20
-337.4894080638602
 30
0.0
 10
53.66634240060706
 20
-337.4832717895344
 30
0.0
 10
53.62417849466769
 20
-337.4752815421305
 30
0.0
 10
53.58187123066804
 20
-337.4653909020637
 30
0.0
 10
53.53954802517003
 20
-337.4535555865068
 30
0.0
 10
53.49734026996853
 20
-337.4397493278901
 30
0.0
 10
53.45538754071811
 20
-337.4239488021074
 30
0.0
 10
53.41680907788466
 20
-337.4074271675785
 30
0.0
 10
53.3815862303078
 20
-337.3906384459059
 30
0.0
 10
53.3496558195074
 20
-337.374000042515
 30
0.0
 10
53.31820296370691
 20
-337.3561472378387
 30
0.0
 10
53.28729691998205
 20
-337.3371008113152
 30
0.0
 10
53.25700867421267
 20
-337.3168826359439
 30
0.0
 10
53.22740498623968
 20
-337.2955238853525
 30
0.0
 10
53.19855361303759
 20
-337.2730565897451
 30
0.0
 10
53.17051674289149
 20
-337.2495217986367
 30
0.0
 10
53.14335701122073
 20
-337.2249611146379
 30
0.0
 10
53.1171302140264
 20
-337.1994245496206
 30
0.0
 10
53.09189209493835
 20
-337.1729622777894
 30
0.0
 10
53.06769048005706
 20
-337.1456319819023
 30
0.0
 10
53.04457270968138
 20
-337.1174910453615
 30
0.0
 10
53.02257738885024
 20
-337.0886032207836
 30
0.0
 10
53.00174229025486
 20
-337.0590314534238
 30
0.0
 10
52.98209593986414
 20
-337.0288437483148
 30
0.0
 10
52.96366578563261
 20
-336.9981067772823
 30
0.0
 10
52.94646984614909
 20
-336.9668908711826
 30
0.0
 10
52.93052492266681
 20
-336.9352645133326
 30
0.0
 10
52.91583853133275
 20
-336.903298435317
 30
0.0
 10
52.90241693481519
 20
-336.8710610458193
 30
0.0
 10
52.89025755764037
 20
-336.8386216571682
 30
0.0
 10
52.87935662467154
 20
-336.8060468455067
 30
0.0
 10
52.86970223889662
 20
-336.7734028767125
 30
0.0
 10
52.86128139259726
 20
-336.740752946397
 30
0.0
 10
52.854074027547
 20
-336.7081589052118
 30
0.0
 10
52.84805855394961
 20
-336.6756792888918
 30
0.0
 10
52.84320962367934
 20
-336.6433704630137
 30
0.0
 10
52.83949232580813
 20
-336.6112853262135
 30
0.0
 10
52.83689939775676
 20
-336.5794740041246
 30
0.0
 10
52.83530323850074
 20
-336.5479830901691
 30
0.0
 10
52.83510759744706
 20
-336.5270977686359
 30
0.0
 10
52.83501039728901
 20
-336.5167213342643
 30
0.0
 11
52.83501039728901
 21
-336.5167213342643
 31
0.0
 11
52.83551473435585
 21
-336.485597467663
 31
0.0
 11
52.8370526964203
 21
-336.4541097111155
 31
0.0
 11
52.83966103482857
 21
-336.4223013524895
 31
0.0
 11
52.84337376687154
 21
-336.3902191337732
 31
0.0
 11
52.84822316269289
 21
-336.3579129765282
 31
0.0
 11
52.85423791358301
 21
-336.3254359918943
 31
0.0
 11
52.86144443523295
 21
-336.2928442682395
 31
0.0
 11
52.86986473080822
 21
-336.2601966411399
 31
0.0
 11
52.87951802387818
 21
-336.2275545916507
 31
0.0
 11
52.89041834993645
 21
-336.1949817229028
 31
0.0
 11
52.9025765184752
 21
-336.162543821671
 31
0.0
 11
52.91599748432248
 21
-336.1303079969247
 31
0.0
 11
52.93068262184399
 21
-336.0983429584973
 31
0.0
 11
52.94662694354929
 21
-336.0667177864294
 31
0.0
 11
52.96382165149718
 21
-336.0355024772193
 31
0.0
 11
52.98225128314698
 21
-336.0047663309898
 31
0.0
 11
53.00189648701485
 21
-335.9745788078847
 31
0.0
 11
53.02273118326025
 21
-335.9450075411476
 31
0.0
 11
53.04472549431023
 21
-335.9161195335272
 31
0.0
 11
53.06784300880747
 21
-335.8879788269406
 31
0.0
 11
53.09204378516611
 21
-335.8606480517043
 31
0.0
 11
53.1172818019005
 21
-335.8341858051434
 31
0.0
 11
53.14350794435477
 21
-335.8086485465662
 31
0.0
 11
53.17066771250427
 21
-335.7840877556557
 31
0.0
 11
53.1987040996671
 21
-335.7605521449266
 31
0.0
 11
53.22755561171221
 21
-335.7380846822174
 31
0.0
 11
53.25715895180095
 21
-335.7167250720271
 31
0.0
 11
53.2874473844297
 21
-335.6965067335
 31
0.0
 11
53.31835315193869
 21
-335.6774594845288
 31
0.0
 11
53.34980619499561
 21
-335.6596065668816
 31
0.0
 11
53.38173624359091
 21
-335.6429674541238
 31
0.0
 11
53.41407188480639
 21
-335.6275550091457
 31
0.0
 11
53.45562905822526
 21
-335.6097561648158
 31
0.0
 11
53.49758163410172
 21
-335.5939558999821
 31
0.0
 11
53.5397881365265
 21
-335.580148708522
 31
0.0
 11
53.58211033512464
 21
-335.5683139464902
 31
0.0
 11
53.6244157229258
 21
-335.5584227120368
 31
0.0
 11
53.66657771251028
 21
-335.5504331206772
 31
0.0
 11
53.70847697015823
 21
-335.5442965011108
 31
0.0
 11
53.7500020072323
 21
-335.5399537720141
 31
0.0
 11
53.79104955524899
 21
-335.5373407415115
 31
0.0
 11
53.83152534459055
 21
-335.5363855385076
 31
0.0
 11
53.87188845295995
 21
-335.5370321490614
 31
0.0
 11
53.91283318335627
 21
-335.5393227228686
 31
0.0
 11
53.95427468040148
 21
-335.5433296880595
 31
0.0
 11
53.99611077196039
 21
-335.549118623573
 31
0.0
 11
54.03823154419213
 21
-335.5567500257523
 31
0.0
 11
54.0805190949302
 21
-335.5662742389527
 31
0.0
 11
54.11914167802669
 21
-335.5766526409289
 31
0.0
 11
54.15769925411132
 21
-335.5886671377645
 31
0.0
 11
54.19608803782254
 21
-335.6023361185294
 31
0.0
 11
54.23420161899014
 21
-335.6176677092796
 31
0.0
 11
54.27193068446398
 21
-335.6346637132242
 31
0.0
 11
54.3091653076865
 21
-335.6533146213996
 31
0.0
 11
54.3457941486425
 21
-335.6736041605354
 31
0.0
 11
54.3817075411348
 21
-335.6955041851231
 31
0.0
 11
54.41679605763756
 21
-335.7189797134943
 31
0.0
 11
54.45095435971246
 21
-335.7439839107049
 31
0.0
 11
54.48407904727136
 21
-335.7704634450949
 31
0.0
 11
54.51607317568539
 21
-335.7983537692328
 31
0.0
 11
54.54684335716426
 21
-335.8275845922688
 31
0.0
 11
54.57630479124794
 21
-335.8580756426595
 31
0.0
 11
54.60437764449195
 21
-335.8897420320086
 31
0.0
 11
54.63099239808594
 21
-335.9224906416267
 31
0.0
 11
54.65638645004061
 21
-335.9566485191397
 31
0.0
 11
54.68016721185416
 21
-335.9917105663279
 31
0.0
 11
54.7022879597482
 21
-336.0275688196255
 31
0.0
 11
54.72271466117252
 21
-336.0641114000314
 31
0.0
 11
54.74142067811919
 21
-336.1012265269201
 31
0.0
 11
54.75839199651068
 21
-336.1388010213932
 31
0.0
 11
54.77362183645807
 21
-336.1767234931313
 31
0.0
 11
54.78711535048524
 21
-336.2148835113254
 31
0.0
 11
54.79888437198828
 21
-336.2531739324126
 31
0.0
 11
54.80895145735315
 21
-336.2914906177073
 31
0.0
 11
54.81734498302436
 21
-336.3297339363502
 31
0.0
 11
54.82410246292477
 21
-336.3678088907387
 31
0.0
 11
54.82926616486356
 21
-336.4056258834325
 31
0.0
 11
54.8328856880845
 21
-336.4431011099961
 31
0.0
 11
54.83501421871203
 21
-336.4801567172303
 31
0.0
 11
54.83571039728906
 21
-336.5167213342643
 31
0.0
 11
54.835014218712
 21
-336.5532859512981
 31
0.0
 11
54.8328856880845
 21
-336.5903415585324
 31
0.0
 11
54.82926616486356
 21
-336.627816785096
 31
0.0
 11
54.82410246292477
 21
-336.6656337777898
 31
0.0
 11
54.81734498302794
 21
-336.7037087321603
 31
0.0
 11
54.80895145735315
 21
-336.7419520508212
 31
0.0
 11
54.79888437198304
 21
-336.7802687361344
 31
0.0
 11
54.78711535048524
 21
-336.8185591572031
 31
0.0
 11
54.77362183645805
 21
-336.8567191753971
 31
0.0
 11
54.75839199651068
 21
-336.8946416471354
 31
0.0
 11
54.74142067812612
 21
-336.9322161415938
 31
0.0
 11
54.72271466117252
 21
-336.9693312684971
 31
0.0
 11
54.70228795974821
 21
-337.005873848903
 31
0.0
 11
54.68016721185416
 21
-337.0417321022006
 31
0.0
 11
54.65638645004462
 21
-337.0767941493833
 31
0.0
 11
54.63099239808594
 21
-337.1109520269018
 31
0.0
 11
54.60437764449196
 21
-337.1437006365199
 31
0.0
 11
54.57630479124794
 21
-337.175367025869
 31
0.0
 11
54.54684335716426
 21
-337.2058580762596
 31
0.0
 11
54.51607317568539
 21
-337.2350888992957
 31
0.0
 11
54.48407904727136
 21
-337.2629792234335
 31
0.0
 11
54.45095435971246
 21
-337.2894587578236
 31
0.0
 11
54.41679605763756
 21
-337.3144629550341
 31
0.0
 11
54.38170754113492
 21
-337.3379384834054
 31
0.0
 11
54.34579414864248
 21
-337.3598385079931
 31
0.0
 11
54.3091653076865
 21
-337.3801280471289
 31
0.0
 11
54.27193068446398
 21
-337.3987789553044
 31
0.0
 11
54.23420161899014
 21
-337.415774959249
 31
0.0
 11
54.19608803782255
 21
-337.4311065499991
 31
0.0
 11
54.15769925411132
 21
-337.444775530764
 31
0.0
 11
54.11914167802669
 21
-337.4567900275996
 31
0.0
 11
54.0805190949302
 21
-337.4671684295759
 31
0.0
 11
54.03823154419212
 21
-337.4766926427764
 31
0.0
 11
53.99611077196039
 21
-337.4843240449556
 31
0.0
 11
53.95427468040148
 21
-337.4901129804691
 31
0.0
 11
53.91283318335627
 21
-337.4941199456599
 31
0.0
 11
53.87188845295995
 21
-337.4964105194672
 31
0.0
 11
53.83152534459055
 21
-337.497057130021
 31
0.0
 11
53.79104955524902
 21
-337.4961019270171
 31
0.0
 11
53.7500020072323
 21
-337.4934888965144
 31
0.0
 11
53.70847697015823
 21
-337.4891461674177
 31
0.0
 11
53.66657771251028
 21
-337.4830095478513
 31
0.0
 11
53.6244157229258
 21
-337.4750199564916
 31
0.0
 11
53.58211033512464
 21
-337.4651287220384
 31
0.0
 11
53.53978813652645
 21
-337.4532939600065
 31
0.0
 11
53.49758163410172
 21
-337.4394867685464
 31
0.0
 11
53.45562905822527
 21
-337.4236865037127
 31
0.0
 11
53.41407188480639
 21
-337.4058876593828
 31
0.0
 11
53.38173624359091
 21
-337.3904752144047
 31
0.0
 11
53.34980619499561
 21
-337.3738361016469
 31
0.0
 11
53.31835315193871
 21
-337.3559831839997
 31
0.0
 11
53.2874473844297
 21
-337.3369359350285
 31
0.0
 11
53.25715895180095
 21
-337.3167175965014
 31
0.0
 11
53.22755561171221
 21
-337.2953579863111
 31
0.0
 11
53.19870409966711
 21
-337.2728905236018
 31
0.0
 11
53.17066771250427
 21
-337.2493549128728
 31
0.0
 11
53.14350794435271
 21
-337.2247941219603
 31
0.0
 11
53.1172818019005
 21
-337.1992568633851
 31
0.0
 11
53.09204378516613
 21
-337.1727946168241
 31
0.0
 11
53.06784300880747
 21
-337.1454638415879
 31
0.0
 11
53.04472549431023
 21
-337.1173231350013
 31
0.0
 11
53.02273118326025
 21
-337.0884351273809
 31
0.0
 11
53.00189648701664
 21
-337.0588638606466
 31
0.0
 11
52.98225128314698
 21
-337.0286763375387
 31
0.0
 11
52.96382165149472
 21
-336.9979401913049
 31
0.0
 11
52.94662694354929
 21
-336.9667248820991
 31
0.0
 11
52.93068262184397
 21
-336.9350997100312
 31
0.0
 11
52.91599748432248
 21
-336.9031346716038
 31
0.0
 11
52.9025765184752
 21
-336.8708988468576
 31
0.0
 11
52.89041834993645
 21
-336.8384609456257
 31
0.0
 11
52.87951802387596
 21
-336.8058880768709
 31
0.0
 11
52.86986473080822
 21
-336.7732460273886
 31
0.0
 11
52.86144443523295
 21
-336.7405984002891
 31
0.0
 11
52.85423791358301
 21
-336.7080066766343
 31
0.0
 11
52.8482231626929
 21
-336.6755296920004
 31
0.0
 11
52.84337376687165
 21
-336.6432235347554
 31
0.0
 11
52.83966103482915
 21
-336.611141316045
 31
0.0
 11
52.8370526964203
 21
-336.5793329574131
 31
0.0
 11
52.83551473435585
 21
-336.5478452008656
 31
0.0
 11
52.83501039728901
 21
-336.5167213342643
 31
0.0
  0
SPLINE
  5
E1
330
4C
100
AcDbEntity
  8
0
  6
Continuous
 62
     7
100
AcDbSpline
210
0.0
220
0.0
230
1.0
 70
    11
 71
     3
 72
   167
 73
   163
 74
   161
 42
0.0000000001
 43
0.0000000001
 44
0.00000001
 40
0.0
 40
0.0
 40
0.0
 40
0.0
 40
0.0332031493491378
 40
0.0668301292474204
 40
0.100872927648922
 40
0.1353223497029067
 40
0.1701683177816519
 40
0.2053995242987819
 40
0.241003739261351
 40
0.2769674769731942
 40
0.3132763067688781
 40
0.3499145427148869
 40
0.3868655526619622
 40
0.4241114803832587
 40
0.4616335472526317
 40
0.4994118163305079
 40
0.5374254804582438
 40
0.5756526769479963
 40
0.6140707554546725
 40
0.6526561506340993
 40
0.6913846228432208
 40
0.7302311942056223
 40
0.7691703550687621
 40
0.8081760665199134
 40
0.8472219258025167
 40
0.8862812355083886
 40
0.9253271218094613
 40
0.9643326676627835
 40
1.003270978824027
 40
1.042115375711865
 40
1.080839403537302
 40
1.119417075269829
 40
1.157822824114248
 40
1.196031788235409
 40
1.24425405905332
 40
1.292071989201051
 40
1.339440005134403
 40
1.386315485678089
 40
1.432658222524197
 40
1.478431360477123
 40
1.523600706431155
 40
1.568135642929093
 40
1.61200832014665
 40
1.655194516269863
 40
1.698254022761434
 40
1.741996690715804
 40
1.786407104035556
 40
1.831457456349267
 40
1.877117739341778
 40
1.923354356943504
 40
1.966013224932203
 40
2.00909170168098
 40
2.052558070595698
 40
2.096378507357368
 40
2.140517717041142
 40
2.184938634377276
 40
2.229603030884647
 40
2.274471332327417
 40
2.319503169568705
 40
2.36465731871051
 40
2.409892169131998
 40
2.45516578543548
 40
2.500436268406586
 40
2.545661931944793
 40
2.59080153750278
 40
2.635814574351961
 40
2.681215226747521
 40
2.726405549068046
 40
2.771346809737259
 40
2.816001944596343
 40
2.860335358887721
 40
2.904313448385162
 40
2.947904265114751
 40
2.991078076559158
 40
3.033806914119044
 40
3.076065153678715
 40
3.117828970536264
 40
3.159076926212807
 40
3.199789355149383
 40
3.239948945132846
 40
3.279540081040402
 40
3.31854940791137
 40
3.357558734782281
 40
3.397149870689837
 40
3.437309460655966
 40
3.478021889609987
 40
3.519269845266942
 40
3.561033662144024
 40
3.603291901703697
 40
3.646020739263526
 40
3.689194550688297
 40
3.732785367437524
 40
3.776763456935017
 40
3.821096871226395
 40
3.865752006072551
 40
3.910693266754644
 40
3.955883589067837
 40
4.001284241470821
 40
4.04629727831994
 40
4.0914368838779
 40
4.136662547421513
 40
4.181933030387214
 40
4.227206646690658
 40
4.272441497112181
 40
4.317595646253952
 40
4.362627483495276
 40
4.407495784938075
 40
4.452160181445419
 40
4.49658109878159
 40
4.540720308465326
 40
4.584540745227038
 40
4.628007114141717
 40
4.671085590890487
 40
4.713744458879193
 40
4.759981076480909
 40
4.805641359473425
 40
4.850691711787134
 40
4.895102125106883
 40
4.938844793061299
 40
4.981904299552826
 40
5.025090495676031
 40
5.068963172893592
 40
5.11349810939157
 40
5.158667455345565
 40
5.204440593298533
 40
5.250783330144612
 40
5.297658810688368
 40
5.345026826621649
 40
5.39284475676938
 40
5.441067027587291
 40
5.479275991699474
 40
5.517681740552872
 40
5.556259412285399
 40
5.594983440110836
 40
5.633827836991888
 40
5.672766148159917
 40
5.711771694013205
 40
5.750817580314314
 40
5.789876890020148
 40
5.828922749302791
 40
5.867928460754807
 40
5.906867621617082
 40
5.945714192979493
 40
5.984442665188605
 40
6.023028060371436
 40
6.061446138874707
 40
6.099673335364508
 40
6.137686999492194
 40
6.175465268563556
 40
6.212987335439442
 40
6.250233263160686
 40
6.287184273107814
 40
6.32382250905377
 40
6.360131338849508
 40
6.396095076561352
 40
6.431699291523921
 40
6.466930498048311
 40
6.501776466119796
 40
6.536225888180178
 40
6.570268686575282
 40
6.603895666473451
 40
6.637098815822646
 40
6.637098815822646
 40
6.637098815822646
 40
6.637098815822646
 10
52.76832039729504
 20
-336.5167213342643
 30
0.0
 10
52.76842407746359
 20
-336.505653137603
 30
0.0
 10
52.76863276125414
 20
-336.4833754613011
 30
0.0
 10
52.77033533112701
 20
-336.4497851530822
 30
0.0
 10
52.77310112104879
 20
-336.4158530761856
 30
0.0
 10
52.77706623877781
 20
-336.3816289302656
 30
0.0
 10
52.78223843106626
 20
-336.3471661826626
 30
0.0
 10
52.78865493623663
 20
-336.312521258588
 30
0.0
 10
52.79634279229035
 20
-336.277754281324
 30
0.0
 10
52.80532502834335
 20
-336.2429276889852
 30
0.0
 10
52.81562303983697
 20
-336.2081074556049
 30
0.0
 10
52.82725070167023
 20
-336.1733609898328
 30
0.0
 10
52.8402207039892
 20
-336.1387589752744
 30
0.0
 10
52.85453707360708
 20
-336.1043724264791
 30
0.0
 10
52.87020255769641
 20
-336.0702752765958
 30
0.0
 10
52.88721047607741
 20
-336.0365404948893
 30
0.0
 10
52.90555281152746
 20
-336.0032435283813
 30
0.0
 10
52.9252116427075
 20
-335.9704574259466
 30
0.0
 10
52.94616774979099
 20
-335.938257207164
 30
0.0
 10
52.96839185495907
 20
-335.9067139886469
 30
0.0
 10
52.99185353051231
 20
-335.8759003090973
 30
0.0
 10
53.01651248557958
 20
-335.8458833101205
 30
0.0
 10
53.04232754145301
 20
-335.8167309945078
 30
0.0
 10
53.06924820181327
 20
-335.7885045712213
 30
0.0
 10
53.09722345215363
 20
-335.7612655685366
 30
0.0
 10
53.12619383260351
 20
-335.7350675056034
 30
0.0
 10
53.15609982742593
 20
-335.7099637284215
 30
0.0
 10
53.18687462550803
 20
-335.6859986131071
 30
0.0
 10
53.21845189267769
 20
-335.6632159458107
 30
0.0
 10
53.25075935482925
 20
-335.6416498920831
 30
0.0
 10
53.28372580146889
 20
-335.621333703791
 30
0.0
 10
53.31727551431985
 20
-335.602290712138
 30
0.0
 10
53.35133461917582
 20
-335.5845430818529
 30
0.0
 10
53.38890565659082
 20
-335.566635112069
 30
0.0
 10
53.43005601694892
 20
-335.5490120352366
 30
0.0
 10
53.4748055948159
 20
-335.532158141069
 30
0.0
 10
53.51982720036376
 20
-335.517431465211
 30
0.0
 10
53.56497195289485
 20
-335.5048071286172
 30
0.0
 10
53.61009970116082
 20
-335.4942571125462
 30
0.0
 10
53.65507453416261
 20
-335.4857341819816
 30
0.0
 10
53.69976994837929
 20
-335.4791888227014
 30
0.0
 10
53.74406641810852
 20
-335.4745559376967
 30
0.0
 10
53.78785430649918
 20
-335.4717689581279
 30
0.0
 10
53.83122637455487
 20
-335.4707451469677
 30
0.0
 10
53.87456154287896
 20
-335.471439534162
 30
0.0
 10
53.9182425755596
 20
-335.4738828847818
 30
0.0
 10
53.96244984985036
 20
-335.4781574945576
 30
0.0
 10
54.00707798933769
 20
-335.484332040431
 30
0.0
 10
54.05200890197843
 20
-335.492472870863
 30
0.0
 10
54.09577842636567
 20
-335.5023298788379
 30
0.0
 10
54.13827336965964
 20
-335.5137490608574
 30
0.0
 10
54.17940254459836
 20
-335.526563848498
 30
0.0
 10
54.22035092346648
 20
-335.541144372597
 30
0.0
 10
54.26100609755039
 20
-335.5574970989484
 30
0.0
 10
54.30125037582384
 20
-335.575626264609
 30
0.0
 10
54.34096780876531
 20
-335.5955193210342
 30
0.0
 10
54.38003827324789
 20
-335.617161418697
 30
0.0
 10
54.41834639185608
 20
-335.6405200005956
 30
0.0
 10
54.45577377772408
 20
-335.6655603782548
 30
0.0
 10
54.49220996127414
 20
-335.6922300108106
 30
0.0
 10
54.52754268775308
 20
-335.7204746637307
 30
0.0
 10
54.56167070296446
 20
-335.7502229393765
 30
0.0
 10
54.59449216723706
 20
-335.7814024475283
 30
0.0
 10
54.6259189900511
 20
-335.8139251340261
 30
0.0
 10
54.65586358580811
 20
-335.8477028936252
 30
0.0
 10
54.68437076866549
 20
-335.882777430867
 30
0.0
 10
54.71134729184814
 20
-335.9190639664937
 30
0.0
 10
54.73671544943415
 20
-335.9564635527166
 30
0.0
 10
54.76031169273704
 20
-335.9947137432147
 30
0.0
 10
54.78210238130025
 20
-336.0336934050473
 30
0.0
 10
54.80205641426426
 20
-336.0732849728369
 30
0.0
 10
54.82016140061745
 20
-336.113366249243
 30
0.0
 10
54.83640756593837
 20
-336.153819740989
 30
0.0
 10
54.8508027721802
 20
-336.1945264889407
 30
0.0
 10
54.86335732628729
 20
-336.235373207806
 30
0.0
 10
54.87409740010562
 20
-336.2762479294839
 30
0.0
 10
54.88305123373476
 20
-336.3170451003993
 30
0.0
 10
54.89026065722769
 20
-336.3576627413938
 30
0.0
 10
54.89576905120889
 20
-336.3980057719841
 30
0.0
 10
54.89963082143503
 20
-336.4379843408794
 30
0.0
 10
54.90190132114466
 20
-336.4775157278634
 30
0.0
 10
54.90264808824491
 20
-336.5167213342642
 30
0.0
 10
54.90190132114461
 20
-336.5559269406651
 30
0.0
 10
54.89963082143539
 20
-336.5954583276432
 30
0.0
 10
54.8957690512095
 20
-336.6354368965387
 30
0.0
 10
54.89026065722959
 20
-336.6757799271226
 30
0.0
 10
54.88305123373608
 20
-336.716397568123
 30
0.0
 10
54.87409740010726
 20
-336.7571947390381
 30
0.0
 10
54.86335732628732
 20
-336.7980694607227
 30
0.0
 10
54.85080277218209
 20
-336.8389161795815
 30
0.0
 10
54.83640756594075
 20
-336.8796229275335
 30
0.0
 10
54.82016140062012
 20
-336.9200764192794
 30
0.0
 10
54.80205641426429
 20
-336.9601576956917
 30
0.0
 10
54.78210238130215
 20
-336.9997492634773
 30
0.0
 10
54.7603116927393
 20
-337.0387289253102
 30
0.0
 10
54.73671544943781
 20
-337.0769791158062
 30
0.0
 10
54.71134729184955
 20
-337.1143787020328
 30
0.0
 10
54.68437076866709
 20
-337.1506652376599
 30
0.0
 10
54.65586358580804
 20
-337.1857397749033
 30
0.0
 10
54.62591899004995
 20
-337.2195175345037
 30
0.0
 10
54.59449216723579
 20
-337.2520402210015
 30
0.0
 10
54.56167070296312
 20
-337.2832197291532
 30
0.0
 10
54.52754268775303
 20
-337.3129680047978
 30
0.0
 10
54.49220996127417
 20
-337.3412126577179
 30
0.0
 10
54.45577377772409
 20
-337.3678822902738
 30
0.0
 10
54.41834639185609
 20
-337.3929226679328
 30
0.0
 10
54.38003827324794
 20
-337.4162812498316
 30
0.0
 10
54.34096780876527
 20
-337.4379233474942
 30
0.0
 10
54.30125037582381
 20
-337.4578164039194
 30
0.0
 10
54.26100609755037
 20
-337.4759455695801
 30
0.0
 10
54.22035092346654
 20
-337.4922982959317
 30
0.0
 10
54.17940254459834
 20
-337.5068788200305
 30
0.0
 10
54.13827336965961
 20
-337.5196936076711
 30
0.0
 10
54.0957784263657
 20
-337.5311127896905
 30
0.0
 10
54.05200890197838
 20
-337.5409697976653
 30
0.0
 10
54.00707798933772
 20
-337.5491106280975
 30
0.0
 10
53.96244984985032
 20
-337.5552851739708
 30
0.0
 10
53.91824257555959
 20
-337.5595597837467
 30
0.0
 10
53.87456154287896
 20
-337.5620031343666
 30
0.0
 10
53.83122637455485
 20
-337.5626975215608
 30
0.0
 10
53.78785430649916
 20
-337.5616737104007
 30
0.0
 10
53.74406641810851
 20
-337.5588867308319
 30
0.0
 10
53.69976994837928
 20
-337.5542538458271
 30
0.0
 10
53.65507453416259
 20
-337.5477084865469
 30
0.0
 10
53.6100997011608
 20
-337.5391855559825
 30
0.0
 10
53.56497195289482
 20
-337.5286355399113
 30
0.0
 10
53.51982720036376
 20
-337.5160112033173
 30
0.0
 10
53.47480559481585
 20
-337.5012845274596
 30
0.0
 10
53.43005601694895
 20
-337.4844306332916
 30
0.0
 10
53.38890565659358
 20
-337.4668075564608
 30
0.0
 10
53.35133461917847
 20
-337.4488995866769
 30
0.0
 10
53.31727551432246
 20
-337.4311519563919
 30
0.0
 10
53.28372580146889
 20
-337.4121089647373
 30
0.0
 10
53.25075935483117
 20
-337.3917927764467
 30
0.0
 10
53.21845189267955
 20
-337.370226722719
 30
0.0
 10
53.18687462550984
 20
-337.3474440554228
 30
0.0
 10
53.15609982742588
 20
-337.323478940107
 30
0.0
 10
53.12619383260353
 20
-337.2983751629249
 30
0.0
 10
53.09722345215361
 20
-337.2721770999921
 30
0.0
 10
53.06924820181308
 20
-337.2449380973071
 30
0.0
 10
53.0423275414528
 20
-337.2167116740204
 30
0.0
 10
53.01651248557941
 20
-337.1875593584077
 30
0.0
 10
52.99185353051229
 20
-337.1575423594311
 30
0.0
 10
52.96839185495838
 20
-337.1267286798807
 30
0.0
 10
52.94616774979041
 20
-337.0951854613634
 30
0.0
 10
52.92521164270687
 20
-337.062985242581
 30
0.0
 10
52.90555281152749
 20
-337.0301991401471
 30
0.0
 10
52.88721047607842
 20
-336.996902173641
 30
0.0
 10
52.87020255769743
 20
-336.9631673919347
 30
0.0
 10
52.85453707360791
 20
-336.9290702420514
 30
0.0
 10
52.84022070398916
 20
-336.8946836932542
 30
0.0
 10
52.82725070167024
 20
-336.8600816786956
 30
0.0
 10
52.81562303983695
 20
-336.8253352129237
 30
0.0
 10
52.80532502834336
 20
-336.7905149795433
 30
0.0
 10
52.79634279229035
 20
-336.7556883872045
 30
0.0
 10
52.78865493623612
 20
-336.7209214099381
 30
0.0
 10
52.78223843106585
 20
-336.6862764858636
 30
0.0
 10
52.77706623877723
 20
-336.6518137382585
 30
0.0
 10
52.77310112104855
 20
-336.6175895923408
 30
0.0
 10
52.77033533112692
 20
-336.5836575154441
 30
0.0
 10
52.76863276125415
 20
-336.5500672072275
 30
0.0
 10
52.76842407746359
 20
-336.5277895309255
 30
0.0
 10
52.76832039729504
 20
-336.5167213342643
 30
0.0
 11
52.76832039729504
 21
-336.5167213342643
 31
0.0
 11
52.76885835683279
 21
-336.4835225432285
 31
0.0
 11
52.77049884970165
 21
-336.449935602906
 31
0.0
 11
52.7732810773378
 21
-336.416006687032
 31
0.0
 11
52.77724132484968
 21
-336.3817856537411
 31
0.0
 11
52.78241401372571
 21
-336.34732575268
 31
0.0
 11
52.78882974800843
 21
-336.3126836357374
 31
0.0
 11
52.79651670443503
 21
-336.2779191305058
 31
0.0
 11
52.80549835304851
 21
-336.2430949949331
 31
0.0
 11
52.8157951989898
 21
-336.2082768088115
 31
0.0
 11
52.82742221345188
 21
-336.1735324154806
 31
0.0
 11
52.84039092655984
 21
-336.1389319875001
 31
0.0
 11
52.85470662346359
 21
-336.1045471077711
 31
0.0
 11
52.8703707701502
 21
-336.0704510667879
 31
0.0
 11
52.88737804663867
 21
-336.0367175499098
 31
0.0
 11
52.90571906844703
 21
-336.0034212200904
 31
0.0
 11
52.92537734220923
 21
-335.9706359974412
 31
0.0
 11
52.94633222633681
 21
-335.938435972793
 31
0.0
 11
52.96855590232985
 21
-335.9068932882765
 31
0.0
 11
52.99201650078302
 21
-335.8760794134816
 31
0.0
 11
53.01667518291322
 21
-335.8460626597895
 31
0.0
 11
53.04248934436293
 21
-335.8169098328704
 31
0.0
 11
53.06940989554551
 21
-335.7886834365394
 31
0.0
 11
53.09738444749439
 21
-335.7614436940594
 31
0.0
 11
53.12635486685588
 21
-335.7352455170862
 31
0.0
 11
53.15626034650002
 21
-335.7101408656389
 31
0.0
 11
53.18703529267737
 21
-335.6861755720856
 31
0.0
 11
53.21861218877186
 21
-335.6633919878827
 31
0.0
 11
53.25091985024233
 21
-335.6418257601206
 31
0.0
 11
53.28388600224481
 21
-335.6215086945555
 31
0.0
 11
53.31743591484565
 21
-335.6024655823945
 31
0.0
 11
53.35149463333912
 21
-335.584717195457
 31
0.0
 11
53.38598598397675
 21
-335.5682772541431
 31
0.0
 11
53.43031363562328
 21
-335.5492918201912
 31
0.0
 11
53.47506304989122
 21
-335.5324382043688
 31
0.0
 11
53.52008331914404
 21
-335.5177105334781
 31
0.0
 11
53.56522699764844
 21
-335.5050867873109
 31
0.0
 11
53.6103527446362
 21
-335.4945361372274
 31
0.0
 11
53.65532553352603
 21
-335.4860139064439
 31
0.0
 11
53.700018075017
 21
-335.4794681789065
 31
0.0
 11
53.74431144789571
 21
-335.4748359345366
 31
0.0
 11
53.78809549911331
 21
-335.4720487020004
 31
0.0
 11
53.83126967441069
 21
-335.4710298187963
 31
0.0
 11
53.87432365667114
 21
-335.4717195367204
 31
0.0
 11
53.91799803576032
 21
-335.474162815448
 31
0.0
 11
53.96220229927498
 21
-335.4784369116516
 31
0.0
 11
54.00682746360417
 21
-335.4846117761993
 31
0.0
 11
54.05175628731777
 21
-335.4927519385237
 31
0.0
 11
54.09686300810483
 21
-335.5029110992709
 31
0.0
 11
54.13806043007417
 21
-335.5139813947122
 31
0.0
 11
54.17918851123079
 21
-335.5267968580034
 31
0.0
 11
54.2201365471893
 21
-335.5413771041526
 31
0.0
 11
54.26079103376776
 21
-335.5577308009526
 31
0.0
 11
54.30103537027303
 21
-335.5758598718267
 31
0.0
 11
54.34075230171015
 21
-335.5957541738804
 31
0.0
 11
54.37982306537921
 21
-335.6173963489486
 31
0.0
 11
54.41813068405463
 21
-335.6407563751853
 31
0.0
 11
54.45555843499065
 21
-335.6657969387811
 31
0.0
 11
54.49199395720359
 21
-335.6924680824722
 31
0.0
 11
54.52732695726631
 21
-335.7207129191547
 31
0.0
 11
54.56145402757443
 21
-335.750462598235
 31
0.0
 11
54.59427555448504
 21
-335.7816421428066
 31
0.0
 11
54.62570108417413
 21
-335.8141659298898
 31
0.0
 11
54.65564546096758
 21
-335.847943411862
 31
0.0
 11
54.68403453146755
 21
-335.8828752621212
 31
0.0
 11
54.71112152021914
 21
-335.9193103314681
 31
0.0
 11
54.73648766615349
 21
-335.9567098484686
 31
0.0
 11
54.76008313056707
 21
-335.9949586519747
 31
0.0
 11
54.7818716120928
 21
-336.0339374044186
 31
0.0
 11
54.80182469684321
 21
-336.0735268731152
 31
0.0
 11
54.81992743645333
 21
-336.1136063338707
 31
0.0
 11
54.8361725990637
 21
-336.1540569703912
 31
0.0
 11
54.85056568069263
 21
-336.1947609897979
 31
0.0
 11
54.86311930362914
 21
-336.235604105624
 31
0.0
 11
54.87385752801833
 21
-336.2764752366048
 31
0.0
 11
54.88281062206752
 21
-336.3172681098238
 31
0.0
 11
54.89001860062797
 21
-336.3578813945046
 31
0.0
 11
54.89552654936061
 21
-336.3982195200272
 31
0.0
 11
54.89938737413149
 21
-336.4381930950453
 31
0.0
 11
54.90165780680096
 21
-336.477719076095
 31
0.0
 11
54.90240039728315
 21
-336.5167213342643
 31
0.0
 11
54.90165780680095
 21
-336.5557235924335
 31
0.0
 11
54.89938737413149
 21
-336.5952495734832
 31
0.0
 11
54.89552654936259
 21
-336.6352231484841
 31
0.0
 11
54.89001860062797
 21
-336.675561274024
 31
0.0
 11
54.88281062207136
 21
-336.7161745586856
 31
0.0
 11
54.87385752801833
 21
-336.7569674319237
 31
0.0
 11
54.86311930362913
 21
-336.7978385629045
 31
0.0
 11
54.85056568069263
 21
-336.8386816787306
 31
0.0
 11
54.83617259907068
 21
-336.8793856981189
 31
0.0
 11
54.81992743645333
 21
-336.9198363346578
 31
0.0
 11
54.80182469684321
 21
-336.9599157954134
 31
0.0
 11
54.7818716120928
 21
-336.9995052641099
 31
0.0
 11
54.76008313057363
 21
-337.0384840165427
 31
0.0
 11
54.73648766615349
 21
-337.0767328200599
 31
0.0
 11
54.7111215202234
 21
-337.1141323370544
 31
0.0
 11
54.68403453146755
 21
-337.1505674064074
 31
0.0
 11
54.65564546096753
 21
-337.1854992566665
 31
0.0
 11
54.62570108417413
 21
-337.2192767386387
 31
0.0
 11
54.5942755544812
 21
-337.2518005257257
 31
0.0
 11
54.56145402757443
 21
-337.2829800702935
 31
0.0
 11
54.52732695726631
 21
-337.3127297493737
 31
0.0
 11
54.49199395720359
 21
-337.3409745860563
 31
0.0
 11
54.45555843499069
 21
-337.3676457297474
 31
0.0
 11
54.41813068405463
 21
-337.3926862933432
 31
0.0
 11
54.37982306537921
 21
-337.4160463195799
 31
0.0
 11
54.34075230171015
 21
-337.4376884946481
 31
0.0
 11
54.30103537027298
 21
-337.4575827967018
 31
0.0
 11
54.26079103376776
 21
-337.4757118675759
 31
0.0
 11
54.2201365471893
 21
-337.492065564376
 31
0.0
 11
54.17918851123079
 21
-337.5066458105251
 31
0.0
 11
54.13806043007418
 21
-337.5194612738163
 31
0.0
 11
54.09686300810483
 21
-337.5305315692576
 31
0.0
 11
54.05175628731776
 21
-337.5406907300047
 31
0.0
 11
54.00682746360417
 21
-337.5488308923292
 31
0.0
 11
53.96220229927496
 21
-337.5550057568768
 31
0.0
 11
53.91799803576032
 21
-337.5592798530805
 31
0.0
 11
53.87432365667109
 21
-337.5617231318082
 31
0.0
 11
53.83126967441069
 21
-337.5624128497322
 31
0.0
 11
53.78809549911332
 21
-337.5613939665281
 31
0.0
 11
53.74431144789571
 21
-337.558606733992
 31
0.0
 11
53.70001807501697
 21
-337.553974489622
 31
0.0
 11
53.65532553352603
 21
-337.5474287620847
 31
0.0
 11
53.61035274463616
 21
-337.5389065313011
 31
0.0
 11
53.56522699764844
 21
-337.5283558812176
 31
0.0
 11
53.52008331914398
 21
-337.5157321350504
 31
0.0
 11
53.47506304989122
 21
-337.5010044641597
 31
0.0
 11
53.43031363562328
 21
-337.4841508483373
 31
0.0
 11
53.38598598397675
 21
-337.4651654143854
 31
0.0
 11
53.35149463334714
 21
-337.4487254730756
 31
0.0
 11
53.31743591484565
 21
-337.430977086134
 31
0.0
 11
53.28388600224481
 21
-337.411933973973
 31
0.0
 11
53.25091985024233
 21
-337.3916169084079
 31
0.0
 11
53.21861218877743
 21
-337.3700506806496
 31
0.0
 11
53.18703529267737
 21
-337.3472670964429
 31
0.0
 11
53.15626034650002
 21
-337.3233018028897
 31
0.0
 11
53.12635486685588
 21
-337.2981971514423
 31
0.0
 11
53.09738444749439
 21
-337.2719989744692
 31
0.0
 11
53.06940989554551
 21
-337.2447592319891
 31
0.0
 11
53.04248934436234
 21
-337.2165328356575
 31
0.0
 11
53.01667518291322
 21
-337.187380008739
 31
0.0
 11
52.99201650078301
 21
-337.1573632550468
 31
0.0
 11
52.96855590232985
 21
-337.126549380252
 31
0.0
 11
52.94633222633493
 21
-337.0950066957326
 31
0.0
 11
52.92537734220923
 21
-337.0628066710873
 31
0.0
 11
52.90571906844703
 21
-337.030021448438
 31
0.0
 11
52.88737804663867
 21
-336.9967251186187
 31
0.0
 11
52.87037077015306
 21
-336.9629916017465
 31
0.0
 11
52.85470662346359
 21
-336.9288955607574
 31
0.0
 11
52.84039092655984
 21
-336.8945106810284
 31
0.0
 11
52.82742221345188
 21
-336.8599102530479
 31
0.0
 11
52.8157951989898
 21
-336.825165859717
 31
0.0
 11
52.80549835304851
 21
-336.7903476735954
 31
0.0
 11
52.79651670443503
 21
-336.7555235380227
 31
0.0
 11
52.78882974800843
 21
-336.7207590327911
 31
0.0
 11
52.78241401372452
 21
-336.6861169158413
 31
0.0
 11
52.77724132484968
 21
-336.6516570147874
 31
0.0
 11
52.77328107733716
 21
-336.6174359814901
 31
0.0
 11
52.77049884970165
 21
-336.5835070656225
 31
0.0
 11
52.7688583568328
 21
-336.5499201253001
 31
0.0
 11
52.76832039729504
 21
-336.5167213342643
 31
0.0
  0
SPLINE
  5
E2
330
4C
100
AcDbEntity
  8
0
  6
Continuous
 62
     7
100
AcDbSpline
210
0.0
220
0.0
230
1.0
 70
    11
 71
     3
 72
    91
 73
    87
 74
    85
 42
0.0000000001
 43
0.0000000001
 44
0.00000001
 40
0.0
 40
0.0
 40
0.0
 40
0.0
 40
0.1646124123764506
 40
0.3281328382224939
 40
0.4950057825359601
 40
0.654347117451644
 40
0.9487588693492501
 40
1.241388202183694
 40
1.384890346878215
 40
1.524199566652217
 40
1.66192764356002
 40
1.799454172362952
 40
2.07363453644891
 40
2.343847373035329
 40
2.876375682337364
 40
3.404475257358601
 40
3.928422436236795
 40
4.450108980053232
 40
5.487898710558484
 40
6.522311585955647
 40
7.554104356645832
 40
8.58531513737179
 40
9.616779190323026
 40
10.64973419308884
 40
11.68442410048781
 40
12.7257992446353
 40
13.24938831053383
 40
13.77714985399684
 40
14.04348722968128
 40
14.31001849408393
 40
14.57958771804504
 40
14.85313717333529
 40
15.12633589175606
 40
15.40836025491932
 40
15.70091662883605
 40
15.99489527862256
 40
16.15180243841476
 40
16.31626735861231
 40
16.47957747136612
 40
16.6437768940228
 40
16.8150579219285
 40
16.99133304341767
 40
17.16910293483341
 40
17.3420662728752
 40
17.50667868525556
 40
17.67019911110216
 40
17.83707205541994
 40
17.9964133903398
 40
18.29082514223585
 40
18.58345447506269
 40
18.72695661975642
 40
18.8662658395302
 40
19.00399391637788
 40
19.14152044515236
 40
19.41570080925231
 40
19.68591364582395
 40
20.21844195515075
 40
20.74654153017411
 40
21.27048870904784
 40
21.79217525284197
 40
22.82996498343324
 40
23.86437785884228
 40
24.89617062959899
 40
25.92738141033456
 40
26.95884546321929
 40
27.99180046597611
 40
29.02649037337425
 40
30.06786551752053
 40
30.5914545834056
 40
31.11921612678334
 40
31.38555350249749
 40
31.6520847669672
 40
31.92165399093177
 40
32.19520344622063
 40
32.46840216463895
 40
32.75042652779917
 40
33.04298290171312
 40
33.33696155149914
 40
33.49386871125245
 40
33.65833363144527
 40
33.82164374423132
 40
33.98584316689929
 40
34.15712419480236
 40
34.33339931628129
 40
34.50850641712779
 40
34.68417985454746
 40
34.68417985454746
 40
34.68417985454746
 40
34.68417985454746
 10
54.8199135844103
 20
-332.6354642527071
 30
0.0
 10
54.87276669417169
 20
-332.6503659986492
 30
0.0
 10
54.97812230292877
 20
-332.6800706370774
 30
0.0
 10
55.1305124673305
 20
-332.7444573294033
 30
0.0
 10
55.27385317773846
 20
-332.8231302798534
 30
0.0
 10
55.44448383866661
 20
-332.9405949476204
 30
0.0
 10
55.63329938167351
 20
-333.1035329693598
 30
0.0
 10
55.8010269988874
 20
-333.2807242509067
 30
0.0
 10
55.92039671363813
 20
-333.4309727228599
 30
0.0
 10
56.00314495979477
 20
-333.5441487649966
 30
0.0
 10
56.08172975823843
 20
-333.6578379373179
 30
0.0
 10
56.18119933424074
 20
-333.8116524696765
 30
0.0
 10
56.29507498355949
 20
-334.0085575459608
 30
0.0
 10
56.45832207976883
 20
-334.3283762171101
 30
0.0
 10
56.63619191168999
 20
-334.7352545286898
 30
0.0
 10
56.81512290580073
 20
-335.2325249911451
 30
0.0
 10
56.96632253157519
 20
-335.7350682782048
 30
0.0
 10
57.13554823251774
 20
-336.4087919777422
 30
0.0
 10
57.29811263896249
 20
-337.2588303823887
 30
0.0
 10
57.42476163435278
 20
-338.2863142559111
 30
0.0
 10
57.49416724916126
 20
-339.3169520145455
 30
0.0
 10
57.50845571327288
 20
-340.3488038683502
 30
0.0
 10
57.46972232418064
 20
-341.3804393899777
 30
0.0
 10
57.3736584962415
 20
-342.4095496324347
 30
0.0
 10
57.2177393837677
 20
-343.4347482528056
 30
0.0
 10
57.02657412436886
 20
-344.2809855813265
 30
0.0
 10
56.82904083506548
 20
-344.950242451432
 30
0.0
 10
56.68211193838408
 20
-345.3644815774323
 30
0.0
 10
56.54757828175585
 20
-345.6915073934219
 30
0.0
 10
56.43629517932082
 20
-345.9348000329307
 30
0.0
 10
56.31556462225116
 20
-346.1762628440136
 30
0.0
 10
56.18109447039716
 20
-346.4130003990238
 30
0.0
 10
56.03072253240298
 20
-346.6449222875409
 30
0.0
 10
55.8618783840212
 20
-346.8719021784253
 30
0.0
 10
55.66722102498159
 20
-347.086929486041
 30
0.0
 10
55.4812246334766
 20
-347.2516005823971
 30
0.0
 10
55.31538838359344
 20
-347.3726005643737
 30
0.0
 10
55.17634954837683
 20
-347.4555172426646
 30
0.0
 10
55.02672916171979
 20
-347.5233737944138
 30
0.0
 10
54.86911530950307
 20
-347.5771625074382
 30
0.0
 10
54.7022680539859
 20
-347.6143830159801
 30
0.0
 10
54.52740651599157
 20
-347.6314473502694
 30
0.0
 10
54.35138599865058
 20
-347.6219940390372
 30
0.0
 10
54.18197510153708
 20
-347.591068523383
 30
0.0
 10
54.02208173194829
 20
-347.5417338140052
 30
0.0
 10
53.86942953262678
 20
-347.4783915333887
 30
0.0
 10
53.72615921517185
 20
-347.399438012589
 30
0.0
 10
53.55550705447286
 20
-347.282059038014
 30
0.0
 10
53.3667013542203
 20
-347.1190817852927
 30
0.0
 10
53.19897094789255
 20
-346.9419016205635
 30
0.0
 10
53.07960158923574
 20
-346.7916517292982
 30
0.0
 10
52.99685327460953
 20
-346.6784759601703
 30
0.0
 10
52.91826849399562
 20
-346.5647867167268
 30
0.0
 10
52.81879891218733
 20
-346.4109722075449
 30
0.0
 10
52.7049232657119
 20
-346.2140671200484
 30
0.0
 10
52.54167616838375
 20
-345.894248453224
 30
0.0
 10
52.36380633699633
 20
-345.4873701395531
 30
0.0
 10
52.18487534271647
 20
-344.9900996777525
 30
0.0
 10
52.03367571699521
 20
-344.4875563905243
 30
0.0
 10
51.86445001602343
 20
-343.8138326910268
 30
0.0
 10
51.70188560961708
 20
-342.9637942863203
 30
0.0
 10
51.57523661421406
 20
-341.9363104127538
 30
0.0
 10
51.50583099941502
 20
-340.905672654087
 30
0.0
 10
51.49154253528563
 20
-339.8738208002801
 30
0.0
 10
51.53027592438332
 20
-338.842185278674
 30
0.0
 10
51.62633975232929
 20
-337.8130750362442
 30
0.0
 10
51.78225886479235
 20
-336.7878764158734
 30
0.0
 10
51.9734241241935
 20
-335.9416390873635
 30
0.0
 10
52.17095741347053
 20
-335.2723822172759
 30
0.0
 10
52.31788631018259
 20
-334.8581430913315
 30
0.0
 10
52.45241996680556
 20
-334.5311172752932
 30
0.0
 10
52.56370306920083
 20
-334.2878246358635
 30
0.0
 10
52.68443362638526
 20
-334.0463618242956
 30
0.0
 10
52.81890377790752
 20
-333.8096242710784
 30
0.0
 10
52.96927571712322
 20
-333.5777023757726
 30
0.0
 10
53.13811986072698
 20
-333.3507225113365
 30
0.0
 10
53.33277723837061
 20
-333.1356951006049
 30
0.0
 10
53.51877357052717
 20
-332.9710243330783
 30
0.0
 10
53.68460994937889
 20
-332.8500236363628
 30
0.0
 10
53.82364836213646
 20
-332.767109300504
 30
0.0
 10
53.97327034132909
 20
-332.6992439183886
 30
0.0
 10
54.13087814177612
 20
-332.645488760688
 30
0.0
 10
54.29774918899186
 20
-332.6081363344737
 30
0.0
 10
54.47163250652454
 20
-332.5916679225646
 30
0.0
 10
54.64800727890319
 20
-332.5990206083242
 30
0.0
 10
54.76254983943488
 20
-332.6233033030771
 30
0.0
 10
54.8199135844103
 20
-332.6354642527071
 30
0.0
 11
54.8199135844103
 21
-332.6354642527071
 31
0.0
 11
54.97738114115738
 21
-332.6834352322729
 31
0.0
 11
55.12825308117976
 21
-332.746495420845
 31
0.0
 11
55.2745417867652
 21
-332.8267836152573
 31
0.0
 11
55.40611980116948
 21
-332.9166551187394
 31
0.0
 11
55.63029797911094
 21
-333.1075017173213
 31
0.0
 11
55.83091604309058
 21
-333.3205376740051
 31
0.0
 11
55.92048929919221
 21
-333.4326514435576
 31
0.0
 11
56.00295123034539
 21
-333.5449327359644
 31
0.0
 11
56.08118078284798
 21
-333.6582868725628
 31
0.0
 11
56.1558142458033
 21
-333.7738004749301
 31
0.0
 11
56.29361013682683
 21
-334.0108387934935
 31
0.0
 11
56.41692723747983
 21
-334.2512714654468
 31
0.0
 11
56.63124065289324
 21
-334.7387713733257
 31
0.0
 11
56.81112673068958
 21
-335.2352894094056
 31
0.0
 11
56.96264042791447
 21
-335.7368512159735
 31
0.0
 11
57.0903900515306
 21
-336.2426544224334
 31
0.0
 11
57.28695747502104
 21
-337.261658236344
 31
0.0
 11
57.41534280190427
 21
-338.288072969592
 31
0.0
 11
57.48499982160396
 21
-339.317511759057
 31
0.0
 11
57.49962346108822
 21
-340.3486188453742
 31
0.0
 11
57.46021457824131
 21
-341.3793297808374
 31
0.0
 11
57.3638283129651
 21
-342.4077779932453
 31
0.0
 11
57.2060158502453
 21
-343.430362185908
 31
0.0
 11
56.97404666267028
 21
-344.4455727487293
 31
0.0
 11
56.82497193917445
 21
-344.9474913046158
 31
0.0
 11
56.64758195303648
 21
-345.444547679262
 31
0.0
 11
56.5460269797404
 21
-345.6907634080148
 31
0.0
 11
56.43533397378178
 21
-345.9332215968556
 31
0.0
 11
56.31406912676204
 21
-346.1739754200532
 31
0.0
 11
56.17874950948136
 21
-346.4117103684066
 31
0.0
 11
56.02994163544481
 21
-346.6408255280348
 31
0.0
 11
55.86052152393796
 21
-346.8662907520377
 31
0.0
 11
55.66373591434171
 21
-347.0827732127017
 31
0.0
 11
55.44322932021994
 21
-347.2771961755407
 31
0.0
 11
55.31609471101834
 21
-347.3691562099971
 31
0.0
 11
55.17459424752087
 21
-347.452979409683
 31
0.0
 11
55.02603302472805
 21
-347.520800910772
 31
0.0
 11
54.8705463886231
 21
-347.5735773865311
 31
0.0
 11
54.70331944326879
 21
-347.6106224842891
 31
0.0
 11
54.52780431469608
 21
-347.6269735728806
 31
0.0
 11
54.35025517736706
 21
-347.6181170426524
 31
0.0
 11
54.18008466414216
 21
-347.5871604159736
 31
0.0
 11
54.02261710739099
 21
-347.5391894364078
 31
0.0
 11
53.87174516736803
 21
-347.4761292478356
 31
0.0
 11
53.72545646177765
 21
-347.3958410534234
 31
0.0
 11
53.59387844736826
 21
-347.3059695499413
 31
0.0
 11
53.3697002694288
 21
-347.1151229513595
 31
0.0
 11
53.16908220546043
 21
-346.9020869946755
 31
0.0
 11
53.07950894936008
 21
-346.789973225123
 31
0.0
 11
52.99704701820718
 21
-346.6776919327163
 31
0.0
 11
52.9188174657094
 21
-346.5643377961877
 31
0.0
 11
52.8441840027574
 21
-346.448824193852
 31
0.0
 11
52.7063881117387
 21
-346.2117858752697
 31
0.0
 11
52.58307101108096
 21
-345.9713532033354
 31
0.0
 11
52.36875759565656
 21
-345.4838532954343
 31
0.0
 11
52.18887151786293
 21
-344.9873352593511
 31
0.0
 11
52.03735782064275
 21
-344.4857734527865
 31
0.0
 11
51.90960819702995
 21
-343.9799702463488
 31
0.0
 11
51.71304077354564
 21
-342.9609664323493
 31
0.0
 11
51.58465544666757
 21
-341.9345516990887
 31
0.0
 11
51.51499842696703
 21
-340.9051129095571
 31
0.0
 11
51.50037478747436
 21
-339.8740058232304
 31
0.0
 11
51.53978367032154
 21
-338.8432948878338
 31
0.0
 11
51.63616993560208
 21
-337.8148466754353
 31
0.0
 11
51.79398239831716
 21
-336.7922624827727
 31
0.0
 11
52.02595158588725
 21
-335.7770519199515
 31
0.0
 11
52.17502630937827
 21
-335.2751333640777
 31
0.0
 11
52.35241629551119
 21
-334.7780769895202
 31
0.0
 11
52.45397126880828
 21
-334.5318612607356
 31
0.0
 11
52.56466427477534
 21
-334.2894030718251
 31
0.0
 11
52.68592912180301
 21
-334.0486492486276
 31
0.0
 11
52.82124873908089
 21
-333.8109143002741
 31
0.0
 11
52.97005661311277
 21
-333.5817991406458
 31
0.0
 11
53.13947672461462
 21
-333.356333916643
 31
0.0
 11
53.33626233420673
 21
-333.139851455979
 31
0.0
 11
53.55676892832787
 21
-332.94542849314
 31
0.0
 11
53.68390353752953
 21
-332.8534684587501
 31
0.0
 11
53.82540400102727
 21
-332.7696452590739
 31
0.0
 11
53.97396522382508
 21
-332.7018237579182
 31
0.0
 11
54.12945185993874
 21
-332.6490472821496
 31
0.0
 11
54.29667880529247
 21
-332.6120021844011
 31
0.0
 11
54.47219393386109
 21
-332.5956510958762
 31
0.0
 11
54.64710924858363
 21
-332.6038443517846
 31
0.0
 11
54.8199135844103
 21
-332.6354642527071
 31
0.0
  0
SPLINE
  5
E3
330
4C
100
AcDbEntity
  8
0
  6
Continuous
 62
     7
100
AcDbSpline
210
0.0
220
0.0
230
1.0
 70
     8
 71
     3
 72
    67
 73
    63
 74
    61
 42
0.0000000001
 43
0.0000000001
 44
0.00000001
 40
0.0
 40
0.0
 40
0.0
 40
0.0
 40
0.0133254106613921
 40
0.0269186294232912
 40
0.0407705701659393
 40
0.0548701683356913
 40
0.0692048552408586
 40
0.0837600122646516
 40
0.098519469117198
 40
0.1134650468968322
 40
0.1285770646431836
 40
0.1438340142418751
 40
0.1592130541124326
 40
0.1746898519305044
 40
0.1902390383991938
 40
0.205834239031035
 40
0.221448455597544
 40
0.237054287647549
 40
0.2487656134686216
 40
0.2604450148061562
 40
0.2720809805598418
 40
0.2836622431632972
 40
0.2951777643196309
 40
0.3066168966550122
 40
0.3179693324123465
 40
0.3292252813838236
 40
0.3403753841795117
 40
0.3514108982378081
 40
0.3623235792486572
 40
0.3731058678426948
 40
0.394247720138922
 40
0.4147931654453081
 40
0.435338610751751
 40
0.4564804630480276
 40
0.4672627516420652
 40
0.4781754326529282
 40
0.4892109467111002
 40
0.500361049506798
 40
0.5116169984783073
 40
0.5229694342357197
 40
0.5344085665778071
 40
0.5459240877273404
 40
0.5575053503246318
 40
0.5691413160844705
 40
0.580820717422011
 40
0.5925320432430778
 40
0.608137875293199
 40
0.6237520918596725
 40
0.6393472924939134
 40
0.6548964789601261
 40
0.670373276789796
 40
0.6857523166488211
 40
0.7010092662475401
 40
0.7161212839938602
 40
0.7310668617735209
 40
0.7458263186259968
 40
0.7603814756497876
 40
0.7747161625549601
 40
0.7888157607247187
 40
0.8026677014673603
 40
0.8162609202293138
 40
0.8295863308906499
 40
0.8295863308906499
 40
0.8295863308906499
 40
0.8295863308906499
 10
55.63372912422835
 20
-337.4317081343556
 30
0.0
 10
55.63379602317049
 20
-337.4272658379751
 30
0.0
 10
55.63393116555958
 20
-337.4182919659428
 30
0.0
 10
55.63503799911959
 20
-337.4047372805085
 30
0.0
 10
55.63685200294498
 20
-337.3910030353185
 30
0.0
 10
55.63947021892764
 20
-337.3771451280401
 30
0.0
 10
55.64290462081851
 20
-337.3632255162418
 30
0.0
 10
55.64717928282618
 20
-337.349309671896
 30
0.0
 10
55.65231003005762
 20
-337.3354686093078
 30
0.0
 10
55.65830079213742
 20
-337.3217743061938
 30
0.0
 10
55.6651526586237
 20
-337.3083033487907
 30
0.0
 10
55.67285138640281
 20
-337.2951299332691
 30
0.0
 10
55.68138023937418
 20
-337.2823315785088
 30
0.0
 10
55.69070640701393
 20
-337.2699796046477
 30
0.0
 10
55.70079498298449
 20
-337.258147169726
 30
0.0
 10
55.71159581158544
 20
-337.2468974507207
 30
0.0
 10
55.72305732563433
 20
-337.2362940539587
 30
0.0
 10
55.73412116642096
 20
-337.2272041219785
 30
0.0
 10
55.74457919107999
 20
-337.2194773900091
 30
0.0
 10
55.75426755865306
 20
-337.2129549161305
 30
0.0
 10
55.76419431762328
 20
-337.2068842748124
 30
0.0
 10
55.7743264945727
 20
-337.2012751044153
 30
0.0
 10
55.78463191103926
 20
-337.1961365301283
 30
0.0
 10
55.79507704820523
 20
-337.1914725334702
 30
0.0
 10
55.8056295965175
 20
-337.1872864322789
 30
0.0
 10
55.81625678925565
 20
-337.1835767090339
 30
0.0
 10
55.82692739440817
 20
-337.1803412053089
 30
0.0
 10
55.83761044743512
 20
-337.1775734022673
 30
0.0
 10
55.84827702109268
 20
-337.1752662621012
 30
0.0
 10
55.86234555725706
 20
-337.1728060244772
 30
0.0
 10
55.87974044792266
 20
-337.1708093747916
 30
0.0
 10
55.90048912422436
 20
-337.1700240770905
 30
0.0
 10
55.9212378005261
 20
-337.1708093747917
 30
0.0
 10
55.93863269119171
 20
-337.1728060244772
 30
0.0
 10
55.95270122735612
 20
-337.1752662621012
 30
0.0
 10
55.96336780101365
 20
-337.1775734022675
 30
0.0
 10
55.97405085404061
 20
-337.1803412053089
 30
0.0
 10
55.98472145919306
 20
-337.1835767090341
 30
0.0
 10
55.99534865193123
 20
-337.1872864322789
 30
0.0
 10
56.00590120024565
 20
-337.1914725334709
 30
0.0
 10
56.01634633741159
 20
-337.1961365301292
 30
0.0
 10
56.02665175387614
 20
-337.2012751044156
 30
0.0
 10
56.03678393082368
 20
-337.2068842748114
 30
0.0
 10
56.04671068979393
 20
-337.2129549161293
 30
0.0
 10
56.05639905736873
 20
-337.219477390009
 30
0.0
 10
56.06685708202775
 20
-337.2272041219785
 30
0.0
 10
56.07792092281436
 20
-337.2362940539588
 30
0.0
 10
56.08938243686402
 20
-337.2468974507212
 30
0.0
 10
56.10018326546478
 20
-337.2581471697266
 30
0.0
 10
56.11027184143778
 20
-337.2699796046514
 30
0.0
 10
56.11959800907682
 20
-337.2823315785119
 30
0.0
 10
56.12812686204796
 20
-337.2951299332725
 30
0.0
 10
56.13582558982502
 20
-337.3083033487908
 30
0.0
 10
56.14267745631145
 20
-337.3217743061938
 30
0.0
 10
56.14866821839111
 20
-337.3354686093078
 30
0.0
 10
56.15379896562252
 20
-337.3493096718961
 30
0.0
 10
56.15807362763019
 20
-337.3632255162417
 30
0.0
 10
56.16150802952105
 20
-337.37714512804
 30
0.0
 10
56.16412624550379
 20
-337.3910030353186
 30
0.0
 10
56.16594024932911
 20
-337.4047372805085
 30
0.0
 10
56.16704708288908
 20
-337.4182919659428
 30
0.0
 10
56.1671822252782
 20
-337.4272658379751
 30
0.0
 10
56.16724912422035
 20
-337.4317081343556
 30
0.0
 11
55.63372912422835
 21
-337.4317081343556
 31
0.0
 11
55.6340757830085
 21
-337.4183872335983
 31
0.0
 11
55.63514216990211
 21
-337.4048359083752
 31
0.0
 11
55.6369664866778
 21
-337.3911046254548
 31
0.0
 11
55.63958132085384
 21
-337.3772496151416
 31
0.0
 11
55.64301533781801
 21
-337.3633323317803
 31
0.0
 11
55.64728928958584
 21
-337.3494188156081
 31
0.0
 11
55.65241861729745
 21
-337.3355793227052
 31
0.0
 11
55.65840885579655
 21
-337.3218867211302
 31
0.0
 11
55.66525917528855
 21
-337.3084165242785
 31
0.0
 11
55.6729575064993
 21
-337.2952441969357
 31
0.0
 11
55.68148493031799
 21
-337.282445841168
 31
0.0
 11
55.69081091765395
 21
-337.2700944351383
 31
0.0
 11
55.70089834061356
 21
-337.2582613840578
 31
0.0
 11
55.7116992184649
 21
-337.2470118809405
 31
0.0
 11
55.72316000419339
 21
-337.2364074408576
 31
0.0
 11
55.73521814716412
 21
-337.2265007167739
 31
0.0
 11
55.74463713279183
 21
-337.2195409852969
 31
0.0
 11
55.75432557177089
 21
-337.2130185190645
 31
0.0
 11
55.76425219581594
 21
-337.206947453747
 31
0.0
 11
55.77438445726023
 21
-337.2013382718535
 31
0.0
 11
55.78468973039095
 21
-337.196199344611
 31
0.0
 11
55.79513488270618
 21
-337.1915353825938
 31
0.0
 11
55.80568723220503
 21
-337.1873490097391
 31
0.0
 11
55.81631431961523
 21
-337.1836393735812
 31
0.0
 11
55.82698460971281
 21
-337.1804036817559
 31
0.0
 11
55.83766742603007
 21
-337.1776360101601
 31
0.0
 11
55.84833340483886
 21
-337.1753287384173
 31
0.0
 11
55.85895454867909
 21
-337.1734715763753
 31
0.0
 11
55.87995834116765
 21
-337.1710593948703
 31
0.0
 11
55.90048912422435
 21
-337.1702833343595
 31
0.0
 11
55.92101990728111
 21
-337.1710593948703
 31
0.0
 11
55.94202369976972
 21
-337.1734715763753
 31
0.0
 11
55.95264484360995
 21
-337.1753287384173
 31
0.0
 11
55.96331082241875
 21
-337.1776360101601
 31
0.0
 11
55.9739936387359
 21
-337.1804036817559
 31
0.0
 11
55.98466392883347
 21
-337.1836393735812
 31
0.0
 11
55.99529101624368
 21
-337.1873490097392
 31
0.0
 11
56.00584336574264
 21
-337.1915353825938
 31
0.0
 11
56.01628851806394
 21
-337.1961993446139
 31
0.0
 11
56.02659379118848
 21
-337.2013382718535
 31
0.0
 11
56.03672605262746
 21
-337.2069474537439
 31
0.0
 11
56.04665267667781
 21
-337.2130185190645
 31
0.0
 11
56.05634111565688
 21
-337.2195409852969
 31
0.0
 11
56.06576010128458
 21
-337.2265007167739
 31
0.0
 11
56.07781824425537
 21
-337.2364074408577
 31
0.0
 11
56.08927902998391
 21
-337.2470118809405
 31
0.0
 11
56.10007990783683
 21
-337.2582613840597
 31
0.0
 11
56.11016733079475
 21
-337.2700944351383
 31
0.0
 11
56.11949331813746
 21
-337.2824458411774
 31
0.0
 11
56.12802074194951
 21
-337.2952441969357
 31
0.0
 11
56.13571907316022
 21
-337.3084165242786
 31
0.0
 11
56.14256939265226
 21
-337.3218867211302
 31
0.0
 11
56.1485596311513
 21
-337.3355793227053
 31
0.0
 11
56.15368895886286
 21
-337.3494188156081
 31
0.0
 11
56.15796291063068
 21
-337.3633323317803
 31
0.0
 11
56.16139692759487
 21
-337.3772496151416
 31
0.0
 11
56.16401176177095
 21
-337.3911046254548
 31
0.0
 11
56.16583607854659
 21
-337.4048359083752
 31
0.0
 11
56.16690246544017
 21
-337.4183872335984
 31
0.0
 11
56.16724912422035
 21
-337.4317081343556
 31
0.0
  0
SPLINE
  5
E4
330
4C
100
AcDbEntity
  8
0
  6
Continuous
 62
     7
100
AcDbSpline
210
0.0
220
0.0
230
1.0
 70
     8
 71
     3
 72
    67
 73
    63
 74
    61
 42
0.0000000001
 43
0.0000000001
 44
0.00000001
 40
0.0
 40
0.0
 40
0.0
 40
0.0
 40
0.0138442945493076
 40
0.0279684976330534
 40
0.04235934873985
 40
0.0570011458641875
 40
0.0718763375396754
 40
0.0869650306482201
 40
0.1022456371724349
 40
0.1176945207283454
 40
0.1332866634657004
 40
0.1489954812773378
 40
0.1647934617161541
 40
0.180652159657865
 40
0.1965427484038849
 40
0.2124361874457842
 40
0.2283036302843137
 40
0.2441167389945481
 40
0.2554669020927116
 40
0.2667644826683782
 40
0.2779997978331752
 40
0.2891635815454983
 40
0.3002469351157575
 40
0.3112414574876184
 40
0.3221391616724565
 40
0.3329326145262566
 40
0.3436148239136255
 40
0.3541793838011916
 40
0.3646203380180866
 40
0.3749323269300984
 40
0.3951462274820621
 40
0.4147928637963068
 40
0.4344395001106082
 40
0.4546534006625719
 40
0.4649653895743598
 40
0.4754063437913104
 40
0.4859709036788729
 40
0.4966531130664089
 40
0.507446565924972
 40
0.5183442701048859
 40
0.5293387924767499
 40
0.5404221460471582
 40
0.5515859297561846
 40
0.5628212449241282
 40
0.5741188254997949
 40
0.5854689885979584
 40
0.6012820973074726
 40
0.6171495401467667
 40
0.6330429791887052
 40
0.6489335679347616
 40
0.6647922658764387
 40
0.6805902463152238
 40
0.69629906412694
 40
0.7118912068641998
 40
0.7273400904201393
 40
0.7426206969443474
 40
0.7577093900529221
 40
0.7725845817283962
 40
0.7872263788527164
 40
0.8016172299595347
 40
0.8157414330432532
 40
0.8295857275925764
 40
0.8295857275925764
 40
0.8295857275925764
 40
0.8295857275925764
 10
55.90048912429245
 20
-340.1113123344164
 30
0.0
 10
55.90510437867751
 20
-340.1113802970007
 30
0.0
 10
55.91442820019001
 20
-340.1115175962594
 30
0.0
 10
55.92851270643859
 20
-340.1126423036339
 30
0.0
 10
55.94278494701494
 20
-340.1144863422165
 30
0.0
 10
55.95718452442999
 20
-340.1171485549463
 30
0.0
 10
55.97164447641906
 20
-340.1206413378777
 30
0.0
 10
55.98609399306019
 20
-340.1249888348457
 30
0.0
 10
56.00045634766784
 20
-340.1302067818576
 30
0.0
 10
56.01465378341618
 20
-340.1362981461307
 30
0.0
 10
56.02860375246566
 20
-340.1432630074709
 30
0.0
 10
56.04222638565494
 20
-340.1510851089109
 30
0.0
 10
56.05543853434051
 20
-340.1597457330193
 30
0.0
 10
56.06816393355255
 20
-340.1692090928942
 30
0.0
 10
56.08032474093565
 20
-340.1794374576723
 30
0.0
 10
56.09185415182161
 20
-340.1903770080153
 30
0.0
 10
56.10268534045686
 20
-340.2019727756052
 30
0.0
 10
56.11183480740056
 20
-340.2130311118385
 30
0.0
 10
56.11948580018306
 20
-340.223322762247
 30
0.0
 10
56.12582789995869
 20
-340.2326726970287
 30
0.0
 10
56.13172694473491
 20
-340.2422352344944
 30
0.0
 10
56.13717462113563
 20
-340.251980152632
 30
0.0
 10
56.14216312823981
 20
-340.2618780439183
 30
0.0
 10
56.1466893751507
 20
-340.2718983630019
 30
0.0
 10
56.1507509163123
 20
-340.2820117366466
 30
0.0
 10
56.15434971821888
 20
-340.2921884208474
 30
0.0
 10
56.15748835554044
 20
-340.302400110837
 30
0.0
 10
56.16017337839521
 20
-340.312618753524
 30
0.0
 10
56.16241182067269
 20
-340.3228181845975
 30
0.0
 10
56.16479904162647
 20
-340.3362665923427
 30
0.0
 10
56.16673808484025
 20
-340.3528970335083
 30
0.0
 10
56.16750100756734
 20
-340.3727371343556
 30
0.0
 10
56.16673808484022
 20
-340.392577235203
 30
0.0
 10
56.16479904162654
 20
-340.4092076763686
 30
0.0
 10
56.16241182067264
 20
-340.4226560841136
 30
0.0
 10
56.16017337839521
 20
-340.432855515187
 30
0.0
 10
56.15748835554042
 20
-340.4430741578742
 30
0.0
 10
56.15434971821848
 20
-340.4532858478653
 30
0.0
 10
56.15075091631165
 20
-340.4634625320659
 30
0.0
 10
56.14668937515006
 20
-340.4735759057108
 30
0.0
 10
56.14216312823973
 20
-340.4835962247927
 30
0.0
 10
56.13717462113623
 20
-340.4934941160783
 30
0.0
 10
56.13172694473535
 20
-340.5032390342158
 30
0.0
 10
56.12582789995931
 20
-340.5128015716816
 30
0.0
 10
56.11948580018307
 20
-340.522151506464
 30
0.0
 10
56.11183480740068
 20
-340.5324431568725
 30
0.0
 10
56.10268534045707
 20
-340.5435014931057
 30
0.0
 10
56.09185415182176
 20
-340.5550972606958
 30
0.0
 10
56.08032474093567
 20
-340.5660368110389
 30
0.0
 10
56.06816393355257
 20
-340.576265175817
 30
0.0
 10
56.05543853434048
 20
-340.5857285356919
 30
0.0
 10
56.04222638565489
 20
-340.5943891598
 30
0.0
 10
56.02860375246578
 20
-340.6022112612407
 30
0.0
 10
56.01465378341611
 20
-340.6091761225803
 30
0.0
 10
56.00045634766786
 20
-340.6152674868537
 30
0.0
 10
55.98609399306017
 20
-340.6204854338654
 30
0.0
 10
55.97164447641905
 20
-340.6248329308334
 30
0.0
 10
55.95718452443001
 20
-340.628325713765
 30
0.0
 10
55.94278494701491
 20
-340.6309879264944
 30
0.0
 10
55.92851270643863
 20
-340.6328319650775
 30
0.0
 10
55.91442820018999
 20
-340.6339566724516
 30
0.0
 10
55.90510437867751
 20
-340.6340939717103
 30
0.0
 10
55.90048912429245
 20
-340.6341619342947
 30
0.0
 11
55.90048912429245
 21
-340.1113123344164
 31
0.0
 11
55.91432893809157
 21
-340.1116645354579
 31
0.0
 11
55.92841149289404
 21
-340.1127484002955
 31
0.0
 11
55.9426822968239
 21
-340.1146033263786
 31
0.0
 11
55.95708054913496
 21
-340.117262753651
 31
0.0
 11
55.97153976241383
 21
-340.1207559583027
 31
0.0
 11
55.98598846372465
 21
-340.1251037957139
 31
0.0
 11
56.00035065881683
 21
-340.1303214856129
 31
0.0
 11
56.0145475893944
 21
-340.1364137073177
 31
0.0
 11
56.02849777828282
 21
-340.143378414427
 31
0.0
 11
56.04211997211473
 21
-340.1512016357741
 31
0.0
 11
56.05533248243015
 21
-340.1598622221925
 31
0.0
 11
56.06805727793767
 21
-340.1693267813316
 31
0.0
 11
56.08021837312087
 21
-340.1795551035127
 31
0.0
 11
56.09174684972243
 21
-340.1904956533995
 31
0.0
 11
56.10257815144597
 21
-340.2020912838355
 31
0.0
 11
56.11265765778887
 21
-340.2142756163558
 31
0.0
 11
56.11942940497632
 21
-340.223384383692
 31
0.0
 11
56.1257709414574
 21
-340.2327342629384
 31
0.0
 11
56.1316698075595
 21
-340.2422964638127
 31
0.0
 11
56.1371169279397
 21
-340.2520411519216
 31
0.0
 11
56.1421051991261
 21
-340.2619385190935
 31
0.0
 11
56.14663088402756
 21
-340.2719583842801
 31
0.0
 11
56.15069217468104
 21
-340.2820710434125
 31
0.0
 11
56.15429044508574
 21
-340.2922470482573
 31
0.0
 11
56.1574288508191
 21
-340.3024578272114
 31
0.0
 11
56.1601134069158
 21
-340.3126756099543
 31
0.0
 11
56.16235168042853
 21
-340.3228738282615
 31
0.0
 11
56.16415367506727
 21
-340.3330271494247
 31
0.0
 11
56.16649526296834
 21
-340.3531049665776
 31
0.0
 11
56.16724912423035
 21
-340.3727371343556
 31
0.0
 11
56.16649526296834
 21
-340.3923693021336
 31
0.0
 11
56.16415367506727
 21
-340.4124471192865
 31
0.0
 11
56.16235168042853
 21
-340.4226004404495
 31
0.0
 11
56.1601134069158
 21
-340.4327986587568
 31
0.0
 11
56.15742885081912
 21
-340.4430164414997
 31
0.0
 11
56.15429044508574
 21
-340.4532272204539
 31
0.0
 11
56.15069217467929
 21
-340.4634032253032
 31
0.0
 11
56.14663088402756
 21
-340.473515884431
 31
0.0
 11
56.14210519912609
 21
-340.4835357496176
 31
0.0
 11
56.1371169279397
 21
-340.4934331167896
 31
0.0
 11
56.13166980756107
 21
-340.5031778048956
 31
0.0
 11
56.1257709414574
 21
-340.5127400057727
 31
0.0
 11
56.11942940497632
 21
-340.5220898850191
 31
0.0
 11
56.11265765778887
 21
-340.5311986523553
 31
0.0
 11
56.10257815144648
 21
-340.5433829848751
 31
0.0
 11
56.09174684972243
 21
-340.5549786153116
 31
0.0
 11
56.08021837312087
 21
-340.5659191651985
 31
0.0
 11
56.06805727793767
 21
-340.5761474873796
 31
0.0
 11
56.05533248243015
 21
-340.5856120465187
 31
0.0
 11
56.04211997211473
 21
-340.594272632937
 31
0.0
 11
56.02849777828283
 21
-340.6020958542842
 31
0.0
 11
56.0145475893944
 21
-340.6090605613934
 31
0.0
 11
56.00035065881683
 21
-340.6151527830982
 31
0.0
 11
55.98598846372465
 21
-340.6203704729972
 31
0.0
 11
55.97153976241381
 21
-340.6247183104085
 31
0.0
 11
55.95708054913496
 21
-340.6282115150602
 31
0.0
 11
55.9426822968239
 21
-340.6308709423325
 31
0.0
 11
55.92841149289404
 21
-340.6327258684157
 31
0.0
 11
55.91432893809159
 21
-340.6338097332532
 31
0.0
 11
55.90048912429245
 21
-340.6341619342947
 31
0.0
  0
SPLINE
  5
E5
330
4C
100
AcDbEntity
  8
0
  6
Continuous
 62
     7
100
AcDbSpline
210
0.0
220
0.0
230
1.0
 70
     8
 71
     3
 72
    67
 73
    63
 74
    61
 42
0.0000000001
 43
0.0000000001
 44
0.00000001
 40
0.0
 40
0.0
 40
0.0
 40
0.0
 40
0.0138442945491928
 40
0.0279684976327609
 40
0.0423593487393487
 40
0.057001145863472
 40
0.0718763375386665
 40
0.0869650306469776
 40
0.1022456371708742
 40
0.1176945207264229
 40
0.1332866634634219
 40
0.1489954812747115
 40
0.1647934617131311
 40
0.1806521596544937
 40
0.1965427483832971
 40
0.212436187441641
 40
0.2283036302796675
 40
0.2441167389895155
 40
0.2554669020858666
 40
0.266764482663475
 40
0.2779997978315189
 40
0.2891635815404066
 40
0.3002469351064805
 40
0.3112414574825858
 40
0.3221391616673866
 40
0.3329326145212205
 40
0.3436148239036224
 40
0.3541793837962271
 40
0.3646203380082115
 40
0.3749323269249916
 40
0.3951462274768013
 40
0.4147928637910899
 40
0.4344395001055219
 40
0.4546534006574703
 40
0.4649653895742242
 40
0.4754063437863525
 40
0.4859709036738115
 40
0.4966531130614101
 40
0.5074465659151741
 40
0.5183442701000599
 40
0.5293387924761422
 40
0.5404221460422174
 40
0.5515859297544737
 40
0.5628212449191146
 40
0.5741188254967262
 40
0.5854689885930029
 40
0.6012820973029988
 40
0.6171495401412056
 40
0.6330429791827795
 40
0.6489335679284548
 40
0.6647922658698316
 40
0.680590246308247
 40
0.6962990641195889
 40
0.7118912068565882
 40
0.72734009041216
 40
0.7426206969360313
 40
0.757709390044263
 40
0.7725845817194626
 40
0.7872263788434302
 40
0.8016172299498954
 40
0.8157414330333306
 40
0.8295857275823768
 40
0.8295857275823768
 40
0.8295857275823768
 40
0.8295857275823768
 10
55.90048912429245
 20
-342.202710734386
 30
0.0
 10
55.90510437867745
 20
-342.2027786969705
 30
0.0
 10
55.91442820018985
 20
-342.2029159962295
 30
0.0
 10
55.92851270643827
 20
-342.2040407036044
 30
0.0
 10
55.94278494701432
 20
-342.2058847421877
 30
0.0
 10
55.95718452442905
 20
-342.2085469549178
 30
0.0
 10
55.97164447641779
 20
-342.2120397378496
 30
0.0
 10
55.98609399305845
 20
-342.2163872348179
 30
0.0
 10
56.00045634766566
 20
-342.2216051818305
 30
0.0
 10
56.01465378341341
 20
-342.2276965461038
 30
0.0
 10
56.02860375246257
 20
-342.234661407444
 30
0.0
 10
56.04222638565115
 20
-342.2424835088846
 30
0.0
 10
56.05543853433623
 20
-342.2511441329927
 30
0.0
 10
56.06816393354329
 20
-342.2606074928647
 30
0.0
 10
56.08032474092605
 20
-342.2708358576425
 30
0.0
 10
56.09185415181182
 20
-342.2817754079849
 30
0.0
 10
56.10268534045041
 20
-342.2933711755788
 30
0.0
 10
56.11183480739336
 20
-342.3044295118115
 30
0.0
 10
56.11948580017556
 20
-342.3147211622203
 30
0.0
 10
56.12582789995172
 20
-342.3240710970028
 30
0.0
 10
56.13172694472787
 20
-342.3336336344694
 30
0.0
 10
56.13717462112775
 20
-342.3433785526058
 30
0.0
 10
56.14216312823134
 20
-342.3532764438911
 30
0.0
 10
56.1466893751421
 20
-342.3632967629747
 30
0.0
 10
56.15075091630401
 20
-342.3734101366209
 30
0.0
 10
56.15434971820978
 20
-342.3835868208202
 30
0.0
 10
56.15748835553125
 20
-342.3937985108098
 30
0.0
 10
56.16017337838558
 20
-342.4040171534952
 30
0.0
 10
56.16241182066329
 20
-342.4142165845703
 30
0.0
 10
56.16479904161687
 20
-342.4276649923156
 30
0.0
 10
56.16673808483058
 20
-342.4442954334826
 30
0.0
 10
56.16750100755736
 20
-342.46413553433
 30
0.0
 10
56.16673808482975
 20
-342.4839756351777
 30
0.0
 10
56.16479904161562
 20
-342.5006060763445
 30
0.0
 10
56.16241182066127
 20
-342.5140544840898
 30
0.0
 10
56.16017337838358
 20
-342.5242539151631
 30
0.0
 10
56.15748835552889
 20
-342.5344725578487
 30
0.0
 10
56.15434971820724
 20
-342.5446842478379
 30
0.0
 10
56.15075091630032
 20
-342.5548609320389
 30
0.0
 10
56.14668937513819
 20
-342.564974305685
 30
0.0
 10
56.14216312822684
 20
-342.5749946247684
 30
0.0
 10
56.13717462112252
 20
-342.5848925160545
 30
0.0
 10
56.1317269447221
 20
-342.5946374341906
 30
0.0
 10
56.12582789994551
 20
-342.6041999716567
 30
0.0
 10
56.11948580016967
 20
-342.6135499064383
 30
0.0
 10
56.11183480738701
 20
-342.6238415568467
 30
0.0
 10
56.1026853404436
 20
-342.6348998930789
 30
0.0
 10
56.09185415180828
 20
-342.6464956606686
 30
0.0
 10
56.08032474092243
 20
-342.657435211011
 30
0.0
 10
56.06816393353952
 20
-342.667663575789
 30
0.0
 10
56.05543853432747
 20
-342.6771269356633
 30
0.0
 10
56.04222638564222
 20
-342.6857875597715
 30
0.0
 10
56.02860375245314
 20
-342.6936096612112
 30
0.0
 10
56.01465378340373
 20
-342.7005745225508
 30
0.0
 10
56.00045634765581
 20
-342.7066658868238
 30
0.0
 10
55.98609399304831
 20
-342.7118838338354
 30
0.0
 10
55.97164447640759
 20
-342.7162313308034
 30
0.0
 10
55.95718452441875
 20
-342.7197241137346
 30
0.0
 10
55.94278494700402
 20
-342.7223863264642
 30
0.0
 10
55.92851270642802
 20
-342.7242303650469
 30
0.0
 10
55.9144282001797
 20
-342.7253550724211
 30
0.0
 10
55.9051043786674
 20
-342.7254923716798
 30
0.0
 10
55.90048912428244
 20
-342.7255603342642
 30
0.0
 11
55.90048912429245
 21
-342.202710734386
 31
0.0
 11
55.91432893809144
 21
-342.203062935428
 31
0.0
 11
55.9284114928937
 21
-342.2041468002661
 31
0.0
 11
55.94268229682328
 21
-342.2060017263497
 31
0.0
 11
55.95708054913405
 21
-342.2086611536225
 31
0.0
 11
55.97153976241252
 21
-342.2121543582746
 31
0.0
 11
55.98598846372295
 21
-342.2165021956863
 31
0.0
 11
56.00035065881465
 21
-342.2217198855857
 31
0.0
 11
56.01454758939167
 21
-342.2278121072908
 31
0.0
 11
56.02849777827966
 21
-342.2347768144002
 31
0.0
 11
56.04211997211098
 21
-342.2426000357476
 31
0.0
 11
56.05533248242588
 21
-342.2512606221661
 31
0.0
 11
56.06805727793289
 21
-342.2607251813053
 31
0.0
 11
56.08021837310292
 21
-342.2709535034753
 31
0.0
 11
56.09174684971652
 21
-342.2818940533733
 31
0.0
 11
56.1025781514395
 21
-342.2934896838091
 31
0.0
 11
56.11265765778194
 21
-342.3056740163293
 31
0.0
 11
56.1194294049681
 21
-342.3147827836642
 31
0.0
 11
56.12577094145013
 21
-342.3241326629123
 31
0.0
 11
56.13166980755362
 21
-342.3336948637896
 31
0.0
 11
56.13711692793197
 21
-342.3434395518956
 31
0.0
 11
56.1421051991164
 21
-342.3533369190637
 31
0.0
 11
56.14663088401949
 21
-342.3633567842543
 31
0.0
 11
56.15069217467273
 21
-342.3734694433867
 31
0.0
 11
56.15429044507721
 21
-342.3836454482317
 31
0.0
 11
56.15742885080901
 21
-342.393856227181
 31
0.0
 11
56.16011340690693
 21
-342.4040740099288
 31
0.0
 11
56.16235168041851
 21
-342.4142722282313
 31
0.0
 11
56.16415367505795
 21
-342.4244255493992
 31
0.0
 11
56.16649526295867
 21
-342.444503366552
 31
0.0
 11
56.16724912422035
 21
-342.46413553433
 31
0.0
 11
56.16649526295789
 21
-342.4837677021081
 31
0.0
 11
56.16415367505647
 21
-342.503845519261
 31
0.0
 11
56.16235168041653
 21
-342.5139988404288
 31
0.0
 11
56.16011340690454
 21
-342.5241970587313
 31
0.0
 11
56.15742885080762
 21
-342.5344148414741
 31
0.0
 11
56.15429044507403
 21
-342.5446256204283
 31
0.0
 11
56.15069217466912
 21
-342.554801625273
 31
0.0
 11
56.14663088401551
 21
-342.5649142844054
 31
0.0
 11
56.14210519911197
 21
-342.5749341495957
 31
0.0
 11
56.1371169279272
 21
-342.5848315167637
 31
0.0
 11
56.13166980754673
 21
-342.5945762048723
 31
0.0
 11
56.12577094144456
 21
-342.6041384057465
 31
0.0
 11
56.11942940496219
 21
-342.6134882849944
 31
0.0
 11
56.11265765777569
 21
-342.6225970523289
 31
0.0
 11
56.10257815143268
 21
-342.6347813848488
 31
0.0
 11
56.09174684970913
 21
-342.6463770152843
 31
0.0
 11
56.08021837310764
 21
-342.6573175651707
 31
0.0
 11
56.0680572779246
 21
-342.6675458873515
 31
0.0
 11
56.05533248241716
 21
-342.6770104464902
 31
0.0
 11
56.042119972102
 21
-342.6856710329082
 31
0.0
 11
56.02849777827026
 21
-342.693494254255
 31
0.0
 11
56.01454758938201
 21
-342.7004589613639
 31
0.0
 11
56.00035065880477
 21
-342.7065511830685
 31
0.0
 11
55.98598846371283
 21
-342.7117688729672
 31
0.0
 11
55.97153976240233
 21
-342.7161167103784
 31
0.0
 11
55.9570805491237
 21
-342.7196099150299
 31
0.0
 11
55.942682296813
 21
-342.7222693423022
 31
0.0
 11
55.92841149288347
 21
-342.7241242683852
 31
0.0
 11
55.9143289380813
 21
-342.7252081332227
 31
0.0
 11
55.90048912428244
 21
-342.7255603342642
 31
0.0
  0
SPLINE
  5
E6
330
4C
100
AcDbEntity
  8
0
  6
Continuous
 62
     7
100
AcDbSpline
210
0.0
220
0.0
230
1.0
 70
     8
 71
     3
 72
    39
 73
    35
 74
    33
 42
0.0000000001
 43
0.0000000001
 44
0.00000001
 40
0.0
 40
0.0
 40
0.0
 40
0.0
 40
0.0116574165520535
 40
0.0235211407702913
 40
0.0355852671609303
 40
0.0478427332777463
 40
0.0602856018375206
 40
0.0729047322276126
 40
0.0856900739697559
 40
0.0986303745359857
 40
0.1117134765904683
 40
0.1249260813852668
 40
0.13825404051182
 40
0.1516821926701855
 40
0.1651946386475703
 40
0.1787746655274542
 40
0.1924049917118301
 40
0.2060677863241906
 40
0.2197448699185554
 40
0.2334178288259794
 40
0.2470681572475999
 40
0.2606774578328016
 40
0.2742275129331951
 40
0.2877005553496734
 40
0.3010792603581315
 40
0.3143470659544293
 40
0.3274880828522118
 40
0.3404874418875907
 40
0.3533311256890306
 40
0.3660063223115363
 40
0.3785011884485524
 40
0.3908051920329716
 40
0.4029088216744148
 40
0.4148039057931571
 40
0.4148039057931571
 40
0.4148039057931571
 40
0.4148039057931571
 10
56.16724912423979
 20
-338.8695445343251
 30
0.0
 10
56.16719795343874
 20
-338.8734306707349
 30
0.0
 10
56.16709470623903
 20
-338.8812717186324
 30
0.0
 10
56.1662500806768
 20
-338.893109776476
 30
0.0
 10
56.16486966313324
 20
-338.9050957990856
 30
0.0
 10
56.16288114421691
 20
-338.9171933198299
 30
0.0
 10
56.16027663481193
 20
-338.929362274748
 30
0.0
 10
56.15703679767088
 20
-338.9415602394257
 30
0.0
 10
56.15314806293915
 20
-338.9537413983907
 30
0.0
 10
56.14860308603528
 20
-338.9658587498434
 30
0.0
 10
56.14339612431012
 20
-338.9778622945606
 30
0.0
 10
56.13753004681961
 20
-338.9897024251839
 30
0.0
 10
56.13100913442908
 20
-339.0013271064464
 30
0.0
 10
56.1238470706574
 20
-339.012686571345
 30
0.0
 10
56.11605888177967
 20
-339.023729327998
 30
0.0
 10
56.10766910680233
 20
-339.034408157191
 30
0.0
 10
56.09870336438141
 20
-339.0446748839373
 30
0.0
 10
56.08919623832971
 20
-339.0544875249123
 30
0.0
 10
56.07918291481587
 20
-339.0638038936677
 30
0.0
 10
56.06870638198411
 20
-339.072589608054
 30
0.0
 10
56.05780957327872
 20
-339.0808107361254
 30
0.0
 10
56.04654157148275
 20
-339.0884422692317
 30
0.0
 10
56.03495063412496
 20
-339.0954601357697
 30
0.0
 10
56.02308921911538
 20
-339.1018496943086
 30
0.0
 10
56.01100815983585
 20
-339.1075975231068
 30
0.0
 10
55.99876046832254
 20
-339.1126994907236
 30
0.0
 10
55.98639679098272
 20
-339.1171527789068
 30
0.0
 10
55.9739680709874
 20
-339.1209630565809
 30
0.0
 10
55.96152227615146
 20
-339.1241375140474
 30
0.0
 10
55.94910609600586
 20
-339.1266894724318
 30
0.0
 10
55.93676281444137
 20
-339.1286378658239
 30
0.0
 10
55.9245332706623
 20
-339.1299904445243
 30
0.0
 10
55.91245466346989
 20
-339.1308180307414
 30
0.0
 10
55.90445446376106
 20
-339.1309191928356
 30
0.0
 10
55.90048912422435
 20
-339.1309693343402
 30
0.0
 11
56.16724912423979
 21
-338.8695445343251
 31
0.0
 11
56.16698384037207
 21
-338.8811989319988
 31
0.0
 11
56.16617005566127
 21
-338.893034712783
 31
0.0
 11
56.16478165488518
 21
-338.9050186807759
 31
0.0
 11
56.16279566431831
 21
-338.9171141889121
 31
0.0
 11
56.16019124718708
 21
-338.9292814396041
 31
0.0
 11
56.15695191032512
 21
-338.9414777156135
 31
0.0
 11
56.15306403551702
 21
-338.9536575921703
 31
0.0
 11
56.14851945143005
 21
-338.9657736201589
 31
0.0
 11
56.14331348304657
 21
-338.977776347039
 31
0.0
 11
56.13744776589999
 21
-338.9896155314628
 31
0.0
 11
56.13092784040924
 21
-339.0012398622424
 31
0.0
 11
56.12376604680992
 21
-339.0125987346701
 31
0.0
 11
56.11597874311524
 21
-339.0236415648082
 31
0.0
 11
56.10758910055381
 21
-339.0343200959689
 31
0.0
 11
56.09862407475728
 21
-339.0445872330752
 31
0.0
 11
56.08911692918457
 21
-339.0543997831861
 31
0.0
 11
56.07910412868915
 21
-339.0637167806577
 31
0.0
 11
56.06862745243234
 21
-339.0725025111279
 31
0.0
 11
56.05773099773177
 21
-339.0807243564789
 31
0.0
 11
56.04646279804581
 21
-339.088355918459
 31
0.0
 11
56.0348721169872
 21
-339.0953744728558
 31
0.0
 11
56.02301054987504
 21
-339.1017640031672
 31
0.0
 11
56.01092975357012
 21
-339.1075124036702
 31
0.0
 11
55.9986820689528
 21
-339.1126142549867
 31
0.0
 11
55.98631877805607
 21
-339.1170679459628
 31
0.0
 11
55.97389032962076
 21
-339.1208780647039
 31
0.0
 11
55.961445151834
 21
-339.1240526140337
 31
0.0
 11
55.94902958808859
 21
-339.1266049436172
 31
0.0
 11
55.93668723371343
 21
-339.1285512139632
 31
0.0
 11
55.92445869407936
 21
-339.1299118471333
 31
0.0
 11
55.91238136696576
 21
-339.1307093559347
 31
0.0
 11
55.90048912422435
 21
-339.1309693343402
 31
0.0
  0
ENDBLK
  5
4E
330
4C
100
AcDbEntity
  8
0
100
AcDbBlockEnd
  0
BLOCK
  5
54
330
4F
100
AcDbEntity
  8
0
100
AcDbBlockBegin
  2
Bgr_903__4
 70
     0
 71
     0
 10
65.4999995581876
 20
-376.2927739595729
 30
0.0
  3
Bgr_903__4
  1

  0
INSERT
  5
50
330
4F
100
AcDbEntity
  8
0
100
AcDbBlockReference
  2
HL903-Isolierplatte-10984
 10
61.49999955839678
 20
-367.7842331858755
 30
0.0
  0
INSERT
  5
51
330
4F
100
AcDbEntity
  8
0
100
AcDbBlockReference
  2
HL903-Schutzgitter-10895__1
 10
65.4999995581876
 20
-368.7517064228861
 30
0.0
  0
INSERT
  5
52
330
4F
100
AcDbEntity
  8
0
100
AcDbBlockReference
  2
HL903-Koerper-10892__2
 10
33.2073529654682
 20
-371.9360129859972
 30
0.0
  0
INSERT
  5
53
330
4F
100
AcDbEntity
  8
0
100
AcDbBlockReference
  2
HL903-Deckel-HL-10893__3
 10
65.4999995581876
 20
-376.2927739595729
 30
0.0
  0
ENDBLK
  5
55
330
4F
100
AcDbEntity
  8
0
100
AcDbBlockEnd
  0
BLOCK
  5
58
330
56
100
AcDbEntity
  8
0
100
AcDbBlockBegin
  2
Drfsicht3
 70
     0
 71
     0
 10
33.99999955859551
 20
-340.1113123342175
 30
0.0
  3
Drfsicht3
  1

  0
INSERT
  5
57
330
56
100
AcDbEntity
  8
0
100
AcDbBlockReference
  2
Bgr_903__4
 10
65.4999995581876
 20
-376.2927739595729
 30
0.0
  0
LINE
  5
E7
330
56
100
AcDbEntity
  8
1
  6
Continuous
 62
     7
100
AcDbLine
 10
55.70919101612935
 20
-376.2927739595737
 30
0.0
 11
53.70919101612935
 21
-376.2927739595737
 31
0.0
  0
LINE
  5
E8
330
56
100
AcDbEntity
  8
1
  6
Continuous
 62
     7
100
AcDbLine
 10
55.70919101612003
 20
-303.9298507088537
 30
0.0
 11
52.70919101612003
 21
-303.9298507088537
 31
0.0
  0
LINE
  5
E9
330
56
100
AcDbEntity
  8
1
  6
Continuous
 62
     7
100
AcDbLine
 10
2.49999955839946
 20
-340.1113123342132
 30
0.0
 11
2.49999955839946
 21
-343.1113123342132
 31
0.0
  0
LINE
  5
EA
330
56
100
AcDbEntity
  8
1
  6
Continuous
 62
     7
100
AcDbLine
 10
65.4999995584009
 20
-340.1113123342132
 30
0.0
 11
65.4999995584009
 21
-342.1113123342132
 31
0.0
  0
DIMENSION
  5
F6
330
56
100
AcDbEntity
  8
1
100
AcDbDimension
  2
*D16
 10
87.6117359066603
 20
-376.2927739595737
 30
0.0
 11
82.1117359066603
 21
-337.721862949926
 31
0.0
 70
    32
  1
72
 71
     5
 42
-1.0
 53
90.0
  3
ME10_DIM_10
100
AcDbAlignedDimension
 13
52.70919101612003
 23
-303.9298507088537
 33
0.0
 14
53.70919101612935
 24
-376.2927739595737
 34
0.0
 50
90.0
100
AcDbRotatedDimension
  0
DIMENSION
  5
101
330
56
100
AcDbEntity
  8
1
100
AcDbDimension
  2
*D17
 10
65.4999995584009
 20
-393.434014375805
 30
0.0
 11
33.5163593384167
 21
-387.934014375805
 31
0.0
 70
    32
  1
<>
 71
     5
 42
-1.0
 53
0.00013888888889
  3
ME10_DIM_11
100
AcDbAlignedDimension
 13
2.49999955839946
 23
-343.1113123342132
 33
0.0
 14
65.4999995584009
 24
-342.1113123342132
 34
0.0
100
AcDbRotatedDimension
  0
ENDBLK
  5
59
330
56
100
AcDbEntity
  8
0
100
AcDbBlockEnd
  0
BLOCK
  5
5B
330
5A
100
AcDbEntity
  8
0
100
AcDbBlockBegin
  2
01008D-KeildichtungT40
 70
     0
 71
     0
 10
9.58845726792353
 20
-110.8999651193249
 30
0.0
  3
01008D-KeildichtungT40
  1

  0
LINE
  5
102
330
5A
100
AcDbEntity
  8
1
  6
DOT_CENTER
 62
     2
100
AcDbLine
 10
31.9999999998035
 20
-101.8999651193248
 30
0.0
 11
31.99999999980355
 21
-110.899965119325
 31
0.0
  0
LINE
  5
103
330
5A
100
AcDbEntity
  8
0
  6
Continuous
 62
     7
100
AcDbLine
 10
51.99999999980352
 20
-101.8999651193249
 30
0.0
 11
54.41154273168363
 21
-110.8999651193249
 31
0.0
  0
LINE
  5
104
330
5A
100
AcDbEntity
  8
0
  6
Continuous
 62
     7
100
AcDbLine
 10
11.99999999980352
 20
-101.8999651193249
 30
0.0
 11
51.99999999980352
 21
-101.8999651193249
 31
0.0
  0
LINE
  5
105
330
5A
100
AcDbEntity
  8
0
  6
Continuous
 62
     7
100
AcDbLine
 10
11.99999999980352
 20
-101.8999651193249
 30
0.0
 11
9.58845726792353
 21
-110.8999651193249
 31
0.0
  0
LINE
  5
106
330
5A
100
AcDbEntity
  8
0
  6
Continuous
 62
     7
100
AcDbLine
 10
54.41154273168363
 20
-110.8999651193249
 30
0.0
 11
9.58845726792353
 21
-110.8999651193249
 31
0.0
  0
ENDBLK
  5
5C
330
5A
100
AcDbEntity
  8
0
100
AcDbBlockEnd
  0
BLOCK
  5
5E
330
5D
100
AcDbEntity
  8
0
100
AcDbBlockBegin
  2
HL903-Deckel-HL-10893__5
 70
     0
 71
     0
 10
2.49999999980353
 20
-47.99999838039447
 30
0.0
  3
HL903-Deckel-HL-10893__5
  1

  0
LINE
  5
107
330
5D
100
AcDbEntity
  8
0
  6
Continuous
 62
     3
100
AcDbLine
 10
60.94286102637932
 20
-47.499998380395
 30
0.0
 11
59.96500029404234
 21
-47.49999838039447
 31
0.0
  0
LINE
  5
108
330
5D
100
AcDbEntity
  8
0
  6
Continuous
 62
     7
100
AcDbLine
 10
59.69999999980465
 20
-47.99999838039447
 30
0.0
 11
60.46519994290722
 21
-47.99999838039447
 31
0.0
  0
LINE
  5
109
330
5D
100
AcDbEntity
  8
0
  6
Continuous
 62
     3
100
AcDbLine
 10
55.23881337282893
 20
-47.49999838039447
 30
0.0
 11
59.96500029404234
 21
-47.49999838039447
 31
0.0
  0
LINE
  5
10A
330
5D
100
AcDbEntity
  8
0
  6
Continuous
 62
     3
100
AcDbLine
 10
59.96500029404234
 20
14.00000161961718
 30
0.0
 11
59.96500029404234
 21
-47.49999838039447
 31
0.0
  0
LINE
  5
10B
330
5D
100
AcDbEntity
  8
0
  6
Continuous
 62
     7
100
AcDbLine
 10
55.65692722589964
 20
18.00000161961718
 30
0.0
 11
33.36414610177394
 21
18.00000161961718
 31
0.0
  0
LINE
  5
10C
330
5D
100
AcDbEntity
  8
0
  6
Continuous
 62
     7
100
AcDbLine
 10
61.49999999983922
 20
18.00000161961718
 30
0.0
 11
56.18205910603444
 21
18.00000161961718
 31
0.0
  0
LINE
  5
10D
330
5D
100
AcDbEntity
  8
0
  6
Continuous
 62
     7
100
AcDbLine
 10
6.49999999980353
 20
18.00000161961718
 30
0.0
 11
33.36414610177394
 21
18.00000161961718
 31
0.0
  0
LINE
  5
10E
330
5D
100
AcDbEntity
  8
0
  6
Continuous
 62
     3
100
AcDbLine
 10
2.49999999980353
 20
-47.49999838039447
 30
0.0
 11
32.94603224870332
 21
-47.49999838039447
 31
0.0
  0
LINE
  5
10F
330
5D
100
AcDbEntity
  8
0
  6
Continuous
 62
     7
100
AcDbLine
 10
2.99999999980353
 20
-47.99999838039447
 30
0.0
 11
4.49999999980353
 21
-47.99999838039447
 31
0.0
  0
LINE
  5
110
330
5D
100
AcDbEntity
  8
0
  6
Continuous
 62
     7
100
AcDbLine
 10
57.94072601681293
 20
-47.99999838039447
 30
0.0
 11
58.31177003991712
 21
-47.99999838039447
 31
0.0
  0
LINE
  5
111
330
5D
100
AcDbEntity
  8
0
  6
Continuous
 62
     7
100
AcDbLine
 10
58.99999999980352
 20
-47.99999838039447
 30
0.0
 11
59.04972527412514
 21
-47.99999838039447
 31
0.0
  0
LINE
  5
112
330
5D
100
AcDbEntity
  8
0
  6
Continuous
 62
     7
100
AcDbLine
 10
58.31177003991712
 20
-47.99999838039447
 30
0.0
 11
58.99999999980352
 21
-47.99999838039447
 31
0.0
  0
LINE
  5
113
330
5D
100
AcDbEntity
  8
0
  6
Continuous
 62
     7
100
AcDbLine
 10
59.04972527412514
 20
-47.99999838039447
 30
0.0
 11
59.20835909140004
 21
-47.99999838039447
 31
0.0
  0
LINE
  5
114
330
5D
100
AcDbEntity
  8
0
  6
Continuous
 62
     7
100
AcDbLine
 10
59.20835909140004
 20
-47.99999838039447
 30
0.0
 11
59.49213264554135
 21
-47.99999838039447
 31
0.0
  0
LINE
  5
115
330
5D
100
AcDbEntity
  8
0
  6
Continuous
 62
     7
100
AcDbLine
 10
55.68724424465734
 20
-47.99999838039447
 30
0.0
 11
55.70266453928633
 21
-47.99999838039447
 31
0.0
  0
LINE
  5
116
330
5D
100
AcDbEntity
  8
0
  6
Continuous
 62
     7
100
AcDbLine
 10
55.84285456993743
 20
-47.99999838039447
 30
0.0
 11
56.20266453928633
 21
-47.99999838039447
 31
0.0
  0
LINE
  5
117
330
5D
100
AcDbEntity
  8
0
  6
Continuous
 62
     7
100
AcDbLine
 10
56.20266453928633
 20
-47.99999838039447
 30
0.0
 11
57.94072601681293
 21
-47.99999838039447
 31
0.0
  0
LINE
  5
118
330
5D
100
AcDbEntity
  8
0
  6
Continuous
 62
     7
100
AcDbLine
 10
59.49213264554135
 20
-47.99999838039447
 30
0.0
 11
59.69999999980465
 21
-47.99999838039447
 31
0.0
  0
LINE
  5
119
330
5D
100
AcDbEntity
  8
0
  6
Continuous
 62
     7
100
AcDbLine
 10
56.18205910603444
 20
18.00000161961718
 30
0.0
 11
55.65692722589964
 21
18.00000161961718
 31
0.0
  0
LINE
  5
11A
330
5D
100
AcDbEntity
  8
0
  6
Continuous
 62
     7
100
AcDbLine
 10
65.49999999983922
 20
14.00000161961718
 30
0.0
 11
65.49999999983922
 21
-9.19999838039452
 31
0.0
  0
LINE
  5
11B
330
5D
100
AcDbEntity
  8
0
  6
Continuous
 62
     7
100
AcDbLine
 10
63.49999999980093
 20
-9.69999838039452
 30
0.0
 11
64.99999977802014
 21
-9.69999838039452
 31
0.0
  0
LINE
  5
11C
330
5D
100
AcDbEntity
  8
0
  6
Continuous
 62
     7
100
AcDbLine
 10
61.01697333100864
 20
-9.69999838039452
 30
0.0
 11
63.49999999980093
 21
-9.69999838039452
 31
0.0
  0
LINE
  5
11D
330
5D
100
AcDbEntity
  8
0
  6
Continuous
 62
     3
100
AcDbLine
 10
65.49999999983922
 20
14.00000161961718
 30
0.0
 11
59.96500029404234
 21
14.00000161961718
 31
0.0
  0
LINE
  5
11E
330
5D
100
AcDbEntity
  8
0
  6
Continuous
 62
     7
100
AcDbLine
 10
55.70266453928633
 20
-47.99999838039447
 30
0.0
 11
55.84285456993743
 21
-47.99999838039447
 31
0.0
  0
LINE
  5
11F
330
5D
100
AcDbEntity
  8
0
  6
Continuous
 62
     7
100
AcDbLine
 10
33.13418348258523
 20
-47.99999838039447
 30
0.0
 11
33.15508917523863
 21
-47.99999838039447
 31
0.0
  0
LINE
  5
120
330
5D
100
AcDbEntity
  8
0
  6
Continuous
 62
     7
100
AcDbLine
 10
55.29107760446283
 20
-47.99999838039447
 30
0.0
 11
55.68724424465734
 21
-47.99999838039447
 31
0.0
  0
LINE
  5
121
330
5D
100
AcDbEntity
  8
0
  6
Continuous
 62
     7
100
AcDbLine
 10
33.15508917523863
 20
-47.99999838039447
 30
0.0
 11
55.29107760446283
 21
-47.99999838039447
 31
0.0
  0
LINE
  5
122
330
5D
100
AcDbEntity
  8
0
  6
Continuous
 62
     3
100
AcDbLine
 10
55.23881337282904
 20
14.00000161961718
 30
0.0
 11
55.23881337282893
 21
-47.49999838039447
 31
0.0
  0
LINE
  5
123
330
5D
100
AcDbEntity
  8
0
  6
Continuous
 62
     7
100
AcDbLine
 10
4.49999999980353
 20
-47.99999838039447
 30
0.0
 11
4.99999999980353
 21
-47.99999838039447
 31
0.0
  0
LINE
  5
124
330
5D
100
AcDbEntity
  8
0
  6
Continuous
 62
     7
100
AcDbLine
 10
32.99829648033713
 20
-47.99999838039447
 30
0.0
 11
33.13418348258523
 21
-47.99999838039447
 31
0.0
  0
LINE
  5
125
330
5D
100
AcDbEntity
  8
0
  6
Continuous
 62
     7
100
AcDbLine
 10
4.99999999980353
 20
-47.99999838039447
 30
0.0
 11
32.99829648033713
 21
-47.99999838039447
 31
0.0
  0
LINE
  5
126
330
5D
100
AcDbEntity
  8
0
  6
Continuous
 62
     7
100
AcDbLine
 10
2.49999999980353
 20
-47.49999838039447
 30
0.0
 11
2.49999999980353
 21
14.00000161961718
 31
0.0
  0
LINE
  5
127
330
5D
100
AcDbEntity
  8
0
  6
Continuous
 62
     3
100
AcDbLine
 10
32.94603224870332
 20
-47.49999838039447
 30
0.0
 11
32.94603224870332
 21
14.00000161961718
 31
0.0
  0
LINE
  5
128
330
5D
100
AcDbEntity
  8
0
  6
Continuous
 62
     3
100
AcDbLine
 10
32.94603224870332
 20
-47.49999838039447
 30
0.0
 11
55.23881337282893
 21
-47.49999838039447
 31
0.0
  0
LINE
  5
129
330
5D
100
AcDbEntity
  8
0
  6
Continuous
 62
     3
100
AcDbLine
 10
2.49999999980353
 20
14.00000161961718
 30
0.0
 11
32.94603224870332
 21
14.00000161961718
 31
0.0
  0
LINE
  5
12A
330
5D
100
AcDbEntity
  8
0
  6
Continuous
 62
     3
100
AcDbLine
 10
59.96500029404234
 20
14.00000161961718
 30
0.0
 11
55.23881337282904
 21
14.00000161961718
 31
0.0
  0
LINE
  5
12B
330
5D
100
AcDbEntity
  8
0
  6
Continuous
 62
     3
100
AcDbLine
 10
55.23881337282904
 20
14.00000161961718
 30
0.0
 11
32.94603224870332
 21
14.00000161961718
 31
0.0
  0
ARC
  5
12C
330
5D
100
AcDbEntity
  8
0
  6
Continuous
 62
     7
100
AcDbCircle
 10
6.49999999980353
 20
14.00000161961718
 30
0.0
 40
4.0
100
AcDbArc
 50
90.0
 51
180.0
  0
ARC
  5
12D
330
5D
100
AcDbEntity
  8
0
  6
Continuous
 62
     7
100
AcDbCircle
 10
2.99999999980353
 20
-47.49999838039447
 30
0.0
 40
0.5
100
AcDbArc
 50
180.0
 51
-90.0
  0
ARC
  5
12E
330
5D
100
AcDbEntity
  8
0
  6
Continuous
 62
     7
100
AcDbCircle
 10
61.49999999983922
 20
14.00000161961718
 30
0.0
 40
4.0
100
AcDbArc
 50
0.0
 51
90.0
  0
SPLINE
  5
12F
330
5D
100
AcDbEntity
  8
0
  6
Continuous
 62
     7
100
AcDbSpline
210
0.0
220
0.0
230
1.0
 70
     8
 71
     3
 72
    13
 73
     9
 74
     7
 42
0.0000000001
 43
0.0000000001
 44
0.00000001
 40
0.0
 40
0.0
 40
0.0
 40
0.0
 40
0.0556124925439614
 40
0.1011691501514657
 40
0.1453392121626786
 40
0.1983345977045707
 40
0.2969596946991686
 40
0.395687813270851
 40
0.395687813270851
 40
0.395687813270851
 40
0.395687813270851
 10
60.96520001497223
 20
-47.49999838039626
 30
0.0
 10
60.96467275265969
 20
-47.51854802942154
 30
0.0
 10
60.96371356745459
 20
-47.55229318526061
 30
0.0
 10
60.95598430794096
 20
-47.6002338957096
 30
0.0
 10
60.94412293174699
 20
-47.64637758401094
 30
0.0
 10
60.92120010214324
 20
-47.70756069203305
 30
0.0
 10
60.88183300621162
 20
-47.78191046712398
 30
0.0
 10
60.83920173727546
 20
-47.83220914442268
 30
0.0
 10
60.81787497570073
 20
-47.8573716114344
 30
0.0
 11
60.96520001497223
 21
-47.49999838039626
 31
0.0
 11
60.96228232083751
 21
-47.5555342821886
 31
0.0
 11
60.95521833766264
 21
-47.6005399395449
 31
0.0
 11
60.9441742988118
 21
-47.64330702483178
 31
0.0
 11
60.92579825714492
 21
-47.69301448887282
 31
0.0
 11
60.87895281993589
 21
-47.77980397423763
 31
0.0
 11
60.81787497570073
 21
-47.8573716114344
 31
0.0
  0
SPLINE
  5
130
330
5D
100
AcDbEntity
  8
0
  6
Continuous
 62
     7
100
AcDbSpline
210
0.0
220
0.0
230
1.0
 70
     8
 71
     3
 72
    11
 73
     7
 74
     5
 42
0.0000000001
 43
0.0000000001
 44
0.00000001
 40
0.0
 40
0.0
 40
0.0
 40
0.0
 40
9.324999700012395
 40
18.64999940002478
 40
27.97499910005743
 40
37.29999880009144
 40
37.29999880009144
 40
37.29999880009144
 40
37.29999880009144
 10
60.96520006915463
 20
-10.19999958030482
 30
0.0
 10
60.96520005071227
 20
-13.30833281364229
 30
0.0
 10
60.96520001382753
 20
-19.52499928031722
 30
0.0
 10
60.96519992520719
 20
-28.84999898033635
 30
0.0
 10
60.9651999428394
 20
-38.17499868036271
 30
0.0
 10
60.96519999092795
 20
-44.3916651470516
 30
0.0
 10
60.96520001497223
 20
-47.49999838039626
 30
0.0
 11
60.96520006915463
 21
-10.19999958030482
 31
0.0
 11
60.96520000827865
 21
-19.52499928031721
 31
0.0
 11
60.96519994291595
 21
-28.8499989803296
 31
0.0
 11
60.96519995192283
 21
-38.17499868036225
 31
0.0
 11
60.96520001497223
 21
-47.49999838039626
 31
0.0
  0
SPLINE
  5
131
330
5D
100
AcDbEntity
  8
0
  6
Continuous
 62
     3
100
AcDbSpline
210
0.0
220
0.0
230
1.0
 70
    24
 71
     3
 72
     9
 73
     5
 74
     3
 42
0.0000000001
 43
0.0000000001
 44
0.00000001
 40
0.0
 40
0.0
 40
0.0
 40
0.0
 40
0.0111694943003542
 40
0.0223389885929137
 40
0.0223389885929137
 40
0.0223389885929137
 40
0.0223389885929137
 10
60.96520001497223
 20
-47.49999838039626
 30
0.0
 10
60.96147685020544
 20
-47.49999838039592
 30
0.0
 10
60.95403052067446
 20
-47.49999838039522
 30
0.0
 10
60.94658419114351
 20
-47.49999838039508
 30
0.0
 10
60.94286102637932
 20
-47.499998380395
 30
0.0
 11
60.96520001497223
 21
-47.49999838039626
 31
0.0
 11
60.95403052067188
 21
-47.49999838039537
 31
0.0
 11
60.94286102637932
 21
-47.499998380395
 31
0.0
  0
SPLINE
  5
132
330
5D
100
AcDbEntity
  8
0
  6
Continuous
 62
     3
100
AcDbSpline
210
0.0
220
0.0
230
1.0
 70
     8
 71
     3
 72
    11
 73
     7
 74
     5
 42
0.0000000001
 43
0.0000000001
 44
0.00000001
 40
0.0
 40
0.0
 40
0.0
 40
0.0
 40
9.324999402806542
 40
18.64999880561306
 40
27.97499860579526
 40
37.29999840597787
 40
37.29999840597787
 40
37.29999840597787
 40
37.29999840597787
 10
60.94286118709783
 20
-10.19999997441713
 30
0.0
 10
60.94286116222473
 20
-13.30833310868598
 30
0.0
 10
60.94286111247852
 20
-19.52499937722366
 30
0.0
 10
60.94286100341954
 20
-28.84999891248875
 30
0.0
 10
60.94286103211925
 20
-38.17499858021251
 30
0.0
 10
60.94286102829265
 20
-44.39166511366747
 30
0.0
 10
60.94286102637932
 20
-47.499998380395
 30
0.0
 11
60.94286118709783
 21
-10.19999997441713
 31
0.0
 11
60.94286110673858
 21
-19.52499937722367
 31
0.0
 11
60.94286102637932
 21
-28.84999878003019
 31
0.0
 11
60.94286102637932
 21
-38.17499858021239
 31
0.0
 11
60.94286102637932
 21
-47.499998380395
 31
0.0
  0
SPLINE
  5
133
330
5D
100
AcDbEntity
  8
0
  6
Continuous
 62
     3
100
AcDbSpline
210
0.0
220
0.0
230
1.0
 70
     8
 71
     3
 72
     9
 73
     5
 74
     3
 42
0.0000000001
 43
0.0000000001
 44
0.00000001
 40
0.0
 40
0.0
 40
0.0
 40
0.0
 40
0.1947657419017786
 40
0.3872078337794158
 40
0.3872078337794158
 40
0.3872078337794158
 40
0.3872078337794158
 10
60.94286102637932
 20
-47.499998380395
 30
0.0
 10
60.93647818289721
 20
-47.56605683555524
 30
0.0
 10
60.92378864636
 20
-47.69738563637848
 30
0.0
 10
60.84307297048836
 20
-47.80170505906136
 30
0.0
 10
60.80295732158623
 20
-47.85355175784484
 30
0.0
 11
60.94286102637932
 21
-47.499998380395
 31
0.0
 11
60.90650123483154
 21
-47.69134011598123
 31
0.0
 11
60.80295732158623
 21
-47.85355175784484
 31
0.0
  0
SPLINE
  5
134
330
5D
100
AcDbEntity
  8
0
  6
Continuous
 62
     3
100
AcDbSpline
210
0.0
220
0.0
230
1.0
 70
     8
 71
     3
 72
    11
 73
     7
 74
     5
 42
0.0000000001
 43
0.0000000001
 44
0.00000001
 40
0.0
 40
0.0
 40
0.0
 40
0.0
 40
0.0019709026560032
 40
0.0052364758674538
 40
0.0101212458233921
 40
0.015984399084871
 40
0.015984399084871
 40
0.015984399084871
 40
0.015984399084871
 10
60.81787497570073
 20
-47.8573716114344
 30
0.0
 10
60.81728275702699
 20
-47.85769313974498
 30
0.0
 10
60.81570929585987
 20
-47.85854740580117
 30
0.0
 10
60.81221080176626
 20
-47.85767435135264
 30
0.0
 10
60.80789950012593
 20
-47.85611820303551
 30
0.0
 10
60.80470174496907
 20
-47.85445762698036
 30
0.0
 10
60.80295732158623
 20
-47.85355175784484
 30
0.0
 11
60.81787497570073
 21
-47.8573716114344
 31
0.0
 11
60.81606480666221
 21
-47.8581511916621
 31
0.0
 11
60.81282021670344
 21
-47.85778159133905
 31
0.0
 11
60.80822299336883
 21
-47.85613037508001
 31
0.0
 11
60.80295732158623
 21
-47.85355175784484
 31
0.0
  0
SPLINE
  5
135
330
5D
100
AcDbEntity
  8
0
  6
Continuous
 62
     3
100
AcDbSpline
210
0.0
220
0.0
230
1.0
 70
     8
 71
     3
 72
     9
 73
     5
 74
     3
 42
0.0000000001
 43
0.0000000001
 44
0.00000001
 40
0.0
 40
0.0
 40
0.0
 40
0.0
 40
0.1891072869817481
 40
0.3758206054781008
 40
0.3758206054781008
 40
0.3758206054781008
 40
0.3758206054781008
 10
60.80295732158623
 20
-47.85355175784484
 30
0.0
 10
60.75383290626215
 20
-47.89553746969196
 30
0.0
 10
60.6562059570022
 20
-47.97897738308534
 30
0.0
 10
60.52859766031503
 20
-47.99302120088863
 30
0.0
 10
60.46519994290722
 20
-47.99999838039447
 30
0.0
 11
60.80295732158623
 21
-47.85355175784484
 31
0.0
 11
60.64799294438019
 21
-47.96193813976961
 31
0.0
 11
60.46519994290722
 21
-47.99999838039447
 31
0.0
  0
SPLINE
  5
136
330
5D
100
AcDbEntity
  8
0
  6
Continuous
 62
     3
100
AcDbSpline
210
0.0
220
0.0
230
1.0
 70
     8
 71
     3
 72
    13
 73
     9
 74
     7
 42
0.0000000001
 43
0.0000000001
 44
0.00000001
 40
0.0
 40
0.0
 40
0.0
 40
0.0
 40
0.123567285349229
 40
0.2480729532959879
 40
0.3741874526591197
 40
0.5021344793310907
 40
0.6316475953963994
 40
0.7620563166355805
 40
0.7620563166355805
 40
0.7620563166355805
 40
0.7620563166355805
 10
59.49213264554135
 20
-47.99999838039447
 30
0.0
 10
59.53345245359722
 20
-47.99666158639139
 30
0.0
 10
59.61640585655557
 20
-47.98996265843044
 30
0.0
 10
59.73197215125071
 20
-47.93713913042198
 30
0.0
 10
59.83108805144891
 20
-47.85704191291418
 30
0.0
 10
59.90634596797246
 20
-47.75212435098533
 30
0.0
 10
59.95566311932229
 20
-47.63045058785046
 30
0.0
 10
59.96188076115264
 20
-47.5435822228193
 30
0.0
 10
59.96500029404234
 20
-47.49999838039447
 30
0.0
 11
59.49213264554135
 21
-47.99999838039447
 31
0.0
 11
59.61451976615715
 21
-47.9829611647783
 31
0.0
 11
59.72856646979189
 21
-47.93301108228668
 31
0.0
 11
59.82650047725576
 21
-47.85355167672837
 31
0.0
 11
59.90164804177104
 21
-47.74999838039446
 31
0.0
 11
59.94888759787151
 21
-47.6294078684444
 31
0.0
 11
59.96500029404234
 21
-47.49999838039447
 31
0.0
  0
SPLINE
  5
137
330
5D
100
AcDbEntity
  8
0
  6
Continuous
 62
     7
100
AcDbSpline
210
0.0
220
0.0
230
1.0
 70
     8
 71
     3
 72
    17
 73
    13
 74
    11
 42
0.0000000001
 43
0.0000000001
 44
0.00000001
 40
0.0
 40
0.0
 40
0.0
 40
0.0
 40
0.0067824484640798
 40
0.0140724077672368
 40
0.0620533206272619
 40
0.0989034512924205
 40
0.1400570972803097
 40
0.1948913938358496
 40
0.2425552496488476
 40
0.293735298305721
 40
0.3397209770304477
 40
0.3900549544484376
 40
0.3900549544484376
 40
0.3900549544484376
 40
0.3900549544484376
 10
60.81787497570073
 20
-47.8573716114344
 30
0.0
 10
60.81631165901654
 20
-47.85900495249758
 30
0.0
 10
60.81306804721973
 20
-47.86239385277241
 30
0.0
 10
60.79836168978679
 20
-47.87694138841134
 30
0.0
 10
60.7748259001958
 20
-47.8968118817525
 30
0.0
 10
60.74021389902978
 20
-47.92065485448956
 30
0.0
 10
60.70181296343077
 20
-47.94280078017015
 30
0.0
 10
60.65822068774786
 20
-47.9628277613029
 30
0.0
 10
60.60977616192126
 20
-47.97969524700797
 30
0.0
 10
60.56281277546287
 20
-47.99115067292321
 30
0.0
 10
60.51410612384863
 20
-47.99858151187799
 30
0.0
 10
60.48198536136114
 20
-47.99951208744569
 30
0.0
 10
60.46519994290722
 20
-47.99999838039447
 30
0.0
 11
60.81787497570073
 21
-47.8573716114344
 31
0.0
 11
60.81316377421635
 21
-47.86225076994192
 31
0.0
 11
60.80798748195244
 21
-47.86738394683739
 31
0.0
 11
60.77145987160184
 21
-47.8984950651226
 31
0.0
 11
60.74114641657724
 21
-47.91944802611886
 31
0.0
 11
60.70551410506516
 21
-47.94003833826808
 31
0.0
 11
60.65569932045904
 21
-47.96295748557743
 31
0.0
 11
60.61067696865813
 21
-47.978604561639
 31
0.0
 11
60.56096804939162
 21
-47.99078736615503
 31
0.0
 11
60.51547030222865
 21
-47.99746850758957
 31
0.0
 11
60.46519994290722
 21
-47.99999838039447
 31
0.0
  0
SPLINE
  5
138
330
5D
100
AcDbEntity
  8
0
  6
Continuous
 62
     3
100
AcDbSpline
210
0.0
220
0.0
230
1.0
 70
     8
 71
     3
 72
    13
 73
     9
 74
     7
 42
0.0000000001
 43
0.0000000001
 44
0.00000001
 40
0.0
 40
0.0
 40
0.0
 40
0.0
 40
0.1294217412548163
 40
0.2501252315018699
 40
0.3540110870815462
 40
0.4342043653927489
 40
0.485720385405922
 40
0.5074745980183343
 40
0.5074745980183343
 40
0.5074745980183343
 40
0.5074745980183343
 10
32.94603224870332
 20
-47.49999838039447
 30
0.0
 10
32.9463333812568
 20
-47.54315863939063
 30
0.0
 10
32.94691536113842
 20
-47.62657174810347
 30
0.0
 10
32.95237774719402
 20
-47.74425240945806
 30
0.0
 10
32.9589461586033
 20
-47.84629880023552
 30
0.0
 10
32.97159158868763
 20
-47.92244831303505
 30
0.0
 10
32.97679106223169
 20
-47.97611703834176
 30
0.0
 10
32.99337318468818
 20
-47.9945311578163
 30
0.0
 10
32.99829648033713
 20
-47.99999838039447
 30
0.0
 11
32.94603224870332
 21
-47.49999838039447
 31
0.0
 11
32.94781312267007
 21
-47.6294078684444
 31
0.0
 11
32.95303432803304
 21
-47.74999838039446
 31
0.0
 11
32.96134009758821
 21
-47.85355167672837
 31
0.0
 11
32.97216436452028
 21
-47.93301108228668
 31
0.0
 11
32.98476950541906
 21
-47.9829611647783
 31
0.0
 11
32.99829648033713
 21
-47.99999838039447
 31
0.0
  0
SPLINE
  5
139
330
5D
100
AcDbEntity
  8
0
  6
Continuous
 62
     3
100
AcDbSpline
210
0.0
220
0.0
230
1.0
 70
     8
 71
     3
 72
    13
 73
     9
 74
     7
 42
0.0000000001
 43
0.0000000001
 44
0.00000001
 40
0.0
 40
0.0
 40
0.0
 40
0.0
 40
0.0217542126124653
 40
0.0732702326256418
 40
0.1534635109368375
 40
0.257349366516522
 40
0.3780528567635679
 40
0.5074745980183911
 40
0.5074745980183911
 40
0.5074745980183911
 40
0.5074745980183911
 10
55.29107760446283
 20
-47.99999838039447
 30
0.0
 10
55.28615430881383
 20
-47.9945311578163
 30
0.0
 10
55.26957218635725
 20
-47.97611703834178
 30
0.0
 10
55.26437271281324
 20
-47.92244831303505
 30
0.0
 10
55.25172728272889
 20
-47.8462988002355
 30
0.0
 10
55.2451588713196
 20
-47.74425240945807
 30
0.0
 10
55.23969648526402
 20
-47.62657174810347
 30
0.0
 10
55.2391145053824
 20
-47.54315863939063
 30
0.0
 10
55.23881337282893
 20
-47.49999838039447
 30
0.0
 11
55.29107760446283
 21
-47.99999838039447
 31
0.0
 11
55.27755062954467
 21
-47.9829611647783
 31
0.0
 11
55.26494548864588
 21
-47.93301108228668
 31
0.0
 11
55.2541212217138
 21
-47.85355167672837
 31
0.0
 11
55.24581545215862
 21
-47.74999838039446
 31
0.0
 11
55.24059424679567
 21
-47.6294078684444
 31
0.0
 11
55.23881337282893
 21
-47.49999838039447
 31
0.0
  0
SPLINE
  5
13A
330
5D
100
AcDbEntity
  8
0
  6
Continuous
 62
     3
100
AcDbSpline
210
0.0
220
0.0
230
1.0
 70
     8
 71
     3
 72
    15
 73
    11
 74
     9
 42
0.0000000001
 43
0.0000000001
 44
0.00000001
 40
0.0
 40
0.0
 40
0.0
 40
0.0
 40
0.7804026054891564
 40
1.531152208323403
 40
2.223777845855845
 40
2.83215035221685
 40
3.333620286219873
 40
3.710261929480007
 40
3.95101955666791
 40
4.063095310293356
 40
4.063095310293356
 40
4.063095310293356
 40
4.063095310293356
 10
55.23881337282904
 20
14.00000161961718
 30
0.0
 10
55.24031284105978
 20
14.26015197548251
 30
0.0
 10
55.24325480214071
 20
14.77056773918904
 30
0.0
 10
55.26729408508649
 20
15.51137090802092
 30
0.0
 10
55.30375474158615
 20
16.19487496735014
 30
0.0
 10
55.35546691091702
 20
16.79210971464725
 30
0.0
 10
55.41033661598791
 20
17.28864658518047
 30
0.0
 10
55.48950030546595
 20
17.64494822578377
 30
0.0
 10
55.5341520546967
 20
17.90042281964838
 30
0.0
 10
55.62732978670184
 20
17.97599613505063
 30
0.0
 10
55.65692722589964
 20
18.00000161961718
 30
0.0
 11
55.23881337282904
 21
14.00000161961718
 31
0.0
 11
55.24684733272565
 21
14.78036287066867
 31
0.0
 11
55.27064039478823
 21
15.53073534907753
 31
0.0
 11
55.30927827907787
 21
16.22228244629134
 31
0.0
 11
55.36127608508532
 21
16.82842874436334
 31
0.0
 11
55.42463562613816
 21
17.32587991107879
 31
0.0
 11
55.49692198148713
 21
17.69551974966232
 31
0.0
 11
55.57535726353358
 21
17.92314255515299
 31
0.0
 11
55.65692722589964
 21
18.00000161961718
 31
0.0
  0
SPLINE
  5
13B
330
5D
100
AcDbEntity
  8
0
  6
Continuous
 62
     3
100
AcDbSpline
210
0.0
220
0.0
230
1.0
 70
     8
 71
     3
 72
    15
 73
    11
 74
     9
 42
0.0000000001
 43
0.0000000001
 44
0.00000001
 40
0.0
 40
0.0
 40
0.0
 40
0.0
 40
0.7837392905066369
 40
1.564380325823555
 40
2.339263912321424
 40
3.106559971815485
 40
3.865557833194985
 40
4.616807740928751
 40
5.362073177181586
 40
6.104079727698459
 40
6.104079727698459
 40
6.104079727698459
 40
6.104079727698459
 10
59.96500029404234
 20
14.00000161961718
 30
0.0
 10
59.95096416657897
 20
14.26162527449414
 30
0.0
 10
59.92294739885988
 20
14.78383834128449
 30
0.0
 10
59.69886707428975
 20
15.53785139738409
 30
0.0
 10
59.35022279980944
 20
16.23336924270309
 30
0.0
 10
58.8770198989962
 20
16.84345201773097
 30
0.0
 10
58.3005604962003
 20
17.3455752474935
 30
0.0
 10
57.64186274557866
 20
17.71628119178532
 30
0.0
 10
56.9264726276123
 20
17.95512207991348
 30
0.0
 10
56.42983420459902
 20
17.98506364220101
 30
0.0
 10
56.18205910603444
 20
18.00000161961718
 30
0.0
 11
59.96500029404234
 21
14.00000161961718
 31
0.0
 11
59.89231196388403
 21
14.78036287066867
 31
0.0
 11
59.67704104232888
 21
15.53073534907753
 31
0.0
 11
59.32745959980231
 21
16.22228244629134
 31
0.0
 11
58.85700247290472
 21
16.82842874436334
 31
0.0
 11
58.28374852367098
 21
17.32587991107879
 31
0.0
 11
57.62972802429658
 21
17.69551974966232
 31
0.0
 11
56.92007428556643
 21
17.92314255515299
 31
0.0
 11
56.18205910603444
 21
18.00000161961718
 31
0.0
  0
SPLINE
  5
13C
330
5D
100
AcDbEntity
  8
0
  6
Continuous
 62
     7
100
AcDbSpline
210
0.0
220
0.0
230
1.0
 70
     8
 71
     3
 72
    17
 73
    13
 74
    11
 42
0.0000000001
 43
0.0000000001
 44
0.00000001
 40
0.0
 40
0.0
 40
0.0
 40
0.0
 40
0.0430813500475409
 40
0.0774359316134397
 40
0.1366542062282097
 40
0.2178079280485358
 40
0.2958610379223848
 40
0.3749290962838457
 40
0.4096097163906773
 40
0.4328311956492639
 40
0.4618670972087272
 40
0.5037401078991525
 40
0.5037401078991525
 40
0.5037401078991525
 40
0.5037401078991525
 10
61.01697333100864
 20
-9.699998380394518
 30
0.0
 10
61.01374883166969
 20
-9.713993345429113
 30
0.0
 10
61.00795300331185
 20
-9.739148387092282
 30
0.0
 10
60.99927841306611
 20
-9.78387241210949
 30
0.0
 10
60.98966065617763
 20
-9.841323840936937
 30
0.0
 10
60.98027469731159
 20
-9.913544927339037
 30
0.0
 10
60.97279100826798
 20
-9.992629473530789
 30
0.0
 10
60.96878935466067
 20
-10.05644921445647
 30
0.0
 10
60.96690577260713
 20
-10.10206810858028
 30
0.0
 10
60.96603067459245
 20
-10.13103447259596
 30
0.0
 10
60.96536278852827
 20
-10.16240519879421
 30
0.0
 10
60.96526048264907
 20
-10.18604175889291
 30
0.0
 10
60.96520006915463
 20
-10.19999958030482
 30
0.0
 11
61.01697333100864
 21
-9.699998380394518
 31
0.0
 11
61.00757231248213
 21
-9.742041496032908
 31
0.0
 11
61.00096309609614
 21
-9.775754335327917
 31
0.0
 11
60.99116970847975
 21
-9.834157191485346
 31
0.0
 11
60.98061979965394
 21
-9.914622252158026
 31
0.0
 11
60.97323173550484
 21
-9.992324919223629
 31
0.0
 11
60.96825414603694
 21
-10.07123614438292
 31
0.0
 11
60.96682475489514
 21
-10.10588729518572
 31
0.0
 11
60.96611985284423
 21
-10.12909807311442
 31
0.0
 11
60.96552107898933
 21
-10.15812780010662
 31
0.0
 11
60.96520006915463
 21
-10.19999958030482
 31
0.0
  0
SPLINE
  5
13D
330
5D
100
AcDbEntity
  8
0
  6
Continuous
 62
     3
100
AcDbSpline
210
0.0
220
0.0
230
1.0
 70
     8
 71
     3
 72
     9
 73
     5
 74
     3
 42
0.0000000001
 43
0.0000000001
 44
0.00000001
 40
0.0
 40
0.0
 40
0.0
 40
0.0
 40
0.0150247226952573
 40
0.0223388820672398
 40
0.0223388820672398
 40
0.0223388820672398
 40
0.0223388820672398
 10
60.94286118709783
 20
-10.19999997441713
 30
0.0
 10
60.94786942799241
 20
-10.19999970920533
 30
0.0
 10
60.95531572200912
 20
-10.19999931488623
 30
0.0
 10
60.96276201603087
 20
-10.19999951483721
 30
0.0
 10
60.96520006915463
 20
-10.19999958030482
 30
0.0
 11
60.94286118709783
 21
-10.19999997441713
 31
0.0
 11
60.95788590978385
 21
-10.19999944760937
 31
0.0
 11
60.96520006915463
 21
-10.19999958030482
 31
0.0
  0
SPLINE
  5
13E
330
5D
100
AcDbEntity
  8
0
  6
Continuous
 62
     7
100
AcDbSpline
210
0.0
220
0.0
230
1.0
 70
     8
 71
     3
 72
    24
 73
    20
 74
    18
 42
0.0000000001
 43
0.0000000001
 44
0.00000001
 40
0.0
 40
0.0
 40
0.0
 40
0.0
 40
0.0011150974770551
 40
0.0033435574463108
 40
0.0067068896842379
 40
0.0119215617739766
 40
0.0192727210223955
 40
0.0272138477131162
 40
0.0341210475751247
 40
0.0394067545303698
 40
0.0459435424688401
 40
0.0543970480478392
 40
0.064704537403354
 40
0.070310014448536
 40
0.0774714189871207
 40
0.0861141866682784
 40
0.0961643960870057
 40
0.1199693654991525
 40
0.1429988271915308
 40
0.1429988271915308
 40
0.1429988271915308
 40
0.1429988271915308
 10
61.06214423693484
 20
-9.56464409965642
 30
0.0
 10
61.06196149699061
 20
-9.564967791061832
 30
0.0
 10
61.06141356148372
 20
-9.565938361645252
 30
0.0
 10
61.06037726848848
 20
-9.567919745979612
 30
0.0
 10
61.05876561653012
 20
-9.571141375329514
 30
0.0
 10
61.05650638987437
 20
-9.575947192156613
 30
0.0
 10
61.05374831499233
 20
-9.582202441855674
 30
0.0
 10
61.05091685960841
 20
-9.58903972615313
 30
0.0
 10
61.04845784983765
 20
-9.595284625154825
 30
0.0
 10
61.04624490765694
 20
-9.601122619183911
 30
0.0
 10
61.04392012407354
 20
-9.607469046952227
 30
0.0
 10
61.04112281276075
 20
-9.615424434931816
 30
0.0
 10
61.03853949251048
 20
-9.623125166673702
 30
0.0
 10
61.03617261891673
 20
-9.630443450315681
 30
0.0
 10
61.03403378374246
 20
-9.637252057564986
 30
0.0
 10
61.03152955294385
 20
-9.645498506682229
 30
0.0
 10
61.02755878947988
 20
-9.659096726409821
 30
0.0
 10
61.02254267472114
 20
-9.677385479664434
 30
0.0
 10
61.01880917184924
 20
-9.692544416547545
 30
0.0
 10
61.01697333100864
 20
-9.699998380394518
 30
0.0
 11
61.06214423693484
 21
-9.56464409965642
 31
0.0
 11
61.06159950035066
 21
-9.565617087034132
 31
0.0
 11
61.06055739210682
 21
-9.56758686982487
 31
0.0
 11
61.05905135868403
 21
-9.570594172116316
 31
0.0
 11
61.0568252800948
 21
-9.575309824681769
 31
0.0
 11
61.05385221722634
 21
-9.582032951891321
 31
0.0
 11
61.05080797984065
 21
-9.589367398827363
 31
0.0
 11
61.04827538875712
 21
-9.595793547933738
 31
0.0
 11
61.04640098322423
 21
-9.600735743995713
 31
0.0
 11
61.04415152341026
 21
-9.606873294573743
 31
0.0
 11
61.04134517134302
 21
-9.614847386663058
 31
0.0
 11
61.03806397916674
 21
-9.624618676993222
 31
0.0
 11
61.03633880398159
 21
-9.629952075861166
 31
0.0
 11
61.03419164251046
 21
-9.636784016477286
 31
0.0
 11
61.03167956198692
 21
-9.645053652783297
 31
0.0
 11
61.02885962964453
 21
-9.654700138720912
 31
0.0
 11
61.02257669388105
 21
-9.67766100296652
 31
0.0
 11
61.01697333100864
 21
-9.699998380394518
 31
0.0
  0
SPLINE
  5
13F
330
5D
100
AcDbEntity
  8
0
  6
Continuous
 62
     3
100
AcDbSpline
210
0.0
220
0.0
230
1.0
 70
     8
 71
     3
 72
    31
 73
    27
 74
    25
 42
0.0000000001
 43
0.0000000001
 44
0.00000001
 40
0.0
 40
0.0
 40
0.0
 40
0.0
 40
0.0151831537253772
 40
0.0304205302725355
 40
0.0457051994489175
 40
0.06103002279478
 40
0.0763876951097795
 40
0.0917707463888066
 40
0.1071715753052326
 40
0.1225824658073228
 40
0.1379956115722911
 40
0.153403146790506
 40
0.1687971606937738
 40
0.1841697415912035
 40
0.1995129807368465
 40
0.2148190282667884
 40
0.2300800858885298
 40
0.2452884730379898
 40
0.2755136934573415
 40
0.3054396913604865
 40
0.3350106808303949
 40
0.3641751373456711
 40
0.3928852418959592
 40
0.4210984598653649
 40
0.4487765983372793
 40
0.4758872194223914
 40
0.4758872194223914
 40
0.4758872194223914
 40
0.4758872194223914
 10
61.04297723094354
 20
-9.610167489657513
 30
0.0
 10
61.04704285829763
 20
-9.60715266452323
 30
0.0
 10
61.05518863237323
 20
-9.601112247563574
 30
0.0
 10
61.06705576839838
 20
-9.591552125045204
 30
0.0
 10
61.07867179717502
 20
-9.581618537260606
 30
0.0
 10
61.08999277576112
 20
-9.571289181623637
 30
0.0
 10
61.10100754250196
 20
-9.560587214033047
 30
0.0
 10
61.11169788444555
 20
-9.54952577434716
 30
0.0
 10
61.12204791931009
 20
-9.538121372995187
 30
0.0
 10
61.13204316300352
 20
-9.526391597680565
 30
0.0
 10
61.14166934685062
 20
-9.514354266105777
 30
0.0
 10
61.15091437174353
 20
-9.50202883527413
 30
0.0
 10
61.15976627734977
 20
-9.48943465959455
 30
0.0
 10
61.16821543633905
 20
-9.476592507157093
 30
0.0
 10
61.17625241732468
 20
-9.463522893090898
 30
0.0
 10
61.1838701781729
 20
-9.450247498256422
 30
0.0
 10
61.19106195056949
 20
-9.43678741543869
 30
0.0
 10
61.20005792122699
 20
-9.418663150041768
 30
0.0
 10
61.21021598893635
 20
-9.395671248409233
 30
0.0
 10
61.22068428849159
 20
-9.367638177121222
 30
0.0
 10
61.22940818370009
 20
-9.339384069791604
 30
0.0
 10
61.23641652656269
 20
-9.311075198477024
 30
0.0
 10
61.24175600716808
 20
-9.28286433112145
 30
0.0
 10
61.24545226239212
 20
-9.254896214517682
 30
0.0
 10
61.24770448806954
 20
-9.227301061983642
 30
0.0
 10
61.24797934575783
 20
-9.209036122367511
 30
0.0
 10
61.24811535107534
 20
-9.199998249251223
 30
0.0
 11
61.04297723094354
 21
-9.610167489657513
 31
0.0
 11
61.05511252585511
 21
-9.601042645852946
 31
0.0
 11
61.06699572238733
 21
-9.591504968765918
 31
0.0
 11
61.07860757320074
 21
-9.58156585248133
 31
0.0
 11
61.08992977968634
 21
-9.571238323692725
 31
0.0
 11
61.10094450624435
 21
-9.560536272590848
 31
0.0
 11
61.11163508473544
 21
-9.54947508828812
 31
0.0
 11
61.12198545817824
 21
-9.538070909189758
 31
0.0
 11
61.13198092673562
 21
-9.526341196730115
 31
0.0
 11
61.14160752907145
 21
-9.514304021403653
 31
0.0
 11
61.15085281363943
 21
-9.501978565843814
 31
0.0
 11
61.15970516880617
 21
-9.489384461189019
 31
0.0
 11
61.16815460237072
 21
-9.476542213882325
 31
0.0
 11
61.17619203389213
 21
-9.463472604782622
 31
0.0
 11
61.18381006544803
 21
-9.450197037517825
 31
0.0
 11
61.19100225122658
 21
-9.436737009900433
 31
0.0
 11
61.19776384349294
 21
-9.423114384980423
 31
0.0
 11
61.20998111929755
 21
-9.395468370415706
 31
0.0
 11
61.22045056870795
 21
-9.367433463967814
 31
0.0
 11
61.22917647629344
 21
-9.339179226143392
 31
0.0
 11
61.23618661367974
 21
-9.310869801958916
 31
0.0
 11
61.24152135066599
 21
-9.28265968525274
 31
0.0
 11
61.24523986086493
 21
-9.254692591194015
 31
0.0
 11
61.24741062538781
 21
-9.227099709310155
 31
0.0
 11
61.24811535107534
 21
-9.199998249251223
 31
0.0
  0
SPLINE
  5
140
330
5D
100
AcDbEntity
  8
0
  6
Continuous
 62
     3
100
AcDbSpline
210
0.0
220
0.0
230
1.0
 70
     8
 71
     3
 72
    11
 73
     7
 74
     5
 42
0.0000000001
 43
0.0000000001
 44
0.00000001
 40
0.0
 40
0.0
 40
0.0
 40
0.0
 40
0.5343104735138269
 40
1.068620779843599
 40
2.399064147308268
 40
4.25188464876388
 40
4.25188464876388
 40
4.25188464876388
 40
4.25188464876388
 10
65.49999999983922
 20
-9.199998380394518
 30
0.0
 10
65.32189650866793
 20
-9.1999983800203
 30
0.0
 10
64.9656895820534
 20
-9.199998379271864
 30
0.0
 10
64.16600153295067
 20
-9.19999838767309
 30
0.0
 10
62.92681014120062
 20
-9.199998291648123
 30
0.0
 10
61.86572218489388
 20
-9.199998264849421
 30
0.0
 10
61.24811535107534
 20
-9.199998249251223
 30
0.0
 11
65.49999999983922
 21
-9.199998380394518
 31
0.0
 11
64.96568952632539
 21
-9.199998380394518
 31
0.0
 11
64.43137921999562
 21
-9.199998380394518
 31
0.0
 11
63.10093585253095
 21
-9.199998314822869
 31
0.0
 11
61.24811535107534
 21
-9.199998249251223
 31
0.0
  0
SPLINE
  5
141
330
5D
100
AcDbEntity
  8
0
  6
Continuous
 62
     7
100
AcDbSpline
210
0.0
220
0.0
230
1.0
 70
     8
 71
     3
 72
    21
 73
    17
 74
    15
 42
0.0000000001
 43
0.0000000001
 44
0.00000001
 40
0.0
 40
0.0
 40
0.0
 40
0.0
 40
0.0368978928591828
 40
0.0737957525954389
 40
0.1130796542466221
 40
0.1476151108439876
 40
0.2088431219045506
 40
0.2700710921209681
 40
0.3379032859206286
 40
0.3925242071366281
 40
0.514761098077402
 40
0.6369985050141695
 40
0.6714994346377058
 40
0.710738600824452
 40
0.7476505948127555
 40
0.7845627058670898
 40
0.7845627058670898
 40
0.7845627058670898
 40
0.7845627058670898
 10
65.49999999983922
 20
-9.199998380394518
 30
0.0
 10
65.49973758400768
 20
-9.212300523648604
 30
0.0
 10
65.49921275258009
 20
-9.236904799113242
 30
0.0
 10
65.49488806950048
 20
-9.274400371851385
 30
0.0
 10
65.4880651720738
 20
-9.310702986313183
 30
0.0
 10
65.47644090265317
 20
-9.354226014209454
 30
0.0
 10
65.45813079753918
 20
-9.403399648672906
 30
0.0
 10
65.42882230332543
 20
-9.459820648851714
 30
0.0
 10
65.39371542647233
 20
-9.510234238133528
 30
0.0
 10
65.33919918851096
 20
-9.571067378462617
 30
0.0
 10
65.25979436962058
 20
-9.633113292824607
 30
0.0
 10
65.17384120075033
 20
-9.67120965045693
 30
0.0
 10
65.11069312560925
 20
-9.68806444382901
 30
0.0
 10
65.07440997490245
 20
-9.694885344925483
 30
0.0
 10
65.0369205073716
 20
-9.699210684166815
 30
0.0
 10
65.01230670081435
 20
-9.699735814707708
 30
0.0
 10
64.99999977802014
 20
-9.699998380394518
 30
0.0
 11
65.49999999983922
 21
-9.199998380394518
 31
0.0
 11
65.49863838792598
 21
-9.236871141485132
 31
0.0
 11
65.49456149690243
 21
-9.273543079158216
 31
0.0
 11
65.48726139369876
 21
-9.312142734884084
 31
0.0
 11
65.47835791739743
 21
-9.345510771568016
 31
0.0
 11
65.45698612271089
 21
-9.402887733236517
 31
0.0
 11
65.42876160826953
 21
-9.45722226297012
 31
0.0
 11
65.39000044272993
 21
-9.512888936677884
 31
0.0
 11
65.35354375263324
 21
-9.553562697036114
 31
0.0
 11
65.25718965496428
 21
-9.628780682712854
 31
0.0
 11
65.14546344705843
 21
-9.678371388713117
 31
0.0
 11
65.11212816706659
 21
-9.687263702964955
 31
0.0
 11
65.07357255136904
 21
-9.694555935902414
 31
0.0
 11
65.03688673536467
 21
-9.69863591191784
 31
0.0
 11
64.99999977802014
 21
-9.699998380394518
 31
0.0
  0
SPLINE
  5
142
330
5D
100
AcDbEntity
  8
0
  6
Continuous
 62
     3
100
AcDbSpline
210
0.0
220
0.0
230
1.0
 70
     8
 71
     3
 72
    19
 73
    15
 74
    13
 42
0.0000000001
 43
0.0000000001
 44
0.00000001
 40
0.0
 40
0.0
 40
0.0
 40
0.0
 40
0.0980034889793196
 40
0.2210447157398095
 40
0.3151517518815887
 40
0.4300575277177192
 40
0.5905371687486407
 40
0.7334308820499343
 40
0.8162579725699215
 40
0.8902412142404673
 40
0.9455610654232239
 40
1.004572507627991
 40
1.060229853306532
 40
1.097356296202277
 40
1.097356296202277
 40
1.097356296202277
 40
1.097356296202277
 10
60.94286118709783
 20
-10.19999997441713
 30
0.0
 10
60.94315243548299
 20
-10.16733115098417
 30
0.0
 10
60.94380933981543
 20
-10.09364733763731
 30
0.0
 10
60.94926061423998
 20
-9.988698024006533
 30
0.0
 10
60.9586985002129
 20
-9.878402747437098
 30
0.0
 10
60.97381714994398
 20
-9.756133063442403
 30
0.0
 10
60.99851919309482
 20
-9.618795049263827
 30
0.0
 10
61.03129176329698
 20
-9.494106500827646
 30
0.0
 10
61.06510234436577
 20
-9.399987910021967
 30
0.0
 10
61.0946920816901
 20
-9.335680649926903
 30
0.0
 10
61.12698418378586
 20
-9.281558954715997
 30
0.0
 10
61.16282897364625
 20
-9.237853560701577
 30
0.0
 10
61.20464978835582
 20
-9.205677212632907
 30
0.0
 10
61.23569352937604
 20
-9.201621213873112
 30
0.0
 10
61.24811535107534
 20
-9.199998249251223
 30
0.0
 11
60.94286118709783
 21
-10.19999997441713
 31
0.0
 11
60.94435739337138
 21
-10.1020079072948
 31
0.0
 11
60.95053674115982
 21
-9.979121947382225
 31
0.0
 11
60.95863675496273
 21
-9.885364152891405
 31
0.0
 11
60.97282206250873
 21
-9.771337338631213
 31
0.0
 11
61.0017481669727
 21
-9.613486156608547
 31
0.0
 11
61.03891768620915
 21
-9.475511375794213
 31
0.0
 11
61.06726707268997
 21
-9.39768696310663
 31
0.0
 11
61.09864962141964
 21
-9.330689532683422
 31
0.0
 11
61.12740539459666
 21
-9.283430761604667
 31
0.0
 11
61.16549934508254
 21
-9.238361911525416
 31
0.0
 11
61.21172746602379
 21
-9.20736673509066
 31
0.0
 11
61.24811535107534
 21
-9.199998249251223
 31
0.0
  0
SPLINE
  5
143
330
5D
100
AcDbEntity
  8
0
  6
Continuous
 62
     3
100
AcDbSpline
210
0.0
220
0.0
230
1.0
 70
     8
 71
     3
 72
    15
 73
    11
 74
     9
 42
0.0000000001
 43
0.0000000001
 44
0.00000001
 40
0.0
 40
0.0
 40
0.0
 40
0.0
 40
0.1120757536254081
 40
0.3528333808132955
 40
0.729475024073428
 40
1.23094495807645
 40
1.839317464437458
 40
2.531943101969903
 40
3.282692704804153
 40
4.063095310293307
 40
4.063095310293307
 40
4.063095310293307
 40
4.063095310293307
 10
33.36414610177394
 20
18.00000161961718
 30
0.0
 10
33.33454866257614
 20
17.97599613505063
 30
0.0
 10
33.24137093057104
 20
17.90042281964836
 30
0.0
 10
33.19671918134041
 20
17.64494822578378
 30
0.0
 10
33.11755549186229
 20
17.28864658518047
 30
0.0
 10
33.06268578679143
 20
16.79210971464725
 30
0.0
 10
33.01097361746052
 20
16.19487496735014
 30
0.0
 10
32.97451296096088
 20
15.51137090802093
 30
0.0
 10
32.95047367801497
 20
14.77056773918904
 30
0.0
 10
32.94753171693405
 20
14.26015197548251
 30
0.0
 10
32.94603224870332
 20
14.00000161961718
 30
0.0
 11
33.36414610177394
 21
18.00000161961718
 31
0.0
 11
33.28257613940792
 21
17.923142555153
 31
0.0
 11
33.20414085736154
 21
17.69551974966232
 31
0.0
 11
33.13185450201257
 21
17.32587991107879
 31
0.0
 11
33.06849496095974
 21
16.82842874436334
 31
0.0
 11
33.01649715495226
 21
16.22228244629134
 31
0.0
 11
32.97785927066258
 21
15.53073534907753
 31
0.0
 11
32.95406620859994
 21
14.78036287066867
 31
0.0
 11
32.94603224870332
 21
14.00000161961718
 31
0.0
  0
ENDBLK
  5
5F
330
5D
100
AcDbEntity
  8
0
100
AcDbBlockEnd
  0
BLOCK
  5
61
330
60
100
AcDbEntity
  8
0
100
AcDbBlockBegin
  2
HL903-Koerper-10892__6
 70
     0
 71
     0
 10
4.49999999980353
 20
-95.99999838039447
 30
0.0
  3
HL903-Koerper-10892__6
  1

  0
LINE
  5
144
330
60
100
AcDbEntity
  8
1
  6
DOT_CENTER
 62
     2
100
AcDbLine
 10
31.99999999980353
 20
-49.99999838039447
 30
0.0
 11
31.99999999980367
 21
-95.99999838039457
 31
0.0
  0
LINE
  5
145
330
60
100
AcDbEntity
  8
1
  6
Continuous
 62
     2
100
AcDbLine
 10
54.42249999980353
 20
-79.99999838039446
 30
0.0
 11
54.42249999980353
 21
-95.99999838039447
 31
0.0
  0
LINE
  5
146
330
60
100
AcDbEntity
  8
1
  6
Continuous
 62
     2
100
AcDbLine
 10
9.57749999980354
 20
-79.99999838039446
 30
0.0
 11
9.57749999980354
 21
-95.99999838039447
 31
0.0
  0
LINE
  5
147
330
60
100
AcDbEntity
  8
0
  6
Continuous
 62
     7
100
AcDbLine
 10
55.90149999980352
 20
-79.99999838039446
 30
0.0
 11
55.90149999980352
 21
-94.52099838039447
 31
0.0
  0
LINE
  5
148
330
60
100
AcDbEntity
  8
0
  6
Continuous
 62
     7
100
AcDbLine
 10
54.42249999980353
 20
-95.99999838039447
 30
0.0
 11
55.90149999980352
 21
-94.52099838039447
 31
0.0
  0
LINE
  5
149
330
60
100
AcDbEntity
  8
0
  6
Continuous
 62
     7
100
AcDbLine
 10
7.53589838466583
 20
-79.99999838039446
 30
0.0
 11
8.09849999980354
 21
-79.99999838039446
 31
0.0
  0
LINE
  5
14A
330
60
100
AcDbEntity
  8
0
  6
Continuous
 62
     7
100
AcDbLine
 10
55.90149999980352
 20
-79.99999838039446
 30
0.0
 11
56.46410161494134
 21
-79.99999838039446
 31
0.0
  0
LINE
  5
14B
330
60
100
AcDbEntity
  8
0
  6
Continuous
 62
     7
100
AcDbLine
 10
8.09849999980354
 20
-79.99999838039446
 30
0.0
 11
55.90149999980352
 21
-79.99999838039446
 31
0.0
  0
LINE
  5
14C
330
60
100
AcDbEntity
  8
0
  6
Continuous
 62
     7
100
AcDbLine
 10
6.99999999980353
 20
-77.9999983803944
 30
0.0
 11
56.99999999980352
 21
-77.99999838039446
 31
0.0
  0
LINE
  5
14D
330
60
100
AcDbEntity
  8
0
  6
Continuous
 62
     7
100
AcDbLine
 10
56.99999999980352
 20
-49.99999838039447
 30
0.0
 11
56.99999999980352
 21
-77.99999838039446
 31
0.0
  0
LINE
  5
14E
330
60
100
AcDbEntity
  8
0
  6
Continuous
 62
     3
100
AcDbLine
 10
56.99999999980352
 20
-49.99999838039447
 30
0.0
 11
6.99999999980353
 21
-49.99999838039447
 31
0.0
  0
LINE
  5
14F
330
60
100
AcDbEntity
  8
0
  6
Continuous
 62
     7
100
AcDbLine
 10
56.46410161494134
 20
-79.99999838039446
 30
0.0
 11
56.99999999980352
 21
-77.99999838039446
 31
0.0
  0
LINE
  5
150
330
60
100
AcDbEntity
  8
0
  6
Continuous
 62
     7
100
AcDbLine
 10
57.94072601681293
 20
-47.99999838039447
 30
0.0
 11
58.31177003991712
 21
-47.99999838039447
 31
0.0
  0
LINE
  5
151
330
60
100
AcDbEntity
  8
0
  6
Continuous
 62
     7
100
AcDbLine
 10
58.99999999980352
 20
-47.99999838039447
 30
0.0
 11
59.04972527412514
 21
-47.99999838039447
 31
0.0
  0
LINE
  5
152
330
60
100
AcDbEntity
  8
0
  6
Continuous
 62
     7
100
AcDbLine
 10
58.31177003991712
 20
-47.99999838039447
 30
0.0
 11
58.99999999980352
 21
-47.99999838039447
 31
0.0
  0
LINE
  5
153
330
60
100
AcDbEntity
  8
0
  6
Continuous
 62
     7
100
AcDbLine
 10
59.04972527412514
 20
-47.99999838039447
 30
0.0
 11
59.20835909140004
 21
-47.99999838039447
 31
0.0
  0
LINE
  5
154
330
60
100
AcDbEntity
  8
0
  6
Continuous
 62
     7
100
AcDbLine
 10
59.20835909140004
 20
-47.99999838039447
 30
0.0
 11
59.49213264554135
 21
-47.99999838039447
 31
0.0
  0
LINE
  5
155
330
60
100
AcDbEntity
  8
0
  6
Continuous
 62
     7
100
AcDbLine
 10
55.68724424465734
 20
-47.99999838039447
 30
0.0
 11
55.70266453928633
 21
-47.99999838039447
 31
0.0
  0
LINE
  5
156
330
60
100
AcDbEntity
  8
0
  6
Continuous
 62
     7
100
AcDbLine
 10
55.84285456993743
 20
-47.99999838039447
 30
0.0
 11
56.20266453928633
 21
-47.99999838039447
 31
0.0
  0
LINE
  5
157
330
60
100
AcDbEntity
  8
0
  6
Continuous
 62
     7
100
AcDbLine
 10
56.20266453928633
 20
-47.99999838039447
 30
0.0
 11
57.94072601681293
 21
-47.99999838039447
 31
0.0
  0
LINE
  5
158
330
60
100
AcDbEntity
  8
0
  6
Continuous
 62
     7
100
AcDbLine
 10
59.49213264554135
 20
-47.99999838039447
 30
0.0
 11
59.69999999980465
 21
-47.99999838039447
 31
0.0
  0
LINE
  5
159
330
60
100
AcDbEntity
  8
0
  6
Continuous
 62
     7
100
AcDbLine
 10
61.01697333100864
 20
-9.69999838039452
 30
0.0
 11
63.49999999980093
 21
-9.69999838039452
 31
0.0
  0
LINE
  5
15A
330
60
100
AcDbEntity
  8
0
  6
Continuous
 62
     7
100
AcDbLine
 10
55.90149999980352
 20
-94.52099838039447
 30
0.0
 11
8.09849999980354
 21
-94.52099838039447
 31
0.0
  0
LINE
  5
15B
330
60
100
AcDbEntity
  8
0
  6
Continuous
 62
     7
100
AcDbLine
 10
55.70266453928633
 20
-47.99999838039447
 30
0.0
 11
55.84285456993743
 21
-47.99999838039447
 31
0.0
  0
LINE
  5
15C
330
60
100
AcDbEntity
  8
0
  6
Continuous
 62
     7
100
AcDbLine
 10
33.13418348258523
 20
-47.99999838039447
 30
0.0
 11
33.15508917523863
 21
-47.99999838039447
 31
0.0
  0
LINE
  5
15D
330
60
100
AcDbEntity
  8
0
  6
Continuous
 62
     7
100
AcDbLine
 10
55.29107760446283
 20
-47.99999838039447
 30
0.0
 11
55.68724424465734
 21
-47.99999838039447
 31
0.0
  0
LINE
  5
15E
330
60
100
AcDbEntity
  8
0
  6
Continuous
 62
     7
100
AcDbLine
 10
33.15508917523863
 20
-47.99999838039447
 30
0.0
 11
55.29107760446283
 21
-47.99999838039447
 31
0.0
  0
LINE
  5
15F
330
60
100
AcDbEntity
  8
0
  6
Continuous
 62
     7
100
AcDbLine
 10
8.09849999980354
 20
-79.99999838039446
 30
0.0
 11
8.09849999980354
 21
-94.52099838039447
 31
0.0
  0
LINE
  5
160
330
60
100
AcDbEntity
  8
0
  6
Continuous
 62
     7
100
AcDbLine
 10
7.53589838466583
 20
-79.99999838039446
 30
0.0
 11
6.99999999980353
 21
-77.9999983803944
 31
0.0
  0
LINE
  5
161
330
60
100
AcDbEntity
  8
0
  6
Continuous
 62
     7
100
AcDbLine
 10
4.49999999980353
 20
-47.99999838039447
 30
0.0
 11
4.99999999980353
 21
-47.99999838039447
 31
0.0
  0
LINE
  5
162
330
60
100
AcDbEntity
  8
0
  6
Continuous
 62
     7
100
AcDbLine
 10
32.99829648033713
 20
-47.99999838039447
 30
0.0
 11
33.13418348258523
 21
-47.99999838039447
 31
0.0
  0
LINE
  5
163
330
60
100
AcDbEntity
  8
0
  6
Continuous
 62
     7
100
AcDbLine
 10
4.99999999980353
 20
-47.99999838039447
 30
0.0
 11
32.99829648033713
 21
-47.99999838039447
 31
0.0
  0
LINE
  5
164
330
60
100
AcDbEntity
  8
0
  6
Continuous
 62
     7
100
AcDbLine
 10
6.99999999980353
 20
-49.99999838039447
 30
0.0
 11
6.99999999980353
 21
-77.9999983803944
 31
0.0
  0
LINE
  5
165
330
60
100
AcDbEntity
  8
0
  6
Continuous
 62
     7
100
AcDbLine
 10
9.57749999980354
 20
-95.99999838039447
 30
0.0
 11
8.09849999980354
 21
-94.52099838039447
 31
0.0
  0
LINE
  5
166
330
60
100
AcDbEntity
  8
0
  6
Continuous
 62
     7
100
AcDbLine
 10
54.42249999980353
 20
-95.99999838039447
 30
0.0
 11
9.57749999980354
 21
-95.99999838039447
 31
0.0
  0
ARC
  5
167
330
60
100
AcDbEntity
  8
0
  6
Continuous
 62
     7
100
AcDbCircle
 10
58.99999999980352
 20
-49.99999838039447
 30
0.0
 40
2.000000000000001
100
AcDbArc
 50
112.3316450092204
 51
180.0
  0
ARC
  5
168
330
60
100
AcDbEntity
  8
0
  6
Continuous
 62
     7
100
AcDbCircle
 10
4.99999999980353
 20
-49.99999838039447
 30
0.0
 40
2.0
100
AcDbArc
 50
0.0
 51
90.0
  0
ENDBLK
  5
62
330
60
100
AcDbEntity
  8
0
100
AcDbBlockEnd
  0
BLOCK
  5
64
330
63
100
AcDbEntity
  8
0
100
AcDbBlockBegin
  2
HL903-Schutzgitter-10895__7
 70
     0
 71
     0
 10
56.14292811785924
 20
-48.14999838039448
 30
0.0
  3
HL903-Schutzgitter-10895__7
  1

  0
LINE
  5
169
330
63
100
AcDbEntity
  8
0
  6
Continuous
 62
     7
100
AcDbLine
 10
58.24006579212502
 20
-48.14999838039446
 30
0.0
 11
60.91663102324594
 21
-48.14999838039446
 31
0.0
  0
LINE
  5
16A
330
63
100
AcDbEntity
  8
0
  6
Continuous
 62
     3
100
AcDbLine
 10
60.91663102324603
 20
-47.71316837207607
 30
0.0
 11
60.91663102324594
 21
-48.14999838039446
 31
0.0
  0
LINE
  5
16B
330
63
100
AcDbEntity
  8
0
  6
Continuous
 62
     3
100
AcDbLine
 10
56.49999953928634
 20
-47.99999838039447
 30
0.0
 11
56.49999953928642
 21
-48.14999838039446
 31
0.0
  0
LINE
  5
16C
330
63
100
AcDbEntity
  8
0
  6
Continuous
 62
     7
100
AcDbLine
 10
58.24006579212502
 20
-48.14999838039446
 30
0.0
 11
56.49999953928642
 21
-48.14999838039446
 31
0.0
  0
LINE
  5
16D
330
63
100
AcDbEntity
  8
0
  6
Continuous
 62
     7
100
AcDbLine
 10
60.91663102324594
 20
-48.14999838039446
 30
0.0
 11
64.99999999980352
 21
-48.14999838039446
 31
0.0
  0
LINE
  5
16E
330
63
100
AcDbEntity
  8
0
  6
Continuous
 62
     7
100
AcDbLine
 10
65.49999999980352
 20
-10.64999838039452
 30
0.0
 11
65.49999999980352
 21
-47.64999838039446
 31
0.0
  0
LINE
  5
16F
330
63
100
AcDbEntity
  8
0
  6
Continuous
 62
     7
100
AcDbLine
 10
65.49510212159183
 20
-38.49999838039447
 30
0.0
 11
65.41349272770492
 21
-38.49999838039447
 31
0.0
  0
LINE
  5
170
330
63
100
AcDbEntity
  8
0
  6
Continuous
 62
     7
100
AcDbLine
 10
65.49510212159183
 20
-19.79999838039441
 30
0.0
 11
65.41349272770492
 21
-19.79999838039441
 31
0.0
  0
LINE
  5
171
330
63
100
AcDbEntity
  8
0
  6
Continuous
 62
     7
100
AcDbLine
 10
65.49510212159183
 20
-21.09999838039443
 30
0.0
 11
65.41349272770492
 21
-21.09999838039443
 31
0.0
  0
LINE
  5
172
330
63
100
AcDbEntity
  8
0
  6
Continuous
 62
     7
100
AcDbLine
 10
65.49510212159183
 20
-37.19999838039446
 30
0.0
 11
65.41349272770492
 21
-37.19999838039446
 31
0.0
  0
LINE
  5
173
330
63
100
AcDbEntity
  8
0
  6
Continuous
 62
     7
100
AcDbLine
 10
65.49510212159194
 20
-30.61624540675966
 30
0.0
 11
65.49510212159183
 21
-37.19999838039446
 31
0.0
  0
LINE
  5
174
330
63
100
AcDbEntity
  8
0
  6
Continuous
 62
     7
100
AcDbLine
 10
65.48664668164955
 20
-28.49999838039447
 30
0.0
 11
65.41349272770492
 21
-28.49999838039447
 31
0.0
  0
LINE
  5
175
330
63
100
AcDbEntity
  8
0
  6
Continuous
 62
     7
100
AcDbLine
 10
65.48664668164955
 20
-29.79999838039446
 30
0.0
 11
65.41349272770492
 21
-29.79999838039446
 31
0.0
  0
LINE
  5
176
330
63
100
AcDbEntity
  8
0
  6
Continuous
 62
     7
100
AcDbLine
 10
65.41349272770492
 20
-37.19999838039446
 30
0.0
 11
65.41349272770492
 21
-29.79999838039446
 31
0.0
  0
LINE
  5
177
330
63
100
AcDbEntity
  8
0
  6
Continuous
 62
     7
100
AcDbLine
 10
65.41349272770492
 20
-21.09999838039443
 30
0.0
 11
65.41349272770492
 21
-28.49999838039447
 31
0.0
  0
LINE
  5
178
330
63
100
AcDbEntity
  8
0
  6
Continuous
 62
     7
100
AcDbLine
 10
65.00862032339973
 20
-29.79999838039446
 30
0.0
 11
64.64227602718984
 21
-29.79999838039446
 31
0.0
  0
LINE
  5
179
330
63
100
AcDbEntity
  8
0
  6
Continuous
 62
     7
100
AcDbLine
 10
65.12829330437503
 20
-25.44999838039442
 30
0.0
 11
65.12829330437503
 21
-32.84999838039447
 31
0.0
  0
LINE
  5
17A
330
63
100
AcDbEntity
  8
0
  6
Continuous
 62
     7
100
AcDbLine
 10
65.35160774361873
 20
-32.84999838039447
 30
0.0
 11
65.12829330437503
 21
-32.84999838039447
 31
0.0
  0
LINE
  5
17B
330
63
100
AcDbEntity
  8
0
  6
Continuous
 62
     7
100
AcDbLine
 10
65.35160774361873
 20
-32.84999838039447
 30
0.0
 11
65.35160774361873
 21
-25.44999838039442
 31
0.0
  0
LINE
  5
17C
330
63
100
AcDbEntity
  8
0
  6
Continuous
 62
     7
100
AcDbLine
 10
65.00862032339973
 20
-28.49999838039447
 30
0.0
 11
64.64227602718984
 21
-28.49999838039447
 31
0.0
  0
LINE
  5
17D
330
63
100
AcDbEntity
  8
0
  6
Continuous
 62
     7
100
AcDbLine
 10
65.00862032339973
 20
-28.49999838039447
 30
0.0
 11
65.00862032339973
 21
-21.09999838039443
 31
0.0
  0
LINE
  5
17E
330
63
100
AcDbEntity
  8
0
  6
Continuous
 62
     7
100
AcDbLine
 10
65.00862032339973
 20
-37.19999838039446
 30
0.0
 11
65.00862032339973
 21
-29.79999838039446
 31
0.0
  0
LINE
  5
17F
330
63
100
AcDbEntity
  8
0
  6
Continuous
 62
     7
100
AcDbLine
 10
64.64227602718984
 20
-37.19999838039446
 30
0.0
 11
64.64227602718984
 21
-29.79999838039446
 31
0.0
  0
LINE
  5
180
330
63
100
AcDbEntity
  8
0
  6
Continuous
 62
     7
100
AcDbLine
 10
64.64227602718984
 20
-21.09999838039443
 30
0.0
 11
64.64227602718984
 21
-28.49999838039447
 31
0.0
  0
LINE
  5
181
330
63
100
AcDbEntity
  8
0
  6
Continuous
 62
     7
100
AcDbLine
 10
63.71476937039083
 20
-29.79999838039446
 30
0.0
 11
63.71476937039083
 21
-37.19999838039446
 31
0.0
  0
LINE
  5
182
330
63
100
AcDbEntity
  8
0
  6
Continuous
 62
     7
100
AcDbLine
 10
63.05480902478234
 20
-29.79999838039446
 30
0.0
 11
63.05480902478234
 21
-37.19999838039446
 31
0.0
  0
LINE
  5
183
330
63
100
AcDbEntity
  8
0
  6
Continuous
 62
     7
100
AcDbLine
 10
63.95252610044474
 20
-32.84999838039447
 30
0.0
 11
64.46410253134692
 21
-32.84999838039447
 31
0.0
  0
LINE
  5
184
330
63
100
AcDbEntity
  8
0
  6
Continuous
 62
     7
100
AcDbLine
 10
63.95252610044474
 20
-25.44999838039442
 30
0.0
 11
63.95252610044474
 21
-32.84999838039447
 31
0.0
  0
LINE
  5
185
330
63
100
AcDbEntity
  8
0
  6
Continuous
 62
     7
100
AcDbLine
 10
64.46410253134692
 20
-25.44999838039442
 30
0.0
 11
64.46410253134692
 21
-32.84999838039447
 31
0.0
  0
LINE
  5
186
330
63
100
AcDbEntity
  8
0
  6
Continuous
 62
     7
100
AcDbLine
 10
63.05480902478234
 20
-21.09999838039443
 30
0.0
 11
63.05480902478234
 21
-28.49999838039447
 31
0.0
  0
LINE
  5
187
330
63
100
AcDbEntity
  8
0
  6
Continuous
 62
     7
100
AcDbLine
 10
63.05480902478234
 20
-28.49999838039447
 30
0.0
 11
63.71476937039083
 21
-28.49999838039447
 31
0.0
  0
LINE
  5
188
330
63
100
AcDbEntity
  8
0
  6
Continuous
 62
     7
100
AcDbLine
 10
63.05480902478234
 20
-29.79999838039446
 30
0.0
 11
63.71476937039083
 21
-29.79999838039446
 31
0.0
  0
LINE
  5
189
330
63
100
AcDbEntity
  8
0
  6
Continuous
 62
     7
100
AcDbLine
 10
63.71476937039083
 20
-21.09999838039443
 30
0.0
 11
63.71476937039083
 21
-28.49999838039447
 31
0.0
  0
LINE
  5
18A
330
63
100
AcDbEntity
  8
0
  6
Continuous
 62
     7
100
AcDbLine
 10
65.49510212159183
 20
-12.39999838039452
 30
0.0
 11
65.49510212159183
 21
-19.79999838039441
 31
0.0
  0
LINE
  5
18B
330
63
100
AcDbEntity
  8
0
  6
Continuous
 62
     7
100
AcDbLine
 10
65.49510212159183
 20
-21.09999838039443
 30
0.0
 11
65.49510212159183
 21
-27.68375135403382
 31
0.0
  0
LINE
  5
18C
330
63
100
AcDbEntity
  8
0
  6
Continuous
 62
     7
100
AcDbLine
 10
65.35160774361873
 20
-25.44999838039442
 30
0.0
 11
65.12829330437503
 21
-25.44999838039442
 31
0.0
  0
LINE
  5
18D
330
63
100
AcDbEntity
  8
0
  6
Continuous
 62
     7
100
AcDbLine
 10
63.95252610044474
 20
-25.44999838039442
 30
0.0
 11
64.46410253134692
 21
-25.44999838039442
 31
0.0
  0
LINE
  5
18E
330
63
100
AcDbEntity
  8
0
  6
Continuous
 62
     7
100
AcDbLine
 10
65.12829330437503
 20
-16.74999838039442
 30
0.0
 11
65.12829330437503
 21
-24.14999838039442
 31
0.0
  0
LINE
  5
18F
330
63
100
AcDbEntity
  8
0
  6
Continuous
 62
     7
100
AcDbLine
 10
65.35160774361873
 20
-24.14999838039442
 30
0.0
 11
65.12829330437503
 21
-24.14999838039442
 31
0.0
  0
LINE
  5
190
330
63
100
AcDbEntity
  8
0
  6
Continuous
 62
     7
100
AcDbLine
 10
65.35160774361873
 20
-16.74999838039442
 30
0.0
 11
65.12829330437503
 21
-16.74999838039442
 31
0.0
  0
LINE
  5
191
330
63
100
AcDbEntity
  8
0
  6
Continuous
 62
     7
100
AcDbLine
 10
65.00862032339973
 20
-21.09999838039443
 30
0.0
 11
64.64227602718984
 21
-21.09999838039443
 31
0.0
  0
LINE
  5
192
330
63
100
AcDbEntity
  8
0
  6
Continuous
 62
     7
100
AcDbLine
 10
65.00862032339973
 20
-19.79999838039441
 30
0.0
 11
64.64227602718984
 21
-19.79999838039441
 31
0.0
  0
LINE
  5
193
330
63
100
AcDbEntity
  8
0
  6
Continuous
 62
     7
100
AcDbLine
 10
65.41349272770492
 20
-19.79999838039441
 30
0.0
 11
65.41349272770492
 21
-12.39999838039452
 31
0.0
  0
LINE
  5
194
330
63
100
AcDbEntity
  8
0
  6
Continuous
 62
     7
100
AcDbLine
 10
65.35160774361873
 20
-24.14999838039442
 30
0.0
 11
65.35160774361873
 21
-16.74999838039442
 31
0.0
  0
LINE
  5
195
330
63
100
AcDbEntity
  8
0
  6
Continuous
 62
     7
100
AcDbLine
 10
63.05480902478234
 20
-12.39999838039452
 30
0.0
 11
63.05480902478234
 21
-19.79999838039441
 31
0.0
  0
LINE
  5
196
330
63
100
AcDbEntity
  8
0
  6
Continuous
 62
     7
100
AcDbLine
 10
64.64227602718984
 20
-19.79999838039441
 30
0.0
 11
64.64227602718984
 21
-12.39999838039452
 31
0.0
  0
LINE
  5
197
330
63
100
AcDbEntity
  8
0
  6
Continuous
 62
     7
100
AcDbLine
 10
63.71476937039083
 20
-12.39999838039452
 30
0.0
 11
63.71476937039083
 21
-19.79999838039441
 31
0.0
  0
LINE
  5
198
330
63
100
AcDbEntity
  8
0
  6
Continuous
 62
     7
100
AcDbLine
 10
63.71476937039083
 20
-21.09999838039443
 30
0.0
 11
63.05480902478234
 21
-21.09999838039443
 31
0.0
  0
LINE
  5
199
330
63
100
AcDbEntity
  8
0
  6
Continuous
 62
     7
100
AcDbLine
 10
63.95252610044474
 20
-24.14999838039442
 30
0.0
 11
64.46410253134692
 21
-24.14999838039442
 31
0.0
  0
LINE
  5
19A
330
63
100
AcDbEntity
  8
0
  6
Continuous
 62
     7
100
AcDbLine
 10
63.05480902478234
 20
-19.79999838039441
 30
0.0
 11
63.71476937039083
 21
-19.79999838039441
 31
0.0
  0
LINE
  5
19B
330
63
100
AcDbEntity
  8
0
  6
Continuous
 62
     7
100
AcDbLine
 10
63.95252610044474
 20
-16.74999838039442
 30
0.0
 11
64.46410253134692
 21
-16.74999838039442
 31
0.0
  0
LINE
  5
19C
330
63
100
AcDbEntity
  8
0
  6
Continuous
 62
     7
100
AcDbLine
 10
63.95252610044474
 20
-24.14999838039442
 30
0.0
 11
63.95252610044474
 21
-16.74999838039442
 31
0.0
  0
LINE
  5
19D
330
63
100
AcDbEntity
  8
0
  6
Continuous
 62
     7
100
AcDbLine
 10
64.46410253134692
 20
-16.74999838039442
 30
0.0
 11
64.46410253134692
 21
-24.14999838039442
 31
0.0
  0
LINE
  5
19E
330
63
100
AcDbEntity
  8
0
  6
Continuous
 62
     7
100
AcDbLine
 10
65.00862032339973
 20
-19.79999838039441
 30
0.0
 11
65.00862032339973
 21
-12.39999838039452
 31
0.0
  0
LINE
  5
19F
330
63
100
AcDbEntity
  8
0
  6
Continuous
 62
     7
100
AcDbLine
 10
65.12829330437503
 20
-34.14999838039446
 30
0.0
 11
65.12829330437503
 21
-41.54999838039446
 31
0.0
  0
LINE
  5
1A0
330
63
100
AcDbEntity
  8
0
  6
Continuous
 62
     7
100
AcDbLine
 10
65.35160774361873
 20
-34.14999838039446
 30
0.0
 11
65.12829330437503
 21
-34.14999838039446
 31
0.0
  0
LINE
  5
1A1
330
63
100
AcDbEntity
  8
0
  6
Continuous
 62
     7
100
AcDbLine
 10
65.00862032339973
 20
-37.19999838039446
 30
0.0
 11
64.64227602718984
 21
-37.19999838039446
 31
0.0
  0
LINE
  5
1A2
330
63
100
AcDbEntity
  8
0
  6
Continuous
 62
     7
100
AcDbLine
 10
65.35160774361873
 20
-41.54999838039446
 30
0.0
 11
65.35160774361873
 21
-34.14999838039446
 31
0.0
  0
LINE
  5
1A3
330
63
100
AcDbEntity
  8
0
  6
Continuous
 62
     7
100
AcDbLine
 10
62.75598218727674
 20
-34.14999838039446
 30
0.0
 11
61.94343553493823
 21
-34.14999838039446
 31
0.0
  0
LINE
  5
1A4
330
63
100
AcDbEntity
  8
0
  6
Continuous
 62
     7
100
AcDbLine
 10
63.95252610044474
 20
-34.14999838039446
 30
0.0
 11
64.46410253134692
 21
-34.14999838039446
 31
0.0
  0
LINE
  5
1A5
330
63
100
AcDbEntity
  8
0
  6
Continuous
 62
     7
100
AcDbLine
 10
63.95252610044474
 20
-41.54999838039446
 30
0.0
 11
63.95252610044474
 21
-34.14999838039446
 31
0.0
  0
LINE
  5
1A6
330
63
100
AcDbEntity
  8
0
  6
Continuous
 62
     7
100
AcDbLine
 10
63.05480902478234
 20
-37.19999838039446
 30
0.0
 11
63.71476937039083
 21
-37.19999838039446
 31
0.0
  0
LINE
  5
1A7
330
63
100
AcDbEntity
  8
0
  6
Continuous
 62
     7
100
AcDbLine
 10
62.75598218727674
 20
-34.14999838039446
 30
0.0
 11
62.75598218727674
 21
-40.54999838039446
 31
0.0
  0
LINE
  5
1A8
330
63
100
AcDbEntity
  8
0
  6
Continuous
 62
     7
100
AcDbLine
 10
64.46410253134692
 20
-34.14999838039446
 30
0.0
 11
64.46410253134692
 21
-41.54999838039446
 31
0.0
  0
LINE
  5
1A9
330
63
100
AcDbEntity
  8
0
  6
Continuous
 62
     7
100
AcDbLine
 10
62.75598218727674
 20
-24.14999838039442
 30
0.0
 11
61.94343553493823
 21
-24.14999838039442
 31
0.0
  0
LINE
  5
1AA
330
63
100
AcDbEntity
  8
0
  6
Continuous
 62
     7
100
AcDbLine
 10
62.75598218727674
 20
-32.84999838039447
 30
0.0
 11
61.94343553493823
 21
-32.84999838039447
 31
0.0
  0
LINE
  5
1AB
330
63
100
AcDbEntity
  8
0
  6
Continuous
 62
     7
100
AcDbLine
 10
62.75598218727674
 20
-25.44999838039442
 30
0.0
 11
61.94343553493823
 21
-25.44999838039442
 31
0.0
  0
LINE
  5
1AC
330
63
100
AcDbEntity
  8
0
  6
Continuous
 62
     7
100
AcDbLine
 10
62.75598218727674
 20
-25.44999838039442
 30
0.0
 11
62.75598218727674
 21
-32.84999838039447
 31
0.0
  0
LINE
  5
1AD
330
63
100
AcDbEntity
  8
0
  6
Continuous
 62
     7
100
AcDbLine
 10
62.75598218727674
 20
-17.74999838039442
 30
0.0
 11
62.75598218727674
 21
-24.14999838039442
 31
0.0
  0
LINE
  5
1AE
330
63
100
AcDbEntity
  8
0
  6
Continuous
 62
     7
100
AcDbLine
 10
61.94343553493823
 20
-17.74999838039442
 30
0.0
 11
62.75598218727674
 21
-17.74999838039442
 31
0.0
  0
LINE
  5
1AF
330
63
100
AcDbEntity
  8
0
  6
Continuous
 62
     3
100
AcDbLine
 10
60.94204974095374
 20
-47.64999838039446
 30
0.0
 11
61.39651590513483
 21
-47.64999838039446
 31
0.0
  0
LINE
  5
1B0
330
63
100
AcDbEntity
  8
0
  6
Continuous
 62
     7
100
AcDbLine
 10
65.35160774361873
 20
-41.54999838039446
 30
0.0
 11
65.12829330437503
 21
-41.54999838039446
 31
0.0
  0
LINE
  5
1B1
330
63
100
AcDbEntity
  8
0
  6
Continuous
 62
     7
100
AcDbLine
 10
65.41349272770492
 20
-45.89999838039445
 30
0.0
 11
65.41349272770492
 21
-38.49999838039447
 31
0.0
  0
LINE
  5
1B2
330
63
100
AcDbEntity
  8
0
  6
Continuous
 62
     7
100
AcDbLine
 10
65.49510212159183
 20
-38.49999838039447
 30
0.0
 11
65.49510212159183
 21
-45.89999838039445
 31
0.0
  0
LINE
  5
1B3
330
63
100
AcDbEntity
  8
0
  6
Continuous
 62
     7
100
AcDbLine
 10
65.00862032339973
 20
-38.49999838039447
 30
0.0
 11
64.64227602718984
 21
-38.49999838039447
 31
0.0
  0
LINE
  5
1B4
330
63
100
AcDbEntity
  8
0
  6
Continuous
 62
     7
100
AcDbLine
 10
63.95252610044474
 20
-41.54999838039446
 30
0.0
 11
64.46410253134692
 21
-41.54999838039446
 31
0.0
  0
LINE
  5
1B5
330
63
100
AcDbEntity
  8
0
  6
Continuous
 62
     7
100
AcDbLine
 10
61.94343553493823
 20
-40.54999838039446
 30
0.0
 11
62.75598218727674
 21
-40.54999838039446
 31
0.0
  0
LINE
  5
1B6
330
63
100
AcDbEntity
  8
0
  6
Continuous
 62
     7
100
AcDbLine
 10
64.64227602718984
 20
-45.89999838039445
 30
0.0
 11
64.64227602718984
 21
-38.49999838039447
 31
0.0
  0
LINE
  5
1B7
330
63
100
AcDbEntity
  8
0
  6
Continuous
 62
     7
100
AcDbLine
 10
63.05480902478234
 20
-38.49999838039447
 30
0.0
 11
63.71476937039083
 21
-38.49999838039447
 31
0.0
  0
LINE
  5
1B8
330
63
100
AcDbEntity
  8
0
  6
Continuous
 62
     7
100
AcDbLine
 10
63.05480902478234
 20
-38.49999838039447
 30
0.0
 11
63.05480902478234
 21
-45.89999838039445
 31
0.0
  0
LINE
  5
1B9
330
63
100
AcDbEntity
  8
0
  6
Continuous
 62
     7
100
AcDbLine
 10
63.71476937039083
 20
-38.49999838039447
 30
0.0
 11
63.71476937039083
 21
-45.89999838039445
 31
0.0
  0
LINE
  5
1BA
330
63
100
AcDbEntity
  8
0
  6
Continuous
 62
     7
100
AcDbLine
 10
65.00862032339973
 20
-45.89999838039445
 30
0.0
 11
65.00862032339973
 21
-38.49999838039447
 31
0.0
  0
LINE
  5
1BB
330
63
100
AcDbEntity
  8
0
  6
Continuous
 62
     7
100
AcDbLine
 10
65.49510212159183
 20
-45.89999838039445
 30
0.0
 11
65.41349272770492
 21
-45.89999838039445
 31
0.0
  0
LINE
  5
1BC
330
63
100
AcDbEntity
  8
0
  6
Continuous
 62
     7
100
AcDbLine
 10
65.00862032339973
 20
-45.89999838039445
 30
0.0
 11
64.64227602718984
 21
-45.89999838039445
 31
0.0
  0
LINE
  5
1BD
330
63
100
AcDbEntity
  8
0
  6
Continuous
 62
     7
100
AcDbLine
 10
65.12829330437503
 20
-42.84999838039447
 30
0.0
 11
65.12829330437503
 21
-45.89999838039445
 31
0.0
  0
LINE
  5
1BE
330
63
100
AcDbEntity
  8
0
  6
Continuous
 62
     7
100
AcDbLine
 10
65.35160774361873
 20
-45.89999838039445
 30
0.0
 11
65.12829330437503
 21
-45.89999838039445
 31
0.0
  0
LINE
  5
1BF
330
63
100
AcDbEntity
  8
0
  6
Continuous
 62
     7
100
AcDbLine
 10
65.35160774361873
 20
-42.84999838039447
 30
0.0
 11
65.12829330437503
 21
-42.84999838039447
 31
0.0
  0
LINE
  5
1C0
330
63
100
AcDbEntity
  8
0
  6
Continuous
 62
     7
100
AcDbLine
 10
65.35160774361873
 20
-45.89999838039445
 30
0.0
 11
65.35160774361873
 21
-42.84999838039447
 31
0.0
  0
LINE
  5
1C1
330
63
100
AcDbEntity
  8
0
  6
Continuous
 62
     7
100
AcDbLine
 10
63.71476937039083
 20
-45.89999838039445
 30
0.0
 11
63.05480902478234
 21
-45.89999838039445
 31
0.0
  0
LINE
  5
1C2
330
63
100
AcDbEntity
  8
0
  6
Continuous
 62
     7
100
AcDbLine
 10
64.46410253134692
 20
-45.89999838039445
 30
0.0
 11
63.95252610044474
 21
-45.89999838039445
 31
0.0
  0
LINE
  5
1C3
330
63
100
AcDbEntity
  8
0
  6
Continuous
 62
     7
100
AcDbLine
 10
63.95252610044474
 20
-42.84999838039447
 30
0.0
 11
64.46410253134692
 21
-42.84999838039447
 31
0.0
  0
LINE
  5
1C4
330
63
100
AcDbEntity
  8
0
  6
Continuous
 62
     7
100
AcDbLine
 10
63.95252610044474
 20
-42.84999838039447
 30
0.0
 11
63.95252610044474
 21
-45.89999838039445
 31
0.0
  0
LINE
  5
1C5
330
63
100
AcDbEntity
  8
0
  6
Continuous
 62
     7
100
AcDbLine
 10
64.46410253134692
 20
-42.84999838039447
 30
0.0
 11
64.46410253134692
 21
-45.89999838039445
 31
0.0
  0
LINE
  5
1C6
330
63
100
AcDbEntity
  8
0
  6
Continuous
 62
     3
100
AcDbLine
 10
61.39651590513483
 20
-47.64999838039446
 30
0.0
 11
65.49999999980352
 21
-47.64999838039446
 31
0.0
  0
LINE
  5
1C7
330
63
100
AcDbEntity
  8
0
  6
Continuous
 62
     7
100
AcDbLine
 10
61.94343553493823
 20
-17.74999838039442
 30
0.0
 11
61.94343553493823
 21
-24.14999838039442
 31
0.0
  0
LINE
  5
1C8
330
63
100
AcDbEntity
  8
0
  6
Continuous
 62
     7
100
AcDbLine
 10
61.94343553493823
 20
-25.44999838039442
 30
0.0
 11
61.94343553493823
 21
-32.84999838039447
 31
0.0
  0
LINE
  5
1C9
330
63
100
AcDbEntity
  8
0
  6
Continuous
 62
     7
100
AcDbLine
 10
61.94343553493823
 20
-34.14999838039446
 30
0.0
 11
61.94343553493823
 21
-40.54999838039446
 31
0.0
  0
LINE
  5
1CA
330
63
100
AcDbEntity
  8
0
  6
Continuous
 62
     3
100
AcDbLine
 10
61.39651590513483
 20
-10.64999838039452
 30
0.0
 11
61.39651590513483
 21
-47.64999838039446
 31
0.0
  0
LINE
  5
1CB
330
63
100
AcDbEntity
  8
0
  6
Continuous
 62
     7
100
AcDbLine
 10
64.46410253134692
 20
-12.39999838039452
 30
0.0
 11
63.95252610044474
 21
-12.39999838039452
 31
0.0
  0
LINE
  5
1CC
330
63
100
AcDbEntity
  8
0
  6
Continuous
 62
     7
100
AcDbLine
 10
64.46410253134692
 20
-12.39999838039452
 30
0.0
 11
64.46410253134692
 21
-15.44999838039442
 31
0.0
  0
LINE
  5
1CD
330
63
100
AcDbEntity
  8
0
  6
Continuous
 62
     7
100
AcDbLine
 10
65.35160774361873
 20
-15.44999838039442
 30
0.0
 11
65.12829330437503
 21
-15.44999838039442
 31
0.0
  0
LINE
  5
1CE
330
63
100
AcDbEntity
  8
0
  6
Continuous
 62
     7
100
AcDbLine
 10
65.35160774361873
 20
-15.44999838039442
 30
0.0
 11
65.35160774361873
 21
-12.39999838039452
 31
0.0
  0
LINE
  5
1CF
330
63
100
AcDbEntity
  8
0
  6
Continuous
 62
     7
100
AcDbLine
 10
65.49510212159183
 20
-12.39999838039452
 30
0.0
 11
65.41349272770492
 21
-12.39999838039452
 31
0.0
  0
LINE
  5
1D0
330
63
100
AcDbEntity
  8
0
  6
Continuous
 62
     7
100
AcDbLine
 10
65.12829330437503
 20
-12.39999838039452
 30
0.0
 11
65.12829330437503
 21
-15.44999838039442
 31
0.0
  0
LINE
  5
1D1
330
63
100
AcDbEntity
  8
0
  6
Continuous
 62
     7
100
AcDbLine
 10
65.35160774361873
 20
-12.39999838039452
 30
0.0
 11
65.12829330437503
 21
-12.39999838039452
 31
0.0
  0
LINE
  5
1D2
330
63
100
AcDbEntity
  8
0
  6
Continuous
 62
     7
100
AcDbLine
 10
63.95252610044474
 20
-15.44999838039442
 30
0.0
 11
64.46410253134692
 21
-15.44999838039442
 31
0.0
  0
LINE
  5
1D3
330
63
100
AcDbEntity
  8
0
  6
Continuous
 62
     7
100
AcDbLine
 10
65.00862032339973
 20
-12.39999838039452
 30
0.0
 11
64.64227602718984
 21
-12.39999838039452
 31
0.0
  0
LINE
  5
1D4
330
63
100
AcDbEntity
  8
0
  6
Continuous
 62
     3
100
AcDbLine
 10
61.39651590513483
 20
-10.64999838039452
 30
0.0
 11
65.49999999980352
 21
-10.64999838039452
 31
0.0
  0
LINE
  5
1D5
330
63
100
AcDbEntity
  8
0
  6
Continuous
 62
     3
100
AcDbLine
 10
61.39651590513483
 20
-10.64999838039452
 30
0.0
 11
60.96520006935015
 21
-10.64999838039452
 31
0.0
  0
LINE
  5
1D6
330
63
100
AcDbEntity
  8
0
  6
Continuous
 62
     7
100
AcDbLine
 10
63.71476937039083
 20
-12.39999838039452
 30
0.0
 11
63.05480902478234
 21
-12.39999838039452
 31
0.0
  0
LINE
  5
1D7
330
63
100
AcDbEntity
  8
0
  6
Continuous
 62
     7
100
AcDbLine
 10
63.95252610044474
 20
-12.39999838039452
 30
0.0
 11
63.95252610044474
 21
-15.44999838039442
 31
0.0
  0
LINE
  5
1D8
330
63
100
AcDbEntity
  8
0
  6
Continuous
 62
     7
100
AcDbLine
 10
60.96565768641224
 20
-10.14999838039452
 30
0.0
 11
64.99999999980352
 21
-10.14999838039452
 31
0.0
  0
ARC
  5
1D9
330
63
100
AcDbEntity
  8
0
  6
Continuous
 62
     7
100
AcDbCircle
 10
56.49999953928634
 20
-47.64999838039446
 30
0.0
 40
0.4999999999999811
100
AcDbArc
 50
-135.5729959991897
 51
-89.99999999999105
  0
ARC
  5
1DA
330
63
100
AcDbEntity
  8
0
  6
Continuous
 62
     7
100
AcDbCircle
 10
64.99999999980352
 20
-47.64999838039446
 30
0.0
 40
0.5
100
AcDbArc
 50
-90.0
 51
0.0
  0
ARC
  5
1DB
330
63
100
AcDbEntity
  8
0
  6
Continuous
 62
     7
100
AcDbCircle
 10
64.99999999980352
 20
-10.64999838039452
 30
0.0
 40
0.5
100
AcDbArc
 50
0.0
 51
90.0
  0
SPLINE
  5
1DC
330
63
100
AcDbEntity
  8
0
  6
Continuous
 62
     3
100
AcDbSpline
210
0.0
220
0.0
230
1.0
 70
     8
 71
     3
 72
    13
 73
     9
 74
     7
 42
0.0000000001
 43
0.0000000001
 44
0.00000001
 40
0.0
 40
0.0
 40
0.0
 40
0.0
 40
0.1253663825312449
 40
0.2514241323865067
 40
0.378670496017244
 40
0.5072756666615188
 40
0.6370461204447968
 40
0.7674846005981717
 40
0.7674846005981717
 40
0.7674846005981717
 40
0.7674846005981717
 10
60.91663102324594
 20
-48.14999838039446
 30
0.0
 10
60.95854924214889
 20
-48.1466671709145
 30
0.0
 10
61.04261684947767
 20
-48.13998638108563
 30
0.0
 10
61.15983373976195
 20
-48.08725663878
 30
0.0
 10
61.26044507197426
 20
-48.00722199654314
 30
0.0
 10
61.33689122792552
 20
-47.90230946868046
 30
0.0
 10
61.3870215651844
 20
-47.78056524624931
 30
0.0
 10
61.39334571322128
 20
-47.69359509427562
 30
0.0
 10
61.39651590513483
 20
-47.64999838039446
 30
0.0
 11
60.91663102324594
 21
-48.14999838039446
 31
0.0
 11
61.04083433702226
 21
-48.1329611647783
 31
0.0
 11
61.15657346419044
 21
-48.08301108228669
 31
0.0
 11
61.25596078695127
 21
-48.00355167672837
 31
0.0
 11
61.33222352185388
 21
-47.89999838039446
 31
0.0
 11
61.3801641007275
 21
-47.77940786844439
 31
0.0
 11
61.39651590513483
 21
-47.64999838039446
 31
0.0
  0
SPLINE
  5
1DD
330
63
100
AcDbEntity
  8
0
  6
Continuous
 62
     7
100
AcDbSpline
210
0.0
220
0.0
230
1.0
 70
     8
 71
     3
 72
    11
 73
     7
 74
     5
 42
0.0000000001
 43
0.0000000001
 44
0.00000001
 40
0.0
 40
0.0
 40
0.0
 40
0.0
 40
0.1797132894119706
 40
0.3594999053468582
 40
0.5878196097154714
 40
0.8162928492831829
 40
0.8162928492831829
 40
0.8162928492831829
 40
0.8162928492831829
 10
65.49510212159194
 20
-30.61624540675966
 30
0.0
 10
65.49427244643996
 20
-30.55634670433962
 30
0.0
 10
65.49261275761239
 20
-30.43652485966214
 30
0.0
 10
65.49034206642253
 20
-30.24059803053979
 30
0.0
 10
65.48824622187449
 20
-30.02841494455657
 30
0.0
 10
65.48717998118455
 20
-29.87615429417119
 30
0.0
 10
65.48664668164955
 20
-29.79999838039446
 30
0.0
 11
65.49510212159194
 21
-30.61624540675966
 31
0.0
 11
65.49268081223343
 21
-30.43654842945547
 31
0.0
 11
65.49057473452135
 21
-30.25677414957654
 31
0.0
 11
65.4883560745417
 21
-30.02846522519804
 31
0.0
 11
65.48664668164955
 21
-29.79999838039446
 31
0.0
  0
SPLINE
  5
1DE
330
63
100
AcDbEntity
  8
0
  6
Continuous
 62
     7
100
AcDbSpline
210
0.0
220
0.0
230
1.0
 70
     8
 71
     3
 72
    11
 73
     7
 74
     5
 42
0.0000000001
 43
0.0000000001
 44
0.00000001
 40
0.0
 40
0.0
 40
0.0
 40
0.0
 40
0.2283852186258016
 40
0.4567560953340566
 40
0.6366128304157058
 40
0.8162928492874012
 40
0.8162928492874012
 40
0.8162928492874012
 40
0.8162928492874012
 10
65.48664668164955
 20
-28.49999838039447
 30
0.0
 10
65.48717975909614
 20
-28.42387180613763
 30
0.0
 10
65.48824588051357
 20
-28.27162343814808
 30
0.0
 10
65.49034170376751
 20
-28.05942926115593
 30
0.0
 10
65.49261272810159
 20
-27.86347309350243
 30
0.0
 10
65.49427259570939
 20
-27.74363896726622
 30
0.0
 10
65.49510212159183
 20
-27.68375135403382
 30
0.0
 11
65.48664668164955
 21
-28.49999838039447
 31
0.0
 11
65.48835531759926
 21
-28.27161955333306
 31
0.0
 11
65.49057433528714
 21
-28.04325945767491
 31
0.0
 11
65.49268123124715
 21
-27.86341506342353
 31
0.0
 11
65.49510212159183
 21
-27.68375135403382
 31
0.0
  0
SPLINE
  5
1DF
330
63
100
AcDbEntity
  8
0
  6
Continuous
 62
     7
100
AcDbSpline
210
0.0
220
0.0
230
1.0
 70
     8
 71
     3
 72
     9
 73
     5
 74
     3
 42
0.0000000001
 43
0.0000000001
 44
0.00000001
 40
0.0
 40
0.0
 40
0.0
 40
0.0
 40
0.0408147017254166
 40
0.0816968247898284
 40
0.0816968247898284
 40
0.0816968247898284
 40
0.0816968247898284
 10
65.41349272770492
 20
-30.61246678211518
 30
0.0
 10
65.42708304034845
 20
-30.61309664092114
 30
0.0
 10
65.45428611531756
 20
-30.61435739898959
 30
0.0
 10
65.48148930290883
 20
-30.61561572468657
 30
0.0
 10
65.49510212159194
 20
-30.61624540675966
 30
0.0
 11
65.41349272770492
 21
-30.61246678211518
 31
0.0
 11
65.45426369374464
 21
-30.61435575144343
 31
0.0
 11
65.49510212159194
 21
-30.61624540675966
 31
0.0
  0
SPLINE
  5
1E0
330
63
100
AcDbEntity
  8
0
  6
Continuous
 62
     7
100
AcDbSpline
210
0.0
220
0.0
230
1.0
 70
     8
 71
     3
 72
     9
 73
     5
 74
     3
 42
0.0000000001
 43
0.0000000001
 44
0.00000001
 40
0.0
 40
0.0
 40
0.0
 40
0.0
 40
0.0408634558817744
 40
0.0816968247894606
 40
0.0816968247894606
 40
0.0816968247894606
 40
0.0816968247894606
 10
65.49510212159183
 20
-27.68375135403382
 30
0.0
 10
65.48149551865231
 20
-27.68438074849359
 30
0.0
 10
65.45429233105247
 20
-27.68563907400211
 30
0.0
 10
65.42708925607485
 20
-27.68689983188483
 30
0.0
 10
65.41349272770492
 20
-27.6875299786728
 30
0.0
 11
65.49510212159183
 21
-27.68375135403382
 31
0.0
 11
65.45428234094958
 21
-27.68564014595464
 31
0.0
 11
65.41349272770492
 21
-27.6875299786728
 31
0.0
  0
SPLINE
  5
1E1
330
63
100
AcDbEntity
  8
0
  6
Continuous
 62
     3
100
AcDbSpline
210
0.0
220
0.0
230
1.0
 70
     8
 71
     3
 72
    13
 73
     9
 74
     7
 42
0.0000000001
 43
0.0000000001
 44
0.00000001
 40
0.0
 40
0.0
 40
0.0
 40
0.0
 40
0.1174114882196243
 40
0.2355959250190296
 40
0.3548904536779445
 40
0.4753661884324987
 40
0.5968186436921783
 40
0.7188209679489552
 40
0.7188209679489552
 40
0.7188209679489552
 40
0.7188209679489552
 10
60.96561119568983
 20
-10.15260959165252
 30
0.0
 10
61.00432112838004
 20
-10.15967680400728
 30
0.0
 10
61.08199583072703
 20
-10.17385775390641
 30
0.0
 10
61.18741566211656
 20
-10.23154452918596
 30
0.0
 10
61.2769268826911
 20
-10.31197193951898
 30
0.0
 10
61.34428534501235
 20
-10.41301644565989
 30
0.0
 10
61.38821810237989
 20
-10.52789197636349
 30
0.0
 10
61.39374580924157
 20
-10.60923500503634
 30
0.0
 10
61.39651590513483
 20
-10.64999838039452
 30
0.0
 11
60.96561119568983
 21
-10.15260959165252
 31
0.0
 11
61.07983079385217
 21
-10.17980041660473
 31
0.0
 11
61.18432238516323
 21
-10.23501878716086
 31
0.0
 11
61.2728572531757
 21
-10.31497353507471
 31
0.0
 11
61.34015819915203
 21
-10.41489843355022
 31
0.0
 11
61.38221325782375
 21
-10.52883732475389
 31
0.0
 11
61.39651590513483
 21
-10.64999838039452
 31
0.0
  0
ENDBLK
  5
65
330
63
100
AcDbEntity
  8
0
100
AcDbBlockEnd
  0
BLOCK
  5
67
330
66
100
AcDbEntity
  8
0
100
AcDbBlockBegin
  2
01047D-Holländermutter6_4
 70
     0
 71
     0
 10
3.49999999980363
 20
-133.9198910370417
 30
0.0
  3
01047D-Holländermutter6_4
  1

  0
LINE
  5
1E2
330
66
100
AcDbEntity
  8
1
  6
DOT_CENTER
 62
     2
100
AcDbLine
 10
31.99999999980362
 20
-73.61799685306656
 30
0.0
 11
31.99999999980376
 21
-139.09176046791
 31
0.0
  0
LINE
  5
1E3
330
66
100
AcDbEntity
  8
1
  6
DOT_CENTER
 62
     2
100
AcDbLine
 10
31.99999999980352
 20
-133.9198910370417
 30
0.0
 11
31.99999999980388
 21
-131.9198910370644
 31
0.0
  0
LINE
  5
1E4
330
66
100
AcDbEntity
  8
0
  6
Continuous
 62
     7
100
AcDbLine
 10
31.99999999980352
 20
-133.9198910370417
 30
0.0
 11
58.11649281461513
 21
-133.9198910370417
 31
0.0
  0
LINE
  5
1E5
330
66
100
AcDbEntity
  8
0
  6
Continuous
 62
     7
100
AcDbLine
 10
33.99999999980352
 20
-132.6776084003618
 30
0.0
 11
33.99999999980352
 21
-133.5980902993963
 31
0.0
  0
LINE
  5
1E6
330
66
100
AcDbEntity
  8
0
  6
Continuous
 62
     7
100
AcDbLine
 10
49.27067337848513
 20
-133.5980902993963
 30
0.0
 11
33.99999999980352
 21
-133.5980902993963
 31
0.0
  0
LINE
  5
1E7
330
66
100
AcDbEntity
  8
0
  6
Continuous
 62
     7
100
AcDbLine
 10
33.99999999980352
 20
-119.4198910370417
 30
0.0
 11
33.99999999980352
 21
-132.6776084003618
 31
0.0
  0
LINE
  5
1E8
330
66
100
AcDbEntity
  8
0
  6
Continuous
 62
     7
100
AcDbLine
 10
59.52442052325102
 20
-119.4198910370417
 30
0.0
 11
59.52442052325102
 21
-132.6776084003619
 31
0.0
  0
LINE
  5
1E9
330
66
100
AcDbEntity
  8
0
  6
Continuous
 62
     7
100
AcDbLine
 10
60.49999999980352
 20
-119.4198910370417
 30
0.0
 11
60.49999999977592
 21
-131.9198910370648
 31
0.0
  0
LINE
  5
1EA
330
66
100
AcDbEntity
  8
0
  6
Continuous
 62
     7
100
AcDbLine
 10
60.49999999980352
 20
-119.4198910370417
 30
0.0
 11
59.52442052325102
 21
-119.4198910370417
 31
0.0
  0
LINE
  5
1EB
330
66
100
AcDbEntity
  8
0
  6
Continuous
 62
     7
100
AcDbLine
 10
60.49999999980352
 20
-116.9198910370417
 30
0.0
 11
60.49999999980352
 21
-119.4198910370417
 31
0.0
  0
LINE
  5
1EC
330
66
100
AcDbEntity
  8
0
  6
Continuous
 62
     7
100
AcDbLine
 10
58.42442052325114
 20
-119.4198910370417
 30
0.0
 11
58.42442052325114
 21
-133.5980902993962
 31
0.0
  0
LINE
  5
1ED
330
66
100
AcDbEntity
  8
0
  6
Continuous
 62
     7
100
AcDbLine
 10
58.42442052325114
 20
-133.5980902993962
 30
0.0
 11
52.09910050323134
 21
-133.5980902993962
 31
0.0
  0
LINE
  5
1EE
330
66
100
AcDbEntity
  8
0
  6
Continuous
 62
     7
100
AcDbLine
 10
52.87691796253654
 20
-119.4198910370417
 30
0.0
 11
52.87691796253662
 21
-132.6776084003618
 31
0.0
  0
LINE
  5
1EF
330
66
100
AcDbEntity
  8
0
  6
Continuous
 62
     7
100
AcDbLine
 10
52.15254326362015
 20
-119.4198910370417
 30
0.0
 11
52.15254326358334
 21
-131.9198910370762
 31
0.0
  0
LINE
  5
1F0
330
66
100
AcDbEntity
  8
0
  6
Continuous
 62
     7
100
AcDbLine
 10
50.04849083779033
 20
-119.4198910370417
 30
0.0
 11
50.04849083779033
 21
-132.6776084003618
 31
0.0
  0
LINE
  5
1F1
330
66
100
AcDbEntity
  8
0
  6
Continuous
 62
     7
100
AcDbLine
 10
49.27067337848513
 20
-119.4198910370417
 30
0.0
 11
49.27067337848513
 21
-133.5980902993963
 31
0.0
  0
LINE
  5
1F2
330
66
100
AcDbEntity
  8
0
  6
Continuous
 62
     7
100
AcDbLine
 10
58.11649281461513
 20
-133.9198910370417
 30
0.0
 11
60.49999999977592
 21
-131.9198910370648
 31
0.0
  0
LINE
  5
1F3
330
66
100
AcDbEntity
  8
0
  6
Continuous
 62
     7
100
AcDbLine
 10
59.52442052325102
 20
-119.4198910370417
 30
0.0
 11
58.42442052325114
 21
-119.4198910370417
 31
0.0
  0
LINE
  5
1F4
330
66
100
AcDbEntity
  8
0
  6
Continuous
 62
     7
100
AcDbLine
 10
52.87691796253654
 20
-119.4198910370417
 30
0.0
 11
52.15254326362015
 21
-119.4198910370417
 31
0.0
  0
LINE
  5
1F5
330
66
100
AcDbEntity
  8
0
  6
Continuous
 62
     7
100
AcDbLine
 10
58.42442052325114
 20
-119.4198910370417
 30
0.0
 11
52.87691796253654
 21
-119.4198910370417
 31
0.0
  0
LINE
  5
1F6
330
66
100
AcDbEntity
  8
0
  6
Continuous
 62
     7
100
AcDbLine
 10
50.04849083779033
 20
-119.4198910370417
 30
0.0
 11
49.27067337848513
 21
-119.4198910370417
 31
0.0
  0
LINE
  5
1F7
330
66
100
AcDbEntity
  8
0
  6
Continuous
 62
     7
100
AcDbLine
 10
52.15254326362015
 20
-119.4198910370417
 30
0.0
 11
50.04849083779033
 21
-119.4198910370417
 31
0.0
  0
LINE
  5
1F8
330
66
100
AcDbEntity
  8
0
  6
Continuous
 62
     7
100
AcDbLine
 10
33.99999999980352
 20
-119.4198910370417
 30
0.0
 11
31.99999999980363
 21
-119.4198910370417
 31
0.0
  0
LINE
  5
1F9
330
66
100
AcDbEntity
  8
0
  6
Continuous
 62
     7
100
AcDbLine
 10
49.27067337848513
 20
-119.4198910370417
 30
0.0
 11
33.99999999980352
 21
-119.4198910370417
 31
0.0
  0
LINE
  5
1FA
330
66
100
AcDbEntity
  8
0
  6
Continuous
 62
     7
100
AcDbLine
 10
60.49999999980352
 20
-116.9198910370417
 30
0.0
 11
31.99999999980363
 21
-116.9198910370417
 31
0.0
  0
LINE
  5
1FB
330
66
100
AcDbEntity
  8
0
  6
Continuous
 62
     7
100
AcDbLine
 10
5.88350718499203
 20
-133.9198910370417
 30
0.0
 11
31.99999999980352
 21
-133.9198910370417
 31
0.0
  0
LINE
  5
1FC
330
66
100
AcDbEntity
  8
0
  6
Continuous
 62
     7
100
AcDbLine
 10
11.90089949637564
 20
-133.5980902993962
 30
0.0
 11
5.57557947635593
 21
-133.5980902993962
 31
0.0
  0
LINE
  5
1FD
330
66
100
AcDbEntity
  8
0
  6
Continuous
 62
     7
100
AcDbLine
 10
29.99999999980352
 20
-133.5980902993962
 30
0.0
 11
29.99999999980352
 21
-132.6776084003618
 31
0.0
  0
LINE
  5
1FE
330
66
100
AcDbEntity
  8
0
  6
Continuous
 62
     7
100
AcDbLine
 10
29.99999999980352
 20
-133.5980902993962
 30
0.0
 11
14.72932662112183
 21
-133.5980902993963
 31
0.0
  0
LINE
  5
1FF
330
66
100
AcDbEntity
  8
0
  6
Continuous
 62
     7
100
AcDbLine
 10
14.72932662112183
 20
-119.4198910370417
 30
0.0
 11
14.72932662112183
 21
-133.5980902993963
 31
0.0
  0
LINE
  5
200
330
66
100
AcDbEntity
  8
0
  6
Continuous
 62
     7
100
AcDbLine
 10
5.57557947635593
 20
-119.4198910370417
 30
0.0
 11
5.57557947635593
 21
-133.5980902993962
 31
0.0
  0
LINE
  5
201
330
66
100
AcDbEntity
  8
0
  6
Continuous
 62
     7
100
AcDbLine
 10
11.12308203707042
 20
-119.4198910370417
 30
0.0
 11
11.12308203711842
 21
-132.6776084004128
 31
0.0
  0
LINE
  5
202
330
66
100
AcDbEntity
  8
0
  6
Continuous
 62
     7
100
AcDbLine
 10
29.99999999980352
 20
-119.4198910370417
 30
0.0
 11
29.99999999980352
 21
-132.6776084003618
 31
0.0
  0
LINE
  5
203
330
66
100
AcDbEntity
  8
0
  6
Continuous
 62
     7
100
AcDbLine
 10
31.99999999980363
 20
-119.4198910370417
 30
0.0
 11
31.99999999980352
 21
-131.9198910370417
 31
0.0
  0
LINE
  5
204
330
66
100
AcDbEntity
  8
0
  6
Continuous
 62
     7
100
AcDbLine
 10
13.95150916181663
 20
-119.4198910370417
 30
0.0
 11
13.95150916181663
 21
-132.6776084003618
 31
0.0
  0
LINE
  5
205
330
66
100
AcDbEntity
  8
0
  6
Continuous
 62
     7
100
AcDbLine
 10
4.47557947635593
 20
-119.4198910370417
 30
0.0
 11
4.47557947635593
 21
-132.6776084003618
 31
0.0
  0
LINE
  5
206
330
66
100
AcDbEntity
  8
0
  6
Continuous
 62
     7
100
AcDbLine
 10
3.49999999980363
 20
-119.4198910370417
 30
0.0
 11
3.49999999983103
 21
-131.9198910370647
 31
0.0
  0
LINE
  5
207
330
66
100
AcDbEntity
  8
0
  6
Continuous
 62
     7
100
AcDbLine
 10
11.84745673598704
 20
-119.4198910370417
 30
0.0
 11
11.84745673598692
 21
-131.9198910370416
 31
0.0
  0
LINE
  5
208
330
66
100
AcDbEntity
  8
0
  6
Continuous
 62
     7
100
AcDbLine
 10
11.84745673598704
 20
-119.4198910370417
 30
0.0
 11
11.12308203707042
 21
-119.4198910370417
 31
0.0
  0
LINE
  5
209
330
66
100
AcDbEntity
  8
0
  6
Continuous
 62
     7
100
AcDbLine
 10
5.57557947635593
 20
-119.4198910370417
 30
0.0
 11
4.47557947635593
 21
-119.4198910370417
 31
0.0
  0
LINE
  5
20A
330
66
100
AcDbEntity
  8
0
  6
Continuous
 62
     7
100
AcDbLine
 10
11.12308203707042
 20
-119.4198910370417
 30
0.0
 11
5.57557947635593
 21
-119.4198910370417
 31
0.0
  0
LINE
  5
20B
330
66
100
AcDbEntity
  8
0
  6
Continuous
 62
     7
100
AcDbLine
 10
3.49999999980363
 20
-116.9198910370417
 30
0.0
 11
3.49999999980363
 21
-119.4198910370417
 31
0.0
  0
LINE
  5
20C
330
66
100
AcDbEntity
  8
0
  6
Continuous
 62
     7
100
AcDbLine
 10
4.47557947635593
 20
-119.4198910370417
 30
0.0
 11
3.49999999980363
 21
-119.4198910370417
 31
0.0
  0
LINE
  5
20D
330
66
100
AcDbEntity
  8
0
  6
Continuous
 62
     7
100
AcDbLine
 10
14.72932662112183
 20
-119.4198910370417
 30
0.0
 11
13.95150916181663
 21
-119.4198910370417
 31
0.0
  0
LINE
  5
20E
330
66
100
AcDbEntity
  8
0
  6
Continuous
 62
     7
100
AcDbLine
 10
13.95150916181663
 20
-119.4198910370417
 30
0.0
 11
11.84745673598704
 21
-119.4198910370417
 31
0.0
  0
LINE
  5
20F
330
66
100
AcDbEntity
  8
0
  6
Continuous
 62
     7
100
AcDbLine
 10
31.99999999980363
 20
-119.4198910370417
 30
0.0
 11
29.99999999980352
 21
-119.4198910370417
 31
0.0
  0
LINE
  5
210
330
66
100
AcDbEntity
  8
0
  6
Continuous
 62
     7
100
AcDbLine
 10
29.99999999980352
 20
-119.4198910370417
 30
0.0
 11
14.72932662112183
 21
-119.4198910370417
 31
0.0
  0
LINE
  5
211
330
66
100
AcDbEntity
  8
0
  6
Continuous
 62
     7
100
AcDbLine
 10
31.99999999980363
 20
-116.9198910370417
 30
0.0
 11
3.49999999980363
 21
-116.9198910370417
 31
0.0
  0
LINE
  5
212
330
66
100
AcDbEntity
  8
0
  6
Continuous
 62
     7
100
AcDbLine
 10
5.88350718499203
 20
-133.9198910370417
 30
0.0
 11
3.49999999983103
 21
-131.9198910370647
 31
0.0
  0
SPLINE
  5
213
330
66
100
AcDbEntity
  8
0
  6
Continuous
 62
     7
100
AcDbSpline
210
0.0
220
0.0
230
1.0
 70
     8
 71
     3
 72
    11
 73
     7
 74
     5
 42
0.0000000001
 43
0.0000000001
 44
0.00000001
 40
0.0
 40
0.0
 40
0.0
 40
0.0
 40
0.2998686263927149
 40
0.6025485779371678
 40
0.9021142996087238
 40
1.205108678842886
 40
1.205108678842886
 40
1.205108678842886
 40
1.205108678842886
 10
49.27067337848513
 20
-133.5980902993963
 30
0.0
 10
49.33519210890127
 20
-133.5217451809918
 30
0.0
 10
49.46483444504763
 20
-133.3683391942422
 30
0.0
 10
49.65892193447389
 20
-133.1386581042544
 30
0.0
 10
49.85367649876078
 20
-132.9081766058379
 30
0.0
 10
49.98330685271297
 20
-132.7547554653055
 30
0.0
 10
50.04849083779033
 20
-132.6776084003618
 30
0.0
 11
49.27067337848513
 21
-133.5980902993963
 31
0.0
 11
49.46422817928499
 21
-133.3690537691615
 31
0.0
 11
49.65959104149883
 21
-133.1378644416947
 31
0.0
 11
49.85293755815515
 21
-132.9090484761296
 31
0.0
 11
50.04849083779033
 21
-132.6776084003618
 31
0.0
  0
SPLINE
  5
214
330
66
100
AcDbEntity
  8
0
  6
Continuous
 62
     7
100
AcDbSpline
210
0.0
220
0.0
230
1.0
 70
     8
 71
     3
 72
    11
 73
     7
 74
     5
 42
0.0000000001
 43
0.0000000001
 44
0.00000001
 40
0.0
 40
0.0
 40
0.0
 40
0.0
 40
0.3000034185400154
 40
0.602548577937162
 40
0.902015444789512
 40
1.205108678842871
 40
1.205108678842871
 40
1.205108678842871
 40
1.205108678842871
 10
52.09910050323134
 20
-133.5980902993962
 30
0.0
 10
52.16364823482925
 20
-133.521710863348
 30
0.0
 10
52.29329057048214
 20
-133.3683048761813
 30
0.0
 10
52.48735679018336
 20
-133.1386489537751
 30
0.0
 10
52.68208235613177
 20
-132.9082017754051
 30
0.0
 10
52.81171271040041
 20
-132.75478063514
 30
0.0
 10
52.87691796253662
 20
-132.6776084003618
 30
0.0
 11
52.09910050323134
 21
-133.5980902993962
 31
0.0
 11
52.29274230622101
 21
-133.3689508150846
 31
0.0
 11
52.48801816624513
 21
-133.1378644416947
 31
0.0
 11
52.68130088076789
 21
-132.9091239848247
 31
0.0
 11
52.87691796253662
 21
-132.6776084003618
 31
0.0
  0
SPLINE
  5
215
330
66
100
AcDbEntity
  8
0
  6
Continuous
 62
     7
100
AcDbSpline
210
0.0
220
0.0
230
1.0
 70
     8
 71
     3
 72
    11
 73
     7
 74
     5
 42
0.0000000001
 43
0.0000000001
 44
0.00000001
 40
0.0
 40
0.0
 40
0.0
 40
0.0
 40
0.2702377331067651
 40
0.5327401921905832
 40
0.794482386418096
 40
1.048535540221214
 40
1.048535540221214
 40
1.048535540221214
 40
1.048535540221214
 10
52.15254326358334
 20
-131.9198910370762
 30
0.0
 10
52.21257682520196
 20
-131.9870535187387
 30
0.0
 10
52.33092555018165
 20
-132.1194560258849
 30
0.0
 10
52.51213517956881
 20
-132.3126058341936
 30
0.0
 10
52.69292507148863
 20
-132.4987105169116
 30
0.0
 10
52.81619955607515
 20
-132.618571367243
 30
0.0
 10
52.87691796253662
 20
-132.6776084003618
 30
0.0
 11
52.15254326358334
 21
-131.9198910370762
 31
0.0
 11
52.33345741607616
 21
-132.1206359045635
 31
0.0
 11
52.51286112463183
 21
-132.3122653657158
 31
0.0
 11
52.69560238457859
 21
-132.499654287886
 31
0.0
 11
52.87691796253662
 21
-132.6776084003618
 31
0.0
  0
SPLINE
  5
216
330
66
100
AcDbEntity
  8
0
  6
Continuous
 62
     7
100
AcDbSpline
210
0.0
220
0.0
230
1.0
 70
     8
 71
     3
 72
    11
 73
     7
 74
     5
 42
0.0000000001
 43
0.0000000001
 44
0.00000001
 40
0.0
 40
0.0
 40
0.0
 40
0.0
 40
0.3018225005310078
 40
0.6107917936479479
 40
0.9195341902900682
 40
1.235572032046792
 40
1.235572032046792
 40
1.235572032046792
 40
1.235572032046792
 10
59.52442052325102
 20
-132.6776084003619
 30
0.0
 10
59.60599760792863
 20
-132.6187196163765
 30
0.0
 10
59.77108342420523
 20
-132.4995476330654
 30
0.0
 10
60.01465378253274
 20
-132.313425775297
 30
0.0
 10
60.25875166796775
 20
-132.1202768700484
 30
0.0
 10
60.41896031344309
 20
-131.9872042695702
 30
0.0
 10
60.49999999977592
 20
-131.9198910370648
 30
0.0
 11
59.52442052325102
 21
-132.6776084003619
 31
0.0
 11
59.76834681693366
 21
-132.4998535549229
 31
0.0
 11
60.01417799175584
 21
-132.312693042061
 31
0.0
 11
60.25608275865628
 21
-132.1208494827864
 31
0.0
 11
60.49999999977592
 21
-131.9198910370648
 31
0.0
  0
SPLINE
  5
217
330
66
100
AcDbEntity
  8
0
  6
Continuous
 62
     7
100
AcDbSpline
210
0.0
220
0.0
230
1.0
 70
     8
 71
     3
 72
    11
 73
     7
 74
     5
 42
0.0000000001
 43
0.0000000001
 44
0.00000001
 40
0.0
 40
0.0
 40
0.0
 40
0.0
 40
0.5553075179414483
 40
1.117553862679132
 40
1.673429055637103
 40
2.236567028956906
 40
2.236567028956906
 40
2.236567028956906
 40
2.236567028956906
 10
50.04849083779033
 20
-132.6776084003618
 30
0.0
 10
50.22402720217109
 20
-132.6188623386045
 30
0.0
 10
50.57729333979078
 20
-132.5006361556105
 30
0.0
 10
51.10311603164293
 20
-132.3143905146057
 30
0.0
 10
51.62927582919036
 20
-132.1213957926416
 30
0.0
 10
51.97736770677885
 20
-131.9873492915649
 30
0.0
 10
52.15254326358334
 20
-131.9198910370762
 30
0.0
 11
50.04849083779033
 21
-132.6776084003618
 31
0.0
 11
50.57457900479298
 21
-132.499851037583
 31
0.0
 11
51.10476089516934
 21
-132.3126930420609
 31
0.0
 11
51.62648229841869
 21
-132.1208493360459
 31
0.0
 11
52.15254326358334
 21
-131.9198910370762
 31
0.0
  0
SPLINE
  5
218
330
66
100
AcDbEntity
  8
0
  6
Continuous
 62
     7
100
AcDbSpline
210
0.0
220
0.0
230
1.0
 70
     8
 71
     3
 72
    11
 73
     7
 74
     5
 42
0.0000000001
 43
0.0000000001
 44
0.00000001
 40
0.0
 40
0.0
 40
0.0
 40
0.0
 40
0.3569938195894081
 40
0.7171622810829092
 40
1.074247335835807
 40
1.434324554759846
 40
1.434324554759846
 40
1.434324554759846
 40
1.434324554759846
 10
58.42442052325114
 20
-133.5980902993962
 30
0.0
 10
58.51568505588828
 20
-133.521727384468
 30
0.0
 10
58.69902571002984
 20
-133.3683224814838
 30
0.0
 10
58.97364582557439
 20
-133.1385251146573
 30
0.0
 10
59.24904876298492
 20
-132.9080616897737
 30
0.0
 10
59.43237497693761
 20
-132.7546395342121
 30
0.0
 10
59.52442052325102
 20
-132.6776084003619
 30
0.0
 11
58.42442052325114
 21
-133.5980902993962
 31
0.0
 11
58.6982127323807
 21
-133.3689998948722
 31
0.0
 11
58.97443315693153
 21
-133.1378644416947
 31
0.0
 11
59.24828256646799
 21
-132.9087002271576
 31
0.0
 11
59.52442052325102
 21
-132.6776084003619
 31
0.0
  0
SPLINE
  5
219
330
66
100
AcDbEntity
  8
0
  6
Continuous
 62
     7
100
AcDbSpline
210
0.0
220
0.0
230
1.0
 70
     8
 71
     3
 72
    11
 73
     7
 74
     5
 42
0.0000000001
 43
0.0000000001
 44
0.00000001
 40
0.0
 40
0.0
 40
0.0
 40
0.0
 40
0.5383041305334068
 40
1.069442979081783
 40
1.607665789035498
 40
2.138967657387478
 40
2.138967657387478
 40
2.138967657387478
 40
2.138967657387478
 10
31.99999999980352
 20
-131.9198910370417
 30
0.0
 10
32.16630775851855
 20
-131.9872674214037
 30
0.0
 10
32.49670957941555
 20
-132.1211233536264
 30
0.0
 10
32.99667889665065
 20
-132.3140678805779
 30
0.0
 10
33.49666745697463
 20
-132.5003928247376
 30
0.0
 10
33.83294784729788
 20
-132.6187919304408
 30
0.0
 10
33.99999999980352
 20
-132.6776084003618
 30
0.0
 11
31.99999999980352
 21
-131.9198910370417
 31
0.0
 11
32.49947690525719
 21
-132.1206250846464
 31
0.0
 11
32.99483792440933
 21
-132.3122652086858
 31
0.0
 11
33.49938647672177
 21
-132.4996539797312
 31
0.0
 11
33.99999999980352
 21
-132.6776084003618
 31
0.0
  0
SPLINE
  5
21A
330
66
100
AcDbEntity
  8
0
  6
Continuous
 62
     7
100
AcDbSpline
210
0.0
220
0.0
230
1.0
 70
     8
 71
     3
 72
    11
 73
     7
 74
     5
 42
0.0000000001
 43
0.0000000001
 44
0.00000001
 40
0.0
 40
0.0
 40
0.0
 40
0.0
 40
0.3031067954972661
 40
0.6025600718740216
 40
0.9057532309251288
 40
1.205108678842885
 40
1.205108678842885
 40
1.205108678842885
 40
1.205108678842885
 10
13.95150916181663
 20
-132.6776084003618
 30
0.0
 10
14.01671733149621
 20
-132.7547840880652
 30
0.0
 10
14.1463476795867
 20
-132.9082052208813
 30
0.0
 10
14.34121265076926
 20
-133.1388173778874
 30
0.0
 10
14.53527595923787
 20
-133.368469842036
 30
0.0
 10
14.66491830352722
 20
-133.5218758345741
 30
0.0
 10
14.72932662112183
 20
-133.5980902993963
 30
0.0
 11
13.95150916181663
 21
-132.6776084003618
 31
0.0
 11
14.14713499631052
 21
-132.9091343435198
 31
0.0
 11
14.34040893937012
 21
-133.1378644195198
 31
0.0
 11
14.53610305365835
 21
-133.3694457342417
 31
0.0
 11
14.72932662112183
 21
-133.5980902993963
 31
0.0
  0
SPLINE
  5
21B
330
66
100
AcDbEntity
  8
0
  6
Continuous
 62
     7
100
AcDbSpline
210
0.0
220
0.0
230
1.0
 70
     8
 71
     3
 72
    11
 73
     7
 74
     5
 42
0.0000000001
 43
0.0000000001
 44
0.00000001
 40
0.0
 40
0.0
 40
0.0
 40
0.0
 40
0.3598610120422881
 40
0.7171622391235055
 40
1.077267068777475
 40
1.434324554759993
 40
1.434324554759993
 40
1.434324554759993
 40
1.434324554759993
 10
4.475579476355932
 20
-132.6776084003618
 30
0.0
 10
4.567569754003525
 20
-132.7545932815401
 30
0.0
 10
4.750895958531591
 20
-132.9080154304168
 30
0.0
 10
5.026282618811853
 20
-133.1384652378895
 30
0.0
 10
5.300958004902006
 20
-133.3683088551417
 30
0.0
 10
5.484298667673782
 20
-133.5217137657601
 30
0.0
 10
5.575579476355927
 20
-133.5980902993962
 30
0.0
 11
4.475579476355932
 21
-132.6776084003618
 31
0.0
 11
4.751551625406487
 21
-132.908561471215
 31
0.0
 11
5.025566816176038
 21
-133.1378644195198
 31
0.0
 11
5.301738439616756
 21
-133.3689590381206
 31
0.0
 11
5.575579476355927
 21
-133.5980902993962
 31
0.0
  0
SPLINE
  5
21C
330
66
100
AcDbEntity
  8
0
  6
Continuous
 62
     7
100
AcDbSpline
210
0.0
220
0.0
230
1.0
 70
     8
 71
     3
 72
    11
 73
     7
 74
     5
 42
0.0000000001
 43
0.0000000001
 44
0.00000001
 40
0.0
 40
0.0
 40
0.0
 40
0.0
 40
0.2537818196766934
 40
0.515204005051324
 40
0.7780082325694461
 40
1.048535545308023
 40
1.048535545308023
 40
1.048535545308023
 40
1.048535545308023
 10
11.12308203711842
 20
-132.6776084004128
 30
0.0
 10
11.1837360190662
 20
-132.6186348655957
 30
0.0
 10
11.3068700341884
 20
-132.4989123363438
 30
0.0
 10
11.4875995933174
 20
-132.3128837429273
 30
0.0
 10
11.66887766101708
 20
-132.1196740100882
 30
0.0
 10
11.78735847734
 20
-131.987125167297
 30
0.0
 10
11.84745673598692
 20
-131.9198910370416
 30
0.0
 11
11.12308203711842
 21
-132.6776084004128
 31
0.0
 11
11.30420607739503
 21
-132.4998464977669
 31
0.0
 11
11.48673044021643
 21
-132.3126930420609
 31
0.0
 11
11.66634670706155
 21
-132.1208492027384
 31
0.0
 11
11.84745673598692
 21
-131.9198910370416
 31
0.0
  0
SPLINE
  5
21D
330
66
100
AcDbEntity
  8
0
  6
Continuous
 62
     7
100
AcDbSpline
210
0.0
220
0.0
230
1.0
 70
     8
 71
     3
 72
    11
 73
     7
 74
     5
 42
0.0000000001
 43
0.0000000001
 44
0.00000001
 40
0.0
 40
0.0
 40
0.0
 40
0.0
 40
0.3156853048490677
 40
0.6240834991178514
 40
0.933415890885428
 40
1.235572027153155
 40
1.235572027153155
 40
1.235572027153155
 40
1.235572027153155
 10
3.499999999831033
 20
-131.9198910370647
 30
0.0
 10
3.58094890709859
 20
-131.9871296304699
 30
0.0
 10
3.740978140392983
 20
-132.1200547175852
 30
0.0
 10
3.984982292666759
 20
-132.3131427083092
 30
0.0
 10
4.228639324379579
 20
-132.4993448416683
 30
0.0
 10
4.393912625855076
 20
-132.6186539400156
 30
0.0
 10
4.475579476355932
 20
-132.6776084003618
 30
0.0
 11
3.499999999831033
 21
-131.9198910370647
 31
0.0
 11
3.74364309105931
 21
-132.12062781943
 31
0.0
 11
3.985271932636238
 21
-132.3122653657158
 31
0.0
 11
4.231385632681372
 21
-132.4996542000863
 31
0.0
 11
4.475579476355932
 21
-132.6776084003618
 31
0.0
  0
SPLINE
  5
21E
330
66
100
AcDbEntity
  8
0
  6
Continuous
 62
     7
100
AcDbSpline
210
0.0
220
0.0
230
1.0
 70
     8
 71
     3
 72
    11
 73
     7
 74
     5
 42
0.0000000001
 43
0.0000000001
 44
0.00000001
 40
0.0
 40
0.0
 40
0.0
 40
0.0
 40
0.562514497747988
 40
1.117752099417785
 40
1.68065626952501
 40
2.236567026309949
 40
2.236567026309949
 40
2.236567026309949
 40
2.236567026309949
 10
11.84745673598692
 20
-131.9198910370416
 30
0.0
 10
12.02243808471725
 20
-131.9872752754595
 30
0.0
 10
12.37013715858165
 20
-132.1211720448063
 30
0.0
 10
12.89610379411561
 20
-132.3141092561527
 30
0.0
 10
13.42211809586762
 20
-132.5004366231485
 30
0.0
 10
13.77578236012291
 20
-132.6187977559013
 30
0.0
 10
13.95150916181663
 20
-132.6776084003618
 30
0.0
 11
11.84745673598692
 21
-131.9198910370416
 31
0.0
 11
12.37293389168644
 21
-132.120630467684
 31
0.0
 11
12.89405274584962
 21
-132.3122653657158
 31
0.0
 11
13.42485081138278
 21
-132.4996540482726
 31
0.0
 11
13.95150916181663
 21
-132.6776084003618
 31
0.0
  0
SPLINE
  5
21F
330
66
100
AcDbEntity
  8
0
  6
Continuous
 62
     7
100
AcDbSpline
210
0.0
220
0.0
230
1.0
 70
     8
 71
     3
 72
    11
 73
     7
 74
     5
 42
0.0000000001
 43
0.0000000001
 44
0.00000001
 40
0.0
 40
0.0
 40
0.0
 40
0.0
 40
0.5313023607993146
 40
1.069524682366028
 40
1.600664140578491
 40
2.138967657386809
 40
2.138967657386809
 40
2.138967657386809
 40
2.138967657386809
 10
29.99999999980352
 20
-132.6776084003618
 30
0.0
 10
30.16705230695221
 20
-132.6187918753588
 30
0.0
 10
30.50333269816472
 20
-132.500392768065
 30
0.0
 10
31.00332144907279
 20
-132.3140677495733
 30
0.0
 10
31.50329061179416
 20
-132.1211232780653
 30
0.0
 10
31.83369243094485
 20
-131.9872673451778
 30
0.0
 10
31.99999999980352
 20
-131.9198910370417
 30
0.0
 11
29.99999999980352
 21
-132.6776084003618
 31
0.0
 11
30.5006139857208
 21
-132.4996538115057
 31
0.0
 11
31.00516207899455
 21
-132.3122652072458
 31
0.0
 11
31.50052366528503
 21
-132.1206248594638
 31
0.0
 11
31.99999999980352
 21
-131.9198910370417
 31
0.0
  0
SPLINE
  5
220
330
66
100
AcDbEntity
  8
0
  6
Continuous
 62
     7
100
AcDbSpline
210
0.0
220
0.0
230
1.0
 70
     8
 71
     3
 72
    11
 73
     7
 74
     5
 42
0.0000000001
 43
0.0000000001
 44
0.00000001
 40
0.0
 40
0.0
 40
0.0
 40
0.0
 40
0.3022574104109834
 40
0.6025600718041124
 40
0.9052159547700724
 40
1.205108678772903
 40
1.205108678772903
 40
1.205108678772903
 40
1.205108678772903
 10
11.12308203711842
 20
-132.6776084004128
 30
0.0
 10
11.18810747493298
 20
-132.754567822689
 30
0.0
 10
11.31773782022495
 20
-132.9079889578391
 30
0.0
 10
11.51248719273176
 20
-133.1384643270199
 30
0.0
 10
11.70673323897777
 20
-133.368333051569
 30
0.0
 10
11.83637558125554
 20
-133.5217390458071
 30
0.0
 10
11.90089949637564
 20
-133.5980902993962
 30
0.0
 11
11.12308203711842
 21
-132.6776084004128
 31
0.0
 11
11.31815966789932
 21
-132.9084855541489
 31
0.0
 11
11.51198181462394
 21
-133.1378644195198
 31
0.0
 11
11.70732914166629
 21
-133.3690353634364
 31
0.0
 11
11.90089949637564
 21
-133.5980902993962
 31
0.0
  0
ENDBLK
  5
68
330
66
100
AcDbEntity
  8
0
100
AcDbBlockEnd
  0
BLOCK
  5
6A
330
69
100
AcDbEntity
  8
0
100
AcDbBlockBegin
  2
0904_0E-AnschlußadapterDN30_40_50
 70
     0
 71
     0
 10
6.99999999980353
 20
-282.6113116887089
 30
0.0
  3
0904_0E-AnschlußadapterDN30_40_50
  1

  0
LINE
  5
221
330
69
100
AcDbEntity
  8
1
  6
DOT_CENTER
 62
     2
100
AcDbLine
 10
31.99999999980352
 20
-208.6113449497706
 30
0.0
 11
31.99999999980352
 21
-236.6113116887089
 31
0.0
  0
LINE
  5
222
330
69
100
AcDbEntity
  8
1
  6
DOT_CENTER
 62
     2
100
AcDbLine
 10
31.99999999980374
 20
-150.6113116887087
 30
0.0
 11
31.99999999980353
 21
-206.6113449497706
 31
0.0
  0
LINE
  5
223
330
69
100
AcDbEntity
  8
1
  6
DOT_CENTER
 62
     2
100
AcDbLine
 10
31.99999999980365
 20
-282.6113116887091
 30
0.0
 11
31.99999999980363
 21
-238.611311688709
 31
0.0
  0
LINE
  5
224
330
69
100
AcDbEntity
  8
0
  6
Continuous
 62
     3
100
AcDbLine
 10
47.99999999980352
 20
-238.6113116887089
 30
0.0
 11
15.99999999980352
 21
-238.6113116887089
 31
0.0
  0
LINE
  5
225
330
69
100
AcDbEntity
  8
0
  6
Continuous
 62
     7
100
AcDbLine
 10
50.99999999980352
 20
-237.6113116887089
 30
0.0
 11
48.99999999980352
 21
-237.6113116887089
 31
0.0
  0
LINE
  5
226
330
69
100
AcDbEntity
  8
0
  6
Continuous
 62
     7
100
AcDbLine
 10
51.99999999980352
 20
-208.6113449497706
 30
0.0
 11
51.99999999980352
 21
-236.6113116887089
 31
0.0
  0
LINE
  5
227
330
69
100
AcDbEntity
  8
0
  6
Continuous
 62
     7
100
AcDbLine
 10
55.99999999980352
 20
-207.6113449497706
 30
0.0
 11
52.99999999980352
 21
-207.6113449497706
 31
0.0
  0
LINE
  5
228
330
69
100
AcDbEntity
  8
0
  6
Continuous
 62
     7
100
AcDbLine
 10
56.06217782629463
 20
-150.611311688709
 30
0.0
 11
56.99999999980352
 21
-154.111311688709
 31
0.0
  0
LINE
  5
229
330
69
100
AcDbEntity
  8
0
  6
Continuous
 62
     7
100
AcDbLine
 10
48.99999999980352
 20
-237.6113116887089
 30
0.0
 11
14.99999999980352
 21
-237.6113116887089
 31
0.0
  0
LINE
  5
22A
330
69
100
AcDbEntity
  8
0
  6
Continuous
 62
     7
100
AcDbLine
 10
56.99999999980352
 20
-154.111311688709
 30
0.0
 11
56.99999999980352
 21
-206.6113449497706
 31
0.0
  0
LINE
  5
22B
330
69
100
AcDbEntity
  8
0
  6
Continuous
 62
     7
100
AcDbLine
 10
47.99999999980352
 20
-279.1113116887089
 30
0.0
 11
15.99999999980352
 21
-279.1113116887089
 31
0.0
  0
LINE
  5
22C
330
69
100
AcDbEntity
  8
0
  6
Continuous
 62
     7
100
AcDbLine
 10
47.99999999980352
 20
-238.6113116887089
 30
0.0
 11
47.99999999980352
 21
-279.1113116887089
 31
0.0
  0
LINE
  5
22D
330
69
100
AcDbEntity
  8
0
  6
Continuous
 62
     7
100
AcDbLine
 10
47.06217782629392
 20
-282.6113116887089
 30
0.0
 11
47.99999999980352
 21
-279.1113116887089
 31
0.0
  0
LINE
  5
22E
330
69
100
AcDbEntity
  8
0
  6
Continuous
 62
     3
100
AcDbLine
 10
56.99999999980352
 20
-206.6113449497706
 30
0.0
 11
6.99999999980353
 21
-206.6113449497706
 31
0.0
  0
LINE
  5
22F
330
69
100
AcDbEntity
  8
0
  6
Continuous
 62
     7
100
AcDbLine
 10
56.06217782629463
 20
-150.611311688709
 30
0.0
 11
7.93782217331253
 21
-150.611311688709
 31
0.0
  0
LINE
  5
230
330
69
100
AcDbEntity
  8
0
  6
Continuous
 62
     7
100
AcDbLine
 10
56.99999999980352
 20
-154.111311688709
 30
0.0
 11
6.99999999980353
 21
-154.111311688709
 31
0.0
  0
LINE
  5
231
330
69
100
AcDbEntity
  8
0
  6
Continuous
 62
     7
100
AcDbLine
 10
7.93782217331253
 20
-150.611311688709
 30
0.0
 11
6.99999999980353
 21
-154.111311688709
 31
0.0
  0
LINE
  5
232
330
69
100
AcDbEntity
  8
0
  6
Continuous
 62
     7
100
AcDbLine
 10
47.06217782629392
 20
-282.6113116887089
 30
0.0
 11
16.93782217331324
 21
-282.6113116887089
 31
0.0
  0
LINE
  5
233
330
69
100
AcDbEntity
  8
0
  6
Continuous
 62
     7
100
AcDbLine
 10
15.99999999980352
 20
-238.6113116887089
 30
0.0
 11
15.99999999980352
 21
-279.1113116887089
 31
0.0
  0
LINE
  5
234
330
69
100
AcDbEntity
  8
0
  6
Continuous
 62
     7
100
AcDbLine
 10
14.99999999980352
 20
-237.6113116887089
 30
0.0
 11
12.99999999980352
 21
-237.6113116887089
 31
0.0
  0
LINE
  5
235
330
69
100
AcDbEntity
  8
0
  6
Continuous
 62
     7
100
AcDbLine
 10
11.99999999980352
 20
-208.6113449497706
 30
0.0
 11
11.99999999980352
 21
-236.6113116887089
 31
0.0
  0
LINE
  5
236
330
69
100
AcDbEntity
  8
0
  6
Continuous
 62
     7
100
AcDbLine
 10
10.99999999980352
 20
-207.6113449497706
 30
0.0
 11
7.99999999980353
 21
-207.6113449497706
 31
0.0
  0
LINE
  5
237
330
69
100
AcDbEntity
  8
0
  6
Continuous
 62
     7
100
AcDbLine
 10
6.99999999980353
 20
-154.111311688709
 30
0.0
 11
6.99999999980353
 21
-206.6113449497706
 31
0.0
  0
LINE
  5
238
330
69
100
AcDbEntity
  8
0
  6
Continuous
 62
     7
100
AcDbLine
 10
16.93782217331324
 20
-282.6113116887089
 30
0.0
 11
15.99999999980352
 21
-279.1113116887089
 31
0.0
  0
LINE
  5
239
330
69
100
AcDbEntity
  8
0
  6
Continuous
 62
     3
100
AcDbLine
 10
51.99999999980352
 20
-236.6113116887089
 30
0.0
 11
11.99999999980352
 21
-236.6113116887089
 31
0.0
  0
LINE
  5
23A
330
69
100
AcDbEntity
  8
0
  6
Continuous
 62
     3
100
AcDbLine
 10
51.99999999980352
 20
-208.6113449497706
 30
0.0
 11
11.99999999980352
 21
-208.6113449497706
 31
0.0
  0
LINE
  5
23B
330
69
100
AcDbEntity
  8
0
  6
Continuous
 62
     7
100
AcDbLine
 10
52.99999999980352
 20
-207.6113449497706
 30
0.0
 11
10.99999999980352
 21
-207.6113449497706
 31
0.0
  0
ARC
  5
23C
330
69
100
AcDbEntity
  8
0
  6
Continuous
 62
     7
100
AcDbCircle
 10
48.99999999980352
 20
-238.6113116887089
 30
0.0
 40
1.0
100
AcDbArc
 50
90.0
 51
180.0
  0
ARC
  5
23D
330
69
100
AcDbEntity
  8
0
  6
Continuous
 62
     7
100
AcDbCircle
 10
55.99999999980352
 20
-206.6113449497706
 30
0.0
 40
1.0
100
AcDbArc
 50
-90.0
 51
0.0
  0
ARC
  5
23E
330
69
100
AcDbEntity
  8
0
  6
Continuous
 62
     7
100
AcDbCircle
 10
50.99999999980352
 20
-236.6113116887089
 30
0.0
 40
1.0
100
AcDbArc
 50
-90.0
 51
0.0
  0
ARC
  5
23F
330
69
100
AcDbEntity
  8
0
  6
Continuous
 62
     7
100
AcDbCircle
 10
14.99999999980352
 20
-238.6113116887089
 30
0.0
 40
1.0
100
AcDbArc
 50
0.0
 51
90.0
  0
ARC
  5
240
330
69
100
AcDbEntity
  8
0
  6
Continuous
 62
     7
100
AcDbCircle
 10
7.99999999980353
 20
-206.6113449497706
 30
0.0
 40
1.0
100
AcDbArc
 50
180.0
 51
-90.0
  0
ARC
  5
241
330
69
100
AcDbEntity
  8
0
  6
Continuous
 62
     7
100
AcDbCircle
 10
12.99999999980352
 20
-236.6113116887089
 30
0.0
 40
1.0
100
AcDbArc
 50
180.0
 51
-90.0
  0
ARC
  5
242
330
69
100
AcDbEntity
  8
0
  6
Continuous
 62
     7
100
AcDbCircle
 10
52.99999999980352
 20
-208.6113449497706
 30
0.0
 40
1.0
100
AcDbArc
 50
90.0
 51
180.0
  0
ARC
  5
243
330
69
100
AcDbEntity
  8
0
  6
Continuous
 62
     7
100
AcDbCircle
 10
10.99999999980352
 20
-208.6113449497706
 30
0.0
 40
1.0
100
AcDbArc
 50
0.0
 51
90.0
  0
ENDBLK
  5
6B
330
69
100
AcDbEntity
  8
0
100
AcDbBlockEnd
  0
BLOCK
  5
73
330
6C
100
AcDbEntity
  8
0
100
AcDbBlockBegin
  2
Bgr_903__8
 70
     0
 71
     0
 10
2.49999999980353
 20
-282.6113116887089
 30
0.0
  3
Bgr_903__8
  1

  0
INSERT
  5
6D
330
6C
100
AcDbEntity
  8
0
100
AcDbBlockReference
  2
01008D-KeildichtungT40
 10
9.58845726792353
 20
-110.8999651193249
 30
0.0
  0
INSERT
  5
6E
330
6C
100
AcDbEntity
  8
0
100
AcDbBlockReference
  2
HL903-Deckel-HL-10893__5
 10
2.49999999980353
 20
-47.99999838039447
 30
0.0
  0
INSERT
  5
6F
330
6C
100
AcDbEntity
  8
0
100
AcDbBlockReference
  2
HL903-Koerper-10892__6
 10
4.49999999980353
 20
-95.99999838039447
 30
0.0
  0
INSERT
  5
70
330
6C
100
AcDbEntity
  8
0
100
AcDbBlockReference
  2
HL903-Schutzgitter-10895__7
 10
56.14292811785924
 20
-48.14999838039448
 30
0.0
  0
INSERT
  5
71
330
6C
100
AcDbEntity
  8
0
100
AcDbBlockReference
  2
01047D-Holländermutter6_4
 10
3.49999999980363
 20
-133.9198910370417
 30
0.0
  0
INSERT
  5
72
330
6C
100
AcDbEntity
  8
0
100
AcDbBlockReference
  2
0904_0E-AnschlußadapterDN30_40_50
 10
6.99999999980353
 20
-282.6113116887089
 30
0.0
  0
ENDBLK
  5
74
330
6C
100
AcDbEntity
  8
0
100
AcDbBlockEnd
  0
BLOCK
  5
77
330
75
100
AcDbEntity
  8
0
100
AcDbBlockBegin
  2
SA_links3
 70
     0
 71
     0
 10
33.99999999999974
 20
-38.99999999999987
 30
0.0
  3
SA_links3
  1

  0
INSERT
  5
76
330
75
100
AcDbEntity
  8
0
100
AcDbBlockReference
  2
Bgr_903__8
 10
2.49999999980353
 20
-282.6113116887089
 30
0.0
  0
DIMENSION
  5
24E
330
75
100
AcDbEntity
  8
1
100
AcDbDimension
  2
*D18
 10
-22.0466685062657
 20
18.00000161961718
 30
0.0
 11
-27.5466685062657
 21
-38.7496175674241
 31
0.0
 70
    32
  1
<>
 71
     5
 42
-1.0
 53
90.0
  3
ME10_DIM_12
100
AcDbAlignedDimension
 13
9.57749999980354
 23
-95.99999838039447
 33
0.0
 14
6.49999999980353
 24
18.00000161961718
 34
0.0
 50
90.0
100
AcDbRotatedDimension
  0
DIMENSION
  5
259
330
75
100
AcDbEntity
  8
1
100
AcDbDimension
  2
*D19
 10
-5.31106608024248
 20
18.00000161961718
 30
0.0
 11
-10.81106608024248
 21
-12.6687829729931
 31
0.0
 70
    32
  1
<>
 71
     5
 42
-1.0
 53
90.0
  3
ME10_DIM_13
100
AcDbAlignedDimension
 13
4.49999999980353
 23
-47.99999838039447
 33
0.0
 14
6.49999999980353
 24
18.00000161961718
 34
0.0
 50
90.0
100
AcDbRotatedDimension
  0
DIMENSION
  5
265
330
75
100
AcDbEntity
  8
1
100
AcDbDimension
  2
*D20
 10
56.99999999980352
 20
-67.02950955225131
 30
0.0
 11
84.503616089487
 21
-61.52950955225131
 31
0.0
 70
    32
  1
<>
 71
     5
 42
-1.0
 53
0.00013888888889
  3
ME10_DIM_14
100
AcDbAlignedDimension
 13
6.99999999980353
 23
-77.9999983803944
 33
0.0
 14
56.99999999980352
 24
-77.99999838039446
 34
0.0
100
AcDbRotatedDimension
  0
DIMENSION
  5
271
330
75
100
AcDbEntity
  8
1
100
AcDbDimension
  2
*D21
 10
55.90149999980352
 20
-88.2129774330238
 30
0.0
 11
82.1510223994993
 21
-82.7129774330238
 31
0.0
 70
    32
  1
R6/4"
 71
     5
 42
-1.0
 53
0.00013888888889
  3
ME10_DIM_15
100
AcDbAlignedDimension
 13
8.09849999980354
 23
-94.52099838039447
 33
0.0
 14
55.90149999980352
 24
-94.52099838039447
 34
0.0
100
AcDbRotatedDimension
  0
DIMENSION
  5
27C
330
75
100
AcDbEntity
  8
1
100
AcDbDimension
  2
*D22
 10
67.67255452002712
 20
-282.6113116887089
 30
0.0
 11
62.17255452002713
 21
-262.0588237282519
 31
0.0
 70
    32
  1
<>
 71
     5
 42
-1.0
 53
90.0
  3
ME10_DIM_16
100
AcDbAlignedDimension
 13
50.99999999980352
 23
-237.6113116887089
 33
0.0
 14
47.06217782629392
 24
-282.6113116887089
 34
0.0
 50
90.0
100
AcDbRotatedDimension
  0
DIMENSION
  5
288
330
75
100
AcDbEntity
  8
1
100
AcDbDimension
  2
*D23
 10
56.99999999980352
 20
-171.965312796585
 30
0.0
 11
-15.2463563659898
 21
-166.465312796585
 31
0.0
 70
    32
  1
<>
 71
     5
 42
-1.0
 53
0.00013888888889
  3
ME10_DIM_17
100
AcDbAlignedDimension
 13
6.99999999980353
 23
-154.111311688709
 33
0.0
 14
56.99999999980352
 24
-154.111311688709
 34
0.0
100
AcDbRotatedDimension
  0
DIMENSION
  5
294
330
75
100
AcDbEntity
  8
1
100
AcDbDimension
  2
*D24
 10
51.99999999980352
 20
-229.0024429250739
 30
0.0
 11
-9.12961277202194
 21
-223.5024429250739
 31
0.0
 70
    32
  1
<>
 71
     5
 42
-1.0
 53
0.00013888888889
  3
ME10_DIM_18
100
AcDbAlignedDimension
 13
11.99999999980352
 23
-236.6113116887089
 33
0.0
 14
51.99999999980352
 24
-236.6113116887089
 34
0.0
100
AcDbRotatedDimension
  0
DIMENSION
  5
2A0
330
75
100
AcDbEntity
  8
1
100
AcDbDimension
  2
*D25
 10
15.99999999980352
 20
-265.0813272437379
 30
0.0
 11
-7.71805655802933
 21
-259.5813272437379
 31
0.0
 70
    32
  1
<>
 71
     5
 42
-1.0
 53
0.00013888888889
  3
ME10_DIM_19
100
AcDbAlignedDimension
 13
47.99999999980352
 23
-279.1113116887089
 33
0.0
 14
15.99999999980352
 24
-279.1113116887089
 34
0.0
100
AcDbRotatedDimension
  0
DIMENSION
  5
2AB
330
75
100
AcDbEntity
  8
1
100
AcDbDimension
  2
*D26
 10
72.2701289015511
 20
-150.611311688709
 30
0.0
 11
66.7701289015511
 21
-176.4340459523279
 31
0.0
 70
    32
  1
<>
 71
     5
 42
-1.0
 53
90.0
  3
ME10_DIM_20
100
AcDbAlignedDimension
 13
55.99999999980352
 23
-207.6113449497706
 33
0.0
 14
56.06217782629463
 24
-150.611311688709
 34
0.0
 50
90.0
100
AcDbRotatedDimension
  0
DIMENSION
  5
2B6
330
75
100
AcDbEntity
  8
1
100
AcDbDimension
  2
*D27
 10
88.7382847314648
 20
-150.611311688709
 30
0.0
 11
83.2382847314648
 21
-199.255399600441
 31
0.0
 70
    32
  1
<>
 71
     5
 42
-1.0
 53
90.0
  3
ME10_DIM_21
100
AcDbAlignedDimension
 13
50.99999999980352
 23
-237.6113116887089
 33
0.0
 14
56.06217782629463
 24
-150.611311688709
 34
0.0
 50
90.0
100
AcDbRotatedDimension
  0
ENDBLK
  5
78
330
75
100
AcDbEntity
  8
0
100
AcDbBlockEnd
  0
BLOCK
  5
7C
330
79
100
AcDbEntity
  8
0
100
AcDbBlockBegin
  2
2
 70
     0
 71
     0
 10
0.0
 20
0.0
 30
0.0
  3
2
  1

  0
INSERT
  5
7A
330
79
100
AcDbEntity
  8
0
100
AcDbBlockReference
  2
Drfsicht3
 10
33.99999955859551
 20
-340.1113123342175
 30
0.0
  0
INSERT
  5
7B
330
79
100
AcDbEntity
  8
0
100
AcDbBlockReference
  2
SA_links3
 10
33.99999999999974
 20
-38.99999999999987
 30
0.0
  0
ENDBLK
  5
7D
330
79
100
AcDbEntity
  8
0
100
AcDbBlockEnd
  0
BLOCK
  5
F3
330
EB
100
AcDbEntity
  8
0
100
AcDbBlockBegin
  2
*D16
 70
     1
 71
     0
 10
0.0
 20
0.0
 30
0.0
  3
*D16
  1

  0
LINE
  5
EC
330
EB
100
AcDbEntity
  8
1
  6
Continuous
 62
     4
100
AcDbLine
 10
87.6117359066603
 20
-376.2927739595737
 30
0.0
 11
87.6117359066603
 21
-303.9298507088537
 31
0.0
  0
LINE
  5
ED
330
EB
100
AcDbEntity
  8
1
  6
Continuous
 62
     4
100
AcDbLine
 10
53.70919101612935
 20
-376.2927739595737
 30
0.0
 11
89.6117359066603
 21
-376.2927739595737
 31
0.0
  0
LINE
  5
EE
330
EB
100
AcDbEntity
  8
1
  6
Continuous
 62
     4
100
AcDbLine
 10
52.70919101612003
 20
-303.9298507088537
 30
0.0
 11
89.6117359066603
 21
-303.9298507088537
 31
0.0
  0
SOLID
  5
EF
330
EB
100
AcDbEntity
  8
1
 62
     4
100
AcDbTrace
 10
86.69016842354853
 20
-369.2927739595737
 30
0.0
 11
88.53330338977207
 21
-369.2927739595737
 31
0.0
 12
87.6117359066603
 22
-376.2927739595737
 32
0.0
 13
87.6117359066603
 23
-376.2927739595737
 33
0.0
  0
SOLID
  5
F0
330
EB
100
AcDbEntity
  8
1
 62
     4
100
AcDbTrace
 10
88.07251964821619
 20
-307.4298507088537
 30
0.0
 11
87.15095216510441
 21
-307.4298507088537
 31
0.0
 12
87.6117359066603
 22
-303.9298507088537
 32
0.0
 13
87.6117359066603
 23
-303.9298507088537
 33
0.0
  0
MTEXT
  5
F2
330
EB
100
AcDbEntity
  8
1
 62
     1
100
AcDbMText
 10
85.6117359066603
 20
-342.971862949926
 30
0.0
 40
7.0
 41
0.0
 71
     7
 72
     1
  1
72
  7
CONVERTER_11
 11
0.0
 21
1.0
 31
0.0
 73
     1
 44
0.60024009603842
  0
ENDBLK
  5
F4
330
EB
100
AcDbEntity
  8
0
100
AcDbBlockEnd
  0
BLOCK
  5
FE
330
F7
100
AcDbEntity
  8
0
100
AcDbBlockBegin
  2
*D17
 70
     1
 71
     0
 10
0.0
 20
0.0
 30
0.0
  3
*D17
  1

  0
LINE
  5
F8
330
F7
100
AcDbEntity
  8
1
  6
Continuous
 62
     4
100
AcDbLine
 10
65.4999995584009
 20
-393.434014375805
 30
0.0
 11
2.49999955839946
 21
-393.434014375805
 31
0.0
  0
LINE
  5
F9
330
F7
100
AcDbEntity
  8
1
  6
Continuous
 62
     4
100
AcDbLine
 10
65.4999995584009
 20
-342.1113123342132
 30
0.0
 11
65.4999995584009
 21
-395.434014375805
 31
0.0
  0
LINE
  5
FA
330
F7
100
AcDbEntity
  8
1
  6
Continuous
 62
     4
100
AcDbLine
 10
2.49999955839946
 20
-343.1113123342132
 30
0.0
 11
2.49999955839946
 21
-395.434014375805
 31
0.0
  0
SOLID
  5
FB
330
F7
100
AcDbEntity
  8
1
 62
     4
100
AcDbTrace
 10
58.4999995584009
 20
-394.3555818589168
 30
0.0
 11
58.4999995584009
 21
-392.5124468926933
 31
0.0
 12
65.4999995584009
 22
-393.434014375805
 32
0.0
 13
65.4999995584009
 23
-393.434014375805
 33
0.0
  0
SOLID
  5
FC
330
F7
100
AcDbEntity
  8
1
 62
     4
100
AcDbTrace
 10
5.99999955839946
 20
-392.9732306342491
 30
0.0
 11
5.99999955839946
 21
-393.8947981173609
 31
0.0
 12
2.49999955839946
 22
-393.434014375805
 32
0.0
 13
2.49999955839946
 23
-393.434014375805
 33
0.0
  0
MTEXT
  5
FD
330
F7
100
AcDbEntity
  8
1
 62
     1
100
AcDbMText
 10
28.2663593384167
 20
-391.434014375805
 30
0.0
 40
7.0
 41
0.0
 71
     7
 72
     1
  1
63
  7
CONVERTER_11
 11
0.9999999999970619
 21
2.424068405545306E-6
 31
0.0
 73
     1
 44
0.60024009603842
  0
ENDBLK
  5
FF
330
F7
100
AcDbEntity
  8
0
100
AcDbBlockEnd
  0
BLOCK
  5
24B
330
244
100
AcDbEntity
  8
0
100
AcDbBlockBegin
  2
*D18
 70
     1
 71
     0
 10
0.0
 20
0.0
 30
0.0
  3
*D18
  1

  0
LINE
  5
245
330
244
100
AcDbEntity
  8
1
  6
Continuous
 62
     4
100
AcDbLine
 10
-22.0466685062657
 20
18.00000161961718
 30
0.0
 11
-22.0466685062657
 21
-95.99999838039447
 31
0.0
  0
LINE
  5
246
330
244
100
AcDbEntity
  8
1
  6
Continuous
 62
     4
100
AcDbLine
 10
6.49999999980354
 20
18.00000161961718
 30
0.0
 11
-24.0466685062657
 21
18.00000161961718
 31
0.0
  0
LINE
  5
247
330
244
100
AcDbEntity
  8
1
  6
Continuous
 62
     4
100
AcDbLine
 10
9.57749999980354
 20
-95.99999838039447
 30
0.0
 11
-24.0466685062657
 21
-95.99999838039447
 31
0.0
  0
SOLID
  5
248
330
244
100
AcDbEntity
  8
1
 62
     4
100
AcDbTrace
 10
-21.12510102315393
 20
11.00000161961718
 30
0.0
 11
-22.96823598937747
 21
11.00000161961718
 31
0.0
 12
-22.0466685062657
 22
18.00000161961718
 32
0.0
 13
-22.0466685062657
 23
18.00000161961718
 33
0.0
  0
SOLID
  5
249
330
244
100
AcDbEntity
  8
1
 62
     4
100
AcDbTrace
 10
-22.96823598937747
 20
-88.99999838039447
 30
0.0
 11
-21.12510102315393
 21
-88.99999838039447
 31
0.0
 12
-22.0466685062657
 22
-95.99999838039447
 32
0.0
 13
-22.0466685062657
 23
-95.99999838039447
 33
0.0
  0
MTEXT
  5
24A
330
244
100
AcDbEntity
  8
1
 62
     1
100
AcDbMText
 10
-24.0466685062657
 20
-45.0496175674241
 30
0.0
 40
7.0
 41
0.0
 71
     7
 72
     1
  1
114
  7
CONVERTER_11
 11
0.0
 21
1.0
 31
0.0
 73
     1
 44
0.60024009603842
  0
ENDBLK
  5
24C
330
244
100
AcDbEntity
  8
0
100
AcDbBlockEnd
  0
BLOCK
  5
256
330
24F
100
AcDbEntity
  8
0
100
AcDbBlockBegin
  2
*D19
 70
     1
 71
     0
 10
0.0
 20
0.0
 30
0.0
  3
*D19
  1

  0
LINE
  5
250
330
24F
100
AcDbEntity
  8
1
  6
Continuous
 62
     4
100
AcDbLine
 10
-5.31106608024248
 20
18.00000161961718
 30
0.0
 11
-5.31106608024248
 21
-47.99999838039449
 31
0.0
  0
LINE
  5
251
330
24F
100
AcDbEntity
  8
1
  6
Continuous
 62
     4
100
AcDbLine
 10
6.49999999980354
 20
18.00000161961718
 30
0.0
 11
-7.31106608024248
 21
18.00000161961718
 31
0.0
  0
LINE
  5
252
330
24F
100
AcDbEntity
  8
1
  6
Continuous
 62
     4
100
AcDbLine
 10
4.49999999980354
 20
-47.99999838039449
 30
0.0
 11
-7.31106608024248
 21
-47.99999838039449
 31
0.0
  0
SOLID
  5
253
330
24F
100
AcDbEntity
  8
1
 62
     4
100
AcDbTrace
 10
-4.38949859713071
 20
11.00000161961718
 30
0.0
 11
-6.23263356335425
 21
11.00000161961718
 31
0.0
 12
-5.31106608024248
 22
18.00000161961718
 32
0.0
 13
-5.31106608024248
 23
18.00000161961718
 33
0.0
  0
SOLID
  5
254
330
24F
100
AcDbEntity
  8
1
 62
     4
100
AcDbTrace
 10
-5.77184982179836
 20
-44.49999838039449
 30
0.0
 11
-4.85028233868659
 21
-44.49999838039449
 31
0.0
 12
-5.31106608024248
 22
-47.99999838039449
 32
0.0
 13
-5.31106608024248
 23
-47.99999838039449
 33
0.0
  0
MTEXT
  5
255
330
24F
100
AcDbEntity
  8
1
 62
     1
100
AcDbMText
 10
-7.31106608024248
 20
-17.9187829729931
 30
0.0
 40
7.0
 41
0.0
 71
     7
 72
     1
  1
66
  7
CONVERTER_11
 11
0.0
 21
1.0
 31
0.0
 73
     1
 44
0.60024009603842
  0
ENDBLK
  5
257
330
24F
100
AcDbEntity
  8
0
100
AcDbBlockEnd
  0
BLOCK
  5
262
330
25A
100
AcDbEntity
  8
0
100
AcDbBlockBegin
  2
*D20
 70
     1
 71
     0
 10
0.0
 20
0.0
 30
0.0
  3
*D20
  1

  0
LINE
  5
25B
330
25A
100
AcDbEntity
  8
1
  6
Continuous
 62
     4
100
AcDbLine
 10
97.453616089487
 20
-67.02950955225131
 30
0.0
 11
56.99999999980352
 21
-67.02950955225131
 31
0.0
  0
LINE
  5
25C
330
25A
100
AcDbEntity
  8
1
  6
Continuous
 62
     4
100
AcDbLine
 10
56.99999999980352
 20
-67.02950955225131
 30
0.0
 11
6.99999999980353
 21
-67.02950955225131
 31
0.0
  0
LINE
  5
25D
330
25A
100
AcDbEntity
  8
1
  6
Continuous
 62
     4
100
AcDbLine
 10
56.99999999980352
 20
-77.99999838039446
 30
0.0
 11
56.99999999980352
 21
-65.02950955225131
 31
0.0
  0
LINE
  5
25E
330
25A
100
AcDbEntity
  8
1
  6
Continuous
 62
     4
100
AcDbLine
 10
6.99999999980353
 20
-77.9999983803944
 30
0.0
 11
6.99999999980353
 21
-65.02950955225131
 31
0.0
  0
SOLID
  5
25F
330
25A
100
AcDbEntity
  8
1
 62
     4
100
AcDbTrace
 10
49.99999999980352
 20
-67.95107703536308
 30
0.0
 11
49.99999999980352
 21
-66.10794206913954
 31
0.0
 12
56.99999999980352
 22
-67.02950955225131
 32
0.0
 13
56.99999999980352
 23
-67.02950955225131
 33
0.0
  0
SOLID
  5
260
330
25A
100
AcDbEntity
  8
1
 62
     4
100
AcDbTrace
 10
10.49999999980353
 20
-66.56872581069543
 30
0.0
 11
10.49999999980353
 21
-67.4902932938072
 31
0.0
 12
6.99999999980353
 22
-67.02950955225131
 32
0.0
 13
6.99999999980353
 23
-67.02950955225131
 33
0.0
  0
MTEXT
  5
261
330
25A
100
AcDbEntity
  8
1
 62
     1
100
AcDbMText
 10
75.47361608952073
 20
-65.0295373805566
 30
0.0
 40
7.0
 41
0.0
 71
     7
 72
     1
  1
\C1;DN\C1;50
  7
CONVERTER_11
 11
0.9999999999970619
 21
2.424068405545306E-6
 31
0.0
 73
     1
 44
0.60024009603842
  0
ENDBLK
  5
263
330
25A
100
AcDbEntity
  8
0
100
AcDbBlockEnd
  0
BLOCK
  5
26E
330
266
100
AcDbEntity
  8
0
100
AcDbBlockBegin
  2
*D21
 70
     1
 71
     0
 10
0.0
 20
0.0
 30
0.0
  3
*D21
  1

  0
LINE
  5
267
330
266
100
AcDbEntity
  8
1
  6
Continuous
 62
     4
100
AcDbLine
 10
95.80102239949929
 20
-88.2129774330238
 30
0.0
 11
55.90149999980352
 21
-88.2129774330238
 31
0.0
  0
LINE
  5
268
330
266
100
AcDbEntity
  8
1
  6
Continuous
 62
     4
100
AcDbLine
 10
55.90149999980352
 20
-88.2129774330238
 30
0.0
 11
8.09849999980354
 21
-88.2129774330238
 31
0.0
  0
LINE
  5
269
330
266
100
AcDbEntity
  8
1
  6
Continuous
 62
     4
100
AcDbLine
 10
55.90149999980352
 20
-94.52099838039447
 30
0.0
 11
55.90149999980352
 21
-86.2129774330238
 31
0.0
  0
LINE
  5
26A
330
266
100
AcDbEntity
  8
1
  6
Continuous
 62
     4
100
AcDbLine
 10
8.09849999980354
 20
-94.52099838039447
 30
0.0
 11
8.09849999980354
 21
-86.2129774330238
 31
0.0
  0
SOLID
  5
26B
330
266
100
AcDbEntity
  8
1
 62
     4
100
AcDbTrace
 10
48.90149999980352
 20
-89.13454491613557
 30
0.0
 11
48.90149999980352
 21
-87.29140994991202
 31
0.0
 12
55.90149999980352
 22
-88.2129774330238
 32
0.0
 13
55.90149999980352
 23
-88.2129774330238
 33
0.0
  0
SOLID
  5
26C
330
266
100
AcDbEntity
  8
1
 62
     4
100
AcDbTrace
 10
11.59849999980354
 20
-87.75219369146791
 30
0.0
 11
11.59849999980354
 21
-88.67376117457968
 31
0.0
 12
8.09849999980354
 22
-88.2129774330238
 32
0.0
 13
8.09849999980354
 23
-88.2129774330238
 33
0.0
  0
MTEXT
  5
26D
330
266
100
AcDbEntity
  8
1
 62
     1
100
AcDbMText
 10
71.16102239951616
 20
-86.21299134717644
 30
0.0
 40
7.0
 41
0.0
 71
     7
 72
     1
  1
\C1;R\C1;6/4"\C1;
  7
CONVERTER_11
 11
0.9999999999970619
 21
2.424068405545306E-6
 31
0.0
 73
     1
 44
0.60024009603842
  0
ENDBLK
  5
26F
330
266
100
AcDbEntity
  8
0
100
AcDbBlockEnd
  0
BLOCK
  5
279
330
272
100
AcDbEntity
  8
0
100
AcDbBlockBegin
  2
*D22
 70
     1
 71
     0
 10
0.0
 20
0.0
 30
0.0
  3
*D22
  1

  0
LINE
  5
273
330
272
100
AcDbEntity
  8
1
  6
Continuous
 62
     4
100
AcDbLine
 10
67.67255452002712
 20
-282.6113116887089
 30
0.0
 11
67.67255452002712
 21
-237.6113116887089
 31
0.0
  0
LINE
  5
274
330
272
100
AcDbEntity
  8
1
  6
Continuous
 62
     4
100
AcDbLine
 10
47.0621778262939
 20
-282.6113116887089
 30
0.0
 11
69.67255452002712
 21
-282.6113116887089
 31
0.0
  0
LINE
  5
275
330
272
100
AcDbEntity
  8
1
  6
Continuous
 62
     4
100
AcDbLine
 10
50.99999999980352
 20
-237.6113116887089
 30
0.0
 11
69.67255452002712
 21
-237.6113116887089
 31
0.0
  0
SOLID
  5
276
330
272
100
AcDbEntity
  8
1
 62
     4
100
AcDbTrace
 10
66.75098703691535
 20
-275.6113116887089
 30
0.0
 11
68.59412200313889
 21
-275.6113116887089
 31
0.0
 12
67.67255452002712
 22
-282.6113116887089
 32
0.0
 13
67.67255452002712
 23
-282.6113116887089
 33
0.0
  0
SOLID
  5
277
330
272
100
AcDbEntity
  8
1
 62
     4
100
AcDbTrace
 10
68.133338261583
 20
-241.1113116887089
 30
0.0
 11
67.21177077847123
 21
-241.1113116887089
 31
0.0
 12
67.67255452002712
 22
-237.6113116887089
 32
0.0
 13
67.67255452002712
 23
-237.6113116887089
 33
0.0
  0
MTEXT
  5
278
330
272
100
AcDbEntity
  8
1
 62
     1
100
AcDbMText
 10
65.67255452002712
 20
-267.3088237282519
 30
0.0
 40
7.0
 41
0.0
 71
     7
 72
     1
  1
45
  7
CONVERTER_11
 11
0.0
 21
1.0
 31
0.0
 73
     1
 44
0.60024009603842
  0
ENDBLK
  5
27A
330
272
100
AcDbEntity
  8
0
100
AcDbBlockEnd
  0
BLOCK
  5
285
330
27D
100
AcDbEntity
  8
0
100
AcDbBlockBegin
  2
*D23
 70
     1
 71
     0
 10
0.0
 20
0.0
 30
0.0
  3
*D23
  1

  0
LINE
  5
27E
330
27D
100
AcDbEntity
  8
1
  6
Continuous
 62
     4
100
AcDbLine
 10
56.99999999980352
 20
-171.965312796585
 30
0.0
 11
6.99999999980354
 21
-171.965312796585
 31
0.0
  0
LINE
  5
27F
330
27D
100
AcDbEntity
  8
1
  6
Continuous
 62
     4
100
AcDbLine
 10
6.99999999980354
 20
-171.965312796585
 30
0.0
 11
-28.1963563659898
 21
-171.965312796585
 31
0.0
  0
LINE
  5
280
330
27D
100
AcDbEntity
  8
1
  6
Continuous
 62
     4
100
AcDbLine
 10
56.99999999980352
 20
-154.111311688709
 30
0.0
 11
56.99999999980352
 21
-173.965312796585
 31
0.0
  0
LINE
  5
281
330
27D
100
AcDbEntity
  8
1
  6
Continuous
 62
     4
100
AcDbLine
 10
6.99999999980354
 20
-154.111311688709
 30
0.0
 11
6.99999999980354
 21
-173.965312796585
 31
0.0
  0
SOLID
  5
282
330
27D
100
AcDbEntity
  8
1
 62
     4
100
AcDbTrace
 10
49.99999999980352
 20
-172.8868802796968
 30
0.0
 11
49.99999999980352
 21
-171.0437453134732
 31
0.0
 12
56.99999999980352
 22
-171.965312796585
 32
0.0
 13
56.99999999980352
 23
-171.965312796585
 33
0.0
  0
SOLID
  5
283
330
27D
100
AcDbEntity
  8
1
 62
     4
100
AcDbTrace
 10
10.49999999980354
 20
-171.5045290550291
 30
0.0
 11
10.49999999980354
 21
-172.4260965381409
 31
0.0
 12
6.99999999980354
 22
-171.965312796585
 32
0.0
 13
6.99999999980354
 23
-171.965312796585
 33
0.0
  0
MTEXT
  5
284
330
27D
100
AcDbEntity
  8
1
 62
     1
100
AcDbMText
 10
-24.27635636595607
 20
-169.9653406248903
 30
0.0
 40
7.0
 41
0.0
 71
     7
 72
     1
  1
\C1;DN\C1;50
  7
CONVERTER_11
 11
0.9999999999970619
 21
2.424068405545306E-6
 31
0.0
 73
     1
 44
0.60024009603842
  0
ENDBLK
  5
286
330
27D
100
AcDbEntity
  8
0
100
AcDbBlockEnd
  0
BLOCK
  5
291
330
289
100
AcDbEntity
  8
0
100
AcDbBlockBegin
  2
*D24
 70
     1
 71
     0
 10
0.0
 20
0.0
 30
0.0
  3
*D24
  1

  0
LINE
  5
28A
330
289
100
AcDbEntity
  8
1
  6
Continuous
 62
     4
100
AcDbLine
 10
51.99999999980352
 20
-229.0024429250739
 30
0.0
 11
11.99999999980352
 21
-229.0024429250739
 31
0.0
  0
LINE
  5
28B
330
289
100
AcDbEntity
  8
1
  6
Continuous
 62
     4
100
AcDbLine
 10
11.99999999980352
 20
-229.0024429250739
 30
0.0
 11
-22.07961277202195
 21
-229.0024429250739
 31
0.0
  0
LINE
  5
28C
330
289
100
AcDbEntity
  8
1
  6
Continuous
 62
     4
100
AcDbLine
 10
51.99999999980352
 20
-236.6113116887089
 30
0.0
 11
51.99999999980352
 21
-227.0024429250739
 31
0.0
  0
LINE
  5
28D
330
289
100
AcDbEntity
  8
1
  6
Continuous
 62
     4
100
AcDbLine
 10
11.99999999980352
 20
-236.6113116887089
 30
0.0
 11
11.99999999980352
 21
-227.0024429250739
 31
0.0
  0
SOLID
  5
28E
330
289
100
AcDbEntity
  8
1
 62
     4
100
AcDbTrace
 10
44.99999999980352
 20
-229.9240104081857
 30
0.0
 11
44.99999999980352
 21
-228.0808754419621
 31
0.0
 12
51.99999999980352
 22
-229.0024429250739
 32
0.0
 13
51.99999999980352
 23
-229.0024429250739
 33
0.0
  0
SOLID
  5
28F
330
289
100
AcDbEntity
  8
1
 62
     4
100
AcDbTrace
 10
15.49999999980352
 20
-228.541659183518
 30
0.0
 11
15.49999999980352
 21
-229.4632266666298
 31
0.0
 12
11.99999999980352
 22
-229.0024429250739
 32
0.0
 13
11.99999999980352
 23
-229.0024429250739
 33
0.0
  0
MTEXT
  5
290
330
289
100
AcDbEntity
  8
1
 62
     1
100
AcDbMText
 10
-18.15961277198821
 20
-227.0024707533792
 30
0.0
 40
7.0
 41
0.0
 71
     7
 72
     1
  1
\C1;DN\C1;40
  7
CONVERTER_11
 11
0.9999999999970619
 21
2.424068405545306E-6
 31
0.0
 73
     1
 44
0.60024009603842
  0
ENDBLK
  5
292
330
289
100
AcDbEntity
  8
0
100
AcDbBlockEnd
  0
BLOCK
  5
29D
330
295
100
AcDbEntity
  8
0
100
AcDbBlockBegin
  2
*D25
 70
     1
 71
     0
 10
0.0
 20
0.0
 30
0.0
  3
*D25
  1

  0
LINE
  5
296
330
295
100
AcDbEntity
  8
1
  6
Continuous
 62
     4
100
AcDbLine
 10
-20.66805655802933
 20
-265.0813272437379
 30
0.0
 11
15.99999999980352
 21
-265.0813272437379
 31
0.0
  0
LINE
  5
297
330
295
100
AcDbEntity
  8
1
  6
Continuous
 62
     4
100
AcDbLine
 10
15.99999999980352
 20
-265.0813272437379
 30
0.0
 11
47.99999999980352
 21
-265.0813272437379
 31
0.0
  0
LINE
  5
298
330
295
100
AcDbEntity
  8
1
  6
Continuous
 62
     4
100
AcDbLine
 10
15.99999999980352
 20
-279.111311688709
 30
0.0
 11
15.99999999980352
 21
-263.0813272437379
 31
0.0
  0
LINE
  5
299
330
295
100
AcDbEntity
  8
1
  6
Continuous
 62
     4
100
AcDbLine
 10
47.99999999980353
 20
-279.111311688709
 30
0.0
 11
47.99999999980353
 21
-263.0813272437379
 31
0.0
  0
SOLID
  5
29A
330
295
100
AcDbEntity
  8
1
 62
     4
100
AcDbTrace
 10
22.99999999980352
 20
-264.1597597606262
 30
0.0
 11
22.99999999980352
 21
-266.0028947268497
 31
0.0
 12
15.99999999980352
 22
-265.0813272437379
 32
0.0
 13
15.99999999980352
 23
-265.0813272437379
 33
0.0
  0
SOLID
  5
29B
330
295
100
AcDbEntity
  8
1
 62
     4
100
AcDbTrace
 10
44.49999999980352
 20
-265.5421109852938
 30
0.0
 11
44.49999999980352
 21
-264.620543502182
 31
0.0
 12
47.99999999980352
 22
-265.0813272437379
 32
0.0
 13
47.99999999980352
 23
-265.0813272437379
 33
0.0
  0
MTEXT
  5
29C
330
295
100
AcDbEntity
  8
1
 62
     1
100
AcDbMText
 10
-16.7480565579956
 20
-263.0813550720432
 30
0.0
 40
7.0
 41
0.0
 71
     7
 72
     1
  1
\C1;DN\C1;32
  7
CONVERTER_11
 11
0.9999999999970619
 21
2.424068405545306E-6
 31
0.0
 73
     1
 44
0.60024009603842
  0
ENDBLK
  5
29E
330
295
100
AcDbEntity
  8
0
100
AcDbBlockEnd
  0
BLOCK
  5
2A8
330
2A1
100
AcDbEntity
  8
0
100
AcDbBlockBegin
  2
*D26
 70
     1
 71
     0
 10
0.0
 20
0.0
 30
0.0
  3
*D26
  1

  0
LINE
  5
2A2
330
2A1
100
AcDbEntity
  8
1
  6
Continuous
 62
     4
100
AcDbLine
 10
72.2701289015511
 20
-150.611311688709
 30
0.0
 11
72.2701289015511
 21
-207.6113449497706
 31
0.0
  0
LINE
  5
2A3
330
2A1
100
AcDbEntity
  8
1
  6
Continuous
 62
     4
100
AcDbLine
 10
56.06217782629463
 20
-150.611311688709
 30
0.0
 11
74.2701289015511
 21
-150.611311688709
 31
0.0
  0
LINE
  5
2A4
330
2A1
100
AcDbEntity
  8
1
  6
Continuous
 62
     4
100
AcDbLine
 10
55.99999999980352
 20
-207.6113449497706
 30
0.0
 11
74.2701289015511
 21
-207.6113449497706
 31
0.0
  0
SOLID
  5
2A5
330
2A1
100
AcDbEntity
  8
1
 62
     4
100
AcDbTrace
 10
73.19169638466288
 20
-157.611311688709
 30
0.0
 11
71.34856141843933
 21
-157.611311688709
 31
0.0
 12
72.2701289015511
 22
-150.611311688709
 32
0.0
 13
72.2701289015511
 23
-150.611311688709
 33
0.0
  0
SOLID
  5
2A6
330
2A1
100
AcDbEntity
  8
1
 62
     4
100
AcDbTrace
 10
71.80934515999522
 20
-204.1113449497706
 30
0.0
 11
72.73091264310699
 21
-204.1113449497706
 31
0.0
 12
72.2701289015511
 22
-207.6113449497706
 32
0.0
 13
72.2701289015511
 23
-207.6113449497706
 33
0.0
  0
MTEXT
  5
2A7
330
2A1
100
AcDbEntity
  8
1
 62
     1
100
AcDbMText
 10
70.2701289015511
 20
-181.6840459523279
 30
0.0
 40
7.0
 41
0.0
 71
     7
 72
     1
  1
57
  7
CONVERTER_11
 11
0.0
 21
1.0
 31
0.0
 73
     1
 44
0.60024009603842
  0
ENDBLK
  5
2A9
330
2A1
100
AcDbEntity
  8
0
100
AcDbBlockEnd
  0
BLOCK
  5
2B3
330
2AC
100
AcDbEntity
  8
0
100
AcDbBlockBegin
  2
*D27
 70
     1
 71
     0
 10
0.0
 20
0.0
 30
0.0
  3
*D27
  1

  0
LINE
  5
2AD
330
2AC
100
AcDbEntity
  8
1
  6
Continuous
 62
     4
100
AcDbLine
 10
88.7382847314648
 20
-150.611311688709
 30
0.0
 11
88.7382847314648
 21
-237.6113116887089
 31
0.0
  0
LINE
  5
2AE
330
2AC
100
AcDbEntity
  8
1
  6
Continuous
 62
     4
100
AcDbLine
 10
56.06217782629463
 20
-150.611311688709
 30
0.0
 11
90.7382847314648
 21
-150.611311688709
 31
0.0
  0
LINE
  5
2AF
330
2AC
100
AcDbEntity
  8
1
  6
Continuous
 62
     4
100
AcDbLine
 10
50.99999999980352
 20
-237.6113116887089
 30
0.0
 11
90.7382847314648
 21
-237.6113116887089
 31
0.0
  0
SOLID
  5
2B0
330
2AC
100
AcDbEntity
  8
1
 62
     4
100
AcDbTrace
 10
89.65985221457657
 20
-157.611311688709
 30
0.0
 11
87.81671724835303
 21
-157.611311688709
 31
0.0
 12
88.7382847314648
 22
-150.611311688709
 32
0.0
 13
88.7382847314648
 23
-150.611311688709
 33
0.0
  0
SOLID
  5
2B1
330
2AC
100
AcDbEntity
  8
1
 62
     4
100
AcDbTrace
 10
88.27750098990892
 20
-234.1113116887089
 30
0.0
 11
89.19906847302069
 21
-234.1113116887089
 31
0.0
 12
88.7382847314648
 22
-237.6113116887089
 32
0.0
 13
88.7382847314648
 23
-237.6113116887089
 33
0.0
  0
MTEXT
  5
2B2
330
2AC
100
AcDbEntity
  8
1
 62
     1
100
AcDbMText
 10
86.7382847314648
 20
-204.505399600441
 30
0.0
 40
7.0
 41
0.0
 71
     7
 72
     1
  1
87
  7
CONVERTER_11
 11
0.0
 21
1.0
 31
0.0
 73
     1
 44
0.60024009603842
  0
ENDBLK
  5
2B4
330
2AC
100
AcDbEntity
  8
0
100
AcDbBlockEnd
  0
ENDSEC
  0
SECTION
  2
ENTITIES
  0
INSERT
  5
7E
330
1F
100
AcDbEntity
  8
1
100
AcDbBlockReference
  2
2
 10
0.0
 20
0.0
 30
0.0
  0
CIRCLE
  5
2B7
330
1F
100
AcDbEntity
  8
1
  6
Continuous
 62
     1
100
AcDbCircle
 10
-24.8305547184937
 20
-128.569701504836
 30
0.0
 40
7.699999999999996
  0
CIRCLE
  5
2B8
330
1F
100
AcDbEntity
  8
1
  6
Continuous
 62
     1
100
AcDbCircle
 10
92.5209442795644
 20
-134.482101502966
 30
0.0
 40
7.700000000000003
  0
CIRCLE
  5
2B9
330
1F
100
AcDbEntity
  8
1
  6
Continuous
 62
     1
100
AcDbCircle
 10
92.254424171279
 20
-109.162691215851
 30
0.0
 40
7.700000000000003
  0
CIRCLE
  5
2BA
102
{ACAD_REACTORS
330
2BB
102
}
330
1F
100
AcDbEntity
  8
1
 62
     1
100
AcDbCircle
 10
6.99999999980353
 20
-154.111311688709
 30
0.0
 40
1.0
  0
HATCH
  5
2BB
330
1F
100
AcDbEntity
  8
1
 62
     1
100
AcDbHatch
 10
0.0
 20
0.0
 30
0.0
210
0.0
220
0.0
230
1.0
  2
SOLID
 70
     1
 71
     1
 91
        1
 92
        1
 93
        1
 72
     2
 10
6.999999999803535
 20
-154.111311688709
 40
1.0
 50
0.0
 51
360.0
 73
     1
 97
        1
330
2BA
 75
     0
 76
     1
 98
        0
  0
LEADER
  5
2BC
330
1F
100
AcDbEntity
  8
1
  6
Continuous
 62
     1
100
AcDbLeader
  3
Standard
 71
     0
 76
     2
 10
6.99999999980353
 20
-154.111311688709
 30
0.0
 10
-18.82497351477468
 20
-133.3887257219921
 30
0.0
  0
CIRCLE
  5
2BD
102
{ACAD_REACTORS
330
2BE
102
}
330
1F
100
AcDbEntity
  8
1
 62
     1
100
AcDbCircle
 10
59.52442052325102
 20
-123.821297171549
 30
0.0
 40
1.0
  0
HATCH
  5
2BE
330
1F
100
AcDbEntity
  8
1
 62
     1
100
AcDbHatch
 10
0.0
 20
0.0
 30
0.0
210
0.0
220
0.0
230
1.0
  2
SOLID
 70
     1
 71
     1
 91
        1
 92
        1
 93
        1
 72
     2
 10
59.52442052325102
 20
-123.821297171549
 40
1.0
 50
0.0
 51
360.0
 73
     1
 97
        1
330
2BD
 75
     0
 76
     1
 98
        0
  0
LEADER
  5
2BF
330
1F
100
AcDbEntity
  8
1
  6
Continuous
 62
     1
100
AcDbLeader
  3
Standard
 71
     0
 76
     2
 10
59.52442052325102
 20
-123.821297171549
 30
0.0
 10
85.19387636715875
 20
-132.1148085749582
 30
0.0
  0
CIRCLE
  5
2C0
102
{ACAD_REACTORS
330
2C1
102
}
330
1F
100
AcDbEntity
  8
1
 62
     1
100
AcDbCircle
 10
52.97279081303439
 20
-105.5304698594387
 30
0.0
 40
1.0
  0
HATCH
  5
2C1
330
1F
100
AcDbEntity
  8
1
 62
     1
100
AcDbHatch
 10
0.0
 20
0.0
 30
0.0
210
0.0
220
0.0
230
1.0
  2
SOLID
 70
     1
 71
     1
 91
        1
 92
        1
 93
        1
 72
     2
 10
52.97279081303439
 20
-105.5304698594387
 40
1.0
 50
0.0
 51
360.0
 73
     1
 97
        1
330
2C0
 75
     0
 76
     1
 98
        0
  0
LEADER
  5
2C2
330
1F
100
AcDbEntity
  8
1
  6
Continuous
 62
     1
100
AcDbLeader
  3
Standard
 71
     0
 76
     2
 10
52.97279081303439
 20
-105.5304698594387
 30
0.0
 10
84.58713203758366
 20
-108.4537262402891
 30
0.0
  0
MTEXT
  5
2C4
330
1F
100
AcDbEntity
  8
1
 62
     1
100
AcDbMText
 10
-24.8305547184937
 20
-128.569701504836
 30
0.0
 40
7.0
 41
0.0
 71
     5
 72
     1
  1
3
  7
CONVERTER_12
 73
     1
 44
0.90036014405762
  0
MTEXT
  5
2C5
330
1F
100
AcDbEntity
  8
1
 62
     1
100
AcDbMText
 10
92.5209442795644
 20
-134.482101502966
 30
0.0
 40
7.0
 41
0.0
 71
     5
 72
     1
  1
2
  7
CONVERTER_12
 73
     1
 44
0.90036014405762
  0
MTEXT
  5
2C6
330
1F
100
AcDbEntity
  8
1
 62
     1
100
AcDbMText
 10
92.254424171279
 20
-109.162691215851
 30
0.0
 40
7.0
 41
0.0
 71
     5
 72
     1
  1
1
  7
CONVERTER_12
 73
     1
 44
0.90036014405762
  0
ENDSEC
  0
SECTION
  2
OBJECTS
  0
DICTIONARY
  5
C
330
0
100
AcDbDictionary
281
     1
  3
ACAD_GROUP
350
D
  3
ACAD_LAYOUT
350
1A
  3
ACAD_MLINESTYLE
350
17
  3
ACAD_PLOTSETTINGS
350
19
  3
ACAD_PLOTSTYLENAME
350
E
  3
ACAD_TABLESTYLE
350
2C7
  3
ACAD_VISUALSTYLE
350
2A
  0
DICTIONARY
  5
D
102
{ACAD_REACTORS
330
C
102
}
330
C
100
AcDbDictionary
281
     1
  0
DICTIONARY
  5
1A
102
{ACAD_REACTORS
330
C
102
}
330
C
100
AcDbDictionary
281
     1
  3
Layout1
350
1E
  3
Layout2
350
26
  3
Model
350
22
  0
DICTIONARY
  5
17
102
{ACAD_REACTORS
330
C
102
}
330
C
100
AcDbDictionary
281
     1
  3
Standard
350
18
  0
DICTIONARY
  5
19
102
{ACAD_REACTORS
330
C
102
}
330
C
100
AcDbDictionary
281
     1
  0
ACDBDICTIONARYWDFLT
  5
E
102
{ACAD_REACTORS
330
C
102
}
330
C
100
AcDbDictionary
281
     1
  3
Normal
350
F
100
AcDbDictionaryWithDefault
340
F
  0
DICTIONARY
  5
2C7
102
{ACAD_REACTORS
330
C
102
}
330
C
100
AcDbDictionary
281
     1
  0
DICTIONARY
  5
2A
102
{ACAD_REACTORS
330
C
102
}
330
C
100
AcDbDictionary
281
     1
  3
2dWireframe
350
2F
  3
3D Hidden
350
31
  3
3dWireframe
350
30
  3
Basic
350
32
  3
Brighten
350
36
  3
ColorChange
350
3A
  3
Conceptual
350
34
  3
Dim
350
35
  3
Facepattern
350
39
  3
Flat
350
2B
  3
FlatWithEdges
350
2C
  3
Gouraud
350
2D
  3
GouraudWithEdges
350
2E
  3
Linepattern
350
38
  3
Realistic
350
33
  3
Thicken
350
37
  0
LAYOUT
  5
1E
102
{ACAD_REACTORS
330
1A
102
}
330
1A
100
AcDbPlotSettings
  1

  2
none_device
  4

  6

 40
0.0
 41
0.0
 42
0.0
 43
0.0
 44
0.0
 45
0.0
 46
0.0
 47
0.0
 48
0.0
 49
0.0
140
0.0
141
0.0
142
1.0
143
1.0
 70
   688
 72
     0
 73
     0
 74
     5
  7

 75
    16
147
1.0
148
0.0
149
0.0
100
AcDbLayout
  1
Layout1
 70
     1
 71
     1
 10
0.0
 20
0.0
 11
12.0
 21
9.0
 12
0.0
 22
0.0
 32
0.0
 14
1.00000000000000E+20
 24
1.00000000000000E+20
 34
1.00000000000000E+20
 15
-1.00000000000000E+20
 25
-1.00000000000000E+20
 35
-1.00000000000000E+20
146
0.0
 13
0.0
 23
0.0
 33
0.0
 16
1.0
 26
0.0
 36
0.0
 17
0.0
 27
1.0
 37
0.0
 76
     0
330
1B
  0
LAYOUT
  5
26
102
{ACAD_REACTORS
330
1A
102
}
330
1A
100
AcDbPlotSettings
  1

  2
none_device
  4

  6

 40
0.0
 41
0.0
 42
0.0
 43
0.0
 44
0.0
 45
0.0
 46
0.0
 47
0.0
 48
0.0
 49
0.0
140
0.0
141
0.0
142
1.0
143
1.0
 70
   688
 72
     0
 73
     0
 74
     5
  7

 75
    16
147
1.0
148
0.0
149
0.0
100
AcDbLayout
  1
Layout2
 70
     1
 71
     2
 10
0.0
 20
0.0
 11
0.0
 21
0.0
 12
0.0
 22
0.0
 32
0.0
 14
0.0
 24
0.0
 34
0.0
 15
0.0
 25
0.0
 35
0.0
146
0.0
 13
0.0
 23
0.0
 33
0.0
 16
1.0
 26
0.0
 36
0.0
 17
0.0
 27
1.0
 37
0.0
 76
     0
330
23
  0
LAYOUT
  5
22
102
{ACAD_REACTORS
330
1A
102
}
330
1A
100
AcDbPlotSettings
  1

  2
none_device
  4

  6

 40
0.0
 41
0.0
 42
0.0
 43
0.0
 44
0.0
 45
0.0
 46
0.0
 47
0.0
 48
0.0
 49
0.0
140
0.0
141
0.0
142
1.0
143
1.0
 70
  1712
 72
     0
 73
     0
 74
     0
  7

 75
     0
147
1.0
148
0.0
149
0.0
100
AcDbLayout
  1
Model
 70
     1
 71
     0
 10
0.0
 20
0.0
 11
12.0
 21
9.0
 12
0.0
 22
0.0
 32
0.0
 14
-32.5305547184937
 24
-395.434014375805
 34
0.0
 15
100.2209442795644
 25
18.02752917128452
 35
0.0
146
0.0
 13
0.0
 23
0.0
 33
0.0
 16
1.0
 26
0.0
 36
0.0
 17
0.0
 27
1.0
 37
0.0
 76
     0
330
1F
331
29
  0
MLINESTYLE
  5
18
102
{ACAD_REACTORS
330
17
102
}
330
17
100
AcDbMlineStyle
  2
Standard
 70
     0
  3

 62
   256
 51
90.0
 52
90.0
 71
     2
 49
0.5
 62
   256
  6
BYLAYER
 49
-0.5
 62
   256
  6
BYLAYER
  0
ACDBPLACEHOLDER
  5
F
102
{ACAD_REACTORS
330
E
102
}
330
E
  0
VISUALSTYLE
  5
2F
102
{ACAD_REACTORS
330
2A
102
}
330
2A
100
AcDbVisualStyle
  2
2dWireframe
 70
     4
 71
     0
 72
     2
 73
     0
 90
        0
 40
-0.6
 41
-30.0
 62
     5
 63
     7
 74
     1
 91
        4
 64
     7
 65
   257
 75
     1
175
     1
 42
1.0
 92
        0
 66
   257
 43
1.0
 76
     1
 77
     6
 78
     2
 67
     7
 79
     5
170
     0
171
     0
290
     0
174
     0
 93
        1
 44
0.0
173
     0
291
     0
 45
0.0
1001
ACAD
1000
AcDbSavedByObjectVersion
1070
     0
  0
VISUALSTYLE
  5
31
102
{ACAD_REACTORS
330
2A
102
}
330
2A
100
AcDbVisualStyle
  2
3D Hidden
 70
     6
 71
     1
 72
     2
 73
     2
 90
        0
 40
-0.6
 41
-30.0
 62
     5
 63
     7
 74
     2
 91
        2
 64
     7
 65
   257
 75
     2
175
     1
 42
40.0
 92
        0
 66
   257
 43
1.0
 76
     1
 77
     6
 78
     2
 67
     7
 79
     3
170
     0
171
     0
290
     0
174
     0
 93
        1
 44
0.0
173
     0
291
     0
 45
0.0
1001
ACAD
1000
AcDbSavedByObjectVersion
1070
     0
  0
VISUALSTYLE
  5
30
102
{ACAD_REACTORS
330
2A
102
}
330
2A
100
AcDbVisualStyle
  2
3dWireframe
 70
     5
 71
     0
 72
     2
 73
     0
 90
        0
 40
-0.6
 41
-30.0
 62
     5
 63
     7
 74
     1
 91
        4
 64
     7
 65
   257
 75
     1
175
     1
 42
1.0
 92
        0
 66
   257
 43
1.0
 76
     1
 77
     6
 78
     2
 67
     7
 79
     5
170
     0
171
     0
290
     0
174
     0
 93
        1
 44
0.0
173
     0
291
     0
 45
0.0
1001
ACAD
1000
AcDbSavedByObjectVersion
1070
     0
  0
VISUALSTYLE
  5
32
102
{ACAD_REACTORS
330
2A
102
}
330
2A
100
AcDbVisualStyle
  2
Basic
 70
     7
 71
     1
 72
     0
 73
     1
 90
        0
 40
-0.6
 41
-30.0
 62
     5
 63
     7
 74
     0
 91
        4
 64
     7
 65
   257
 75
     1
175
     1
 42
1.0
 92
        8
 66
     7
 43
1.0
 76
     1
 77
     6
 78
     2
 67
     7
 79
     5
170
     0
171
     0
290
     0
174
     0
 93
        1
 44
0.0
173
     0
291
     1
 45
0.0
1001
ACAD
1000
AcDbSavedByObjectVersion
1070
     0
  0
VISUALSTYLE
  5
36
102
{ACAD_REACTORS
330
2A
102
}
330
2A
100
AcDbVisualStyle
  2
Brighten
 70
    12
 71
     2
 72
     2
 73
     0
 90
        0
 40
-0.6
 41
-30.0
 62
     5
 63
     7
 74
     1
 91
        4
 64
     7
 65
   257
 75
     1
175
     1
 42
1.0
 92
        8
 66
     7
 43
1.0
 76
     1
 77
     6
 78
     2
 67
     7
 79
     5
170
     0
171
     0
290
     0
174
     0
 93
        1
 44
50.0
173
     0
291
     1
 45
0.0
1001
ACAD
1000
AcDbSavedByObjectVersion
1070
     0
  0
VISUALSTYLE
  5
3A
102
{ACAD_REACTORS
330
2A
102
}
330
2A
100
AcDbVisualStyle
  2
ColorChange
 70
    16
 71
     2
 72
     2
 73
     3
 90
        0
 40
-0.6
 41
-30.0
 62
     5
 63
     8
 74
     1
 91
        4
 64
     7
 65
   257
 75
     1
175
     1
 42
1.0
 92
        8
 66
     8
 43
1.0
 76
     1
 77
     6
 78
     2
 67
     7
 79
     5
170
     0
171
     0
290
     0
174
     0
 93
        1
 44
0.0
173
     0
291
     1
 45
0.0
1001
ACAD
1000
AcDbSavedByObjectVersion
1070
     0
  0
VISUALSTYLE
  5
34
102
{ACAD_REACTORS
330
2A
102
}
330
2A
100
AcDbVisualStyle
  2
Conceptual
 70
     9
 71
     3
 72
     2
 73
     0
 90
        0
 40
-0.6
 41
-30.0
 62
     5
 63
     7
 74
     2
 91
        2
 64
     7
 65
   257
 75
     1
175
     1
 42
40.0
 92
        8
 66
     7
 43
1.0
 76
     1
 77
     6
 78
     2
 67
     7
 79
     3
170
     0
171
     0
290
     0
174
     0
 93
        1
 44
0.0
173
     0
291
     0
 45
0.0
1001
ACAD
1000
AcDbSavedByObjectVersion
1070
     0
  0
VISUALSTYLE
  5
35
102
{ACAD_REACTORS
330
2A
102
}
330
2A
100
AcDbVisualStyle
  2
Dim
 70
    11
 71
     2
 72
     2
 73
     0
 90
        0
 40
-0.6
 41
-30.0
 62
     5
 63
     7
 74
     1
 91
        4
 64
     7
 65
   257
 75
     1
175
     1
 42
1.0
 92
        8
 66
     7
 43
1.0
 76
     1
 77
     6
 78
     2
 67
     7
 79
     5
170
     0
171
     0
290
     0
174
     0
 93
        1
 44
-50.0
173
     0
291
     1
 45
0.0
1001
ACAD
1000
AcDbSavedByObjectVersion
1070
     0
  0
VISUALSTYLE
  5
39
102
{ACAD_REACTORS
330
2A
102
}
330
2A
100
AcDbVisualStyle
  2
Facepattern
 70
    15
 71
     2
 72
     2
 73
     0
 90
        0
 40
-0.6
 41
-30.0
 62
     5
 63
     7
 74
     1
 91
        4
 64
     7
 65
   257
 75
     1
175
     1
 42
1.0
 92
        8
 66
     7
 43
1.0
 76
     1
 77
     6
 78
     2
 67
     7
 79
     5
170
     0
171
     0
290
     0
174
     0
 93
        1
 44
0.0
173
     0
291
     1
 45
0.0
1001
ACAD
1000
AcDbSavedByObjectVersion
1070
     0
  0
VISUALSTYLE
  5
2B
102
{ACAD_REACTORS
330
2A
102
}
330
2A
100
AcDbVisualStyle
  2
Flat
 70
     0
 71
     2
 72
     1
 73
     1
 90
        2
 40
-0.6
 41
30.0
 62
     5
 63
     7
 74
     0
 91
        4
 64
     7
 65
   257
 75
     1
175
     1
 42
1.0
 92
        8
 66
     7
 43
1.0
 76
     1
 77
     6
 78
     2
 67
     7
 79
     5
170
     0
171
     0
290
     0
174
     0
 93
       13
 44
0.0
173
     0
291
     1
 45
0.0
1001
ACAD
1000
AcDbSavedByObjectVersion
1070
     0
  0
VISUALSTYLE
  5
2C
102
{ACAD_REACTORS
330
2A
102
}
330
2A
100
AcDbVisualStyle
  2
FlatWithEdges
 70
     1
 71
     2
 72
     1
 73
     1
 90
        2
 40
-0.6
 41
30.0
 62
     5
 63
     7
 74
     1
 91
        4
 64
     7
 65
   257
 75
     1
175
     1
 42
1.0
 92
        0
 66
   257
 43
1.0
 76
     1
 77
     6
 78
     2
 67
     7
 79
     5
170
     0
171
     0
290
     0
174
     0
 93
       13
 44
0.0
173
     0
291
     1
 45
0.0
1001
ACAD
1000
AcDbSavedByObjectVersion
1070
     0
  0
VISUALSTYLE
  5
2D
102
{ACAD_REACTORS
330
2A
102
}
330
2A
100
AcDbVisualStyle
  2
Gouraud
 70
     2
 71
     2
 72
     2
 73
     1
 90
        2
 40
-0.6
 41
30.0
 62
     5
 63
     7
 74
     0
 91
        4
 64
     7
 65
   257
 75
     1
175
     1
 42
1.0
 92
        0
 66
     7
 43
1.0
 76
     1
 77
     6
 78
     2
 67
     7
 79
     5
170
     0
171
     0
290
     0
174
     0
 93
       13
 44
0.0
173
     0
291
     1
 45
0.0
1001
ACAD
1000
AcDbSavedByObjectVersion
1070
     0
  0
VISUALSTYLE
  5
2E
102
{ACAD_REACTORS
330
2A
102
}
330
2A
100
AcDbVisualStyle
  2
GouraudWithEdges
 70
     3
 71
     2
 72
     2
 73
     1
 90
        2
 40
-0.6
 41
30.0
 62
     5
 63
     7
 74
     1
 91
        4
 64
     7
 65
   257
 75
     1
175
     1
 42
1.0
 92
        0
 66
   257
 43
1.0
 76
     1
 77
     6
 78
     2
 67
     7
 79
     5
170
     0
171
     0
290
     0
174
     0
 93
       13
 44
0.0
173
     0
291
     1
 45
0.0
1001
ACAD
1000
AcDbSavedByObjectVersion
1070
     0
  0
VISUALSTYLE
  5
38
102
{ACAD_REACTORS
330
2A
102
}
330
2A
100
AcDbVisualStyle
  2
Linepattern
 70
    14
 71
     2
 72
     2
 73
     0
 90
        0
 40
-0.6
 41
-30.0
 62
     5
 63
     7
 74
     1
 91
        4
 64
     7
 65
   257
 75
     7
175
     7
 42
1.0
 92
        8
 66
     7
 43
1.0
 76
     1
 77
     6
 78
     2
 67
     7
 79
     5
170
     0
171
     0
290
     0
174
     0
 93
        1
 44
0.0
173
     0
291
     1
 45
0.0
1001
ACAD
1000
AcDbSavedByObjectVersion
1070
     0
  0
VISUALSTYLE
  5
33
102
{ACAD_REACTORS
330
2A
102
}
330
2A
100
AcDbVisualStyle
  2
Realistic
 70
     8
 71
     2
 72
     2
 73
     0
 90
        0
 40
-0.6
 41
-30.0
 62
     5
 63
     7
 74
     1
 91
        0
 64
     7
 65
   257
 75
     1
175
     1
 42
1.0
 92
        8
 66
     8
 43
1.0
 76
     1
 77
     6
 78
     2
 67
     7
 79
     5
170
     0
171
     0
290
     0
174
     0
 93
       13
 44
0.0
173
     0
291
     0
 45
0.0
1001
ACAD
1000
AcDbSavedByObjectVersion
1070
     0
  0
VISUALSTYLE
  5
37
102
{ACAD_REACTORS
330
2A
102
}
330
2A
100
AcDbVisualStyle
  2
Thicken
 70
    13
 71
     2
 72
     2
 73
     0
 90
        0
 40
-0.6
 41
-30.0
 62
     5
 63
     7
 74
     1
 91
        4
 64
     7
 65
   257
 75
     1
175
     1
 42
1.0
 92
       12
 66
     7
 43
1.0
 76
     1
 77
     6
 78
     2
 67
     7
 79
     5
170
     0
171
     0
290
     0
174
     0
 93
        1
 44
0.0
173
     0
291
     1
 45
0.0
1001
ACAD
1000
AcDbSavedByObjectVersion
1070
     0
  0
ENDSEC
  0
EOF
