  0
SECTION
  2
HEADER
  9
$ACADVER
  1
AC1014
  9
$ACADMAINTVER
 70
             0
  9
$DWGCODEPAGE
  3
ANSI_1252
  9
$INSBASE
 10
0.0
 20
0.0
 30
0.0
  9
$EXTMIN
 10
-82.36553376159739
 20
-46.62038136860149
 30
0.0
  9
$EXTMAX
 10
75.763486969958
 20
168.7787876772299
 30
0.0
  9
$LIMMIN
 10
0.0
 20
0.0
  9
$LIMMAX
 10
0.0
 20
0.0
  9
$ORTHOMODE
 70
             0
  9
$REGENMODE
 70
             1
  9
$FILLMODE
 70
             1
  9
$QTEXTMODE
 70
             0
  9
$MIRRTEXT
 70
             1
  9
$DRAGMODE
 70
             2
  9
$LTSCALE
 40
1.0
  9
$OSMODE
 70
             0
  9
$ATTMODE
 70
             1
  9
$TEXTSIZE
 40
0.2
  9
$TRACEWID
 40
0.05
  9
$TEXTSTYLE
  7
STANDARD
  9
$CLAYER
  8
0
  9
$CELTYPE
  6
CONTINUOUS
  9
$CECOLOR
 62
           256
  9
$CELTSCALE
 40
1.0
  9
$DELOBJ
 70
             1
  9
$DISPSILH
 70
             0
  9
$DIMSCALE
 40
1.0
  9
$DIMASZ
 40
0.18
  9
$DIMEXO
 40
0.0625
  9
$DIMDLI
 40
0.38
  9
$DIMRND
 40
0.0
  9
$DIMDLE
 40
0.0
  9
$DIMEXE
 40
0.18
  9
$DIMTP
 40
0.0
  9
$DIMTM
 40
0.0
  9
$DIMTXT
 40
0.18
  9
$DIMCEN
 40
0.09
  9
$DIMTSZ
 40
0.0
  9
$DIMTOL
 70
             0
  9
$DIMLIM
 70
             0
  9
$DIMTIH
 70
             1
  9
$DIMTOH
 70
             1
  9
$DIMSE1
 70
             0
  9
$DIMSE2
 70
             0
  9
$DIMTAD
 70
             0
  9
$DIMZIN
 70
             0
  9
$DIMBLK
  1

  9
$DIMASO
 70
             1
  9
$DIMSHO
 70
             1
  9
$DIMPOST
  1

  9
$DIMAPOST
  1

  9
$DIMALT
 70
             0
  9
$DIMALTD
 70
             2
  9
$DIMALTF
 40
25.4
  9
$DIMLFAC
 40
1.0
  9
$DIMTOFL
 70
             0
  9
$DIMTVP
 40
0.0
  9
$DIMTIX
 70
             0
  9
$DIMSOXD
 70
             0
  9
$DIMSAH
 70
             0
  9
$DIMBLK1
  1

  9
$DIMBLK2
  1

  9
$DIMSTYLE
  2
STANDARD
  9
$DIMCLRD
 70
             0
  9
$DIMCLRE
 70
             0
  9
$DIMCLRT
 70
             0
  9
$DIMTFAC
 40
1.0
  9
$DIMGAP
 40
0.09
  9
$DIMJUST
 70
             0
  9
$DIMSD1
 70
             0
  9
$DIMSD2
 70
             0
  9
$DIMTOLJ
 70
             1
  9
$DIMTZIN
 70
             0
  9
$DIMALTZ
 70
             0
  9
$DIMALTTZ
 70
             0
  9
$DIMFIT
 70
             3
  9
$DIMUPT
 70
             0
  9
$DIMUNIT
 70
             2
  9
$DIMDEC
 70
             4
  9
$DIMTDEC
 70
             4
  9
$DIMALTU
 70
             2
  9
$DIMALTTD
 70
             2
  9
$DIMTXSTY
  7
STANDARD
  9
$DIMAUNIT
 70
             0
  9
$LUNITS
 70
             2
  9
$LUPREC
 70
             4
  9
$SKETCHINC
 40
0.1
  9
$FILLETRAD
 40
0.0
  9
$AUNITS
 70
             0
  9
$AUPREC
 70
             0
  9
$MENU
  1
acad
  9
$ELEVATION
 40
0.0
  9
$PELEVATION
 40
0.0
  9
$THICKNESS
 40
0.0
  9
$LIMCHECK
 70
             0
  9
$BLIPMODE
 70
             1
  9
$CHAMFERA
 40
0.0
  9
$CHAMFERB
 40
0.0
  9
$CHAMFERC
 40
0.0
  9
$CHAMFERD
 40
0.0
  9
$SKPOLY
 70
             0
  9
$TDCREATE
 40
0.000000000
  9
$TDUPDATE
 40
0.000000000
  9
$TDINDWG
 40
0.0000000000
  9
$TDUSRTIMER
 40
0.0000000000
  9
$USRTIMER
 70
             1
  9
$ANGBASE
 50
0.0
  9
$ANGDIR
 70
             0
  9
$PDMODE
 70
             0
  9
$PDSIZE
 40
0.0
  9
$PLINEWID
 40
0.0
  9
$COORDS
 70
             0
  9
$SPLFRAME
 70
             0
  9
$SPLINETYPE
 70
             6
  9
$SPLINESEGS
 70
             8
  9
$ATTDIA
 70
             0
  9
$ATTREQ
 70
             1
  9
$HANDLING
 70
             1
  9
$HANDSEED
  5
23D
  9
$SURFTAB1
 70
             6
  9
$SURFTAB2
 70
             6
  9
$SURFTYPE
 70
             6
  9
$SURFU
 70
             6
  9
$SURFV
 70
             6
  9
$UCSNAME
  2

  9
$UCSORG
 10
0.0
 20
0.0
 30
0.0
  9
$UCSXDIR
 10
1.0
 20
0.0
 30
0.0
  9
$UCSYDIR
 10
0.0
 20
1.0
 30
0.0
  9
$PUCSNAME
  2

  9
$PUCSORG
 10
0.0
 20
0.0
 30
0.0
  9
$PUCSXDIR
 10
1.0
 20
0.0
 30
0.0
  9
$PUCSYDIR
 10
0.0
 20
1.0
 30
0.0
  9
$USERI1
 70
             0
  9
$USERI2
 70
             0
  9
$USERI3
 70
             0
  9
$USERI4
 70
             0
  9
$USERI5
 70
             0
  9
$USERR1
 40
12.01
  9
$USERR2
 40
0.0
  9
$USERR3
 40
0.0
  9
$USERR4
 40
0.0
  9
$USERR5
 40
0.0
  9
$WORLDVIEW
 70
             1
  9
$SHADEDGE
 70
             3
  9
$SHADEDIF
 70
            70
  9
$TILEMODE
 70
             1
  9
$MAXACTVP
 70
            16
  9
$PINSBASE
 10
0.0
 20
0.0
 30
0.0
  9
$PLIMCHECK
 70
             0
  9
$PEXTMIN
 10
1.00000000000000E+20
 20
1.00000000000000E+20
 30
1.00000000000000E+20
  9
$PEXTMAX
 10
-1.00000000000000E+20
 20
-1.00000000000000E+20
 30
-1.00000000000000E+20
  9
$PLIMMIN
 10
0.0
 20
0.0
  9
$PLIMMAX
 10
12.0
 20
9.0
  9
$UNITMODE
 70
             0
  9
$VISRETAIN
 70
             0
  9
$PLINEGEN
 70
             1
  9
$PSLTSCALE
 70
             0
  9
$TREEDEPTH
 70
          3020
  9
$PICKSTYLE
 70
             1
  9
$CMLSTYLE
  2
STANDARD
  9
$CMLJUST
 70
             0
  9
$CMLSCALE
 40
1.0
  9
$PROXYGRAPHICS
 70
             0
  9
$MEASUREMENT
 70
             1
  0
ENDSEC
  0
SECTION
  2
CLASSES
  0
CLASS
  1
LWPOLYLINE
  2
AcDbPolyline
  3
"AutoCAD"
 90
        0
280
             0
281
             1
  0
CLASS
  1
IMAGE
  2
AcDbRasterImage
  3
ISM
 90
      127
280
             0
281
             1
  0
CLASS
  1
OLE2FRAME
  2
AcDbOle2Frame
  3
""
 90
        0
280
             0
281
             1
  0
CLASS
  1
HATCH
  2
AcDbHatch
  3
"ACAD_SEDONA"
 90
        0
280
             0
281
             1
  0
CLASS
  1
DICTIONARYVAR
  2
AcDbDictionaryVar
  3
"AutoCAD"
 90
        0
280
             0
281
             0
  0
CLASS
  1
RASTERVARIABLES
  2
AcDbRasterVariables
  3
ISM
 90
        0
280
             0
281
             0
  0
CLASS
  1
IMAGEDEF
  2
AcDbRasterImageDef
  3
ISM
 90
        0
280
             0
281
             0
  0
CLASS
  1
IMAGEDEF_REACTOR
  2
AcDbRasterImageDefReactor
  3
ISM
 90
        1
280
             0
281
             0
  0
CLASS
  1
IDBUFFER
  2
AcDbIdBuffer
  3
"Acad"
 90
        0
280
             0
281
             0
  0
CLASS
  1
SPATIAL_FILTER
  2
AcDbSpatialFilter
  3
"Acad"
 90
        0
280
             0
281
             0
  0
CLASS
  1
XRECORD
  2
AcDbXrecord
  3
"<Built In>"
 90
        0
280
             0
281
             0
  0
CLASS
  1
SORTENTSTABLE
  2
AcDbSortentsTable
  3
"AutoCAD"
 90
        0
280
             0
281
             0
  0
CLASS
  1
LAYER_INDEX
  2
AcDbLayerIndex
  3
"Acad"
 90
        0
280
             0
281
             0
  0
CLASS
  1
SPATIAL_INDEX
  2
AcDbSpatialIndex
  3
"Acad"
 90
        0
280
             0
281
             0
  0
CLASS
  1
OBJECT_PTR
  2
CAseDLPNTableRecord
  3
"ASE-LPNTableRecord"
 90
        1
280
             0
281
             0
  0
CLASS
  1
LAYOUT
  2
AcDbLayout
  3
"AutoCAD 2000"
 90
        0
280
             0
281
             0
  0
CLASS
  1
PLOTSETTINGS
  2
AcDbPlotSettings
  3
"AutoCAD 2000"
 90
        0
280
             0
281
             0
  0
CLASS
  1
ACDBDICTIONARYWDFLT
  2
AcDbDictionaryWithDefault
  3
"AutoCAD 2000"
 90
        0
280
             0
281
             0
  0
CLASS
  1
ACDBPLACEHOLDER
  2
AcDbPlaceHolder
  3
"AutoCAD 2000"
 90
        0
280
             0
281
             0
  0
ENDSEC
  0
SECTION
  2
TABLES
  0
TABLE
  2
VPORT
  5
7
100
AcDbSymbolTable
 70
             1
  0
VPORT
  5
15
100
AcDbSymbolTableRecord
100
AcDbViewportTableRecord
  2
*ACTIVE
 70
             0
 10
0.0
 20
0.0
 11
1.0
 21
1.0
 12
-3.3010233958197
 22
61.0792031543142
 13
0.0
 23
0.0
 14
1.0
 24
1.0
 15
0.0
 25
0.0
 16
0.0
 26
0.0
 36
1.0
 17
0.0
 27
0.0
 37
0.0
 40
236.93908595041455
 41
1.60267857142857
 42
50.0
 43
0.0
 44
0.0
 50
0.0
 51
0.0
 71
             0
 72
           100
 73
             1
 74
             1
 75
             0
 76
             0
 77
             0
 78
             0
  0
ENDTAB
  0
TABLE
  2
LTYPE
  5
4
100
AcDbSymbolTable
 70
            10
  0
LTYPE
  5
11
100
AcDbSymbolTableRecord
100
AcDbLinetypeTableRecord
  2
BYBLOCK
 70
            64
  3

 72
            65
 73
             0
 40
0.0
  0
LTYPE
  5
12
100
AcDbSymbolTableRecord
100
AcDbLinetypeTableRecord
  2
BYLAYER
 70
            64
  3

 72
            65
 73
             0
 40
0.0
  0
LTYPE
  5
13
100
AcDbSymbolTableRecord
100
AcDbLinetypeTableRecord
  2
CONTINUOUS
 70
            64
  3
Solid line
 72
            65
 73
             0
 40
0.0
  0
LTYPE
  5
1D
100
AcDbSymbolTableRecord
100
AcDbLinetypeTableRecord
  2
DASHED
 70
            64
  3
Dashed
 72
            65
 73
             2
 40
15.0
 49
7.0
 74
             0
 49
-8.0
 74
             0
  0
LTYPE
  5
1E
100
AcDbSymbolTableRecord
100
AcDbLinetypeTableRecord
  2
DOTTED
 70
            64
  3
Dotted
 72
            65
 73
             2
 40
1.0
 49
0.0
 74
             0
 49
-1.0
 74
             0
  0
LTYPE
  5
1F
100
AcDbSymbolTableRecord
100
AcDbLinetypeTableRecord
  2
DOT_CENTER
 70
            64
  3
Dot_Center
 72
            65
 73
             4
 40
14.0
 49
12.0
 74
             0
 49
-1.0
 74
             0
 49
0.0
 74
             0
 49
-1.0
 74
             0
  0
LTYPE
  5
20
100
AcDbSymbolTableRecord
100
AcDbLinetypeTableRecord
  2
LONG_DASHED
 70
            64
  3
Long_Dashed
 72
            65
 73
             2
 40
15.0
 49
10.0
 74
             0
 49
-5.0
 74
             0
  0
LTYPE
  5
21
100
AcDbSymbolTableRecord
100
AcDbLinetypeTableRecord
  2
DASH_CENTER
 70
            64
  3
Dash_Center
 72
            65
 73
             4
 40
14.0
 49
11.0
 74
             0
 49
-1.0
 74
             0
 49
1.0
 74
             0
 49
-1.0
 74
             0
  0
LTYPE
  5
22
100
AcDbSymbolTableRecord
100
AcDbLinetypeTableRecord
  2
PHANTOM
 70
            64
  3
Phantom
 72
            65
 73
             6
 40
13.0
 49
10.0
 74
             0
 49
-1.0
 74
             0
 49
0.0
 74
             0
 49
-1.0
 74
             0
 49
0.0
 74
             0
 49
-1.0
 74
             0
  0
LTYPE
  5
23
100
AcDbSymbolTableRecord
100
AcDbLinetypeTableRecord
  2
CENTER_DASH_DASH
 70
            64
  3
Center_Dash_Dash
 72
            65
 73
             6
 40
14.0
 49
9.0
 74
             0
 49
-1.0
 74
             0
 49
1.0
 74
             0
 49
-1.0
 74
             0
 49
1.0
 74
             0
 49
-1.0
 74
             0
  0
ENDTAB
  0
TABLE
  2
LAYER
  5
2
100
AcDbSymbolTable
 70
             2
  0
LAYER
  5
14
100
AcDbSymbolTableRecord
100
AcDbLayerTableRecord
  2
0
 70
             0
 62
             7
  6
CONTINUOUS
  0
LAYER
  5
24
100
AcDbSymbolTableRecord
100
AcDbLayerTableRecord
  2
1
 70
             0
 62
             7
  6
CONTINUOUS
  0
ENDTAB
  0
TABLE
  2
STYLE
  5
3
100
AcDbSymbolTable
 70
             2
  0
STYLE
  5
17
100
AcDbSymbolTableRecord
100
AcDbTextStyleTableRecord
  2
STANDARD
 70
             0
 40
0.0
 41
1.0
 50
0.0
 71
             0
 42
0.0
  3
txt
  4

  0
STYLE
  5
1E8
100
AcDbSymbolTableRecord
100
AcDbTextStyleTableRecord
  2
CONVERTER_1
 70
             0
 40
0.0
 41
0.9
 50
0.0
 71
             0
 42
0.0
  3
txt.shx
  4

  0
ENDTAB
  0
TABLE
  2
VIEW
  5
5
100
AcDbSymbolTable
 70
             0
  0
ENDTAB
  0
TABLE
  2
UCS
  5
6
100
AcDbSymbolTable
 70
             0
  0
ENDTAB
  0
TABLE
  2
APPID
  5
8
100
AcDbSymbolTable
 70
             1
  0
APPID
  5
16
100
AcDbSymbolTableRecord
100
AcDbRegAppTableRecord
  2
ACAD
 70
             0
  0
ENDTAB
  0
TABLE
  2
DIMSTYLE
  5
9
100
AcDbSymbolTable
 70
             9
  0
DIMSTYLE
105
18
100
AcDbSymbolTableRecord
100
AcDbDimStyleTableRecord
  2
STANDARD
 70
             0
  3

  4

  5

  6

  7

 40
1.0
 41
0.18
 42
0.0625
 43
0.38
 44
0.18
 45
0.0
 46
0.0
 47
0.0
 48
0.0
 71
             0
 72
             0
 73
             1
 74
             1
 75
             0
 76
             0
 77
             0
 78
             0
140
0.18
141
0.09
142
0.0
143
25.4
144
1.0
145
0.0
146
1.0
147
0.09
170
             0
171
             2
172
             0
173
             0
174
             0
175
             0
176
             0
177
             0
178
             0
270
             2
271
             4
272
             4
273
             2
274
             2
275
             0
280
             0
281
             0
282
             0
283
             1
284
             0
285
             0
286
             0
287
             3
288
             0
340
17
  0
DIMSTYLE
105
1EB
100
AcDbSymbolTableRecord
100
AcDbDimStyleTableRecord
  2
ME10_DIM_0
 70
             0
  3

  4

  5

  6

  7

 40
1.0
 41
7.0
 42
0.0
 43
0.38
 44
2.0
 45
0.0
 46
0.0
 47
0.0
 48
0.0
 71
             0
 72
             0
 73
             0
 74
             0
 75
             0
 76
             0
 77
             1
 78
             8
140
7.0
141
0.09
142
0.0
143
25.4
144
1.0
145
0.0
146
1.0
147
0.625
170
             0
171
             2
172
             1
173
             1
174
             0
175
             0
176
             4
177
             4
178
             1
270
             2
271
             2
272
             4
273
             2
274
             2
275
             0
280
             0
281
             0
282
             0
283
             1
284
             0
285
             0
286
             0
287
             3
288
             0
340
1E8
  0
DIMSTYLE
105
1F6
100
AcDbSymbolTableRecord
100
AcDbDimStyleTableRecord
  2
ME10_DIM_1
 70
             0
  3
DN<>
  4

  5

  6

  7

 40
1.0
 41
7.0
 42
0.0
 43
0.38
 44
2.0
 45
0.0
 46
0.0
 47
0.0
 48
0.0
 71
             0
 72
             0
 73
             0
 74
             0
 75
             0
 76
             0
 77
             1
 78
             8
140
7.0
141
0.09
142
0.0
143
25.4
144
1.0
145
0.0
146
1.0
147
0.625
170
             0
171
             2
172
             1
173
             1
174
             0
175
             0
176
             4
177
             4
178
             1
270
             2
271
             2
272
             4
273
             2
274
             2
275
             0
280
             0
281
             0
282
             0
283
             1
284
             0
285
             0
286
             0
287
             3
288
             0
340
1E8
  0
DIMSTYLE
105
201
100
AcDbSymbolTableRecord
100
AcDbDimStyleTableRecord
  2
ME10_DIM_2
 70
             0
  3
DN<>
  4

  5

  6

  7

 40
1.0
 41
7.0
 42
0.0
 43
0.38
 44
2.0
 45
0.0
 46
0.0
 47
0.0
 48
0.0
 71
             0
 72
             0
 73
             0
 74
             0
 75
             0
 76
             0
 77
             1
 78
             8
140
7.0
141
0.09
142
0.0
143
25.4
144
1.0
145
0.0
146
1.0
147
0.625
170
             0
171
             2
172
             1
173
             1
174
             0
175
             0
176
             4
177
             4
178
             1
270
             2
271
             2
272
             4
273
             2
274
             2
275
             0
280
             0
281
             0
282
             0
283
             1
284
             0
285
             0
286
             0
287
             3
288
             0
340
1E8
  0
DIMSTYLE
105
20C
100
AcDbSymbolTableRecord
100
AcDbDimStyleTableRecord
  2
ME10_DIM_3
 70
             0
  3

  4

  5

  6

  7

 40
1.0
 41
7.0
 42
0.0
 43
0.38
 44
2.0
 45
0.0
 46
0.0
 47
0.0
 48
0.0
 71
             0
 72
             0
 73
             0
 74
             0
 75
             0
 76
             0
 77
             1
 78
             8
140
7.0
141
0.09
142
0.0
143
25.4
144
1.0
145
0.0
146
1.0
147
0.625
170
             0
171
             2
172
             1
173
             1
174
             0
175
             0
176
             4
177
             4
178
             1
270
             2
271
             2
272
             4
273
             2
274
             2
275
             0
280
             0
281
             0
282
             0
283
             1
284
             0
285
             0
286
             0
287
             3
288
             0
340
1E8
  0
DIMSTYLE
105
217
100
AcDbSymbolTableRecord
100
AcDbDimStyleTableRecord
  2
ME10_DIM_4
 70
             0
  3

  4

  5

  6

  7

 40
1.0
 41
7.0
 42
0.0
 43
0.38
 44
2.0
 45
0.0
 46
0.0
 47
0.0
 48
0.0
 71
             0
 72
             0
 73
             0
 74
             0
 75
             0
 76
             0
 77
             1
 78
             8
140
7.0
141
0.09
142
0.0
143
25.4
144
1.0
145
0.0
146
1.0
147
0.625
170
             0
171
             2
172
             1
173
             1
174
             0
175
             0
176
             4
177
             4
178
             1
270
             2
271
             2
272
             4
273
             2
274
             2
275
             0
280
             0
281
             0
282
             0
283
             1
284
             0
285
             0
286
             0
287
             3
288
             0
340
1E8
  0
DIMSTYLE
105
223
100
AcDbSymbolTableRecord
100
AcDbDimStyleTableRecord
  2
ME10_DIM_5
 70
             0
  3

  4

  5

  6

  7

 40
1.0
 41
7.0
 42
0.0
 43
0.38
 44
2.0
 45
0.0
 46
0.0
 47
0.0
 48
0.0
 71
             0
 72
             0
 73
             0
 74
             0
 75
             0
 76
             0
 77
             1
 78
             8
140
7.0
141
0.09
142
0.0
143
25.4
144
1.0
145
0.0
146
1.0
147
0.625
170
             0
171
             2
172
             1
173
             1
174
             0
175
             0
176
             4
177
             4
178
             1
270
             2
271
             2
272
             4
273
             2
274
             2
275
             0
280
             0
281
             0
282
             0
283
             1
284
             0
285
             0
286
             0
287
             3
288
             0
340
1E8
  0
DIMSTYLE
105
22F
100
AcDbSymbolTableRecord
100
AcDbDimStyleTableRecord
  2
ME10_DIM_6
 70
             0
  3
DN<>
  4

  5

  6

  7

 40
1.0
 41
7.0
 42
0.0
 43
0.38
 44
2.0
 45
0.0
 46
0.0
 47
0.0
 48
0.0
 71
             0
 72
             0
 73
             0
 74
             0
 75
             0
 76
             0
 77
             1
 78
             8
140
7.0
141
0.09
142
0.0
143
25.4
144
1.0
145
0.0
146
1.0
147
0.625
170
             0
171
             2
172
             1
173
             1
174
             0
175
             0
176
             4
177
             4
178
             1
270
             2
271
             2
272
             4
273
             2
274
             2
275
             0
280
             0
281
             0
282
             0
283
             1
284
             0
285
             0
286
             0
287
             3
288
             0
340
1E8
  0
DIMSTYLE
105
23A
100
AcDbSymbolTableRecord
100
AcDbDimStyleTableRecord
  2
ME10_DIM_7
 70
             0
  3

  4

  5

  6

  7

 40
1.0
 41
7.0
 42
0.0
 43
0.38
 44
2.0
 45
0.0
 46
0.0
 47
0.0
 48
0.0
 71
             0
 72
             0
 73
             0
 74
             0
 75
             0
 76
             0
 77
             1
 78
             8
140
7.0
141
0.09
142
0.0
143
25.4
144
1.0
145
0.0
146
1.0
147
0.625
170
             0
171
             2
172
             1
173
             1
174
             0
175
             0
176
             4
177
             4
178
             1
270
             2
271
             2
272
             4
273
             2
274
             2
275
             0
280
             0
281
             0
282
             0
283
             1
284
             0
285
             0
286
             0
287
             3
288
             0
340
1E8
  0
ENDTAB
  0
TABLE
  2
BLOCK_RECORD
  5
1
100
AcDbSymbolTable
 70
            17
  0
BLOCK_RECORD
  5
A
100
AcDbSymbolTableRecord
100
AcDbBlockTableRecord
  2
*MODEL_SPACE
  0
BLOCK_RECORD
  5
B
100
AcDbSymbolTableRecord
100
AcDbBlockTableRecord
  2
*PAPER_SPACE
  0
BLOCK_RECORD
  5
25
100
AcDbSymbolTableRecord
100
AcDbBlockTableRecord
  2
HL_904T_TAUCHROHR
  0
BLOCK_RECORD
  5
27
100
AcDbSymbolTableRecord
100
AcDbBlockTableRecord
  2
HL_22_T-ST_CK
  0
BLOCK_RECORD
  5
29
100
AcDbSymbolTableRecord
100
AcDbBlockTableRecord
  2
HOLL_NDERMUTTER_6_4__1
  0
BLOCK_RECORD
  5
2B
100
AcDbSymbolTableRecord
100
AcDbBlockTableRecord
  2
HOLL_NDER6_4
  0
BLOCK_RECORD
  5
2D
100
AcDbSymbolTableRecord
100
AcDbBlockTableRecord
  2
HL904K_RPER
  0
BLOCK_RECORD
  5
2F
100
AcDbSymbolTableRecord
100
AcDbBlockTableRecord
  2
HL904DECKEL
  0
BLOCK_RECORD
  5
31
100
AcDbSymbolTableRecord
100
AcDbBlockTableRecord
  2
HL_904
  0
BLOCK_RECORD
  5
36
100
AcDbSymbolTableRecord
100
AcDbBlockTableRecord
  2
HOLL_NDERMUTTER_6_4__2
  0
BLOCK_RECORD
  5
38
100
AcDbSymbolTableRecord
100
AcDbBlockTableRecord
  2
HOLL_NDERMUTTER_6_4__3
  0
BLOCK_RECORD
  5
1E1
100
AcDbSymbolTableRecord
100
AcDbBlockTableRecord
  2
*D9
  0
BLOCK_RECORD
  5
1ED
100
AcDbSymbolTableRecord
100
AcDbBlockTableRecord
  2
*D10
  0
BLOCK_RECORD
  5
1F8
100
AcDbSymbolTableRecord
100
AcDbBlockTableRecord
  2
*D11
  0
BLOCK_RECORD
  5
203
100
AcDbSymbolTableRecord
100
AcDbBlockTableRecord
  2
*D12
  0
BLOCK_RECORD
  5
20E
100
AcDbSymbolTableRecord
100
AcDbBlockTableRecord
  2
*D13
  0
BLOCK_RECORD
  5
219
100
AcDbSymbolTableRecord
100
AcDbBlockTableRecord
  2
*D14
  0
BLOCK_RECORD
  5
225
100
AcDbSymbolTableRecord
100
AcDbBlockTableRecord
  2
*D15
  0
BLOCK_RECORD
  5
231
100
AcDbSymbolTableRecord
100
AcDbBlockTableRecord
  2
*D16
  0
ENDTAB
  0
ENDSEC
  0
SECTION
  2
BLOCKS
  0
BLOCK
  5
D
100
AcDbEntity
  8
0
100
AcDbBlockBegin
  2
*MODEL_SPACE
 70
             0
 10
0.0
 20
0.0
 30
0.0
  3
*MODEL_SPACE
  1

  0
ENDBLK
  5
E
100
AcDbEntity
  8
0
100
AcDbBlockEnd
  0
BLOCK
  5
F
100
AcDbEntity
 67
             1
  8
0
100
AcDbBlockBegin
  2
*PAPER_SPACE
 70
             0
 10
0.0
 20
0.0
 30
0.0
  3
*PAPER_SPACE
  1

  0
ENDBLK
  5
10
100
AcDbEntity
 67
             1
  8
0
100
AcDbBlockEnd
  0
BLOCK
  5
26
100
AcDbEntity
  8
0
100
AcDbBlockBegin
  2
HL_904T_TAUCHROHR
 70
             0
 10
-71.71945920004009
 20
32.87772021013673
 30
0.0
  3
HL_904T_TAUCHROHR
  1

  0
LINE
  5
45
100
AcDbEntity
  8
1
  6
PHANTOM
 62
             2
100
AcDbLine
 10
0.00000000000001
 20
44.07323099140776
 11
0.00000000000002
 21
71.13417070964991
  0
LINE
  5
44
100
AcDbEntity
  8
1
  6
CONTINUOUS
 62
             7
100
AcDbLine
 10
-20.0
 20
51.07323099140776
 11
20.00000000000003
 21
51.07323099140776
  0
LINE
  5
43
100
AcDbEntity
  8
1
  6
CONTINUOUS
 62
             7
100
AcDbLine
 10
20.00000000000003
 20
51.07323099140776
 11
20.00000000000003
 21
67.4024064905318
  0
LINE
  5
42
100
AcDbEntity
  8
1
  6
CONTINUOUS
 62
             7
100
AcDbLine
 10
-20.0
 20
51.07323099140776
 11
-20.0
 21
67.4024064905318
  0
ENDBLK
  5
46
100
AcDbEntity
  8
0
100
AcDbBlockEnd
  0
BLOCK
  5
28
100
AcDbEntity
  8
0
100
AcDbBlockBegin
  2
HL_22_T-ST_CK
 70
             0
 10
0.0
 20
44.7023732294503
 30
0.0
  3
HL_22_T-ST_CK
  1

  0
ARC
  5
6B
100
AcDbEntity
  8
1
  6
CONTINUOUS
 62
             7
100
AcDbCircle
 10
0.0
 20
25.2468762141865
 40
15.00000000000003
100
AcDbArc
 50
-124.30314542175394
 51
-55.69685457824606
  0
LINE
  5
6A
100
AcDbEntity
  8
1
  6
PHANTOM
 62
             2
100
AcDbLine
 10
-30.00038475772785
 20
0.0
 11
30.50038475772785
 21
0.0
  0
LINE
  5
69
100
AcDbEntity
  8
1
  6
CONTINUOUS
 62
             7
100
AcDbLine
 10
22.3
 20
22.30237322945033
 11
8.45357098806653
 21
12.85586586193028
  0
LINE
  5
68
100
AcDbEntity
  8
1
  6
CONTINUOUS
 62
             7
100
AcDbLine
 10
-8.45357098806653
 20
12.85586586193028
 11
-22.3
 21
22.30237322945033
  0
LINE
  5
67
100
AcDbEntity
  8
0
  6
CONTINUOUS
 62
             2
100
AcDbLine
 10
27.0536789532735
 20
-22.70000000000067
 11
30.50038475772785
 21
-22.70000000000067
  0
LINE
  5
66
100
AcDbEntity
  8
0
  6
CONTINUOUS
 62
             2
100
AcDbLine
 10
26.709077240883
 20
22.70000000000073
 11
30.50038475772785
 21
22.70000000000073
  0
LINE
  5
65
100
AcDbEntity
  8
0
  6
CONTINUOUS
 62
             7
100
AcDbLine
 10
26.3
 20
-23.09999999999849
 11
26.3
 21
-22.2976267705497
  0
LINE
  5
64
100
AcDbEntity
  8
0
  6
CONTINUOUS
 62
             7
100
AcDbLine
 10
26.3
 20
23.09999999999849
 11
26.3
 21
22.30237322945033
  0
LINE
  5
63
100
AcDbEntity
  8
0
  6
CONTINUOUS
 62
             7
100
AcDbLine
 10
26.8
 20
23.59999999999849
 11
30.50038475772785
 21
23.59999999999849
  0
LINE
  5
62
100
AcDbEntity
  8
0
  6
CONTINUOUS
 62
             7
100
AcDbLine
 10
26.8
 20
-23.59999999999849
 11
30.50038475772785
 21
-23.59999999999849
  0
LINE
  5
61
100
AcDbEntity
  8
1
  6
CONTINUOUS
 62
             7
100
AcDbLine
 10
26.3
 20
22.30237322945033
 11
26.3
 21
-22.2976267705497
  0
LINE
  5
60
100
AcDbEntity
  8
1
  6
CONTINUOUS
 62
             7
100
AcDbLine
 10
26.8
 20
-23.59999999999849
 11
26.3
 21
-23.09999999999849
  0
LINE
  5
5F
100
AcDbEntity
  8
1
  6
CONTINUOUS
 62
             7
100
AcDbLine
 10
26.8
 20
23.59999999999849
 11
26.3
 21
23.09999999999849
  0
LINE
  5
5E
100
AcDbEntity
  8
1
  6
CONTINUOUS
 62
             7
100
AcDbLine
 10
26.8
 20
23.59999999999849
 11
26.8
 21
-23.59999999999849
  0
LINE
  5
5D
100
AcDbEntity
  8
1
  6
CONTINUOUS
 62
             7
100
AcDbLine
 10
-26.8
 20
-23.59999999999849
 11
-26.8
 21
23.59999999999849
  0
LINE
  5
5C
100
AcDbEntity
  8
1
  6
CONTINUOUS
 62
             7
100
AcDbLine
 10
-26.3
 20
23.09999999999849
 11
-26.8
 21
23.59999999999849
  0
LINE
  5
5B
100
AcDbEntity
  8
1
  6
CONTINUOUS
 62
             7
100
AcDbLine
 10
-26.3
 20
-23.09999999999849
 11
-26.8
 21
-23.59999999999849
  0
LINE
  5
5A
100
AcDbEntity
  8
1
  6
CONTINUOUS
 62
             7
100
AcDbLine
 10
22.3
 20
30.7023732294503
 11
-22.3
 21
30.7023732294503
  0
LINE
  5
59
100
AcDbEntity
  8
1
  6
CONTINUOUS
 62
             7
100
AcDbLine
 10
-26.3
 20
-22.2976267705497
 11
-26.3
 21
22.30237322945033
  0
LINE
  5
58
100
AcDbEntity
  8
0
  6
CONTINUOUS
 62
             7
100
AcDbLine
 10
-22.3
 20
30.7023732294503
 11
-22.3
 21
22.30237322945033
  0
LINE
  5
57
100
AcDbEntity
  8
0
  6
CONTINUOUS
 62
             7
100
AcDbLine
 10
22.3
 20
30.7023732294503
 11
22.3
 21
22.30237322945033
  0
LINE
  5
56
100
AcDbEntity
  8
0
  6
DASH_CENTER
 62
             2
100
AcDbLine
 10
0.0
 20
46.17813613107268
 11
0.0
 21
6.66811012661313
  0
LINE
  5
55
100
AcDbEntity
  8
0
  6
CONTINUOUS
 62
             7
100
AcDbLine
 10
-23.9
 20
34.07323099140776
 11
-23.9
 21
30.7023732294503
  0
LINE
  5
54
100
AcDbEntity
  8
0
  6
CONTINUOUS
 62
             7
100
AcDbLine
 10
23.90000000000001
 20
34.07323099140776
 11
23.90000000000001
 21
30.7023732294503
  0
LINE
  5
53
100
AcDbEntity
  8
0
  6
CONTINUOUS
 62
             7
100
AcDbLine
 10
22.3
 20
30.7023732294503
 11
23.90000000000001
 21
30.7023732294503
  0
LINE
  5
52
100
AcDbEntity
  8
0
  6
CONTINUOUS
 62
             7
100
AcDbLine
 10
-22.3
 20
30.7023732294503
 11
-23.9
 21
30.7023732294503
  0
LINE
  5
51
100
AcDbEntity
  8
0
  6
CONTINUOUS
 62
             2
100
AcDbLine
 10
22.3
 20
34.07323099140776
 11
22.3
 21
31.1114504703333
  0
LINE
  5
50
100
AcDbEntity
  8
0
  6
CONTINUOUS
 62
             2
100
AcDbLine
 10
-22.3
 20
34.07323099140776
 11
-22.3
 21
31.4560521827238
  0
LINE
  5
4F
100
AcDbEntity
  8
0
  6
CONTINUOUS
 62
             7
100
AcDbLine
 10
-26.3
 20
22.30237322945033
 11
-22.3
 21
22.30237322945033
  0
LINE
  5
4E
100
AcDbEntity
  8
0
  6
CONTINUOUS
 62
             7
100
AcDbLine
 10
-30.50038475772785
 20
-23.59999999999849
 11
-26.8
 21
-23.59999999999849
  0
LINE
  5
4D
100
AcDbEntity
  8
0
  6
CONTINUOUS
 62
             7
100
AcDbLine
 10
-30.50038475772785
 20
23.59999999999849
 11
-26.8
 21
23.59999999999849
  0
LINE
  5
4C
100
AcDbEntity
  8
0
  6
CONTINUOUS
 62
             7
100
AcDbLine
 10
-26.3
 20
22.30237322945033
 11
-26.3
 21
23.09999999999849
  0
LINE
  5
4B
100
AcDbEntity
  8
0
  6
CONTINUOUS
 62
             7
100
AcDbLine
 10
-26.3
 20
-22.2976267705497
 11
-26.3
 21
-23.09999999999849
  0
LINE
  5
4A
100
AcDbEntity
  8
0
  6
CONTINUOUS
 62
             2
100
AcDbLine
 10
-30.50038475772785
 20
22.70000000000073
 11
-26.709077240883
 21
22.70000000000073
  0
LINE
  5
49
100
AcDbEntity
  8
0
  6
CONTINUOUS
 62
             2
100
AcDbLine
 10
-30.50038475772785
 20
-22.70000000000067
 11
-27.0536789532735
 21
-22.70000000000067
  0
LINE
  5
48
100
AcDbEntity
  8
0
  6
CONTINUOUS
 62
             7
100
AcDbLine
 10
-26.3
 20
-22.2976267705497
 11
26.3
 21
-22.2976267705497
  0
LINE
  5
47
100
AcDbEntity
  8
0
  6
CONTINUOUS
 62
             7
100
AcDbLine
 10
22.3
 20
22.30237322945033
 11
26.3
 21
22.30237322945033
  0
ENDBLK
  5
6C
100
AcDbEntity
  8
0
100
AcDbBlockEnd
  0
BLOCK
  5
2A
100
AcDbEntity
  8
0
100
AcDbBlockBegin
  2
HOLL_NDERMUTTER_6_4__1
 70
             0
 10
10.39213930722023
 20
-154.68578186403181
 30
0.0
  3
HOLL_NDERMUTTER_6_4__1
  1

  0
SPLINE
  5
B1
100
AcDbEntity
  8
0
  6
CONTINUOUS
 62
             7
100
AcDbSpline
210
0.0
220
0.0
230
1.0
 70
             0
 71
             3
 72
            11
 73
             7
 74
             5
 42
0.00000000001
 43
0.00000000001
 44
0.00000000001
 40
10.19555243465282
 40
10.19555243465282
 40
10.19555243465282
 40
10.19555243465282
 40
10.819635921994889
 40
10.819635921994889
 40
10.819635921994889
 40
11.431124435565939
 40
11.431124435565939
 40
11.431124435565939
 40
11.431124435565939
 10
-45.50038475776423
 20
28.502373229431392
 30
0.0
 10
-45.636915929014911
 20
28.33966171559149
 30
0.0
 10
-45.767712362699648
 20
28.177928380445511
 30
0.0
 10
-45.892759086403792
 20
28.01710129661592
 30
0.0
 10
-46.02100291934007
 20
27.852162295740701
 30
0.0
 10
-46.142743575528257
 20
27.688762574808781
 30
0.0
 10
-46.258102121049568
 20
27.526793752898129
 30
0.0
 11
-45.50038475776423
 21
28.502373229431392
 31
0.0
 11
-45.700878589913955
 21
28.259030601769787
 31
0.0
 11
-45.892759086403792
 21
28.01710129661592
 31
0.0
 11
-46.080262586507281
 21
27.770833707645306
 31
0.0
 11
-46.258102121049568
 21
27.526793752898129
 31
0.0
  0
SPLINE
  5
B0
100
AcDbEntity
  8
0
  6
CONTINUOUS
 62
             7
100
AcDbSpline
210
0.0
220
0.0
230
1.0
 70
             0
 71
             3
 72
            11
 73
             7
 74
             5
 42
0.00000000001
 43
0.00000000001
 44
0.00000000001
 40
9.6520212354362247
 40
9.6520212354362247
 40
9.6520212354362247
 40
9.6520212354362247
 40
10.76957509520426
 40
10.76957509520426
 40
10.76957509520426
 40
11.88858825881975
 40
11.88858825881975
 40
11.88858825881975
 40
11.88858825881975
 10
-46.258102121100499
 20
18.050864067448121
 30
0.0
 10
-46.143127516151843
 20
18.399022949400379
 30
0.0
 10
-46.021556427953008
 20
18.751024972330189
 30
0.0
 10
-45.893186762746737
 20
19.107134124816412
 30
0.0
 10
-45.768071174326593
 20
19.454216171677391
 30
0.0
 10
-45.637138208643272
 20
19.803421886644291
 30
0.0
 10
-45.500384757727851
 20
20.154916493264981
 30
0.0
 11
-46.258102121100499
 21
18.050864067448121
 31
0.0
 11
-46.080667589520218
 21
18.57601774468203
 31
0.0
 11
-45.893186762746737
 21
19.107134124816412
 31
0.0
 11
-45.701149958673021
 21
19.629370599130805
 31
0.0
 11
-45.500384757727851
 21
20.154916493264981
 31
0.0
  0
SPLINE
  5
AF
100
AcDbEntity
  8
0
  6
CONTINUOUS
 62
             7
100
AcDbSpline
210
0.0
220
0.0
230
1.0
 70
             0
 71
             3
 72
            11
 73
             7
 74
             5
 42
0.00000000001
 43
0.00000000001
 44
0.00000000001
 40
12.6022249851908
 40
12.6022249851908
 40
12.6022249851908
 40
12.6022249851908
 40
13.319387266273759
 40
13.319387266273759
 40
13.319387266273759
 40
14.0365495399508
 40
14.0365495399508
 40
14.0365495399508
 40
14.0365495399508
 10
-47.178584020082461
 20
26.42679375289589
 30
0.0
 10
-47.026936434521893
 20
26.608037224278799
 30
0.0
 10
-46.873539642463257
 20
26.79136065992418
 30
0.0
 10
-46.718358162382764
 20
26.976806386576929
 30
0.0
 10
-46.566229775547662
 20
27.158603590894192
 30
0.0
 10
-46.412813467329798
 20
27.34192984509281
 30
0.0
 10
-46.258102121049568
 20
27.526793752898129
 30
0.0
 11
-47.178584020082461
 21
26.42679375289589
 31
0.0
 11
-46.94979630167758
 21
26.700224224010221
 31
0.0
 11
-46.718358162382764
 21
26.976806386576929
 31
0.0
 11
-46.489198751508084
 21
27.250650055929508
 31
0.0
 11
-46.258102121049568
 21
27.526793752898129
 31
0.0
  0
SPLINE
  5
AE
100
AcDbEntity
  8
0
  6
CONTINUOUS
 62
             7
100
AcDbSpline
210
0.0
220
0.0
230
1.0
 70
             0
 71
             3
 72
            11
 73
             7
 74
             5
 42
0.00000000001
 43
0.00000000001
 44
0.00000000001
 40
12.602224985190871
 40
12.602224985190871
 40
12.602224985190871
 40
12.602224985190871
 40
13.31938726627383
 40
13.31938726627383
 40
13.31938726627383
 40
14.03654953995088
 40
14.03654953995088
 40
14.03654953995088
 40
14.03654953995088
 10
-47.178584020082461
 20
-26.42204729399668
 30
0.0
 10
-47.026302422778507
 20
-26.60404851228742
 30
0.0
 10
-46.872891869239218
 20
-26.787388306133721
 30
0.0
 10
-46.718358162382764
 20
-26.97205992767778
 30
0.0
 10
-46.566287570854591
 20
-27.153788065167479
 30
0.0
 10
-46.412872528482367
 20
-27.33711281428327
 30
0.0
 10
-46.258102121049568
 20
-27.52204729399892
 30
0.0
 11
-47.178584020082461
 21
-26.42204729399668
 31
0.0
 11
-46.949315632314793
 21
-26.696052209617235
 31
0.0
 11
-46.718358162382764
 21
-26.97205992767778
 31
0.0
 11
-46.489242572680396
 21
-27.245851232503618
 31
0.0
 11
-46.258102121049568
 21
-27.52204729399892
 31
0.0
  0
SPLINE
  5
AD
100
AcDbEntity
  8
0
  6
CONTINUOUS
 62
             7
100
AcDbSpline
210
0.0
220
0.0
230
1.0
 70
             0
 71
             3
 72
            11
 73
             7
 74
             5
 42
0.00000000001
 43
0.00000000001
 44
0.00000000001
 40
110.6006816517057
 40
110.6006816517057
 40
110.6006816517057
 40
110.6006816517057
 40
111.20324172357979
 40
111.20324172357979
 40
111.20324172357979
 40
111.8057903305485
 40
111.8057903305485
 40
111.8057903305485
 40
111.8057903305485
 10
-46.258102121049568
 20
20.879291192183931
 30
0.0
 10
-46.412624613006891
 20
20.748732235943979
 30
0.0
 10
-46.566045110015367
 20
20.619097476118611
 30
0.0
 10
-46.718358140205638
 20
20.490391414629979
 30
0.0
 10
-46.873968339804968
 20
20.358899211415689
 30
0.0
 10
-47.027357492373667
 20
20.229276381454099
 30
0.0
 10
-47.178584020082461
 20
20.101473732876229
 30
0.0
 11
-46.258102121049568
 21
20.879291192183931
 31
0.0
 11
-46.489058678790244
 21
20.684146467875216
 31
0.0
 11
-46.718358140205638
 21
20.490391414629979
 31
0.0
 11
-46.950114957102997
 21
20.294548990764451
 31
0.0
 11
-47.178584020082461
 21
20.101473732876229
 31
0.0
  0
SPLINE
  5
AC
100
AcDbEntity
  8
0
  6
CONTINUOUS
 62
             7
100
AcDbSpline
210
0.0
220
0.0
230
1.0
 70
             0
 71
             3
 72
            11
 73
             7
 74
             5
 42
0.00000000001
 43
0.00000000001
 44
0.00000000001
 40
12.60222498519019
 40
12.60222498519019
 40
12.60222498519019
 40
12.60222498519019
 40
13.20477356312731
 40
13.20477356312731
 40
13.20477356312731
 40
13.807333664033029
 40
13.807333664033029
 40
13.807333664033029
 40
13.807333664033029
 10
-47.178584020082461
 20
-17.26830014923399
 30
0.0
 10
-47.027051508470002
 20
-17.39636138705168
 30
0.0
 10
-46.873656923642237
 20
-17.525988777598119
 30
0.0
 10
-46.718358162382764
 20
-17.65721781224488
 30
0.0
 10
-46.566008196481242
 20
-17.785955084786909
 30
0.0
 10
-46.412586826361483
 20
-17.915590578945629
 30
0.0
 10
-46.258102121049568
 20
-18.046117608538111
 30
0.0
 11
-47.178584020082461
 21
-17.26830014923399
 31
0.0
 11
-46.94988343485025
 21
-17.461571056928538
 31
0.0
 11
-46.718358162382764
 21
-17.65721781224488
 31
0.0
 11
-46.489030668995056
 21
-17.850996551497577
 31
0.0
 11
-46.258102121049568
 21
-18.046117608538111
 31
0.0
  0
SPLINE
  5
AB
100
AcDbEntity
  8
0
  6
CONTINUOUS
 62
             7
100
AcDbSpline
210
0.0
220
0.0
230
1.0
 70
             0
 71
             3
 72
            11
 73
             7
 74
             5
 42
0.00000000001
 43
0.00000000001
 44
0.00000000001
 40
110.6006816516911
 40
110.6006816516911
 40
110.6006816516911
 40
110.6006816516911
 40
111.2032417235651
 40
111.2032417235651
 40
111.2032417235651
 40
111.8057903305339
 40
111.8057903305339
 40
111.8057903305339
 40
111.8057903305339
 10
-46.258102121100499
 20
18.050864067448121
 30
0.0
 10
-46.412693956510019
 20
17.92024652156692
 30
0.0
 10
-46.566112886026211
 20
17.790613079952209
 30
0.0
 10
-46.718358140205638
 20
17.661964289883318
 30
0.0
 10
-46.873538665211207
 20
17.53083516607802
 30
0.0
 10
-47.026935483390517
 20
17.40120589959702
 30
0.0
 10
-47.178584020082461
 20
17.273046608129508
 30
0.0
 11
-46.258102121100499
 21
18.050864067448121
 31
0.0
 11
-46.489110098614347
 21
17.855675895236104
 31
0.0
 11
-46.718358140205638
 21
17.661964289883318
 31
0.0
 11
-46.949795575761662
 21
17.466391761879734
 31
0.0
 11
-47.178584020082461
 21
17.273046608129508
 31
0.0
  0
SPLINE
  5
AA
100
AcDbEntity
  8
0
  6
CONTINUOUS
 62
             7
100
AcDbSpline
210
0.0
220
0.0
230
1.0
 70
             0
 71
             3
 72
            11
 73
             7
 74
             5
 42
0.00000000001
 43
0.00000000001
 44
0.00000000001
 40
12.60222498519215
 40
12.60222498519215
 40
12.60222498519215
 40
12.60222498519215
 40
13.20477356312929
 40
13.20477356312929
 40
13.20477356312929
 40
13.80733366403499
 40
13.80733366403499
 40
13.80733366403499
 40
13.80733366403499
 10
-47.178584020082461
 20
-20.09672727397702
 30
0.0
 10
-47.026590094301028
 20
-20.225178456298519
 30
0.0
 10
-46.873186120428407
 20
-20.354813735852819
 30
0.0
 10
-46.718358162382764
 20
-20.485644936991608
 30
0.0
 10
-46.567077330666187
 20
-20.613478780259189
 30
0.0
 10
-46.413677340129333
 20
-20.743096308125018
 30
0.0
 10
-46.258102121049568
 20
-20.874544733284718
 30
0.0
 11
-47.178584020082461
 21
-20.09672727397702
 31
0.0
 11
-46.949533853331694
 21
-20.29029359842783
 31
0.0
 11
-46.718358162382764
 21
-20.485644936991608
 31
0.0
 11
-46.489840536977361
 21
-20.678739366928617
 31
0.0
 11
-46.258102121049568
 21
-20.874544733284718
 31
0.0
  0
SPLINE
  5
A9
100
AcDbEntity
  8
0
  6
CONTINUOUS
 62
             7
100
AcDbSpline
210
0.0
220
0.0
230
1.0
 70
             0
 71
             3
 72
            11
 73
             7
 74
             5
 42
0.00000000001
 43
0.00000000001
 44
0.00000000001
 40
10.195552434652781
 40
10.195552434652781
 40
10.195552434652781
 40
10.195552434652781
 40
11.264995853159769
 40
11.264995853159769
 40
11.264995853159769
 40
12.33452008509969
 40
12.33452008509969
 40
12.33452008509969
 40
12.33452008509969
 10
-45.500384757727851
 20
0.0023732294495744
 30
0.0
 10
-45.63817640223683
 20
-0.3342752779507237
 30
0.0
 10
-45.768863658183953
 20
-0.6657949297231198
 30
0.0
 10
-45.892759086403792
 20
-0.9924651091903911
 30
0.0
 10
-46.020575691079692
 20
-1.3294740996760199
 30
0.0
 10
-46.142358462471428
 20
-1.664471876138919
 30
0.0
 10
-46.258102121049568
 20
-1.997626770550426
 30
0.0
 11
-45.500384757727851
 21
0.0023732294495744
 31
0.0
 11
-45.701783003174242
 21
-0.4987878128452934
 31
0.0
 11
-45.892759086403792
 21
-0.9924651091903911
 31
0.0
 11
-46.07995795851334
 21
-1.4964912258982035
 31
0.0
 11
-46.258102121049568
 21
-1.997626770550426
 31
0.0
  0
SPLINE
  5
A8
100
AcDbEntity
  8
0
  6
CONTINUOUS
 62
             7
100
AcDbSpline
210
0.0
220
0.0
230
1.0
 70
             0
 71
             3
 72
            11
 73
             7
 74
             5
 42
0.00000000001
 43
0.00000000001
 44
0.00000000001
 40
10.195552434652781
 40
10.195552434652781
 40
10.195552434652781
 40
10.195552434652781
 40
10.72829261095816
 40
10.72829261095816
 40
10.72829261095816
 40
11.244087937724711
 40
11.244087937724711
 40
11.244087937724711
 40
11.244087937724711
 10
-45.500384757727851
 20
-20.150170034365889
 30
0.0
 10
-45.638328391192452
 20
-20.272234357759601
 30
0.0
 10
-45.769003200020641
 20
-20.392305346508518
 30
0.0
 10
-45.892759086403792
 20
-20.51048789537958
 30
0.0
 10
-46.021016016947797
 20
-20.632968784208799
 30
0.0
 10
-46.142755402149888
 20
-20.75429406064427
 30
0.0
 10
-46.258102121049568
 20
-20.874544733284718
 30
0.0
 11
-45.500384757727851
 21
-20.150170034365889
 31
0.0
 11
-45.701892327221366
 21
-20.331784630318726
 31
0.0
 11
-45.892759086403792
 21
-20.51048789537958
 31
0.0
 11
-46.0802719330933
 21
-20.693352645402939
 31
0.0
 11
-46.258102121049568
 21
-20.874544733284718
 31
0.0
  0
SPLINE
  5
A7
100
AcDbEntity
  8
0
  6
CONTINUOUS
 62
             7
100
AcDbSpline
210
0.0
220
0.0
230
1.0
 70
             0
 71
             3
 72
            11
 73
             7
 74
             5
 42
0.00000000001
 43
0.00000000001
 44
0.00000000001
 40
10.19555243465293
 40
10.19555243465293
 40
10.19555243465293
 40
10.19555243465293
 40
11.313304530967139
 40
11.313304530967139
 40
11.313304530967139
 40
12.43211945463684
 40
12.43211945463684
 40
12.43211945463684
 40
12.43211945463684
 10
-45.500384757727851
 20
-20.150170034365889
 30
0.0
 10
-45.638110836567328
 20
-19.796175502128619
 30
0.0
 10
-45.768803509130201
 20
-19.447406459887869
 30
0.0
 10
-45.892759086403792
 20
-19.103574024503189
 30
0.0
 10
-46.020973494025057
 20
-18.747928292425801
 30
0.0
 10
-46.142717009908353
 20
-18.39551955957802
 30
0.0
 10
-46.258102121049568
 20
-18.046117608538111
 30
0.0
 11
-45.500384757727851
 21
-20.150170034365889
 31
0.0
 11
-45.701735860153022
 21
-19.623061243114819
 31
0.0
 11
-45.892759086403792
 21
-19.103574024503189
 31
0.0
 11
-46.080241589906699
 21
-18.572504398631597
 31
0.0
 11
-46.258102121049568
 21
-18.046117608538111
 31
0.0
  0
SPLINE
  5
A6
100
AcDbEntity
  8
0
  6
CONTINUOUS
 62
             7
100
AcDbSpline
210
0.0
220
0.0
230
1.0
 70
             0
 71
             3
 72
            11
 73
             7
 74
             5
 42
0.00000000001
 43
0.00000000001
 44
0.00000000001
 40
10.19555243465283
 40
10.19555243465283
 40
10.19555243465283
 40
10.19555243465283
 40
11.26499585315983
 40
11.26499585315983
 40
11.26499585315983
 40
12.33452008509976
 40
12.33452008509976
 40
12.33452008509976
 40
12.33452008509976
 10
-45.500384757727851
 20
0.0023732294495744
 30
0.0
 10
-45.636787753308127
 20
0.3356290304865865
 30
0.0
 10
-45.767595882509021
 20
0.6671986945976869
 30
0.0
 10
-45.892759086403792
 20
0.9972115680894831
 30
0.0
 10
-46.020974530390639
 20
1.335272162420722
 30
0.0
 10
-46.142717945454613
 20
1.670253065719578
 30
0.0
 10
-46.258102121049568
 20
2.002373229449574
 30
0.0
 11
-45.500384757727851
 21
0.0023732294495744
 31
0.0
 11
-45.700786843947881
 21
0.5010084965989847
 31
0.0
 11
-45.892759086403792
 21
0.9972115680894831
 31
0.0
 11
-46.080242329373633
 21
1.5020200602449947
 31
0.0
 11
-46.258102121049568
 21
2.002373229449574
 31
0.0
  0
SPLINE
  5
A5
100
AcDbEntity
  8
0
  6
CONTINUOUS
 62
             7
100
AcDbSpline
210
0.0
220
0.0
230
1.0
 70
             0
 71
             3
 72
            11
 73
             7
 74
             5
 42
0.00000000001
 43
0.00000000001
 44
0.00000000001
 40
9.6520212354362265
 40
9.6520212354362265
 40
9.6520212354362265
 40
9.6520212354362265
 40
10.16722522019518
 40
10.16722522019518
 40
10.16722522019518
 40
10.7005567454881
 40
10.7005567454881
 40
10.7005567454881
 40
10.7005567454881
 10
-46.258102121049568
 20
20.879291192183931
 30
0.0
 10
-46.143209438075843
 20
20.75951385865773
 30
0.0
 10
-46.021646914828708
 20
20.638329034226619
 30
0.0
 10
-45.893186762746737
 20
20.515642789035329
 30
0.0
 10
-45.768477408506122
 20
20.396538754327821
 30
0.0
 10
-45.637584128926072
 20
20.276322229826519
 30
0.0
 10
-45.500384757727851
 20
20.154916493264981
 30
0.0
 11
-46.258102121049568
 21
20.879291192183931
 31
0.0
 11
-46.080732242813745
 21
20.698557832484042
 31
0.0
 11
-45.893186762746737
 21
20.515642789035329
 31
0.0
 11
-45.701469516596397
 21
20.336142779345419
 31
0.0
 11
-45.500384757727851
 21
20.154916493264981
 31
0.0
  0
SPLINE
  5
A4
100
AcDbEntity
  8
0
  6
CONTINUOUS
 62
             7
100
AcDbSpline
210
0.0
220
0.0
230
1.0
 70
             0
 71
             3
 72
            11
 73
             7
 74
             5
 42
0.00000000001
 43
0.00000000001
 44
0.00000000001
 40
10.19448601636854
 40
10.19448601636854
 40
10.19448601636854
 40
10.19448601636854
 40
10.818569247931419
 40
10.818569247931419
 40
10.818569247931419
 40
11.430058017314931
 40
11.430058017314931
 40
11.430058017314931
 40
11.430058017314931
 10
-45.500384757727851
 20
-28.497626770550429
 30
0.0
 10
-45.637424943848281
 20
-28.33430863641189
 30
0.0
 10
-45.768175952525461
 20
-28.17258567660679
 30
0.0
 10
-45.892758929370437
 20
-28.012355039679111
 30
0.0
 10
-46.021002711178561
 20
-27.847416110133789
 30
0.0
 10
-46.142743430223753
 20
-27.684016319923789
 30
0.0
 10
-46.258102121049568
 20
-27.52204729399892
 30
0.0
 11
-45.500384757727851
 21
-28.497626770550429
 31
0.0
 11
-45.701243297027439
 21
-28.253833093660703
 31
0.0
 11
-45.892758929370437
 21
-28.012355039679111
 31
0.0
 11
-46.080262434328368
 21
-27.766087452981346
 31
0.0
 11
-46.258102121049568
 21
-27.52204729399892
 31
0.0
  0
LINE
  5
A3
100
AcDbEntity
  8
1
  6
DOT_CENTER
 62
             2
100
AcDbLine
 10
-48.50038475772785
 20
20.0
 11
-50.50038475772785
 21
20.0
  0
LINE
  5
A2
100
AcDbEntity
  8
1
  6
DOT_CENTER
 62
             2
100
AcDbLine
 10
-48.50038475772785
 20
-20.0
 11
-50.50038475772785
 21
-20.0
  0
LINE
  5
A1
100
AcDbEntity
  8
1
  6
CONTINUOUS
 62
             7
100
AcDbLine
 10
-49.50038475772785
 20
24.00237322944957
 11
-50.50038475772785
 21
24.00237322944957
  0
LINE
  5
A0
100
AcDbEntity
  8
1
  6
CONTINUOUS
 62
             7
100
AcDbLine
 10
-49.50038475772785
 20
-23.99762677055043
 11
-50.50038475772785
 21
-23.99762677055043
  0
LINE
  5
9F
100
AcDbEntity
  8
1
  6
PHANTOM
 62
             2
100
AcDbLine
 10
-33.00038475772785
 20
0.00237322944957
 11
-30.50038475772785
 21
0.00237322944957
  0
LINE
  5
9E
100
AcDbEntity
  8
0
  6
CONTINUOUS
 62
             7
100
AcDbLine
 10
-33.00038475772785
 20
20.10147373287623
 11
-33.00038475772785
 21
18.0508640674372
  0
LINE
  5
9D
100
AcDbEntity
  8
0
  6
CONTINUOUS
 62
             7
100
AcDbLine
 10
-33.00038475772785
 20
26.42679375289589
 11
-33.00038475772785
 21
20.87929119218393
  0
LINE
  5
9C
100
AcDbEntity
  8
0
  6
CONTINUOUS
 62
             7
100
AcDbLine
 10
-33.00038475772785
 20
-17.26830014923399
 11
-33.00038475772785
 21
-1.99762677055043
  0
LINE
  5
9B
100
AcDbEntity
  8
0
  6
CONTINUOUS
 62
             7
100
AcDbLine
 10
-33.00038475772785
 20
27.52679375289813
 11
-33.00038475772785
 21
26.42679375289589
  0
LINE
  5
9A
100
AcDbEntity
  8
0
  6
CONTINUOUS
 62
             7
100
AcDbLine
 10
-46.25810212104957
 20
27.52679375289813
 11
-33.00038475772785
 21
27.52679375289813
  0
LINE
  5
99
100
AcDbEntity
  8
0
  6
CONTINUOUS
 62
             7
100
AcDbLine
 10
-47.17858402008246
 20
26.42679375289589
 11
-47.17858402008246
 21
20.10147373287623
  0
LINE
  5
98
100
AcDbEntity
  8
0
  6
CONTINUOUS
 62
             7
100
AcDbLine
 10
-47.17858402008246
 20
-1.99762677055043
 11
-46.25810212104957
 21
-1.99762677055043
  0
LINE
  5
97
100
AcDbEntity
  8
0
  6
CONTINUOUS
 62
             7
100
AcDbLine
 10
-47.17858402008246
 20
26.42679375289589
 11
-33.00038475772785
 21
26.42679375289589
  0
LINE
  5
96
100
AcDbEntity
  8
0
  6
CONTINUOUS
 62
             7
100
AcDbLine
 10
-33.00038475772785
 20
28.50237322944957
 11
-30.50038475772785
 21
28.50237322944957
  0
LINE
  5
95
100
AcDbEntity
  8
0
  6
CONTINUOUS
 62
             7
100
AcDbLine
 10
-33.00038475772785
 20
-28.49762677055043
 11
-30.50038475772785
 21
-28.49762677055043
  0
LINE
  5
94
100
AcDbEntity
  8
0
  6
CONTINUOUS
 62
             7
100
AcDbLine
 10
-30.50038475772785
 20
28.50237322944957
 11
-30.50038475772785
 21
-28.49762677055043
  0
LINE
  5
93
100
AcDbEntity
  8
0
  6
CONTINUOUS
 62
             7
100
AcDbLine
 10
-46.25810212104957
 20
-27.52204729399892
 11
-33.00038475772785
 21
-27.52204729399892
  0
LINE
  5
92
100
AcDbEntity
  8
0
  6
CONTINUOUS
 62
             7
100
AcDbLine
 10
-33.00038475772785
 20
-26.42204729399668
 11
-33.00038475772785
 21
-20.87454473328472
  0
LINE
  5
91
100
AcDbEntity
  8
0
  6
CONTINUOUS
 62
             7
100
AcDbLine
 10
-47.17858402008246
 20
-26.42204729399668
 11
-33.00038475772785
 21
-26.42204729399668
  0
LINE
  5
90
100
AcDbEntity
  8
0
  6
CONTINUOUS
 62
             7
100
AcDbLine
 10
-47.17858402008246
 20
-26.42204729399668
 11
-47.17858402008246
 21
-20.09672727397702
  0
LINE
  5
8F
100
AcDbEntity
  8
0
  6
CONTINUOUS
 62
             7
100
AcDbLine
 10
-33.00038475772785
 20
20.15491649326498
 11
-33.00038475772785
 21
20.10147373287623
  0
LINE
  5
8E
100
AcDbEntity
  8
0
  6
CONTINUOUS
 62
             7
100
AcDbLine
 10
-33.00038475772785
 20
2.00237322944957
 11
-33.00038475772785
 21
0.00237322944957
  0
LINE
  5
8D
100
AcDbEntity
  8
0
  6
CONTINUOUS
 62
             7
100
AcDbLine
 10
-33.00038475772785
 20
-18.04611760853811
 11
-33.00038475772785
 21
-20.09672727397702
  0
LINE
  5
8C
100
AcDbEntity
  8
0
  6
CONTINUOUS
 62
             7
100
AcDbLine
 10
-33.00038475772785
 20
-18.04611760853811
 11
-33.00038475772785
 21
-17.26830014923399
  0
LINE
  5
8B
100
AcDbEntity
  8
0
  6
CONTINUOUS
 62
             7
100
AcDbLine
 10
-33.00038475772785
 20
-1.99762677055043
 11
-33.00038475772785
 21
0.00237322944957
  0
LINE
  5
8A
100
AcDbEntity
  8
0
  6
CONTINUOUS
 62
             7
100
AcDbLine
 10
-33.00038475772785
 20
-20.15017003436589
 11
-33.00038475772785
 21
-20.09672727397702
  0
LINE
  5
89
100
AcDbEntity
  8
0
  6
CONTINUOUS
 62
             7
100
AcDbLine
 10
-33.00038475772785
 20
-20.87454473328472
 11
-33.00038475772785
 21
-20.15017003436589
  0
LINE
  5
88
100
AcDbEntity
  8
0
  6
CONTINUOUS
 62
             7
100
AcDbLine
 10
-33.00038475772785
 20
2.00237322944957
 11
-33.00038475772785
 21
17.27304660812951
  0
LINE
  5
87
100
AcDbEntity
  8
0
  6
CONTINUOUS
 62
             7
100
AcDbLine
 10
-33.00038475772785
 20
17.27304660812951
 11
-33.00038475772785
 21
18.0508640674372
  0
LINE
  5
86
100
AcDbEntity
  8
0
  6
CONTINUOUS
 62
             7
100
AcDbLine
 10
-33.00038475772785
 20
20.15491649326498
 11
-33.00038475772785
 21
20.87929119218393
  0
LINE
  5
85
100
AcDbEntity
  8
0
  6
CONTINUOUS
 62
             7
100
AcDbLine
 10
-43.50038475772785
 20
20.87929119218393
 11
-33.00038475772785
 21
20.87929119218393
  0
LINE
  5
84
100
AcDbEntity
  8
0
  6
CONTINUOUS
 62
             7
100
AcDbLine
 10
-44.50038475772785
 20
-20.87454473328472
 11
-33.00038475772785
 21
-20.87454473328472
  0
LINE
  5
83
100
AcDbEntity
  8
0
  6
CONTINUOUS
 62
             7
100
AcDbLine
 10
-45.50038475772785
 20
0.00237322944957
 11
-33.00038475772785
 21
0.00237322944957
  0
LINE
  5
82
100
AcDbEntity
  8
0
  6
CONTINUOUS
 62
             7
100
AcDbLine
 10
-45.50038475772785
 20
-20.15017003436589
 11
-33.00038475772785
 21
-20.15017003436589
  0
LINE
  5
81
100
AcDbEntity
  8
0
  6
CONTINUOUS
 62
             7
100
AcDbLine
 10
-45.50038475772785
 20
20.15491649326498
 11
-33.00038475772785
 21
20.15491649326498
  0
LINE
  5
80
100
AcDbEntity
  8
0
  6
CONTINUOUS
 62
             7
100
AcDbLine
 10
-46.25810212104957
 20
-1.99762677055043
 11
-33.00038475772785
 21
-1.99762677055043
  0
LINE
  5
7F
100
AcDbEntity
  8
0
  6
CONTINUOUS
 62
             7
100
AcDbLine
 10
-46.2581021211005
 20
18.05086406744812
 11
-33.00038475772785
 21
18.0508640674372
  0
LINE
  5
7E
100
AcDbEntity
  8
0
  6
CONTINUOUS
 62
             7
100
AcDbLine
 10
-46.25810212104957
 20
-18.04611760853811
 11
-33.00038475772785
 21
-18.04611760853811
  0
LINE
  5
7D
100
AcDbEntity
  8
0
  6
CONTINUOUS
 62
             7
100
AcDbLine
 10
-46.25810212104957
 20
-20.87454473328472
 11
-44.50038475772785
 21
-20.87454473328472
  0
LINE
  5
7C
100
AcDbEntity
  8
0
  6
CONTINUOUS
 62
             7
100
AcDbLine
 10
-46.25810212104957
 20
2.00237322944957
 11
-33.00038475772785
 21
2.00237322944957
  0
LINE
  5
7B
100
AcDbEntity
  8
0
  6
CONTINUOUS
 62
             7
100
AcDbLine
 10
-47.17858402008246
 20
17.27304660812951
 11
-33.00038475772785
 21
17.27304660812951
  0
LINE
  5
7A
100
AcDbEntity
  8
0
  6
CONTINUOUS
 62
             7
100
AcDbLine
 10
-47.17858402008246
 20
2.00237322944957
 11
-46.25810212104957
 21
2.00237322944957
  0
LINE
  5
79
100
AcDbEntity
  8
0
  6
CONTINUOUS
 62
             7
100
AcDbLine
 10
-47.17858402008246
 20
-17.26830014923399
 11
-33.00038475772785
 21
-17.26830014923399
  0
LINE
  5
78
100
AcDbEntity
  8
0
  6
CONTINUOUS
 62
             7
100
AcDbLine
 10
-47.17858402008246
 20
-17.26830014923399
 11
-47.17858402008246
 21
-1.99762677055043
  0
LINE
  5
77
100
AcDbEntity
  8
0
  6
CONTINUOUS
 62
             7
100
AcDbLine
 10
-47.17858402008246
 20
2.00237322944957
 11
-47.17858402008246
 21
17.27304660812951
  0
LINE
  5
76
100
AcDbEntity
  8
0
  6
CONTINUOUS
 62
             7
100
AcDbLine
 10
-46.25810212104957
 20
20.87929119218393
 11
-44.50038475772785
 21
20.87929119218393
  0
LINE
  5
75
100
AcDbEntity
  8
0
  6
CONTINUOUS
 62
             7
100
AcDbLine
 10
-44.50038475772785
 20
20.87929119218393
 11
-43.50038475772785
 21
20.87929119218393
  0
LINE
  5
74
100
AcDbEntity
  8
0
  6
CONTINUOUS
 62
             7
100
AcDbLine
 10
-33.00038475772785
 20
-27.52204729399892
 11
-33.00038475772785
 21
-26.42204729399668
  0
LINE
  5
73
100
AcDbEntity
  8
0
  6
CONTINUOUS
 62
             7
100
AcDbLine
 10
-45.50038475776423
 20
28.50237322943139
 11
-47.50038475772785
 21
26.11886604425962
  0
LINE
  5
72
100
AcDbEntity
  8
0
  6
CONTINUOUS
 62
             7
100
AcDbLine
 10
-33.00038475772785
 20
27.52679375289813
 11
-33.00038475772785
 21
28.50237322944957
  0
LINE
  5
71
100
AcDbEntity
  8
0
  6
CONTINUOUS
 62
             7
100
AcDbLine
 10
-33.00038475772785
 20
-27.52204729399892
 11
-33.00038475772785
 21
-28.49762677055043
  0
LINE
  5
70
100
AcDbEntity
  8
0
  6
CONTINUOUS
 62
             7
100
AcDbLine
 10
-45.50038475772785
 20
-28.49762677055043
 11
-33.00038475772785
 21
-28.49762677055043
  0
LINE
  5
6F
100
AcDbEntity
  8
0
  6
CONTINUOUS
 62
             7
100
AcDbLine
 10
-45.50038475776423
 20
28.50237322943139
 11
-33.00038475772785
 21
28.50237322944957
  0
LINE
  5
6E
100
AcDbEntity
  8
0
  6
CONTINUOUS
 62
             7
100
AcDbLine
 10
-45.50038475772785
 20
-28.49762677055043
 11
-47.50038475772785
 21
-26.11411958536047
  0
LINE
  5
6D
100
AcDbEntity
  8
0
  6
CONTINUOUS
 62
             7
100
AcDbLine
 10
-47.50038475772785
 20
-26.11411958536047
 11
-47.50038475772785
 21
26.11886604425962
  0
ENDBLK
  5
B2
100
AcDbEntity
  8
0
100
AcDbBlockEnd
  0
BLOCK
  5
2C
100
AcDbEntity
  8
0
100
AcDbBlockBegin
  2
HOLL_NDER6_4
 70
             0
 10
-28.49999999999993
 20
68.38248057281206
 30
0.0
  3
HOLL_NDER6_4
  1

  0
SPLINE
  5
ED
100
AcDbEntity
  8
0
  6
CONTINUOUS
 62
             7
100
AcDbSpline
210
0.0
220
0.0
230
1.0
 70
             0
 71
             3
 72
            11
 73
             7
 74
             5
 42
0.00000000001
 43
0.00000000001
 44
0.00000000001
 40
9.6520212354362016
 40
9.6520212354362016
 40
9.6520212354362016
 40
9.6520212354362016
 40
10.26281301545233
 40
10.26281301545233
 40
10.26281301545233
 40
10.88759324294017
 40
10.88759324294017
 40
10.88759324294017
 40
10.88759324294017
 10
27.52442052344762
 20
68.644689127211677
 30
0.0
 10
27.687371558054711
 20
68.76074723096275
 30
0.0
 10
27.850609120982629
 20
68.882437659983026
 30
0.0
 10
28.01417799195238
 20
69.009604485512568
 30
0.0
 10
28.174600472158801
 20
69.134325145565214
 30
0.0
 10
28.336506923306469
 20
69.265219510178213
 30
0.0
 10
28.499999999999972
 20
69.402406490531803
 30
0.0
 11
27.52442052344762
 21
68.644689127211677
 31
0.0
 11
27.769067569064003
 21
68.822981035695193
 31
0.0
 11
28.01417799195238
 21
69.009604485512568
 31
0.0
 11
28.255937522293518
 21
69.201330617909335
 31
0.0
 11
28.499999999999972
 21
69.402406490531803
 31
0.0
  0
SPLINE
  5
EC
100
AcDbEntity
  8
0
  6
CONTINUOUS
 62
             7
100
AcDbSpline
210
0.0
220
0.0
230
1.0
 70
             0
 71
             3
 72
            11
 73
             7
 74
             5
 42
0.00000000001
 43
0.00000000001
 44
0.00000000001
 40
12.6022249851908
 40
12.6022249851908
 40
12.6022249851908
 40
12.6022249851908
 40
13.31938726627375
 40
13.31938726627375
 40
13.31938726627375
 40
14.036549539950791
 40
14.036549539950791
 40
14.036549539950791
 40
14.036549539950791
 10
26.424420523447591
 20
67.724207228177249
 30
0.0
 10
26.605676446002779
 20
67.875865231717398
 30
0.0
 10
26.789000124398878
 20
68.029262228105097
 30
0.0
 10
26.974433157128122
 20
68.184433085878794
 30
0.0
 10
27.156251754960721
 20
68.336579374863391
 30
0.0
 10
27.339578480668219
 20
68.489996079618976
 30
0.0
 10
27.52442052344762
 20
68.644689127211677
 30
0.0
 11
26.424420523447591
 21
67.724207228177249
 31
0.0
 11
26.697860423972585
 21
67.953002836690445
 31
0.0
 11
26.974433157128122
 21
68.184433085878794
 31
0.0
 11
27.248293048432817
 21
68.413606072067196
 31
0.0
 11
27.52442052344762
 21
68.644689127211677
 31
0.0
  0
SPLINE
  5
EB
100
AcDbEntity
  8
0
  6
CONTINUOUS
 62
             7
100
AcDbSpline
210
0.0
220
0.0
230
1.0
 70
             0
 71
             3
 72
            11
 73
             7
 74
             5
 42
0.00000000001
 43
0.00000000001
 44
0.00000000001
 40
12.602224985196161
 40
12.602224985196161
 40
12.602224985196161
 40
12.602224985196161
 40
13.204773563133299
 40
13.204773563133299
 40
13.204773563133299
 40
13.807333664039019
 40
13.807333664039019
 40
13.807333664039019
 40
13.807333664039019
 10
17.270673378681721
 20
67.724207228177221
 30
0.0
 10
17.3992604086549
 20
67.876361899991707
 30
0.0
 10
17.528898721162388
 20
68.029769481596787
 30
0.0
 10
17.659591041695389
 20
68.184433085878766
 30
0.0
 10
17.7880245460772
 20
68.336423567165298
 30
0.0
 10
17.9176532748867
 20
68.48983689129841
 30
0.0
 10
18.048490837986922
 20
68.644689127211677
 30
0.0
 11
17.270673378681721
 21
67.724207228177221
 31
0.0
 11
17.464342726228622
 21
67.953379307352691
 31
0.0
 11
17.659591041695389
 21
68.184433085878766
 31
0.0
 11
17.853139417821751
 21
68.413487948560203
 31
0.0
 11
18.048490837986922
 21
68.644689127211677
 31
0.0
  0
SPLINE
  5
EA
100
AcDbEntity
  8
0
  6
CONTINUOUS
 62
             7
100
AcDbSpline
210
0.0
220
0.0
230
1.0
 70
             0
 71
             3
 72
            11
 73
             7
 74
             5
 42
0.00000000001
 43
0.00000000001
 44
0.00000000001
 40
110.6006816517057
 40
110.6006816517057
 40
110.6006816517057
 40
110.6006816517057
 40
111.20324172357979
 40
111.20324172357979
 40
111.20324172357979
 40
111.8057903305485
 40
111.8057903305485
 40
111.8057903305485
 40
111.8057903305485
 10
20.876917962733071
 20
68.644689127211677
 30
0.0
 10
20.7457485647266
 20
68.48944414952021
 30
0.0
 10
20.616126274212121
 20
68.336038487059454
 30
0.0
 10
20.48801818517947
 20
68.184433108053611
 30
0.0
 10
20.357111396413099
 20
68.029515698268995
 30
0.0
 10
20.227477700528109
 20
67.876113608605522
 30
0.0
 10
20.099100503427881
 20
67.724207228177221
 30
0.0
 11
20.876917962733071
 21
68.644689127211677
 31
0.0
 11
20.681320083091094
 21
68.413196268125546
 31
0.0
 11
20.48801818517947
 21
68.184433108053611
 31
0.0
 11
20.292610747428874
 21
67.953191032106801
 31
0.0
 11
20.099100503427881
 21
67.724207228177221
 31
0.0
  0
SPLINE
  5
E9
100
AcDbEntity
  8
0
  6
CONTINUOUS
 62
             7
100
AcDbSpline
210
0.0
220
0.0
230
1.0
 70
             0
 71
             3
 72
            11
 73
             7
 74
             5
 42
0.00000000001
 43
0.00000000001
 44
0.00000000001
 40
9.6520212354362265
 40
9.6520212354362265
 40
9.6520212354362265
 40
9.6520212354362265
 40
10.769575095204271
 40
10.769575095204271
 40
10.769575095204271
 40
11.888588258819761
 40
11.888588258819761
 40
11.888588258819761
 40
11.888588258819761
 10
18.048490837986922
 20
68.644689127211677
 30
0.0
 10
18.40028289555298
 20
68.760863537573044
 30
0.0
 10
18.752348579418111
 20
68.882567450106023
 30
0.0
 10
19.104760895365789
 20
69.009604485512568
 30
0.0
 10
19.451840095679099
 20
69.134719047812951
 30
0.0
 10
19.801045757426412
 20
69.265651911424385
 30
0.0
 10
20.152543263816629
 20
69.402406490531803
 30
0.0
 11
18.048490837986922
 21
68.644689127211677
 31
0.0
 11
18.576393269783249
 21
68.823073321970185
 31
0.0
 11
19.104760895365789
 21
69.009604485512568
 31
0.0
 11
19.626995214812368
 21
69.201640481719551
 31
0.0
 11
20.152543263816629
 21
69.402406490531803
 31
0.0
  0
SPLINE
  5
E8
100
AcDbEntity
  8
0
  6
CONTINUOUS
 62
             7
100
AcDbSpline
210
0.0
220
0.0
230
1.0
 70
             0
 71
             3
 72
            11
 73
             7
 74
             5
 42
0.00000000001
 43
0.00000000001
 44
0.00000000001
 40
9.6520212354362123
 40
9.6520212354362123
 40
9.6520212354362123
 40
9.6520212354362123
 40
10.167225220195199
 40
10.167225220195199
 40
10.167225220195199
 40
10.700556745488139
 40
10.700556745488139
 40
10.700556745488139
 40
10.700556745488139
 10
-20.876917962733021
 20
68.644689127211649
 30
0.0
 10
-20.7556357029605
 20
68.761025363897375
 30
0.0
 10
-20.634423969310848
 20
68.882748260723133
 30
0.0
 10
-20.513269559587059
 20
69.009604485512568
 30
0.0
 10
-20.393705902596139
 20
69.134795092956949
 30
0.0
 10
-20.273481402318001
 20
69.265735547080737
 30
0.0
 10
-20.15254326381654
 20
69.402406490531831
 30
0.0
 11
-20.876917962733021
 21
68.644689127211649
 31
0.0
 11
-20.695045817391765
 21
68.823201810823221
 31
0.0
 11
-20.513269559587059
 21
69.009604485512568
 31
0.0
 11
-20.333421842268251
 21
69.201700362019679
 31
0.0
 11
-20.15254326381654
 21
69.402406490531831
 31
0.0
  0
SPLINE
  5
E7
100
AcDbEntity
  8
0
  6
CONTINUOUS
 62
             7
100
AcDbSpline
210
0.0
220
0.0
230
1.0
 70
             0
 71
             3
 72
            11
 73
             7
 74
             5
 42
0.00000000001
 43
0.00000000001
 44
0.00000000001
 40
110.6006816516975
 40
110.6006816516975
 40
110.6006816516975
 40
110.6006816516975
 40
111.20324172357159
 40
111.20324172357159
 40
111.20324172357159
 40
111.8057903305403
 40
111.8057903305403
 40
111.8057903305403
 40
111.8057903305403
 10
-18.048490837986812
 20
68.644689127211649
 30
0.0
 10
-17.917390347482499
 20
68.489525704698394
 30
0.0
 10
-17.787766789162191
 20
68.336118533072778
 30
0.0
 10
-17.659591060433311
 20
68.184433108053611
 30
0.0
 10
-17.528774604224822
 20
68.029622599416172
 30
0.0
 10
-17.399139002878599
 20
67.876218242765617
 30
0.0
 10
-17.270673378681611
 20
67.724207228177221
 30
0.0
 11
-18.048490837986812
 21
68.644689127211649
 31
0.0
 11
-17.852944163544269
 21
68.413256868572333
 31
0.0
 11
-17.659591060433311
 21
68.184433108053611
 31
0.0
 11
-17.464250657553141
 21
67.953270357847003
 31
0.0
 11
-17.270673378681611
 21
67.724207228177221
 31
0.0
  0
SPLINE
  5
E6
100
AcDbEntity
  8
0
  6
CONTINUOUS
 62
             7
100
AcDbSpline
210
0.0
220
0.0
230
1.0
 70
             0
 71
             3
 72
            11
 73
             7
 74
             5
 42
0.00000000001
 43
0.00000000001
 44
0.00000000001
 40
9.6520212354362176
 40
9.6520212354362176
 40
9.6520212354362176
 40
9.6520212354362176
 40
10.72033943287515
 40
10.72033943287515
 40
10.72033943287515
 40
11.790988889418911
 40
11.790988889418911
 40
11.790988889418911
 40
11.790988889418911
 10
-2.0
 20
68.644689127211592
 30
0.0
 10
-1.665467694307097
 20
68.760911321753895
 30
0.0
 10
-1.3308096648662231
 20
68.882620812649122
 30
0.0
 10
-0.9959660278309173
 20
69.009604485512511
 30
0.0
 10
-0.6670215830530992
 20
69.134350991480858
 30
0.0
 10
-0.3351019936303032
 20
69.265247840635851
 30
0.0
 10
0.0
 20
69.402406490531746
 30
0.0
 11
-2.0
 21
68.644689127211592
 31
0.0
 11
-1.4980997631688606
 21
68.823111251991634
 31
0.0
 11
-0.9959660278309173
 21
69.009604485512511
 31
0.0
 11
-0.5002920947351398
 21
69.201350934049302
 31
0.0
 11
0.0
 21
69.402406490531746
 31
0.0
  0
SPLINE
  5
E5
100
AcDbEntity
  8
0
  6
CONTINUOUS
 62
             7
100
AcDbSpline
210
0.0
220
0.0
230
1.0
 70
             0
 71
             3
 72
            11
 73
             7
 74
             5
 42
0.00000000001
 43
0.00000000001
 44
0.00000000001
 40
10.19555243465283
 40
10.19555243465283
 40
10.19555243465283
 40
10.19555243465283
 40
11.26499585315983
 40
11.26499585315983
 40
11.26499585315983
 40
12.334520085099751
 40
12.334520085099751
 40
12.334520085099751
 40
12.334520085099751
 10
0.0
 20
69.402406490531746
 30
0.0
 10
0.3332557632545843
 20
69.266003510414237
 30
0.0
 10
0.6648254281139998
 20
69.135195379797665
 30
0.0
 10
0.9948383386407045
 20
69.010032161857566
 30
0.0
 10
1.332898786907492
 20
68.881816773266195
 30
0.0
 10
1.667879692324391
 20
68.760073352815454
 30
0.0
 10
2.0
 20
68.644689127211592
 30
0.0
 11
0.0
 21
69.402406490531746
 31
0.0
 11
0.4986352390933071
 21
69.202004415378127
 31
0.0
 11
0.9948383386407045
 21
69.010032161857566
 31
0.0
 11
1.4996467220420435
 21
68.822548958414259
 31
0.0
 11
2.0
 21
68.644689127211592
 31
0.0
  0
SPLINE
  5
E4
100
AcDbEntity
  8
0
  6
CONTINUOUS
 62
             7
100
AcDbSpline
210
0.0
220
0.0
230
1.0
 70
             0
 71
             3
 72
            11
 73
             7
 74
             5
 42
0.00000000001
 43
0.00000000001
 44
0.00000000001
 40
12.60222498519215
 40
12.60222498519215
 40
12.60222498519215
 40
12.60222498519215
 40
13.20477356312928
 40
13.20477356312928
 40
13.20477356312928
 40
13.80733366403499
 40
13.80733366403499
 40
13.80733366403499
 40
13.80733366403499
 10
-20.09910050342782
 20
67.724207228177193
 30
0.0
 10
-20.22729877194605
 20
67.875901885699363
 30
0.0
 10
-20.356928796537471
 20
68.029299606346598
 30
0.0
 10
-20.488018166441542
 20
68.184433085878766
 30
0.0
 10
-20.616428489706781
 20
68.336396134221786
 30
0.0
 10
-20.746056732803869
 20
68.489808880524663
 30
0.0
 10
-20.876917962733021
 20
68.644689127211649
 30
0.0
 11
-20.09910050342782
 21
67.724207228177193
 31
0.0
 11
-20.292475171914994
 21
67.953030598774234
 31
0.0
 11
-20.488018166441542
 21
68.184433085878766
 31
0.0
 11
-20.681548974588317
 21
68.413467157166224
 31
0.0
 11
-20.876917962733021
 21
68.644689127211649
 31
0.0
  0
SPLINE
  5
E3
100
AcDbEntity
  8
0
  6
CONTINUOUS
 62
             7
100
AcDbSpline
210
0.0
220
0.0
230
1.0
 70
             0
 71
             3
 72
            11
 73
             7
 74
             5
 42
0.00000000001
 43
0.00000000001
 44
0.00000000001
 40
10.19555243465293
 40
10.19555243465293
 40
10.19555243465293
 40
10.19555243465293
 40
11.313304530967139
 40
11.313304530967139
 40
11.313304530967139
 40
12.43211945463684
 40
12.43211945463684
 40
12.43211945463684
 40
12.43211945463684
 10
-20.15254326381654
 20
69.402406490531831
 30
0.0
 10
-19.79854877164038
 20
69.264680427280325
 30
0.0
 10
-19.449779728991189
 20
69.133987753424833
 30
0.0
 10
-19.105947253953872
 20
69.010032161857623
 30
0.0
 10
-18.750301654022369
 20
68.88181780187611
 30
0.0
 10
-18.397892919255781
 20
68.760074281357618
 30
0.0
 10
-18.048490837986812
 20
68.644689127211649
 30
0.0
 11
-20.15254326381654
 21
69.402406490531831
 31
0.0
 11
-19.625434502458138
 21
69.20105539931312
 31
0.0
 11
-19.105947253953872
 21
69.010032161857623
 31
0.0
 11
-18.574877726471893
 21
68.822549692346314
 31
0.0
 11
-18.048490837986812
 21
68.644689127211649
 31
0.0
  0
SPLINE
  5
E2
100
AcDbEntity
  8
0
  6
CONTINUOUS
 62
             7
100
AcDbSpline
210
0.0
220
0.0
230
1.0
 70
             0
 71
             3
 72
            11
 73
             7
 74
             5
 42
0.00000000001
 43
0.00000000001
 44
0.00000000001
 40
10.19555243465282
 40
10.19555243465282
 40
10.19555243465282
 40
10.19555243465282
 40
10.72829261095819
 40
10.72829261095819
 40
10.72829261095819
 40
11.24408793772473
 40
11.24408793772473
 40
11.24408793772473
 40
11.24408793772473
 10
20.152543263816629
 20
69.402406490531803
 30
0.0
 10
20.27460757710222
 20
69.26446286849125
 30
0.0
 10
20.394678565937429
 20
69.133788058734297
 30
0.0
 10
20.51286112482828
 20
69.010032161857623
 30
0.0
 10
20.634843989593691
 20
68.882296741552864
 30
0.0
 10
20.756177333873691
 20
68.760505821380661
 30
0.0
 10
20.876917962733071
 20
68.644689127211677
 30
0.0
 11
20.152543263816629
 21
69.402406490531803
 31
0.0
 11
20.334157852220482
 21
69.200898929258258
 31
0.0
 11
20.51286112482828
 21
69.010032161857623
 31
0.0
 11
20.695355382245435
 21
68.822891122233727
 31
0.0
 11
20.876917962733071
 21
68.644689127211677
 31
0.0
  0
SPLINE
  5
E1
100
AcDbEntity
  8
0
  6
CONTINUOUS
 62
             7
100
AcDbSpline
210
0.0
220
0.0
230
1.0
 70
             0
 71
             3
 72
            11
 73
             7
 74
             5
 42
0.00000000001
 43
0.00000000001
 44
0.00000000001
 40
110.600681651694
 40
110.600681651694
 40
110.600681651694
 40
110.600681651694
 40
111.3178438908175
 40
111.3178438908175
 40
111.3178438908175
 40
112.035006206454
 40
112.035006206454
 40
112.035006206454
 40
112.035006206454
 10
-27.524420523447549
 20
68.644689127211706
 30
0.0
 10
-27.339081092488371
 20
68.489579818836575
 30
0.0
 10
-27.155764480908861
 20
68.336171622634367
 30
0.0
 10
-26.974433183627468
 20
68.184433108053639
 30
0.0
 10
-26.7889345747916
 20
68.029207376017609
 30
0.0
 10
-26.605612131350359
 20
67.875811419231525
 30
0.0
 10
-26.424420523447552
 20
67.724207228177249
 30
0.0
 11
-27.524420523447549
 21
68.644689127211706
 31
0.0
 11
-27.247923803408341
 21
68.413297069959768
 31
0.0
 11
-26.974433183627468
 21
68.184433108053639
 31
0.0
 11
-26.697811728187617
 21
67.952962090247283
 31
0.0
 11
-26.424420523447552
 21
67.724207228177249
 31
0.0
  0
SPLINE
  5
E0
100
AcDbEntity
  8
0
  6
CONTINUOUS
 62
             7
100
AcDbSpline
210
0.0
220
0.0
230
1.0
 70
             0
 71
             3
 72
            11
 73
             7
 74
             5
 42
0.00000000001
 43
0.00000000001
 44
0.00000000001
 40
10.19448601636854
 40
10.19448601636854
 40
10.19448601636854
 40
10.19448601636854
 40
10.818569247931419
 40
10.818569247931419
 40
10.818569247931419
 40
11.430058017314931
 40
11.430058017314931
 40
11.430058017314931
 40
11.430058017314931
 10
-28.499999999999929
 20
69.402406490531803
 30
0.0
 10
-28.33730261752018
 20
69.265887176899554
 30
0.0
 10
-28.175569085348432
 20
69.135089724060293
 30
0.0
 10
-28.01472826912924
 20
69.01003231888771
 30
0.0
 10
-27.8497893425568
 20
68.881788539392119
 30
0.0
 10
-27.686389552305268
 20
68.76004782012393
 30
0.0
 10
-27.524420523447549
 20
68.644689127211706
 30
0.0
 11
-28.499999999999929
 21
69.402406490531803
 31
0.0
 11
-28.256667922216874
 21
69.201921189037392
 31
0.0
 11
-28.01472826912924
 21
69.01003231888771
 31
0.0
 11
-27.768460684645376
 21
68.822528815580952
 31
0.0
 11
-27.524420523447549
 21
68.644689127211706
 31
0.0
  0
LINE
  5
DF
100
AcDbEntity
  8
0
  6
CONTINUOUS
 62
             7
100
AcDbLine
 10
-26.11649281481149
 20
67.4024064905318
 11
26.11649281481161
 21
67.4024064905318
  0
LINE
  5
DE
100
AcDbEntity
  8
0
  6
CONTINUOUS
 62
             7
100
AcDbLine
 10
28.49999999999997
 20
84.4024064905318
 11
-28.4999999999999
 21
84.4024064905318
  0
LINE
  5
DD
100
AcDbEntity
  8
0
  6
CONTINUOUS
 62
             7
100
AcDbLine
 10
26.11649281481161
 20
67.4024064905318
 11
28.49999999999997
 21
69.4024064905318
  0
LINE
  5
DC
100
AcDbEntity
  8
0
  6
CONTINUOUS
 62
             7
100
AcDbLine
 10
-20.09910050342782
 20
67.72420722817719
 11
-26.42442052344755
 21
67.72420722817725
  0
LINE
  5
DB
100
AcDbEntity
  8
0
  6
CONTINUOUS
 62
             7
100
AcDbLine
 10
28.49999999999997
 20
81.9024064905318
 11
28.49999999999997
 21
69.4024064905318
  0
LINE
  5
DA
100
AcDbEntity
  8
0
  6
CONTINUOUS
 62
             7
100
AcDbLine
 10
28.49999999999997
 20
84.4024064905318
 11
28.49999999999997
 21
81.9024064905318
  0
LINE
  5
D9
100
AcDbEntity
  8
0
  6
CONTINUOUS
 62
             7
100
AcDbLine
 10
28.49999999999997
 20
81.9024064905318
 11
27.52442052344762
 21
81.9024064905318
  0
LINE
  5
D8
100
AcDbEntity
  8
0
  6
CONTINUOUS
 62
             7
100
AcDbLine
 10
17.27067337868172
 20
81.9024064905318
 11
17.27067337868172
 21
67.72420722817722
  0
LINE
  5
D7
100
AcDbEntity
  8
0
  6
CONTINUOUS
 62
             7
100
AcDbLine
 10
26.42442052344759
 20
67.72420722817725
 11
20.09910050342788
 21
67.72420722817722
  0
LINE
  5
D6
100
AcDbEntity
  8
0
  6
CONTINUOUS
 62
             7
100
AcDbLine
 10
26.42442052344759
 20
81.9024064905318
 11
26.42442052344759
 21
67.72420722817725
  0
LINE
  5
D5
100
AcDbEntity
  8
0
  6
CONTINUOUS
 62
             7
100
AcDbLine
 10
2.0
 20
81.9024064905318
 11
2.0
 21
68.64468912721159
  0
LINE
  5
D4
100
AcDbEntity
  8
0
  6
CONTINUOUS
 62
             7
100
AcDbLine
 10
17.27067337868172
 20
67.72420722817722
 11
2.0
 21
67.72420722817722
  0
LINE
  5
D3
100
AcDbEntity
  8
0
  6
CONTINUOUS
 62
             7
100
AcDbLine
 10
2.0
 20
68.64468912721159
 11
2.0
 21
67.72420722817722
  0
LINE
  5
D2
100
AcDbEntity
  8
0
  6
CONTINUOUS
 62
             7
100
AcDbLine
 10
-2.0
 20
67.72420722817722
 11
-17.27067337868161
 21
67.72420722817722
  0
LINE
  5
D1
100
AcDbEntity
  8
0
  6
CONTINUOUS
 62
             7
100
AcDbLine
 10
-2.0
 20
67.72420722817722
 11
-2.0
 21
68.64468912721159
  0
LINE
  5
D0
100
AcDbEntity
  8
0
  6
CONTINUOUS
 62
             7
100
AcDbLine
 10
-26.42442052344755
 20
81.9024064905318
 11
-26.42442052344755
 21
67.72420722817725
  0
LINE
  5
CF
100
AcDbEntity
  8
0
  6
CONTINUOUS
 62
             7
100
AcDbLine
 10
-2.0
 20
81.9024064905318
 11
-2.0
 21
68.64468912721159
  0
LINE
  5
CE
100
AcDbEntity
  8
0
  6
CONTINUOUS
 62
             7
100
AcDbLine
 10
-17.27067337868161
 20
81.9024064905318
 11
-17.27067337868161
 21
67.72420722817722
  0
LINE
  5
CD
100
AcDbEntity
  8
0
  6
CONTINUOUS
 62
             7
100
AcDbLine
 10
-20.87691796273303
 20
81.9024064905318
 11
-20.87691796273302
 21
68.64468912721165
  0
LINE
  5
CC
100
AcDbEntity
  8
0
  6
CONTINUOUS
 62
             7
100
AcDbLine
 10
-18.04849083798681
 20
81.9024064905318
 11
-18.04849083798681
 21
68.64468912721165
  0
LINE
  5
CB
100
AcDbEntity
  8
0
  6
CONTINUOUS
 62
             7
100
AcDbLine
 10
18.04849083798692
 20
81.9024064905318
 11
18.04849083798692
 21
68.64468912721168
  0
LINE
  5
CA
100
AcDbEntity
  8
0
  6
CONTINUOUS
 62
             7
100
AcDbLine
 10
27.52442052344762
 20
81.9024064905318
 11
27.52442052344762
 21
68.64468912721168
  0
LINE
  5
C9
100
AcDbEntity
  8
0
  6
CONTINUOUS
 62
             7
100
AcDbLine
 10
20.87691796273307
 20
81.9024064905318
 11
20.87691796273307
 21
68.64468912721168
  0
LINE
  5
C8
100
AcDbEntity
  8
0
  6
CONTINUOUS
 62
             7
100
AcDbLine
 10
-27.52442052344755
 20
81.9024064905318
 11
-27.52442052344755
 21
68.64468912721171
  0
LINE
  5
C7
100
AcDbEntity
  8
0
  6
CONTINUOUS
 62
             7
100
AcDbLine
 10
0.0
 20
81.9024064905318
 11
0.0
 21
69.40240649053175
  0
LINE
  5
C6
100
AcDbEntity
  8
0
  6
CONTINUOUS
 62
             7
100
AcDbLine
 10
20.15254326381663
 20
81.9024064905318
 11
20.15254326381663
 21
69.4024064905318
  0
LINE
  5
C5
100
AcDbEntity
  8
0
  6
CONTINUOUS
 62
             7
100
AcDbLine
 10
-20.15254326381654
 20
81.9024064905318
 11
-20.15254326381654
 21
69.40240649053183
  0
LINE
  5
C4
100
AcDbEntity
  8
0
  6
CONTINUOUS
 62
             7
100
AcDbLine
 10
-20.15254326381654
 20
81.9024064905318
 11
-20.87691796273303
 21
81.9024064905318
  0
LINE
  5
C3
100
AcDbEntity
  8
0
  6
CONTINUOUS
 62
             7
100
AcDbLine
 10
-20.87691796273303
 20
81.9024064905318
 11
-26.42442052344755
 21
81.9024064905318
  0
LINE
  5
C2
100
AcDbEntity
  8
0
  6
CONTINUOUS
 62
             7
100
AcDbLine
 10
-18.04849083798681
 20
81.9024064905318
 11
-20.15254326381654
 21
81.9024064905318
  0
LINE
  5
C1
100
AcDbEntity
  8
0
  6
CONTINUOUS
 62
             7
100
AcDbLine
 10
-17.27067337868161
 20
81.9024064905318
 11
-18.04849083798681
 21
81.9024064905318
  0
LINE
  5
C0
100
AcDbEntity
  8
0
  6
CONTINUOUS
 62
             7
100
AcDbLine
 10
-2.0
 20
81.9024064905318
 11
-17.27067337868161
 21
81.9024064905318
  0
LINE
  5
BF
100
AcDbEntity
  8
0
  6
CONTINUOUS
 62
             7
100
AcDbLine
 10
0.0
 20
81.9024064905318
 11
-2.0
 21
81.9024064905318
  0
LINE
  5
BE
100
AcDbEntity
  8
0
  6
CONTINUOUS
 62
             7
100
AcDbLine
 10
2.0
 20
81.9024064905318
 11
0.0
 21
81.9024064905318
  0
LINE
  5
BD
100
AcDbEntity
  8
0
  6
CONTINUOUS
 62
             7
100
AcDbLine
 10
20.15254326381663
 20
81.9024064905318
 11
18.04849083798692
 21
81.9024064905318
  0
LINE
  5
BC
100
AcDbEntity
  8
0
  6
CONTINUOUS
 62
             7
100
AcDbLine
 10
18.04849083798692
 20
81.9024064905318
 11
17.27067337868172
 21
81.9024064905318
  0
LINE
  5
BB
100
AcDbEntity
  8
0
  6
CONTINUOUS
 62
             7
100
AcDbLine
 10
17.27067337868172
 20
81.9024064905318
 11
2.0
 21
81.9024064905318
  0
LINE
  5
BA
100
AcDbEntity
  8
0
  6
CONTINUOUS
 62
             7
100
AcDbLine
 10
20.87691796273307
 20
81.9024064905318
 11
20.15254326381663
 21
81.9024064905318
  0
LINE
  5
B9
100
AcDbEntity
  8
0
  6
CONTINUOUS
 62
             7
100
AcDbLine
 10
26.42442052344759
 20
81.9024064905318
 11
20.87691796273307
 21
81.9024064905318
  0
LINE
  5
B8
100
AcDbEntity
  8
0
  6
CONTINUOUS
 62
             7
100
AcDbLine
 10
27.52442052344762
 20
81.9024064905318
 11
26.42442052344759
 21
81.9024064905318
  0
LINE
  5
B7
100
AcDbEntity
  8
0
  6
CONTINUOUS
 62
             7
100
AcDbLine
 10
-28.4999999999999
 20
84.4024064905318
 11
-28.49999999999993
 21
81.9024064905318
  0
LINE
  5
B6
100
AcDbEntity
  8
0
  6
CONTINUOUS
 62
             7
100
AcDbLine
 10
-26.11649281481149
 20
67.4024064905318
 11
-28.49999999999993
 21
69.4024064905318
  0
LINE
  5
B5
100
AcDbEntity
  8
0
  6
CONTINUOUS
 62
             7
100
AcDbLine
 10
-28.49999999999993
 20
81.9024064905318
 11
-28.49999999999993
 21
69.4024064905318
  0
LINE
  5
B4
100
AcDbEntity
  8
0
  6
CONTINUOUS
 62
             7
100
AcDbLine
 10
-27.52442052344755
 20
81.9024064905318
 11
-28.49999999999993
 21
81.9024064905318
  0
LINE
  5
B3
100
AcDbEntity
  8
0
  6
CONTINUOUS
 62
             7
100
AcDbLine
 10
-26.42442052344755
 20
81.9024064905318
 11
-27.52442052344755
 21
81.9024064905318
  0
ENDBLK
  5
EE
100
AcDbEntity
  8
0
100
AcDbBlockEnd
  0
BLOCK
  5
2E
100
AcDbEntity
  8
0
100
AcDbBlockBegin
  2
HL904K_RPER
 70
             0
 10
-28.99999999999999
 20
85.38248057281206
 30
0.0
  3
HL904K_RPER
  1

  0
SPLINE
  5
111
100
AcDbEntity
  8
0
  6
CONTINUOUS
 62
             7
100
AcDbSpline
210
0.0
220
0.0
230
1.0
 70
             0
 71
             3
 72
            11
 73
             7
 74
             5
 42
0.00000000001
 43
0.00000000001
 44
0.00000000001
 40
3.9254476989079068
 40
3.9254476989079068
 40
3.9254476989079068
 40
3.9254476989079068
 40
5.5637060401976299
 40
5.5637060401976299
 40
5.5637060401976299
 40
7.1065577475907302
 40
7.1065577475907302
 40
7.1065577475907302
 40
7.1065577475907302
 10
16.28233349797009
 20
102.8710284704745
 30
0.0
 10
16.033265979658299
 20
102.3674840851629
 30
0.0
 10
15.751819805229079
 20
101.8973502602876
 30
0.0
 10
15.441531832632879
 20
101.46660792517611
 30
0.0
 10
15.08277157835542
 20
100.968576279348
 30
0.0
 10
14.7321407170692
 20
100.5879957082394
 30
0.0
 10
14.43168385880122
 20
100.30237322945931
 30
0.0
 11
16.28233349797009
 21
102.8710284704745
 31
0.0
 11
15.88489033565814
 21
102.14151742900026
 31
0.0
 11
15.441531832632879
 21
101.46660792517611
 31
0.0
 11
14.914744072213493
 21
100.80483713967469
 31
0.0
 11
14.43168385880122
 21
100.30237322945931
 31
0.0
  0
SPLINE
  5
110
100
AcDbEntity
  8
0
  6
CONTINUOUS
 62
             7
100
AcDbSpline
210
0.0
220
0.0
230
1.0
 70
             0
 71
             3
 72
            17
 73
            13
 74
             9
 42
0.00000000001
 43
0.00000000001
 44
0.00000000001
 40
0.8264533450695222
 40
0.8264533450695222
 40
0.8264533450695222
 40
0.8264533450695222
 40
2.4483501717706901
 40
2.4483501717706901
 40
2.4483501717706901
 40
4.0635734089428004
 40
4.0635734089428004
 40
4.0635734089428004
 40
5.6847235083923593
 40
5.6847235083923593
 40
5.6847235083923593
 40
7.2984621121452831
 40
7.2984621121452831
 40
7.2984621121452831
 40
7.2984621121452831
 10
18.901703207354078
 20
108.59466367896989
 30
0.0
 10
18.901703207354078
 20
108.0559381588626
 30
0.0
 10
18.840669284818691
 20
107.5172298100626
 30
0.0
 10
18.7186130783941
 20
106.98573775421011
 30
0.0
 10
18.61815904323899
 20
106.54831205315649
 30
0.0
 10
18.45632981132368
 20
106.0284372225855
 30
0.0
 10
18.189363850201602
 20
105.4621519325934
 30
0.0
 10
17.9650412388639
 20
104.9863212518609
 30
0.0
 10
17.687218301129491
 20
104.5217144821391
 30
0.0
 10
17.355201995711099
 20
104.07439712704949
 30
0.0
 10
17.001315452557691
 20
103.59761454167111
 30
0.0
 10
16.62860701619357
 20
103.1980534129155
 30
0.0
 10
16.28233349797009
 20
102.8710284704745
 30
0.0
 11
18.901703207354078
 21
108.59466367896989
 31
0.0
 11
18.855929220283311
 21
107.78748816749444
 31
0.0
 11
18.7186130783941
 21
106.98573775421011
 31
0.0
 11
18.516430436535462
 21
106.27226718925368
 31
0.0
 11
18.189363850201602
 21
105.4621519325934
 31
0.0
 11
17.812668058236611
 21
104.75758203270536
 31
0.0
 11
17.355201995711099
 21
104.07439712704949
 31
0.0
 11
16.815912862491867
 21
103.41655368266046
 31
0.0
 11
16.28233349797009
 21
102.8710284704745
 31
0.0
  0
ARC
  5
10F
100
AcDbEntity
  8
0
  6
CONTINUOUS
 62
             7
100
AcDbCircle
 10
21.04999999999998
 20
100.30237322945931
 40
1.0
100
AcDbArc
 50
0.0
 51
90.0
  0
ARC
  5
10E
100
AcDbEntity
  8
0
  6
CONTINUOUS
 62
             7
100
AcDbCircle
 10
16.5000000000027
 20
108.5946636789716
 40
9.99999999999995
100
AcDbArc
 50
-56.28928521852211
 51
-56.01962354370333
  0
ARC
  5
10D
100
AcDbEntity
  8
0
  6
CONTINUOUS
 62
             7
100
AcDbCircle
 10
-16.5
 20
108.59466367896989
 40
9.99999999999999
100
AcDbArc
 50
180.0
 51
-123.71071478149597
  0
LINE
  5
10C
100
AcDbEntity
  8
0
  6
CONTINUOUS
 62
             7
100
AcDbLine
 10
-27.60000000000215
 20
132.1023732294592
 11
-28.99999999999999
 21
132.1023732294592
  0
LINE
  5
10B
100
AcDbEntity
  8
0
  6
CONTINUOUS
 62
             7
100
AcDbLine
 10
-26.49999999999999
 20
131.1023732294592
 11
-28.99999999999999
 21
131.1023732294592
  0
LINE
  5
10A
100
AcDbEntity
  8
0
  6
CONTINUOUS
 62
             7
100
AcDbLine
 10
28.99999999999997
 20
131.1023732294592
 11
22.27160488467101
 21
131.1023732294592
  0
LINE
  5
109
100
AcDbEntity
  8
0
  6
CONTINUOUS
 62
             7
100
AcDbLine
 10
-23.90149999999998
 20
87.38248057281206
 11
-23.90149999999998
 21
84.4024064905318
  0
LINE
  5
108
100
AcDbEntity
  8
0
  6
CONTINUOUS
 62
             7
100
AcDbLine
 10
-22.05000000001017
 20
88.30710702891102
 11
-22.30000000001017
 21
88.30710702891102
  0
LINE
  5
107
100
AcDbEntity
  8
0
  6
CONTINUOUS
 62
             7
100
AcDbLine
 10
-22.30000000001017
 20
88.30710702891102
 11
-23.90149999999998
 21
87.38248057281206
  0
LINE
  5
106
100
AcDbEntity
  8
0
  6
CONTINUOUS
 62
             7
100
AcDbLine
 10
22.30000000001022
 20
88.30710702891102
 11
22.05000000001022
 21
88.30710702891102
  0
LINE
  5
105
100
AcDbEntity
  8
0
  6
CONTINUOUS
 62
             7
100
AcDbLine
 10
-22.05000000001017
 20
100.2761602077987
 11
-22.05000000001017
 21
88.30710702891102
  0
LINE
  5
104
100
AcDbEntity
  8
0
  6
CONTINUOUS
 62
             7
100
AcDbLine
 10
-22.05000000001017
 20
100.2761602077987
 11
22.05000000001022
 21
100.2761602077987
  0
LINE
  5
103
100
AcDbEntity
  8
0
  6
CONTINUOUS
 62
             7
100
AcDbLine
 10
22.27160488467101
 20
131.1023732294592
 11
18.90170320735419
 21
131.1023732294592
  0
LINE
  5
102
100
AcDbEntity
  8
0
  6
CONTINUOUS
 62
             7
100
AcDbLine
 10
22.05000000001022
 20
88.30710702891102
 11
-22.05000000001017
 21
88.30710702891102
  0
LINE
  5
101
100
AcDbEntity
  8
0
  6
CONTINUOUS
 62
             7
100
AcDbLine
 10
14.43168385880122
 20
100.30237322945931
 11
22.04999999999998
 21
100.30237322945931
  0
LINE
  5
100
100
AcDbEntity
  8
0
  6
CONTINUOUS
 62
             7
100
AcDbLine
 10
21.04999999999998
 20
101.30237322945931
 11
15.32038336095289
 21
101.30237322945931
  0
LINE
  5
FF
100
AcDbEntity
  8
0
  6
CONTINUOUS
 62
             7
100
AcDbLine
 10
18.90170320735419
 20
131.1023732294592
 11
-26.49999999999999
 21
131.1023732294592
  0
LINE
  5
FE
100
AcDbEntity
  8
0
  6
CONTINUOUS
 62
             7
100
AcDbLine
 10
22.05000000001022
 20
100.2761602077987
 11
22.05000000001022
 21
88.30710702891102
  0
LINE
  5
FD
100
AcDbEntity
  8
0
  6
CONTINUOUS
 62
             7
100
AcDbLine
 10
22.30000000001022
 20
88.30710702891102
 11
23.90149999999997
 21
87.38248057281206
  0
LINE
  5
FC
100
AcDbEntity
  8
0
  6
CONTINUOUS
 62
             7
100
AcDbLine
 10
23.90149999999997
 20
87.38248057281206
 11
-23.90149999999998
 21
87.38248057281206
  0
LINE
  5
FB
100
AcDbEntity
  8
0
  6
CONTINUOUS
 62
             7
100
AcDbLine
 10
23.90149999999997
 20
87.38248057281206
 11
23.90149999999997
 21
84.4024064905318
  0
LINE
  5
FA
100
AcDbEntity
  8
0
  6
CONTINUOUS
 62
             7
100
AcDbLine
 10
22.04999999999998
 20
100.30237322945931
 11
22.08908929083762
 21
100.30237322945931
  0
LINE
  5
F9
100
AcDbEntity
  8
0
  6
CONTINUOUS
 62
             7
100
AcDbLine
 10
18.90170320735419
 20
131.1023732294592
 11
18.90170320735408
 21
108.59466367896989
  0
LINE
  5
F8
100
AcDbEntity
  8
0
  6
CONTINUOUS
 62
             7
100
AcDbLine
 10
-26.49999999999999
 20
131.1023732294592
 11
-26.49999999999999
 21
108.59466367896989
  0
LINE
  5
F7
100
AcDbEntity
  8
0
  6
CONTINUOUS
 62
             7
100
AcDbLine
 10
-27.60000000000215
 20
132.6023732294592
 11
-27.60000000000215
 21
132.1023732294592
  0
LINE
  5
F6
100
AcDbEntity
  8
0
  6
CONTINUOUS
 62
             7
100
AcDbLine
 10
-26.49999999999999
 20
108.59466367896989
 11
18.90170320735408
 21
108.59466367896989
  0
LINE
  5
F5
100
AcDbEntity
  8
0
  6
CONTINUOUS
 62
             7
100
AcDbLine
 10
27.60000000000221
 20
132.6023732294592
 11
27.60000000000221
 21
132.1023732294592
  0
LINE
  5
F4
100
AcDbEntity
  8
0
  6
CONTINUOUS
 62
             7
100
AcDbLine
 10
28.99999999999997
 20
132.1023732294592
 11
28.99999999999997
 21
131.1023732294592
  0
LINE
  5
F3
100
AcDbEntity
  8
0
  6
CONTINUOUS
 62
             7
100
AcDbLine
 10
27.60000000000221
 20
132.1023732294592
 11
-27.60000000000215
 21
132.1023732294592
  0
LINE
  5
F2
100
AcDbEntity
  8
0
  6
CONTINUOUS
 62
             7
100
AcDbLine
 10
28.99999999999997
 20
132.1023732294592
 11
27.60000000000221
 21
132.1023732294592
  0
LINE
  5
F1
100
AcDbEntity
  8
0
  6
CONTINUOUS
 62
             7
100
AcDbLine
 10
-28.99999999999999
 20
132.1023732294592
 11
-28.99999999999999
 21
131.1023732294592
  0
LINE
  5
F0
100
AcDbEntity
  8
1
  6
CONTINUOUS
 62
             2
100
AcDbLine
 10
-23.10149999999998
 20
87.38248057281206
 11
-23.10149999999998
 21
84.4024064905318
  0
LINE
  5
EF
100
AcDbEntity
  8
1
  6
CONTINUOUS
 62
             2
100
AcDbLine
 10
23.10149999999997
 20
87.38248057281206
 11
23.10149999999997
 21
84.4024064905318
  0
ENDBLK
  5
112
100
AcDbEntity
  8
0
100
AcDbBlockEnd
  0
BLOCK
  5
30
100
AcDbEntity
  8
0
100
AcDbBlockBegin
  2
HL904DECKEL
 70
             0
 10
-28.99999999999999
 20
132.6023732294592
 30
0.0
  3
HL904DECKEL
  1

  0
ARC
  5
155
100
AcDbEntity
  8
0
  6
CONTINUOUS
 62
             7
100
AcDbCircle
 10
13.29999999999902
 20
149.40237322945811
 40
15.0
100
AcDbArc
 50
0.0
 51
90.0
  0
ARC
  5
154
100
AcDbEntity
  8
0
  6
CONTINUOUS
 62
             7
100
AcDbCircle
 10
-13.29999999999902
 20
149.40237322945811
 40
15.0
100
AcDbArc
 50
90.0
 51
180.0
  0
LINE
  5
153
100
AcDbEntity
  8
1
  6
PHANTOM
 62
             2
100
AcDbLine
 10
0.0
 20
64.71527126472125
 11
0.0
 21
168.7787876772299
  0
LINE
  5
152
100
AcDbEntity
  8
0
  6
CONTINUOUS
 62
             7
100
AcDbLine
 10
-28.99999999999999
 20
132.6023732294592
 11
28.99999999999997
 21
132.6023732294592
  0
LINE
  5
151
100
AcDbEntity
  8
0
  6
CONTINUOUS
 62
             7
100
AcDbLine
 10
-13.29999999999902
 20
164.40237322945811
 11
-2.5
 21
164.40237322945919
  0
LINE
  5
150
100
AcDbEntity
  8
0
  6
CONTINUOUS
 62
             7
100
AcDbLine
 10
6.17492742341031
 20
164.40237322945919
 11
6.28710114927381
 21
164.40237322945919
  0
LINE
  5
14F
100
AcDbEntity
  8
0
  6
CONTINUOUS
 62
             7
100
AcDbLine
 10
7.43693137436648
 20
164.6023732294592
 11
6.68637602441888
 21
164.6023732294592
  0
LINE
  5
14E
100
AcDbEntity
  8
0
  6
CONTINUOUS
 62
             7
100
AcDbLine
 10
7.43693137436648
 20
164.40237322945919
 11
7.43693137436648
 21
164.6023732294592
  0
LINE
  5
14D
100
AcDbEntity
  8
0
  6
CONTINUOUS
 62
             7
100
AcDbLine
 10
-2.5
 20
164.40237322945919
 11
-2.5
 21
164.6023732294592
  0
LINE
  5
14C
100
AcDbEntity
  8
0
  6
CONTINUOUS
 62
             7
100
AcDbLine
 10
-2.5
 20
164.6023732294592
 11
2.5
 21
164.6023732294592
  0
LINE
  5
14B
100
AcDbEntity
  8
0
  6
CONTINUOUS
 62
             7
100
AcDbLine
 10
2.5
 20
164.40237322945919
 11
2.5
 21
164.6023732294592
  0
LINE
  5
14A
100
AcDbEntity
  8
0
  6
CONTINUOUS
 62
             7
100
AcDbLine
 10
6.28710114927381
 20
164.40237322945919
 11
6.3339676811114
 21
164.40237322945919
  0
LINE
  5
149
100
AcDbEntity
  8
0
  6
CONTINUOUS
 62
             7
100
AcDbLine
 10
6.3339676811114
 20
164.40237322945919
 11
6.42188873420199
 21
164.40237322945919
  0
LINE
  5
148
100
AcDbEntity
  8
0
  6
CONTINUOUS
 62
             7
100
AcDbLine
 10
6.42188873420199
 20
164.40237322945919
 11
6.51536523454919
 21
164.40237322945919
  0
LINE
  5
147
100
AcDbEntity
  8
0
  6
CONTINUOUS
 62
             7
100
AcDbLine
 10
6.51536523454919
 20
164.40237322945919
 11
6.68637602441888
 21
164.40237322945919
  0
LINE
  5
146
100
AcDbEntity
  8
0
  6
CONTINUOUS
 62
             7
100
AcDbLine
 10
6.68637602441888
 20
164.40237322945919
 11
7.43693137436648
 21
164.40237322945919
  0
LINE
  5
145
100
AcDbEntity
  8
0
  6
CONTINUOUS
 62
             7
100
AcDbLine
 10
5.9847350445414
 20
164.40237322945919
 11
6.17492742341031
 21
164.40237322945919
  0
LINE
  5
144
100
AcDbEntity
  8
0
  6
CONTINUOUS
 62
             7
100
AcDbLine
 10
3.1347350445505
 20
164.40237322945811
 11
3.30973504455079
 21
164.40237322945919
  0
LINE
  5
143
100
AcDbEntity
  8
0
  6
CONTINUOUS
 62
             7
100
AcDbLine
 10
5.884735044541
 20
164.40237322945919
 11
5.9847350445414
 21
164.40237322945919
  0
LINE
  5
142
100
AcDbEntity
  8
0
  6
CONTINUOUS
 62
             7
100
AcDbLine
 10
3.1347350445505
 20
164.6023732294592
 11
3.30973504455079
 21
164.6023732294592
  0
LINE
  5
141
100
AcDbEntity
  8
0
  6
CONTINUOUS
 62
             7
100
AcDbLine
 10
3.1347350445505
 20
164.40237322945811
 11
3.1347350445505
 21
164.6023732294592
  0
LINE
  5
140
100
AcDbEntity
  8
0
  6
CONTINUOUS
 62
             7
100
AcDbLine
 10
3.30973504455079
 20
164.40237322945919
 11
5.884735044541
 21
164.40237322945919
  0
LINE
  5
13F
100
AcDbEntity
  8
0
  6
CONTINUOUS
 62
             7
100
AcDbLine
 10
5.9847350445414
 20
164.40237322945919
 11
5.9847350445414
 21
164.6023732294592
  0
LINE
  5
13E
100
AcDbEntity
  8
0
  6
CONTINUOUS
 62
             7
100
AcDbLine
 10
6.51536523454919
 20
164.40237322945919
 11
6.51536523454919
 21
164.6023732294592
  0
LINE
  5
13D
100
AcDbEntity
  8
0
  6
CONTINUOUS
 62
             7
100
AcDbLine
 10
6.42188873420199
 20
164.40237322945919
 11
6.42188873420199
 21
164.6023732294592
  0
LINE
  5
13C
100
AcDbEntity
  8
0
  6
CONTINUOUS
 62
             7
100
AcDbLine
 10
6.3339676811114
 20
164.40237322945919
 11
6.3339676811114
 21
164.6023732294592
  0
LINE
  5
13B
100
AcDbEntity
  8
0
  6
CONTINUOUS
 62
             7
100
AcDbLine
 10
6.3339676811114
 20
164.6023732294592
 11
6.28710114927381
 21
164.6023732294592
  0
LINE
  5
13A
100
AcDbEntity
  8
0
  6
CONTINUOUS
 62
             7
100
AcDbLine
 10
6.42188873420199
 20
164.6023732294592
 11
6.3339676811114
 21
164.6023732294592
  0
LINE
  5
139
100
AcDbEntity
  8
0
  6
CONTINUOUS
 62
             7
100
AcDbLine
 10
6.68637602441888
 20
164.6023732294592
 11
6.51536523454919
 21
164.6023732294592
  0
LINE
  5
138
100
AcDbEntity
  8
0
  6
CONTINUOUS
 62
             7
100
AcDbLine
 10
6.51536523454919
 20
164.6023732294592
 11
6.42188873420199
 21
164.6023732294592
  0
LINE
  5
137
100
AcDbEntity
  8
0
  6
CONTINUOUS
 62
             7
100
AcDbLine
 10
5.884735044541
 20
164.40237322945919
 11
5.884735044541
 21
164.6023732294592
  0
LINE
  5
136
100
AcDbEntity
  8
0
  6
CONTINUOUS
 62
             7
100
AcDbLine
 10
6.28710114927381
 20
164.40237322945919
 11
6.28710114927381
 21
164.6023732294592
  0
LINE
  5
135
100
AcDbEntity
  8
0
  6
CONTINUOUS
 62
             7
100
AcDbLine
 10
6.68637602441888
 20
164.40237322945919
 11
6.68637602441888
 21
164.6023732294592
  0
LINE
  5
134
100
AcDbEntity
  8
0
  6
CONTINUOUS
 62
             7
100
AcDbLine
 10
3.30973504455079
 20
164.40237322945919
 11
3.30973504455079
 21
164.6023732294592
  0
LINE
  5
133
100
AcDbEntity
  8
0
  6
CONTINUOUS
 62
             7
100
AcDbLine
 10
6.17492742341031
 20
164.40237322945919
 11
6.17492742341031
 21
164.6023732294592
  0
LINE
  5
132
100
AcDbEntity
  8
0
  6
CONTINUOUS
 62
             7
100
AcDbLine
 10
5.884735044541
 20
164.6023732294592
 11
3.30973504455079
 21
164.6023732294592
  0
LINE
  5
131
100
AcDbEntity
  8
0
  6
CONTINUOUS
 62
             7
100
AcDbLine
 10
5.9847350445414
 20
164.6023732294592
 11
5.884735044541
 21
164.6023732294592
  0
LINE
  5
130
100
AcDbEntity
  8
0
  6
CONTINUOUS
 62
             7
100
AcDbLine
 10
6.17492742341031
 20
164.6023732294592
 11
5.9847350445414
 21
164.6023732294592
  0
LINE
  5
12F
100
AcDbEntity
  8
0
  6
CONTINUOUS
 62
             7
100
AcDbLine
 10
2.5
 20
164.40237322945919
 11
3.1347350445505
 21
164.40237322945811
  0
LINE
  5
12E
100
AcDbEntity
  8
0
  6
CONTINUOUS
 62
             7
100
AcDbLine
 10
-2.5
 20
164.40237322945919
 11
2.5
 21
164.40237322945919
  0
LINE
  5
12D
100
AcDbEntity
  8
0
  6
CONTINUOUS
 62
             7
100
AcDbLine
 10
7.43693137436648
 20
164.40237322945919
 11
7.76220904933899
 21
164.40237322945919
  0
LINE
  5
12C
100
AcDbEntity
  8
0
  6
CONTINUOUS
 62
             7
100
AcDbLine
 10
13.006641348984
 20
164.40237322945919
 11
13.006641348984
 21
164.6023732294592
  0
LINE
  5
12B
100
AcDbEntity
  8
0
  6
CONTINUOUS
 62
             7
100
AcDbLine
 10
13.006641348984
 20
164.40237322945919
 11
13.29999999999902
 21
164.40237322945811
  0
LINE
  5
12A
100
AcDbEntity
  8
0
  6
CONTINUOUS
 62
             7
100
AcDbLine
 10
28.29999999999902
 20
142.10237322945619
 11
28.99999999999997
 21
141.40237322945529
  0
LINE
  5
129
100
AcDbEntity
  8
0
  6
CONTINUOUS
 62
             7
100
AcDbLine
 10
28.99999999999997
 20
132.6023732294592
 11
28.99999999999997
 21
141.40237322945529
  0
LINE
  5
128
100
AcDbEntity
  8
0
  6
CONTINUOUS
 62
             7
100
AcDbLine
 10
10.90664134898398
 20
164.6023732294592
 11
13.006641348984
 21
164.6023732294592
  0
LINE
  5
127
100
AcDbEntity
  8
0
  6
CONTINUOUS
 62
             7
100
AcDbLine
 10
10.65055534993903
 20
164.40237322945919
 11
10.90664134898398
 21
164.40237322945919
  0
LINE
  5
126
100
AcDbEntity
  8
0
  6
CONTINUOUS
 62
             7
100
AcDbLine
 10
10.65055534993903
 20
164.40237322945919
 11
10.65055534993903
 21
164.6023732294592
  0
LINE
  5
125
100
AcDbEntity
  8
0
  6
CONTINUOUS
 62
             7
100
AcDbLine
 10
10.90664134898398
 20
164.40237322945919
 11
10.90664134898398
 21
164.6023732294592
  0
LINE
  5
124
100
AcDbEntity
  8
0
  6
CONTINUOUS
 62
             7
100
AcDbLine
 10
10.65055534993903
 20
164.6023732294592
 11
9.97656840327872
 21
164.6023732294592
  0
LINE
  5
123
100
AcDbEntity
  8
0
  6
CONTINUOUS
 62
             7
100
AcDbLine
 10
9.97656840327872
 20
164.40237322945811
 11
9.97656840327872
 21
164.6023732294592
  0
LINE
  5
122
100
AcDbEntity
  8
0
  6
CONTINUOUS
 62
             7
100
AcDbLine
 10
9.45156840327857
 20
164.6023732294592
 11
9.97656840327872
 21
164.6023732294592
  0
LINE
  5
121
100
AcDbEntity
  8
0
  6
CONTINUOUS
 62
             7
100
AcDbLine
 10
9.45156840327857
 20
164.40237322945919
 11
9.45156840327857
 21
164.6023732294592
  0
LINE
  5
120
100
AcDbEntity
  8
0
  6
CONTINUOUS
 62
             7
100
AcDbLine
 10
9.45156840327857
 20
164.40237322945919
 11
9.97656840327872
 21
164.40237322945811
  0
LINE
  5
11F
100
AcDbEntity
  8
0
  6
CONTINUOUS
 62
             7
100
AcDbLine
 10
9.97656840327872
 20
164.40237322945811
 11
10.65055534993903
 21
164.40237322945919
  0
LINE
  5
11E
100
AcDbEntity
  8
0
  6
CONTINUOUS
 62
             7
100
AcDbLine
 10
10.90664134898398
 20
164.40237322945919
 11
13.006641348984
 21
164.40237322945919
  0
LINE
  5
11D
100
AcDbEntity
  8
0
  6
CONTINUOUS
 62
             7
100
AcDbLine
 10
9.45156840327857
 20
164.6023732294592
 11
7.76220904933899
 21
164.6023732294592
  0
LINE
  5
11C
100
AcDbEntity
  8
0
  6
CONTINUOUS
 62
             7
100
AcDbLine
 10
7.76220904933899
 20
164.40237322945919
 11
9.45156840327857
 21
164.40237322945919
  0
LINE
  5
11B
100
AcDbEntity
  8
0
  6
CONTINUOUS
 62
             7
100
AcDbLine
 10
7.76220904933899
 20
164.40237322945919
 11
7.76220904933899
 21
164.6023732294592
  0
LINE
  5
11A
100
AcDbEntity
  8
0
  6
CONTINUOUS
 62
             7
100
AcDbLine
 10
7.76220904933899
 20
164.6023732294592
 11
7.43693137436648
 21
164.6023732294592
  0
LINE
  5
119
100
AcDbEntity
  8
0
  6
CONTINUOUS
 62
             7
100
AcDbLine
 10
-28.99999999999999
 20
141.40237322945529
 11
28.99999999999997
 21
141.40237322945529
  0
LINE
  5
118
100
AcDbEntity
  8
0
  6
CONTINUOUS
 62
             7
100
AcDbLine
 10
-28.99999999999999
 20
132.6023732294592
 11
-28.99999999999999
 21
141.40237322945529
  0
LINE
  5
117
100
AcDbEntity
  8
0
  6
CONTINUOUS
 62
             7
100
AcDbLine
 10
-28.299999999999
 20
149.40237322945811
 11
28.29999999999902
 21
149.40237322945811
  0
LINE
  5
116
100
AcDbEntity
  8
0
  6
CONTINUOUS
 62
             7
100
AcDbLine
 10
-28.299999999999
 20
142.10237322945619
 11
28.29999999999902
 21
142.10237322945619
  0
LINE
  5
115
100
AcDbEntity
  8
0
  6
CONTINUOUS
 62
             7
100
AcDbLine
 10
-28.299999999999
 20
142.10237322945619
 11
-28.299999999999
 21
149.40237322945811
  0
LINE
  5
114
100
AcDbEntity
  8
0
  6
CONTINUOUS
 62
             7
100
AcDbLine
 10
28.29999999999902
 20
142.10237322945619
 11
28.29999999999902
 21
149.40237322945811
  0
LINE
  5
113
100
AcDbEntity
  8
0
  6
CONTINUOUS
 62
             7
100
AcDbLine
 10
-28.299999999999
 20
142.10237322945619
 11
-28.99999999999999
 21
141.40237322945529
  0
ENDBLK
  5
156
100
AcDbEntity
  8
0
100
AcDbBlockEnd
  0
BLOCK
  5
32
100
AcDbEntity
  8
0
100
AcDbBlockBegin
  2
HL_904
 70
             0
 10
0.0
 20
67.4024064905318
 30
0.0
  3
HL_904
  1

  0
INSERT
  5
33
100
AcDbEntity
  8
0
100
AcDbBlockReference
  2
HOLL_NDER6_4
 10
-28.49999999999993
 20
68.38248057281206
  0
INSERT
  5
34
100
AcDbEntity
  8
0
100
AcDbBlockReference
  2
HL904K_RPER
 10
-28.99999999999999
 20
85.38248057281206
  0
INSERT
  5
35
100
AcDbEntity
  8
0
100
AcDbBlockReference
  2
HL904DECKEL
 10
-28.99999999999999
 20
132.6023732294592
  0
ENDBLK
  5
157
100
AcDbEntity
  8
0
100
AcDbBlockEnd
  0
BLOCK
  5
37
100
AcDbEntity
  8
0
100
AcDbBlockBegin
  2
HOLL_NDERMUTTER_6_4__2
 70
             0
 10
154.68578186403181
 20
-10.39213930722024
 30
0.0
  3
HOLL_NDERMUTTER_6_4__2
  1

  0
SPLINE
  5
198
100
AcDbEntity
  8
0
  6
CONTINUOUS
 62
             7
100
AcDbSpline
210
0.0
220
0.0
230
1.0
 70
             0
 71
             3
 72
            11
 73
             7
 74
             5
 42
0.00000000001
 43
0.00000000001
 44
0.00000000001
 40
10.19555243465282
 40
10.19555243465282
 40
10.19555243465282
 40
10.19555243465282
 40
10.819635921994889
 40
10.819635921994889
 40
10.819635921994889
 40
11.431124435565939
 40
11.431124435565939
 40
11.431124435565939
 40
11.431124435565939
 10
-28.502373229431381
 20
49.073230991444127
 30
0.0
 10
-28.33966171559149
 20
49.209762162694823
 30
0.0
 10
-28.177928380445501
 20
49.340558596379552
 30
0.0
 10
-28.01710129661592
 20
49.465605320083696
 30
0.0
 10
-27.85216229574069
 20
49.593849153019967
 30
0.0
 10
-27.68876257480877
 20
49.715589809208161
 30
0.0
 10
-27.526793752898129
 20
49.830948354729472
 30
0.0
 11
-28.502373229431381
 21
49.073230991444127
 31
0.0
 11
-28.259030601769783
 21
49.273724823593867
 31
0.0
 11
-28.01710129661592
 21
49.465605320083696
 31
0.0
 11
-27.770833707645298
 21
49.653108820187185
 31
0.0
 11
-27.526793752898129
 21
49.830948354729472
 31
0.0
  0
SPLINE
  5
197
100
AcDbEntity
  8
0
  6
CONTINUOUS
 62
             7
100
AcDbSpline
210
0.0
220
0.0
230
1.0
 70
             0
 71
             3
 72
            11
 73
             7
 74
             5
 42
0.00000000001
 43
0.00000000001
 44
0.00000000001
 40
9.6520212354362247
 40
9.6520212354362247
 40
9.6520212354362247
 40
9.6520212354362247
 40
10.76957509520426
 40
10.76957509520426
 40
10.76957509520426
 40
11.88858825881975
 40
11.88858825881975
 40
11.88858825881975
 40
11.88858825881975
 10
-18.05086406744811
 20
49.830948354780404
 30
0.0
 10
-18.399022949400369
 20
49.715973749831747
 30
0.0
 10
-18.751024972330178
 20
49.594402661632913
 30
0.0
 10
-19.107134124816412
 20
49.466032996426641
 30
0.0
 10
-19.45421617167738
 20
49.340917408006497
 30
0.0
 10
-19.80342188664428
 20
49.209984442323183
 30
0.0
 10
-20.15491649326497
 20
49.073230991407762
 30
0.0
 11
-18.05086406744811
 21
49.830948354780404
 31
0.0
 11
-18.576017744682019
 21
49.653513823200129
 31
0.0
 11
-19.107134124816412
 21
49.466032996426641
 31
0.0
 11
-19.629370599130795
 21
49.273996192352925
 31
0.0
 11
-20.15491649326497
 21
49.073230991407762
 31
0.0
  0
SPLINE
  5
196
100
AcDbEntity
  8
0
  6
CONTINUOUS
 62
             7
100
AcDbSpline
210
0.0
220
0.0
230
1.0
 70
             0
 71
             3
 72
            11
 73
             7
 74
             5
 42
0.00000000001
 43
0.00000000001
 44
0.00000000001
 40
12.6022249851908
 40
12.6022249851908
 40
12.6022249851908
 40
12.6022249851908
 40
13.319387266273759
 40
13.319387266273759
 40
13.319387266273759
 40
14.0365495399508
 40
14.0365495399508
 40
14.0365495399508
 40
14.0365495399508
 10
-26.42679375289589
 20
50.751430253762372
 30
0.0
 10
-26.608037224278799
 20
50.599782668201797
 30
0.0
 10
-26.79136065992418
 20
50.446385876143161
 30
0.0
 10
-26.976806386576921
 20
50.291204396062668
 30
0.0
 10
-27.158603590894192
 20
50.139076009227573
 30
0.0
 10
-27.3419298450928
 20
49.985659701009702
 30
0.0
 10
-27.526793752898129
 20
49.830948354729472
 30
0.0
 11
-26.42679375289589
 21
50.751430253762372
 31
0.0
 11
-26.700224224010221
 21
50.522642535357491
 31
0.0
 11
-26.976806386576921
 21
50.291204396062668
 31
0.0
 11
-27.250650055929505
 21
50.062044985187995
 31
0.0
 11
-27.526793752898129
 21
49.830948354729472
 31
0.0
  0
SPLINE
  5
195
100
AcDbEntity
  8
0
  6
CONTINUOUS
 62
             7
100
AcDbSpline
210
0.0
220
0.0
230
1.0
 70
             0
 71
             3
 72
            11
 73
             7
 74
             5
 42
0.00000000001
 43
0.00000000001
 44
0.00000000001
 40
12.602224985190871
 40
12.602224985190871
 40
12.602224985190871
 40
12.602224985190871
 40
13.31938726627383
 40
13.31938726627383
 40
13.31938726627383
 40
14.03654953995088
 40
14.03654953995088
 40
14.03654953995088
 40
14.03654953995088
 10
26.422047293996691
 20
50.751430253762372
 30
0.0
 10
26.60404851228742
 20
50.599148656458418
 30
0.0
 10
26.787388306133732
 20
50.445738102919123
 30
0.0
 10
26.97205992767778
 20
50.291204396062668
 30
0.0
 10
27.153788065167479
 20
50.139133804534502
 30
0.0
 10
27.33711281428328
 20
49.985718762162271
 30
0.0
 10
27.522047293998931
 20
49.830948354729472
 30
0.0
 11
26.422047293996691
 21
50.751430253762372
 31
0.0
 11
26.696052209617239
 21
50.522161865994704
 31
0.0
 11
26.97205992767778
 21
50.291204396062668
 31
0.0
 11
27.245851232503622
 21
50.062088806360315
 31
0.0
 11
27.522047293998931
 21
49.830948354729472
 31
0.0
  0
SPLINE
  5
194
100
AcDbEntity
  8
0
  6
CONTINUOUS
 62
             7
100
AcDbSpline
210
0.0
220
0.0
230
1.0
 70
             0
 71
             3
 72
            11
 73
             7
 74
             5
 42
0.00000000001
 43
0.00000000001
 44
0.00000000001
 40
110.6006816517057
 40
110.6006816517057
 40
110.6006816517057
 40
110.6006816517057
 40
111.20324172357979
 40
111.20324172357979
 40
111.20324172357979
 40
111.8057903305485
 40
111.8057903305485
 40
111.8057903305485
 40
111.8057903305485
 10
-20.879291192183921
 20
49.830948354729472
 30
0.0
 10
-20.748732235943969
 20
49.985470846686802
 30
0.0
 10
-20.619097476118611
 20
50.138891343695278
 30
0.0
 10
-20.490391414629979
 20
50.291204373885542
 30
0.0
 10
-20.358899211415689
 20
50.446814573484872
 30
0.0
 10
-20.229276381454099
 20
50.600203726053572
 30
0.0
 10
-20.101473732876229
 20
50.751430253762372
 30
0.0
 11
-20.879291192183921
 21
49.830948354729472
 31
0.0
 11
-20.684146467875209
 21
50.061904912470155
 31
0.0
 11
-20.490391414629979
 21
50.291204373885542
 31
0.0
 11
-20.294548990764451
 21
50.522961190782901
 31
0.0
 11
-20.101473732876229
 21
50.751430253762372
 31
0.0
  0
SPLINE
  5
193
100
AcDbEntity
  8
0
  6
CONTINUOUS
 62
             7
100
AcDbSpline
210
0.0
220
0.0
230
1.0
 70
             0
 71
             3
 72
            11
 73
             7
 74
             5
 42
0.00000000001
 43
0.00000000001
 44
0.00000000001
 40
12.60222498519019
 40
12.60222498519019
 40
12.60222498519019
 40
12.60222498519019
 40
13.20477356312731
 40
13.20477356312731
 40
13.20477356312731
 40
13.807333664033029
 40
13.807333664033029
 40
13.807333664033029
 40
13.807333664033029
 10
17.268300149234001
 20
50.751430253762372
 30
0.0
 10
17.396361387051691
 20
50.599897742149913
 30
0.0
 10
17.525988777598119
 20
50.446503157322141
 30
0.0
 10
17.65721781224488
 20
50.291204396062668
 30
0.0
 10
17.785955084786909
 20
50.138854430161153
 30
0.0
 10
17.915590578945629
 20
49.985433060041387
 30
0.0
 10
18.046117608538118
 20
49.830948354729472
 30
0.0
 11
17.268300149234001
 21
50.751430253762372
 31
0.0
 11
17.461571056928541
 21
50.522729668530147
 31
0.0
 11
17.65721781224488
 21
50.291204396062668
 31
0.0
 11
17.850996551497577
 21
50.061876902674967
 31
0.0
 11
18.046117608538118
 21
49.830948354729472
 31
0.0
  0
SPLINE
  5
192
100
AcDbEntity
  8
0
  6
CONTINUOUS
 62
             7
100
AcDbSpline
210
0.0
220
0.0
230
1.0
 70
             0
 71
             3
 72
            11
 73
             7
 74
             5
 42
0.00000000001
 43
0.00000000001
 44
0.00000000001
 40
110.6006816516911
 40
110.6006816516911
 40
110.6006816516911
 40
110.6006816516911
 40
111.2032417235651
 40
111.2032417235651
 40
111.2032417235651
 40
111.8057903305339
 40
111.8057903305339
 40
111.8057903305339
 40
111.8057903305339
 10
-18.05086406744811
 20
49.830948354780404
 30
0.0
 10
-17.92024652156692
 20
49.985540190189923
 30
0.0
 10
-17.790613079952209
 20
50.138959119706122
 30
0.0
 10
-17.661964289883311
 20
50.291204373885542
 30
0.0
 10
-17.53083516607802
 20
50.446384898891111
 30
0.0
 10
-17.401205899597009
 20
50.599781717070421
 30
0.0
 10
-17.273046608129501
 20
50.751430253762372
 30
0.0
 11
-18.05086406744811
 21
49.830948354780404
 31
0.0
 11
-17.8556758952361
 21
50.061956332294258
 31
0.0
 11
-17.661964289883311
 21
50.291204373885542
 31
0.0
 11
-17.466391761879731
 21
50.522641809441559
 31
0.0
 11
-17.273046608129501
 21
50.751430253762372
 31
0.0
  0
SPLINE
  5
191
100
AcDbEntity
  8
0
  6
CONTINUOUS
 62
             7
100
AcDbSpline
210
0.0
220
0.0
230
1.0
 70
             0
 71
             3
 72
            11
 73
             7
 74
             5
 42
0.00000000001
 43
0.00000000001
 44
0.00000000001
 40
12.60222498519215
 40
12.60222498519215
 40
12.60222498519215
 40
12.60222498519215
 40
13.20477356312929
 40
13.20477356312929
 40
13.20477356312929
 40
13.80733366403499
 40
13.80733366403499
 40
13.80733366403499
 40
13.80733366403499
 10
20.096727273977031
 20
50.751430253762372
 30
0.0
 10
20.225178456298529
 20
50.599436327980932
 30
0.0
 10
20.354813735852819
 20
50.446032354108311
 30
0.0
 10
20.485644936991608
 20
50.291204396062668
 30
0.0
 10
20.613478780259189
 20
50.139923564346091
 30
0.0
 10
20.743096308125018
 20
49.986523573809237
 30
0.0
 10
20.874544733284729
 20
49.830948354729472
 30
0.0
 11
20.096727273977031
 21
50.751430253762372
 31
0.0
 11
20.290293598427837
 21
50.522380087011605
 31
0.0
 11
20.485644936991608
 21
50.291204396062668
 31
0.0
 11
20.678739366928617
 21
50.062686770657272
 31
0.0
 11
20.874544733284729
 21
49.830948354729472
 31
0.0
  0
SPLINE
  5
190
100
AcDbEntity
  8
0
  6
CONTINUOUS
 62
             7
100
AcDbSpline
210
0.0
220
0.0
230
1.0
 70
             0
 71
             3
 72
            11
 73
             7
 74
             5
 42
0.00000000001
 43
0.00000000001
 44
0.00000000001
 40
10.195552434652781
 40
10.195552434652781
 40
10.195552434652781
 40
10.195552434652781
 40
11.264995853159769
 40
11.264995853159769
 40
11.264995853159769
 40
12.33452008509969
 40
12.33452008509969
 40
12.33452008509969
 40
12.33452008509969
 10
-0.0023732294495717
 20
49.073230991407762
 30
0.0
 10
0.3342752779507264
 20
49.211022635916727
 30
0.0
 10
0.6657949297231226
 20
49.341709891863857
 30
0.0
 10
0.9924651091903939
 20
49.465605320083696
 30
0.0
 10
1.3294740996760219
 20
49.593421924759603
 30
0.0
 10
1.664471876138921
 20
49.715204696151332
 30
0.0
 10
1.9976267705504289
 20
49.830948354729472
 30
0.0
 11
-0.0023732294495717
 21
49.073230991407762
 31
0.0
 11
0.4987878128452962
 21
49.274629236854153
 31
0.0
 11
0.9924651091903939
 21
49.465605320083696
 31
0.0
 11
1.4964912258982057
 21
49.652804192193244
 31
0.0
 11
1.9976267705504289
 21
49.830948354729472
 31
0.0
  0
SPLINE
  5
18F
100
AcDbEntity
  8
0
  6
CONTINUOUS
 62
             7
100
AcDbSpline
210
0.0
220
0.0
230
1.0
 70
             0
 71
             3
 72
            11
 73
             7
 74
             5
 42
0.00000000001
 43
0.00000000001
 44
0.00000000001
 40
10.195552434652781
 40
10.195552434652781
 40
10.195552434652781
 40
10.195552434652781
 40
10.72829261095816
 40
10.72829261095816
 40
10.72829261095816
 40
11.244087937724711
 40
11.244087937724711
 40
11.244087937724711
 40
11.244087937724711
 10
20.150170034365889
 20
49.073230991407762
 30
0.0
 10
20.272234357759601
 20
49.211174624872363
 30
0.0
 10
20.392305346508529
 20
49.341849433700553
 30
0.0
 10
20.51048789537959
 20
49.465605320083696
 30
0.0
 10
20.632968784208799
 20
49.593862250627701
 30
0.0
 10
20.75429406064427
 20
49.715601635829792
 30
0.0
 10
20.874544733284729
 20
49.830948354729472
 30
0.0
 11
20.150170034365889
 21
49.073230991407762
 31
0.0
 11
20.331784630318733
 21
49.27473856090127
 31
0.0
 11
20.51048789537959
 21
49.465605320083696
 31
0.0
 11
20.693352645402939
 21
49.653118166773211
 31
0.0
 11
20.874544733284729
 21
49.830948354729472
 31
0.0
  0
SPLINE
  5
18E
100
AcDbEntity
  8
0
  6
CONTINUOUS
 62
             7
100
AcDbSpline
210
0.0
220
0.0
230
1.0
 70
             0
 71
             3
 72
            11
 73
             7
 74
             5
 42
0.00000000001
 43
0.00000000001
 44
0.00000000001
 40
10.19555243465293
 40
10.19555243465293
 40
10.19555243465293
 40
10.19555243465293
 40
11.313304530967139
 40
11.313304530967139
 40
11.313304530967139
 40
12.43211945463684
 40
12.43211945463684
 40
12.43211945463684
 40
12.43211945463684
 10
20.150170034365889
 20
49.073230991407762
 30
0.0
 10
19.796175502128619
 20
49.210957070247233
 30
0.0
 10
19.44740645988788
 20
49.341649742810112
 30
0.0
 10
19.103574024503189
 20
49.465605320083696
 30
0.0
 10
18.747928292425801
 20
49.593819727704961
 30
0.0
 10
18.39551955957802
 20
49.715563243588257
 30
0.0
 10
18.046117608538118
 20
49.830948354729472
 30
0.0
 11
20.150170034365889
 21
49.073230991407762
 31
0.0
 11
19.623061243114822
 21
49.274582093832933
 31
0.0
 11
19.103574024503189
 21
49.465605320083696
 31
0.0
 11
18.572504398631597
 21
49.653087823586596
 31
0.0
 11
18.046117608538118
 21
49.830948354729472
 31
0.0
  0
SPLINE
  5
18D
100
AcDbEntity
  8
0
  6
CONTINUOUS
 62
             7
100
AcDbSpline
210
0.0
220
0.0
230
1.0
 70
             0
 71
             3
 72
            11
 73
             7
 74
             5
 42
0.00000000001
 43
0.00000000001
 44
0.00000000001
 40
10.19555243465283
 40
10.19555243465283
 40
10.19555243465283
 40
10.19555243465283
 40
11.26499585315983
 40
11.26499585315983
 40
11.26499585315983
 40
12.33452008509976
 40
12.33452008509976
 40
12.33452008509976
 40
12.33452008509976
 10
-0.0023732294495717
 20
49.073230991407762
 30
0.0
 10
-0.3356290304865838
 20
49.209633986988031
 30
0.0
 10
-0.6671986945976841
 20
49.340442116188932
 30
0.0
 10
-0.9972115680894803
 20
49.465605320083696
 30
0.0
 10
-1.3352721624207191
 20
49.593820764070543
 30
0.0
 10
-1.6702530657195751
 20
49.715564179134518
 30
0.0
 10
-2.0023732294495722
 20
49.830948354729472
 30
0.0
 11
-0.0023732294495717
 21
49.073230991407762
 31
0.0
 11
-0.5010084965989819
 21
49.273633077627792
 31
0.0
 11
-0.9972115680894803
 21
49.465605320083696
 31
0.0
 11
-1.5020200602449918
 21
49.653088563053544
 31
0.0
 11
-2.0023732294495722
 21
49.830948354729472
 31
0.0
  0
SPLINE
  5
18C
100
AcDbEntity
  8
0
  6
CONTINUOUS
 62
             7
100
AcDbSpline
210
0.0
220
0.0
230
1.0
 70
             0
 71
             3
 72
            11
 73
             7
 74
             5
 42
0.00000000001
 43
0.00000000001
 44
0.00000000001
 40
9.6520212354362265
 40
9.6520212354362265
 40
9.6520212354362265
 40
9.6520212354362265
 40
10.16722522019518
 40
10.16722522019518
 40
10.16722522019518
 40
10.7005567454881
 40
10.7005567454881
 40
10.7005567454881
 40
10.7005567454881
 10
-20.879291192183921
 20
49.830948354729472
 30
0.0
 10
-20.759513858657719
 20
49.716055671755747
 30
0.0
 10
-20.638329034226611
 20
49.594493148508612
 30
0.0
 10
-20.515642789035319
 20
49.466032996426641
 30
0.0
 10
-20.396538754327821
 20
49.341323642186033
 30
0.0
 10
-20.276322229826519
 20
49.210430362605983
 30
0.0
 10
-20.15491649326497
 20
49.073230991407762
 30
0.0
 11
-20.879291192183921
 21
49.830948354729472
 31
0.0
 11
-20.698557832484028
 21
49.653578476493642
 31
0.0
 11
-20.515642789035319
 21
49.466032996426641
 31
0.0
 11
-20.336142779345415
 21
49.274315750276308
 31
0.0
 11
-20.15491649326497
 21
49.073230991407762
 31
0.0
  0
SPLINE
  5
18B
100
AcDbEntity
  8
0
  6
CONTINUOUS
 62
             7
100
AcDbSpline
210
0.0
220
0.0
230
1.0
 70
             0
 71
             3
 72
            11
 73
             7
 74
             5
 42
0.00000000001
 43
0.00000000001
 44
0.00000000001
 40
10.19448601636854
 40
10.19448601636854
 40
10.19448601636854
 40
10.19448601636854
 40
10.818569247931419
 40
10.818569247931419
 40
10.818569247931419
 40
11.430058017314931
 40
11.430058017314931
 40
11.430058017314931
 40
11.430058017314931
 10
28.497626770550429
 20
49.073230991407762
 30
0.0
 10
28.33430863641189
 20
49.210271177528192
 30
0.0
 10
28.17258567660679
 20
49.341022186205372
 30
0.0
 10
28.012355039679111
 20
49.465605163050341
 30
0.0
 10
27.8474161101338
 20
49.593848944858472
 30
0.0
 10
27.684016319923789
 20
49.715589663903657
 30
0.0
 10
27.522047293998931
 20
49.830948354729472
 30
0.0
 11
28.497626770550429
 21
49.073230991407762
 31
0.0
 11
28.253833093660703
 21
49.27408953070735
 31
0.0
 11
28.012355039679111
 21
49.465605163050341
 31
0.0
 11
27.766087452981353
 21
49.653108668008279
 31
0.0
 11
27.522047293998931
 21
49.830948354729472
 31
0.0
  0
LINE
  5
18A
100
AcDbEntity
  8
1
  6
PHANTOM
 62
             2
100
AcDbLine
 10
-0.00237322944957
 20
34.07323099140776
 11
-0.00237322944957
 21
36.57323099140776
  0
LINE
  5
189
100
AcDbEntity
  8
0
  6
CONTINUOUS
 62
             7
100
AcDbLine
 10
-18.0508640674372
 20
36.57323099140776
 11
-20.10147373287623
 21
36.57323099140776
  0
LINE
  5
188
100
AcDbEntity
  8
0
  6
CONTINUOUS
 62
             7
100
AcDbLine
 10
-20.87929119218392
 20
36.57323099140776
 11
-26.42679375289589
 21
36.57323099140776
  0
LINE
  5
187
100
AcDbEntity
  8
0
  6
CONTINUOUS
 62
             7
100
AcDbLine
 10
1.99762677055043
 20
36.57323099140776
 11
17.268300149234
 21
36.57323099140776
  0
LINE
  5
186
100
AcDbEntity
  8
0
  6
CONTINUOUS
 62
             7
100
AcDbLine
 10
-26.42679375289589
 20
36.57323099140776
 11
-27.52679375289813
 21
36.57323099140776
  0
LINE
  5
185
100
AcDbEntity
  8
0
  6
CONTINUOUS
 62
             7
100
AcDbLine
 10
-27.52679375289813
 20
36.57323099140776
 11
-27.52679375289813
 21
49.83094835472947
  0
LINE
  5
184
100
AcDbEntity
  8
0
  6
CONTINUOUS
 62
             7
100
AcDbLine
 10
-20.10147373287623
 20
50.75143025376237
 11
-26.42679375289589
 21
50.75143025376237
  0
LINE
  5
183
100
AcDbEntity
  8
0
  6
CONTINUOUS
 62
             7
100
AcDbLine
 10
1.99762677055043
 20
49.83094835472947
 11
1.99762677055043
 21
50.75143025376237
  0
LINE
  5
182
100
AcDbEntity
  8
0
  6
CONTINUOUS
 62
             7
100
AcDbLine
 10
-26.42679375289589
 20
36.57323099140776
 11
-26.42679375289589
 21
50.75143025376237
  0
LINE
  5
181
100
AcDbEntity
  8
0
  6
CONTINUOUS
 62
             7
100
AcDbLine
 10
-28.50237322944957
 20
34.07323099140776
 11
-28.50237322944957
 21
36.57323099140776
  0
LINE
  5
180
100
AcDbEntity
  8
0
  6
CONTINUOUS
 62
             7
100
AcDbLine
 10
28.49762677055043
 20
34.07323099140776
 11
28.49762677055043
 21
36.57323099140776
  0
LINE
  5
17F
100
AcDbEntity
  8
0
  6
CONTINUOUS
 62
             7
100
AcDbLine
 10
28.49762677055043
 20
34.07323099140776
 11
-28.50237322944957
 21
34.07323099140776
  0
LINE
  5
17E
100
AcDbEntity
  8
0
  6
CONTINUOUS
 62
             7
100
AcDbLine
 10
27.52204729399893
 20
36.57323099140776
 11
27.52204729399893
 21
49.83094835472947
  0
LINE
  5
17D
100
AcDbEntity
  8
0
  6
CONTINUOUS
 62
             7
100
AcDbLine
 10
20.87454473328473
 20
36.57323099140776
 11
26.42204729399669
 21
36.57323099140776
  0
LINE
  5
17C
100
AcDbEntity
  8
0
  6
CONTINUOUS
 62
             7
100
AcDbLine
 10
26.42204729399669
 20
36.57323099140776
 11
26.42204729399669
 21
50.75143025376237
  0
LINE
  5
17B
100
AcDbEntity
  8
0
  6
CONTINUOUS
 62
             7
100
AcDbLine
 10
20.09672727397703
 20
50.75143025376237
 11
26.42204729399669
 21
50.75143025376237
  0
LINE
  5
17A
100
AcDbEntity
  8
0
  6
CONTINUOUS
 62
             7
100
AcDbLine
 10
-20.10147373287623
 20
36.57323099140776
 11
-20.15491649326497
 21
36.57323099140776
  0
LINE
  5
179
100
AcDbEntity
  8
0
  6
CONTINUOUS
 62
             7
100
AcDbLine
 10
-0.00237322944957
 20
36.57323099140776
 11
-2.00237322944957
 21
36.57323099140776
  0
LINE
  5
178
100
AcDbEntity
  8
0
  6
CONTINUOUS
 62
             7
100
AcDbLine
 10
20.09672727397703
 20
36.57323099140776
 11
18.04611760853812
 21
36.57323099140776
  0
LINE
  5
177
100
AcDbEntity
  8
0
  6
CONTINUOUS
 62
             7
100
AcDbLine
 10
17.268300149234
 20
36.57323099140776
 11
18.04611760853812
 21
36.57323099140776
  0
LINE
  5
176
100
AcDbEntity
  8
0
  6
CONTINUOUS
 62
             7
100
AcDbLine
 10
-0.00237322944957
 20
36.57323099140776
 11
1.99762677055043
 21
36.57323099140776
  0
LINE
  5
175
100
AcDbEntity
  8
0
  6
CONTINUOUS
 62
             7
100
AcDbLine
 10
20.09672727397703
 20
36.57323099140776
 11
20.15017003436589
 21
36.57323099140776
  0
LINE
  5
174
100
AcDbEntity
  8
0
  6
CONTINUOUS
 62
             7
100
AcDbLine
 10
20.15017003436589
 20
36.57323099140776
 11
20.87454473328473
 21
36.57323099140776
  0
LINE
  5
173
100
AcDbEntity
  8
0
  6
CONTINUOUS
 62
             7
100
AcDbLine
 10
-17.2730466081295
 20
36.57323099140776
 11
-2.00237322944957
 21
36.57323099140776
  0
LINE
  5
172
100
AcDbEntity
  8
0
  6
CONTINUOUS
 62
             7
100
AcDbLine
 10
-18.0508640674372
 20
36.57323099140776
 11
-17.2730466081295
 21
36.57323099140776
  0
LINE
  5
171
100
AcDbEntity
  8
0
  6
CONTINUOUS
 62
             7
100
AcDbLine
 10
-20.87929119218392
 20
36.57323099140776
 11
-20.15491649326497
 21
36.57323099140776
  0
LINE
  5
170
100
AcDbEntity
  8
0
  6
CONTINUOUS
 62
             7
100
AcDbLine
 10
-20.87929119218392
 20
36.57323099140776
 11
-20.87929119218392
 21
47.07323099140776
  0
LINE
  5
16F
100
AcDbEntity
  8
0
  6
CONTINUOUS
 62
             7
100
AcDbLine
 10
20.87454473328473
 20
36.57323099140776
 11
20.87454473328473
 21
48.07323099140776
  0
LINE
  5
16E
100
AcDbEntity
  8
0
  6
CONTINUOUS
 62
             7
100
AcDbLine
 10
-0.00237322944957
 20
36.57323099140776
 11
-0.00237322944957
 21
49.07323099140776
  0
LINE
  5
16D
100
AcDbEntity
  8
0
  6
CONTINUOUS
 62
             7
100
AcDbLine
 10
20.15017003436589
 20
36.57323099140776
 11
20.15017003436589
 21
49.07323099140776
  0
LINE
  5
16C
100
AcDbEntity
  8
0
  6
CONTINUOUS
 62
             7
100
AcDbLine
 10
-20.15491649326497
 20
36.57323099140776
 11
-20.15491649326497
 21
49.07323099140776
  0
LINE
  5
16B
100
AcDbEntity
  8
0
  6
CONTINUOUS
 62
             7
100
AcDbLine
 10
1.99762677055043
 20
36.57323099140776
 11
1.99762677055043
 21
49.83094835472947
  0
LINE
  5
16A
100
AcDbEntity
  8
0
  6
CONTINUOUS
 62
             7
100
AcDbLine
 10
-18.0508640674372
 20
36.57323099140776
 11
-18.05086406744811
 21
49.8309483547804
  0
LINE
  5
169
100
AcDbEntity
  8
0
  6
CONTINUOUS
 62
             7
100
AcDbLine
 10
18.04611760853812
 20
36.57323099140776
 11
18.04611760853812
 21
49.83094835472947
  0
LINE
  5
168
100
AcDbEntity
  8
0
  6
CONTINUOUS
 62
             7
100
AcDbLine
 10
20.87454473328473
 20
48.07323099140776
 11
20.87454473328473
 21
49.83094835472947
  0
LINE
  5
167
100
AcDbEntity
  8
0
  6
CONTINUOUS
 62
             7
100
AcDbLine
 10
-2.00237322944957
 20
36.57323099140776
 11
-2.00237322944957
 21
49.83094835472947
  0
LINE
  5
166
100
AcDbEntity
  8
0
  6
CONTINUOUS
 62
             7
100
AcDbLine
 10
-17.2730466081295
 20
36.57323099140776
 11
-17.2730466081295
 21
50.75143025376237
  0
LINE
  5
165
100
AcDbEntity
  8
0
  6
CONTINUOUS
 62
             7
100
AcDbLine
 10
-2.00237322944957
 20
49.83094835472947
 11
-2.00237322944957
 21
50.75143025376237
  0
LINE
  5
164
100
AcDbEntity
  8
0
  6
CONTINUOUS
 62
             7
100
AcDbLine
 10
17.268300149234
 20
36.57323099140776
 11
17.268300149234
 21
50.75143025376237
  0
LINE
  5
163
100
AcDbEntity
  8
0
  6
CONTINUOUS
 62
             7
100
AcDbLine
 10
1.99762677055043
 20
50.75143025376237
 11
17.268300149234
 21
50.75143025376237
  0
LINE
  5
162
100
AcDbEntity
  8
0
  6
CONTINUOUS
 62
             7
100
AcDbLine
 10
-17.2730466081295
 20
50.75143025376237
 11
-2.00237322944957
 21
50.75143025376237
  0
LINE
  5
161
100
AcDbEntity
  8
0
  6
CONTINUOUS
 62
             7
100
AcDbLine
 10
-20.87929119218392
 20
48.07323099140776
 11
-20.87929119218392
 21
49.83094835472947
  0
LINE
  5
160
100
AcDbEntity
  8
0
  6
CONTINUOUS
 62
             7
100
AcDbLine
 10
-20.87929119218392
 20
47.07323099140776
 11
-20.87929119218392
 21
48.07323099140776
  0
LINE
  5
15F
100
AcDbEntity
  8
0
  6
CONTINUOUS
 62
             7
100
AcDbLine
 10
26.42204729399669
 20
36.57323099140776
 11
27.52204729399893
 21
36.57323099140776
  0
LINE
  5
15E
100
AcDbEntity
  8
0
  6
CONTINUOUS
 62
             7
100
AcDbLine
 10
-26.11886604425962
 20
51.07323099140776
 11
-28.50237322943138
 21
49.07323099144413
  0
LINE
  5
15D
100
AcDbEntity
  8
0
  6
CONTINUOUS
 62
             7
100
AcDbLine
 10
-28.50237322944957
 20
36.57323099140776
 11
-27.52679375289813
 21
36.57323099140776
  0
LINE
  5
15C
100
AcDbEntity
  8
0
  6
CONTINUOUS
 62
             7
100
AcDbLine
 10
28.49762677055043
 20
36.57323099140776
 11
27.52204729399893
 21
36.57323099140776
  0
LINE
  5
15B
100
AcDbEntity
  8
0
  6
CONTINUOUS
 62
             7
100
AcDbLine
 10
28.49762677055043
 20
36.57323099140776
 11
28.49762677055043
 21
49.07323099140776
  0
LINE
  5
15A
100
AcDbEntity
  8
0
  6
CONTINUOUS
 62
             7
100
AcDbLine
 10
-28.50237322944957
 20
36.57323099140776
 11
-28.50237322943138
 21
49.07323099144413
  0
LINE
  5
159
100
AcDbEntity
  8
0
  6
CONTINUOUS
 62
             7
100
AcDbLine
 10
26.11411958536047
 20
51.07323099140776
 11
28.49762677055043
 21
49.07323099140776
  0
LINE
  5
158
100
AcDbEntity
  8
0
  6
CONTINUOUS
 62
             7
100
AcDbLine
 10
-26.11886604425962
 20
51.07323099140776
 11
26.11411958536047
 21
51.07323099140776
  0
ENDBLK
  5
199
100
AcDbEntity
  8
0
100
AcDbBlockEnd
  0
BLOCK
  5
39
100
AcDbEntity
  8
0
100
AcDbBlockBegin
  2
HOLL_NDERMUTTER_6_4__3
 70
             0
 10
-10.39213930722023
 20
-154.68578186403181
 30
0.0
  3
HOLL_NDERMUTTER_6_4__3
  1

  0
SPLINE
  5
1DE
100
AcDbEntity
  8
0
  6
CONTINUOUS
 62
             7
100
AcDbSpline
210
0.0
220
0.0
230
1.0
 70
             0
 71
             3
 72
            11
 73
             7
 74
             5
 42
0.00000000001
 43
0.00000000001
 44
0.00000000001
 40
10.19448601636854
 40
10.19448601636854
 40
10.19448601636854
 40
10.19448601636854
 40
10.818569247931419
 40
10.818569247931419
 40
10.818569247931419
 40
11.430058017314931
 40
11.430058017314931
 40
11.430058017314931
 40
11.430058017314931
 10
45.500384757727851
 20
-28.497626770550429
 30
0.0
 10
45.637424943848281
 20
-28.33430863641189
 30
0.0
 10
45.768175952525461
 20
-28.17258567660679
 30
0.0
 10
45.892758929370437
 20
-28.012355039679111
 30
0.0
 10
46.021002711178561
 20
-27.847416110133789
 30
0.0
 10
46.142743430223753
 20
-27.684016319923789
 30
0.0
 10
46.258102121049568
 20
-27.52204729399892
 30
0.0
 11
45.500384757727851
 21
-28.497626770550429
 31
0.0
 11
45.701243297027439
 21
-28.253833093660703
 31
0.0
 11
45.892758929370437
 21
-28.012355039679111
 31
0.0
 11
46.080262434328368
 21
-27.766087452981346
 31
0.0
 11
46.258102121049568
 21
-27.52204729399892
 31
0.0
  0
SPLINE
  5
1DD
100
AcDbEntity
  8
0
  6
CONTINUOUS
 62
             7
100
AcDbSpline
210
0.0
220
0.0
230
1.0
 70
             0
 71
             3
 72
            11
 73
             7
 74
             5
 42
0.00000000001
 43
0.00000000001
 44
0.00000000001
 40
9.6520212354362265
 40
9.6520212354362265
 40
9.6520212354362265
 40
9.6520212354362265
 40
10.16722522019518
 40
10.16722522019518
 40
10.16722522019518
 40
10.7005567454881
 40
10.7005567454881
 40
10.7005567454881
 40
10.7005567454881
 10
46.258102121049568
 20
20.879291192183931
 30
0.0
 10
46.143209438075843
 20
20.75951385865773
 30
0.0
 10
46.021646914828708
 20
20.638329034226619
 30
0.0
 10
45.893186762746737
 20
20.515642789035329
 30
0.0
 10
45.768477408506122
 20
20.396538754327821
 30
0.0
 10
45.637584128926072
 20
20.276322229826519
 30
0.0
 10
45.500384757727851
 20
20.154916493264981
 30
0.0
 11
46.258102121049568
 21
20.879291192183931
 31
0.0
 11
46.080732242813745
 21
20.698557832484042
 31
0.0
 11
45.893186762746737
 21
20.515642789035329
 31
0.0
 11
45.701469516596397
 21
20.336142779345419
 31
0.0
 11
45.500384757727851
 21
20.154916493264981
 31
0.0
  0
SPLINE
  5
1DC
100
AcDbEntity
  8
0
  6
CONTINUOUS
 62
             7
100
AcDbSpline
210
0.0
220
0.0
230
1.0
 70
             0
 71
             3
 72
            11
 73
             7
 74
             5
 42
0.00000000001
 43
0.00000000001
 44
0.00000000001
 40
10.19555243465283
 40
10.19555243465283
 40
10.19555243465283
 40
10.19555243465283
 40
11.26499585315983
 40
11.26499585315983
 40
11.26499585315983
 40
12.33452008509976
 40
12.33452008509976
 40
12.33452008509976
 40
12.33452008509976
 10
45.500384757727851
 20
0.0023732294495744
 30
0.0
 10
45.636787753308127
 20
0.3356290304865865
 30
0.0
 10
45.767595882509021
 20
0.6671986945976869
 30
0.0
 10
45.892759086403792
 20
0.9972115680894831
 30
0.0
 10
46.020974530390639
 20
1.335272162420722
 30
0.0
 10
46.142717945454613
 20
1.670253065719578
 30
0.0
 10
46.258102121049568
 20
2.002373229449574
 30
0.0
 11
45.500384757727851
 21
0.0023732294495744
 31
0.0
 11
45.700786843947881
 21
0.5010084965989847
 31
0.0
 11
45.892759086403792
 21
0.9972115680894831
 31
0.0
 11
46.080242329373633
 21
1.5020200602449947
 31
0.0
 11
46.258102121049568
 21
2.002373229449574
 31
0.0
  0
SPLINE
  5
1DB
100
AcDbEntity
  8
0
  6
CONTINUOUS
 62
             7
100
AcDbSpline
210
0.0
220
0.0
230
1.0
 70
             0
 71
             3
 72
            11
 73
             7
 74
             5
 42
0.00000000001
 43
0.00000000001
 44
0.00000000001
 40
10.19555243465293
 40
10.19555243465293
 40
10.19555243465293
 40
10.19555243465293
 40
11.313304530967139
 40
11.313304530967139
 40
11.313304530967139
 40
12.43211945463684
 40
12.43211945463684
 40
12.43211945463684
 40
12.43211945463684
 10
45.500384757727851
 20
-20.150170034365889
 30
0.0
 10
45.638110836567328
 20
-19.796175502128619
 30
0.0
 10
45.768803509130201
 20
-19.447406459887869
 30
0.0
 10
45.892759086403792
 20
-19.103574024503189
 30
0.0
 10
46.020973494025057
 20
-18.747928292425801
 30
0.0
 10
46.142717009908353
 20
-18.39551955957802
 30
0.0
 10
46.258102121049568
 20
-18.046117608538111
 30
0.0
 11
45.500384757727851
 21
-20.150170034365889
 31
0.0
 11
45.701735860153022
 21
-19.623061243114819
 31
0.0
 11
45.892759086403792
 21
-19.103574024503189
 31
0.0
 11
46.080241589906699
 21
-18.572504398631597
 31
0.0
 11
46.258102121049568
 21
-18.046117608538111
 31
0.0
  0
SPLINE
  5
1DA
100
AcDbEntity
  8
0
  6
CONTINUOUS
 62
             7
100
AcDbSpline
210
0.0
220
0.0
230
1.0
 70
             0
 71
             3
 72
            11
 73
             7
 74
             5
 42
0.00000000001
 43
0.00000000001
 44
0.00000000001
 40
10.195552434652781
 40
10.195552434652781
 40
10.195552434652781
 40
10.195552434652781
 40
10.72829261095816
 40
10.72829261095816
 40
10.72829261095816
 40
11.244087937724711
 40
11.244087937724711
 40
11.244087937724711
 40
11.244087937724711
 10
45.500384757727851
 20
-20.150170034365889
 30
0.0
 10
45.638328391192452
 20
-20.272234357759601
 30
0.0
 10
45.769003200020641
 20
-20.392305346508518
 30
0.0
 10
45.892759086403792
 20
-20.51048789537958
 30
0.0
 10
46.021016016947797
 20
-20.632968784208799
 30
0.0
 10
46.142755402149888
 20
-20.75429406064427
 30
0.0
 10
46.258102121049568
 20
-20.874544733284718
 30
0.0
 11
45.500384757727851
 21
-20.150170034365889
 31
0.0
 11
45.701892327221366
 21
-20.331784630318726
 31
0.0
 11
45.892759086403792
 21
-20.51048789537958
 31
0.0
 11
46.0802719330933
 21
-20.693352645402939
 31
0.0
 11
46.258102121049568
 21
-20.874544733284718
 31
0.0
  0
SPLINE
  5
1D9
100
AcDbEntity
  8
0
  6
CONTINUOUS
 62
             7
100
AcDbSpline
210
0.0
220
0.0
230
1.0
 70
             0
 71
             3
 72
            11
 73
             7
 74
             5
 42
0.00000000001
 43
0.00000000001
 44
0.00000000001
 40
10.195552434652781
 40
10.195552434652781
 40
10.195552434652781
 40
10.195552434652781
 40
11.264995853159769
 40
11.264995853159769
 40
11.264995853159769
 40
12.33452008509969
 40
12.33452008509969
 40
12.33452008509969
 40
12.33452008509969
 10
45.500384757727851
 20
0.0023732294495744
 30
0.0
 10
45.63817640223683
 20
-0.3342752779507237
 30
0.0
 10
45.768863658183953
 20
-0.6657949297231198
 30
0.0
 10
45.892759086403792
 20
-0.9924651091903911
 30
0.0
 10
46.020575691079692
 20
-1.3294740996760199
 30
0.0
 10
46.142358462471428
 20
-1.664471876138919
 30
0.0
 10
46.258102121049568
 20
-1.997626770550426
 30
0.0
 11
45.500384757727851
 21
0.0023732294495744
 31
0.0
 11
45.701783003174242
 21
-0.4987878128452934
 31
0.0
 11
45.892759086403792
 21
-0.9924651091903911
 31
0.0
 11
46.07995795851334
 21
-1.4964912258982035
 31
0.0
 11
46.258102121049568
 21
-1.997626770550426
 31
0.0
  0
SPLINE
  5
1D8
100
AcDbEntity
  8
0
  6
CONTINUOUS
 62
             7
100
AcDbSpline
210
0.0
220
0.0
230
1.0
 70
             0
 71
             3
 72
            11
 73
             7
 74
             5
 42
0.00000000001
 43
0.00000000001
 44
0.00000000001
 40
12.60222498519215
 40
12.60222498519215
 40
12.60222498519215
 40
12.60222498519215
 40
13.20477356312929
 40
13.20477356312929
 40
13.20477356312929
 40
13.80733366403499
 40
13.80733366403499
 40
13.80733366403499
 40
13.80733366403499
 10
47.178584020082461
 20
-20.09672727397702
 30
0.0
 10
47.026590094301028
 20
-20.225178456298519
 30
0.0
 10
46.873186120428407
 20
-20.354813735852819
 30
0.0
 10
46.718358162382764
 20
-20.485644936991608
 30
0.0
 10
46.567077330666187
 20
-20.613478780259189
 30
0.0
 10
46.413677340129333
 20
-20.743096308125018
 30
0.0
 10
46.258102121049568
 20
-20.874544733284718
 30
0.0
 11
47.178584020082461
 21
-20.09672727397702
 31
0.0
 11
46.949533853331694
 21
-20.29029359842783
 31
0.0
 11
46.718358162382764
 21
-20.485644936991608
 31
0.0
 11
46.489840536977361
 21
-20.678739366928617
 31
0.0
 11
46.258102121049568
 21
-20.874544733284718
 31
0.0
  0
SPLINE
  5
1D7
100
AcDbEntity
  8
0
  6
CONTINUOUS
 62
             7
100
AcDbSpline
210
0.0
220
0.0
230
1.0
 70
             0
 71
             3
 72
            11
 73
             7
 74
             5
 42
0.00000000001
 43
0.00000000001
 44
0.00000000001
 40
110.6006816516911
 40
110.6006816516911
 40
110.6006816516911
 40
110.6006816516911
 40
111.2032417235651
 40
111.2032417235651
 40
111.2032417235651
 40
111.8057903305339
 40
111.8057903305339
 40
111.8057903305339
 40
111.8057903305339
 10
46.258102121100499
 20
18.050864067448121
 30
0.0
 10
46.412693956510019
 20
17.92024652156692
 30
0.0
 10
46.566112886026211
 20
17.790613079952209
 30
0.0
 10
46.718358140205638
 20
17.661964289883318
 30
0.0
 10
46.873538665211207
 20
17.53083516607802
 30
0.0
 10
47.026935483390517
 20
17.40120589959702
 30
0.0
 10
47.178584020082461
 20
17.273046608129508
 30
0.0
 11
46.258102121100499
 21
18.050864067448121
 31
0.0
 11
46.489110098614347
 21
17.855675895236104
 31
0.0
 11
46.718358140205638
 21
17.661964289883318
 31
0.0
 11
46.949795575761662
 21
17.466391761879734
 31
0.0
 11
47.178584020082461
 21
17.273046608129508
 31
0.0
  0
SPLINE
  5
1D6
100
AcDbEntity
  8
0
  6
CONTINUOUS
 62
             7
100
AcDbSpline
210
0.0
220
0.0
230
1.0
 70
             0
 71
             3
 72
            11
 73
             7
 74
             5
 42
0.00000000001
 43
0.00000000001
 44
0.00000000001
 40
12.60222498519019
 40
12.60222498519019
 40
12.60222498519019
 40
12.60222498519019
 40
13.20477356312731
 40
13.20477356312731
 40
13.20477356312731
 40
13.807333664033029
 40
13.807333664033029
 40
13.807333664033029
 40
13.807333664033029
 10
47.178584020082461
 20
-17.26830014923399
 30
0.0
 10
47.027051508470002
 20
-17.39636138705168
 30
0.0
 10
46.873656923642237
 20
-17.525988777598119
 30
0.0
 10
46.718358162382764
 20
-17.65721781224488
 30
0.0
 10
46.566008196481242
 20
-17.785955084786909
 30
0.0
 10
46.412586826361483
 20
-17.915590578945629
 30
0.0
 10
46.258102121049568
 20
-18.046117608538111
 30
0.0
 11
47.178584020082461
 21
-17.26830014923399
 31
0.0
 11
46.94988343485025
 21
-17.461571056928538
 31
0.0
 11
46.718358162382764
 21
-17.65721781224488
 31
0.0
 11
46.489030668995056
 21
-17.850996551497577
 31
0.0
 11
46.258102121049568
 21
-18.046117608538111
 31
0.0
  0
SPLINE
  5
1D5
100
AcDbEntity
  8
0
  6
CONTINUOUS
 62
             7
100
AcDbSpline
210
0.0
220
0.0
230
1.0
 70
             0
 71
             3
 72
            11
 73
             7
 74
             5
 42
0.00000000001
 43
0.00000000001
 44
0.00000000001
 40
110.6006816517057
 40
110.6006816517057
 40
110.6006816517057
 40
110.6006816517057
 40
111.20324172357979
 40
111.20324172357979
 40
111.20324172357979
 40
111.8057903305485
 40
111.8057903305485
 40
111.8057903305485
 40
111.8057903305485
 10
46.258102121049568
 20
20.879291192183931
 30
0.0
 10
46.412624613006891
 20
20.748732235943979
 30
0.0
 10
46.566045110015367
 20
20.619097476118611
 30
0.0
 10
46.718358140205638
 20
20.490391414629979
 30
0.0
 10
46.873968339804968
 20
20.358899211415689
 30
0.0
 10
47.027357492373667
 20
20.229276381454099
 30
0.0
 10
47.178584020082461
 20
20.101473732876229
 30
0.0
 11
46.258102121049568
 21
20.879291192183931
 31
0.0
 11
46.489058678790244
 21
20.684146467875216
 31
0.0
 11
46.718358140205638
 21
20.490391414629979
 31
0.0
 11
46.950114957102997
 21
20.294548990764451
 31
0.0
 11
47.178584020082461
 21
20.101473732876229
 31
0.0
  0
SPLINE
  5
1D4
100
AcDbEntity
  8
0
  6
CONTINUOUS
 62
             7
100
AcDbSpline
210
0.0
220
0.0
230
1.0
 70
             0
 71
             3
 72
            11
 73
             7
 74
             5
 42
0.00000000001
 43
0.00000000001
 44
0.00000000001
 40
12.602224985190871
 40
12.602224985190871
 40
12.602224985190871
 40
12.602224985190871
 40
13.31938726627383
 40
13.31938726627383
 40
13.31938726627383
 40
14.03654953995088
 40
14.03654953995088
 40
14.03654953995088
 40
14.03654953995088
 10
47.178584020082461
 20
-26.42204729399668
 30
0.0
 10
47.026302422778507
 20
-26.60404851228742
 30
0.0
 10
46.872891869239218
 20
-26.787388306133721
 30
0.0
 10
46.718358162382764
 20
-26.97205992767778
 30
0.0
 10
46.566287570854591
 20
-27.153788065167479
 30
0.0
 10
46.412872528482367
 20
-27.33711281428327
 30
0.0
 10
46.258102121049568
 20
-27.52204729399892
 30
0.0
 11
47.178584020082461
 21
-26.42204729399668
 31
0.0
 11
46.949315632314793
 21
-26.696052209617235
 31
0.0
 11
46.718358162382764
 21
-26.97205992767778
 31
0.0
 11
46.489242572680396
 21
-27.245851232503618
 31
0.0
 11
46.258102121049568
 21
-27.52204729399892
 31
0.0
  0
SPLINE
  5
1D3
100
AcDbEntity
  8
0
  6
CONTINUOUS
 62
             7
100
AcDbSpline
210
0.0
220
0.0
230
1.0
 70
             0
 71
             3
 72
            11
 73
             7
 74
             5
 42
0.00000000001
 43
0.00000000001
 44
0.00000000001
 40
12.6022249851908
 40
12.6022249851908
 40
12.6022249851908
 40
12.6022249851908
 40
13.319387266273759
 40
13.319387266273759
 40
13.319387266273759
 40
14.0365495399508
 40
14.0365495399508
 40
14.0365495399508
 40
14.0365495399508
 10
47.178584020082461
 20
26.42679375289589
 30
0.0
 10
47.026936434521893
 20
26.608037224278799
 30
0.0
 10
46.873539642463257
 20
26.79136065992418
 30
0.0
 10
46.718358162382764
 20
26.976806386576929
 30
0.0
 10
46.566229775547662
 20
27.158603590894192
 30
0.0
 10
46.412813467329798
 20
27.34192984509281
 30
0.0
 10
46.258102121049568
 20
27.526793752898129
 30
0.0
 11
47.178584020082461
 21
26.42679375289589
 31
0.0
 11
46.94979630167758
 21
26.700224224010221
 31
0.0
 11
46.718358162382764
 21
26.976806386576929
 31
0.0
 11
46.489198751508084
 21
27.250650055929508
 31
0.0
 11
46.258102121049568
 21
27.526793752898129
 31
0.0
  0
SPLINE
  5
1D2
100
AcDbEntity
  8
0
  6
CONTINUOUS
 62
             7
100
AcDbSpline
210
0.0
220
0.0
230
1.0
 70
             0
 71
             3
 72
            11
 73
             7
 74
             5
 42
0.00000000001
 43
0.00000000001
 44
0.00000000001
 40
9.6520212354362247
 40
9.6520212354362247
 40
9.6520212354362247
 40
9.6520212354362247
 40
10.76957509520426
 40
10.76957509520426
 40
10.76957509520426
 40
11.88858825881975
 40
11.88858825881975
 40
11.88858825881975
 40
11.88858825881975
 10
46.258102121100499
 20
18.050864067448121
 30
0.0
 10
46.143127516151843
 20
18.399022949400379
 30
0.0
 10
46.021556427953008
 20
18.751024972330189
 30
0.0
 10
45.893186762746737
 20
19.107134124816412
 30
0.0
 10
45.768071174326593
 20
19.454216171677391
 30
0.0
 10
45.637138208643272
 20
19.803421886644291
 30
0.0
 10
45.500384757727851
 20
20.154916493264981
 30
0.0
 11
46.258102121100499
 21
18.050864067448121
 31
0.0
 11
46.080667589520218
 21
18.57601774468203
 31
0.0
 11
45.893186762746737
 21
19.107134124816412
 31
0.0
 11
45.701149958673021
 21
19.629370599130805
 31
0.0
 11
45.500384757727851
 21
20.154916493264981
 31
0.0
  0
SPLINE
  5
1D1
100
AcDbEntity
  8
0
  6
CONTINUOUS
 62
             7
100
AcDbSpline
210
0.0
220
0.0
230
1.0
 70
             0
 71
             3
 72
            11
 73
             7
 74
             5
 42
0.00000000001
 43
0.00000000001
 44
0.00000000001
 40
10.19555243465282
 40
10.19555243465282
 40
10.19555243465282
 40
10.19555243465282
 40
10.819635921994889
 40
10.819635921994889
 40
10.819635921994889
 40
11.431124435565939
 40
11.431124435565939
 40
11.431124435565939
 40
11.431124435565939
 10
45.50038475776423
 20
28.502373229431392
 30
0.0
 10
45.636915929014911
 20
28.33966171559149
 30
0.0
 10
45.767712362699648
 20
28.177928380445511
 30
0.0
 10
45.892759086403792
 20
28.01710129661592
 30
0.0
 10
46.02100291934007
 20
27.852162295740701
 30
0.0
 10
46.142743575528257
 20
27.688762574808781
 30
0.0
 10
46.258102121049568
 20
27.526793752898129
 30
0.0
 11
45.50038475776423
 21
28.502373229431392
 31
0.0
 11
45.700878589913955
 21
28.259030601769787
 31
0.0
 11
45.892759086403792
 21
28.01710129661592
 31
0.0
 11
46.080262586507281
 21
27.770833707645306
 31
0.0
 11
46.258102121049568
 21
27.526793752898129
 31
0.0
  0
LINE
  5
1D0
100
AcDbEntity
  8
0
  6
CONTINUOUS
 62
             7
100
AcDbLine
 10
47.50038475772785
 20
26.11886604425962
 11
47.50038475772785
 21
-26.11411958536047
  0
LINE
  5
1CF
100
AcDbEntity
  8
0
  6
CONTINUOUS
 62
             7
100
AcDbLine
 10
47.50038475772785
 20
-26.11411958536047
 11
45.50038475772785
 21
-28.49762677055043
  0
LINE
  5
1CE
100
AcDbEntity
  8
0
  6
CONTINUOUS
 62
             7
100
AcDbLine
 10
33.00038475772785
 20
28.50237322944957
 11
45.50038475776423
 21
28.50237322943139
  0
LINE
  5
1CD
100
AcDbEntity
  8
0
  6
CONTINUOUS
 62
             7
100
AcDbLine
 10
33.00038475772785
 20
-28.49762677055043
 11
45.50038475772785
 21
-28.49762677055043
  0
LINE
  5
1CC
100
AcDbEntity
  8
0
  6
CONTINUOUS
 62
             7
100
AcDbLine
 10
33.00038475772785
 20
-28.49762677055043
 11
33.00038475772785
 21
-27.52204729399892
  0
LINE
  5
1CB
100
AcDbEntity
  8
0
  6
CONTINUOUS
 62
             7
100
AcDbLine
 10
33.00038475772785
 20
28.50237322944957
 11
33.00038475772785
 21
27.52679375289813
  0
LINE
  5
1CA
100
AcDbEntity
  8
0
  6
CONTINUOUS
 62
             7
100
AcDbLine
 10
47.50038475772785
 20
26.11886604425962
 11
45.50038475776423
 21
28.50237322943139
  0
LINE
  5
1C9
100
AcDbEntity
  8
0
  6
CONTINUOUS
 62
             7
100
AcDbLine
 10
33.00038475772785
 20
-26.42204729399668
 11
33.00038475772785
 21
-27.52204729399892
  0
LINE
  5
1C8
100
AcDbEntity
  8
0
  6
CONTINUOUS
 62
             7
100
AcDbLine
 10
43.50038475772785
 20
20.87929119218393
 11
44.50038475772785
 21
20.87929119218393
  0
LINE
  5
1C7
100
AcDbEntity
  8
0
  6
CONTINUOUS
 62
             7
100
AcDbLine
 10
44.50038475772785
 20
20.87929119218393
 11
46.25810212104957
 21
20.87929119218393
  0
LINE
  5
1C6
100
AcDbEntity
  8
0
  6
CONTINUOUS
 62
             7
100
AcDbLine
 10
47.17858402008246
 20
17.27304660812951
 11
47.17858402008246
 21
2.00237322944957
  0
LINE
  5
1C5
100
AcDbEntity
  8
0
  6
CONTINUOUS
 62
             7
100
AcDbLine
 10
47.17858402008246
 20
-1.99762677055043
 11
47.17858402008246
 21
-17.26830014923399
  0
LINE
  5
1C4
100
AcDbEntity
  8
0
  6
CONTINUOUS
 62
             7
100
AcDbLine
 10
33.00038475772785
 20
-17.26830014923399
 11
47.17858402008246
 21
-17.26830014923399
  0
LINE
  5
1C3
100
AcDbEntity
  8
0
  6
CONTINUOUS
 62
             7
100
AcDbLine
 10
46.25810212104957
 20
2.00237322944957
 11
47.17858402008246
 21
2.00237322944957
  0
LINE
  5
1C2
100
AcDbEntity
  8
0
  6
CONTINUOUS
 62
             7
100
AcDbLine
 10
33.00038475772785
 20
17.27304660812951
 11
47.17858402008246
 21
17.27304660812951
  0
LINE
  5
1C1
100
AcDbEntity
  8
0
  6
CONTINUOUS
 62
             7
100
AcDbLine
 10
33.00038475772785
 20
2.00237322944957
 11
46.25810212104957
 21
2.00237322944957
  0
LINE
  5
1C0
100
AcDbEntity
  8
0
  6
CONTINUOUS
 62
             7
100
AcDbLine
 10
44.50038475772785
 20
-20.87454473328472
 11
46.25810212104957
 21
-20.87454473328472
  0
LINE
  5
1BF
100
AcDbEntity
  8
0
  6
CONTINUOUS
 62
             7
100
AcDbLine
 10
33.00038475772785
 20
-18.04611760853811
 11
46.25810212104957
 21
-18.04611760853811
  0
LINE
  5
1BE
100
AcDbEntity
  8
0
  6
CONTINUOUS
 62
             7
100
AcDbLine
 10
33.00038475772785
 20
18.0508640674372
 11
46.2581021211005
 21
18.05086406744812
  0
LINE
  5
1BD
100
AcDbEntity
  8
0
  6
CONTINUOUS
 62
             7
100
AcDbLine
 10
33.00038475772785
 20
-1.99762677055043
 11
46.25810212104957
 21
-1.99762677055043
  0
LINE
  5
1BC
100
AcDbEntity
  8
0
  6
CONTINUOUS
 62
             7
100
AcDbLine
 10
33.00038475772785
 20
20.15491649326498
 11
45.50038475772785
 21
20.15491649326498
  0
LINE
  5
1BB
100
AcDbEntity
  8
0
  6
CONTINUOUS
 62
             7
100
AcDbLine
 10
33.00038475772785
 20
-20.15017003436589
 11
45.50038475772785
 21
-20.15017003436589
  0
LINE
  5
1BA
100
AcDbEntity
  8
0
  6
CONTINUOUS
 62
             7
100
AcDbLine
 10
33.00038475772785
 20
0.00237322944957
 11
45.50038475772785
 21
0.00237322944957
  0
LINE
  5
1B9
100
AcDbEntity
  8
0
  6
CONTINUOUS
 62
             7
100
AcDbLine
 10
33.00038475772785
 20
-20.87454473328472
 11
44.50038475772785
 21
-20.87454473328472
  0
LINE
  5
1B8
100
AcDbEntity
  8
0
  6
CONTINUOUS
 62
             7
100
AcDbLine
 10
33.00038475772785
 20
20.87929119218393
 11
43.50038475772785
 21
20.87929119218393
  0
LINE
  5
1B7
100
AcDbEntity
  8
0
  6
CONTINUOUS
 62
             7
100
AcDbLine
 10
33.00038475772785
 20
20.87929119218393
 11
33.00038475772785
 21
20.15491649326498
  0
LINE
  5
1B6
100
AcDbEntity
  8
0
  6
CONTINUOUS
 62
             7
100
AcDbLine
 10
33.00038475772785
 20
18.0508640674372
 11
33.00038475772785
 21
17.27304660812951
  0
LINE
  5
1B5
100
AcDbEntity
  8
0
  6
CONTINUOUS
 62
             7
100
AcDbLine
 10
33.00038475772785
 20
17.27304660812951
 11
33.00038475772785
 21
2.00237322944957
  0
LINE
  5
1B4
100
AcDbEntity
  8
0
  6
CONTINUOUS
 62
             7
100
AcDbLine
 10
33.00038475772785
 20
-20.15017003436589
 11
33.00038475772785
 21
-20.87454473328472
  0
LINE
  5
1B3
100
AcDbEntity
  8
0
  6
CONTINUOUS
 62
             7
100
AcDbLine
 10
33.00038475772785
 20
-20.09672727397702
 11
33.00038475772785
 21
-20.15017003436589
  0
LINE
  5
1B2
100
AcDbEntity
  8
0
  6
CONTINUOUS
 62
             7
100
AcDbLine
 10
33.00038475772785
 20
0.00237322944957
 11
33.00038475772785
 21
-1.99762677055043
  0
LINE
  5
1B1
100
AcDbEntity
  8
0
  6
CONTINUOUS
 62
             7
100
AcDbLine
 10
33.00038475772785
 20
-17.26830014923399
 11
33.00038475772785
 21
-18.04611760853811
  0
LINE
  5
1B0
100
AcDbEntity
  8
0
  6
CONTINUOUS
 62
             7
100
AcDbLine
 10
33.00038475772785
 20
-20.09672727397702
 11
33.00038475772785
 21
-18.04611760853811
  0
LINE
  5
1AF
100
AcDbEntity
  8
0
  6
CONTINUOUS
 62
             7
100
AcDbLine
 10
33.00038475772785
 20
0.00237322944957
 11
33.00038475772785
 21
2.00237322944957
  0
LINE
  5
1AE
100
AcDbEntity
  8
0
  6
CONTINUOUS
 62
             7
100
AcDbLine
 10
33.00038475772785
 20
20.10147373287623
 11
33.00038475772785
 21
20.15491649326498
  0
LINE
  5
1AD
100
AcDbEntity
  8
0
  6
CONTINUOUS
 62
             7
100
AcDbLine
 10
47.17858402008246
 20
-20.09672727397702
 11
47.17858402008246
 21
-26.42204729399668
  0
LINE
  5
1AC
100
AcDbEntity
  8
0
  6
CONTINUOUS
 62
             7
100
AcDbLine
 10
33.00038475772785
 20
-26.42204729399668
 11
47.17858402008246
 21
-26.42204729399668
  0
LINE
  5
1AB
100
AcDbEntity
  8
0
  6
CONTINUOUS
 62
             7
100
AcDbLine
 10
33.00038475772785
 20
-20.87454473328472
 11
33.00038475772785
 21
-26.42204729399668
  0
LINE
  5
1AA
100
AcDbEntity
  8
0
  6
CONTINUOUS
 62
             7
100
AcDbLine
 10
33.00038475772785
 20
-27.52204729399892
 11
46.25810212104957
 21
-27.52204729399892
  0
LINE
  5
1A9
100
AcDbEntity
  8
0
  6
CONTINUOUS
 62
             7
100
AcDbLine
 10
30.50038475772785
 20
-28.49762677055043
 11
30.50038475772785
 21
28.50237322944957
  0
LINE
  5
1A8
100
AcDbEntity
  8
0
  6
CONTINUOUS
 62
             7
100
AcDbLine
 10
30.50038475772785
 20
-28.49762677055043
 11
33.00038475772785
 21
-28.49762677055043
  0
LINE
  5
1A7
100
AcDbEntity
  8
0
  6
CONTINUOUS
 62
             7
100
AcDbLine
 10
30.50038475772785
 20
28.50237322944957
 11
33.00038475772785
 21
28.50237322944957
  0
LINE
  5
1A6
100
AcDbEntity
  8
0
  6
CONTINUOUS
 62
             7
100
AcDbLine
 10
33.00038475772785
 20
26.42679375289589
 11
47.17858402008246
 21
26.42679375289589
  0
LINE
  5
1A5
100
AcDbEntity
  8
0
  6
CONTINUOUS
 62
             7
100
AcDbLine
 10
46.25810212104957
 20
-1.99762677055043
 11
47.17858402008246
 21
-1.99762677055043
  0
LINE
  5
1A4
100
AcDbEntity
  8
0
  6
CONTINUOUS
 62
             7
100
AcDbLine
 10
47.17858402008246
 20
20.10147373287623
 11
47.17858402008246
 21
26.42679375289589
  0
LINE
  5
1A3
100
AcDbEntity
  8
0
  6
CONTINUOUS
 62
             7
100
AcDbLine
 10
33.00038475772785
 20
27.52679375289813
 11
46.25810212104957
 21
27.52679375289813
  0
LINE
  5
1A2
100
AcDbEntity
  8
0
  6
CONTINUOUS
 62
             7
100
AcDbLine
 10
33.00038475772785
 20
26.42679375289589
 11
33.00038475772785
 21
27.52679375289813
  0
LINE
  5
1A1
100
AcDbEntity
  8
0
  6
CONTINUOUS
 62
             7
100
AcDbLine
 10
33.00038475772785
 20
-1.99762677055043
 11
33.00038475772785
 21
-17.26830014923399
  0
LINE
  5
1A0
100
AcDbEntity
  8
0
  6
CONTINUOUS
 62
             7
100
AcDbLine
 10
33.00038475772785
 20
20.87929119218393
 11
33.00038475772785
 21
26.42679375289589
  0
LINE
  5
19F
100
AcDbEntity
  8
0
  6
CONTINUOUS
 62
             7
100
AcDbLine
 10
33.00038475772785
 20
18.0508640674372
 11
33.00038475772785
 21
20.10147373287623
  0
LINE
  5
19E
100
AcDbEntity
  8
1
  6
PHANTOM
 62
             2
100
AcDbLine
 10
30.50038475772785
 20
0.00237322944957
 11
33.00038475772785
 21
0.00237322944957
  0
LINE
  5
19D
100
AcDbEntity
  8
1
  6
CONTINUOUS
 62
             7
100
AcDbLine
 10
50.50038475772785
 20
-23.99762677055043
 11
49.50038475772785
 21
-23.99762677055043
  0
LINE
  5
19C
100
AcDbEntity
  8
1
  6
CONTINUOUS
 62
             7
100
AcDbLine
 10
50.50038475772785
 20
24.00237322944957
 11
49.50038475772785
 21
24.00237322944957
  0
LINE
  5
19B
100
AcDbEntity
  8
1
  6
DOT_CENTER
 62
             2
100
AcDbLine
 10
50.50038475772785
 20
-20.0
 11
48.50038475772785
 21
-20.0
  0
LINE
  5
19A
100
AcDbEntity
  8
1
  6
DOT_CENTER
 62
             2
100
AcDbLine
 10
50.50038475772785
 20
20.0
 11
48.50038475772785
 21
20.0
  0
ENDBLK
  5
1DF
100
AcDbEntity
  8
0
100
AcDbBlockEnd
  0
BLOCK
  5
1E2
100
AcDbEntity
  8
0
100
AcDbBlockBegin
  2
*D9
 70
             1
 10
0.0
 20
0.0
 30
0.0
  3
*D9
  1

  0
LINE
  5
1E3
100
AcDbEntity
  8
0
  6
CONTINUOUS
 62
             4
100
AcDbLine
 10
46.04643880552389
 20
67.4024064905318
 11
46.04643880552389
 21
164.40237322945814
  0
LINE
  5
1E4
100
AcDbEntity
  8
0
  6
CONTINUOUS
 62
             4
100
AcDbLine
 10
26.11649281481161
 20
67.4024064905318
 11
48.04643880552389
 21
67.4024064905318
  0
LINE
  5
1E5
100
AcDbEntity
  8
0
  6
CONTINUOUS
 62
             4
100
AcDbLine
 10
13.29999999999902
 20
164.40237322945814
 11
48.04643880552389
 21
164.40237322945814
  0
SOLID
  5
1E6
100
AcDbEntity
  8
0
 62
             4
100
AcDbTrace
 10
46.96800628863566
 20
157.40237322945814
 11
45.12487132241212
 21
157.40237322945814
 12
46.04643880552389
 22
164.40237322945814
 13
46.04643880552389
 23
164.40237322945814
  0
SOLID
  5
1E7
100
AcDbEntity
  8
0
 62
             4
100
AcDbTrace
 10
45.12487132241212
 20
74.4024064905318
 11
46.96800628863566
 21
74.4024064905318
 12
46.04643880552389
 22
67.4024064905318
 13
46.04643880552389
 23
67.4024064905318
  0
MTEXT
  5
1E9
100
AcDbEntity
  8
0
 62
             1
100
AcDbMText
 10
44.04643880552389
 20
111.326569959292
 30
0.0
 40
7.0
 41
0.0
 71
             7
 72
             1
  1
97
  7
CONVERTER_1
 11
0.0
 21
1.0
 31
0.0
  0
ENDBLK
  5
1EA
100
AcDbEntity
  8
0
100
AcDbBlockEnd
  0
BLOCK
  5
1EE
100
AcDbEntity
  8
0
100
AcDbBlockBegin
  2
*D10
 70
             1
 10
0.0
 20
0.0
 30
0.0
  3
*D10
  1

  0
LINE
  5
1EF
100
AcDbEntity
  8
0
  6
CONTINUOUS
 62
             4
100
AcDbLine
 10
-60.50038475772786
 20
20.0
 11
-60.50038475772786
 21
-20.0
  0
LINE
  5
1F0
100
AcDbEntity
  8
0
  6
CONTINUOUS
 62
             4
100
AcDbLine
 10
-50.50038475772784
 20
-20.0
 11
-62.50038475772786
 21
-20.0
  0
LINE
  5
1F1
100
AcDbEntity
  8
0
  6
CONTINUOUS
 62
             4
100
AcDbLine
 10
-50.50038475772784
 20
20.0
 11
-62.50038475772786
 21
20.0
  0
SOLID
  5
1F2
100
AcDbEntity
  8
0
 62
             4
100
AcDbTrace
 10
-59.57881727461609
 20
13.0
 11
-61.42195224083963
 21
13.0
 12
-60.50038475772786
 22
20.0
 13
-60.50038475772786
 23
20.0
  0
SOLID
  5
1F3
100
AcDbEntity
  8
0
 62
             4
100
AcDbTrace
 10
-61.42195224083963
 20
-13.0
 11
-59.57881727461609
 21
-13.0
 12
-60.50038475772786
 22
-20.0
 13
-60.50038475772786
 23
-20.0
  0
MTEXT
  5
1F4
100
AcDbEntity
  8
0
 62
             1
100
AcDbMText
 10
-62.50038475772786
 20
-7.9429848119176
 30
0.0
 40
7.0
 41
0.0
 71
             7
 72
             1
  1
\C1;DN\C1;40
  7
CONVERTER_1
 11
0.0
 21
1.0
 31
0.0
  0
ENDBLK
  5
1F5
100
AcDbEntity
  8
0
100
AcDbBlockEnd
  0
BLOCK
  5
1F9
100
AcDbEntity
  8
0
100
AcDbBlockBegin
  2
*D11
 70
             1
 10
0.0
 20
0.0
 30
0.0
  3
*D11
  1

  0
LINE
  5
1FA
100
AcDbEntity
  8
0
  6
CONTINUOUS
 62
             4
100
AcDbLine
 10
60.50038475772785
 20
20.0
 11
60.50038475772785
 21
-20.0
  0
LINE
  5
1FB
100
AcDbEntity
  8
0
  6
CONTINUOUS
 62
             4
100
AcDbLine
 10
50.50038475772785
 20
-20.0
 11
62.50038475772785
 21
-20.0
  0
LINE
  5
1FC
100
AcDbEntity
  8
0
  6
CONTINUOUS
 62
             4
100
AcDbLine
 10
50.50038475772785
 20
20.0
 11
62.50038475772785
 21
20.0
  0
SOLID
  5
1FD
100
AcDbEntity
  8
0
 62
             4
100
AcDbTrace
 10
61.42195224083962
 20
13.0
 11
59.57881727461608
 21
13.0
 12
60.50038475772785
 22
20.0
 13
60.50038475772785
 23
20.0
  0
SOLID
  5
1FE
100
AcDbEntity
  8
0
 62
             4
100
AcDbTrace
 10
59.57881727461608
 20
-13.0
 11
61.42195224083962
 21
-13.0
 12
60.50038475772785
 22
-20.0
 13
60.50038475772785
 23
-20.0
  0
MTEXT
  5
1FF
100
AcDbEntity
  8
0
 62
             1
100
AcDbMText
 10
58.50038475772785
 20
-6.86047721718877
 30
0.0
 40
7.0
 41
0.0
 71
             7
 72
             1
  1
\C1;DN\C1;40
  7
CONVERTER_1
 11
0.0
 21
1.0
 31
0.0
  0
ENDBLK
  5
200
100
AcDbEntity
  8
0
100
AcDbBlockEnd
  0
BLOCK
  5
204
100
AcDbEntity
  8
0
100
AcDbBlockBegin
  2
*D12
 70
             1
 10
0.0
 20
0.0
 30
0.0
  3
*D12
  1

  0
LINE
  5
205
100
AcDbEntity
  8
0
  6
CONTINUOUS
 62
             4
100
AcDbLine
 10
73.763486969958
 20
24.00237322944957
 11
73.763486969958
 21
-23.99762677055043
  0
LINE
  5
206
100
AcDbEntity
  8
0
  6
CONTINUOUS
 62
             4
100
AcDbLine
 10
50.50038475772784
 20
-23.99762677055043
 11
75.763486969958
 21
-23.99762677055043
  0
LINE
  5
207
100
AcDbEntity
  8
0
  6
CONTINUOUS
 62
             4
100
AcDbLine
 10
50.50038475772784
 20
24.00237322944957
 11
75.763486969958
 21
24.00237322944957
  0
SOLID
  5
208
100
AcDbEntity
  8
0
 62
             4
100
AcDbTrace
 10
74.68505445306977
 20
17.00237322944957
 11
72.84191948684622
 21
17.00237322944957
 12
73.763486969958
 22
24.00237322944957
 13
73.763486969958
 23
24.00237322944957
  0
SOLID
  5
209
100
AcDbEntity
  8
0
 62
             4
100
AcDbTrace
 10
72.84191948684622
 20
-16.99762677055043
 11
74.68505445306977
 21
-16.99762677055043
 12
73.763486969958
 22
-23.99762677055043
 13
73.763486969958
 23
-23.99762677055043
  0
MTEXT
  5
20A
100
AcDbEntity
  8
0
 62
             1
100
AcDbMText
 10
71.763486969958
 20
-7.49697873613454
 30
0.0
 40
7.0
 41
0.0
 71
             7
 72
             1
  1
6/4"
  7
CONVERTER_1
 11
0.0
 21
1.0
 31
0.0
  0
ENDBLK
  5
20B
100
AcDbEntity
  8
0
100
AcDbBlockEnd
  0
BLOCK
  5
20F
100
AcDbEntity
  8
0
100
AcDbBlockBegin
  2
*D13
 70
             1
 10
0.0
 20
0.0
 30
0.0
  3
*D13
  1

  0
LINE
  5
210
100
AcDbEntity
  8
0
  6
CONTINUOUS
 62
             4
100
AcDbLine
 10
-73.36553376159739
 20
-23.99762677055043
 11
-73.36553376159739
 21
24.00237322944957
  0
LINE
  5
211
100
AcDbEntity
  8
0
  6
CONTINUOUS
 62
             4
100
AcDbLine
 10
-50.50038475772785
 20
24.00237322944957
 11
-75.36553376159739
 21
24.00237322944957
  0
LINE
  5
212
100
AcDbEntity
  8
0
  6
CONTINUOUS
 62
             4
100
AcDbLine
 10
-50.50038475772785
 20
-23.99762677055043
 11
-75.36553376159739
 21
-23.99762677055043
  0
SOLID
  5
213
100
AcDbEntity
  8
0
 62
             4
100
AcDbTrace
 10
-74.28710124470916
 20
-16.99762677055043
 11
-72.44396627848562
 21
-16.99762677055043
 12
-73.36553376159739
 22
-23.99762677055043
 13
-73.36553376159739
 23
-23.99762677055043
  0
SOLID
  5
214
100
AcDbEntity
  8
0
 62
             4
100
AcDbTrace
 10
-72.44396627848562
 20
17.00237322944957
 11
-74.28710124470916
 21
17.00237322944957
 12
-73.36553376159739
 22
24.00237322944957
 13
-73.36553376159739
 23
24.00237322944957
  0
MTEXT
  5
215
100
AcDbEntity
  8
0
 62
             1
100
AcDbMText
 10
-75.36553376159739
 20
-8.57948633086337
 30
0.0
 40
7.0
 41
0.0
 71
             7
 72
             1
  1
6/4"
  7
CONVERTER_1
 11
0.0
 21
1.0
 31
0.0
  0
ENDBLK
  5
216
100
AcDbEntity
  8
0
100
AcDbBlockEnd
  0
BLOCK
  5
21A
100
AcDbEntity
  8
0
100
AcDbBlockBegin
  2
*D14
 70
             1
 10
0.0
 20
0.0
 30
0.0
  3
*D14
  1

  0
LINE
  5
21B
100
AcDbEntity
  8
0
  6
CONTINUOUS
 62
             4
100
AcDbLine
 10
-23.90149999999998
 20
94.4024064905318
 11
23.90149999999996
 21
94.4024064905318
  0
LINE
  5
21C
100
AcDbEntity
  8
0
  6
CONTINUOUS
 62
             4
100
AcDbLine
 10
-23.90149999999998
 20
94.4024064905318
 11
-57.7162525492072
 21
94.4024064905318
  0
LINE
  5
21D
100
AcDbEntity
  8
0
  6
CONTINUOUS
 62
             4
100
AcDbLine
 10
-23.90149999999998
 20
84.4024064905318
 11
-23.90149999999998
 21
96.4024064905318
  0
LINE
  5
21E
100
AcDbEntity
  8
0
  6
CONTINUOUS
 62
             4
100
AcDbLine
 10
23.90149999999996
 20
84.4024064905318
 11
23.90149999999996
 21
96.4024064905318
  0
SOLID
  5
21F
100
AcDbEntity
  8
0
 62
             4
100
AcDbTrace
 10
16.90149999999996
 20
93.48083900742003
 11
16.90149999999996
 21
95.32397397364358
 12
23.90149999999996
 22
94.4024064905318
 13
23.90149999999996
 23
94.4024064905318
  0
SOLID
  5
220
100
AcDbEntity
  8
0
 62
             4
100
AcDbTrace
 10
-16.90149999999998
 20
95.32397397364358
 11
-16.90149999999998
 21
93.48083900742003
 12
-23.90149999999998
 22
94.4024064905318
 13
-23.90149999999998
 23
94.4024064905318
  0
MTEXT
  5
221
100
AcDbEntity
  8
0
 62
             1
100
AcDbMText
 10
-57.71625254920721
 20
96.4024064905318
 30
0.0
 40
7.0
 41
0.0
 71
             7
 72
             1
  1
6/4"
  7
CONVERTER_1
 11
0.99999999999706
 21
0.00000242406841
 31
0.0
  0
ENDBLK
  5
222
100
AcDbEntity
  8
0
100
AcDbBlockEnd
  0
BLOCK
  5
226
100
AcDbEntity
  8
0
100
AcDbBlockBegin
  2
*D15
 70
             1
 10
0.0
 20
0.0
 30
0.0
  3
*D15
  1

  0
LINE
  5
227
100
AcDbEntity
  8
0
  6
CONTINUOUS
 62
             4
100
AcDbLine
 10
-20.0
 20
61.07323099140776
 11
20.00000000000003
 21
61.07323099140776
  0
LINE
  5
228
100
AcDbEntity
  8
0
  6
CONTINUOUS
 62
             4
100
AcDbLine
 10
-20.0
 20
61.07323099140776
 11
-61.4909211630962
 21
61.07323099140776
  0
LINE
  5
229
100
AcDbEntity
  8
0
  6
CONTINUOUS
 62
             4
100
AcDbLine
 10
-20.0
 20
51.07323099140776
 11
-20.0
 21
63.07323099140776
  0
LINE
  5
22A
100
AcDbEntity
  8
0
  6
CONTINUOUS
 62
             4
100
AcDbLine
 10
20.00000000000003
 20
51.07323099140776
 11
20.00000000000003
 21
63.07323099140776
  0
SOLID
  5
22B
100
AcDbEntity
  8
0
 62
             4
100
AcDbTrace
 10
13.00000000000003
 20
60.15166350829598
 11
13.00000000000003
 21
61.99479847451953
 12
20.00000000000003
 22
61.07323099140776
 13
20.00000000000003
 23
61.07323099140776
  0
SOLID
  5
22C
100
AcDbEntity
  8
0
 62
             4
100
AcDbTrace
 10
-13.0
 20
61.99479847451953
 11
-13.0
 21
60.15166350829598
 12
-20.0
 22
61.07323099140776
 13
-20.0
 23
61.07323099140776
  0
MTEXT
  5
22D
100
AcDbEntity
  8
0
 62
             1
100
AcDbMText
 10
-57.57092116306247
 20
63.07320316310246
 30
0.0
 40
7.0
 41
0.0
 71
             7
 72
             1
  1
\C1;DN\C1;40
  7
CONVERTER_1
 11
0.99999999999706
 21
0.00000242406841
 31
0.0
  0
ENDBLK
  5
22E
100
AcDbEntity
  8
0
100
AcDbBlockEnd
  0
BLOCK
  5
232
100
AcDbEntity
  8
0
100
AcDbBlockBegin
  2
*D16
 70
             1
 10
0.0
 20
0.0
 30
0.0
  3
*D16
  1

  0
LINE
  5
233
100
AcDbEntity
  8
0
  6
CONTINUOUS
 62
             4
100
AcDbLine
 10
-47.50038475772785
 20
-44.62038136860149
 11
47.50038475772784
 21
-44.62038136860149
  0
LINE
  5
234
100
AcDbEntity
  8
0
  6
CONTINUOUS
 62
             4
100
AcDbLine
 10
47.50038475772784
 20
-26.11411958536047
 11
47.50038475772784
 21
-46.62038136860149
  0
LINE
  5
235
100
AcDbEntity
  8
0
  6
CONTINUOUS
 62
             4
100
AcDbLine
 10
-47.50038475772785
 20
-26.11411958536047
 11
-47.50038475772785
 21
-46.62038136860149
  0
SOLID
  5
236
100
AcDbEntity
  8
0
 62
             4
100
AcDbTrace
 10
-40.50038475772785
 20
-43.69881388548972
 11
-40.50038475772785
 21
-45.54194885171327
 12
-47.50038475772785
 22
-44.62038136860149
 13
-47.50038475772785
 23
-44.62038136860149
  0
SOLID
  5
237
100
AcDbEntity
  8
0
 62
             4
100
AcDbTrace
 10
40.50038475772784
 20
-45.54194885171327
 11
40.50038475772784
 21
-43.69881388548972
 12
47.50038475772784
 22
-44.62038136860149
 13
47.50038475772784
 23
-44.62038136860149
  0
MTEXT
  5
238
100
AcDbEntity
  8
0
 62
             1
100
AcDbMText
 10
-4.92995988648828
 20
-42.62038136860149
 30
0.0
 40
7.0
 41
0.0
 71
             7
 72
             1
  1
95
  7
CONVERTER_1
 11
0.99999999999706
 21
0.00000242406841
 31
0.0
  0
ENDBLK
  5
239
100
AcDbEntity
  8
0
100
AcDbBlockEnd
  0
ENDSEC
  0
SECTION
  2
ENTITIES
  0
DIMENSION
  5
23B
100
AcDbEntity
  8
1
100
AcDbDimension
  2
*D16
 10
-47.50038475772785
 20
-44.62038136860149
 11
0.32004011351172
 21
-39.12038136860149
 31
0.0
 53
0.00013888888889
  1
<>
  3
ME10_DIM_7
100
AcDbAlignedDimension
 13
47.50038475772785
 23
-26.11411958536047
 14
-47.50038475772785
 24
-26.11411958536047
100
AcDbRotatedDimension
  0
DIMENSION
  5
230
100
AcDbEntity
  8
1
100
AcDbDimension
  2
*D15
 10
20.00000000000003
 20
61.07323099140776
 11
-48.5409211630962
 21
66.57323099140776
 31
0.0
 53
0.00013888888889
  1
<>
  3
ME10_DIM_6
100
AcDbAlignedDimension
 13
-20.0
 23
51.07323099140776
 14
20.00000000000003
 24
51.07323099140776
100
AcDbRotatedDimension
  0
DIMENSION
  5
224
100
AcDbEntity
  8
1
100
AcDbDimension
  2
*D14
 10
23.90149999999996
 20
94.4024064905318
 11
-48.2662525492072
 21
99.9024064905318
 31
0.0
 53
0.00013888888889
  1
6/4"
  3
ME10_DIM_5
100
AcDbAlignedDimension
 13
-23.90149999999998
 23
84.4024064905318
 14
23.90149999999997
 24
84.4024064905318
100
AcDbRotatedDimension
  0
DIMENSION
  5
218
100
AcDbEntity
  8
1
100
AcDbDimension
  2
*D13
 10
-73.36553376159739
 20
-23.99762677055043
 11
-78.86553376159739
 21
0.87051366913663
 31
0.0
 53
90.0
  1
6/4"
  3
ME10_DIM_4
100
AcDbAlignedDimension
 13
-50.50038475772785
 23
24.00237322944957
 14
-50.50038475772785
 24
-23.99762677055043
 50
90.0
100
AcDbRotatedDimension
  0
DIMENSION
  5
20D
100
AcDbEntity
  8
1
100
AcDbDimension
  2
*D12
 10
73.763486969958
 20
24.00237322944957
 11
68.263486969958
 21
1.95302126386547
 31
0.0
 53
90.0
  1
6/4"
  3
ME10_DIM_3
100
AcDbAlignedDimension
 13
50.50038475772785
 23
-23.99762677055043
 14
50.50038475772785
 24
24.00237322944957
 50
90.0
100
AcDbRotatedDimension
  0
DIMENSION
  5
202
100
AcDbEntity
  8
1
100
AcDbDimension
  2
*D11
 10
60.50038475772785
 20
20.0
 11
55.00038475772785
 21
2.16952278281123
 31
0.0
 53
90.0
  1
<>
  3
ME10_DIM_2
100
AcDbAlignedDimension
 13
50.50038475772785
 23
-20.0
 14
50.50038475772785
 24
20.0
 50
90.0
100
AcDbRotatedDimension
  0
DIMENSION
  5
1F7
100
AcDbEntity
  8
1
100
AcDbDimension
  2
*D10
 10
-60.50038475772786
 20
20.0
 11
-66.00038475772786
 21
1.0870151880824
 31
0.0
 53
90.0
  1
<>
  3
ME10_DIM_1
100
AcDbAlignedDimension
 13
-50.50038475772785
 23
-20.0
 14
-50.50038475772785
 24
20.0
 50
90.0
100
AcDbRotatedDimension
  0
DIMENSION
  5
1EC
100
AcDbEntity
  8
1
100
AcDbDimension
  2
*D9
 10
46.04643880552389
 20
164.40237322945814
 11
40.54643880552389
 21
116.576569959292
 31
0.0
 53
-90.0
  1
<>
  3
ME10_DIM_0
100
AcDbAlignedDimension
 13
26.11649281481161
 23
67.4024064905318
 14
13.29999999999902
 24
164.40237322945811
 50
-90.0
100
AcDbRotatedDimension
  0
INSERT
  5
3C
100
AcDbEntity
  8
1
100
AcDbBlockReference
  2
HL_904T_TAUCHROHR
 10
-71.71945920004009
 20
32.87772021013673
  0
INSERT
  5
3D
100
AcDbEntity
  8
0
100
AcDbBlockReference
  2
HL_22_T-ST_CK
 10
0.0
 20
44.7023732294503
  0
INSERT
  5
3E
100
AcDbEntity
  8
0
100
AcDbBlockReference
  2
HOLL_NDERMUTTER_6_4__1
 10
10.39213930722023
 20
-154.68578186403181
  0
INSERT
  5
3F
100
AcDbEntity
  8
0
100
AcDbBlockReference
  2
HL_904
 10
0.0
 20
67.4024064905318
  0
INSERT
  5
40
100
AcDbEntity
  8
0
100
AcDbBlockReference
  2
HOLL_NDERMUTTER_6_4__2
 10
154.68578186403181
 20
-10.39213930722024
  0
INSERT
  5
41
100
AcDbEntity
  8
0
100
AcDbBlockReference
  2
HOLL_NDERMUTTER_6_4__3
 10
-10.39213930722023
 20
-154.68578186403181
  0
ENDSEC
  0
SECTION
  2
OBJECTS
  0
DICTIONARY
  5
19
100
AcDbDictionary
  3
ACAD_GROUP
350
1A
  3
ACAD_MLINESTYLE
350
1B
  0
DICTIONARY
  5
1A
102
{ACAD_REACTORS
330
19
102
}
100
AcDbDictionary
  0
DICTIONARY
  5
1B
102
{ACAD_REACTORS
330
19
102
}
100
AcDbDictionary
  3
STANDARD
350
1C
  0
MLINESTYLE
  5
1C
102
{ACAD_REACTORS
330
1B
102
}
100
AcDbMlineStyle
  2
STANDARD
 70
             0
  3

 62
             0
 51
90.0
 52
90.0
 71
             2
 49
0.5
 62
           256
  6
BYLAYER
 49
-0.5
 62
           256
  6
BYLAYER
  0
ENDSEC
  0
EOF
