  0
SECTION
  2
HEADER
  9
$ACADVER
  1
AC1015
  9
$ACADMAINTVER
 70
     6
  9
$DWGCODEPAGE
  3
ANSI_1252
  9
$INSBASE
 10
0.0
 20
0.0
 30
0.0
  9
$EXTMIN
 10
-711.283870837363
 20
16.9078932466024
 30
0.0
  9
$EXTMAX
 10
-509.4544849898098
 20
177.729196454875
 30
0.0
  9
$LIMMIN
 10
0.0
 20
0.0
  9
$LIMMAX
 10
12.0
 20
9.0
  9
$ORTHOMODE
 70
     0
  9
$REGENMODE
 70
     1
  9
$FILLMODE
 70
     1
  9
$QTEXTMODE
 70
     0
  9
$MIRRTEXT
 70
     1
  9
$LTSCALE
 40
1.0
  9
$ATTMODE
 70
     1
  9
$TEXTSIZE
 40
0.2
  9
$TRACEWID
 40
0.05
  9
$TEXTSTYLE
  7
Standard
  9
$CLAYER
  8
0
  9
$CELTYPE
  6
ByLayer
  9
$CECOLOR
 62
   256
  9
$CELTSCALE
 40
1.0
  9
$DISPSILH
 70
     0
  9
$DIMSCALE
 40
1.0
  9
$DIMASZ
 40
0.18
  9
$DIMEXO
 40
0.0625
  9
$DIMDLI
 40
0.38
  9
$DIMRND
 40
0.0
  9
$DIMDLE
 40
0.0
  9
$DIMEXE
 40
0.18
  9
$DIMTP
 40
0.0
  9
$DIMTM
 40
0.0
  9
$DIMTXT
 40
0.18
  9
$DIMCEN
 40
0.09
  9
$DIMTSZ
 40
0.0
  9
$DIMTOL
 70
     0
  9
$DIMLIM
 70
     0
  9
$DIMTIH
 70
     1
  9
$DIMTOH
 70
     1
  9
$DIMSE1
 70
     0
  9
$DIMSE2
 70
     0
  9
$DIMTAD
 70
     0
  9
$DIMZIN
 70
     0
  9
$DIMBLK
  1

  9
$DIMASO
 70
     1
  9
$DIMSHO
 70
     1
  9
$DIMPOST
  1

  9
$DIMAPOST
  1

  9
$DIMALT
 70
     0
  9
$DIMALTD
 70
     2
  9
$DIMALTF
 40
25.4
  9
$DIMLFAC
 40
1.0
  9
$DIMTOFL
 70
     0
  9
$DIMTVP
 40
0.0
  9
$DIMTIX
 70
     0
  9
$DIMSOXD
 70
     0
  9
$DIMSAH
 70
     0
  9
$DIMBLK1
  1

  9
$DIMBLK2
  1

  9
$DIMSTYLE
  2
Standard
  9
$DIMCLRD
 70
     0
  9
$DIMCLRE
 70
     0
  9
$DIMCLRT
 70
     0
  9
$DIMTFAC
 40
1.0
  9
$DIMGAP
 40
0.09
  9
$DIMJUST
 70
     0
  9
$DIMSD1
 70
     0
  9
$DIMSD2
 70
     0
  9
$DIMTOLJ
 70
     1
  9
$DIMTZIN
 70
     0
  9
$DIMALTZ
 70
     0
  9
$DIMALTTZ
 70
     0
  9
$DIMUPT
 70
     0
  9
$DIMDEC
 70
     4
  9
$DIMTDEC
 70
     4
  9
$DIMALTU
 70
     2
  9
$DIMALTTD
 70
     2
  9
$DIMTXSTY
  7
Standard
  9
$DIMAUNIT
 70
     0
  9
$DIMADEC
 70
     0
  9
$DIMALTRND
 40
0.0
  9
$DIMAZIN
 70
     0
  9
$DIMDSEP
 70
    46
  9
$DIMATFIT
 70
     3
  9
$DIMFRAC
 70
     0
  9
$DIMLDRBLK
  1

  9
$DIMLUNIT
 70
     2
  9
$DIMLWD
 70
    -2
  9
$DIMLWE
 70
    -2
  9
$DIMTMOVE
 70
     0
  9
$LUNITS
 70
     2
  9
$LUPREC
 70
     4
  9
$SKETCHINC
 40
0.1
  9
$FILLETRAD
 40
0.5
  9
$AUNITS
 70
     0
  9
$AUPREC
 70
     0
  9
$MENU
  1
.
  9
$ELEVATION
 40
0.0
  9
$PELEVATION
 40
0.0
  9
$THICKNESS
 40
0.0
  9
$LIMCHECK
 70
     0
  9
$CHAMFERA
 40
0.5
  9
$CHAMFERB
 40
0.5
  9
$CHAMFERC
 40
1.0
  9
$CHAMFERD
 40
0.0
  9
$SKPOLY
 70
     0
  9
$TDCREATE
 40
2456800.457869433
  9
$TDUCREATE
 40
2456800.374536099
  9
$TDUPDATE
 40
2456800.457870694
  9
$TDUUPDATE
 40
2456800.374537361
  9
$TDINDWG
 40
0.0000000116
  9
$TDUSRTIMER
 40
0.0000000116
  9
$USRTIMER
 70
     1
  9
$ANGBASE
 50
0.0
  9
$ANGDIR
 70
     0
  9
$PDMODE
 70
     0
  9
$PDSIZE
 40
0.0
  9
$PLINEWID
 40
0.0
  9
$SPLFRAME
 70
     0
  9
$SPLINETYPE
 70
     6
  9
$SPLINESEGS
 70
     8
  9
$HANDSEED
  5
218
  9
$SURFTAB1
 70
     6
  9
$SURFTAB2
 70
     6
  9
$SURFTYPE
 70
     6
  9
$SURFU
 70
     6
  9
$SURFV
 70
     6
  9
$UCSBASE
  2

  9
$UCSNAME
  2

  9
$UCSORG
 10
0.0
 20
0.0
 30
0.0
  9
$UCSXDIR
 10
1.0
 20
0.0
 30
0.0
  9
$UCSYDIR
 10
0.0
 20
1.0
 30
0.0
  9
$UCSORTHOREF
  2

  9
$UCSORTHOVIEW
 70
     0
  9
$UCSORGTOP
 10
0.0
 20
0.0
 30
0.0
  9
$UCSORGBOTTOM
 10
0.0
 20
0.0
 30
0.0
  9
$UCSORGLEFT
 10
0.0
 20
0.0
 30
0.0
  9
$UCSORGRIGHT
 10
0.0
 20
0.0
 30
0.0
  9
$UCSORGFRONT
 10
0.0
 20
0.0
 30
0.0
  9
$UCSORGBACK
 10
0.0
 20
0.0
 30
0.0
  9
$PUCSBASE
  2

  9
$PUCSNAME
  2

  9
$PUCSORG
 10
0.0
 20
0.0
 30
0.0
  9
$PUCSXDIR
 10
1.0
 20
0.0
 30
0.0
  9
$PUCSYDIR
 10
0.0
 20
1.0
 30
0.0
  9
$PUCSORTHOREF
  2

  9
$PUCSORTHOVIEW
 70
     0
  9
$PUCSORGTOP
 10
0.0
 20
0.0
 30
0.0
  9
$PUCSORGBOTTOM
 10
0.0
 20
0.0
 30
0.0
  9
$PUCSORGLEFT
 10
0.0
 20
0.0
 30
0.0
  9
$PUCSORGRIGHT
 10
0.0
 20
0.0
 30
0.0
  9
$PUCSORGFRONT
 10
0.0
 20
0.0
 30
0.0
  9
$PUCSORGBACK
 10
0.0
 20
0.0
 30
0.0
  9
$USERI1
 70
     0
  9
$USERI2
 70
     0
  9
$USERI3
 70
     0
  9
$USERI4
 70
     0
  9
$USERI5
 70
     0
  9
$USERR1
 40
18.1
  9
$USERR2
 40
0.0
  9
$USERR3
 40
0.0
  9
$USERR4
 40
0.0
  9
$USERR5
 40
0.0
  9
$WORLDVIEW
 70
     1
  9
$SHADEDGE
 70
     3
  9
$SHADEDIF
 70
    70
  9
$TILEMODE
 70
     1
  9
$MAXACTVP
 70
    64
  9
$PINSBASE
 10
0.0
 20
0.0
 30
0.0
  9
$PLIMCHECK
 70
     0
  9
$PEXTMIN
 10
1.00000000000000E+20
 20
1.00000000000000E+20
 30
1.00000000000000E+20
  9
$PEXTMAX
 10
-1.00000000000000E+20
 20
-1.00000000000000E+20
 30
-1.00000000000000E+20
  9
$PLIMMIN
 10
0.0
 20
0.0
  9
$PLIMMAX
 10
12.0
 20
9.0
  9
$UNITMODE
 70
     0
  9
$VISRETAIN
 70
     1
  9
$PLINEGEN
 70
     0
  9
$PSLTSCALE
 70
     1
  9
$TREEDEPTH
 70
  3020
  9
$CMLSTYLE
  2
Standard
  9
$CMLJUST
 70
     0
  9
$CMLSCALE
 40
1.0
  9
$PROXYGRAPHICS
 70
     1
  9
$MEASUREMENT
 70
     1
  9
$CELWEIGHT
370
    -1
  9
$ENDCAPS
280
     0
  9
$JOINSTYLE
280
     0
  9
$LWDISPLAY
290
     0
  9
$INSUNITS
 70
     1
  9
$HYPERLINKBASE
  1

  9
$STYLESHEET
  1

  9
$XEDIT
290
     1
  9
$CEPSNTYPE
380
     0
  9
$PSTYLEMODE
290
     1
  9
$FINGERPRINTGUID
  2
{E2F5A941-DAB9-4C52-869F-75CEABA5E1D6}
  9
$VERSIONGUID
  2
{FAEB1C32-E019-11D5-929B-00C0DF256EC4}
  9
$EXTNAMES
290
     1
  9
$PSVPSCALE
 40
0.0
  9
$OLESTARTUP
290
     0
  0
ENDSEC
  0
SECTION
  2
CLASSES
  0
CLASS
  1
ACDBDICTIONARYWDFLT
  2
AcDbDictionaryWithDefault
  3
ObjectDBX Classes
 90
        0
280
     0
281
     0
  0
CLASS
  1
VISUALSTYLE
  2
AcDbVisualStyle
  3
ObjectDBX Classes
 90
     4095
280
     0
281
     0
  0
CLASS
  1
MATERIAL
  2
AcDbMaterial
  3
ObjectDBX Classes
 90
     1153
280
     0
281
     0
  0
CLASS
  1
DICTIONARYVAR
  2
AcDbDictionaryVar
  3
ObjectDBX Classes
 90
        0
280
     0
281
     0
  0
CLASS
  1
ACDBPLACEHOLDER
  2
AcDbPlaceHolder
  3
ObjectDBX Classes
 90
        0
280
     0
281
     0
  0
CLASS
  1
LAYOUT
  2
AcDbLayout
  3
ObjectDBX Classes
 90
        0
280
     0
281
     0
  0
ENDSEC
  0
SECTION
  2
TABLES
  0
TABLE
  2
VPORT
  5
8
330
0
100
AcDbSymbolTable
 70
     1
  0
VPORT
  5
29
330
8
100
AcDbSymbolTableRecord
100
AcDbViewportTableRecord
  2
*Active
 70
     0
 10
0.0
 20
0.0
 11
1.0
 21
1.0
 12
-610.3691779135864
 22
97.3185448507387
 13
0.0
 23
0.0
 14
0.5
 24
0.5
 15
0.5
 25
0.5
 16
0.0
 26
0.0
 36
1.0
 17
0.0
 27
0.0
 37
0.0
 40
176.9034335290999
 41
1.60267857142857
 42
50.0
 43
0.0
 44
0.0
 50
0.0
 51
0.0
 71
     0
 72
   100
 73
     1
 74
     3
 75
     0
 76
     0
 77
     0
 78
     0
281
     0
 65
     1
110
0.0
120
0.0
130
0.0
111
1.0
121
0.0
131
0.0
112
0.0
122
1.0
132
0.0
 79
     0
146
0.0
  0
ENDTAB
  0
TABLE
  2
LTYPE
  5
5
330
0
100
AcDbSymbolTable
 70
     8
  0
LTYPE
  5
14
330
5
100
AcDbSymbolTableRecord
100
AcDbLinetypeTableRecord
  2
ByBlock
 70
     0
  3

 72
    65
 73
     0
 40
0.0
  0
LTYPE
  5
15
330
5
100
AcDbSymbolTableRecord
100
AcDbLinetypeTableRecord
  2
ByLayer
 70
     0
  3

 72
    65
 73
     0
 40
0.0
  0
LTYPE
  5
16
330
5
100
AcDbSymbolTableRecord
100
AcDbLinetypeTableRecord
  2
Continuous
 70
     0
  3
Solid line
 72
    65
 73
     0
 40
0.0
  0
LTYPE
  5
3F
330
5
100
AcDbSymbolTableRecord
100
AcDbLinetypeTableRecord
  2
DASHED
 70
     0
  3
Dashed
 72
    65
 73
     2
 40
15.0
 49
7.0
 74
     0
 49
-8.0
 74
     0
  0
LTYPE
  5
40
330
5
100
AcDbSymbolTableRecord
100
AcDbLinetypeTableRecord
  2
DOTTED
 70
     0
  3
Dotted
 72
    65
 73
     2
 40
1.0
 49
0.0
 74
     0
 49
-1.0
 74
     0
  0
LTYPE
  5
41
330
5
100
AcDbSymbolTableRecord
100
AcDbLinetypeTableRecord
  2
DOT_CENTER
 70
     0
  3
Dot_Center
 72
    65
 73
     4
 40
14.0
 49
12.0
 74
     0
 49
-1.0
 74
     0
 49
0.0
 74
     0
 49
-1.0
 74
     0
  0
LTYPE
  5
42
330
5
100
AcDbSymbolTableRecord
100
AcDbLinetypeTableRecord
  2
LONG_DASHED
 70
     0
  3
Long_Dashed
 72
    65
 73
     2
 40
15.0
 49
10.0
 74
     0
 49
-5.0
 74
     0
  0
LTYPE
  5
43
330
5
100
AcDbSymbolTableRecord
100
AcDbLinetypeTableRecord
  2
DASH_CENTER
 70
     0
  3
Dash_Center
 72
    65
 73
     4
 40
14.0
 49
11.0
 74
     0
 49
-1.0
 74
     0
 49
1.0
 74
     0
 49
-1.0
 74
     0
  0
LTYPE
  5
44
330
5
100
AcDbSymbolTableRecord
100
AcDbLinetypeTableRecord
  2
PHANTOM
 70
     0
  3
Phantom
 72
    65
 73
     6
 40
13.0
 49
10.0
 74
     0
 49
-1.0
 74
     0
 49
0.0
 74
     0
 49
-1.0
 74
     0
 49
0.0
 74
     0
 49
-1.0
 74
     0
  0
LTYPE
  5
45
330
5
100
AcDbSymbolTableRecord
100
AcDbLinetypeTableRecord
  2
CENTER_DASH_DASH
 70
     0
  3
Center_Dash_Dash
 72
    65
 73
     6
 40
14.0
 49
9.0
 74
     0
 49
-1.0
 74
     0
 49
1.0
 74
     0
 49
-1.0
 74
     0
 49
1.0
 74
     0
 49
-1.0
 74
     0
  0
ENDTAB
  0
TABLE
  2
LAYER
  5
2
330
0
100
AcDbSymbolTable
 70
     2
  0
LAYER
  5
10
330
2
100
AcDbSymbolTableRecord
100
AcDbLayerTableRecord
  2
0
 70
     0
 62
     7
  6
Continuous
370
    -3
390
F
  0
LAYER
  5
46
330
2
100
AcDbSymbolTableRecord
100
AcDbLayerTableRecord
  2
1
 70
     0
 62
     7
  6
Continuous
370
    -3
390
F
  0
ENDTAB
  0
TABLE
  2
STYLE
  5
3
330
0
100
AcDbSymbolTable
 70
     2
  0
STYLE
  5
11
330
3
100
AcDbSymbolTableRecord
100
AcDbTextStyleTableRecord
  2
Standard
 70
     0
 40
0.0
 41
1.0
 50
0.0
 71
     0
 42
0.2
  3
txt
  4

  0
STYLE
  5
126
330
3
100
AcDbSymbolTableRecord
100
AcDbTextStyleTableRecord
  2
CONVERTER_11
 70
     0
 40
0.0
 41
0.9
 50
0.0
 71
     0
 42
0.2
  3
txt.shx
  4

  0
ENDTAB
  0
TABLE
  2
VIEW
  5
6
330
0
100
AcDbSymbolTable
 70
     0
  0
ENDTAB
  0
TABLE
  2
UCS
  5
7
330
0
100
AcDbSymbolTable
 70
     0
  0
ENDTAB
  0
TABLE
  2
APPID
  5
9
330
0
100
AcDbSymbolTable
 70
     1
  0
APPID
  5
12
330
9
100
AcDbSymbolTableRecord
100
AcDbRegAppTableRecord
  2
ACAD
 70
     0
  0
ENDTAB
  0
TABLE
  2
DIMSTYLE
  5
A
330
0
100
AcDbSymbolTable
 70
     3
100
AcDbDimStyleTable
  0
DIMSTYLE
105
27
330
A
100
AcDbSymbolTableRecord
100
AcDbDimStyleTableRecord
  2
Standard
 70
     0
178
     0
340
11
  0
DIMSTYLE
105
1E0
102
{ACAD_REACTORS
330
1E1
102
}
330
A
100
AcDbSymbolTableRecord
100
AcDbDimStyleTableRecord
  2
ME10_DIM_10
 70
     0
 41
10.0
 42
0.0
 44
2.0
 73
     0
 74
     0
 77
     1
 78
     8
140
10.0
147
3.0
172
     1
173
     1
174
     1
175
     1
176
     4
177
     4
271
     2
178
     1
271
     2
340
126
  0
DIMSTYLE
105
1EB
102
{ACAD_REACTORS
330
1EC
102
}
330
A
100
AcDbSymbolTableRecord
100
AcDbDimStyleTableRecord
  2
ME10_DIM_11
 70
     0
 41
10.0
 42
0.0
 44
2.0
 73
     0
 74
     0
 77
     1
 78
     8
140
10.0
147
3.0
172
     1
173
     1
174
     1
175
     1
176
     4
177
     4
271
     2
178
     1
271
     2
340
126
  0
ENDTAB
  0
TABLE
  2
BLOCK_RECORD
  5
1
330
0
100
AcDbSymbolTable
 70
     9
  0
BLOCK_RECORD
  5
1F
330
1
100
AcDbSymbolTableRecord
100
AcDbBlockTableRecord
  2
*Model_Space
340
22
  0
BLOCK_RECORD
  5
1B
330
1
100
AcDbSymbolTableRecord
100
AcDbBlockTableRecord
  2
*Paper_Space
340
1E
  0
BLOCK_RECORD
  5
23
330
1
100
AcDbSymbolTableRecord
100
AcDbBlockTableRecord
  2
*Paper_Space0
340
26
  0
BLOCK_RECORD
  5
47
330
1
100
AcDbSymbolTableRecord
100
AcDbBlockTableRecord
  2
HL905-Abdeckung-flach-11217__1
340
0
102
{BLKREFS
331
4B
102
}
  0
BLOCK_RECORD
  5
4A
330
1
100
AcDbSymbolTableRecord
100
AcDbBlockTableRecord
  2
HL905_1-WEB-Zeichnungen__2
340
0
102
{BLKREFS
331
4F
102
}
  0
BLOCK_RECORD
  5
4E
330
1
100
AcDbSymbolTableRecord
100
AcDbBlockTableRecord
  2
SA_Links2
340
0
102
{BLKREFS
331
5D
102
}
  0
BLOCK_RECORD
  5
52
330
1
100
AcDbSymbolTableRecord
100
AcDbBlockTableRecord
  2
HL905-Abdeckung-flach-11217__3
340
0
102
{BLKREFS
331
56
102
}
  0
BLOCK_RECORD
  5
55
330
1
100
AcDbSymbolTableRecord
100
AcDbBlockTableRecord
  2
HL905_1-WEB-Zeichnungen__4
340
0
102
{BLKREFS
331
5A
102
}
  0
BLOCK_RECORD
  5
59
330
1
100
AcDbSymbolTableRecord
100
AcDbBlockTableRecord
  2
Vordans2
340
0
102
{BLKREFS
331
5E
102
}
  0
BLOCK_RECORD
  5
1D7
330
1
100
AcDbSymbolTableRecord
100
AcDbBlockTableRecord
  2
*D7
340
0
  0
BLOCK_RECORD
  5
1E2
330
1
100
AcDbSymbolTableRecord
100
AcDbBlockTableRecord
  2
*D8
340
0
  0
ENDTAB
  0
ENDSEC
  0
SECTION
  2
BLOCKS
  0
BLOCK
  5
20
330
1F
100
AcDbEntity
  8
0
100
AcDbBlockBegin
  2
*Model_Space
 70
     0
 10
0.0
 20
0.0
 30
0.0
  3
*Model_Space
  1

  0
ENDBLK
  5
21
330
1F
100
AcDbEntity
  8
0
100
AcDbBlockEnd
  0
BLOCK
  5
1C
330
1B
100
AcDbEntity
 67
     1
  8
0
100
AcDbBlockBegin
  2
*Paper_Space
 70
     0
 10
0.0
 20
0.0
 30
0.0
  3
*Paper_Space
  1

  0
ENDBLK
  5
1D
330
1B
100
AcDbEntity
 67
     1
  8
0
100
AcDbBlockEnd
  0
BLOCK
  5
24
330
23
100
AcDbEntity
  8
0
100
AcDbBlockBegin
  2
*Paper_Space0
 70
     0
 10
0.0
 20
0.0
 30
0.0
  3
*Paper_Space0
  1

  0
ENDBLK
  5
25
330
23
100
AcDbEntity
  8
0
100
AcDbBlockEnd
  0
BLOCK
  5
48
330
47
100
AcDbEntity
  8
0
100
AcDbBlockBegin
  2
HL905-Abdeckung-flach-11217__1
 70
     0
 10
-531.5499998139973
 20
50.49999999997428
 30
0.0
  3
HL905-Abdeckung-flach-11217__1
  1

  0
LINE
  5
5F
330
47
100
AcDbEntity
  8
0
  6
Continuous
 62
     7
100
AcDbLine
 10
-528.5486832932108
 20
161.4189568294591
 30
0.0
 11
-528.5593261115598
 21
161.4182327489882
 31
0.0
  0
LINE
  5
60
330
47
100
AcDbEntity
  8
0
  6
Continuous
 62
     7
100
AcDbLine
 10
-528.5501140448048
 20
161.3450526216275
 30
0.0
 11
-528.5501140448048
 21
161.3599318644452
 31
0.0
  0
LINE
  5
61
330
47
100
AcDbEntity
  8
0
  6
Continuous
 62
     3
100
AcDbLine
 10
-528.5430129325152
 20
161.3604149861675
 30
0.0
 11
-528.5501140448048
 21
161.3599318644452
 31
0.0
  0
LINE
  5
62
330
47
100
AcDbEntity
  8
0
  6
Continuous
 62
     7
100
AcDbLine
 10
-523.4499998139972
 20
78.79999999997428
 30
0.0
 11
-523.4499998139971
 21
147.1999999999742
 31
0.0
  0
LINE
  5
63
330
47
100
AcDbEntity
  8
0
  6
Continuous
 62
     3
100
AcDbLine
 10
-528.5430129325152
 20
161.3604149861675
 30
0.0
 11
-514.4499999430295
 21
161.447380536778
 31
0.0
  0
LINE
  5
64
330
47
100
AcDbEntity
  8
0
  6
Continuous
 62
     7
100
AcDbLine
 10
-514.4499999430295
 20
161.4321507361775
 30
0.0
 11
-528.5486757702931
 21
161.3451502411725
 31
0.0
  0
LINE
  5
65
330
47
100
AcDbEntity
  8
0
  6
Continuous
 62
     3
100
AcDbLine
 10
-514.4499999430295
 20
161.37356828454
 30
0.0
 11
-528.5499998139974
 21
161.2865596190898
 31
0.0
  0
LINE
  5
66
330
47
100
AcDbEntity
  8
0
  6
Continuous
 62
     7
100
AcDbLine
 10
-528.5486757702931
 20
161.4189571083136
 30
0.0
 11
-514.4499999430295
 21
161.5059576033186
 31
0.0
  0
LINE
  5
67
330
47
100
AcDbEntity
  8
0
  6
Continuous
 62
     7
100
AcDbLine
 10
-528.5593335467913
 20
161.4182320136535
 30
0.0
 11
-531.5499998139973
 21
161.0295935380096
 31
0.0
  0
LINE
  5
68
330
47
100
AcDbEntity
  8
0
  6
Continuous
 62
     7
100
AcDbLine
 10
-528.5486832932108
 20
161.345149962318
 30
0.0
 11
-528.5593261115595
 21
161.3444258818472
 31
0.0
  0
LINE
  5
69
330
47
100
AcDbEntity
  8
0
  6
Continuous
 62
     3
100
AcDbLine
 10
-528.5500004751839
 20
161.2866671387152
 30
0.0
 11
-528.5570680301674
 21
161.2861863000527
 31
0.0
  0
LINE
  5
6A
330
47
100
AcDbEntity
  8
0
  6
Continuous
 62
     7
100
AcDbLine
 10
-528.5499998139974
 20
161.2865596190898
 30
0.0
 11
-528.549999813997
 21
156.0687224231458
 31
0.0
  0
LINE
  5
6B
330
47
100
AcDbEntity
  8
0
  6
Continuous
 62
     3
100
AcDbLine
 10
-528.5501798907341
 20
155.7865140438742
 30
0.0
 11
-531.5499998139973
 21
155.8051813583257
 31
0.0
  0
LINE
  5
6C
330
47
100
AcDbEntity
  8
0
  6
Continuous
 62
     7
100
AcDbLine
 10
-531.5499998139973
 20
161.0295935380096
 30
0.0
 11
-531.5499998139973
 21
160.9711732158587
 31
0.0
  0
LINE
  5
6D
330
47
100
AcDbEntity
  8
0
  6
Continuous
 62
     3
100
AcDbLine
 10
-528.5501798907342
 20
161.3610012133745
 30
0.0
 11
-531.5499998139973
 21
160.9711732158587
 31
0.0
  0
LINE
  5
6E
330
47
100
AcDbEntity
  8
0
  6
Continuous
 62
     7
100
AcDbLine
 10
-531.5499998139973
 20
160.9557866708686
 30
0.0
 11
-531.5499998139973
 21
160.9711732158587
 31
0.0
  0
LINE
  5
6F
330
47
100
AcDbEntity
  8
0
  6
Continuous
 62
     7
100
AcDbLine
 10
-531.5499998139973
 20
160.8972534194673
 30
0.0
 11
-531.5499998139973
 21
160.9557866708686
 31
0.0
  0
LINE
  5
70
330
47
100
AcDbEntity
  8
0
  6
Continuous
 62
     7
100
AcDbLine
 10
-531.5499998139973
 20
156.0868456592315
 30
0.0
 11
-531.5499998139973
 21
160.8972534194673
 31
0.0
  0
LINE
  5
71
330
47
100
AcDbEntity
  8
0
  6
Continuous
 62
     7
100
AcDbLine
 10
-531.5499998139973
 20
155.8051813583257
 30
0.0
 11
-531.5499998139973
 21
155.2870976998148
 31
0.0
  0
LINE
  5
72
330
47
100
AcDbEntity
  8
0
  6
Continuous
 62
     7
100
AcDbLine
 10
-531.5499998139973
 20
155.2870976998148
 30
0.0
 11
-531.5499998139973
 21
155.2262781256561
 31
0.0
  0
LINE
  5
73
330
47
100
AcDbEntity
  8
0
  6
Continuous
 62
     7
100
AcDbLine
 10
-528.5501140448048
 20
154.5196587442988
 30
0.0
 11
-528.5501140448048
 21
155.7854357284888
 31
0.0
  0
LINE
  5
74
330
47
100
AcDbEntity
  8
0
  6
Continuous
 62
     3
100
AcDbLine
 10
-528.5430129325152
 20
155.7858312107346
 30
0.0
 11
-528.5501140448048
 21
155.7854357284888
 31
0.0
  0
LINE
  5
75
330
47
100
AcDbEntity
  8
0
  6
Continuous
 62
     3
100
AcDbLine
 10
-514.7499998139973
 20
147.1999999999742
 30
0.0
 11
-514.7499998139973
 21
154.3116774985818
 31
0.0
  0
LINE
  5
76
330
47
100
AcDbEntity
  8
0
  6
Continuous
 62
     3
100
AcDbLine
 10
-520.4499998139972
 20
147.1999999999742
 30
0.0
 11
-523.4499998139971
 21
147.1999999999742
 31
0.0
  0
LINE
  5
77
330
47
100
AcDbEntity
  8
0
  6
Continuous
 62
     7
100
AcDbLine
 10
-523.4499998139971
 20
154.4230336450899
 30
0.0
 11
-523.4499998139971
 21
147.1999999999742
 31
0.0
  0
LINE
  5
78
330
47
100
AcDbEntity
  8
0
  6
Continuous
 62
     3
100
AcDbLine
 10
-522.6534898798094
 20
154.1966311667409
 30
0.0
 11
-522.6534898798094
 21
154.1704641696319
 31
0.0
  0
LINE
  5
79
330
47
100
AcDbEntity
  8
0
  6
Continuous
 62
     7
100
AcDbLine
 10
-523.0499992656099
 20
154.4205653107486
 30
0.0
 11
-523.04999926561
 21
154.0832704134906
 31
0.0
  0
LINE
  5
7A
330
47
100
AcDbEntity
  8
0
  6
Continuous
 62
     3
100
AcDbLine
 10
-520.4499998139971
 20
154.3486687840218
 30
0.0
 11
-520.4499998139972
 21
147.1999999999742
 31
0.0
  0
LINE
  5
7B
330
47
100
AcDbEntity
  8
0
  6
Continuous
 62
     7
100
AcDbLine
 10
-523.04999926561
 20
154.0832704134906
 30
0.0
 11
-523.04999926561
 21
153.8556234582278
 31
0.0
  0
LINE
  5
7C
330
47
100
AcDbEntity
  8
0
  6
Continuous
 62
     3
100
AcDbLine
 10
-523.086362951827
 20
153.9803507312188
 30
0.0
 11
-523.086362951827
 21
153.7561075870659
 31
0.0
  0
LINE
  5
7D
330
47
100
AcDbEntity
  8
0
  6
Continuous
 62
     7
100
AcDbLine
 10
-528.675285789203
 20
154.4858802065901
 30
0.0
 11
-531.5499998139973
 21
155.2262781256561
 31
0.0
  0
LINE
  5
7E
330
47
100
AcDbEntity
  8
0
  6
Continuous
 62
     3
100
AcDbLine
 10
-531.5499998139973
 20
160.8972534194673
 30
0.0
 11
-528.5570680301674
 21
161.2861863000527
 31
0.0
  0
LINE
  5
7F
330
47
100
AcDbEntity
  8
0
  6
Continuous
 62
     7
100
AcDbLine
 10
-531.5499998139973
 20
160.9557866708686
 30
0.0
 11
-528.559333546791
 21
161.3444251465125
 31
0.0
  0
LINE
  5
80
330
47
100
AcDbEntity
  8
0
  6
Continuous
 62
     7
100
AcDbLine
 10
-531.5499998139973
 20
156.0868456592315
 30
0.0
 11
-531.5499998139973
 21
155.8051813583257
 31
0.0
  0
LINE
  5
81
330
47
100
AcDbEntity
  8
0
  6
Continuous
 62
     3
100
AcDbLine
 10
-528.5500004751835
 20
156.0686148217134
 30
0.0
 11
-528.5570680301679
 21
156.0682212083746
 31
0.0
  0
LINE
  5
82
330
47
100
AcDbEntity
  8
0
  6
Continuous
 62
     3
100
AcDbLine
 10
-528.5570680301679
 20
156.0682212083746
 30
0.0
 11
-531.5499998139973
 21
156.0868456592315
 31
0.0
  0
LINE
  5
83
330
47
100
AcDbEntity
  8
0
  6
Continuous
 62
     3
100
AcDbLine
 10
-528.549999813997
 20
156.0687224231458
 30
0.0
 11
-514.4499999430295
 21
155.9817137576956
 31
0.0
  0
LINE
  5
84
330
47
100
AcDbEntity
  8
0
  6
Continuous
 62
     3
100
AcDbLine
 10
-514.4499999430295
 20
154.4260732658865
 30
0.0
 11
-528.4200926235094
 21
154.512280296487
 31
0.0
  0
LINE
  5
85
330
47
100
AcDbEntity
  8
0
  6
Continuous
 62
     3
100
AcDbLine
 10
-528.5430129325152
 20
155.7858312107346
 30
0.0
 11
-514.4499999430295
 21
155.6988656601241
 31
0.0
  0
LINE
  5
86
330
47
100
AcDbEntity
  8
0
  6
Continuous
 62
     7
100
AcDbLine
 10
-528.4195814583911
 20
154.4537000756347
 30
0.0
 11
-514.4499999430295
 21
154.3674961993459
 31
0.0
  0
LINE
  5
87
330
47
100
AcDbEntity
  8
0
  6
Continuous
 62
     7
100
AcDbLine
 10
-510.4499998139972
 20
60.49999999997428
 30
0.0
 11
-510.4499998139972
 21
165.4999999999743
 31
0.0
  0
LINE
  5
88
330
47
100
AcDbEntity
  8
0
  6
Continuous
 62
     3
100
AcDbLine
 10
-514.7499998139973
 20
147.1999999999742
 30
0.0
 11
-520.4499998139972
 21
147.1999999999742
 31
0.0
  0
LINE
  5
89
330
47
100
AcDbEntity
  8
0
  6
Continuous
 62
     3
100
AcDbLine
 10
-528.6445717029958
 20
154.5387892041385
 30
0.0
 11
-531.5499998139973
 21
155.2870976998148
 31
0.0
  0
LINE
  5
8A
330
47
100
AcDbEntity
  8
0
  6
Continuous
 62
     7
100
AcDbLine
 10
-513.9499999430295
 20
175.4999999999743
 30
0.0
 11
-513.2292585616323
 21
175.4999999999743
 31
0.0
  0
LINE
  5
8B
330
47
100
AcDbEntity
  8
0
  6
Continuous
 62
     7
100
AcDbLine
 10
-513.2292585616323
 20
50.49999999997428
 30
0.0
 11
-513.9499999430295
 21
50.49999999997428
 31
0.0
  0
LINE
  5
8C
330
47
100
AcDbEntity
  8
0
  6
Continuous
 62
     3
100
AcDbLine
 10
-513.9499999430295
 20
50.49999999997428
 30
0.0
 11
-513.9499999430295
 21
60.49999999997428
 31
0.0
  0
LINE
  5
8D
330
47
100
AcDbEntity
  8
0
  6
Continuous
 62
     7
100
AcDbLine
 10
-514.4499999430295
 20
50.99999999997428
 30
0.0
 11
-514.4499999430295
 21
60.49999999997428
 31
0.0
  0
LINE
  5
8E
330
47
100
AcDbEntity
  8
0
  6
Continuous
 62
     3
100
AcDbLine
 10
-513.9499999430295
 20
60.49999999997428
 30
0.0
 11
-513.9499999430295
 21
165.4999999999743
 31
0.0
  0
LINE
  5
8F
330
47
100
AcDbEntity
  8
0
  6
Continuous
 62
     3
100
AcDbLine
 10
-513.9499999430295
 20
175.4999999999743
 30
0.0
 11
-513.9499999430295
 21
165.4999999999743
 31
0.0
  0
LINE
  5
90
330
47
100
AcDbEntity
  8
0
  6
Continuous
 62
     3
100
AcDbLine
 10
-513.2292585616323
 20
175.4999999999743
 30
0.0
 11
-513.2292585616323
 21
165.4999999999743
 31
0.0
  0
LINE
  5
91
330
47
100
AcDbEntity
  8
0
  6
Continuous
 62
     3
100
AcDbLine
 10
-513.9499999430295
 20
165.4999999999743
 30
0.0
 11
-513.2292585616323
 21
165.4999999999743
 31
0.0
  0
LINE
  5
92
330
47
100
AcDbEntity
  8
0
  6
Continuous
 62
     3
100
AcDbLine
 10
-514.4499999430295
 20
165.4999999999743
 30
0.0
 11
-513.9499999430295
 21
165.4999999999743
 31
0.0
  0
LINE
  5
93
330
47
100
AcDbEntity
  8
0
  6
Continuous
 62
     7
100
AcDbLine
 10
-514.4499999430295
 20
174.9999999999743
 30
0.0
 11
-514.4499999430295
 21
165.4999999999743
 31
0.0
  0
LINE
  5
94
330
47
100
AcDbEntity
  8
0
  6
Continuous
 62
     7
100
AcDbLine
 10
-514.4499999430295
 20
60.49999999997428
 30
0.0
 11
-514.4499999430295
 21
165.4999999999743
 31
0.0
  0
LINE
  5
95
330
47
100
AcDbEntity
  8
0
  6
Continuous
 62
     3
100
AcDbLine
 10
-514.4499999430295
 20
147.1999999999742
 30
0.0
 11
-514.7499998139973
 21
147.1999999999742
 31
0.0
  0
LINE
  5
96
330
47
100
AcDbEntity
  8
0
  6
Continuous
 62
     3
100
AcDbLine
 10
-514.7499998139973
 20
147.1999999999742
 30
0.0
 11
-514.7499998139973
 21
78.79999999997428
 31
0.0
  0
LINE
  5
97
330
47
100
AcDbEntity
  8
0
  6
Continuous
 62
     3
100
AcDbLine
 10
-520.4499998139972
 20
78.79999999997432
 30
0.0
 11
-520.4499998139972
 21
147.1999999999742
 31
0.0
  0
LINE
  5
98
330
47
100
AcDbEntity
  8
0
  6
Continuous
 62
     7
100
AcDbLine
 10
-523.4499998139972
 20
71.5031594877176
 30
0.0
 11
-523.4499998139972
 21
78.79999999997428
 31
0.0
  0
LINE
  5
99
330
47
100
AcDbEntity
  8
0
  6
Continuous
 62
     3
100
AcDbLine
 10
-523.4499998139972
 20
78.79999999997428
 30
0.0
 11
-520.4499998139972
 21
78.79999999997432
 31
0.0
  0
LINE
  5
9A
330
47
100
AcDbEntity
  8
0
  6
Continuous
 62
     3
100
AcDbLine
 10
-520.4499998139972
 20
71.65132275232145
 30
0.0
 11
-520.4499998139972
 21
78.79999999997432
 31
0.0
  0
LINE
  5
9B
330
47
100
AcDbEntity
  8
0
  6
Continuous
 62
     3
100
AcDbLine
 10
-514.7499998139973
 20
71.68831398897403
 30
0.0
 11
-514.7499998139973
 21
78.79999999997428
 31
0.0
  0
LINE
  5
9C
330
47
100
AcDbEntity
  8
0
  6
Continuous
 62
     3
100
AcDbLine
 10
-522.6534898798094
 20
71.82952709767915
 30
0.0
 11
-522.6534898798094
 21
71.73265007744376
 31
0.0
  0
LINE
  5
9D
330
47
100
AcDbEntity
  8
0
  6
Continuous
 62
     7
100
AcDbLine
 10
-523.04999926561
 20
72.14436832825571
 30
0.0
 11
-523.04999926561
 21
71.91672958645796
 31
0.0
  0
LINE
  5
9E
330
47
100
AcDbEntity
  8
0
  6
Continuous
 62
     3
100
AcDbLine
 10
-514.7499998139973
 20
78.79999999997428
 30
0.0
 11
-520.4499998139972
 21
78.79999999997432
 31
0.0
  0
LINE
  5
9F
330
47
100
AcDbEntity
  8
0
  6
Continuous
 62
     3
100
AcDbLine
 10
-514.4499999430295
 20
78.79999999997428
 30
0.0
 11
-514.7499998139973
 21
78.79999999997428
 31
0.0
  0
LINE
  5
A0
330
47
100
AcDbEntity
  8
0
  6
Continuous
 62
     3
100
AcDbLine
 10
-513.2292585616323
 20
50.49999999997428
 30
0.0
 11
-513.2292585616323
 21
60.49999999997428
 31
0.0
  0
LINE
  5
A1
330
47
100
AcDbEntity
  8
0
  6
Continuous
 62
     3
100
AcDbLine
 10
-512.2837399860329
 20
174.8255681544314
 30
0.0
 11
-512.2837399860329
 21
165.4999999999743
 31
0.0
  0
LINE
  5
A2
330
47
100
AcDbEntity
  8
0
  6
Continuous
 62
     3
100
AcDbLine
 10
-512.2837399860329
 20
165.4999999999743
 30
0.0
 11
-513.2292585616323
 21
165.4999999999743
 31
0.0
  0
LINE
  5
A3
330
47
100
AcDbEntity
  8
0
  6
Continuous
 62
     3
100
AcDbLine
 10
-512.2837399860329
 20
51.17443184551712
 30
0.0
 11
-512.2837399860329
 21
60.49999999997428
 31
0.0
  0
LINE
  5
A4
330
47
100
AcDbEntity
  8
0
  6
Continuous
 62
     3
100
AcDbLine
 10
-513.2292585616323
 20
60.49999999997428
 30
0.0
 11
-513.2292585616323
 21
165.4999999999743
 31
0.0
  0
LINE
  5
A5
330
47
100
AcDbEntity
  8
0
  6
Continuous
 62
     3
100
AcDbLine
 10
-510.5044812383979
 20
169.65822554535
 30
0.0
 11
-510.5044812383978
 21
165.4999999999743
 31
0.0
  0
LINE
  5
A6
330
47
100
AcDbEntity
  8
0
  6
Continuous
 62
     7
100
AcDbLine
 10
-510.4499998139972
 20
165.4999999999743
 30
0.0
 11
-510.4499998139972
 21
169.3326573908928
 31
0.0
  0
LINE
  5
A7
330
47
100
AcDbEntity
  8
0
  6
Continuous
 62
     3
100
AcDbLine
 10
-510.5044812383978
 20
165.4999999999743
 30
0.0
 11
-512.2837399860329
 21
165.4999999999743
 31
0.0
  0
LINE
  5
A8
330
47
100
AcDbEntity
  8
0
  6
Continuous
 62
     3
100
AcDbLine
 10
-510.5044812383978
 20
165.4999999999743
 30
0.0
 11
-510.4499998139972
 21
165.4999999999743
 31
0.0
  0
LINE
  5
A9
330
47
100
AcDbEntity
  8
0
  6
Continuous
 62
     7
100
AcDbLine
 10
-510.4499998139972
 20
56.6673426090557
 30
0.0
 11
-510.4499998139972
 21
60.49999999997428
 31
0.0
  0
LINE
  5
AA
330
47
100
AcDbEntity
  8
0
  6
Continuous
 62
     3
100
AcDbLine
 10
-510.5044812383978
 20
60.49999999997428
 30
0.0
 11
-510.4499998139972
 21
60.49999999997428
 31
0.0
  0
LINE
  5
AB
330
47
100
AcDbEntity
  8
0
  6
Continuous
 62
     3
100
AcDbLine
 10
-510.5044812383978
 20
56.34177445459854
 30
0.0
 11
-510.5044812383978
 21
60.49999999997428
 31
0.0
  0
LINE
  5
AC
330
47
100
AcDbEntity
  8
0
  6
Continuous
 62
     3
100
AcDbLine
 10
-510.5044812383978
 20
60.49999999997428
 30
0.0
 11
-510.5044812383978
 21
165.4999999999743
 31
0.0
  0
LINE
  5
AD
330
47
100
AcDbEntity
  8
0
  6
Continuous
 62
     3
100
AcDbLine
 10
-512.2837399860329
 20
60.49999999997428
 30
0.0
 11
-512.2837399860329
 21
165.4999999999743
 31
0.0
  0
LINE
  5
AE
330
47
100
AcDbEntity
  8
0
  6
Continuous
 62
     7
100
AcDbLine
 10
-510.5044812383979
 20
169.65822554535
 30
0.0
 11
-512.2837399860329
 21
174.8255681544314
 31
0.0
  0
LINE
  5
AF
330
47
100
AcDbEntity
  8
0
  6
Continuous
 62
     3
100
AcDbLine
 10
-528.5570680301678
 20
64.64000683275486
 30
0.0
 11
-531.5499998139973
 21
65.02893971334015
 31
0.0
  0
LINE
  5
B0
330
47
100
AcDbEntity
  8
0
  6
Continuous
 62
     3
100
AcDbLine
 10
-531.5499998139973
 20
69.83934747357587
 30
0.0
 11
-528.5570680301674
 21
69.85797192443277
 31
0.0
  0
LINE
  5
B1
330
47
100
AcDbEntity
  8
0
  6
Continuous
 62
     3
100
AcDbLine
 10
-531.5499998139973
 20
70.12101177448176
 30
0.0
 11
-528.5501798907338
 21
70.13967908893326
 31
0.0
  0
LINE
  5
B2
330
47
100
AcDbEntity
  8
0
  6
Continuous
 62
     3
100
AcDbLine
 10
-528.5500004751835
 20
64.63952599409228
 30
0.0
 11
-528.5570680301678
 21
64.64000683275486
 31
0.0
  0
LINE
  5
B3
330
47
100
AcDbEntity
  8
0
  6
Continuous
 62
     7
100
AcDbLine
 10
-528.5486832932108
 20
64.58104317048941
 30
0.0
 11
-528.5593261115598
 21
64.5817672509603
 31
0.0
  0
LINE
  5
B4
330
47
100
AcDbEntity
  8
0
  6
Continuous
 62
     7
100
AcDbLine
 10
-531.5499998139973
 20
70.12101177448176
 30
0.0
 11
-531.5499998139973
 21
69.83934747357587
 31
0.0
  0
LINE
  5
B5
330
47
100
AcDbEntity
  8
0
  6
Continuous
 62
     7
100
AcDbLine
 10
-531.5499998139973
 20
70.63909543299279
 30
0.0
 11
-531.5499998139973
 21
70.12101177448176
 31
0.0
  0
LINE
  5
B6
330
47
100
AcDbEntity
  8
0
  6
Continuous
 62
     7
100
AcDbLine
 10
-531.5499998139973
 20
69.83934747357587
 30
0.0
 11
-531.5499998139973
 21
65.02893971334015
 31
0.0
  0
LINE
  5
B7
330
47
100
AcDbEntity
  8
0
  6
Continuous
 62
     7
100
AcDbLine
 10
-531.5499998139973
 20
65.02893971334015
 30
0.0
 11
-531.5499998139973
 21
64.97040646193894
 31
0.0
  0
LINE
  5
B8
330
47
100
AcDbEntity
  8
0
  6
Continuous
 62
     7
100
AcDbLine
 10
-528.5593335467913
 20
64.581767986295
 30
0.0
 11
-531.5499998139973
 21
64.97040646193894
 31
0.0
  0
LINE
  5
B9
330
47
100
AcDbEntity
  8
0
  6
Continuous
 62
     7
100
AcDbLine
 10
-528.675285789203
 20
71.44340911523977
 30
0.0
 11
-531.5499998139973
 21
70.70301119617382
 31
0.0
  0
LINE
  5
BA
330
47
100
AcDbEntity
  8
0
  6
Continuous
 62
     7
100
AcDbLine
 10
-531.5499998139973
 20
70.63909543299279
 30
0.0
 11
-531.5499998139973
 21
70.69991500715145
 31
0.0
  0
LINE
  5
BB
330
47
100
AcDbEntity
  8
0
  6
Continuous
 62
     7
100
AcDbLine
 10
-531.5499998139973
 20
70.70301119617382
 30
0.0
 11
-531.5499998139973
 21
70.69991500715145
 31
0.0
  0
LINE
  5
BC
330
47
100
AcDbEntity
  8
0
  6
Continuous
 62
     3
100
AcDbLine
 10
-528.6445717029958
 20
71.38740392866899
 30
0.0
 11
-531.5499998139973
 21
70.63909543299279
 31
0.0
  0
LINE
  5
BD
330
47
100
AcDbEntity
  8
0
  6
Continuous
 62
     7
100
AcDbLine
 10
-531.5499998139973
 20
70.69991500715145
 30
0.0
 11
-528.6752857892029
 21
71.44031292621742
 31
0.0
  0
LINE
  5
BE
330
47
100
AcDbEntity
  8
0
  6
Continuous
 62
     3
100
AcDbLine
 10
-528.5500004751839
 20
69.85757831109404
 30
0.0
 11
-528.5570680301674
 21
69.85797192443277
 31
0.0
  0
LINE
  5
BF
330
47
100
AcDbEntity
  8
0
  6
Continuous
 62
     3
100
AcDbLine
 10
-514.4499999430295
 20
71.50011986692107
 30
0.0
 11
-528.4200926235094
 21
71.41391283632055
 31
0.0
  0
LINE
  5
C0
330
47
100
AcDbEntity
  8
0
  6
Continuous
 62
     7
100
AcDbLine
 10
-528.5501140448046
 20
71.40653438850916
 30
0.0
 11
-528.5501140448046
 21
70.1407574043186
 31
0.0
  0
LINE
  5
C1
330
47
100
AcDbEntity
  8
0
  6
Continuous
 62
     3
100
AcDbLine
 10
-528.5430129325151
 20
70.14036192207286
 30
0.0
 11
-528.5501140448046
 21
70.1407574043186
 31
0.0
  0
LINE
  5
C2
330
47
100
AcDbEntity
  8
0
  6
Continuous
 62
     3
100
AcDbLine
 10
-514.4499999430295
 20
70.22732747268338
 30
0.0
 11
-528.5430129325151
 21
70.14036192207286
 31
0.0
  0
LINE
  5
C3
330
47
100
AcDbEntity
  8
0
  6
Continuous
 62
     7
100
AcDbLine
 10
-514.4499999430295
 20
71.55869693346162
 30
0.0
 11
-528.4195814583911
 21
71.47249305717281
 31
0.0
  0
LINE
  5
C4
330
47
100
AcDbEntity
  8
0
  6
Continuous
 62
     7
100
AcDbLine
 10
-528.4195814583911
 20
71.47558924619517
 30
0.0
 11
-523.4499998139972
 21
71.50625567673995
 31
0.0
  0
LINE
  5
C5
330
47
100
AcDbEntity
  8
0
  6
Continuous
 62
     7
100
AcDbLine
 10
-528.5486757702931
 20
64.58104289163498
 30
0.0
 11
-514.4499999430295
 21
64.49404239662995
 31
0.0
  0
LINE
  5
C6
330
47
100
AcDbEntity
  8
0
  6
Continuous
 62
     3
100
AcDbLine
 10
-514.4499999430295
 20
69.9444793751118
 30
0.0
 11
-528.5499998139974
 21
69.85747070966158
 31
0.0
  0
LINE
  5
C7
330
47
100
AcDbEntity
  8
0
  6
Continuous
 62
     7
100
AcDbLine
 10
-528.5499998139974
 20
69.85747070966158
 30
0.0
 11
-528.549999813997
 21
64.63963351371765
 31
0.0
  0
LINE
  5
C8
330
47
100
AcDbEntity
  8
0
  6
Continuous
 62
     7
100
AcDbLine
 10
-523.04999926561
 20
71.91672958645796
 30
0.0
 11
-523.04999926561
 21
71.50562782205894
 31
0.0
  0
LINE
  5
C9
330
47
100
AcDbEntity
  8
0
  6
Continuous
 62
     3
100
AcDbLine
 10
-523.086362951827
 20
72.0196414456515
 30
0.0
 11
-523.086362951827
 21
72.24388432222653
 31
0.0
  0
LINE
  5
CA
330
47
100
AcDbEntity
  8
0
  6
Continuous
 62
     3
100
AcDbLine
 10
-513.9499999430295
 20
60.49999999997428
 30
0.0
 11
-514.4499999430295
 21
60.49999999997428
 31
0.0
  0
LINE
  5
CB
330
47
100
AcDbEntity
  8
0
  6
Continuous
 62
     3
100
AcDbLine
 10
-513.9499999430295
 20
60.49999999997428
 30
0.0
 11
-513.2292585616323
 21
60.49999999997428
 31
0.0
  0
LINE
  5
CC
330
47
100
AcDbEntity
  8
0
  6
Continuous
 62
     3
100
AcDbLine
 10
-513.2292585616323
 20
60.49999999997428
 30
0.0
 11
-512.2837399860329
 21
60.49999999997428
 31
0.0
  0
LINE
  5
CD
330
47
100
AcDbEntity
  8
0
  6
Continuous
 62
     3
100
AcDbLine
 10
-512.2837399860329
 20
60.49999999997428
 30
0.0
 11
-510.5044812383978
 21
60.49999999997428
 31
0.0
  0
LINE
  5
CE
330
47
100
AcDbEntity
  8
0
  6
Continuous
 62
     3
100
AcDbLine
 10
-528.549999813997
 20
64.63963351371765
 30
0.0
 11
-514.4499999430295
 21
64.55262484826746
 31
0.0
  0
LINE
  5
CF
330
47
100
AcDbEntity
  8
0
  6
Continuous
 62
     7
100
AcDbLine
 10
-510.5044812383978
 20
56.34177445459854
 30
0.0
 11
-512.2837399860329
 21
51.17443184551712
 31
0.0
  0
LINE
  5
D0
330
47
100
AcDbEntity
  8
1
  6
DOT_CENTER
 62
     2
100
AcDbLine
 10
-509.4544849898098
 20
112.9999999999743
 30
0.0
 11
-526.814234971145
 21
112.9999999999741
 31
0.0
  0
ARC
  5
D1
330
47
100
AcDbEntity
  8
0
  6
Continuous
 62
     7
100
AcDbCircle
 10
-528.55879359968
 20
161.359934116331
 30
0.0
 40
0.0086795551673661
100
AcDbArc
 50
359.9851347734502
 51
7.06202528085067
  0
ARC
  5
D2
330
47
100
AcDbEntity
  8
0
  6
Continuous
 62
     7
100
AcDbCircle
 10
-528.5590123890639
 20
155.7854335307368
 30
0.0
 40
0.0088983445305422
100
AcDbArc
 50
0.01415116201196
 51
6.97455583873844
  0
ARC
  5
D3
330
47
100
AcDbEntity
  8
0
  6
Continuous
 62
     7
100
AcDbCircle
 10
-513.9499999430295
 20
50.99999999997428
 30
0.0
 40
0.5
100
AcDbArc
 50
180.0
 51
270.0
  0
ARC
  5
D4
330
47
100
AcDbEntity
  8
0
  6
Continuous
 62
     7
100
AcDbCircle
 10
-513.9499999430295
 20
174.9999999999743
 30
0.0
 40
0.5
100
AcDbArc
 50
90.0
 51
180.0
  0
ARC
  5
D5
330
47
100
AcDbEntity
  8
0
  6
Continuous
 62
     7
100
AcDbCircle
 10
-513.2292585616323
 20
174.4999999999743
 30
0.0
 40
1.000000000000068
100
AcDbArc
 50
18.99999999999533
 51
90.0
  0
ARC
  5
D6
330
47
100
AcDbEntity
  8
0
  6
Continuous
 62
     7
100
AcDbCircle
 10
-513.2292585616323
 20
51.49999999997428
 30
0.0
 40
1.0
100
AcDbArc
 50
270.0
 51
341.0000000000016
  0
ARC
  5
D7
330
47
100
AcDbEntity
  8
0
  6
Continuous
 62
     7
100
AcDbCircle
 10
-511.4499998139972
 20
56.6673426090557
 30
0.0
 40
1.000000000000087
100
AcDbArc
 50
341.0000000000016
 51
0.0
  0
ARC
  5
D8
330
47
100
AcDbEntity
  8
0
  6
Continuous
 62
     7
100
AcDbCircle
 10
-511.4499998139972
 20
169.3326573908928
 30
0.0
 40
1.0
100
AcDbArc
 50
0.0
 51
19.00000000000361
  0
ARC
  5
D9
330
47
100
AcDbEntity
  8
0
  6
Continuous
 62
     7
100
AcDbCircle
 10
-528.5590123890631
 20
70.14075960206904
 30
0.0
 40
0.0088983445299467
100
AcDbArc
 50
353.0254441711712
 51
359.9858488480525
  0
SPLINE
  5
DA
330
47
100
AcDbEntity
  8
0
  6
Continuous
 62
     7
100
AcDbSpline
210
0.0
220
0.0
230
1.0
 70
    24
 71
     3
 72
     8
 73
     4
 74
     2
 42
0.0000000001
 43
0.0000000001
 44
0.00000001
 40
0.0
 40
0.0
 40
0.0
 40
0.0
 40
0.0000074715048508
 40
0.0000074715048508
 40
0.0000074715048508
 40
0.0000074715048508
 10
-528.5593261115598
 20
161.4182327489882
 30
0.0
 10
-528.5593285899703
 20
161.4182325038766
 30
0.0
 10
-528.5593310683807
 20
161.418232258765
 30
0.0
 10
-528.5593335467913
 20
161.4182320136535
 30
0.0
 11
-528.5593261115598
 21
161.4182327489882
 31
0.0
 11
-528.5593335467913
 21
161.4182320136535
 31
0.0
  0
SPLINE
  5
DB
330
47
100
AcDbEntity
  8
0
  6
Continuous
 62
     3
100
AcDbSpline
210
0.0
220
0.0
230
1.0
 70
     8
 71
     3
 72
    15
 73
    11
 74
     9
 42
0.000000001
 43
0.0000000001
 44
0.00000001
 40
0.0
 40
0.0
 40
0.0
 40
0.0
 40
0.0131489115405665
 40
0.0247872947257703
 40
0.0348375288993617
 40
0.0432223049914855
 40
0.0498368024649102
 40
0.0546115570690537
 40
0.0575280942083213
 40
0.0586163929098368
 40
0.0586163929098368
 40
0.0586163929098368
 40
0.0586163929098368
 10
-528.5500004751839
 20
161.2866671387152
 30
0.0
 10
-528.5500489574446
 20
161.2910499367446
 30
0.0
 10
-528.5501403660796
 20
161.2993120430572
 30
0.0
 10
-528.5501827851942
 20
161.3109235575035
 30
0.0
 10
-528.550157577756
 20
161.3209511737714
 30
0.0
 10
-528.5500168707498
 20
161.3292916291724
 30
0.0
 10
-528.5498894656625
 20
161.3359035413067
 30
0.0
 10
-528.5494794867134
 20
161.3406130058788
 30
0.0
 10
-528.5494477360648
 20
161.3436215048758
 30
0.0
 10
-528.5488466345948
 20
161.3448233602295
 30
0.0
 10
-528.5486832932108
 20
161.345149962318
 30
0.0
 11
-528.5500004751839
 21
161.2866671387152
 31
0.0
 11
-528.5501286976466
 21
161.2998154224679
 31
0.0
 11
-528.5501718700418
 21
161.3114537255713
 31
0.0
 11
-528.5501299877194
 21
161.3215038724445
 31
0.0
 11
-528.5500030460291
 21
161.329887687507
 31
0.0
 11
-528.549792263227
 21
161.3364988255481
 31
0.0
 11
-528.5495004520797
 21
161.3412646545538
 31
0.0
 11
-528.5491299997024
 21
161.344157568739
 31
0.0
 11
-528.5486832932108
 21
161.345149962318
 31
0.0
  0
SPLINE
  5
DC
330
47
100
AcDbEntity
  8
0
  6
Continuous
 62
     3
100
AcDbSpline
210
0.0
220
0.0
230
1.0
 70
     8
 71
     3
 72
    15
 73
    11
 74
     9
 42
0.000000001
 43
0.0000000001
 44
0.00000001
 40
0.0
 40
0.0
 40
0.0
 40
0.0
 40
0.0130326038368417
 40
0.0245656414176225
 40
0.0345229619986058
 40
0.0428287262825049
 40
0.0493801330841406
 40
0.0541091118643836
 40
0.0569977178339225
 40
0.0580764097085911
 40
0.0580764097085911
 40
0.0580764097085911
 40
0.0580764097085911
 10
-528.5501798907342
 20
161.3610012133745
 30
0.0
 10
-528.5507204810268
 20
161.3653117443187
 30
0.0
 10
-528.5517394462756
 20
161.3734368267319
 30
0.0
 10
-528.5532561174214
 20
161.3848431720574
 30
0.0
 10
-528.5546265986352
 20
161.3946834141193
 30
0.0
 10
-528.5558842590024
 20
161.4028504649353
 30
0.0
 10
-528.556896934709
 20
161.4093221849413
 30
0.0
 10
-528.557932469118
 20
161.4138879832128
 30
0.0
 10
-528.558367894806
 20
161.4168367285949
 30
0.0
 10
-528.5591212756484
 20
161.4179343161853
 30
0.0
 10
-528.5593261115598
 20
161.4182327489882
 30
0.0
 11
-528.5501798907342
 21
161.3610012133745
 31
0.0
 11
-528.5518186164045
 21
161.373930377045
 31
0.0
 11
-528.5533381203206
 21
161.3853628773622
 31
0.0
 11
-528.5547280180059
 21
161.3952227159481
 31
0.0
 11
-528.5559779249829
 21
161.4034338944246
 31
0.0
 11
-528.5570725226002
 21
161.409893212183
 31
0.0
 11
-528.5579994173796
 21
161.4145304640317
 31
0.0
 11
-528.5587526126048
 21
161.4173191447178
 31
0.0
 11
-528.5593261115598
 21
161.4182327489882
 31
0.0
  0
SPLINE
  5
DD
330
47
100
AcDbEntity
  8
0
  6
Continuous
 62
     7
100
AcDbSpline
210
0.0
220
0.0
230
1.0
 70
    24
 71
     3
 72
     8
 73
     4
 74
     2
 42
0.0000000001
 43
0.0000000001
 44
0.00000001
 40
0.0
 40
0.0
 40
0.0
 40
0.0
 40
0.0000075280841357
 40
0.0000075280841357
 40
0.0000075280841357
 40
0.0000075280841357
 10
-528.5486832932108
 20
161.4189568294591
 30
0.0
 10
-528.5486807855717
 20
161.4189569224106
 30
0.0
 10
-528.5486782779325
 20
161.4189570153621
 30
0.0
 10
-528.5486757702931
 20
161.4189571083136
 30
0.0
 11
-528.5486832932108
 21
161.4189568294591
 31
0.0
 11
-528.5486757702931
 21
161.4189571083136
 31
0.0
  0
SPLINE
  5
DE
330
47
100
AcDbEntity
  8
0
  6
Continuous
 62
     3
100
AcDbSpline
210
0.0
220
0.0
230
1.0
 70
     8
 71
     3
 72
    15
 73
    11
 74
     9
 42
0.000000001
 43
0.0000000001
 44
0.00000001
 40
0.0
 40
0.0
 40
0.0
 40
0.0
 40
0.0010939050736138
 40
0.0040268520173756
 40
0.0088285393251019
 40
0.0154801781331324
 40
0.0239114763681102
 40
0.0340164139213297
 40
0.0457168087061842
 40
0.0589341669630996
 40
0.0589341669630996
 40
0.0589341669630996
 40
0.0589341669630996
 10
-528.5486757702931
 20
161.4189571083136
 30
0.0
 10
-528.5484881266374
 20
161.4186416590777
 30
0.0
 10
-528.5477973582231
 20
161.4174804471822
 30
0.0
 10
-528.5475423400505
 20
161.4144661196015
 30
0.0
 10
-528.5467820706403
 20
161.4097732527335
 30
0.0
 10
-528.5461633284149
 20
161.4031520676979
 30
0.0
 10
-528.545402781295
 20
161.3947988648685
 30
0.0
 10
-528.5446325158671
 20
161.3847462682511
 30
0.0
 10
-528.5438123108246
 20
161.3731018073223
 30
0.0
 10
-528.5432899960847
 20
161.3648121478041
 30
0.0
 10
-528.5430129325152
 20
161.3604149861675
 30
0.0
 11
-528.5486757702931
 21
161.4189571083136
 31
0.0
 11
-528.5481552293826
 21
161.4179949944406
 31
0.0
 11
-528.5475696804191
 21
161.4151210931299
 31
0.0
 11
-528.5469235884183
 21
161.4103630720653
 31
0.0
 11
-528.5462214183956
 21
161.4037485989305
 31
0.0
 11
-528.5454714290297
 21
161.3953507239044
 31
0.0
 11
-528.5446827936249
 21
161.3852766077392
 31
0.0
 11
-528.5438613491353
 21
161.3736050839788
 31
0.0
 11
-528.5430129325152
 21
161.3604149861675
 31
0.0
  0
SPLINE
  5
DF
330
47
100
AcDbEntity
  8
0
  6
Continuous
 62
     7
100
AcDbSpline
210
0.0
220
0.0
230
1.0
 70
    24
 71
     3
 72
     8
 73
     4
 74
     2
 42
0.0000000001
 43
0.0000000001
 44
0.00000001
 40
0.0
 40
0.0
 40
0.0
 40
0.0
 40
0.0000075280841346
 40
0.0000075280841346
 40
0.0000075280841346
 40
0.0000075280841346
 10
-528.5486832932108
 20
161.345149962318
 30
0.0
 10
-528.5486807855716
 20
161.3451500552695
 30
0.0
 10
-528.5486782779324
 20
161.345150148221
 30
0.0
 10
-528.5486757702931
 20
161.3451502411725
 30
0.0
 11
-528.5486832932108
 21
161.345149962318
 31
0.0
 11
-528.5486757702931
 21
161.3451502411725
 31
0.0
  0
SPLINE
  5
E0
330
47
100
AcDbEntity
  8
0
  6
Continuous
 62
     7
100
AcDbSpline
210
0.0
220
0.0
230
1.0
 70
     8
 71
     3
 72
     9
 73
     5
 74
     3
 42
0.000000001
 43
0.0000000001
 44
0.00000001
 40
0.0
 40
0.0
 40
0.0
 40
0.0
 40
0.0000537508206134
 40
0.0001075221073288
 40
0.0001075221073288
 40
0.0001075221073288
 40
0.0001075221073288
 10
-528.5500004751839
 20
161.2866671387152
 30
0.0
 10
-528.5500002823378
 20
161.2866492227069
 30
0.0
 10
-528.549999916572
 20
161.2866133837159
 30
0.0
 10
-528.5499998415258
 20
161.2865775429369
 30
0.0
 10
-528.5499998139974
 20
161.2865596190898
 30
0.0
 11
-528.5500004751839
 21
161.2866671387152
 31
0.0
 11
-528.5499999792941
 21
161.2866133901523
 31
0.0
 11
-528.5499998139974
 21
161.2865596190898
 31
0.0
  0
SPLINE
  5
E1
330
47
100
AcDbEntity
  8
0
  6
Continuous
 62
     7
100
AcDbSpline
210
0.0
220
0.0
230
1.0
 70
    24
 71
     3
 72
     8
 73
     4
 74
     2
 42
0.0000000001
 43
0.0000000001
 44
0.00000001
 40
0.0
 40
0.0
 40
0.0
 40
0.0
 40
0.0000074715048508
 40
0.0000074715048508
 40
0.0000074715048508
 40
0.0000074715048508
 10
-528.559333546791
 20
161.3444251465125
 30
0.0
 10
-528.5593310683805
 20
161.344425391624
 30
0.0
 10
-528.5593285899699
 20
161.3444256367356
 30
0.0
 10
-528.5593261115595
 20
161.3444258818472
 30
0.0
 11
-528.559333546791
 21
161.3444251465125
 31
0.0
 11
-528.5593261115595
 21
161.3444258818472
 31
0.0
  0
SPLINE
  5
E2
330
47
100
AcDbEntity
  8
0
  6
Continuous
 62
     3
100
AcDbSpline
210
0.0
220
0.0
230
1.0
 70
     8
 71
     3
 72
    15
 73
    11
 74
     9
 42
0.000000001
 43
0.0000000001
 44
0.00000001
 40
0.0
 40
0.0
 40
0.0
 40
0.0
 40
0.0131027110820792
 40
0.0246992346398405
 40
0.0347125352041802
 40
0.0430658888412708
 40
0.0496552791871026
 40
0.0544117973894563
 40
0.0573171804909189
 40
0.0584016040790452
 40
0.0584016040790452
 40
0.0584016040790452
 40
0.0584016040790452
 10
-528.5570680301674
 20
161.2861863000527
 30
0.0
 10
-528.5573844646083
 20
161.2905424882299
 30
0.0
 10
-528.5579809722575
 20
161.2987541095356
 30
0.0
 10
-528.5587335876681
 20
161.3102995326765
 30
0.0
 10
-528.5593218997188
 20
161.3202731042177
 30
0.0
 10
-528.559691943612
 20
161.3285753539797
 30
0.0
 10
-528.5599694494169
 20
161.3351577108855
 30
0.0
 10
-528.5598492131224
 20
161.3398653114513
 30
0.0
 10
-528.5600014650137
 20
161.3428589629433
 30
0.0
 10
-528.5594762843547
 20
161.3440904326694
 30
0.0
 10
-528.559333546791
 20
161.3444251465125
 30
0.0
 11
-528.5570680301674
 21
161.2861863000527
 31
0.0
 11
-528.5580001731149
 21
161.2992558095804
 31
0.0
 11
-528.5587551664838
 21
161.3108277300543
 31
0.0
 11
-528.5593282418135
 21
161.320824618181
 31
0.0
 11
-528.5597146306435
 21
161.3291690306672
 31
0.0
 11
-528.5599090616674
 21
161.3357555517877
 31
0.0
 11
-528.5599099002931
 21
161.3405120697408
 31
0.0
 11
-528.5597178331308
 21
161.3434110971183
 31
0.0
 11
-528.559333546791
 21
161.3444251465125
 31
0.0
  0
SPLINE
  5
E3
330
47
100
AcDbEntity
  8
0
  6
Continuous
 62
     7
100
AcDbSpline
210
0.0
220
0.0
230
1.0
 70
     8
 71
     3
 72
    15
 73
    11
 74
     9
 42
0.000000001
 43
0.0000000001
 44
0.00000001
 40
0.0
 40
0.0
 40
0.0
 40
0.0
 40
0.0000086061677676
 40
0.0000172081646541
 40
0.0000258061558217
 40
0.0000344002854151
 40
0.0000429906960136
 40
0.0000515775300238
 40
0.0000601609322822
 40
0.0000687410695973
 40
0.0000687410695973
 40
0.0000687410695973
 40
0.0000687410695973
 10
-528.5615360733691
 20
154.4621112613115
 30
0.0
 10
-528.5615332406599
 20
154.462110808155
 30
0.0
 10
-528.5615275745973
 20
154.4621099147726
 30
0.0
 10
-528.5615190740336
 20
154.4621085971905
 30
0.0
 10
-528.5615105717059
 20
154.4621073176618
 30
0.0
 10
-528.5615020680277
 20
154.4621060735757
 30
0.0
 10
-528.5614935628714
 20
154.4621048658096
 30
0.0
 10
-528.5614850563652
 20
154.4621036934669
 30
0.0
 10
-528.5614765481548
 20
154.4621025592599
 30
0.0
 10
-528.5614708751791
 20
154.4621018181039
 30
0.0
 10
-528.5614680383999
 20
154.4621014540032
 30
0.0
 11
-528.5615360733691
 21
154.4621112613115
 31
0.0
 11
-528.5615275740475
 21
154.4621099093176
 31
0.0
 11
-528.561519073269
 21
154.4621085933448
 31
0.0
 11
-528.5615105710406
 21
154.4621073133941
 31
0.0
 11
-528.5615020673695
 21
154.4621060694663
 31
0.0
 11
-528.5614935622626
 21
154.4621048615624
 31
0.0
 11
-528.5614850557274
 21
154.4621036896834
 31
0.0
 11
-528.5614765477708
 21
154.46210255383
 31
0.0
 11
-528.5614680383999
 21
154.4621014540032
 31
0.0
  0
SPLINE
  5
E4
330
47
100
AcDbEntity
  8
0
  6
Continuous
 62
     7
100
AcDbSpline
210
0.0
220
0.0
230
1.0
 70
     8
 71
     3
 72
    11
 73
     7
 74
     5
 42
0.000000001
 43
0.0000000001
 44
0.00000001
 40
0.0
 40
0.0
 40
0.0
 40
0.0
 40
0.0121517627778557
 40
0.024134672861851
 40
0.0361383436775652
 40
0.0481462247075314
 40
0.0481462247075314
 40
0.0481462247075314
 40
0.0481462247075314
 10
-528.5615360733691
 20
154.4621112613115
 30
0.0
 10
-528.5655338363479
 20
154.4627634158543
 30
0.0
 10
-528.5734738096512
 20
154.4640586777763
 30
0.0
 10
-528.585344734966
 20
154.4661064238362
 30
0.0
 10
-528.5971493372388
 20
154.4682551230957
 30
0.0
 10
-528.6050005287215
 20
154.4698114498126
 30
0.0
 10
-528.6089268113482
 20
154.4705897569739
 30
0.0
 11
-528.5615360733691
 21
154.4621112613115
 31
0.0
 11
-528.5735262988377
 21
154.4640860605259
 31
0.0
 11
-528.5853347472066
 21
154.4661233831295
 31
0.0
 11
-528.5971420746995
 21
154.4682855887964
 31
0.0
 11
-528.6089268113482
 21
154.4705897569739
 31
0.0
  0
SPLINE
  5
E5
330
47
100
AcDbEntity
  8
0
  6
Continuous
 62
     3
100
AcDbSpline
210
0.0
220
0.0
230
1.0
 70
     8
 71
     3
 72
    23
 73
    19
 74
    17
 42
0.000000001
 43
0.0000000001
 44
0.00000001
 40
0.0
 40
0.0
 40
0.0
 40
0.0
 40
0.000523175295362
 40
0.0010673180132032
 40
0.0016615099418835
 40
0.0023279977196949
 40
0.0039317914439199
 40
0.0059511167942004
 40
0.0084104004693468
 40
0.0113127840855964
 40
0.0146499507471708
 40
0.0184062184574683
 40
0.0225610981337527
 40
0.0270905093029134
 40
0.0319679322756865
 40
0.037165056612585
 40
0.0483995503577527
 40
0.0605557502196306
 40
0.0605557502196306
 40
0.0605557502196306
 40
0.0605557502196306
 10
-528.5614680383999
 20
154.4621014540032
 30
0.0
 10
-528.5612928782699
 20
154.4620925708346
 30
0.0
 10
-528.5609355381023
 20
154.4620744343663
 30
0.0
 10
-528.5603942057473
 20
154.4622272236802
 30
0.0
 10
-528.5598585143454
 20
154.4625066595888
 30
0.0
 10
-528.5591032814722
 20
154.4630985031648
 30
0.0
 10
-528.5581850716989
 20
154.4642118563033
 30
0.0
 10
-528.5571688005901
 20
154.4659712946066
 30
0.0
 10
-528.556181338305
 20
154.4682291594989
 30
0.0
 10
-528.5552339142522
 20
154.4709718131601
 30
0.0
 10
-528.5543384428994
 20
154.4741828723744
 30
0.0
 10
-528.5535054296134
 20
154.477839781301
 30
0.0
 10
-528.5527456697755
 20
154.4819173837872
 30
0.0
 10
-528.552067781719
 20
154.486387568149
 30
0.0
 10
-528.5514797227778
 20
154.4912205968128
 30
0.0
 10
-528.550809971499
 20
154.4982924194085
 30
0.0
 10
-528.5502356572831
 20
154.5078090541772
 30
0.0
 10
-528.5501556357932
 20
154.5156064295738
 30
0.0
 10
-528.5501140448048
 20
154.5196587442988
 30
0.0
 11
-528.5614680383999
 21
154.4621014540032
 31
0.0
 11
-528.5609448624946
 21
154.4621027406845
 31
0.0
 11
-528.5604180540354
 21
154.4622389841158
 31
0.0
 11
-528.5598892588066
 21
154.4625099797987
 31
0.0
 11
-528.5593601131409
 21
154.4629152081216
 31
0.0
 11
-528.5583073663352
 21
154.4641251154635
 31
0.0
 11
-528.5572726319178
 21
154.4658591850662
 31
0.0
 11
-528.5562686763197
 21
154.4681042123703
 31
0.0
 11
-528.5553073680327
 21
154.4708427732331
 31
0.0
 11
-528.5544003708205
 21
154.4740543205558
 31
0.0
 11
-528.553558113585
 21
154.4777149419364
 31
0.0
 11
-528.5527905841717
 21
154.4817983134519
 31
0.0
 11
-528.5521063767767
 21
154.4862757485604
 31
0.0
 11
-528.5515134672369
 21
154.4911169997065
 31
0.0
 11
-528.5510183751062
 21
154.496290488361
 31
0.0
 11
-528.55034411953
 21
154.5075047306395
 31
0.0
 11
-528.5501140448048
 21
154.5196587442988
 31
0.0
  0
SPLINE
  5
E6
330
47
100
AcDbEntity
  8
0
  6
Continuous
 62
     3
100
AcDbSpline
210
0.0
220
0.0
230
1.0
 70
     8
 71
     3
 72
    17
 73
    13
 74
    11
 42
0.000000001
 43
0.0000000001
 44
0.00000001
 40
0.0
 40
0.0
 40
0.0
 40
0.0
 40
0.0098519377184002
 40
0.0198457547768031
 40
0.0295577294628761
 40
0.038567626281527
 40
0.0434027499715725
 40
0.0482356812816367
 40
0.0599854968961605
 40
0.0717214606904462
 40
0.0840855706028602
 40
0.0964354176432502
 40
0.0964354176432502
 40
0.0964354176432502
 40
0.0964354176432502
 10
-528.5501140448048
 20
154.5196587442988
 30
0.0
 10
-528.5533563321447
 20
154.5201806964903
 30
0.0
 10
-528.5598875972229
 20
154.5212321321262
 30
0.0
 10
-528.5696371654933
 20
154.5226539021381
 30
0.0
 10
-528.5790990091854
 20
154.5241033046723
 30
0.0
 10
-528.5868281172227
 20
154.5254980536856
 30
0.0
 10
-528.592922307028
 20
154.5267730094163
 30
0.0
 10
-528.5999098075379
 20
154.5282371936547
 30
0.0
 10
-528.6091325376069
 20
154.5302500359326
 30
0.0
 10
-528.6207813260455
 20
154.5329165580756
 30
0.0
 10
-528.6325976950995
 20
154.5357458050432
 30
0.0
 10
-528.6405819041656
 20
154.5377751234261
 30
0.0
 10
-528.6445717029958
 20
154.5387892041385
 30
0.0
 11
-528.5501140448048
 21
154.5196587442988
 31
0.0
 11
-528.559844559468
 21
154.5212007438592
 31
0.0
 11
-528.5697283711
 21
154.5226794754311
 31
0.0
 11
-528.5793233009246
 21
154.5241827302257
 31
0.0
 11
-528.5881871701654
 21
154.5257982994546
 31
0.0
 11
-528.5929229493427
 21
154.5267733978162
 31
0.0
 11
-528.5976523986155
 21
154.5277681514437
 31
0.0
 11
-528.6091326779748
 21
154.5302704212324
 31
0.0
 11
-528.6205729286198
 21
154.5328883428197
 31
0.0
 11
-528.6325954168874
 21
154.535774688958
 31
0.0
 11
-528.6445717029958
 21
154.5387892041385
 31
0.0
  0
SPLINE
  5
E7
330
47
100
AcDbEntity
  8
0
  6
Continuous
 62
     3
100
AcDbSpline
210
0.0
220
0.0
230
1.0
 70
     8
 71
     3
 72
    22
 73
    18
 74
    16
 42
0.000000001
 43
0.0000000001
 44
0.00000001
 40
0.0
 40
0.0
 40
0.0
 40
0.0
 40
0.0006081975789965
 40
0.0012447744742775
 40
0.0019343490142278
 40
0.0026960890937962
 40
0.0044848335487234
 40
0.0066793893414449
 40
0.0093052085370069
 40
0.0123667596656127
 40
0.0158565680135004
 40
0.0197592935605241
 40
0.0255690890533333
 40
0.0320168055142669
 40
0.0390364421240001
 40
0.0504806942654453
 40
0.0628030228276515
 40
0.0628030228276515
 40
0.0628030228276515
 40
0.0628030228276515
 10
-528.675285789203
 20
154.4858802065901
 30
0.0
 10
-528.6750857633177
 20
154.4858425024552
 30
0.0
 10
-528.6746763800894
 20
154.4857653211487
 30
0.0
 10
-528.6740270014391
 20
154.4858227759963
 30
0.0
 10
-528.673352299188
 20
154.4860019209121
 30
0.0
 10
-528.6723614842325
 20
154.4864417091463
 30
0.0
 10
-528.6710541037156
 20
154.4873529078298
 30
0.0
 10
-528.6694585831951
 20
154.4888785340017
 30
0.0
 10
-528.6677572873084
 20
154.4908854124626
 30
0.0
 10
-528.6659565852959
 20
154.4933606674005
 30
0.0
 10
-528.6640647224327
 20
154.496288731809
 30
0.0
 10
-528.6618350275282
 20
154.5000840047008
 30
0.0
 10
-528.6592934370243
 20
154.504835151589
 30
0.0
 10
-528.6564550759631
 20
154.5106010410222
 30
0.0
 10
-528.6529917816232
 20
154.5181489794975
 30
0.0
 10
-528.648960285147
 20
154.5275881475128
 30
0.0
 10
-528.6460701592894
 20
154.5349646757111
 30
0.0
 10
-528.6445717029958
 20
154.5387892041385
 30
0.0
 11
-528.675285789203
 21
154.4858802065901
 31
0.0
 11
-528.674683680426
 21
154.4857943419692
 31
0.0
 11
-528.6740486288023
 21
154.4858383538309
 31
0.0
 11
-528.6733813023695
 21
154.4860120990313
 31
0.0
 11
-528.6726824310293
 21
154.4863151269535
 31
0.0
 11
-528.6711933175686
 21
154.4873061592275
 31
0.0
 11
-528.6695882378293
 21
154.4888027526318
 31
0.0
 11
-528.667875141558
 21
154.4907927842097
 31
0.0
 11
-528.6660624310166
 21
154.4932600041427
 31
0.0
 11
-528.6641593545784
 21
154.496185249607
 31
0.0
 11
-528.6621753185137
 21
154.4995460332143
 31
0.0
 11
-528.6594214008026
 21
154.5046616621356
 31
0.0
 11
-528.6565646514639
 21
154.5104419760979
 31
0.0
 11
-528.6536284512638
 21
154.5168180270401
 31
0.0
 11
-528.6491267804541
 21
154.5273397125829
 31
0.0
 11
-528.6445717029958
 21
154.5387892041385
 31
0.0
  0
SPLINE
  5
E8
330
47
100
AcDbEntity
  8
0
  6
Continuous
 62
     7
100
AcDbSpline
210
0.0
220
0.0
230
1.0
 70
     8
 71
     3
 72
    11
 73
     7
 74
     5
 42
0.000000001
 43
0.0000000001
 44
0.00000001
 40
0.0
 40
0.0
 40
0.0
 40
0.0
 40
0.0149274958171752
 40
0.0338357887741274
 40
0.0517825386966397
 40
0.0681047565947302
 40
0.0681047565947302
 40
0.0681047565947302
 40
0.0681047565947302
 10
-528.6089268113482
 20
154.4705897569739
 30
0.0
 10
-528.6137992729364
 20
154.4715990049909
 30
0.0
 10
-528.6248435587987
 20
154.4738866586725
 30
0.0
 10
-528.6416888734148
 20
154.4776544955309
 30
0.0
 10
-528.6589402737177
 20
154.4817307902677
 30
0.0
 10
-528.6700122420402
 20
154.4845414768797
 30
0.0
 10
-528.675285789203
 20
154.4858802065901
 30
0.0
 11
-528.6089268113482
 21
154.4705897569739
 31
0.0
 11
-528.6235369535427
 21
154.4736514359429
 31
0.0
 11
-528.6419929852739
 21
154.4777622072799
 31
0.0
 11
-528.6594548620906
 21
154.4819057197621
 31
0.0
 11
-528.675285789203
 21
154.4858802065901
 31
0.0
  0
SPLINE
  5
E9
330
47
100
AcDbEntity
  8
0
  6
Continuous
 62
     7
100
AcDbSpline
210
0.0
220
0.0
230
1.0
 70
     8
 71
     3
 72
    11
 73
     7
 74
     5
 42
0.000000001
 43
0.0000000001
 44
0.00000001
 40
0.0
 40
0.0
 40
0.0
 40
0.0
 40
0.0030718176250291
 40
0.0061185734330971
 40
0.0091271219114973
 40
0.0121787913157741
 40
0.0121787913157741
 40
0.0121787913157741
 40
0.0121787913157741
 10
-528.5493727801914
 20
154.4606794308413
 30
0.0
 10
-528.5503908713983
 20
154.4607887484916
 30
0.0
 10
-528.5524187459603
 20
154.4610065067867
 30
0.0
 10
-528.5554408974796
 20
154.4613569614098
 30
0.0
 10
-528.5584546479073
 20
154.4617210937337
 30
0.0
 10
-528.5604588220175
 20
154.4619740622839
 30
0.0
 10
-528.5614680383999
 20
154.4621014540032
 30
0.0
 11
-528.5493727801914
 21
154.4606794308413
 31
0.0
 11
-528.5524265727266
 21
154.4610117182736
 31
0.0
 11
-528.5554532586337
 21
154.4613608511433
 31
0.0
 11
-528.5584400538547
 21
154.4617219862381
 31
0.0
 11
-528.5614680383999
 21
154.4621014540032
 31
0.0
  0
SPLINE
  5
EA
330
47
100
AcDbEntity
  8
0
  6
Continuous
 62
     3
100
AcDbSpline
210
0.0
220
0.0
230
1.0
 70
     8
 71
     3
 72
    15
 73
    11
 74
     9
 42
0.000000001
 43
0.0000000001
 44
0.00000001
 40
0.0
 40
0.0
 40
0.0
 40
0.0
 40
0.0303108831303349
 40
0.064885440521655
 40
0.1023993603545456
 40
0.1414147697998681
 40
0.1804358920786169
 40
0.2179667300693248
 40
0.2525687581771425
 40
0.282916602286466
 40
0.282916602286466
 40
0.282916602286466
 40
0.282916602286466
 10
-528.5500004751835
 20
156.0686148217134
 30
0.0
 10
-528.5500798883947
 20
156.0585114000784
 30
0.0
 10
-528.5502498633797
 20
156.0368833609897
 30
0.0
 10
-528.5500347935994
 20
156.0027499705477
 30
0.0
 10
-528.5495365047422
 20
155.9657185326611
 30
0.0
 10
-528.5487192798462
 20
155.9272099951627
 30
0.0
 10
-528.5476334014116
 20
155.8887024557346
 30
0.0
 10
-528.5463016803054
 20
155.8516749048045
 30
0.0
 10
-528.5448298444055
 20
155.8175454450343
 30
0.0
 10
-528.5435915405886
 20
155.7959307035766
 30
0.0
 10
-528.5430129325152
 20
155.7858312107346
 30
0.0
 11
-528.5500004751835
 21
156.0686148217134
 31
0.0
 11
-528.5501718721614
 21
156.0383044232408
 31
0.0
 11
-528.5500014149791
 21
156.0037302862422
 31
0.0
 11
-528.5494956462528
 21
155.9662197757989
 31
0.0
 11
-528.5486739852076
 21
155.9272130193878
 31
0.0
 11
-528.5475679758943
 21
155.8882075745659
 31
0.0
 11
-528.5462200818843
 21
155.8507009485231
 31
0.0
 11
-528.544682050957
 21
155.8161331196167
 31
0.0
 11
-528.5430129325152
 21
155.7858312107346
 31
0.0
  0
SPLINE
  5
EB
330
47
100
AcDbEntity
  8
0
  6
Continuous
 62
     7
100
AcDbSpline
210
0.0
220
0.0
230
1.0
 70
     8
 71
     3
 72
     9
 73
     5
 74
     3
 42
0.000000001
 43
0.0000000001
 44
0.00000001
 40
0.0
 40
0.0
 40
0.0
 40
0.0
 40
0.0000537917383857
 40
0.0001076039117182
 40
0.0001076039117182
 40
0.0001076039117182
 40
0.0001076039117182
 10
-528.549999813997
 20
156.0687224231458
 30
0.0
 10
-528.5499998415673
 20
156.0687044924819
 30
0.0
 10
-528.549999916718
 20
156.0686686244353
 30
0.0
 10
-528.5500002823378
 20
156.0686327581736
 30
0.0
 10
-528.5500004751835
 20
156.0686148217134
 30
0.0
 11
-528.549999813997
 21
156.0687224231458
 31
0.0
 11
-528.5499999792937
 21
156.0686686316316
 31
0.0
 11
-528.5500004751835
 21
156.0686148217134
 31
0.0
  0
SPLINE
  5
EC
330
47
100
AcDbEntity
  8
0
  6
Continuous
 62
     3
100
AcDbSpline
210
0.0
220
0.0
230
1.0
 70
     8
 71
     3
 72
   157
 73
   153
 74
   151
 42
0.000000001
 43
0.0000000001
 44
0.00000001
 40
0.0
 40
0.0
 40
0.0
 40
0.0
 40
0.0000064386720671
 40
0.0000091489033077
 40
0.00001573408793
 40
0.0000240812563202
 40
0.0000381570385744
 40
0.0000557339953496
 40
0.000076886580496
 40
0.0001016562962715
 40
0.0001300684726299
 40
0.0001621386784567
 40
0.000197877127916
 40
0.0002372906630379
 40
0.0002803838998509
 40
0.0003315919877104
 40
0.0003871854778852
 40
0.0004471634362361
 40
0.0005115241331844
 40
0.000580265247489
 40
0.0006533840085524
 40
0.0007308772988889
 40
0.0008127417288046
 40
0.0008989736917426
 40
0.0009895694066985
 40
0.0010845249504042
 40
0.0011939793949731
 40
0.0013087043606955
 40
0.0014286880952063
 40
0.0015539187468462
 40
0.0016843843807409
 40
0.0018200729921075
 40
0.0019609725167165
 40
0.0021070708398248
 40
0.0022583558033077
 40
0.0024148152114001
 40
0.0025764368359322
 40
0.0027432084202267
 40
0.0029151176829026
 40
0.003092152320673
 40
0.0032743000107849
 40
0.0034615484136036
 40
0.0036538851741418
 40
0.0038512979239279
 40
0.0040537742821574
 40
0.0042613018572265
 40
0.0044736799536252
 40
0.004691108709691
 40
0.0049135653955234
 40
0.0051410272731506
 40
0.005373471597533
 40
0.0056108756168024
 40
0.0058532165732193
 40
0.0061004717034506
 40
0.0063526182393832
 40
0.0066096334079584
 40
0.0068714944322893
 40
0.0071381785314164
 40
0.0074096629207692
 40
0.0076859248126817
 40
0.00796694141626
 40
0.0082526899378857
 40
0.0085431475813988
 40
0.0088382915481354
 40
0.0091380990372486
 40
0.0094425472456895
 40
0.0097516133685794
 40
0.0100652745992877
 40
0.0103835081292833
 40
0.010706291148601
 40
0.0110336008457944
 40
0.0113654144079149
 40
0.0117017090209442
 40
0.012042461869351
 40
0.0123876501366595
 40
0.0127372510052626
 40
0.0130912416564998
 40
0.0134495992708209
 40
0.0138123010277096
 40
0.0141793241057656
 40
0.0145506456829703
 40
0.0149262429363014
 40
0.0153060930422265
 40
0.0156901731763591
 40
0.0160784605138094
 40
0.0164709322290258
 40
0.0169116171670232
 40
0.0173573702006556
 40
0.0178081489383606
 40
0.0182639109877382
 40
0.0187246139555113
 40
0.0191902154474017
 40
0.0196606730687799
 40
0.0201359444239242
 40
0.0206159871166954
 40
0.0211007587501399
 40
0.0215902169267535
 40
0.0220843192485397
 40
0.0225830233167847
 40
0.0230862867323664
 40
0.0235940670957524
 40
0.0241063220066285
 40
0.0246230090646596
 40
0.0251440858687119
 40
0.0256695100174474
 40
0.0261992391090801
 40
0.0267332307415178
 40
0.0272714425121942
 40
0.0278138320182971
 40
0.0283603568567218
 40
0.0289109746238803
 40
0.029465642916097
 40
0.0300243193293834
 40
0.0305869614593672
 40
0.0311535269014507
 40
0.0317239732509296
 40
0.0322982581026659
 40
0.0328763390514085
 40
0.0334581736917187
 40
0.0340437196178349
 40
0.0346329344239397
 40
0.0352257757038236
 40
0.0359418526950748
 40
0.0366629801663763
 40
0.037389082464631
 40
0.0381200839361954
 40
0.0388559089272689
 40
0.0395964817834249
 40
0.0403417268500568
 40
0.0410915684721905
 40
0.0418459309944455
 40
0.0426047387612463
 40
0.0433679161166922
 40
0.0441353874045152
 40
0.0449070769682318
 40
0.0456829091511835
 40
0.046462808296263
 40
0.0472466987463793
 40
0.0480345048439551
 40
0.0488261509313915
 40
0.0496215613507922
 40
0.0504206604440274
 40
0.0512233725528006
 40
0.0520296220185701
 40
0.0528393331828392
 40
0.0536524303865396
 40
0.0544688379708611
 40
0.0552884802764623
 40
0.05611128164396
 40
0.0569371664136218
 40
0.0577660589242921
 40
0.0585978895579573
 40
0.0585978895579573
 40
0.0585978895579573
 40
0.0585978895579573
 10
-528.4195814583911
 20
154.4537000756347
 30
0.0
 10
-528.4195835892843
 20
154.4537006469861
 30
0.0
 10
-528.4195866214702
 20
154.4537014480067
 30
0.0
 10
-528.4195903850576
 20
154.4537052063556
 30
0.0
 10
-528.41959385838
 20
154.4537099595598
 30
0.0
 10
-528.4195983171444
 20
154.4537185783873
 30
0.0
 10
-528.419603149733
 20
154.4537310208553
 30
0.0
 10
-528.4196082755406
 20
154.4537478723319
 30
0.0
 10
-528.4196134021197
 20
154.4537684144291
 30
0.0
 10
-528.4196185209721
 20
154.4537926623621
 30
0.0
 10
-528.4196236275064
 20
154.4538206198204
 30
0.0
 10
-528.4196287182473
 20
154.4538522887909
 30
0.0
 10
-528.4196337908908
 20
154.4538876690991
 30
0.0
 10
-528.4196388437891
 20
154.4539267599947
 30
0.0
 10
-528.4196440481878
 20
154.4539710275476
 30
0.0
 10
-528.4196493761241
 20
154.4540207084137
 30
0.0
 10
-528.4196548103981
 20
154.4540760359736
 30
0.0
 10
-528.4196602175143
 20
154.4541357696289
 30
0.0
 10
-528.4196655968648
 20
154.4541999047539
 30
0.0
 10
-528.4196709479061
 20
154.4542684366872
 30
0.0
 10
-528.4196762701913
 20
154.4543413607225
 30
0.0
 10
-528.41968156333
 20
154.454418672129
 30
0.0
 10
-528.4196868269767
 20
154.4545003661577
 30
0.0
 10
-528.4196920608246
 20
154.454586438046
 30
0.0
 10
-528.4196972645727
 20
154.4546768830238
 30
0.0
 10
-528.4197026222375
 20
154.4547750723266
 30
0.0
 10
-528.4197081159002
 20
154.4548813088417
 30
0.0
 10
-528.4197137311616
 20
154.4549958925078
 30
0.0
 10
-528.4197193091719
 20
154.4551157426678
 30
0.0
 10
-528.4197248496557
 20
154.4552408468124
 30
0.0
 10
-528.4197303523785
 20
154.4553711924293
 30
0.0
 10
-528.419735817107
 20
154.4555067670038
 30
0.0
 10
-528.4197412436195
 20
154.4556475580193
 30
0.0
 10
-528.4197466316982
 20
154.455793552958
 30
0.0
 10
-528.4197519811332
 20
154.4559447393004
 30
0.0
 10
-528.4197572917178
 20
154.4561011045265
 30
0.0
 10
-528.419762563249
 20
154.4562626361154
 30
0.0
 10
-528.419767795528
 20
154.4564293215454
 30
0.0
 10
-528.4197729883574
 20
154.4566011482945
 30
0.0
 10
-528.4197781415444
 20
154.4567781038403
 30
0.0
 10
-528.4197832548947
 20
154.4569601756598
 30
0.0
 10
-528.4197883282201
 20
154.4571473512298
 30
0.0
 10
-528.4197933613277
 20
154.4573396180273
 30
0.0
 10
-528.4197983540425
 20
154.457536963528
 30
0.0
 10
-528.4198033061296
 20
154.4577393752095
 30
0.0
 10
-528.4198082161021
 20
154.4579467777964
 30
0.0
 10
-528.4198130834188
 20
154.4581591668602
 30
0.0
 10
-528.4198179078641
 20
154.4583765345252
 30
0.0
 10
-528.4198226912544
 20
154.4585989322131
 30
0.0
 10
-528.4198274334606
 20
154.4588263370839
 30
0.0
 10
-528.4198321344219
 20
154.4590587262961
 30
0.0
 10
-528.4198367940589
 20
154.4592960770087
 30
0.0
 10
-528.4198414123005
 20
154.4595383663801
 30
0.0
 10
-528.4198459890699
 20
154.4597855715691
 30
0.0
 10
-528.4198505242964
 20
154.4600376697342
 30
0.0
 10
-528.4198550179048
 20
154.460294638034
 30
0.0
 10
-528.4198594698236
 20
154.4605564536269
 30
0.0
 10
-528.41986387998
 20
154.4608230936714
 30
0.0
 10
-528.4198682483021
 20
154.461094535326
 30
0.0
 10
-528.4198725747178
 20
154.4613707557491
 30
0.0
 10
-528.4198768591557
 20
154.4616517320991
 30
0.0
 10
-528.419881101544
 20
154.4619374415343
 30
0.0
 10
-528.4198853018117
 20
154.4622278612131
 30
0.0
 10
-528.4198894598874
 20
154.4625229682939
 30
0.0
 10
-528.4198935757007
 20
154.4628227399348
 30
0.0
 10
-528.41989764918
 20
154.4631271532944
 30
0.0
 10
-528.419901680255
 20
154.4634361855308
 30
0.0
 10
-528.4199056688554
 20
154.4637498138024
 30
0.0
 10
-528.41990961491
 20
154.4640680152673
 30
0.0
 10
-528.419913518349
 20
154.4643907670841
 30
0.0
 10
-528.4199173791019
 20
154.4647180464107
 30
0.0
 10
-528.4199211970982
 20
154.4650498304056
 30
0.0
 10
-528.4199249722687
 20
154.4653860962271
 30
0.0
 10
-528.4199287045421
 20
154.4657268210331
 30
0.0
 10
-528.4199323938491
 20
154.4660719819822
 30
0.0
 10
-528.41993604012
 20
154.4664215562324
 30
0.0
 10
-528.4199396432841
 20
154.4667755209422
 30
0.0
 10
-528.4199432032724
 20
154.4671338532696
 30
0.0
 10
-528.419946720015
 20
154.4674965303728
 30
0.0
 10
-528.4199501934407
 20
154.4678635294102
 30
0.0
 10
-528.4199536234827
 20
154.4682348275398
 30
0.0
 10
-528.4199570100683
 20
154.46861040192
 30
0.0
 10
-528.4199603531306
 20
154.468990229709
 30
0.0
 10
-528.4199636525956
 20
154.4693742880648
 30
0.0
 10
-528.4199669084074
 20
154.4697625541459
 30
0.0
 10
-528.4199702406228
 20
154.4701696885093
 30
0.0
 10
-528.4199736414256
 20
154.4705959781765
 30
0.0
 10
-528.419977103164
 20
154.4710417036402
 30
0.0
 10
-528.4199805112562
 20
154.4714924553662
 30
0.0
 10
-528.419983865813
 20
154.4719481909416
 30
0.0
 10
-528.4199871669246
 20
154.4724088679534
 30
0.0
 10
-528.4199904146851
 20
154.4728744439888
 30
0.0
 10
-528.4199936091907
 20
154.4733448766348
 30
0.0
 10
-528.4199967505341
 20
154.4738201234785
 30
0.0
 10
-528.4199998388112
 20
154.474300142107
 30
0.0
 10
-528.4200028741152
 20
154.4747848901074
 30
0.0
 10
-528.4200058565419
 20
154.4752743250668
 30
0.0
 10
-528.420008786185
 20
154.4757684045723
 30
0.0
 10
-528.4200116631396
 20
154.4762670862109
 30
0.0
 10
-528.4200144875003
 20
154.4767703275697
 30
0.0
 10
-528.4200172593617
 20
154.4772780862359
 30
0.0
 10
-528.4200199788183
 20
154.4777903197965
 30
0.0
 10
-528.4200226459657
 20
154.4783069858384
 30
0.0
 10
-528.4200252608971
 20
154.478828041949
 30
0.0
 10
-528.4200278237091
 20
154.479353445715
 30
0.0
 10
-528.4200303344945
 20
154.4798831547239
 30
0.0
 10
-528.4200327933506
 20
154.4804171265624
 30
0.0
 10
-528.4200352003699
 20
154.4809553188178
 30
0.0
 10
-528.4200375556482
 20
154.481497689077
 30
0.0
 10
-528.420039859281
 20
154.4820441949273
 30
0.0
 10
-528.4200421113617
 20
154.4825947939555
 30
0.0
 10
-528.4200443119865
 20
154.4831494437489
 30
0.0
 10
-528.4200464612503
 20
154.4837081018944
 30
0.0
 10
-528.4200485592465
 20
154.4842707259791
 30
0.0
 10
-528.420050606072
 20
154.4848372735902
 30
0.0
 10
-528.4200526018204
 20
154.4854077023147
 30
0.0
 10
-528.4200545465874
 20
154.4859819697395
 30
0.0
 10
-528.4200564404673
 20
154.4865600334519
 30
0.0
 10
-528.4200582835563
 20
154.4871418510387
 30
0.0
 10
-528.4200600759457
 20
154.4877273800873
 30
0.0
 10
-528.420061817743
 20
154.4883165781845
 30
0.0
 10
-528.4200636227822
 20
154.4889492866366
 30
0.0
 10
-528.4200654777062
 20
154.48962596601
 30
0.0
 10
-528.4200673686319
 20
154.490347065786
 30
0.0
 10
-528.4200691879665
 20
154.4910731405886
 30
0.0
 10
-528.4200709361032
 20
154.4918041147534
 30
0.0
 10
-528.4200726134197
 20
154.4925399126161
 30
0.0
 10
-528.4200742202951
 20
154.4932804585122
 30
0.0
 10
-528.4200757571111
 20
154.4940256767773
 30
0.0
 10
-528.4200772242465
 20
154.494775491747
 30
0.0
 10
-528.4200786220819
 20
154.4955298277569
 30
0.0
 10
-528.420079950998
 20
154.4962886091427
 30
0.0
 10
-528.4200812113735
 20
154.4970517602398
 30
0.0
 10
-528.4200824035898
 20
154.4978192053839
 30
0.0
 10
-528.4200835280269
 20
154.4985908689107
 30
0.0
 10
-528.4200845850648
 20
154.4993666751556
 30
0.0
 10
-528.4200855750832
 20
154.5001465484544
 30
0.0
 10
-528.4200864984632
 20
154.5009304131426
 30
0.0
 10
-528.4200873555844
 20
154.5017181935557
 30
0.0
 10
-528.4200881468269
 20
154.5025098140294
 30
0.0
 10
-528.4200888725723
 20
154.5033051988993
 30
0.0
 10
-528.4200895331985
 20
154.5041042725009
 30
0.0
 10
-528.4200901290878
 20
154.5049069591701
 30
0.0
 10
-528.4200906606187
 20
154.5057131832419
 30
0.0
 10
-528.4200911281762
 20
154.5065228690525
 30
0.0
 10
-528.4200915321227
 20
154.507335940937
 30
0.0
 10
-528.4200918729049
 20
154.5081523232313
 30
0.0
 10
-528.4200921506564
 20
154.5089719402708
 30
0.0
 10
-528.4200923666793
 20
154.509794716391
 30
0.0
 10
-528.4200925178965
 20
154.5106205759269
 30
0.0
 10
-528.4200926176622
 20
154.5114494452271
 30
0.0
 10
-528.4200926176675
 20
154.512003019609
 30
0.0
 10
-528.4200926235094
 20
154.512280296487
 30
0.0
 11
-528.4195814583911
 21
154.4537000756347
 31
0.0
 11
-528.4195874340569
 21
154.4537024686271
 31
0.0
 11
-528.4195894194473
 21
154.453704313395
 31
0.0
 11
-528.4195933804335
 21
154.4537095735074
 31
0.0
 11
-528.4195973283119
 21
154.4537169275739
 31
0.0
 11
-528.4196025716413
 21
154.4537299898634
 31
0.0
 11
-528.4196077914186
 21
154.4537467735745
 31
0.0
 11
-528.4196129875046
 21
154.4537672778021
 31
0.0
 11
-528.4196181596799
 21
154.4537915013277
 31
0.0
 11
-528.4196233078972
 21
154.4538194430563
 31
0.0
 11
-528.4196284320171
 21
154.4538511011474
 31
0.0
 11
-528.4196335319003
 21
154.4538864737605
 31
0.0
 11
-528.4196386074074
 21
154.453925559055
 31
0.0
 11
-528.419643658399
 21
154.4539683551905
 31
0.0
 11
-528.4196491400594
 21
154.454019268978
 31
0.0
 11
-528.4196545922766
 21
154.454074594415
 31
0.0
 11
-528.4196600148815
 21
154.4541343266986
 31
0.0
 11
-528.4196654077053
 21
154.4541984610257
 31
0.0
 11
-528.4196707705794
 21
154.4542669925937
 31
0.0
 11
-528.4196761033345
 21
154.4543399165995
 31
0.0
 11
-528.4196814058018
 21
154.4544172282403
 31
0.0
 11
-528.4196866778126
 21
154.4544989227131
 31
0.0
 11
-528.419691919198
 21
154.4545849952152
 31
0.0
 11
-528.419697129789
 21
154.4546754409434
 31
0.0
 11
-528.4197023094166
 21
154.4547702550951
 31
0.0
 11
-528.4197079694089
 21
154.454879563082
 31
0.0
 11
-528.4197135916977
 21
154.4549941501838
 31
0.0
 11
-528.419719176106
 21
154.4551140038752
 31
0.0
 11
-528.4197247224571
 21
154.4552391116314
 31
0.0
 11
-528.4197302305746
 21
154.4553694609274
 31
0.0
 11
-528.4197357002814
 21
154.4555050392383
 31
0.0
 11
-528.4197411314011
 21
154.455645834039
 31
0.0
 11
-528.4197465237567
 21
154.4557918328047
 31
0.0
 11
-528.4197518771717
 21
154.4559430230104
 31
0.0
 11
-528.4197571914693
 21
154.456099392131
 31
0.0
 11
-528.4197624664728
 21
154.4562609276417
 31
0.0
 11
-528.4197677020054
 21
154.4564276170174
 31
0.0
 11
-528.4197728978904
 21
154.4565994477332
 31
0.0
 11
-528.4197780539514
 21
154.4567764072642
 31
0.0
 11
-528.4197831700111
 21
154.4569584830853
 31
0.0
 11
-528.4197882458932
 21
154.4571456626715
 31
0.0
 11
-528.4197932814209
 21
154.4573379334981
 31
0.0
 11
-528.4197982764176
 21
154.4575352830399
 31
0.0
 11
-528.4198032307062
 21
154.457737698772
 31
0.0
 11
-528.4198081441103
 21
154.4579451681694
 31
0.0
 11
-528.4198130117242
 21
154.4581574904721
 31
0.0
 11
-528.4198178382113
 21
154.458374865648
 31
0.0
 11
-528.4198226235027
 21
154.4585972708552
 31
0.0
 11
-528.4198273675294
 21
154.4588246832519
 31
0.0
 11
-528.4198320702224
 21
154.4590570799964
 31
0.0
 11
-528.4198367315125
 21
154.4592944382468
 31
0.0
 11
-528.4198413513316
 21
154.4595367351613
 31
0.0
 11
-528.4198459296097
 21
154.4597839478979
 31
0.0
 11
-528.4198504662784
 21
154.4600360536151
 31
0.0
 11
-528.4198549612686
 21
154.4602930294708
 31
0.0
 11
-528.4198594145114
 21
154.4605548526232
 31
0.0
 11
-528.4198638259376
 21
154.4608215002307
 31
0.0
 11
-528.4198681954786
 21
154.4610929494512
 31
0.0
 11
-528.4198725230651
 21
154.4613691774431
 31
0.0
 11
-528.4198768086283
 21
154.4616501613644
 31
0.0
 11
-528.4198810520992
 21
154.4619358783734
 31
0.0
 11
-528.4198852534088
 21
154.4622263056283
 31
0.0
 11
-528.4198894124883
 21
154.4625214202871
 31
0.0
 11
-528.4198935292685
 21
154.4628211995082
 31
0.0
 11
-528.4198976036805
 21
154.4631256204496
 31
0.0
 11
-528.4199016356554
 21
154.4634346602695
 31
0.0
 11
-528.4199056251243
 21
154.4637482961261
 31
0.0
 11
-528.4199095720181
 21
154.4640665051777
 31
0.0
 11
-528.4199134762678
 21
154.4643892645823
 31
0.0
 11
-528.4199173378045
 21
154.4647165514982
 31
0.0
 11
-528.4199211565591
 21
154.4650483430834
 31
0.0
 11
-528.419924932463
 21
154.4653846164963
 31
0.0
 11
-528.419928665447
 21
154.4657253488949
 31
0.0
 11
-528.4199323554418
 21
154.4660705174375
 31
0.0
 11
-528.419936002379
 21
154.4664200992823
 31
0.0
 11
-528.4199396061892
 21
154.4667740715873
 31
0.0
 11
-528.4199431668039
 21
154.4671324115108
 31
0.0
 11
-528.419946684154
 21
154.467495096211
 31
0.0
 11
-528.4199501581699
 21
154.467862102846
 31
0.0
 11
-528.4199535887834
 21
154.468233408574
 31
0.0
 11
-528.4199569759252
 21
154.4686089905532
 31
0.0
 11
-528.4199603195265
 21
154.4689888259418
 31
0.0
 11
-528.4199636195181
 21
154.4693728918978
 31
0.0
 11
-528.419966875831
 21
154.4697611655797
 31
0.0
 11
-528.4199700883968
 21
154.4701536241454
 31
0.0
 11
-528.4199736045816
 21
154.4705942950544
 31
0.0
 11
-528.4199770670153
 21
154.4710400346393
 31
0.0
 11
-528.4199804757932
 21
154.4714908004872
 31
0.0
 11
-528.4199838310104
 21
154.4719465501852
 31
0.0
 11
-528.4199871327622
 21
154.4724072413203
 31
0.0
 11
-528.4199903811435
 21
154.4728728314795
 31
0.0
 11
-528.4199935762499
 21
154.47334327825
 31
0.0
 11
-528.4199967181764
 21
154.4738185392188
 31
0.0
 11
-528.4199998070184
 21
154.474298571973
 31
0.0
 11
-528.4200028428708
 21
154.4747833340995
 31
0.0
 11
-528.4200058258289
 21
154.4752727831855
 31
0.0
 11
-528.420008755988
 21
154.4757668768181
 31
0.0
 11
-528.4200116334433
 21
154.4762655725842
 31
0.0
 11
-528.42001445829
 21
154.4767688280709
 31
0.0
 11
-528.4200172306232
 21
154.4772766008654
 31
0.0
 11
-528.4200199505382
 21
154.4777888485545
 31
0.0
 11
-528.4200226181302
 21
154.4783055287255
 31
0.0
 11
-528.4200252334945
 21
154.4788265989654
 31
0.0
 11
-528.4200277967261
 21
154.4793520168612
 31
0.0
 11
-528.4200303079201
 21
154.4798817399999
 31
0.0
 11
-528.4200327671723
 21
154.4804157259687
 31
0.0
 11
-528.4200351745773
 21
154.4809539323546
 31
0.0
 11
-528.4200375302304
 21
154.4814963167447
 31
0.0
 11
-528.4200398342273
 21
154.482042836726
 31
0.0
 11
-528.4200420866623
 21
154.4825934498854
 31
0.0
 11
-528.4200442876314
 21
154.4831481138102
 31
0.0
 11
-528.4200464372298
 21
154.4837067860875
 31
0.0
 11
-528.4200485355522
 21
154.4842694243042
 31
0.0
 11
-528.420050582694
 21
154.4848359860473
 31
0.0
 11
-528.4200525787505
 21
154.485406428904
 31
0.0
 11
-528.4200545238168
 21
154.4859807104613
 31
0.0
 11
-528.4200564179882
 21
154.4865587883063
 31
0.0
 11
-528.42005826136
 21
154.487140620026
 31
0.0
 11
-528.4200600540272
 21
154.4877261632075
 31
0.0
 11
-528.4200617960852
 21
154.4883153754379
 31
0.0
 11
-528.4200634876289
 21
154.4889082143041
 31
0.0
 11
-528.4200654509789
 21
154.4896242886032
 31
0.0
 11
-528.4200673423534
 21
154.4903454135937
 31
0.0
 11
-528.4200691621327
 21
154.491071513611
 31
0.0
 11
-528.4200709106973
 21
154.4918025129908
 31
0.0
 11
-528.420072588428
 21
154.4925383360687
 31
0.0
 11
-528.4200741957047
 21
154.4932789071803
 31
0.0
 11
-528.4200757329086
 21
154.4940241506611
 31
0.0
 11
-528.4200772004195
 21
154.4947739908467
 31
0.0
 11
-528.4200785986183
 21
154.4955283520728
 31
0.0
 11
-528.4200799278854
 21
154.4962871586749
 31
0.0
 11
-528.4200811886011
 21
154.4970503349886
 31
0.0
 11
-528.4200823811461
 21
154.4978178053495
 31
0.0
 11
-528.420083505901
 21
154.4985894940932
 31
0.0
 11
-528.420084563246
 21
154.4993653255553
 31
0.0
 11
-528.4200855535616
 21
154.5001452240713
 31
0.0
 11
-528.4200864772286
 21
154.5009291139769
 31
0.0
 11
-528.4200873346269
 21
154.5017169196075
 31
0.0
 11
-528.4200881261376
 21
154.502508565299
 31
0.0
 11
-528.4200888521411
 21
154.5033039753868
 31
0.0
 11
-528.4200895130175
 21
154.5041030742064
 31
0.0
 11
-528.4200901091474
 21
154.5049057860936
 31
0.0
 11
-528.4200906409116
 21
154.5057120353837
 31
0.0
 11
-528.4200911086903
 21
154.5065217464127
 31
0.0
 11
-528.4200915128639
 21
154.5073348435158
 31
0.0
 11
-528.4200918538132
 21
154.5081512510288
 31
0.0
 11
-528.4200921319184
 21
154.5089708932872
 31
0.0
 11
-528.4200923475601
 21
154.5097936946266
 31
0.0
 11
-528.4200925011189
 21
154.5106195793827
 31
0.0
 11
-528.4200925929752
 21
154.511448471891
 31
0.0
 11
-528.4200926235094
 21
154.512280296487
 31
0.0
  0
SPLINE
  5
ED
330
47
100
AcDbEntity
  8
0
  6
Continuous
 62
     7
100
AcDbSpline
210
0.0
220
0.0
230
1.0
 70
     8
 71
     3
 72
    19
 73
    15
 74
    13
 42
0.000000001
 43
0.0000000001
 44
0.00000001
 40
0.0
 40
0.0
 40
0.0
 40
0.0
 40
0.0350877984756945
 40
0.0657455682926944
 40
0.073929104482118
 40
0.0821784374354595
 40
0.086288471334347
 40
0.0903916450524593
 40
0.0940035467463232
 40
0.098442241351452
 40
0.1072409142888863
 40
0.1148454203452039
 40
0.1213745211722448
 40
0.130023377288316
 40
0.130023377288316
 40
0.130023377288316
 40
0.130023377288316
 10
-528.4195814583911
 20
154.4537000756347
 30
0.0
 10
-528.4312769604611
 20
154.4538598653521
 30
0.0
 10
-528.4531913426251
 20
154.4541592827737
 30
0.0
 10
-528.4778126417383
 20
154.4552835665462
 30
0.0
 10
-528.4934825857497
 20
154.4562014322943
 30
0.0
 10
-528.5003158768293
 20
154.4566455319882
 30
0.0
 10
-528.5057901394152
 20
154.4570266999388
 30
0.0
 10
-528.509721473719
 20
154.4573125355529
 30
0.0
 10
-528.5137611332364
 20
154.4576188864146
 30
0.0
 10
-528.5193614256051
 20
154.4580441984172
 30
0.0
 10
-528.5262880865988
 20
154.4585795741166
 30
0.0
 10
-528.5339062423492
 20
154.4592088106505
 30
0.0
 10
-528.541471455765
 20
154.4598728439427
 30
0.0
 10
-528.5465046921022
 20
154.4603866406143
 30
0.0
 10
-528.5493727801914
 20
154.4606794308413
 30
0.0
 11
-528.4195814583911
 21
154.4537000756347
 31
0.0
 11
-528.45466268879
 21
154.4543789440239
 31
0.0
 11
-528.4852907181261
 21
154.4557289986573
 31
0.0
 11
-528.4934601758696
 21
154.4562088069266
 31
0.0
 11
-528.5016921599959
 21
154.4567434622386
 31
0.0
 11
-528.5057922677732
 21
154.4570289617996
 31
0.0
 11
-528.5098846292354
 21
154.4573266774056
 31
0.0
 11
-528.5134863177889
 21
154.4575981141493
 31
0.0
 11
-528.517912223793
 21
154.4579348158646
 31
0.0
 11
-528.5266842924598
 21
154.4586185251111
 31
0.0
 11
-528.534262923016
 21
154.4592453159697
 31
0.0
 11
-528.5407663054704
 21
154.459824264186
 31
0.0
 11
-528.5493727801914
 21
154.4606794308413
 31
0.0
  0
SPLINE
  5
EE
330
47
100
AcDbEntity
  8
0
  6
Continuous
 62
     3
100
AcDbSpline
210
0.0
220
0.0
230
1.0
 70
     8
 71
     3
 72
    17
 73
    13
 74
    11
 42
0.000000001
 43
0.0000000001
 44
0.00000001
 40
0.0
 40
0.0
 40
0.0
 40
0.0
 40
0.017963411707437
 40
0.0359542383267538
 40
0.0402882363164486
 40
0.0445116172102689
 40
0.0497430067947653
 40
0.0525388043817817
 40
0.060302544855192
 40
0.0680693832154819
 40
0.1010644355574303
 40
0.1302738960191036
 40
0.1302738960191036
 40
0.1302738960191036
 40
0.1302738960191036
 10
-528.5501140448048
 20
154.5196587442988
 30
0.0
 10
-528.5441592763169
 20
154.519024733211
 30
0.0
 10
-528.5322406493208
 20
154.5177557673365
 30
0.0
 10
-528.518837344481
 20
154.5168812046381
 30
0.0
 10
-528.5100077270868
 20
154.5162918615699
 30
0.0
 10
-528.5054217743128
 20
154.5159840728518
 30
0.0
 10
-528.5013480019063
 20
154.515701714352
 30
0.0
 10
-528.4960992863237
 20
154.5153055437196
 30
0.0
 10
-528.4900062453684
 20
154.5148661550279
 30
0.0
 10
-528.4738646535321
 20
154.5138252215479
 30
0.0
 10
-528.4505626547143
 20
154.5126956367053
 30
0.0
 10
-528.4298286973238
 20
154.5124130024029
 30
0.0
 10
-528.4200926235094
 20
154.512280296487
 30
0.0
 11
-528.5501140448048
 21
154.5196587442988
 31
0.0
 11
-528.53223904976
 21
154.5178786598562
 31
0.0
 11
-528.5142953267136
 21
154.5165776335519
 31
0.0
 11
-528.5099709407668
 21
154.5162891465849
 31
0.0
 11
-528.5057571150347
 21
154.5160052119353
 31
0.0
 11
-528.5005385849026
 21
154.5156386326313
 31
0.0
 11
-528.497750506818
 21
154.5154310155888
 31
0.0
 11
-528.4900066275052
 21
154.5148760372587
 31
0.0
 11
-528.4822560143044
 21
154.5143742620349
 31
0.0
 11
-528.4492967680605
 21
154.5128375298054
 31
0.0
 11
-528.4200926235094
 21
154.512280296487
 31
0.0
  0
SPLINE
  5
EF
330
47
100
AcDbEntity
  8
0
  6
Continuous
 62
     3
100
AcDbSpline
210
0.0
220
0.0
230
1.0
 70
     8
 71
     3
 72
    12
 73
     8
 74
     6
 42
0.000000001
 43
0.0000000001
 44
0.00000001
 40
0.0
 40
0.0
 40
0.0
 40
0.0
 40
1.31433735060201
 40
2.305572810679294
 40
2.850059856808313
 40
4.458705114026159
 40
5.700120030053735
 40
5.700120030053735
 40
5.700120030053735
 40
5.700120030053735
 10
-520.4499998139971
 20
154.3486687840218
 30
0.0
 10
-520.011896556584
 20
154.3458306744752
 30
0.0
 10
-519.2433884121681
 20
154.3408521308026
 30
0.0
 10
-518.2933884358374
 20
154.3346913927211
 30
0.0
 10
-517.2452879107534
 20
154.3278907757554
 30
0.0
 10
-516.1137960219744
 20
154.3205440035429
 30
0.0
 10
-515.1637960410139
 20
154.3143677340989
 30
0.0
 10
-514.7499998139973
 20
154.3116774985818
 30
0.0
 11
-520.4499998139971
 21
154.3486687840218
 31
0.0
 11
-519.1356900527903
 21
154.3401527530181
 31
0.0
 11
-518.1444754339111
 21
154.3337249512953
 31
0.0
 11
-517.5999998489619
 21
154.330192134209
 31
0.0
 11
-515.991388504843
 21
154.3197466978172
 31
0.0
 11
-514.7499998139973
 21
154.3116774985818
 31
0.0
  0
SPLINE
  5
F0
330
47
100
AcDbEntity
  8
0
  6
Continuous
 62
     3
100
AcDbSpline
210
0.0
220
0.0
230
1.0
 70
     8
 71
     3
 72
    15
 73
    11
 74
     9
 42
0.000000001
 43
0.0000000001
 44
0.00000001
 40
0.0
 40
0.0
 40
0.0
 40
0.0
 40
0.0076590606705423
 40
0.0151336285883899
 40
0.0224182989577045
 40
0.0295083792019515
 40
0.0363998207001275
 40
0.0430892650485645
 40
0.049573970487377
 40
0.0558518486181761
 40
0.0558518486181761
 40
0.0558518486181761
 40
0.0558518486181761
 10
-520.4494130801025
 20
154.4045175422762
 30
0.0
 10
-520.449437785197
 20
154.4019646415786
 30
0.0
 10
-520.4494866148162
 20
154.3969203350297
 30
0.0
 10
-520.4495609916713
 20
154.3894479387678
 30
0.0
 10
-520.4496350247512
 20
154.3821652088226
 30
0.0
 10
-520.4497087586565
 20
154.3750768615354
 30
0.0
 10
-520.4497820631673
 20
154.3681869293773
 30
0.0
 10
-520.4498549094512
 20
154.3614987956006
 30
0.0
 10
-520.4499270599364
 20
154.3550151876193
 30
0.0
 10
-520.4499758211961
 20
154.3507612725298
 30
0.0
 10
-520.4499998139971
 20
154.3486687840218
 30
0.0
 11
-520.4494130801025
 21
154.4045175422762
 31
0.0
 11
-520.4494875532996
 21
154.3968588436879
 31
0.0
 11
-520.4495618791749
 21
154.3893846453212
 31
0.0
 11
-520.4496359651453
 21
154.3821003516919
 31
0.0
 11
-520.4497097216486
 21
154.3750106550918
 31
0.0
 11
-520.449783063783
 21
154.368119603873
 31
0.0
 11
-520.4498559101999
 21
154.3614305561722
 31
0.0
 11
-520.449928184445
 21
154.354946253502
 31
0.0
 11
-520.4499998139971
 21
154.3486687840218
 31
0.0
  0
SPLINE
  5
F1
330
47
100
AcDbEntity
  8
0
  6
Continuous
 62
     3
100
AcDbSpline
210
0.0
220
0.0
230
1.0
 70
     8
 71
     3
 72
    13
 73
     9
 74
     7
 42
0.000000001
 43
0.0000000001
 44
0.00000001
 40
0.0
 40
0.0
 40
0.0
 40
0.0
 40
0.4967427334220513
 40
1.01700281214181
 40
1.284185523826063
 40
1.554864400467412
 40
1.828474577919917
 40
2.102233498853628
 40
2.102233498853628
 40
2.102233498853628
 40
2.102233498853628
 10
-522.4555524307174
 20
153.8141067880201
 30
0.0
 10
-522.3112314908616
 20
153.8959446965884
 30
0.0
 10
-522.0157570022351
 20
154.0634949614528
 30
0.0
 10
-521.6066298069325
 20
154.1981883287132
 30
0.0
 10
-521.2629607297512
 20
154.2776230132889
 30
0.0
 10
-520.9955309763589
 20
154.3196729651899
 30
0.0
 10
-520.7237920414443
 20
154.3454830886133
 30
0.0
 10
-520.5412804219969
 20
154.3476066980718
 30
0.0
 10
-520.4499998139971
 20
154.3486687840218
 30
0.0
 11
-522.4555524307174
 21
153.8141067880201
 31
0.0
 11
-522.0157828572438
 21
154.0450961081488
 31
0.0
 11
-521.523870073669
 21
154.2144843141279
 31
0.0
 11
-521.2634632038805
 21
154.274274480105
 31
0.0
 11
-520.9961445669371
 21
154.316792723116
 31
0.0
 11
-520.723669866553
 21
154.3416938731415
 31
0.0
 11
-520.4499998139971
 21
154.3486687840218
 31
0.0
  0
SPLINE
  5
F2
330
47
100
AcDbEntity
  8
0
  6
Continuous
 62
     3
100
AcDbSpline
210
0.0
220
0.0
230
1.0
 70
     8
 71
     3
 72
    11
 73
     7
 74
     5
 42
0.000000001
 43
0.0000000001
 44
0.00000001
 40
0.0
 40
0.0
 40
0.0
 40
0.0
 40
0.0217126266145852
 40
0.0434312408725544
 40
0.1329875083053251
 40
0.2228357540954983
 40
0.2228357540954983
 40
0.2228357540954983
 40
0.2228357540954983
 10
-522.6534898798094
 20
154.1966311667409
 30
0.0
 10
-522.6535272610117
 20
154.2038689628027
 30
0.0
 10
-522.6536020481759
 20
154.218346550742
 30
0.0
 10
-522.6548606164324
 20
154.2626570859552
 30
0.0
 10
-522.6594424362368
 20
154.3296458870545
 30
0.0
 10
-522.6691544429548
 20
154.388680068957
 30
0.0
 10
-522.6740183579284
 20
154.4182451974641
 30
0.0
 11
-522.6534898798094
 21
154.1966311667409
 31
0.0
 11
-522.6536860641427
 21
154.2183429074307
 31
0.0
 11
-522.6542750567017
 21
154.2400535340289
 31
0.0
 11
-522.6608374417868
 21
154.3293690437543
 31
0.0
 11
-522.6740183579284
 21
154.4182451974641
 31
0.0
  0
SPLINE
  5
F3
330
47
100
AcDbEntity
  8
0
  6
Continuous
 62
     3
100
AcDbSpline
210
0.0
220
0.0
230
1.0
 70
     8
 71
     3
 72
     9
 73
     5
 74
     3
 42
0.000000001
 43
0.0000000001
 44
0.00000001
 40
0.0
 40
0.0
 40
0.0
 40
0.0
 40
0.2392816915073148
 40
0.5263042964570045
 40
0.5263042964570045
 40
0.5263042964570045
 40
0.5263042964570045
 10
-522.6534898798094
 20
154.1704641696319
 30
0.0
 10
-522.585168194437
 20
154.2117485075549
 30
0.0
 10
-522.4348934338395
 20
154.3025541186427
 30
0.0
 10
-522.2751349352989
 20
154.3754771844589
 30
0.0
 10
-522.1880098569917
 20
154.4152461228931
 30
0.0
 11
-522.6534898798094
 21
154.1704641696319
 31
0.0
 11
-522.4465645098879
 21
154.2906208147145
 31
0.0
 11
-522.1880098569917
 21
154.4152461228931
 31
0.0
  0
SPLINE
  5
F4
330
47
100
AcDbEntity
  8
0
  6
Continuous
 62
     3
100
AcDbSpline
210
0.0
220
0.0
230
1.0
 70
     8
 71
     3
 72
    15
 73
    11
 74
     9
 42
0.000000001
 43
0.0000000001
 44
0.00000001
 40
0.0
 40
0.0
 40
0.0
 40
0.0
 40
0.0484039280219191
 40
0.0936174079347025
 40
0.1199764324373269
 40
0.1532260855452539
 40
0.1672830398795636
 40
0.1812864799093657
 40
0.1949083439142422
 40
0.207512769952448
 40
0.207512769952448
 40
0.207512769952448
 40
0.207512769952448
 10
-523.04999926561
 20
154.1839654127513
 30
0.0
 10
-523.0544989343394
 20
154.1684684767803
 30
0.0
 10
-523.0632016711246
 20
154.1384960504856
 30
0.0
 10
-523.0722030041945
 20
154.0995058743221
 30
0.0
 10
-523.0787111326365
 20
154.0651731661372
 30
0.0
 10
-523.0822893355611
 20
154.0408670682791
 30
0.0
 10
-523.0844512855531
 20
154.0205429863278
 30
0.0
 10
-523.0855431939326
 20
154.0066905218438
 30
0.0
 10
-523.0862306403421
 20
153.993294727962
 30
0.0
 10
-523.0863200084693
 20
153.9845523445095
 30
0.0
 10
-523.086362951827
 20
153.9803507312188
 30
0.0
 11
-523.04999926561
 21
154.1839654127513
 31
0.0
 11
-523.0630494150496
 21
154.1373538955422
 31
0.0
 11
-523.0732480297827
 21
154.0933056643354
 31
0.0
 11
-523.0781257990366
 21
154.0674018905194
 31
0.0
 11
-523.0829105263762
 21
154.0344983047127
 31
0.0
 11
-523.0843893352355
 21
154.0205193506779
 31
0.0
 11
-523.0854885468505
 21
154.006559116566
 31
0.0
 11
-523.0861512449638
 21
153.9929533802536
 31
0.0
 11
-523.086362951827
 21
153.9803507312188
 31
0.0
  0
SPLINE
  5
F5
330
47
100
AcDbEntity
  8
0
  6
Continuous
 62
     3
100
AcDbSpline
210
0.0
220
0.0
230
1.0
 70
     8
 71
     3
 72
    39
 73
    35
 74
    33
 42
0.000000001
 43
0.0000000001
 44
0.00000001
 40
0.0
 40
0.0
 40
0.0
 40
0.0
 40
0.0118409957272163
 40
0.023926410308525
 40
0.0362671964989732
 40
0.048872828598637
 40
0.0617511850605393
 40
0.0749080158804596
 40
0.0883468891217209
 40
0.1020687391445579
 40
0.1160719070655152
 40
0.1303518080783097
 40
0.1449010744147682
 40
0.1597093642980163
 40
0.1747635981854189
 40
0.1900479168222941
 40
0.2055439871651144
 40
0.221231103153218
 40
0.2370865283901822
 40
0.2530857217385702
 40
0.2692026800465639
 40
0.2854102622534793
 40
0.3016804969172061
 40
0.317984973715523
 40
0.3342950863816573
 40
0.3505824595293056
 40
0.3668191064381484
 40
0.3829778614735393
 40
0.3990324428314661
 40
0.4149578656725066
 40
0.4307304099275145
 40
0.4463279962245912
 40
0.4617300675373301
 40
0.4769179164645148
 40
0.4769179164645148
 40
0.4769179164645148
 40
0.4769179164645148
 10
-523.0412144512113
 20
154.4205111011752
 30
0.0
 10
-523.0400145782453
 20
154.4167498702891
 30
0.0
 10
-523.0375900513174
 20
154.4091497746554
 30
0.0
 10
-523.033121135564
 20
154.3979071501047
 30
0.0
 10
-523.0279892167182
 20
154.3866755682708
 30
0.0
 10
-523.0221287598924
 20
154.3755047607143
 30
0.0
 10
-523.0155519482604
 20
154.3644235585762
 30
0.0
 10
-523.0082563764353
 20
154.3534663009195
 30
0.0
 10
-523.0002469908729
 20
154.3426675811237
 30
0.0
 10
-522.99153398716
 20
154.3320605873851
 30
0.0
 10
-522.9821296399266
 20
154.3216801649928
 30
0.0
 10
-522.972052956866
 20
154.3115582684285
 30
0.0
 10
-522.9613246128381
 20
154.3017283281674
 30
0.0
 10
-522.9499717785961
 20
154.2922198822093
 30
0.0
 10
-522.9380231115467
 20
154.2830635876879
 30
0.0
 10
-522.9255131018151
 20
154.274285382252
 30
0.0
 10
-522.9124774157658
 20
154.2659119280769
 30
0.0
 10
-522.8989566128066
 20
154.2579645487958
 30
0.0
 10
-522.8849919742215
 20
154.2504649070426
 30
0.0
 10
-522.8706285425422
 20
154.243428956507
 30
0.0
 10
-522.8559115160049
 20
154.2368726519114
 30
0.0
 10
-522.8408886228385
 20
154.2308061356996
 30
0.0
 10
-522.8256071188787
 20
154.2252392907097
 30
0.0
 10
-522.8101155547262
 20
154.2201763447229
 30
0.0
 10
-522.7944613758086
 20
154.2156210985298
 30
0.0
 10
-522.7786921703666
 20
154.2115720903068
 30
0.0
 10
-522.7628538392108
 20
154.2080273445218
 30
0.0
 10
-522.746991426759
 20
154.2049802612264
 30
0.0
 10
-522.7311478044926
 20
154.2024234996208
 30
0.0
 10
-522.7153641829839
 20
154.2003467009447
 30
0.0
 10
-522.6996792584516
 20
154.198735513154
 30
0.0
 10
-522.684129413762
 20
154.1975856023519
 30
0.0
 10
-522.6687485691822
 20
154.1968438071386
 30
0.0
 10
-522.6585523080897
 20
154.1967017107044
 30
0.0
 10
-522.6534898798094
 20
154.1966311667409
 30
0.0
 11
-523.0412144512113
 21
154.4205111011752
 31
0.0
 11
-523.0374865545032
 21
154.4092722371738
 31
0.0
 11
-523.0330607646613
 21
154.3980263611402
 31
0.0
 11
-523.027926068971
 21
154.3868045095035
 31
0.0
 11
-523.022075818113
 21
154.3756386444018
 31
0.0
 11
-523.0155062347056
 21
154.3645619732192
 31
0.0
 11
-523.0082184299893
 21
154.3536079739158
 31
0.0
 11
-523.0002166997479
 21
154.3428109545727
 31
0.0
 11
-522.9915105316259
 21
154.3322047392379
 31
0.0
 11
-522.9821127466521
 21
154.321823489393
 31
0.0
 11
-522.9720413933323
 21
154.3117000801731
 31
0.0
 11
-522.9613178051111
 21
154.3018671861079
 31
0.0
 11
-522.949968289503
 21
154.2923554068848
 31
0.0
 11
-522.9380221782664
 21
154.2831945999509
 31
0.0
 11
-522.9255132425234
 21
154.274411837154
 31
0.0
 11
-522.9124778128704
 21
154.266032948829
 31
0.0
 11
-522.8989558806433
 21
154.2580804047875
 31
0.0
 11
-522.8849893597433
 21
154.2505750198282
 31
0.0
 11
-522.8706228650946
 21
154.2435338537739
 31
0.0
 11
-522.8559021770732
 21
154.2369720179443
 31
0.0
 11
-522.8408747161999
 21
154.2309006802895
 31
0.0
 11
-522.82558825562
 21
154.2253289068568
 31
0.0
 11
-522.8100911327401
 21
154.2202618419977
 31
0.0
 11
-522.7944312366801
 21
154.2157025185171
 31
0.0
 11
-522.7786560109869
 21
154.211650262588
 31
0.0
 11
-522.7628117233477
 21
154.208102410947
 31
0.0
 11
-522.7469433187289
 21
154.2050529687983
 31
0.0
 11
-522.7310939595676
 21
154.2024941813298
 31
0.0
 11
-522.7153047868461
 21
154.2004154532007
 31
0.0
 11
-522.6996147032964
 21
154.1988047339009
 31
0.0
 11
-522.6840600924044
 21
154.1976476910475
 31
0.0
 11
-522.6686748057261
 21
154.1969288830965
 31
0.0
 11
-522.6534898798094
 21
154.1966311667409
 31
0.0
  0
SPLINE
  5
F6
330
47
100
AcDbEntity
  8
0
  6
Continuous
 62
     3
100
AcDbSpline
210
0.0
220
0.0
230
1.0
 70
     8
 71
     3
 72
    15
 73
    11
 74
     9
 42
0.000000001
 43
0.0000000001
 44
0.00000001
 40
0.0
 40
0.0
 40
0.0
 40
0.0
 40
0.0145237466243475
 40
0.0288574685899045
 40
0.0429965038105246
 40
0.0569435580734126
 40
0.0707080427899022
 40
0.0843052729726081
 40
0.0977548387411934
 40
0.1110791477245727
 40
0.1110791477245727
 40
0.1110791477245727
 40
0.1110791477245727
 10
-523.086362951827
 20
153.9803507312188
 30
0.0
 10
-523.0835226321005
 20
153.9842738434633
 30
0.0
 10
-523.0778791665344
 20
153.992068747404
 30
0.0
 10
-523.0705723689914
 20
154.0044216181574
 30
0.0
 10
-523.0642653133428
 20
154.0170903228334
 30
0.0
 10
-523.0590744308647
 20
154.0300558827966
 30
0.0
 10
-523.0550129173625
 20
154.0432306907567
 30
0.0
 10
-523.0521306474715
 20
154.0565385772809
 30
0.0
 10
-523.0503326232007
 20
154.0699003298571
 30
0.0
 10
-523.0501100328374
 20
154.0788276403452
 30
0.0
 10
-523.04999926561
 20
154.0832704134906
 30
0.0
 11
-523.086362951827
 21
153.9803507312188
 31
0.0
 11
-523.078029300699
 21
153.9922456660198
 31
0.0
 11
-523.0706926668788
 21
154.0045594551796
 31
0.0
 11
-523.0644122018994
 21
154.0172270553355
 31
0.0
 11
-523.0592322677106
 21
154.0301765195893
 31
0.0
 11
-523.0551882426347
 21
154.0433335300285
 31
0.0
 11
-523.0522985324177
 21
154.0566201499886
 31
0.0
 11
-523.0505717707587
 21
154.0699584086545
 31
0.0
 11
-523.04999926561
 21
154.0832704134906
 31
0.0
  0
SPLINE
  5
F7
330
47
100
AcDbEntity
  8
0
  6
Continuous
 62
     3
100
AcDbSpline
210
0.0
220
0.0
230
1.0
 70
     8
 71
     3
 72
    39
 73
    35
 74
    33
 42
0.000000001
 43
0.0000000001
 44
0.00000001
 40
0.0
 40
0.0
 40
0.0
 40
0.0
 40
0.0097208747365499
 40
0.0198855238539674
 40
0.0304943186157666
 40
0.0415438152657517
 40
0.0530269626274427
 40
0.064932593103595
 40
0.0772456981281977
 40
0.0899470499035833
 40
0.103013602615993
 40
0.1164182644634464
 40
0.1301304204194385
 40
0.14411588830237
 40
0.1583375373161372
 40
0.1727554429624382
 40
0.1873275577311668
 40
0.202010056187411
 40
0.2167580003769605
 40
0.2315258432532764
 40
0.2462680257592778
 40
0.2609395880684023
 40
0.2754966400679061
 40
0.2898970198076728
 40
0.3041005935066944
 40
0.3180699008021683
 40
0.3317702616425523
 40
0.3451703573111823
 40
0.3582421451680904
 40
0.3709613399369258
 40
0.3833071583511478
 40
0.3952626827808994
 40
0.4068144896988616
 40
0.4179528514771919
 40
0.4179528514771919
 40
0.4179528514771919
 40
0.4179528514771919
 10
-522.4555524307174
 20
153.8141067880201
 30
0.0
 10
-522.4557460886076
 20
153.8173416355371
 30
0.0
 10
-522.4561422650977
 20
153.8239590053201
 30
0.0
 10
-522.457212309158
 20
153.8340705801911
 30
0.0
 10
-522.4586590091553
 20
153.8445805480672
 30
0.0
 10
-522.4605316966546
 20
153.8554699647437
 30
0.0
 10
-522.4628319890226
 20
153.866718356921
 30
0.0
 10
-522.465571067528
 20
153.8783013345928
 30
0.0
 10
-522.4687553877111
 20
153.8901907026955
 30
0.0
 10
-522.4723878884702
 20
153.9023552698796
 30
0.0
 10
-522.4764700797456
 20
153.9147599863291
 30
0.0
 10
-522.4809984027295
 20
153.9273674489668
 30
0.0
 10
-522.4859680522283
 20
153.9401367754728
 30
0.0
 10
-522.4913687595154
 20
153.9530255968139
 30
0.0
 10
-522.4971890907949
 20
153.9659887211025
 30
0.0
 10
-522.503412115444
 20
153.9789805516197
 30
0.0
 10
-522.5100199782798
 20
153.9919535436371
 30
0.0
 10
-522.516989605766
 20
154.0048609626447
 30
0.0
 10
-522.5242974137898
 20
154.0176551376444
 30
0.0
 10
-522.5319151667206
 20
154.0302904455141
 30
0.0
 10
-522.5398146742606
 20
154.04272137208
 30
0.0
 10
-522.5479638966865
 20
154.0549055916436
 30
0.0
 10
-522.556331480487
 20
154.0668018597177
 30
0.0
 10
-522.5648831808669
 20
154.0783730543952
 30
0.0
 10
-522.5735860934187
 20
154.0895839419103
 30
0.0
 10
-522.5824054462157
 20
154.1004040541708
 30
0.0
 10
-522.5913083939892
 20
154.1108054004991
 30
0.0
 10
-522.6002612550826
 20
154.1207650237572
 30
0.0
 10
-522.6092326124462
 20
154.1302629402368
 30
0.0
 10
-522.6181916038468
 20
154.1392835494248
 30
0.0
 10
-522.62710814681
 20
154.1478165742973
 30
0.0
 10
-522.6359598751083
 20
154.1558476963655
 30
0.0
 10
-522.6447025352279
 20
154.1633965921878
 30
0.0
 10
-522.6505965603691
 20
154.1681371076899
 30
0.0
 10
-522.6534898798094
 20
154.1704641696319
 30
0.0
 11
-522.4555524307174
 21
153.8141067880201
 31
0.0
 11
-522.4562054876072
 21
153.8238057028958
 31
0.0
 11
-522.457248311984
 21
153.8339167245678
 31
0.0
 11
-522.4586963792235
 21
153.8444262209277
 31
0.0
 11
-522.4605629514379
 21
153.8553169171071
 31
0.0
 11
-522.4628597419094
 21
153.8665680244274
 31
0.0
 11
-522.4655955807455
 21
153.8781550523002
 31
0.0
 11
-522.4687773080271
 21
153.890049973908
 31
0.0
 11
-522.4724082920806
 21
153.9022212633009
 31
0.0
 11
-522.4764895562386
 21
153.9146340823472
 31
0.0
 11
-522.4810182149378
 21
153.9272505875597
 31
0.0
 11
-522.4859888251867
 21
153.9400301121556
 31
0.0
 11
-522.4913918129954
 21
153.9529297644314
 31
0.0
 11
-522.4972150230753
 21
153.9659045676748
 31
0.0
 11
-522.5034422069415
 21
153.9789083432219
 31
0.0
 11
-522.5100547250047
 21
153.9918937630394
 31
0.0
 11
-522.517030157844
 21
154.0048134802102
 31
0.0
 11
-522.524344096526
 21
154.0176200470007
 31
0.0
 11
-522.5319689218679
 21
154.0302672291368
 31
0.0
 11
-522.5398756053821
 21
154.0427097487863
 31
0.0
 11
-522.5480326808043
 21
154.0549047008452
 31
0.0
 11
-522.5564079727984
 21
154.0668110958399
 31
0.0
 11
-522.5649677646668
 21
154.078391289925
 31
0.0
 11
-522.5736783764889
 21
154.0896103247888
 31
0.0
 11
-522.5825055162977
 21
154.1004372886142
 31
0.0
 11
-522.5914156433385
 21
154.1108444746423
 31
0.0
 11
-522.6003754791761
 21
154.1208086055823
 31
0.0
 11
-522.6093531128046
 21
154.1303098547326
 31
0.0
 11
-522.6183176435513
 21
154.1393328872017
 31
0.0
 11
-522.627240009141
 21
154.147865803335
 31
0.0
 11
-522.6360927327444
 21
154.1559009721201
 31
0.0
 11
-522.6448504787071
 21
154.1634339636475
 31
0.0
 11
-522.6534898798094
 21
154.1704641696319
 31
0.0
  0
SPLINE
  5
F8
330
47
100
AcDbEntity
  8
0
  6
Continuous
 62
     3
100
AcDbSpline
210
0.0
220
0.0
230
1.0
 70
     8
 71
     3
 72
    36
 73
    32
 74
    30
 42
0.000000001
 43
0.0000000001
 44
0.00000001
 40
0.0
 40
0.0
 40
0.0
 40
0.0
 40
0.0230659711212187
 40
0.0469790492713897
 40
0.0583806113587157
 40
0.0669362477760585
 40
0.0760670652972018
 40
0.0846863545887619
 40
0.1118310090163309
 40
0.1334845318950299
 40
0.1446055306809046
 40
0.1542686926675109
 40
0.1654134571761089
 40
0.174503968604399
 40
0.2038683013387578
 40
0.2425647421178906
 40
0.2624171927940292
 40
0.2811343139978104
 40
0.2992548981808223
 40
0.3230709686032346
 40
0.3630194063084043
 40
0.4170715874225916
 40
0.4739989218496934
 40
0.524490303198636
 40
0.5712699257959064
 40
0.6121232255018456
 40
0.645159886635528
 40
0.6804186438672928
 40
0.7104362797902789
 40
0.7482924227987221
 40
0.7789027001145329
 40
0.7789027001145329
 40
0.7789027001145329
 40
0.7789027001145329
 10
-523.086362951827
 20
153.7561075870659
 30
0.0
 10
-523.0862315377132
 20
153.7484175414607
 30
0.0
 10
-523.0859638744071
 20
153.7327550305671
 30
0.0
 10
-523.0838226361991
 20
153.7133748388072
 30
0.0
 10
-523.0811780736138
 20
153.6989872639497
 30
0.0
 10
-523.0789430780972
 20
153.6895490970754
 30
0.0
 10
-523.0765011764424
 20
153.6811215821767
 30
0.0
 10
-523.0715418834438
 20
153.6670020519796
 30
0.0
 10
-523.0628993674114
 20
153.6497178000728
 30
0.0
 10
-523.0499115544808
 20
153.6343045249484
 30
0.0
 10
-523.0389813437433
 20
153.6252736181638
 30
0.0
 10
-523.0300532548268
 20
153.619446594613
 30
0.0
 10
-523.0211459259676
 20
153.6149270956803
 30
0.0
 10
-523.0057334935232
 20
153.608897761032
 30
0.0
 10
-522.9803338729678
 20
153.6036004689958
 30
0.0
 10
-522.9508721781438
 20
153.6034755003191
 30
0.0
 10
-522.9252365370339
 20
153.6060201286263
 30
0.0
 10
-522.9065556634418
 20
153.608929160327
 30
0.0
 10
-522.8867266696312
 20
153.6128980096561
 30
0.0
 10
-522.8601987274186
 20
153.6193595834518
 30
0.0
 10
-522.82254271901
 20
153.6305837124691
 30
0.0
 10
-522.7751772522884
 20
153.6476159796641
 30
0.0
 10
-522.7254453623607
 20
153.6682433505797
 30
0.0
 10
-522.6787118720302
 20
153.6896612920575
 30
0.0
 10
-522.6374119428938
 20
153.7100228322205
 30
0.0
 10
-522.6017473313321
 20
153.7286284436675
 30
0.0
 10
-522.5697979266836
 20
153.7460368033986
 30
0.0
 10
-522.5412703864163
 20
153.762168240649
 30
0.0
 10
-522.5116017982822
 20
153.7795358914925
 30
0.0
 10
-522.4835017652356
 20
153.7965127054972
 30
0.0
 10
-522.4641875268532
 20
153.8086710006722
 30
0.0
 10
-522.4555524307174
 20
153.8141067880201
 30
0.0
 11
-523.086362951827
 21
153.7561075870659
 31
0.0
 11
-523.0856178599604
 21
153.7330536449532
 31
0.0
 11
-523.0829815390243
 21
153.7092863319322
 31
0.0
 11
-523.0808986906799
 21
153.6980766322128
 31
0.0
 11
-523.0789210885027
 21
153.6897526903679
 31
0.0
 11
-523.0763708531812
 21
153.6809852430393
 31
0.0
 11
-523.0735050789826
 21
153.67285631383
 31
0.0
 11
-523.0610727195863
 21
153.6487260682745
 31
0.0
 11
-523.0470448309618
 21
153.632230813406
 31
0.0
 11
-523.0384745651837
 21
153.6251437003994
 31
0.0
 11
-523.0303854399722
 21
153.6198576089415
 31
0.0
 11
-523.0204552451332
 21
153.614798259143
 31
0.0
 11
-523.0119935990032
 21
153.6114759177605
 31
0.0
 11
-522.9833313686051
 21
153.6050930751134
 31
0.0
 11
-522.9446425029814
 21
153.6043273493488
 31
0.0
 11
-522.9248829197977
 21
153.6062453418936
 31
0.0
 11
-522.9063838521233
 21
153.6090940502245
 31
0.0
 11
-522.8886117753542
 21
153.6126308385701
 31
0.0
 11
-522.8654637441346
 21
153.6182320776256
 31
0.0
 11
-522.8271487263391
 21
153.6295385855456
 31
0.0
 11
-522.7762331698126
 21
153.6476836792434
 31
0.0
 11
-522.7236115265846
 21
153.6694019686284
 31
0.0
 11
-522.6776935532761
 21
153.6904000478277
 31
0.0
 11
-522.6357260716485
 21
153.7110655645993
 31
0.0
 11
-522.5995012505359
 21
153.7299535088021
 31
0.0
 11
-522.5704890123254
 21
153.7457557559455
 31
0.0
 11
-522.5397970954233
 21
153.7631104728739
 31
0.0
 11
-522.5138879062778
 21
153.7782687176268
 31
0.0
 11
-522.4815018844042
 21
153.7978705833838
 31
0.0
 11
-522.4555524307174
 21
153.8141067880201
 31
0.0
  0
SPLINE
  5
F9
330
47
100
AcDbEntity
  8
0
  6
Continuous
 62
     3
100
AcDbSpline
210
0.0
220
0.0
230
1.0
 70
     8
 71
     3
 72
    15
 73
    11
 74
     9
 42
0.000000001
 43
0.0000000001
 44
0.00000001
 40
0.0
 40
0.0
 40
0.0
 40
0.0
 40
0.0128844729289225
 40
0.0258966868388028
 40
0.0390648554595435
 40
0.0524140237340863
 40
0.0659643591164947
 40
0.0797293103100423
 40
0.0937147171191237
 40
0.107918083530195
 40
0.107918083530195
 40
0.107918083530195
 40
0.107918083530195
 10
-523.04999926561
 20
153.8556234582278
 30
0.0
 10
-523.0501100728945
 20
153.8513272523665
 30
0.0
 10
-523.0503328006657
 20
153.8426922472727
 30
0.0
 10
-523.0521317785332
 20
153.8297692443635
 30
0.0
 10
-523.0550153401423
 20
153.8168987676376
 30
0.0
 10
-523.0590785187718
 20
153.8041575589517
 30
0.0
 10
-523.0642712556025
 20
153.7916193501731
 30
0.0
 10
-523.0705796357033
 20
153.7793692030348
 30
0.0
 10
-523.0778892429406
 20
153.7674236090867
 30
0.0
 10
-523.0835238556956
 20
153.759898985357
 30
0.0
 10
-523.086362951827
 20
153.7561075870659
 30
0.0
 11
-523.04999926561
 21
153.8556234582278
 31
0.0
 11
-523.0505717665473
 21
153.8427517096432
 31
0.0
 11
-523.0522985324177
 21
153.8298545773292
 31
0.0
 11
-523.0551882374527
 21
153.817007387111
 31
0.0
 11
-523.0592322677106
 21
153.8042855108335
 31
0.0
 11
-523.0644121955178
 21
153.7917643305067
 31
0.0
 11
-523.0706926668788
 21
153.7795156743601
 31
0.0
 11
-523.0780292933736
 21
153.7676091413606
 31
0.0
 11
-523.086362951827
 21
153.7561075870659
 31
0.0
  0
SPLINE
  5
FA
330
47
100
AcDbEntity
  8
0
  6
Continuous
 62
     3
100
AcDbSpline
210
0.0
220
0.0
230
1.0
 70
     8
 71
     3
 72
    30
 73
    26
 74
    24
 42
0.000000001
 43
0.0000000001
 44
0.00000001
 40
0.0
 40
0.0
 40
0.0
 40
0.0
 40
0.0132008926296118
 40
0.0240121437372447
 40
0.0318441811993499
 40
0.0396223314666315
 40
0.0456707574378381
 40
0.0503992010564712
 40
0.0645114578840215
 40
0.084626144727933
 40
0.1144432480400465
 40
0.1549336161698308
 40
0.2068598325120107
 40
0.242188063922312
 40
0.2872458585101517
 40
0.3076151212982043
 40
0.3376546328313909
 40
0.3774028397201065
 40
0.4121063996542596
 40
0.4412830563609787
 40
0.4632659036783897
 40
0.4763878700761096
 40
0.5053310692404379
 40
0.5418690704768357
 40
0.5835736312137341
 40
0.5835736312137341
 40
0.5835736312137341
 40
0.5835736312137341
 10
-523.04999926561
 20
153.8556234582278
 30
0.0
 10
-523.049923540229
 20
153.8512218284854
 30
0.0
 10
-523.0497857936241
 20
153.8432153575277
 30
0.0
 10
-523.0484998861288
 20
153.8326530350101
 30
0.0
 10
-523.0464750637078
 20
153.8240666795927
 30
0.0
 10
-523.0437471998953
 20
153.8173231030705
 30
0.0
 10
-523.0400914350665
 20
153.8122527102116
 30
0.0
 10
-523.0334104461419
 20
153.8070697765655
 30
0.0
 10
-523.0191937902948
 20
153.8068483705698
 30
0.0
 10
-523.0001350456013
 20
153.8168402619269
 30
0.0
 10
-522.9757839167828
 20
153.8346839573286
 30
0.0
 10
-522.9454158976023
 20
153.8619111540541
 30
0.0
 10
-522.9149653505566
 20
153.8916762787159
 30
0.0
 10
-522.8840281224125
 20
153.9231124100332
 30
0.0
 10
-522.8607298206641
 20
153.9473026416768
 30
0.0
 10
-522.8387739227364
 20
153.9703372431912
 30
0.0
 10
-522.8181125926712
 20
153.9921605292348
 30
0.0
 10
-522.794257136551
 20
154.0175392866472
 30
0.0
 10
-522.7706773807199
 20
154.0427821788829
 30
0.0
 10
-522.7511922506364
 20
154.0637462902392
 30
0.0
 10
-522.7366360429255
 20
154.0794701693633
 30
0.0
 10
-522.7221569678759
 20
154.0951593642174
 30
0.0
 10
-522.7044212139681
 20
154.1144450821129
 30
0.0
 10
-522.6803089088105
 20
154.1408105719844
 30
0.0
 10
-522.662814621292
 20
154.1601538749171
 30
0.0
 10
-522.6534898798094
 20
154.1704641696319
 30
0.0
 11
-523.04999926561
 21
153.8556234582278
 31
0.0
 11
-523.049520659705
 21
153.8424312347181
 31
0.0
 11
-523.048152286476
 21
153.8317069298932
 31
0.0
 11
-523.0462771562226
 21
153.8241026745074
 31
0.0
 11
-523.0432183455675
 21
153.8169512199596
 31
0.0
 11
-523.0395889623683
 21
153.8121127245182
 31
0.0
 11
-523.0358148000081
 21
153.8092642368385
 31
0.0
 11
-523.0217762908262
 21
153.807823362794
 31
0.0
 11
-523.0032515403218
 21
153.8156613666686
 31
0.0
 11
-522.97892208499
 21
153.83289903676
 31
0.0
 11
-522.9484357198199
 21
153.8595458273153
 31
0.0
 11
-522.9111494930592
 21
153.8956854071228
 31
0.0
 11
-522.8863431906747
 21
153.9208395577394
 31
0.0
 11
-522.8550597533722
 21
153.9532671910072
 31
0.0
 11
-522.8410046361022
 21
153.9680103434626
 31
0.0
 11
-522.820348779984
 21
153.9898210715519
 31
0.0
 11
-522.7931215516033
 21
154.0187796278617
 31
0.0
 11
-522.7694312534688
 21
154.0441391792208
 31
0.0
 11
-522.7495678518527
 21
154.0655102477967
 31
0.0
 11
-522.7346347527521
 21
154.0816424555526
 31
0.0
 11
-522.7257353621637
 21
154.0912854244518
 31
0.0
 11
-522.7061435550085
 21
154.1125896463313
 31
0.0
 11
-522.6814944993173
 21
154.1395609197178
 31
0.0
 11
-522.6534898798094
 21
154.1704641696319
 31
0.0
  0
SPLINE
  5
FB
330
47
100
AcDbEntity
  8
0
  6
Continuous
 62
     3
100
AcDbSpline
210
0.0
220
0.0
230
1.0
 70
     8
 71
     3
 72
    11
 73
     7
 74
     5
 42
0.000000001
 43
0.0000000001
 44
0.00000001
 40
0.0
 40
0.0
 40
0.0
 40
0.0
 40
0.0649593693870781
 40
0.1411994425637497
 40
0.2173607062186875
 40
0.2820959653203086
 40
0.2820959653203086
 40
0.2820959653203086
 40
0.2820959653203086
 10
-528.5501798907341
 20
155.7865140438742
 30
0.0
 10
-528.5523227231927
 20
155.8080657484365
 30
0.0
 10
-528.5569804919639
 20
155.8549117813978
 30
0.0
 10
-528.5596483488797
 20
155.9273456968701
 30
0.0
 10
-528.560526745541
 20
155.9997491262914
 30
0.0
 10
-528.558156878694
 20
156.0466654065621
 30
0.0
 10
-528.5570680301679
 20
156.0682212083746
 30
0.0
 11
-528.5501798907341
 21
155.7865140438742
 31
0.0
 11
-528.5559893705772
 21
155.8512131136262
 31
0.0
 11
-528.5593354930596
 21
155.927379722496
 31
0.0
 11
-528.5597139799719
 21
156.0035400462537
 31
0.0
 11
-528.5570680301679
 21
156.0682212083746
 31
0.0
  0
SPLINE
  5
FC
330
47
100
AcDbEntity
  8
0
  6
Continuous
 62
     3
100
AcDbSpline
210
0.0
220
0.0
230
1.0
 70
     8
 71
     3
 72
    15
 73
    11
 74
     9
 42
0.000000001
 43
0.0000000001
 44
0.00000001
 40
0.0
 40
0.0
 40
0.0
 40
0.0
 40
0.0079166207028684
 40
0.0156411602833237
 40
0.0231675759708886
 40
0.0304906147834534
 40
0.0376057387421963
 40
0.0445091769126649
 40
0.0511978440270442
 40
0.0576693814687708
 40
0.0576693814687708
 40
0.0576693814687708
 40
0.0576693814687708
 10
-514.7493982784548
 20
154.3693437347957
 30
0.0
 10
-514.7494237070694
 20
154.3667049837382
 30
0.0
 10
-514.7494739618539
 20
154.3614915058322
 30
0.0
 10
-514.7495504394769
 20
154.3537693591171
 30
0.0
 10
-514.7496264923991
 20
154.3462450787226
 30
0.0
 10
-514.749702153741
 20
154.3389239434615
 30
0.0
 10
-514.7497772826628
 20
154.331810473138
 30
0.0
 10
-514.7498518391697
 20
154.3249084660141
 30
0.0
 10
-514.7499255805794
 20
154.3182209915538
 30
0.0
 10
-514.7499753383239
 20
154.3138345388838
 30
0.0
 10
-514.7499998139973
 20
154.3116774985818
 30
0.0
 11
-514.7493982784548
 21
154.3693437347957
 31
0.0
 11
-514.7494749219359
 21
154.3614274851091
 31
0.0
 11
-514.7495513494943
 21
154.3537033236295
 31
0.0
 11
-514.7496274561637
 21
154.3461772927436
 31
0.0
 11
-514.749703140764
 21
154.3388546450445
 31
0.0
 11
-514.7497783074946
 21
154.3317399181379
 31
0.0
 11
-514.749852864964
 21
154.3248368825876
 31
0.0
 11
-514.7499267274311
 21
154.3181486233104
 31
0.0
 11
-514.7499998139973
 21
154.3116774985818
 31
0.0
  0
SPLINE
  5
FD
330
47
100
AcDbEntity
  8
0
  6
Continuous
 62
     3
100
AcDbSpline
210
0.0
220
0.0
230
1.0
 70
     8
 71
     3
 72
    13
 73
     9
 74
     7
 42
0.000000001
 43
0.0000000001
 44
0.00000001
 40
0.0
 40
0.0
 40
0.0
 40
0.0
 40
0.1200749750184912
 40
0.2416117287268392
 40
0.2479099008534027
 40
0.2542081569488174
 40
0.2781157101392903
 40
0.3020321703318317
 40
0.3020321703318317
 40
0.3020321703318317
 40
0.3020321703318317
 10
-514.4499999430295
 20
154.3420689632372
 30
0.0
 10
-514.489374462762
 20
154.3347549050323
 30
0.0
 10
-514.5686028454909
 20
154.3200377630348
 30
0.0
 10
-514.6512031983457
 20
154.3140067872304
 30
0.0
 10
-514.6958853651237
 20
154.3124365218144
 30
0.0
 10
-514.7080477744397
 20
154.3120655864219
 30
0.0
 10
-514.726085792556
 20
154.3116817451789
 30
0.0
 10
-514.7420274838097
 20
154.311678909344
 30
0.0
 10
-514.7499998139973
 20
154.3116774985818
 30
0.0
 11
-514.4499999430295
 21
154.3420689632372
 31
0.0
 11
-514.5684380374171
 21
154.322309980752
 31
0.0
 11
-514.689591212705
 21
154.312661622607
 31
0.0
 11
-514.6958855328131
 21
154.3124413789597
 31
0.0
 11
-514.7021808362592
 21
154.3122485443261
 31
0.0
 11
-514.726083516515
 21
154.3117658514107
 31
0.0
 11
-514.7499998139973
 21
154.3116774985818
 31
0.0
  0
SPLINE
  5
FE
330
47
100
AcDbEntity
  8
0
  6
Continuous
 62
     3
100
AcDbSpline
210
0.0
220
0.0
230
1.0
 70
     8
 71
     3
 72
    13
 73
     9
 74
     7
 42
0.000000001
 43
0.0000000001
 44
0.00000001
 40
0.0
 40
0.0
 40
0.0
 40
0.0
 40
0.0233553701407248
 40
0.0536692611524655
 40
0.0783379467793083
 40
0.1126057565188243
 40
0.1637235049647593
 40
0.2075069202159392
 40
0.2075069202159392
 40
0.2075069202159392
 40
0.2075069202159392
 10
-523.086362951827
 20
72.0196414456515
 30
0.0
 10
-523.0862159478223
 20
72.0118557127721
 30
0.0
 10
-523.0858781252009
 20
71.99396455894788
 30
0.0
 10
-523.0833907493704
 20
71.96794477471686
 30
0.0
 10
-523.0793287916848
 20
71.93847018263318
 30
0.0
 10
-523.0727031428909
 20
71.90237579490999
 30
0.0
 10
-523.0629308909728
 20
71.86041449598906
 30
0.0
 10
-523.0540818491241
 20
71.83003997326215
 30
0.0
 10
-523.0499992656099
 20
71.81602644480037
 30
0.0
 11
-523.086362951827
 21
72.0196414456515
 31
0.0
 11
-523.0856631973476
 21
71.99629655973351
 31
0.0
 11
-523.0829815390243
 21
71.96610151363473
 31
0.0
 11
-523.0796139789761
 21
71.94166376290363
 31
0.0
 11
-523.0735050789826
 21
71.9079448632159
 31
0.0
 11
-523.0618916958202
 21
71.85816380823253
 31
0.0
 11
-523.0499992656099
 21
71.81602644480037
 31
0.0
  0
SPLINE
  5
FF
330
47
100
AcDbEntity
  8
0
  6
Continuous
 62
     3
100
AcDbSpline
210
0.0
220
0.0
230
1.0
 70
     8
 71
     3
 72
    23
 73
    19
 74
    17
 42
0.000000001
 43
0.0000000001
 44
0.00000001
 40
0.0
 40
0.0
 40
0.0
 40
0.0
 40
0.0610978618092209
 40
0.1067501075194205
 40
0.1446226968055852
 40
0.2053787747999954
 40
0.2602421747480872
 40
0.2952545051788331
 40
0.3372270721433734
 40
0.37545093216803
 40
0.4496048128565828
 40
0.4983550529004466
 40
0.5189336021106529
 40
0.532990752647357
 40
0.5447925321433371
 40
0.5591470944523085
 40
0.5715816663455678
 40
0.5833589677079841
 40
0.5833589677079841
 40
0.5833589677079841
 40
0.5833589677079841
 10
-522.6534898798094
 20
71.82952709767915
 30
0.0
 10
-522.6671607665886
 20
71.84462285878016
 30
0.0
 10
-522.6910465208543
 20
71.87099815542872
 30
0.0
 10
-522.7236664880356
 20
71.90649371035474
 30
0.0
 10
-522.7563187368168
 20
71.94180419498556
 30
0.0
 10
-522.7912045084524
 20
71.97923097548467
 30
0.0
 10
-522.8256117967205
 20
72.01579956644248
 30
0.0
 10
-522.855894285206
 20
72.04765155057775
 30
0.0
 10
-522.8825171398084
 20
72.07532808593997
 30
0.0
 10
-522.9185963797427
 20
72.11201440597937
 30
0.0
 10
-522.9569944277409
 20
72.14954512443103
 30
0.0
 10
-522.9942111044517
 20
72.17992769148519
 30
0.0
 10
-523.0188986797781
 20
72.19310210414525
 30
0.0
 10
-523.0359265086197
 20
72.19291313618331
 30
0.0
 10
-523.0450476282782
 20
72.18166539149234
 30
0.0
 10
-523.0482979268844
 20
72.16916480806087
 30
0.0
 10
-523.0498192693776
 20
72.15636811236749
 30
0.0
 10
-523.0499403638883
 20
72.148295205642
 30
0.0
 10
-523.04999926561
 20
72.14436832825571
 30
0.0
 11
-522.6534898798094
 21
71.82952709767915
 31
0.0
 11
-522.6945654170727
 21
71.87475704083877
 31
0.0
 11
-522.7254401164276
 21
71.90838560723455
 31
0.0
 11
-522.7511540755601
 21
71.93619073848939
 31
0.0
 11
-522.7925801646978
 21
71.98063373735974
 31
0.0
 11
-522.8301882645364
 21
72.02057899335452
 31
0.0
 11
-522.8543180769666
 21
72.04594857025776
 31
0.0
 11
-522.8834419515858
 21
72.07617267158648
 31
0.0
 11
-522.9102570341382
 21
72.10341262054197
 31
0.0
 11
-522.963991132996
 21
72.15451491623145
 31
0.0
 11
-523.0027757873493
 21
72.18405025984254
 31
0.0
 11
-523.0216928497664
 21
72.1921509695998
 31
0.0
 11
-523.0356847120695
 21
72.19079770133254
 31
0.0
 11
-523.0437093045672
 21
72.1821439199951
 31
0.0
 11
-523.0481152248757
 21
72.16848224612428
 31
0.0
 11
-523.0496252251453
 21
72.15613969825628
 31
0.0
 11
-523.04999926561
 21
72.14436832825571
 31
0.0
  0
SPLINE
  5
100
330
47
100
AcDbEntity
  8
0
  6
Continuous
 62
     3
100
AcDbSpline
210
0.0
220
0.0
230
1.0
 70
     8
 71
     3
 72
    13
 73
     9
 74
     7
 42
0.000000001
 43
0.0000000001
 44
0.00000001
 40
0.0
 40
0.0
 40
0.0
 40
0.0
 40
0.2963014947500257
 40
0.5473834708818386
 40
0.7965500044181233
 40
1.085450236369912
 40
1.605606907269205
 40
2.102230079333754
 40
2.102230079333754
 40
2.102230079333754
 40
2.102230079333754
 10
-520.4499998139972
 20
71.65132275232145
 30
0.0
 10
-520.548802542839
 20
71.6526014259965
 30
0.0
 10
-520.7313293997294
 20
71.65496364476263
 30
0.0
 10
-520.995827794456
 20
71.68080427136903
 30
0.0
 10
-521.2559698314764
 20
71.72102281584355
 30
0.0
 10
-521.5999168002753
 20
71.79956028117836
 30
0.0
 10
-522.0158530470613
 20
71.93655365186245
 30
0.0
 10
-522.3112652162679
 20
72.10406678430185
 30
0.0
 10
-522.455552621358
 20
72.18588480062027
 30
0.0
 11
-520.4499998139972
 21
71.65132275232145
 31
0.0
 11
-520.7461837153163
 21
71.65966976756795
 31
0.0
 11
-520.9961606136101
 21
71.6832007980068
 31
0.0
 11
-521.2423379085717
 21
71.72168067852108
 31
0.0
 11
-521.5240863114485
 21
71.78556480743147
 31
0.0
 11
-522.0158932452041
 21
71.95494279797867
 31
0.0
 11
-522.455552621358
 21
72.18588480062027
 31
0.0
  0
SPLINE
  5
101
330
47
100
AcDbEntity
  8
0
  6
Continuous
 62
     3
100
AcDbSpline
210
0.0
220
0.0
230
1.0
 70
     8
 71
     3
 72
    11
 73
     7
 74
     5
 42
0.000000001
 43
0.0000000001
 44
0.00000001
 40
0.0
 40
0.0
 40
0.0
 40
0.0
 40
0.0906380481160693
 40
0.1748366436937461
 40
0.4297710544190572
 40
0.7206252135033435
 40
0.7206252135033435
 40
0.7206252135033435
 40
0.7206252135033435
 10
-522.0077965183275
 20
71.5120590753213
 30
0.0
 10
-522.036026321054
 20
71.52283080015404
 30
0.0
 10
-522.0904803124938
 20
71.54360897723068
 30
0.0
 10
-522.2227385458774
 20
71.5986525507911
 30
0.0
 10
-522.4137001141768
 20
71.68678632596112
 30
0.0
 10
-522.5701283133852
 20
71.77990406298139
 30
0.0
 10
-522.6534898798094
 20
71.82952709767915
 30
0.0
 11
-522.0077965183275
 21
71.5120590753213
 31
0.0
 11
-522.0923113518464
 21
71.54480810214238
 31
0.0
 11
-522.1700995088956
 21
71.57703241248899
 31
0.0
 11
-522.4008461203152
 21
71.68541855294808
 31
0.0
 11
-522.6534898798094
 21
71.82952709767915
 31
0.0
  0
SPLINE
  5
102
330
47
100
AcDbEntity
  8
0
  6
Continuous
 62
     7
100
AcDbSpline
210
0.0
220
0.0
230
1.0
 70
     8
 71
     3
 72
    11
 73
     7
 74
     5
 42
0.000000001
 43
0.0000000001
 44
0.00000001
 40
0.0
 40
0.0
 40
0.0
 40
0.0
 40
0.0030516695696775
 40
0.0060602179099243
 40
0.009106973515598
 40
0.0121787913157709
 40
0.0121787913157709
 40
0.0121787913157709
 40
0.0121787913157709
 10
-528.5614680383999
 20
71.46718786782668
 30
0.0
 10
-528.5604588219628
 20
71.46731525955282
 30
0.0
 10
-528.5584546478435
 20
71.46756822810406
 30
0.0
 10
-528.5554408974735
 20
71.46793236042053
 30
0.0
 10
-528.5524187460093
 20
71.46828281503764
 30
0.0
 10
-528.5503908714564
 20
71.46850057333188
 30
0.0
 10
-528.5493727801914
 20
71.46860989098855
 30
0.0
 11
-528.5614680383999
 21
71.46718786782668
 31
0.0
 11
-528.5584400536906
 21
71.46756733561199
 31
0.0
 11
-528.5554532586067
 21
71.4679284706898
 31
0.0
 11
-528.5524265729007
 21
71.46827760353679
 31
0.0
 11
-528.5493727801914
 21
71.46860989098855
 31
0.0
  0
SPLINE
  5
103
330
47
100
AcDbEntity
  8
0
  6
Continuous
 62
     7
100
AcDbSpline
210
0.0
220
0.0
230
1.0
 70
     8
 71
     3
 72
    15
 73
    11
 74
     9
 42
0.000000001
 43
0.0000000001
 44
0.00000001
 40
0.0
 40
0.0
 40
0.0
 40
0.0
 40
0.000008606167444
 40
0.0000172081644234
 40
0.000025806155591
 40
0.0000344002852989
 40
0.0000429906958914
 40
0.0000515775300239
 40
0.0000601609322804
 40
0.0000687410695973
 40
0.0000687410695973
 40
0.0000687410695973
 40
0.0000687410695973
 10
-528.5615360733691
 20
71.46717806051839
 30
0.0
 10
-528.56153324066
 20
71.46717851367485
 30
0.0
 10
-528.5615275745974
 20
71.46717940705743
 30
0.0
 10
-528.5615190740336
 20
71.46718072463935
 30
0.0
 10
-528.5615105717061
 20
71.46718200416802
 30
0.0
 10
-528.561502068028
 20
71.46718324825412
 30
0.0
 10
-528.5614935628715
 20
71.46718445602016
 30
0.0
 10
-528.5614850563652
 20
71.46718562836301
 30
0.0
 10
-528.5614765481548
 20
71.4671867625699
 30
0.0
 10
-528.5614708751791
 20
71.46718750372597
 30
0.0
 10
-528.5614680383999
 20
71.46718786782668
 30
0.0
 11
-528.5615360733691
 21
71.46717806051839
 31
0.0
 11
-528.5615275740475
 21
71.46717941251228
 31
0.0
 11
-528.561519073269
 21
71.46718072848506
 31
0.0
 11
-528.5615105710406
 21
71.46718200843581
 31
0.0
 11
-528.5615020673695
 21
71.46718325236357
 31
0.0
 11
-528.5614935622626
 21
71.46718446026743
 31
0.0
 11
-528.5614850557274
 21
71.46718563214648
 31
0.0
 11
-528.5614765477708
 21
71.46718676799985
 31
0.0
 11
-528.5614680383999
 21
71.46718786782668
 31
0.0
  0
SPLINE
  5
104
330
47
100
AcDbEntity
  8
0
  6
Continuous
 62
     7
100
AcDbSpline
210
0.0
220
0.0
230
1.0
 70
     8
 71
     3
 72
    15
 73
    11
 74
     9
 42
0.000000001
 43
0.0000000001
 44
0.00000001
 40
0.0
 40
0.0
 40
0.0
 40
0.0
 40
0.0000085801370969
 40
0.0000171635394605
 40
0.0000257503734765
 40
0.000034340784071
 40
0.0000429349137789
 40
0.0000515329048299
 40
0.0000601349017142
 40
0.0000687410697086
 40
0.0000687410697086
 40
0.0000687410697086
 40
0.0000687410697086
 10
-528.5614680383995
 20
71.4640916788045
 30
0.0
 10
-528.5614708751787
 20
71.46409131470378
 30
0.0
 10
-528.5614765481546
 20
71.46409057354762
 30
0.0
 10
-528.5614850563647
 20
71.46408943934085
 30
0.0
 10
-528.561493562871
 20
71.464088266998
 30
0.0
 10
-528.5615020680273
 20
71.46408705923193
 30
0.0
 10
-528.5615105717055
 20
71.46408581514584
 30
0.0
 10
-528.5615190740328
 20
71.46408453561727
 30
0.0
 10
-528.5615275745971
 20
71.46408321803503
 30
0.0
 10
-528.5615332406594
 20
71.46408232465265
 30
0.0
 10
-528.5615360733689
 20
71.4640818714962
 30
0.0
 11
-528.5614680383995
 21
71.4640916788045
 31
0.0
 11
-528.5614765477704
 21
71.46409057897765
 31
0.0
 11
-528.5614850557271
 21
71.46408944312428
 31
0.0
 11
-528.5614935622624
 21
71.46408827124523
 31
0.0
 11
-528.5615020673691
 21
71.46408706334137
 31
0.0
 11
-528.5615105710403
 21
71.4640858194136
 31
0.0
 11
-528.5615190732688
 21
71.46408453946286
 31
0.0
 11
-528.5615275740472
 21
71.46408322349006
 31
0.0
 11
-528.5615360733689
 21
71.4640818714962
 31
0.0
  0
SPLINE
  5
105
330
47
100
AcDbEntity
  8
0
  6
Continuous
 62
     7
100
AcDbSpline
210
0.0
220
0.0
230
1.0
 70
     8
 71
     3
 72
    11
 73
     7
 74
     5
 42
0.000000001
 43
0.0000000001
 44
0.00000001
 40
0.0
 40
0.0
 40
0.0
 40
0.0
 40
0.0030516696160737
 40
0.0060602179116414
 40
0.0091069735061038
 40
0.0121787913157711
 40
0.0121787913157711
 40
0.0121787913157711
 40
0.0121787913157711
 10
-528.5614680383995
 20
71.4640916788045
 30
0.0
 10
-528.5604588219471
 20
71.46421907053256
 30
0.0
 10
-528.5584546478274
 20
71.46447203908392
 30
0.0
 10
-528.5554408974605
 20
71.46483617139981
 30
0.0
 10
-528.5524187460114
 20
71.46518662601518
 30
0.0
 10
-528.5503908714592
 20
71.46540438430935
 30
0.0
 10
-528.5493727801911
 20
71.46551370196636
 30
0.0
 11
-528.5614680383995
 21
71.4640916788045
 31
0.0
 11
-528.5584400536442
 21
71.46447114659551
 31
0.0
 11
-528.5554532586046
 21
71.46483228166781
 31
0.0
 11
-528.5524265729098
 21
71.46518141451355
 31
0.0
 11
-528.5493727801911
 21
71.46551370196636
 31
0.0
  0
SPLINE
  5
106
330
47
100
AcDbEntity
  8
0
  6
Continuous
 62
     3
100
AcDbSpline
210
0.0
220
0.0
230
1.0
 70
     8
 71
     3
 72
    15
 73
    11
 74
     9
 42
0.000000001
 43
0.0000000001
 44
0.00000001
 40
0.0
 40
0.0
 40
0.0
 40
0.0
 40
0.0008731969893963
 40
0.001669537386167
 40
0.0023915053598749
 40
0.0030429227610843
 40
0.003629461420694
 40
0.0041593265714714
 40
0.0046439911841085
 40
0.0050986789914467
 40
0.0050986789914467
 40
0.0050986789914467
 40
0.0050986789914467
 10
-528.5648536967246
 20
71.46354383757605
 30
0.0
 10
-528.5647291036413
 20
71.46380698152657
 30
0.0
 10
-528.5644908809551
 20
71.46431010669187
 30
0.0
 10
-528.5640957245944
 20
71.46500336878172
 30
0.0
 10
-528.5636931167778
 20
71.46560512217883
 30
0.0
 10
-528.5632806016276
 20
71.46611302263749
 30
0.0
 10
-528.5628593686422
 20
71.46652773200387
 30
0.0
 10
-528.5624288081194
 20
71.46684509465476
 30
0.0
 10
-528.5619906962777
 20
71.46707426035982
 30
0.0
 10
-528.561684356998
 20
71.46714420912775
 30
0.0
 10
-528.5615360733691
 20
71.46717806051839
 30
0.0
 11
-528.5648536967246
 21
71.46354383757605
 31
0.0
 11
-528.5644696239187
 21
71.46432802114776
 31
0.0
 11
-528.564074951531
 21
71.46501967977638
 31
0.0
 11
-528.563670573296
 21
71.46561777335728
 31
0.0
 11
-528.5632574220531
 21
71.46612141058355
 31
0.0
 11
-528.5628364300513
 21
71.46652981400986
 31
0.0
 11
-528.5624085617877
 21
71.46684236495773
 31
0.0
 11
-528.5619747811497
 21
71.46705856004337
 31
0.0
 11
-528.5615360733691
 21
71.46717806051839
 31
0.0
  0
SPLINE
  5
107
330
47
100
AcDbEntity
  8
0
  6
Continuous
 62
     7
100
AcDbSpline
210
0.0
220
0.0
230
1.0
 70
     8
 71
     3
 72
    11
 73
     7
 74
     5
 42
0.000000001
 43
0.0000000001
 44
0.00000001
 40
0.0
 40
0.0
 40
0.0
 40
0.0
 40
0.0120078810058916
 40
0.0240115518260421
 40
0.0359944618396291
 40
0.0481462247075303
 40
0.0481462247075303
 40
0.0481462247075303
 40
0.0481462247075303
 10
-528.6089268113482
 20
71.45869956485598
 30
0.0
 10
-528.6050005287293
 20
71.45947787201573
 30
0.0
 10
-528.597149337253
 20
71.4610341987314
 30
0.0
 10
-528.58534473501
 20
71.46318289798573
 30
0.0
 10
-528.5734738096871
 20
71.46523064404747
 30
0.0
 10
-528.5655338363774
 20
71.46652590597077
 30
0.0
 10
-528.5615360733691
 20
71.46717806051839
 30
0.0
 11
-528.6089268113482
 21
71.45869956485598
 31
0.0
 11
-528.5971420747231
 21
71.46100373302897
 31
0.0
 11
-528.5853347472259
 21
71.4631659386969
 31
0.0
 11
-528.5735262989265
 21
71.46520326128899
 31
0.0
 11
-528.5615360733691
 21
71.46717806051839
 31
0.0
  0
SPLINE
  5
108
330
47
100
AcDbEntity
  8
0
  6
Continuous
 62
     7
100
AcDbSpline
210
0.0
220
0.0
230
1.0
 70
     8
 71
     3
 72
    11
 73
     7
 74
     5
 42
0.000000001
 43
0.0000000001
 44
0.00000001
 40
0.0
 40
0.0
 40
0.0
 40
0.0
 40
0.0120078810082754
 40
0.0240115518396366
 40
0.0359944618578716
 40
0.048146224731793
 40
0.048146224731793
 40
0.048146224731793
 40
0.048146224731793
 10
-528.6089268113719
 20
71.45560337583001
 30
0.0
 10
-528.6050005287523
 20
71.45638168298959
 30
0.0
 10
-528.5971493372712
 20
71.4579380097054
 30
0.0
 10
-528.5853447350224
 20
71.46008670896103
 30
0.0
 10
-528.5734738096926
 20
71.46213445502423
 30
0.0
 10
-528.565533836379
 20
71.46342971694821
 30
0.0
 10
-528.5615360733689
 20
71.4640818714962
 30
0.0
 11
-528.6089268113719
 21
71.45560337583001
 31
0.0
 11
-528.5971420747444
 21
71.45790754400264
 31
0.0
 11
-528.5853347472362
 21
71.46006974967258
 31
0.0
 11
-528.5735262989322
 21
71.46210707226565
 31
0.0
 11
-528.5615360733689
 21
71.4640818714962
 31
0.0
  0
SPLINE
  5
109
330
47
100
AcDbEntity
  8
0
  6
Continuous
 62
     3
100
AcDbSpline
210
0.0
220
0.0
230
1.0
 70
     8
 71
     3
 72
    15
 73
    11
 74
     9
 42
0.000000001
 43
0.0000000001
 44
0.00000001
 40
0.0
 40
0.0
 40
0.0
 40
0.0
 40
0.0008571131068586
 40
0.0016434906459623
 40
0.0023628293044759
 40
0.0030204016675658
 40
0.0036235129373847
 40
0.0041819839696572
 40
0.0047084404374701
 40
0.0052181163786915
 40
0.0052181163786915
 40
0.0052181163786915
 40
0.0052181163786915
 10
-528.6784383328564
 20
71.43950097180067
 30
0.0
 10
-528.6783398355343
 20
71.43976926777083
 30
0.0
 10
-528.6781509607265
 20
71.44028371439231
 30
0.0
 10
-528.6778180422564
 20
71.44099858416077
 30
0.0
 10
-528.6774625362987
 20
71.44162700556673
 30
0.0
 10
-528.6770806875131
 20
71.44216685971968
 30
0.0
 10
-528.6766730439376
 20
71.44261845367706
 30
0.0
 10
-528.6762382155345
 20
71.44297792565426
 30
0.0
 10
-528.6757783783937
 20
71.44325298528574
 30
0.0
 10
-528.6754482047799
 20
71.44335764129899
 30
0.0
 10
-528.675285789203
 20
71.44340911523977
 30
0.0
 11
-528.6784383328564
 21
71.43950097180067
 31
0.0
 11
-528.6781312292792
 21
71.44030116989752
 31
0.0
 11
-528.6777989787171
 21
71.4410139096734
 31
0.0
 11
-528.6774416781759
 21
71.44163823720288
 31
0.0
 11
-528.6770594811726
 21
71.44217333346522
 31
0.0
 11
-528.6766525573336
 21
71.44261848323391
 31
0.0
 11
-528.6762211305427
 21
71.44297311588784
 31
0.0
 11
-528.6757654440395
 21
71.44323676496077
 31
0.0
 11
-528.675285789203
 21
71.44340911523977
 31
0.0
  0
SPLINE
  5
10A
330
47
100
AcDbEntity
  8
0
  6
Continuous
 62
     7
100
AcDbSpline
210
0.0
220
0.0
230
1.0
 70
    24
 71
     3
 72
     8
 73
     4
 74
     2
 42
0.0000000001
 43
0.0000000001
 44
0.00000001
 40
0.0
 40
0.0
 40
0.0
 40
0.0
 40
0.0000074715048508
 40
0.0000074715048508
 40
0.0000074715048508
 40
0.0000074715048508
 10
-528.5593261115598
 20
64.5817672509603
 30
0.0
 10
-528.5593285899703
 20
64.58176749607186
 30
0.0
 10
-528.5593310683807
 20
64.58176774118343
 30
0.0
 10
-528.5593335467913
 20
64.581767986295
 30
0.0
 11
-528.5593261115598
 21
64.5817672509603
 31
0.0
 11
-528.5593335467913
 21
64.581767986295
 31
0.0
  0
SPLINE
  5
10B
330
47
100
AcDbEntity
  8
0
  6
Continuous
 62
     3
100
AcDbSpline
210
0.0
220
0.0
230
1.0
 70
     8
 71
     3
 72
    15
 73
    11
 74
     9
 42
0.000000001
 43
0.0000000001
 44
0.00000001
 40
0.0
 40
0.0
 40
0.0
 40
0.0
 40
0.0131489115405687
 40
0.0247872947257587
 40
0.0348375288993364
 40
0.0432223049914602
 40
0.0498368024648707
 40
0.054611557069071
 40
0.0575280942083382
 40
0.0586163929098796
 40
0.0586163929098796
 40
0.0586163929098796
 40
0.0586163929098796
 10
-528.5500004751835
 20
64.63952599409228
 30
0.0
 10
-528.5500489574443
 20
64.63514319606288
 30
0.0
 10
-528.5501403660797
 20
64.62688108975028
 30
0.0
 10
-528.5501827851939
 20
64.61526957530393
 30
0.0
 10
-528.5501575777562
 20
64.60524195903606
 30
0.0
 10
-528.5500168707495
 20
64.59690150363507
 30
0.0
 10
-528.5498894656627
 20
64.59028959150078
 30
0.0
 10
-528.5494794867134
 20
64.58558012692868
 30
0.0
 10
-528.5494477360646
 20
64.58257162793153
 30
0.0
 10
-528.548846634595
 20
64.58136977257792
 30
0.0
 10
-528.5486832932108
 20
64.58104317048941
 30
0.0
 11
-528.5500004751835
 21
64.63952599409228
 31
0.0
 11
-528.5501286976465
 21
64.62637771033958
 31
0.0
 11
-528.5501718700418
 21
64.61473940723623
 31
0.0
 11
-528.5501299877193
 21
64.60468926036296
 31
0.0
 11
-528.550003046029
 21
64.59630544530049
 31
0.0
 11
-528.5497922632269
 21
64.58969430725944
 31
0.0
 11
-528.5495004520795
 21
64.58492847825362
 31
0.0
 11
-528.5491299997024
 21
64.58203556406846
 31
0.0
 11
-528.5486832932108
 21
64.58104317048941
 31
0.0
  0
SPLINE
  5
10C
330
47
100
AcDbEntity
  8
0
  6
Continuous
 62
     3
100
AcDbSpline
210
0.0
220
0.0
230
1.0
 70
     8
 71
     3
 72
    15
 73
    11
 74
     9
 42
0.000000001
 43
0.0000000001
 44
0.00000001
 40
0.0
 40
0.0
 40
0.0
 40
0.0
 40
0.0010844235881529
 40
0.0039898066896438
 40
0.0087463248920259
 40
0.0153357152378009
 40
0.0236890688748915
 40
0.0337023694392029
 40
0.0452988929969783
 40
0.0584016040791
 40
0.0584016040791
 40
0.0584016040791
 40
0.0584016040791
 10
-528.5593335467913
 20
64.581767986295
 30
0.0
 10
-528.5594762843552
 20
64.58210270013811
 30
0.0
 10
-528.5600014650138
 20
64.58333416986433
 30
0.0
 10
-528.5598492131228
 20
64.58632782135619
 30
0.0
 10
-528.5599694494173
 20
64.59103542192206
 30
0.0
 10
-528.5596919436123
 20
64.59761777882788
 30
0.0
 10
-528.5593218997192
 20
64.60592002858982
 30
0.0
 10
-528.5587335876685
 20
64.61589360013107
 30
0.0
 10
-528.5579809722581
 20
64.62743902327189
 30
0.0
 10
-528.5573844646085
 20
64.6356506445777
 30
0.0
 10
-528.5570680301678
 20
64.64000683275486
 30
0.0
 11
-528.5593335467913
 21
64.581767986295
 31
0.0
 11
-528.5597178331311
 21
64.58278203568918
 31
0.0
 11
-528.5599099002934
 21
64.5856810630668
 31
0.0
 11
-528.5599090616678
 21
64.59043758101986
 31
0.0
 11
-528.5597146306438
 21
64.5970241021403
 31
0.0
 11
-528.5593282418139
 21
64.60536851462648
 31
0.0
 11
-528.5587551664842
 21
64.6153654027532
 31
0.0
 11
-528.5580001731153
 21
64.62693732322711
 31
0.0
 11
-528.5570680301678
 21
64.64000683275486
 31
0.0
  0
SPLINE
  5
10D
330
47
100
AcDbEntity
  8
0
  6
Continuous
 62
     7
100
AcDbSpline
210
0.0
220
0.0
230
1.0
 70
     8
 71
     3
 72
    11
 73
     7
 74
     5
 42
0.000000001
 43
0.0000000001
 44
0.00000001
 40
0.0
 40
0.0
 40
0.0
 40
0.0
 40
0.0163222181206974
 40
0.034268967480327
 40
0.0531772606698694
 40
0.0681047565947324
 40
0.0681047565947324
 40
0.0681047565947324
 40
0.0681047565947324
 10
-528.675285789203
 20
71.44340911523977
 30
0.0
 10
-528.670012241968
 20
71.44474784496825
 30
0.0
 10
-528.6589402737558
 20
71.4475585315519
 30
0.0
 10
-528.6416888734877
 20
71.4516348262816
 30
0.0
 10
-528.6248435589448
 20
71.45540266312673
 30
0.0
 10
-528.6137992729715
 20
71.45769031683157
 30
0.0
 10
-528.6089268113482
 20
71.45869956485598
 30
0.0
 11
-528.675285789203
 21
71.44340911523977
 31
0.0
 11
-528.6594548618743
 21
71.44738360212071
 31
0.0
 11
-528.6419929856055
 21
71.45152711447369
 31
0.0
 11
-528.623536953648
 21
71.4556378858643
 31
0.0
 11
-528.6089268113482
 21
71.45869956485598
 31
0.0
  0
SPLINE
  5
10E
330
47
100
AcDbEntity
  8
0
  6
Continuous
 62
     3
100
AcDbSpline
210
0.0
220
0.0
230
1.0
 70
     8
 71
     3
 72
    23
 73
    19
 74
    17
 42
0.000000001
 43
0.0000000001
 44
0.00000001
 40
0.0
 40
0.0
 40
0.0
 40
0.0
 40
0.0121561998619184
 40
0.0233906936070361
 40
0.0285878179438781
 40
0.0334652409165806
 40
0.0379946520857022
 40
0.0421495317619797
 40
0.0459057994722356
 40
0.0492429661337928
 40
0.0521453497500666
 40
0.0546046334251277
 40
0.0566239587754664
 40
0.0582277524995954
 40
0.0588942402775873
 40
0.0594884322061664
 40
0.0600325749240147
 40
0.0605557502192631
 40
0.0605557502192631
 40
0.0605557502192631
 40
0.0605557502192631
 10
-528.5501140448046
 20
71.40653438850916
 30
0.0
 10
-528.5501556357929
 20
71.4105867032341
 30
0.0
 10
-528.5502356572827
 20
71.41838407863082
 30
0.0
 10
-528.5508099714988
 20
71.42790071339938
 30
0.0
 10
-528.5514797227777
 20
71.43497253599507
 30
0.0
 10
-528.5520677817185
 20
71.43980556465877
 30
0.0
 10
-528.5527456697753
 20
71.44427574902063
 30
0.0
 10
-528.5535054296132
 20
71.44835335150671
 30
0.0
 10
-528.5543384428992
 20
71.4520102604333
 30
0.0
 10
-528.5552339142521
 20
71.45522131964765
 30
0.0
 10
-528.5561813383051
 20
71.45796397330865
 30
0.0
 10
-528.5571688005894
 20
71.46022183820116
 30
0.0
 10
-528.5581850716991
 20
71.46198127650428
 30
0.0
 10
-528.5591032814716
 20
71.4630946296431
 30
0.0
 10
-528.5598585143455
 20
71.46368647321879
 30
0.0
 10
-528.5603942057471
 20
71.46396590912747
 30
0.0
 10
-528.5609355381018
 20
71.46411869844133
 30
0.0
 10
-528.5612928782695
 20
71.4641005619731
 30
0.0
 10
-528.5614680383995
 20
71.4640916788045
 30
0.0
 11
-528.5501140448046
 21
71.40653438850916
 31
0.0
 11
-528.5503441195297
 21
71.41868840216844
 31
0.0
 11
-528.551018375106
 21
71.42990264444691
 31
0.0
 11
-528.5515134672366
 21
71.43507613310139
 31
0.0
 11
-528.5521063767765
 21
71.43991738424742
 31
0.0
 11
-528.5527905841716
 21
71.44439481935584
 31
0.0
 11
-528.5535581135848
 21
71.44847819087137
 31
0.0
 11
-528.5544003708203
 21
71.45213881225196
 31
0.0
 11
-528.5553073680323
 21
71.45535035957462
 31
0.0
 11
-528.5562686763195
 21
71.45808892043746
 31
0.0
 11
-528.5572726319175
 21
71.46033394774149
 31
0.0
 11
-528.5583073663349
 21
71.46206801734418
 31
0.0
 11
-528.5593601131405
 21
71.46327792468605
 31
0.0
 11
-528.5598892588065
 21
71.46368315300896
 31
0.0
 11
-528.5604180540352
 21
71.46395414869187
 31
0.0
 11
-528.5609448624944
 21
71.46409039212321
 31
0.0
 11
-528.5614680383995
 21
71.4640916788045
 31
0.0
  0
SPLINE
  5
10F
330
47
100
AcDbEntity
  8
0
  6
Continuous
 62
     7
100
AcDbSpline
210
0.0
220
0.0
230
1.0
 70
     8
 71
     3
 72
    11
 73
     7
 74
     5
 42
0.000000001
 43
0.0000000001
 44
0.00000001
 40
0.0
 40
0.0
 40
0.0
 40
0.0
 40
0.0163222485157387
 40
0.0342689713231245
 40
0.0531772622006903
 40
0.0681047565707199
 40
0.0681047565707199
 40
0.0681047565707199
 40
0.0681047565707199
 10
-528.6752857892029
 20
71.44031292621742
 30
0.0
 10
-528.6700122321372
 20
71.441651658399
 30
0.0
 10
-528.6589402626616
 20
71.44446234521419
 30
0.0
 10
-528.641688861859
 20
71.44853863989263
 30
0.0
 10
-528.6248435572002
 20
71.45230647447393
 30
0.0
 10
-528.6137992724881
 20
71.45459412791273
 30
0.0
 10
-528.6089268113719
 20
71.45560337583001
 30
0.0
 11
-528.6752857892029
 21
71.44031292621742
 31
0.0
 11
-528.6594548323443
 21
71.44428742030138
 31
0.0
 11
-528.6419929818626
 21
71.44843092632283
 31
0.0
 11
-528.6235369521523
 21
71.45254169716847
 31
0.0
 11
-528.6089268113719
 21
71.45560337583001
 31
0.0
  0
SPLINE
  5
110
330
47
100
AcDbEntity
  8
0
  6
Continuous
 62
     3
100
AcDbSpline
210
0.0
220
0.0
230
1.0
 70
     8
 71
     3
 72
    22
 73
    18
 74
    16
 42
0.000000001
 43
0.0000000001
 44
0.00000001
 40
0.0
 40
0.0
 40
0.0
 40
0.0
 40
0.0123223285621774
 40
0.0237665807035573
 40
0.0307862173132646
 40
0.0372339337742491
 40
0.0430437292669958
 40
0.0469464548140195
 40
0.0504362631618834
 40
0.0534978142904906
 40
0.0561236334861376
 40
0.0583181892788687
 40
0.0601069337338038
 40
0.0608686738134822
 40
0.0615582483533117
 40
0.0621948252485956
 40
0.0628030228275901
 40
0.0628030228275901
 40
0.0628030228275901
 40
0.0628030228275901
 10
-528.6445717029958
 20
71.38740392866899
 30
0.0
 10
-528.6460701592891
 20
71.39122845709639
 30
0.0
 10
-528.648960285147
 20
71.39860498529471
 30
0.0
 10
-528.652991781623
 20
71.40804415330999
 30
0.0
 10
-528.656455075963
 20
71.4155920917852
 30
0.0
 10
-528.6592934370242
 20
71.42135798121842
 30
0.0
 10
-528.661835027528
 20
71.42610912810665
 30
0.0
 10
-528.6640647224326
 20
71.42990440099835
 30
0.0
 10
-528.665956585296
 20
71.43283246540679
 30
0.0
 10
-528.667757287308
 20
71.43530772034492
 30
0.0
 10
-528.6694585831949
 20
71.4373145988057
 30
0.0
 10
-528.6710541037155
 20
71.43884022497764
 30
0.0
 10
-528.6723614842325
 20
71.43975142366125
 30
0.0
 10
-528.6733522991879
 20
71.44019121189535
 30
0.0
 10
-528.674027001439
 20
71.44037035681109
 30
0.0
 10
-528.6746763800895
 20
71.44042781165886
 30
0.0
 10
-528.6750857633175
 20
71.44035063035231
 30
0.0
 10
-528.6752857892029
 20
71.44031292621742
 30
0.0
 11
-528.6445717029958
 21
71.38740392866899
 31
0.0
 11
-528.649126780454
 21
71.39885342022457
 31
0.0
 11
-528.6536284512637
 21
71.40937510576734
 31
0.0
 11
-528.6565646514638
 21
71.41575115670949
 31
0.0
 11
-528.6594214008024
 21
71.42153147067185
 31
0.0
 11
-528.6621753185136
 21
71.4266470995931
 31
0.0
 11
-528.6641593545783
 21
71.43000788320042
 31
0.0
 11
-528.6660624310165
 21
71.43293312866467
 31
0.0
 11
-528.6678751415578
 21
71.43540034859774
 31
0.0
 11
-528.6695882378292
 21
71.43739038017567
 31
0.0
 11
-528.6711933175685
 21
71.43888697357994
 31
0.0
 11
-528.6726824310292
 21
71.43987800585398
 31
0.0
 11
-528.6733813023695
 21
71.4401810337762
 31
0.0
 11
-528.6740486288022
 21
71.44035477897657
 31
0.0
 11
-528.6746836804259
 21
71.44039879083829
 31
0.0
 11
-528.6752857892029
 21
71.44031292621742
 31
0.0
  0
SPLINE
  5
111
330
47
100
AcDbEntity
  8
0
  6
Continuous
 62
     3
100
AcDbSpline
210
0.0
220
0.0
230
1.0
 70
     8
 71
     3
 72
    17
 73
    13
 74
    11
 42
0.000000001
 43
0.0000000001
 44
0.00000001
 40
0.0
 40
0.0
 40
0.0
 40
0.0
 40
0.0098519377235477
 40
0.0198457547870659
 40
0.029557729478312
 40
0.0385676263022679
 40
0.0434027499933266
 40
0.0482356813036458
 40
0.0599854969119449
 40
0.0717214606974047
 40
0.084085570606591
 40
0.096435417643808
 40
0.096435417643808
 40
0.096435417643808
 40
0.096435417643808
 10
-528.5501140448046
 20
71.40653438850916
 30
0.0
 10
-528.5533563321466
 20
71.40601243631724
 30
0.0
 10
-528.5598875972274
 20
71.40496100068037
 30
0.0
 10
-528.5696371655033
 20
71.40353923066733
 30
0.0
 10
-528.5790990092
 20
71.40208982813235
 30
0.0
 10
-528.5868281172416
 20
71.40069507911892
 30
0.0
 10
-528.5929223070492
 20
71.39942012338865
 30
0.0
 10
-528.5999098075575
 20
71.3979559391522
 30
0.0
 10
-528.6091325376224
 20
71.39594309687698
 30
0.0
 10
-528.6207813260564
 20
71.39327657474156
 30
0.0
 10
-528.6325976951038
 20
71.39044732776799
 30
0.0
 10
-528.640581904167
 20
71.38841800938263
 30
0.0
 10
-528.6445717029958
 20
71.38740392866899
 30
0.0
 11
-528.5501140448046
 21
71.40653438850916
 31
0.0
 11
-528.5598445594728
 21
71.4049923889474
 31
0.0
 11
-528.5697283711098
 21
71.40351365737442
 31
0.0
 11
-528.5793233009394
 21
71.40201040257898
 31
0.0
 11
-528.5881871701856
 21
71.40039483334992
 31
0.0
 11
-528.592922949364
 21
71.39941973498875
 31
0.0
 11
-528.5976523986374
 21
71.39842498136218
 31
0.0
 11
-528.6091326779912
 21
71.39592271157764
 31
0.0
 11
-528.6205729286283
 21
71.3933047899957
 31
0.0
 11
-528.6325954168917
 21
71.39041844385369
 31
0.0
 11
-528.6445717029958
 21
71.38740392866899
 31
0.0
  0
SPLINE
  5
112
330
47
100
AcDbEntity
  8
0
  6
Continuous
 62
     3
100
AcDbSpline
210
0.0
220
0.0
230
1.0
 70
     8
 71
     3
 72
    11
 73
     7
 74
     5
 42
0.000000001
 43
0.0000000001
 44
0.00000001
 40
0.0
 40
0.0
 40
0.0
 40
0.0
 40
0.0647352591016116
 40
0.140896522756592
 40
0.2171365959333062
 40
0.2820959653203883
 40
0.2820959653203883
 40
0.2820959653203883
 40
0.2820959653203883
 10
-528.5570680301674
 20
69.85797192443277
 30
0.0
 10
-528.5581568786936
 20
69.87952772624524
 30
0.0
 10
-528.5605267455406
 20
69.92644400651609
 30
0.0
 10
-528.5596483488794
 20
69.99884743593728
 30
0.0
 10
-528.5569804919633
 20
70.07128135140965
 30
0.0
 10
-528.5523227231927
 20
70.11812738437087
 30
0.0
 10
-528.5501798907338
 20
70.13967908893326
 30
0.0
 11
-528.5570680301674
 21
69.85797192443277
 31
0.0
 11
-528.5597139799715
 21
69.92265308655364
 31
0.0
 11
-528.5593354930593
 21
69.99881341031139
 31
0.0
 11
-528.5559893705769
 21
70.07498001918124
 31
0.0
 11
-528.5501798907338
 21
70.13967908893326
 31
0.0
  0
SPLINE
  5
113
330
47
100
AcDbEntity
  8
0
  6
Continuous
 62
     3
100
AcDbSpline
210
0.0
220
0.0
230
1.0
 70
     8
 71
     3
 72
    15
 73
    11
 74
     9
 42
0.000000001
 43
0.0000000001
 44
0.00000001
 40
0.0
 40
0.0
 40
0.0
 40
0.0
 40
0.0303108831303343
 40
0.0648854405216549
 40
0.1023993603545612
 40
0.1414147697998695
 40
0.1804358920786326
 40
0.2179667300693506
 40
0.2525687581771399
 40
0.2829166022865043
 40
0.2829166022865043
 40
0.2829166022865043
 40
0.2829166022865043
 10
-528.5500004751839
 20
69.85757831109404
 30
0.0
 10
-528.5500798883951
 20
69.86768173272901
 30
0.0
 10
-528.5502498633795
 20
69.88930977181778
 30
0.0
 10
-528.5500347935997
 20
69.92344316225979
 30
0.0
 10
-528.5495365047422
 20
69.9604746001463
 30
0.0
 10
-528.5487192798462
 20
69.99898313764471
 30
0.0
 10
-528.5476334014116
 20
70.0374906770729
 30
0.0
 10
-528.5463016803055
 20
70.07451822800296
 30
0.0
 10
-528.5448298444057
 20
70.10864768777317
 30
0.0
 10
-528.5435915405887
 20
70.13026242923081
 30
0.0
 10
-528.5430129325151
 20
70.14036192207286
 30
0.0
 11
-528.5500004751839
 21
69.85757831109404
 31
0.0
 11
-528.5501718721616
 21
69.8878887095667
 31
0.0
 11
-528.5500014149792
 21
69.92246284656528
 31
0.0
 11
-528.5494956462528
 21
69.95997335700854
 31
0.0
 11
-528.5486739852076
 21
69.9989801134197
 31
0.0
 11
-528.5475679758943
 21
70.03798555824156
 31
0.0
 11
-528.5462200818844
 21
70.07549218428441
 31
0.0
 11
-528.5446820509571
 21
70.11006001319072
 31
0.0
 11
-528.5430129325151
 21
70.14036192207286
 31
0.0
  0
SPLINE
  5
114
330
47
100
AcDbEntity
  8
0
  6
Continuous
 62
     7
100
AcDbSpline
210
0.0
220
0.0
230
1.0
 70
     8
 71
     3
 72
    19
 73
    15
 74
    13
 42
0.000000001
 43
0.0000000001
 44
0.00000001
 40
0.0
 40
0.0
 40
0.0
 40
0.0
 40
0.0086488561264672
 40
0.0151779569462003
 40
0.0227824630225816
 40
0.0315811359431363
 40
0.0360198305861192
 40
0.0396317322437268
 40
0.043733321761699
 40
0.0478449398624144
 40
0.0560940265083936
 40
0.0642778090089545
 40
0.094935578809221
 40
0.1300233772883274
 40
0.1300233772883274
 40
0.1300233772883274
 40
0.1300233772883274
 10
-528.5493727801914
 20
71.46860989098855
 30
0.0
 10
-528.546504692099
 20
71.46890268121581
 30
0.0
 10
-528.5414714557604
 20
71.46941647788758
 30
0.0
 10
-528.533906242337
 20
71.47008051118078
 30
0.0
 10
-528.5262880865884
 20
71.4707097477129
 30
0.0
 10
-528.5193614255807
 20
71.47124512341868
 30
0.0
 10
-528.5137611332166
 20
71.47167043541009
 30
0.0
 10
-528.5097220002554
 20
71.47197674636794
 30
0.0
 10
-528.5057906661444
 20
71.47226258437925
 30
0.0
 10
-528.5003164856836
 20
71.47264374990579
 30
0.0
 10
-528.4934826676883
 20
71.47308788445997
 30
0.0
 10
-528.477812723759
 20
71.47400575159651
 30
0.0
 10
-528.4531913426231
 20
71.47513003903171
 30
0.0
 10
-528.4312769604625
 20
71.47542945646948
 30
0.0
 10
-528.4195814583911
 20
71.47558924619517
 30
0.0
 11
-528.5493727801914
 21
71.46860989098855
 31
0.0
 11
-528.54076630546
 21
71.4694650576449
 31
0.0
 11
-528.5342629230129
 21
71.4700440058605
 31
0.0
 11
-528.5266842924367
 21
71.47067079672061
 31
0.0
 11
-528.5179122237868
 21
71.47135450596573
 31
0.0
 11
-528.5134863177449
 21
71.47169120768396
 31
0.0
 11
-528.5098846292276
 21
71.47196264442488
 31
0.0
 11
-528.5057938479704
 21
71.47226024753287
 31
0.0
 11
-528.5016921599863
 21
71.47254585959189
 31
0.0
 11
-528.4934604216992
 21
71.47308049970466
 31
0.0
 11
-528.4852907181128
 21
71.47356032317334
 31
0.0
 11
-528.4546626887934
 21
71.47491037780591
 31
0.0
 11
-528.4195814583911
 21
71.47558924619517
 31
0.0
  0
SPLINE
  5
115
330
47
100
AcDbEntity
  8
0
  6
Continuous
 62
     7
100
AcDbSpline
210
0.0
220
0.0
230
1.0
 70
     8
 71
     3
 72
    19
 73
    15
 74
    13
 42
0.000000001
 43
0.0000000001
 44
0.00000001
 40
0.0
 40
0.0
 40
0.0
 40
0.0
 40
0.0086488561170978
 40
0.0151779569460751
 40
0.0227824630345435
 40
0.0315811359427787
 40
0.0360198305735611
 40
0.0396317322467873
 40
0.0437460248300969
 40
0.0478449398660699
 40
0.0560940804977973
 40
0.0642778090107793
 40
0.0949355785351105
 40
0.1300233772879832
 40
0.1300233772879832
 40
0.1300233772879832
 40
0.1300233772879832
 10
-528.5493727801911
 20
71.46551370196636
 30
0.0
 10
-528.5465046921016
 20
71.46580649219352
 30
0.0
 10
-528.5414714557633
 20
71.46632028886569
 30
0.0
 10
-528.5339062423358
 20
71.46698432215656
 30
0.0
 10
-528.5262880865846
 20
71.46761355870042
 30
0.0
 10
-528.5193614255787
 20
71.46814893436334
 30
0.0
 10
-528.5137611332227
 20
71.4685742464407
 30
0.0
 10
-528.5097177780135
 20
71.46888087737177
 30
0.0
 10
-528.5057864424431
 20
71.46916669615473
 30
0.0
 10
-528.5003122422524
 20
71.46954783663519
 30
0.0
 10
-528.49348264972
 20
71.46999169658682
 30
0.0
 10
-528.4778127058729
 20
71.47090956333581
 30
0.0
 10
-528.4531913427119
 20
71.47203385002979
 30
0.0
 10
-528.4312769605532
 20
71.47233326745129
 30
0.0
 10
-528.4195814583911
 20
71.47249305717281
 30
0.0
 11
-528.5493727801911
 21
71.46551370196636
 31
0.0
 11
-528.540766305469
 21
71.46636886862177
 31
0.0
 11
-528.5342629230126
 21
71.46694781683819
 31
0.0
 11
-528.5266842924244
 21
71.46757460769923
 31
0.0
 11
-528.5179122237868
 21
71.46825831694335
 31
0.0
 11
-528.513486317757
 21
71.46859501866064
 31
0.0
 11
-528.5098846292242
 21
71.46886645540272
 31
0.0
 11
-528.5057811769328
 21
71.4691649605339
 31
0.0
 11
-528.5016921599823
 21
71.4694496705698
 31
0.0
 11
-528.4934603678121
 21
71.46998431401391
 31
0.0
 11
-528.4852907181106
 21
71.47046413415109
 31
0.0
 11
-528.454662689067
 21
71.4718141887746
 31
0.0
 11
-528.4195814583911
 21
71.47249305717281
 31
0.0
  0
SPLINE
  5
116
330
47
100
AcDbEntity
  8
0
  6
Continuous
 62
     3
100
AcDbSpline
210
0.0
220
0.0
230
1.0
 70
     8
 71
     3
 72
   158
 73
   154
 74
   152
 42
0.000000001
 43
0.0000000001
 44
0.00000001
 40
0.0
 40
0.0
 40
0.0
 40
0.0
 40
0.0008318304536243
 40
0.0016607229641667
 40
0.0024866077337574
 40
0.0033094091012551
 40
0.0041290514068564
 40
0.0049454589911352
 40
0.0057585561949351
 40
0.0065682673591474
 40
0.0073745168249878
 40
0.008177228933747
 40
0.0089763280269823
 40
0.0097717384463827
 40
0.010563384533805
 40
0.0113511906314377
 40
0.0121350810815396
 40
0.0129149802266759
 40
0.0136908124095994
 40
0.0144625019733726
 40
0.0152299732611958
 40
0.0159931506166419
 40
0.0167519583834849
 40
0.0175063209057686
 40
0.0182561625279025
 40
0.0190014075945623
 40
0.0197419804507612
 40
0.0204778054418342
 40
0.0212088069134842
 40
0.0219349092117386
 40
0.0226560366830404
 40
0.0233721136743058
 40
0.0239649549542465
 40
0.0245541697603513
 40
0.025139715686482
 40
0.0257215503267916
 40
0.026299631275606
 40
0.0268739161273703
 40
0.0274443624768358
 40
0.0280109279189895
 40
0.0285735700489737
 40
0.0291322464622735
 40
0.0296869147545333
 40
0.0302375325217638
 40
0.0307840573601728
 40
0.0313264468663188
 40
0.0318646586370105
 40
0.0323986502694471
 40
0.0329283793611372
 40
0.0334538035099148
 40
0.0339748803140103
 40
0.0344915673720407
 40
0.035003822283017
 40
0.0355116026463746
 40
0.0360148660620131
 40
0.0365135701303142
 40
0.0370076724521153
 40
0.0374971306287993
 40
0.0379819022622587
 40
0.0384619449550718
 40
0.0389372163103156
 40
0.039407673931693
 40
0.0398732754236994
 40
0.0403339783914568
 40
0.0407897404409054
 40
0.0412405191786681
 40
0.0416862722123991
 40
0.04212695715044
 40
0.042519428865683
 40
0.042907716203176
 40
0.0432917963373815
 40
0.0436716464433635
 40
0.0440472436967656
 40
0.0444185652740108
 40
0.0447855883521695
 40
0.0451482901091271
 40
0.0455066477234755
 40
0.0458606383747991
 40
0.0462102392434591
 40
0.046555427510854
 40
0.0468961803593473
 40
0.047232474972431
 40
0.0475642885346522
 40
0.047891598231918
 40
0.0482143812513365
 40
0.0485326147814302
 40
0.0488462760121796
 40
0.0491553421351974
 40
0.0494597903437505
 40
0.0497595978329221
 40
0.0500547417997455
 40
0.0503451994433833
 40
0.0506309479651402
 40
0.0509119645688446
 40
0.0511882264608567
 40
0.0514597108503658
 40
0.0517263949496084
 40
0.0519882559740691
 40
0.0522452711428554
 40
0.0524974176788733
 40
0.0527446728093177
 40
0.0529870137658745
 40
0.0532244177853331
 40
0.0534568621098718
 40
0.0536843239877381
 40
0.0539067806737577
 40
0.0541242094300482
 40
0.0543365875266627
 40
0.0545441151019876
 40
0.0547465914604613
 40
0.0549440042104974
 40
0.0551363409713256
 40
0.0553235893744396
 40
0.0555057370648956
 40
0.0556827717029468
 40
0.0558546809659494
 40
0.0560214525506346
 40
0.0561830741755397
 40
0.0563395335840788
 40
0.0564908185480121
 40
0.0566369168716158
 40
0.0567778163967601
 40
0.0569135050086709
 40
0.0570439706432281
 40
0.0571692012955594
 40
0.0572891850308279
 40
0.0574039099973082
 40
0.0575133644428279
 40
0.0576083199874683
 40
0.0576989157034097
 40
0.0577851476674468
 40
0.0578670120986109
 40
0.0579445053903871
 40
0.0580176241530144
 40
0.058086365269028
 40
0.058150725968063
 40
0.0582107039287864
 40
0.0582662974217576
 40
0.0583175055128672
 40
0.0583605987532139
 40
0.0584000122927398
 40
0.0584357507476694
 40
0.0584678209604817
 40
0.0584962331460847
 40
0.0585210028745556
 40
0.0585421554786
 40
0.0585597324661333
 40
0.0585738083063592
 40
0.0585821555668403
 40
0.0585887409942973
 40
0.0585914516190003
 40
0.0585938393856887
 40
0.0585959857789428
 40
0.0585959857789428
 40
0.0585959857789428
 40
0.0585959857789428
 10
-528.4200926235094
 20
71.41391283632055
 30
0.0
 10
-528.4200926176675
 20
71.41419011313849
 30
0.0
 10
-528.4200926178567
 20
71.41474368746034
 30
0.0
 10
-528.4200925180137
 20
71.41557255670054
 30
0.0
 10
-528.420092366817
 20
71.41639841623629
 30
0.0
 10
-528.4200921507887
 20
71.4172211923565
 30
0.0
 10
-528.420091873038
 20
71.41804080939596
 30
0.0
 10
-528.420091532256
 20
71.41885719169025
 30
0.0
 10
-528.4200911283093
 20
71.41967026357489
 30
0.0
 10
-528.420090660752
 20
71.4204799493854
 30
0.0
 10
-528.4200901292209
 20
71.42128617345735
 30
0.0
 10
-528.4200895333317
 20
71.42208886012641
 30
0.0
 10
-528.4200888727048
 20
71.42288793372806
 30
0.0
 10
-528.4200881469604
 20
71.423683318598
 30
0.0
 10
-528.4200873557176
 20
71.42447493907171
 30
0.0
 10
-528.4200864985963
 20
71.42526271948488
 30
0.0
 10
-528.4200855752168
 20
71.42604658417306
 30
0.0
 10
-528.4200845851976
 20
71.42682645747175
 30
0.0
 10
-528.4200835281601
 20
71.4276022637168
 30
0.0
 10
-528.4200824037232
 20
71.42837392724353
 30
0.0
 10
-528.4200812115066
 20
71.42914137238772
 30
0.0
 10
-528.4200799511309
 20
71.4299045234849
 30
0.0
 10
-528.4200786222153
 20
71.43066330487065
 30
0.0
 10
-528.4200772243797
 20
71.4314176408806
 30
0.0
 10
-528.4200757572439
 20
71.4321674558503
 30
0.0
 10
-528.4200742204285
 20
71.4329126741154
 30
0.0
 10
-528.4200726135526
 20
71.43365322001151
 30
0.0
 10
-528.4200709362368
 20
71.43438901787418
 30
0.0
 10
-528.4200691880997
 20
71.43511999203903
 30
0.0
 10
-528.4200673687654
 20
71.4358460668417
 30
0.0
 10
-528.4200654778394
 20
71.4365671666177
 30
0.0
 10
-528.4200636229154
 20
71.43724384599119
 30
0.0
 10
-528.4200618178762
 20
71.43787655444326
 30
0.0
 10
-528.420060076079
 20
71.43846575254048
 30
0.0
 10
-528.4200582836893
 20
71.43905128158906
 30
0.0
 10
-528.4200564406007
 20
71.43963309917599
 30
0.0
 10
-528.4200545467204
 20
71.44021116288836
 30
0.0
 10
-528.420052601954
 20
71.44078543031327
 30
0.0
 10
-528.4200506062048
 20
71.4413558590377
 30
0.0
 10
-528.42004855938
 20
71.44192240664876
 30
0.0
 10
-528.4200464613831
 20
71.44248503073355
 30
0.0
 10
-528.42004431212
 20
71.44304368887911
 30
0.0
 10
-528.420042111495
 20
71.44359833867249
 30
0.0
 10
-528.4200398594138
 20
71.44414893770076
 30
0.0
 10
-528.4200375557816
 20
71.44469544355105
 30
0.0
 10
-528.4200352005033
 20
71.44523781381035
 30
0.0
 10
-528.4200327934833
 20
71.4457760060657
 30
0.0
 10
-528.420030334628
 20
71.4463099779043
 30
0.0
 10
-528.4200278238421
 20
71.44683968691312
 30
0.0
 10
-528.4200252610306
 20
71.4473650906793
 30
0.0
 10
-528.4200226460987
 20
71.44788614678984
 30
0.0
 10
-528.4200199789517
 20
71.44840281283186
 30
0.0
 10
-528.4200172594948
 20
71.44891504639243
 30
0.0
 10
-528.4200144876335
 20
71.44942280505859
 30
0.0
 10
-528.4200116632727
 20
71.44992604641747
 30
0.0
 10
-528.4200087863184
 20
71.45042472805616
 30
0.0
 10
-528.4200058566748
 20
71.45091880756165
 30
0.0
 10
-528.4200028742487
 20
71.4514082425211
 30
0.0
 10
-528.4199998389441
 20
71.45189299052156
 30
0.0
 10
-528.4199967506673
 20
71.45237300915014
 30
0.0
 10
-528.4199936093238
 20
71.4528482559939
 30
0.0
 10
-528.4199904148187
 20
71.45331868863994
 30
0.0
 10
-528.4199871670571
 20
71.45378426467532
 30
0.0
 10
-528.4199838659465
 20
71.45424494168721
 30
0.0
 10
-528.4199805113894
 20
71.45470067726262
 30
0.0
 10
-528.4199771032971
 20
71.45515142898876
 30
0.0
 10
-528.419973641559
 20
71.45559715445248
 30
0.0
 10
-528.4199702407559
 20
71.45602344411978
 30
0.0
 10
-528.4199669085407
 20
71.45643057848321
 30
0.0
 10
-528.4199636527292
 20
71.45681884456428
 30
0.0
 10
-528.4199603532636
 20
71.45720290292026
 30
0.0
 10
-528.4199570102015
 20
71.45758273070928
 30
0.0
 10
-528.4199536236156
 20
71.45795830508953
 30
0.0
 10
-528.4199501935744
 20
71.45832960321925
 30
0.0
 10
-528.4199467201478
 20
71.45869660225667
 30
0.0
 10
-528.4199432034056
 20
71.45905927935998
 30
0.0
 10
-528.4199396434174
 20
71.45941761168741
 30
0.0
 10
-528.4199360402531
 20
71.45977157639717
 30
0.0
 10
-528.4199323939824
 20
71.46012115064752
 30
0.0
 10
-528.4199287046754
 20
71.46046631159666
 30
0.0
 10
-528.4199249724014
 20
71.46080703640288
 30
0.0
 10
-528.4199211972318
 20
71.46114330222431
 30
0.0
 10
-528.4199173792348
 20
71.46147508621931
 30
0.0
 10
-528.4199135184822
 20
71.46180236554606
 30
0.0
 10
-528.4199096150429
 20
71.46212511736285
 30
0.0
 10
-528.4199056689883
 20
71.46244331882795
 30
0.0
 10
-528.4199016803882
 20
71.4627569470996
 30
0.0
 10
-528.4198976493129
 20
71.4630659793361
 30
0.0
 10
-528.4198935758341
 20
71.46337039269578
 30
0.0
 10
-528.4198894600206
 20
71.46367016433682
 30
0.0
 10
-528.4198853019446
 20
71.46396527141768
 30
0.0
 10
-528.4198811016772
 20
71.46425569109655
 30
0.0
 10
-528.4198768592886
 20
71.4645414005319
 30
0.0
 10
-528.4198725748511
 20
71.46482237688198
 30
0.0
 10
-528.4198682484353
 20
71.46509859730519
 30
0.0
 10
-528.4198638801132
 20
71.46537003895996
 30
0.0
 10
-528.4198594699567
 20
71.46563667900465
 30
0.0
 10
-528.4198550180375
 20
71.4658984945977
 30
0.0
 10
-528.4198505244293
 20
71.46615546289762
 30
0.0
 10
-528.419845989203
 20
71.46640756106288
 30
0.0
 10
-528.4198414124335
 20
71.46665476625205
 30
0.0
 10
-528.4198367941923
 20
71.46689705562366
 30
0.0
 10
-528.4198321345547
 20
71.46713440633636
 30
0.0
 10
-528.4198274335932
 20
71.46736679554878
 30
0.0
 10
-528.4198226913875
 20
71.4675942004198
 30
0.0
 10
-528.419817907997
 20
71.46781659810787
 30
0.0
 10
-528.4198130835518
 20
71.46803396577309
 30
0.0
 10
-528.4198082162349
 20
71.46824635483705
 30
0.0
 10
-528.4198033062626
 20
71.4684537574242
 30
0.0
 10
-528.4197983541752
 20
71.468656169106
 30
0.0
 10
-528.4197933614608
 20
71.46885351460702
 30
0.0
 10
-528.4197883283528
 20
71.46904578140466
 30
0.0
 10
-528.4197832550278
 20
71.46923295697505
 30
0.0
 10
-528.4197781416772
 20
71.46941502879484
 30
0.0
 10
-528.4197729884903
 20
71.4695919843409
 30
0.0
 10
-528.419767795661
 20
71.46976381109039
 30
0.0
 10
-528.4197625633817
 20
71.46993049652075
 30
0.0
 10
-528.4197572918503
 20
71.47009202811003
 30
0.0
 10
-528.4197519812661
 20
71.47024839333656
 30
0.0
 10
-528.4197466318312
 20
71.4703995796795
 30
0.0
 10
-528.419741243752
 20
71.47054557461861
 30
0.0
 10
-528.4197358172397
 20
71.47068636563469
 30
0.0
 10
-528.4197303525111
 20
71.47082194020977
 30
0.0
 10
-528.4197248497884
 20
71.47095228582725
 30
0.0
 10
-528.4197193093042
 20
71.47107738997246
 30
0.0
 10
-528.419713731294
 20
71.47119724013338
 30
0.0
 10
-528.4197081160323
 20
71.47131182380025
 30
0.0
 10
-528.4197026223699
 20
71.47141806031627
 30
0.0
 10
-528.4196972647046
 20
71.47151624961992
 30
0.0
 10
-528.4196920609565
 20
71.47160669459873
 30
0.0
 10
-528.4196868271083
 20
71.47169276648815
 30
0.0
 10
-528.4196815634616
 20
71.47177446051808
 30
0.0
 10
-528.4196762703227
 20
71.47185177192607
 30
0.0
 10
-528.419670948037
 20
71.47192469596284
 30
0.0
 10
-528.4196655969957
 20
71.47199322789797
 30
0.0
 10
-528.4196602176446
 20
71.47205736302503
 30
0.0
 10
-528.4196548105277
 20
71.47211709668262
 30
0.0
 10
-528.4196493762532
 20
71.47217242424544
 30
0.0
 10
-528.4196440483162
 20
71.47222210511391
 30
0.0
 10
-528.4196388439169
 20
71.472266372673
 30
0.0
 10
-528.4196337910139
 20
71.47230546356457
 30
0.0
 10
-528.4196287183786
 20
71.47234084390502
 30
0.0
 10
-528.4196236276019
 20
71.47237251279725
 30
0.0
 10
-528.4196185211649
 20
71.47240047052959
 30
0.0
 10
-528.4196134019975
 20
71.4724247176695
 30
0.0
 10
-528.4196082763167
 20
71.47244526216004
 30
0.0
 10
-528.41960314791
 20
71.47246210694331
 30
0.0
 10
-528.4195983218092
 20
71.47247456649944
 30
0.0
 10
-528.419593849407
 20
71.47248315009816
 30
0.0
 10
-528.4195904044299
 20
71.47248797796757
 30
0.0
 10
-528.4195875635585
 20
71.47249064870871
 30
0.0
 10
-528.4195855685821
 20
71.47249205625823
 30
0.0
 10
-528.4195841312718
 20
71.47249254503691
 30
0.0
 10
-528.419583453521
 20
71.4724927830689
 30
0.0
 11
-528.4200926235094
 21
71.41391283632055
 31
0.0
 11
-528.420092592975
 21
71.41474466091661
 31
0.0
 11
-528.4200925011189
 21
71.41557355342486
 31
0.0
 11
-528.4200923475602
 21
71.41639943818092
 31
0.0
 11
-528.4200921319184
 21
71.41722223952037
 31
0.0
 11
-528.420091853813
 21
71.41804188177878
 31
0.0
 11
-528.4200915128639
 21
71.41885828929176
 31
0.0
 11
-528.4200911086901
 21
71.41967138639492
 31
0.0
 11
-528.4200906409114
 21
71.4204810974238
 31
0.0
 11
-528.4200901091474
 21
71.42128734671402
 31
0.0
 11
-528.4200895130174
 21
71.42209005860116
 31
0.0
 11
-528.4200888521409
 21
71.42288915742081
 31
0.0
 11
-528.4200881261377
 21
71.42368456750856
 31
0.0
 11
-528.4200873346269
 21
71.42447621319997
 31
0.0
 11
-528.4200864772284
 21
71.42526401883069
 31
0.0
 11
-528.4200855535616
 21
71.42604790873625
 31
0.0
 11
-528.420084563246
 21
71.42682780725227
 31
0.0
 11
-528.4200835059008
 21
71.4276036387143
 31
0.0
 11
-528.4200823811461
 21
71.428375327458
 31
0.0
 11
-528.420081188601
 21
71.42914279781888
 31
0.0
 11
-528.4200799278852
 21
71.42990597413261
 31
0.0
 11
-528.4200785986183
 21
71.43066478073472
 31
0.0
 11
-528.4200772004194
 21
71.43141914196079
 31
0.0
 11
-528.4200757329083
 21
71.43216898214644
 31
0.0
 11
-528.4200741957047
 21
71.43291422562724
 31
0.0
 11
-528.4200725884278
 21
71.43365479673881
 31
0.0
 11
-528.4200709106974
 21
71.43439061981671
 31
0.0
 11
-528.4200691621328
 21
71.43512161919655
 31
0.0
 11
-528.4200673423535
 21
71.43584771921388
 31
0.0
 11
-528.4200654509789
 21
71.43656884420429
 31
0.0
 11
-528.4200634876289
 21
71.43728491850344
 31
0.0
 11
-528.4200617960852
 21
71.43787775736966
 31
0.0
 11
-528.4200600540272
 21
71.43846696960001
 31
0.0
 11
-528.4200582613599
 21
71.43905251278149
 31
0.0
 11
-528.4200564179883
 21
71.4396343445012
 31
0.0
 11
-528.4200545238168
 21
71.4402124223462
 31
0.0
 11
-528.4200525787505
 21
71.44078670390353
 31
0.0
 11
-528.4200505826939
 21
71.44135714676023
 31
0.0
 11
-528.4200485355522
 21
71.44192370850338
 31
0.0
 11
-528.4200464372298
 21
71.44248634672003
 31
0.0
 11
-528.4200442876315
 21
71.44304501899727
 31
0.0
 11
-528.4200420866623
 21
71.4435996829221
 31
0.0
 11
-528.420039834227
 21
71.44415029608162
 31
0.0
 11
-528.4200375302305
 21
71.44469681606287
 31
0.0
 11
-528.4200351745773
 21
71.44523920045292
 31
0.0
 11
-528.4200327671722
 21
71.4457774068388
 31
0.0
 11
-528.4200303079201
 21
71.44631139280759
 31
0.0
 11
-528.420027796726
 21
71.44684111594634
 31
0.0
 11
-528.4200252334945
 21
71.44736653384213
 31
0.0
 11
-528.4200226181302
 21
71.44788760408198
 31
0.0
 11
-528.4200199505383
 21
71.44840428425299
 31
0.0
 11
-528.4200172306232
 21
71.44891653194217
 31
0.0
 11
-528.42001445829
 21
71.4494243047366
 31
0.0
 11
-528.4200116334432
 21
71.44992756022334
 31
0.0
 11
-528.420008755988
 21
71.45042625598946
 31
0.0
 11
-528.4200058258289
 21
71.450920349622
 31
0.0
 11
-528.4200028428709
 21
71.45140979870801
 31
0.0
 11
-528.4199998070183
 21
71.45189456083455
 31
0.0
 11
-528.4199967181764
 21
71.4523745935887
 31
0.0
 11
-528.41999357625
 21
71.45284985455751
 31
0.0
 11
-528.4199903811436
 21
71.453320301328
 31
0.0
 11
-528.4199871327621
 21
71.45378589148727
 31
0.0
 11
-528.4199838310105
 21
71.45424658262237
 31
0.0
 11
-528.4199804757933
 21
71.45470233232037
 31
0.0
 11
-528.4199770670153
 21
71.45515309816827
 31
0.0
 11
-528.4199736045816
 21
71.45559883775321
 31
0.0
 11
-528.4199700883968
 21
71.45603950866217
 31
0.0
 11
-528.4199668758312
 21
71.45643196722789
 31
0.0
 11
-528.4199636195182
 21
71.4568202409097
 31
0.0
 11
-528.4199603195264
 21
71.4572043068658
 31
0.0
 11
-528.4199569759252
 21
71.45758414225438
 31
0.0
 11
-528.4199535887834
 21
71.45795972423358
 31
0.0
 11
-528.41995015817
 21
71.45833102996158
 31
0.0
 11
-528.4199466841538
 21
71.45869803659659
 31
0.0
 11
-528.4199431668039
 21
71.45906072129677
 31
0.0
 11
-528.4199396061894
 21
71.45941906122026
 31
0.0
 11
-528.4199360023791
 21
71.45977303352531
 31
0.0
 11
-528.4199323554418
 21
71.46012261537003
 31
0.0
 11
-528.4199286654468
 21
71.46046778391263
 31
0.0
 11
-528.4199249324629
 21
71.46080851631129
 31
0.0
 11
-528.4199211565591
 21
71.46114478972417
 31
0.0
 11
-528.4199173378043
 21
71.46147658130943
 31
0.0
 11
-528.4199134762677
 21
71.46180386822527
 31
0.0
 11
-528.4199095720179
 21
71.46212662762989
 31
0.0
 11
-528.4199056251242
 21
71.46244483668144
 31
0.0
 11
-528.4199016356554
 21
71.46275847253808
 31
0.0
 11
-528.4198976036805
 21
71.46306751235801
 31
0.0
 11
-528.4198935292685
 21
71.46337193329941
 31
0.0
 11
-528.4198894124883
 21
71.46367171252044
 31
0.0
 11
-528.4198852534087
 21
71.46396682717926
 31
0.0
 11
-528.4198810520992
 21
71.46425725443412
 31
0.0
 11
-528.4198768086281
 21
71.4645429714431
 31
0.0
 11
-528.4198725230651
 21
71.46482395536445
 31
0.0
 11
-528.4198681954786
 21
71.46510018335631
 31
0.0
 11
-528.4198638259376
 21
71.46537163257688
 31
0.0
 11
-528.4198594145113
 21
71.46563828018431
 31
0.0
 11
-528.4198549612684
 21
71.46590010333678
 31
0.0
 11
-528.4198504662784
 21
71.4661570791925
 31
0.0
 11
-528.4198459296096
 21
71.4664091849096
 31
0.0
 11
-528.4198413513315
 21
71.4666563976463
 31
0.0
 11
-528.4198367315125
 21
71.46689869456074
 31
0.0
 11
-528.4198320702222
 21
71.46713605281113
 31
0.0
 11
-528.4198273675291
 21
71.46736844955561
 31
0.0
 11
-528.4198226235026
 21
71.46759586195238
 31
0.0
 11
-528.4198178382111
 21
71.4678182671596
 31
0.0
 11
-528.4198130117242
 21
71.4680356423355
 31
0.0
 11
-528.4198081441102
 21
71.46824796463817
 31
0.0
 11
-528.4198032307061
 21
71.4684554340356
 31
0.0
 11
-528.4197982764174
 21
71.4686578497677
 31
0.0
 11
-528.4197932814209
 21
71.46885519930952
 31
0.0
 11
-528.4197882458931
 21
71.46904747013603
 31
0.0
 11
-528.419783170011
 21
71.46923464972232
 31
0.0
 11
-528.4197780539513
 21
71.46941672554344
 31
0.0
 11
-528.4197728978904
 21
71.46959368507437
 31
0.0
 11
-528.4197677020054
 21
71.46976551579016
 31
0.0
 11
-528.4197624664727
 21
71.46993220516586
 31
0.0
 11
-528.4197571914691
 21
71.4700937406765
 31
0.0
 11
-528.4197518771716
 21
71.47025010979715
 31
0.0
 11
-528.4197465237568
 21
71.47040130000279
 31
0.0
 11
-528.419741131401
 21
71.47054729876845
 31
0.0
 11
-528.4197357002813
 21
71.47068809356921
 31
0.0
 11
-528.4197302305745
 21
71.47082367188008
 31
0.0
 11
-528.4197247224572
 21
71.47095402117613
 31
0.0
 11
-528.4197191761059
 21
71.47107912893233
 31
0.0
 11
-528.4197135916976
 21
71.47119898262375
 31
0.0
 11
-528.4197079694088
 21
71.47131356972542
 31
0.0
 11
-528.4197023094166
 21
71.4714228777124
 31
0.0
 11
-528.4196971297889
 21
71.47151769186405
 31
0.0
 11
-528.4196919191979
 21
71.47160813759234
 31
0.0
 11
-528.4196866778126
 21
71.47169421009436
 31
0.0
 11
-528.4196814058018
 21
71.47177590456722
 31
0.0
 11
-528.4196761033345
 21
71.47185321620802
 31
0.0
 11
-528.4196707705793
 21
71.47192614021384
 31
0.0
 11
-528.4196654077055
 21
71.47199467178181
 31
0.0
 11
-528.4196600148815
 21
71.47205880610903
 31
0.0
 11
-528.4196545922766
 21
71.47211853839258
 31
0.0
 11
-528.4196491400594
 21
71.47217386382958
 31
0.0
 11
-528.419643658399
 21
71.4722247776171
 31
0.0
 11
-528.4196386074074
 21
71.47226757375253
 31
0.0
 11
-528.4196335319003
 21
71.47230665904704
 31
0.0
 11
-528.4196284320171
 21
71.47234203166009
 31
0.0
 11
-528.419623307897
 21
71.47237368975118
 31
0.0
 11
-528.4196181596798
 21
71.47240163147981
 31
0.0
 11
-528.4196129875046
 21
71.47242585500547
 31
0.0
 11
-528.4196077914185
 21
71.47244635923307
 31
0.0
 11
-528.4196025716412
 21
71.47246314294411
 31
0.0
 11
-528.4195973283119
 21
71.47247620523365
 31
0.0
 11
-528.4195933804335
 21
71.47248355930009
 31
0.0
 11
-528.4195894194473
 21
71.47248881941252
 31
0.0
 11
-528.4195874340568
 21
71.47249066418046
 31
0.0
 11
-528.4195854454122
 21
71.47249198540284
 31
0.0
 11
-528.419583453521
 21
71.4724927830689
 31
0.0
  0
SPLINE
  5
117
330
47
100
AcDbEntity
  8
0
  6
Continuous
 62
     3
100
AcDbSpline
210
0.0
220
0.0
230
1.0
 70
     8
 71
     3
 72
    50
 73
    46
 74
    44
 42
0.000000001
 43
0.0000000001
 44
0.00000001
 40
0.0
 40
0.0
 40
0.0
 40
0.0
 40
0.000151847463991
 40
0.0002999595934587
 40
0.0004443355155005
 40
0.0005849676197741
 40
0.0007218483123565
 40
0.0008549700137436
 40
0.0009843251599825
 40
0.0011099062045044
 40
0.001231705620212
 40
0.0013497159021429
 40
0.0014639337427905
 40
0.0015743495627233
 40
0.0016809580749387
 40
0.0017837540296745
 40
0.0018827322201085
 40
0.0019778874895382
 40
0.0020692147397648
 40
0.0021567089416769
 40
0.0022403651480124
 40
0.0023201785094482
 40
0.0023961487049206
 40
0.0024682688085434
 40
0.002536536630742
 40
0.0026009501980567
 40
0.0026615078085036
 40
0.0027182081058343
 40
0.0027710501812175
 40
0.0028200337145304
 40
0.0028651591767272
 40
0.0029064281263827
 40
0.0029438468820765
 40
0.0029774207565461
 40
0.0030071601504047
 40
0.0030330808358441
 40
0.0030552076378133
 40
0.0030707786091383
 40
0.0030837842553992
 40
0.0030942955253968
 40
0.0031006232479444
 40
0.003105733588781
 40
0.0031078967558166
 40
0.00310984816274
 40
0.0031133395843077
 40
0.0031133395843077
 40
0.0031133395843077
 40
0.0031133395843077
 10
-528.4193460459287
 20
71.47249450986249
 30
0.0
 10
-528.4193481239867
 20
71.47254508301145
 30
0.0
 10
-528.4193522182492
 20
71.47264498569048
 30
0.0
 10
-528.4193584743869
 20
71.47279296537913
 30
0.0
 10
-528.4193646988217
 20
71.47293720454113
 30
0.0
 10
-528.4193709094822
 20
71.47307769693406
 30
0.0
 10
-528.4193771015085
 20
71.47321443499993
 30
0.0
 10
-528.4193832758876
 20
71.47334741094284
 30
0.0
 10
-528.4193894321005
 20
71.47347661702929
 30
0.0
 10
-528.419395570014
 20
71.47360204551023
 30
0.0
 10
-528.4194016893936
 20
71.4737236886411
 30
0.0
 10
-528.4194077900987
 20
71.4738415400659
 30
0.0
 10
-528.4194138719575
 20
71.47395559272003
 30
0.0
 10
-528.4194199347312
 20
71.47406584025477
 30
0.0
 10
-528.4194259781256
 20
71.47417227564384
 30
0.0
 10
-528.4194320019213
 20
71.47427489328004
 30
0.0
 10
-528.419438005894
 20
71.47437368755737
 30
0.0
 10
-528.4194439898134
 20
71.47446865287122
 30
0.0
 10
-528.4194499534431
 20
71.47455978361914
 30
0.0
 10
-528.4194558965384
 20
71.47464707420093
 30
0.0
 10
-528.4194618188457
 20
71.47473051901957
 30
0.0
 10
-528.4194677202049
 20
71.47481011394859
 30
0.0
 10
-528.4194736004144
 20
71.47488585408698
 30
0.0
 10
-528.4194794591522
 20
71.47495773529218
 30
0.0
 10
-528.4194852959818
 20
71.47502575270778
 30
0.0
 10
-528.4194911105566
 20
71.4750899030066
 30
0.0
 10
-528.4194969024878
 20
71.47515018288009
 30
0.0
 10
-528.4195026713314
 20
71.4752065890464
 30
0.0
 10
-528.4195084165685
 20
71.47525911826247
 30
0.0
 10
-528.4195141375812
 20
71.47530776734311
 30
0.0
 10
-528.4195198335893
 20
71.47535253319599
 30
0.0
 10
-528.4195255038059
 20
71.47539341392694
 30
0.0
 10
-528.4195311470208
 20
71.47543040789486
 30
0.0
 10
-528.4195367614909
 20
71.47546351442477
 30
0.0
 10
-528.4195423444697
 20
71.4754927332022
 30
0.0
 10
-528.4195478932226
 20
71.47551806552303
 30
0.0
 10
-528.4195531676571
 20
71.47553861166182
 30
0.0
 10
-528.4195581305978
 20
71.47555477585927
 30
0.0
 10
-528.4195626765704
 20
71.47556699369255
 30
0.0
 10
-528.4195669253861
 20
71.47557601675803
 30
0.0
 10
-528.4195708300249
 20
71.47558221604503
 30
0.0
 10
-528.4195738201569
 20
71.47558567890052
 30
0.0
 10
-528.419576247898
 20
71.47558756822811
 30
0.0
 10
-528.4195784613464
 20
71.47558886906066
 30
0.0
 10
-528.4195802882008
 20
71.47558909405737
 30
0.0
 10
-528.4195814583911
 20
71.47558924619517
 30
0.0
 11
-528.4193460459287
 21
71.47249450986249
 31
0.0
 11
-528.4193523094302
 21
71.47264622135569
 31
0.0
 11
-528.4193585559658
 21
71.47279420171117
 31
0.0
 11
-528.4193647853361
 21
71.47293844318096
 31
0.0
 11
-528.4193709973422
 21
71.47307893801707
 31
0.0
 11
-528.4193771917847
 21
71.47321567847146
 31
0.0
 11
-528.4193833684647
 21
71.47334865679616
 31
0.0
 11
-528.4193895271823
 21
71.47347786524314
 31
0.0
 11
-528.419395667739
 21
71.47360329606444
 31
0.0
 11
-528.4194017899351
 21
71.473724941512
 31
0.0
 11
-528.4194078935717
 21
71.47384279383787
 31
0.0
 11
-528.4194139786587
 21
71.47395684946116
 31
0.0
 11
-528.419420044806
 21
71.47406709851298
 31
0.0
 11
-528.4194260918216
 21
71.47417353538002
 31
0.0
 11
-528.4194321195137
 21
71.47427615444904
 31
0.0
 11
-528.4194381276902
 21
71.47437495010676
 31
0.0
 11
-528.4194441161595
 21
71.47446991673992
 31
0.0
 11
-528.4194500847296
 21
71.47456104873521
 31
0.0
 11
-528.4194560332087
 21
71.47464834047938
 31
0.0
 11
-528.4194619614046
 21
71.47473178635911
 31
0.0
 11
-528.4194678691259
 21
71.47481138076118
 31
0.0
 11
-528.419473756506
 21
71.47488712247055
 31
0.0
 11
-528.4194796230598
 21
71.47495900355217
 31
0.0
 11
-528.4194854686025
 21
71.47502702062344
 31
0.0
 11
-528.419491292949
 21
71.47509117030174
 31
0.0
 11
-528.4194970959145
 21
71.47515144920447
 31
0.0
 11
-528.4195028773137
 21
71.47520785394902
 31
0.0
 11
-528.4195086369621
 21
71.4752603811528
 31
0.0
 11
-528.4195143746743
 21
71.47530902743318
 31
0.0
 11
-528.4195200902658
 21
71.47535378940759
 31
0.0
 11
-528.4195257835512
 21
71.47539466369338
 31
0.0
 11
-528.419531454696
 21
71.47543165011493
 31
0.0
 11
-528.4195371032444
 21
71.47546474531526
 31
0.0
 11
-528.419542729026
 21
71.4754939476214
 31
0.0
 11
-528.419548331871
 21
71.4755192553605
 31
0.0
 11
-528.4195539116087
 21
71.47554066685959
 31
0.0
 11
-528.4195585436714
 21
71.47555553264313
 31
0.0
 11
-528.4195631594828
 21
71.47556769127773
 31
0.0
 11
-528.4195677589514
 21
71.47557714228877
 31
0.0
 11
-528.419571197777
 21
71.47558245342049
 31
0.0
 11
-528.4195746273178
 21
71.47558624116826
 31
0.0
 11
-528.4195763385947
 21
71.47558756374389
 31
0.0
 11
-528.4195780475358
 21
71.47558850544357
 31
0.0
 11
-528.4195814583911
 21
71.47558924619517
 31
0.0
  0
SPLINE
  5
118
330
47
100
AcDbEntity
  8
0
  6
Continuous
 62
     3
100
AcDbSpline
210
0.0
220
0.0
230
1.0
 70
     8
 71
     3
 72
    17
 73
    13
 74
    11
 42
0.000000001
 43
0.0000000001
 44
0.00000001
 40
0.0
 40
0.0
 40
0.0
 40
0.0
 40
0.0179634117036615
 40
0.0359542383267243
 40
0.0402882363080977
 40
0.0445116172101222
 40
0.0497430067979203
 40
0.0525388043817444
 40
0.060335092462556
 40
0.0680693832136722
 40
0.1010644356386463
 40
0.1302738960170658
 40
0.1302738960170658
 40
0.1302738960170658
 40
0.1302738960170658
 10
-528.5501140448046
 20
71.40653438850916
 30
0.0
 10
-528.5441592763173
 20
71.40716839959225
 30
0.0
 10
-528.5322406493208
 20
71.40843736545759
 30
0.0
 10
-528.5188373444879
 20
71.40931192820689
 30
0.0
 10
-528.5100077270869
 20
71.40990127120821
 30
0.0
 10
-528.5054217743244
 20
71.41020906007705
 30
0.0
 10
-528.5013480018663
 20
71.4104914179939
 30
0.0
 10
-528.4960884680097
 20
71.41088840712425
 30
0.0
 10
-528.4899954206138
 20
71.41132771391655
 30
0.0
 10
-528.4738538150415
 20
71.41236843009706
 30
0.0
 10
-528.4505626544923
 20
71.41349749821555
 30
0.0
 10
-528.429828697234
 20
71.4137801310809
 30
0.0
 10
-528.4200926235094
 20
71.41391283632055
 30
0.0
 11
-528.5501140448046
 21
71.40653438850916
 31
0.0
 11
-528.5322390497636
 21
71.40831447295133
 31
0.0
 11
-528.5142953267134
 21
71.4096154992557
 31
0.0
 11
-528.5099709407749
 21
71.40990398622205
 31
0.0
 11
-528.5057571150346
 21
71.41018792087223
 31
0.0
 11
-528.5005385848992
 21
71.4105545001764
 31
0.0
 11
-528.4977505068177
 21
71.41076211721867
 31
0.0
 11
-528.4899741551055
 21
71.41131930975621
 31
0.0
 11
-528.4822560143043
 21
71.41181887077262
 31
0.0
 11
-528.4492967679773
 21
71.41335560300473
 31
0.0
 11
-528.4200926235094
 21
71.41391283632055
 31
0.0
  0
SPLINE
  5
119
330
47
100
AcDbEntity
  8
0
  6
Continuous
 62
     7
100
AcDbSpline
210
0.0
220
0.0
230
1.0
 70
     8
 71
     3
 72
     9
 73
     5
 74
     3
 42
0.000000001
 43
0.0000000001
 44
0.00000001
 40
0.0
 40
0.0
 40
0.0
 40
0.0
 40
0.0000538121733325
 40
0.000107603911775
 40
0.000107603911775
 40
0.000107603911775
 40
0.000107603911775
 10
-528.5500004751839
 20
69.85757831109404
 30
0.0
 10
-528.5500002823378
 20
69.85756037463382
 30
0.0
 10
-528.5499999167185
 20
69.85752450837207
 30
0.0
 10
-528.5499998415677
 20
69.85748864032554
 30
0.0
 10
-528.5499998139974
 20
69.85747070966158
 30
0.0
 11
-528.5500004751839
 21
69.85757831109404
 31
0.0
 11
-528.5499999792941
 21
69.85752450117585
 31
0.0
 11
-528.5499998139974
 21
69.85747070966158
 31
0.0
  0
SPLINE
  5
11A
330
47
100
AcDbEntity
  8
0
  6
Continuous
 62
     7
100
AcDbSpline
210
0.0
220
0.0
230
1.0
 70
     8
 71
     3
 72
     9
 73
     5
 74
     3
 42
0.000000001
 43
0.0000000001
 44
0.00000001
 40
0.0
 40
0.0
 40
0.0
 40
0.0
 40
0.0000537712867154
 40
0.0001075221073004
 40
0.0001075221073004
 40
0.0001075221073004
 40
0.0001075221073004
 10
-528.549999813997
 20
64.63963351371765
 30
0.0
 10
-528.5499998415255
 20
64.63961558987054
 30
0.0
 10
-528.5499999165714
 20
64.63957974909158
 30
0.0
 10
-528.5500002823377
 20
64.63954391010056
 30
0.0
 10
-528.5500004751835
 20
64.63952599409228
 30
0.0
 11
-528.549999813997
 21
64.63963351371765
 31
0.0
 11
-528.5499999792937
 21
64.63957974265517
 31
0.0
 11
-528.5500004751835
 21
64.63952599409228
 31
0.0
  0
SPLINE
  5
11B
330
47
100
AcDbEntity
  8
0
  6
Continuous
 62
     7
100
AcDbSpline
210
0.0
220
0.0
230
1.0
 70
    24
 71
     3
 72
     8
 73
     4
 74
     2
 42
0.0000000001
 43
0.0000000001
 44
0.00000001
 40
0.0
 40
0.0
 40
0.0
 40
0.0
 40
0.0000075280841325
 40
0.0000075280841325
 40
0.0000075280841325
 40
0.0000075280841325
 10
-528.5486832932108
 20
64.58104317048941
 30
0.0
 10
-528.5486807855716
 20
64.58104307753791
 30
0.0
 10
-528.5486782779324
 20
64.58104298458645
 30
0.0
 10
-528.5486757702931
 20
64.58104289163498
 30
0.0
 11
-528.5486832932108
 21
64.58104317048941
 31
0.0
 11
-528.5486757702931
 21
64.58104289163498
 31
0.0
  0
SPLINE
  5
11C
330
47
100
AcDbEntity
  8
0
  6
Continuous
 62
     3
100
AcDbSpline
210
0.0
220
0.0
230
1.0
 70
     8
 71
     3
 72
    36
 73
    32
 74
    30
 42
0.000000001
 43
0.0000000001
 44
0.00000001
 40
0.0
 40
0.0
 40
0.0
 40
0.0
 40
0.0543132236991118
 40
0.0992329007997849
 40
0.1332030870976074
 40
0.1880892670017649
 40
0.2534551035303114
 40
0.301737299620416
 40
0.3605560662742068
 40
0.4062162190245454
 40
0.4543588583218215
 40
0.5004129697917151
 40
0.5348090934407629
 40
0.5511492272303323
 40
0.5704823927156588
 40
0.5888191746581606
 40
0.6036510333359829
 40
0.6149743816961244
 40
0.6239722381407679
 40
0.6333054762892882
 40
0.6448146952711149
 40
0.6564544241069415
 40
0.6674402515716166
 40
0.6818736094439882
 40
0.6936363619454955
 40
0.7093096710073845
 40
0.7315856713491065
 40
0.743740658541279
 40
0.7541199311484509
 40
0.7660957649021317
 40
0.7790288589320747
 40
0.7790288589320747
 40
0.7790288589320747
 40
0.7790288589320747
 10
-522.455552621358
 20
72.18588480062027
 30
0.0
 10
-522.4709017399251
 20
72.19548711051628
 30
0.0
 10
-522.4989453279795
 20
72.21303099431402
 30
0.0
 10
-522.537230833946
 20
72.23552766940368
 30
0.0
 10
-522.5760422470496
 20
72.25748701222707
 30
0.0
 10
-522.6213101782427
 20
72.28186224542357
 30
0.0
 10
-522.6715615004126
 20
72.30700570853861
 30
0.0
 10
-522.7238004558974
 20
72.33102429511646
 30
0.0
 10
-522.7708173714594
 20
72.350624365046
 30
0.0
 10
-522.8186223422568
 20
72.36807196902136
 30
0.0
 10
-522.8632179796127
 20
72.38175782337427
 30
0.0
 10
-522.9050589807155
 20
72.39131441507396
 30
0.0
 10
-522.937114615819
 20
72.39548008567246
 30
0.0
 10
-522.9604665006036
 20
72.39641561693807
 30
0.0
 10
-522.9784844706876
 20
72.3957383354025
 30
0.0
 10
-522.9958462255048
 20
72.39323477678465
 30
0.0
 10
-523.0102034599613
 20
72.38938002409176
 30
0.0
 10
-523.0211258510158
 20
72.38507767075025
 30
0.0
 10
-523.029934110241
 20
72.38056257593139
 30
0.0
 10
-523.0383287986726
 20
72.37519762965997
 30
0.0
 10
-523.0467606194767
 20
72.36835834131044
 30
0.0
 10
-523.0546427716373
 20
72.36011076108288
 30
0.0
 10
-523.0620827515958
 20
72.35021983572486
 30
0.0
 10
-523.0682917438916
 20
72.33945024546459
 30
0.0
 10
-523.0739276130734
 20
72.32666394583872
 30
0.0
 10
-523.079108977112
 20
72.3108935449676
 30
0.0
 10
-523.0825683880203
 20
72.29451486413842
 30
0.0
 10
-523.0845533338827
 20
72.27970663126078
 30
0.0
 10
-523.0855935983141
 20
72.26824797893386
 30
0.0
 10
-523.086240441237
 20
72.25649908716832
 30
0.0
 10
-523.0863210848393
 20
72.2481956125715
 30
0.0
 10
-523.086362951827
 20
72.24388432222653
 30
0.0
 11
-522.455552621358
 21
72.18588480062027
 31
0.0
 11
-522.5017432056485
 21
72.2144567299552
 31
0.0
 11
-522.5404470139821
 21
72.237255690549
 31
0.0
 11
-522.570018220272
 21
72.2539744619146
 31
0.0
 11
-522.6183504462025
 21
72.27998385802621
 31
0.0
 11
-522.6768329419577
 21
72.30918129435844
 31
0.0
 11
-522.7207153834659
 21
72.32931836955959
 31
0.0
 11
-522.7750476269332
 21
72.35184956252722
 31
0.0
 11
-522.8179701222705
 21
72.36742226199911
 31
0.0
 11
-522.8640440982698
 21
72.38138301059129
 31
0.0
 11
-522.9090053842168
 21
72.39135617577567
 31
0.0
 11
-522.9431430423067
 21
72.3955649390939
 31
0.0
 11
-522.959471526079
 21
72.39618187481678
 31
0.0
 11
-522.978787936231
 21
72.39537712685554
 31
0.0
 11
-522.9969241993172
 21
72.39267276609043
 31
0.0
 11
-523.0112348388647
 21
72.38877537575485
 31
0.0
 11
-523.021762087258
 21
72.38460461162164
 31
0.0
 11
-523.0297651048497
 21
72.38049205295924
 31
0.0
 11
-523.0376257981254
 21
72.37546026952349
 31
0.0
 11
-523.0465626834252
 21
72.36820808258992
 31
0.0
 11
-523.0546132137059
 21
72.3598014030435
 31
0.0
 11
-523.0612302779037
 21
72.35103197459502
 31
0.0
 11
-523.06848018006
 21
72.33855155989693
 31
0.0
 11
-523.0732480297826
 21
72.32779842255925
 31
0.0
 11
-523.0781930491924
 21
72.31292564840922
 31
0.0
 11
-523.0829105263762
 21
72.29115489692029
 31
0.0
 11
-523.0845392034249
 21
72.27910951891208
 31
0.0
 11
-523.0854885468505
 21
72.26877375316377
 31
0.0
 11
-523.0861359987755
 21
72.25681543309773
 31
0.0
 11
-523.086362951827
 21
72.24388432222653
 31
0.0
  0
SPLINE
  5
11D
330
47
100
AcDbEntity
  8
0
  6
Continuous
 62
     3
100
AcDbSpline
210
0.0
220
0.0
230
1.0
 70
     8
 71
     3
 72
    15
 73
    11
 74
     9
 42
0.000000001
 43
0.0000000001
 44
0.00000001
 40
0.0
 40
0.0
 40
0.0
 40
0.0
 40
0.0142033728126696
 40
0.0281887916254665
 40
0.0419537591233578
 40
0.0555041134409329
 40
0.0688533013145209
 40
0.0820214880279798
 40
0.0950337162762422
 40
0.1079181976099269
 40
0.1079181976099269
 40
0.1079181976099269
 40
0.1079181976099269
 10
-523.086362951827
 20
72.24388432222653
 30
0.0
 10
-523.0835238554712
 20
72.240092921418
 30
0.0
 10
-523.0778892411322
 20
72.23256829117055
 30
0.0
 10
-523.0705796346501
 20
72.22062268305946
 30
0.0
 10
-523.0642712549832
 20
72.208372517984
 30
0.0
 10
-523.0590785186283
 20
72.1958342892244
 30
0.0
 10
-523.0550153403183
 20
72.18309306066215
 30
0.0
 10
-523.0521317788922
 20
72.17022256616742
 30
0.0
 10
-523.0503328008949
 20
72.15729954957851
 30
0.0
 10
-523.0501100729539
 20
72.14866453691339
 30
0.0
 10
-523.04999926561
 20
72.14436832825571
 30
0.0
 11
-523.086362951827
 21
72.24388432222653
 31
0.0
 11
-523.0780292933752
 21
72.23238276002529
 31
0.0
 11
-523.0706926668788
 21
72.22047621292722
 31
0.0
 11
-523.0644121955183
 21
72.20822753845759
 31
0.0
 11
-523.0592322677106
 21
72.19570633763956
 31
0.0
 11
-523.0551882374527
 21
72.18298444079664
 31
0.0
 11
-523.0522985324177
 21
72.17013723203365
 31
0.0
 11
-523.050571766547
 21
72.15724008525336
 31
0.0
 11
-523.04999926561
 21
72.14436832825571
 31
0.0
  0
SPLINE
  5
11E
330
47
100
AcDbEntity
  8
0
  6
Continuous
 62
     3
100
AcDbSpline
210
0.0
220
0.0
230
1.0
 70
     8
 71
     3
 72
    39
 73
    35
 74
    33
 42
0.000000001
 43
0.0000000001
 44
0.00000001
 40
0.0
 40
0.0
 40
0.0
 40
0.0
 40
0.0111383096774285
 40
0.022690074890912
 40
0.0346455670669299
 40
0.0469913617051662
 40
0.0597105401937686
 40
0.072782318276113
 40
0.0861824096871912
 40
0.0998827708267848
 40
0.1138520820204145
 40
0.128055662295448
 40
0.1424560504288626
 40
0.1570131118221982
 40
0.1716846837773262
 40
0.1864268755133198
 40
0.2011947266162626
 40
0.2159426775524225
 40
0.2306251808840195
 40
0.2451972983888662
 40
0.2596152044753636
 40
0.2738368515968597
 40
0.2878223153276558
 40
0.3015344651059521
 40
0.3149391190413459
 40
0.3280056625546275
 40
0.3407070043903484
 40
0.3530200993854674
 40
0.3649257204895862
 40
0.3764088599710056
 40
0.3874583511468126
 40
0.3980671438207511
 40
0.4082317952776447
 40
0.4179526778636962
 40
0.4179526778636962
 40
0.4179526778636962
 40
0.4179526778636962
 10
-522.6534898798094
 20
71.82952709767915
 30
0.0
 10
-522.6505966105718
 20
71.83185419427525
 30
0.0
 10
-522.6447026844971
 20
71.83659478294825
 30
0.0
 10
-522.6359601570315
 20
71.84414376763266
 30
0.0
 10
-522.6271085467467
 20
71.85217497108528
 30
0.0
 10
-522.6181921061884
 20
71.86070806781785
 30
0.0
 10
-522.6092332019279
 20
71.86972873991192
 30
0.0
 10
-522.6002619166356
 20
71.87922671034677
 30
0.0
 10
-522.591309112852
 20
71.88918637876674
 30
0.0
 10
-522.5824062081352
 20
71.89958776173947
 30
0.0
 10
-522.573586884673
 20
71.9104079023761
 30
0.0
 10
-522.5648839884876
 20
71.92161881040704
 30
0.0
 10
-522.5563322922751
 20
71.93319001812627
 30
0.0
 10
-522.5479647014174
 20
71.94508629229507
 30
0.0
 10
-522.5398154616997
 20
71.95727051152197
 30
0.0
 10
-522.5319159277985
 20
71.96970143194608
 30
0.0
 10
-522.5242981406066
 20
71.9823367284998
 30
0.0
 10
-522.5169902917247
 20
71.99513088771391
 30
0.0
 10
-522.5100206180837
 20
72.0080382871837
 30
0.0
 10
-522.5034127051738
 20
72.02101125666572
 30
0.0
 10
-522.4971896278989
 20
72.03400306242102
 30
0.0
 10
-522.4913692428267
 20
72.04696616049347
 30
0.0
 10
-522.4859684819467
 20
72.05985495495706
 30
0.0
 10
-522.4809987803789
 20
72.07262425468335
 30
0.0
 10
-522.4764704081559
 20
72.08523169140975
 30
0.0
 10
-522.4723881716791
 20
72.09763638352763
 30
0.0
 10
-522.4687556309441
 20
72.10980092867707
 30
0.0
 10
-522.4655712770547
 20
72.12169027768985
 30
0.0
 10
-522.4628321721343
 20
72.1332732398493
 30
0.0
 10
-522.4605318615219
 20
72.14452162064973
 30
0.0
 10
-522.4586591646922
 20
72.15541103061821
 30
0.0
 10
-522.4572124652791
 20
72.1659209969002
 30
0.0
 10
-522.456142431097
 20
72.17603257574855
 30
0.0
 10
-522.4557462711958
 20
72.1826499499761
 30
0.0
 10
-522.455552621358
 20
72.18588480062027
 30
0.0
 11
-522.6534898798094
 21
71.82952709767915
 31
0.0
 11
-522.644850627019
 21
71.83655740337383
 31
0.0
 11
-522.6360930140938
 21
71.84409048561469
 31
0.0
 11
-522.6272404081402
 21
71.85212573602777
 31
0.0
 11
-522.6183181448279
 21
71.86065872470515
 31
0.0
 11
-522.6093537010764
 21
71.8696818206556
 31
0.0
 11
-522.6003761393981
 21
71.87918312434276
 31
0.0
 11
-522.5914163607886
 21
71.88914730101679
 31
0.0
 11
-522.5825062767217
 21
71.8995545242309
 31
0.0
 11
-522.5736791662011
 21
71.91038151696422
 31
0.0
 11
-522.5649685707032
 21
71.92160057282771
 31
0.0
 11
-522.5564087829902
 21
71.9331807804222
 31
0.0
 11
-522.5480334839298
 21
71.94508718193136
 31
0.0
 11
-522.539876391238
 21
71.95728213404384
 31
0.0
 11
-522.5319696813901
 21
71.96972464789528
 31
0.0
 11
-522.5243448218476
 21
71.98237181901844
 31
0.0
 11
-522.5170308423778
 21
71.99517837028391
 31
0.0
 11
-522.5100553634859
 21
72.00809806813112
 31
0.0
 11
-522.5034427954705
 21
72.02108346558198
 31
0.0
 11
-522.4972155591297
 21
72.03408721648819
 31
0.0
 11
-522.4913922954343
 21
72.0470619935943
 31
0.0
 11
-522.4859892542408
 21
72.05996161900819
 31
0.0
 11
-522.4810185921563
 21
72.07274111681394
 31
0.0
 11
-522.4764898844767
 21
72.08535759603862
 31
0.0
 11
-522.4724085754085
 21
72.09777039063505
 31
0.0
 11
-522.4687775516819
 21
72.10994165781989
 31
0.0
 11
-522.465595791025
 21
72.12183656011808
 31
0.0
 11
-522.4628599261093
 21
72.13342357220338
 31
0.0
 11
-522.4605631177266
 21
72.14467466782448
 31
0.0
 11
-522.4586965365728
 21
72.15556535691755
 31
0.0
 11
-522.4572484700344
 21
72.1660748512669
 31
0.0
 11
-522.4562056565996
 21
72.17618587641925
 31
0.0
 11
-522.455552621358
 21
72.18588480062027
 31
0.0
  0
SPLINE
  5
11F
330
47
100
AcDbEntity
  8
0
  6
Continuous
 62
     3
100
AcDbSpline
210
0.0
220
0.0
230
1.0
 70
     8
 71
     3
 72
    13
 73
     9
 74
     7
 42
0.000000001
 43
0.0000000001
 44
0.00000001
 40
0.0
 40
0.0
 40
0.0
 40
0.0
 40
0.0239164232898646
 40
0.0478239399053691
 40
0.0543031187851841
 40
0.0607822028451227
 40
0.1821370878301163
 40
0.3020324981730061
 40
0.3020324981730061
 40
0.3020324981730061
 40
0.3020324981730061
 10
-514.7499998139973
 20
71.68831398897403
 30
0.0
 10
-514.742027495855
 20
71.68831257494331
 30
0.0
 10
-514.726085828583
 20
71.68830973257599
 30
0.0
 10
-514.7079875394197
 20
71.68792464530186
 30
0.0
 10
-514.6957046046159
 20
71.68754930589999
 30
0.0
 10
-514.6509628198878
 20
71.68596835728275
 30
0.0
 10
-514.5684244345338
 20
71.67992515372725
 30
0.0
 10
-514.4893152456466
 20
71.6652270924995
 30
0.0
 10
-514.4499999430295
 20
71.65792251338435
 30
0.0
 11
-514.7499998139973
 21
71.68831398897403
 31
0.0
 11
-514.7260835534183
 21
71.68822563616341
 31
0.0
 11
-514.7021809097189
 21
71.68774294453392
 31
0.0
 11
-514.695704780713
 21
71.68754416592911
 31
0.0
 11
-514.6892297019483
 21
71.68731638085366
 31
0.0
 11
-514.5682596445479
 21
71.67765959482082
 31
0.0
 11
-514.4499999430295
 21
71.65792251338435
 31
0.0
  0
SPLINE
  5
120
330
47
100
AcDbEntity
  8
0
  6
Continuous
 62
     3
100
AcDbSpline
210
0.0
220
0.0
230
1.0
 70
     8
 71
     3
 72
    15
 73
    11
 74
     9
 42
0.000000001
 43
0.0000000001
 44
0.00000001
 40
0.0
 40
0.0
 40
0.0
 40
0.0
 40
0.0188412651343186
 40
0.0371557255893044
 40
0.0548466041333802
 40
0.0718298931707718
 40
0.08803416618861
 40
0.1034021967586315
 40
0.1178897883051306
 40
0.1314665773346832
 40
0.1314665773346832
 40
0.1314665773346832
 40
0.1314665773346832
 10
-514.7487551766328
 20
71.5568533664822
 30
0.0
 10
-514.7488056264995
 20
71.56313358563939
 30
0.0
 10
-514.7489051301618
 20
71.57551842793956
 30
0.0
 10
-514.7490609045585
 20
71.59379996635651
 30
0.0
 10
-514.7492179722267
 20
71.61146214438287
 30
0.0
 10
-514.7493758562373
 20
71.62842089016145
 30
0.0
 10
-514.7495333648471
 20
71.6446053218415
 30
0.0
 10
-514.7496897845779
 20
71.65995782376942
 30
0.0
 10
-514.7498435028319
 20
71.67443447897145
 30
0.0
 10
-514.749948845046
 20
71.68378867955892
 30
0.0
 10
-514.7499998139973
 20
71.68831398897403
 30
0.0
 11
-514.7487551766328
 21
71.5568533664822
 31
0.0
 11
-514.7489080803217
 21
71.57569401116301
 31
0.0
 11
-514.7490638207505
 21
71.59400780941688
 31
0.0
 11
-514.7492213141135
 21
71.61169798690224
 31
0.0
 11
-514.7493794866484
 21
71.62868053936475
 31
0.0
 11
-514.7495373327039
 21
71.64488404358377
 31
0.0
 11
-514.7496938977121
 21
71.66025127662573
 31
0.0
 11
-514.7498483194103
 21
71.67473804517817
 31
0.0
 11
-514.7499998139973
 21
71.68831398897403
 31
0.0
  0
SPLINE
  5
121
330
47
100
AcDbEntity
  8
0
  6
Continuous
 62
     3
100
AcDbSpline
210
0.0
220
0.0
230
1.0
 70
     8
 71
     3
 72
    11
 73
     7
 74
     5
 42
0.000000001
 43
0.0000000001
 44
0.00000001
 40
0.0
 40
0.0
 40
0.0
 40
0.0
 40
0.0915077439075005
 40
0.182526488964208
 40
0.2042556735042149
 40
0.2259788666588854
 40
0.2259788666588854
 40
0.2259788666588854
 40
0.2259788666588854
 10
-522.6745967725885
 20
71.50794436604642
 30
0.0
 10
-522.6695775676429
 20
71.53804522316507
 30
0.0
 10
-522.6595659964489
 20
71.59808608674201
 30
0.0
 10
-522.6548770121174
 20
71.66611939101145
 30
0.0
 10
-522.6536026946603
 20
71.71092411879535
 30
0.0
 10
-522.6535274764873
 20
71.72540875691548
 30
0.0
 10
-522.6534898798094
 20
71.73265007744376
 30
0.0
 11
-522.6745967725885
 21
71.50794436604642
 31
0.0
 11
-522.6610023263321
 21
71.59843667622519
 31
0.0
 11
-522.6542768289374
 21
71.68920660395568
 31
0.0
 11
-522.6536867908217
 21
71.71092777635063
 31
0.0
 11
-522.6534898798094
 21
71.73265007744376
 31
0.0
  0
SPLINE
  5
122
330
47
100
AcDbEntity
  8
0
  6
Continuous
 62
     3
100
AcDbSpline
210
0.0
220
0.0
230
1.0
 70
     8
 71
     3
 72
    39
 73
    35
 74
    33
 42
0.000000001
 43
0.0000000001
 44
0.00000001
 40
0.0
 40
0.0
 40
0.0
 40
0.0
 40
0.015319665683721
 40
0.0308571009593002
 40
0.0465930880130612
 40
0.0625064961715151
 40
0.0785746219399338
 40
0.0947730689279946
 40
0.1110761390331144
 40
0.1274568030837626
 40
0.1438871310733231
 40
0.1603383626563656
 40
0.1767813571530478
 40
0.1931867635742799
 40
0.2095254640453487
 40
0.2257688321138721
 40
0.2418891379114737
 40
0.2578598724657868
 40
0.2736560804681029
 40
0.2892547189228916
 40
0.3046348846829472
 40
0.319778169783748
 40
0.3346687562831737
 40
0.3492937294740571
 40
0.3636430218153311
 40
0.3777096497771661
 40
0.3914895012005603
 40
0.4049814720383305
 40
0.4181871064932925
 40
0.4311106257808087
 40
0.443758446603353
 40
0.4561391133227465
 40
0.468262736775282
 40
0.4801408638490927
 40
0.4801408638490927
 40
0.4801408638490927
 40
0.4801408638490927
 10
-522.6534898798094
 20
71.73265007744376
 30
0.0
 10
-522.6585962458875
 20
71.73257857639537
 30
0.0
 10
-522.6688815649402
 20
71.73243454444697
 30
0.0
 10
-522.6843972477428
 20
71.73168054439157
 30
0.0
 10
-522.7000842742938
 20
71.73051109133633
 30
0.0
 10
-522.7159077854822
 20
71.72887199908345
 30
0.0
 10
-522.7318303707905
 20
71.72675877851624
 30
0.0
 10
-522.7478122357703
 20
71.72415681306842
 30
0.0
 10
-522.7638109903348
 20
71.72105556013837
 30
0.0
 10
-522.7797825445342
 20
71.71744763624933
 30
0.0
 10
-522.7956805733127
 20
71.71332642221687
 30
0.0
 10
-522.8114578979744
 20
71.7086901078332
 30
0.0
 10
-522.8270656155448
 20
71.70353741373641
 30
0.0
 10
-522.8424550193965
 20
71.69787252722011
 30
0.0
 10
-522.857576289684
 20
71.6917000723115
 30
0.0
 10
-522.8723810108988
 20
71.68503053842838
 30
0.0
 10
-522.8868203159793
 20
71.67787467200188
 30
0.0
 10
-522.9008480333678
 20
71.67024923406969
 30
0.0
 10
-522.9144181933364
 20
71.66217096542434
 30
0.0
 10
-522.92748880262
 20
71.65366249534121
 30
0.0
 10
-522.9400186543238
 20
71.6447460758987
 30
0.0
 10
-522.9519716872821
 20
71.6354494410023
 30
0.0
 10
-522.9633130903571
 20
71.62579954307567
 30
0.0
 10
-522.9740141582101
 20
71.61582815076262
 30
0.0
 10
-522.9840477457227
 20
71.60556584069872
 30
0.0
 10
-522.9933934770863
 20
71.59504712658017
 30
0.0
 10
-523.0020327092587
 20
71.58430496183732
 30
0.0
 10
-523.0099537838057
 20
71.57337518401121
 30
0.0
 10
-523.0171471801273
 20
71.56229187918692
 30
0.0
 10
-523.023608813611
 20
71.55109050139438
 30
0.0
 10
-523.0293420885773
 20
71.53980609385329
 30
0.0
 10
-523.0343356141277
 20
71.5284683412345
 30
0.0
 10
-523.0386570629821
 20
71.51712686109175
 30
0.0
 10
-523.0409744688391
 20
71.50946713021592
 30
0.0
 10
-523.0421213135314
 20
71.50567643554143
 30
0.0
 11
-522.6534898798094
 21
71.73265007744376
 31
0.0
 11
-522.6688065619663
 21
71.73234798967299
 31
0.0
 11
-522.6843268075486
 21
71.73161737167923
 31
0.0
 11
-522.7000187347574
 21
71.7304406477151
 31
0.0
 11
-522.7158475504556
 21
71.72880200828592
 31
0.0
 11
-522.7317758441084
 21
71.72668679664025
 31
0.0
 11
-522.7477636052524
 21
71.724082727705
 31
0.0
 11
-522.7637685155287
 21
71.72097902987761
 31
0.0
 11
-522.7797461808312
 21
71.71736788525799
 31
0.0
 11
-522.7956503791444
 21
71.71324330605222
 31
0.0
 11
-522.8114335481471
 21
71.70860276762531
 31
0.0
 11
-522.8270469357692
 21
71.7034458116249
 31
0.0
 11
-522.842441371534
 21
71.69777582859155
 31
0.0
 11
-522.8575672591661
 21
71.69159839735394
 31
0.0
 11
-522.872375642859
 21
71.68492316111528
 31
0.0
 11
-522.8868179793099
 21
71.67776193377668
 31
0.0
 11
-522.9008474899938
 21
71.67013060412717
 31
0.0
 11
-522.9144186558285
 21
71.66204706251057
 31
0.0
 11
-522.9274888255554
 21
71.6535330631717
 31
0.0
 11
-522.9400173910716
 21
71.64461204615799
 31
0.0
 11
-522.9519676024859
 21
71.63531088868748
 31
0.0
 11
-522.9633054057
 21
71.62565771387754
 31
0.0
 11
-522.9740013986795
 21
71.6156834683317
 31
0.0
 11
-522.9840293430153
 21
71.60541981780297
 31
0.0
 11
-522.9933681849271
 21
71.59490049971677
 31
0.0
 11
-523.0020002854573
 21
71.58415940364385
 31
0.0
 11
-523.0099134246241
 21
71.57323166347078
 31
0.0
 11
-523.0170988255603
 21
71.56215200661974
 31
0.0
 11
-523.0235530614899
 21
71.55095556991847
 31
0.0
 11
-523.0292759723151
 21
71.53967657701847
 31
0.0
 11
-523.0342724017332
 21
71.52834888304304
 31
0.0
 11
-523.0385501162822
 21
71.51700500796105
 31
0.0
 11
-523.0421213135314
 21
71.50567643554143
 31
0.0
  0
SPLINE
  5
123
330
47
100
AcDbEntity
  8
0
  6
Continuous
 62
     3
100
AcDbSpline
210
0.0
220
0.0
230
1.0
 70
     8
 71
     3
 72
    15
 73
    11
 74
     9
 42
0.000000001
 43
0.0000000001
 44
0.00000001
 40
0.0
 40
0.0
 40
0.0
 40
0.0
 40
0.0145226836060905
 40
0.0288553684593929
 40
0.0429933937089829
 40
0.0569394644693918
 40
0.0707029898509552
 40
0.0842992812793104
 40
0.0977479246361148
 40
0.1110713231950671
 40
0.1110713231950671
 40
0.1110713231950671
 40
0.1110713231950671
 10
-523.086362951827
 20
72.0196414456515
 30
0.0
 10
-523.0835228374308
 20
72.0157186228178
 30
0.0
 10
-523.0778797774925
 20
72.00792429067151
 30
0.0
 10
-523.0705734095078
 20
71.9955723757586
 30
0.0
 10
-523.0642666258443
 20
71.9829046673229
 30
0.0
 10
-523.0590758396829
 20
71.96994013308871
 30
0.0
 10
-523.0550142447156
 20
71.95676635957176
 30
0.0
 10
-523.0521317119757
 20
71.94345949500423
 30
0.0
 10
-523.0503332611972
 20
71.93009873768085
 30
0.0
 10
-523.0501102448483
 20
71.92117205015083
 30
0.0
 10
-523.04999926561
 20
71.91672958645796
 30
0.0
 11
-523.086362951827
 21
72.0196414456515
 31
0.0
 11
-523.0780298873643
 21
72.00774739777789
 31
0.0
 11
-523.070693686618
 21
71.99543455782897
 31
0.0
 11
-523.0644134889767
 21
71.98276795241792
 31
0.0
 11
-523.0592336488357
 21
71.96981950981606
 31
0.0
 11
-523.0551895398588
 21
71.9566635287994
 31
0.0
 11
-523.0522995683249
 21
71.94337792638196
 31
0.0
 11
-523.0505723714624
 21
71.93004065417836
 31
0.0
 11
-523.04999926561
 21
71.91672958645796
 31
0.0
  0
SPLINE
  5
124
330
47
100
AcDbEntity
  8
0
  6
Continuous
 62
     3
100
AcDbSpline
210
0.0
220
0.0
230
1.0
 70
     8
 71
     3
 72
    15
 73
    11
 74
     9
 42
0.000000001
 43
0.0000000001
 44
0.00000001
 40
0.0
 40
0.0
 40
0.0
 40
0.0
 40
0.0133846457118565
 40
0.0276653346145716
 40
0.0428134339027871
 40
0.0587870249193727
 40
0.0755316526565534
 40
0.0929791646881506
 40
0.111049230144909
 40
0.1296490955065596
 40
0.1296490955065596
 40
0.1296490955065596
 40
0.1296490955065596
 10
-520.4499998139972
 20
71.65132275232145
 30
0.0
 10
-520.4499492722355
 20
71.64686148993572
 30
0.0
 10
-520.4498448201169
 20
71.63764030309162
 30
0.0
 10
-520.4496925900553
 20
71.62336996945109
 30
0.0
 10
-520.4495378009369
 20
71.60823663426416
 30
0.0
 10
-520.4493820364485
 20
71.59228195467927
 30
0.0
 10
-520.4492259638683
 20
71.57556077226796
 30
0.0
 10
-520.4490707268894
 20
71.55814072847095
 30
0.0
 10
-520.4489167585037
 20
71.54010223725166
 30
0.0
 10
-520.4488184091883
 20
71.52787932249504
 30
0.0
 10
-520.448768531426
 20
71.52167956792991
 30
0.0
 11
-520.4499998139972
 21
71.65132275232145
 31
0.0
 11
-520.4498496171492
 21
71.63793894935111
 31
0.0
 11
-520.4496966787237
 21
71.62365907940361
 31
0.0
 11
-520.4495417489638
 21
71.60851177240882
 31
0.0
 11
-520.449385650853
 21
71.59253894411594
 31
0.0
 11
-520.4492292951511
 21
71.5757950463881
 31
0.0
 11
-520.449073639761
 21
71.55834822869991
 31
0.0
 11
-520.4489197078242
 21
71.54027881890438
 31
0.0
 11
-520.448768531426
 21
71.52167956792991
 31
0.0
  0
SPLINE
  5
125
330
47
100
AcDbEntity
  8
0
  6
Continuous
 62
     3
100
AcDbSpline
210
0.0
220
0.0
230
1.0
 70
     8
 71
     3
 72
    11
 73
     7
 74
     5
 42
0.000000001
 43
0.0000000001
 44
0.00000001
 40
0.0
 40
0.0
 40
0.0
 40
0.0
 40
1.241015656805828
 40
2.850060365409155
 40
3.88142028805288
 40
5.700120029733993
 40
5.700120029733993
 40
5.700120029733993
 40
5.700120029733993
 10
-514.7499998139973
 20
71.68831398897403
 30
0.0
 10
-515.163662957408
 20
71.68562461689946
 30
0.0
 10
-516.1136630023966
 20
71.67944834314585
 30
0.0
 10
-517.4074424936874
 20
71.67104791904873
 30
0.0
 10
-518.8937793385797
 20
71.66140507182108
 30
0.0
 10
-519.8437792893002
 20
71.6552502813844
 30
0.0
 10
-520.4499998139972
 20
71.65132275232145
 30
0.0
 11
-514.7499998139973
 21
71.68831398897403
 31
0.0
 11
-515.9909892540969
 21
71.68024739126086
 31
0.0
 11
-517.6000000412345
 21
71.66979936946869
 31
0.0
 11
-518.6313382623503
 21
71.66310880135946
 31
0.0
 11
-520.4499998139972
 21
71.65132275232145
 31
0.0
  0
ENDBLK
  5
49
330
47
100
AcDbEntity
  8
0
100
AcDbBlockEnd
  0
BLOCK
  5
4C
330
4A
100
AcDbEntity
  8
0
100
AcDbBlockBegin
  2
HL905_1-WEB-Zeichnungen__2
 70
     0
 10
-531.5499998139973
 20
50.49999999997428
 30
0.0
  3
HL905_1-WEB-Zeichnungen__2
  1

  0
INSERT
  5
4B
330
4A
100
AcDbEntity
  8
0
100
AcDbBlockReference
  2
HL905-Abdeckung-flach-11217__1
 10
-531.5499998139973
 20
50.49999999997428
 30
0.0
  0
ENDBLK
  5
4D
330
4A
100
AcDbEntity
  8
0
100
AcDbBlockEnd
  0
BLOCK
  5
50
330
4E
100
AcDbEntity
  8
0
100
AcDbBlockBegin
  2
SA_Links2
 70
     0
 10
-521.000000002366
 20
112.999999999987
 30
0.0
  3
SA_Links2
  1

  0
INSERT
  5
4F
330
4E
100
AcDbEntity
  8
0
100
AcDbBlockReference
  2
HL905_1-WEB-Zeichnungen__2
 10
-531.5499998139973
 20
50.49999999997428
 30
0.0
  0
MTEXT
  5
127
330
4E
100
AcDbEntity
  8
1
 62
     1
100
AcDbMText
 10
-521.000000002366
 20
45.49999999998704
 30
0.0
 40
3.5
 41
0.0
 71
     2
 72
     1
  1
 
  7
CONVERTER_11
 73
     1
 44
1.32052821128451
  0
ENDBLK
  5
51
330
4E
100
AcDbEntity
  8
0
100
AcDbBlockEnd
  0
BLOCK
  5
53
330
52
100
AcDbEntity
  8
0
100
AcDbBlockBegin
  2
HL905-Abdeckung-flach-11217__3
 70
     0
 10
-676.550000189055
 20
50.49999999997428
 30
0.0
  3
HL905-Abdeckung-flach-11217__3
  1

  0
LINE
  5
128
330
52
100
AcDbEntity
  8
0
  6
Continuous
 62
     3
100
AcDbLine
 10
-646.050000189055
 20
151.1999999999742
 30
0.0
 11
-648.2500001890551
 21
151.1999999999742
 31
0.0
  0
LINE
  5
129
330
52
100
AcDbEntity
  8
0
  6
Continuous
 62
     3
100
AcDbLine
 10
-582.050000189055
 20
151.1999999999742
 30
0.0
 11
-579.850000189055
 21
151.1999999999742
 31
0.0
  0
LINE
  5
12A
330
52
100
AcDbEntity
  8
0
  6
Continuous
 62
     3
100
AcDbLine
 10
-582.050000189055
 20
151.1999999999742
 30
0.0
 11
-582.050000189055
 21
150.1999999999742
 31
0.0
  0
LINE
  5
12B
330
52
100
AcDbEntity
  8
0
  6
Continuous
 62
     3
100
AcDbLine
 10
-646.050000189055
 20
151.1999999999742
 30
0.0
 11
-646.050000189055
 21
150.1999999999742
 31
0.0
  0
LINE
  5
12C
330
52
100
AcDbEntity
  8
0
  6
Continuous
 62
     3
100
AcDbLine
 10
-648.2500001890551
 20
148.1999999999742
 30
0.0
 11
-579.850000189055
 21
148.1999999999742
 31
0.0
  0
LINE
  5
12D
330
52
100
AcDbEntity
  8
0
  6
Continuous
 62
     7
100
AcDbLine
 10
-645.2395347366835
 20
150.1999999999764
 30
0.0
 11
-582.8604656414266
 21
150.1999999999764
 31
0.0
  0
LINE
  5
12E
330
52
100
AcDbEntity
  8
0
  6
Continuous
 62
     7
100
AcDbLine
 10
-646.050000189055
 20
150.1999999999742
 30
0.0
 11
-645.2395347366835
 21
150.1999999999764
 31
0.0
  0
LINE
  5
12F
330
52
100
AcDbEntity
  8
0
  6
Continuous
 62
     7
100
AcDbLine
 10
-582.8604656414266
 20
150.1999999999764
 30
0.0
 11
-582.050000189055
 21
150.1999999999742
 31
0.0
  0
LINE
  5
130
330
52
100
AcDbEntity
  8
0
  6
Continuous
 62
     7
100
AcDbLine
 10
-582.050000189055
 20
150.1999999999742
 30
0.0
 11
-579.850000189055
 21
150.1999999999742
 31
0.0
  0
LINE
  5
131
330
52
100
AcDbEntity
  8
0
  6
Continuous
 62
     3
100
AcDbLine
 10
-579.850000189055
 20
150.1999999999742
 30
0.0
 11
-579.850000189055
 21
148.1999999999742
 31
0.0
  0
LINE
  5
132
330
52
100
AcDbEntity
  8
0
  6
Continuous
 62
     3
100
AcDbLine
 10
-579.850000189055
 20
155.1999999999742
 30
0.0
 11
-648.2500001890551
 21
155.1999999999742
 31
0.0
  0
LINE
  5
133
330
52
100
AcDbEntity
  8
0
  6
Continuous
 62
     7
100
AcDbLine
 10
-579.850000189055
 20
156.1999999999742
 30
0.0
 11
-648.2500001890551
 21
156.1999999999742
 31
0.0
  0
LINE
  5
134
330
52
100
AcDbEntity
  8
0
  6
Continuous
 62
     7
100
AcDbLine
 10
-648.2500001890551
 20
150.1999999999742
 30
0.0
 11
-646.050000189055
 21
150.1999999999742
 31
0.0
  0
LINE
  5
135
330
52
100
AcDbEntity
  8
0
  6
Continuous
 62
     3
100
AcDbLine
 10
-557.3917746436794
 20
60.49999999997428
 30
0.0
 11
-552.2244320345978
 21
60.49999999997428
 31
0.0
  0
LINE
  5
136
330
52
100
AcDbEntity
  8
0
  6
Continuous
 62
     3
100
AcDbLine
 10
-557.7173427981365
 20
60.49999999997428
 30
0.0
 11
-557.3917746436794
 21
60.49999999997428
 31
0.0
  0
LINE
  5
137
330
52
100
AcDbEntity
  8
0
  6
Continuous
 62
     3
100
AcDbLine
 10
-552.2244320345978
 20
60.49999999997428
 30
0.0
 11
-551.550000189055
 21
60.49999999997428
 31
0.0
  0
LINE
  5
138
330
52
100
AcDbEntity
  8
0
  6
Continuous
 62
     3
100
AcDbLine
 10
-570.850000189055
 20
78.79999999997428
 30
0.0
 11
-571.850000189055
 21
78.79999999997428
 31
0.0
  0
LINE
  5
139
330
52
100
AcDbEntity
  8
0
  6
Continuous
 62
     3
100
AcDbLine
 10
-575.850000189055
 20
78.79999999997432
 30
0.0
 11
-576.850000189055
 21
78.79999999997428
 31
0.0
  0
LINE
  5
13A
330
52
100
AcDbEntity
  8
0
  6
Continuous
 62
     3
100
AcDbLine
 10
-579.850000189055
 20
74.79999999997432
 30
0.0
 11
-579.850000189055
 21
75.79999999997428
 31
0.0
  0
LINE
  5
13B
330
52
100
AcDbEntity
  8
0
  6
Continuous
 62
     3
100
AcDbLine
 10
-579.850000189055
 20
75.79999999997428
 30
0.0
 11
-579.850000189055
 21
77.79999999997428
 31
0.0
  0
LINE
  5
13C
330
52
100
AcDbEntity
  8
0
  6
Continuous
 62
     3
100
AcDbLine
 10
-576.850000189055
 20
78.79999999997428
 30
0.0
 11
-578.850000189055
 21
78.79999999997428
 31
0.0
  0
LINE
  5
13D
330
52
100
AcDbEntity
  8
0
  6
Continuous
 62
     3
100
AcDbLine
 10
-579.850000189055
 20
69.79999999997428
 30
0.0
 11
-579.850000189055
 21
70.79999999997428
 31
0.0
  0
LINE
  5
13E
330
52
100
AcDbEntity
  8
0
  6
Continuous
 62
     3
100
AcDbLine
 10
-676.550000189055
 20
60.49999999997428
 30
0.0
 11
-675.8755683435122
 21
60.49999999997428
 31
0.0
  0
LINE
  5
13F
330
52
100
AcDbEntity
  8
0
  6
Continuous
 62
     3
100
AcDbLine
 10
-561.550000189055
 20
51.17443184551712
 30
0.0
 11
-561.550000189055
 21
50.49999999997428
 31
0.0
  0
LINE
  5
140
330
52
100
AcDbEntity
  8
0
  6
Continuous
 62
     3
100
AcDbLine
 10
-666.550000189055
 20
51.17443184551712
 30
0.0
 11
-666.550000189055
 21
50.49999999997428
 31
0.0
  0
LINE
  5
141
330
52
100
AcDbEntity
  8
0
  6
Continuous
 62
     3
100
AcDbLine
 10
-561.550000189055
 20
56.34177445459854
 30
0.0
 11
-561.550000189055
 21
56.6673426090557
 31
0.0
  0
LINE
  5
142
330
52
100
AcDbEntity
  8
0
  6
Continuous
 62
     3
100
AcDbLine
 10
-561.550000189055
 20
56.34177445459854
 30
0.0
 11
-666.550000189055
 21
56.34177445459854
 31
0.0
  0
LINE
  5
143
330
52
100
AcDbEntity
  8
0
  6
Continuous
 62
     3
100
AcDbLine
 10
-561.550000189055
 20
56.34177445459854
 30
0.0
 11
-561.550000189055
 21
51.17443184551712
 31
0.0
  0
LINE
  5
144
330
52
100
AcDbEntity
  8
0
  6
Continuous
 62
     3
100
AcDbLine
 10
-561.550000189055
 20
51.17443184551712
 30
0.0
 11
-666.550000189055
 21
51.17443184551712
 31
0.0
  0
LINE
  5
145
330
52
100
AcDbEntity
  8
0
  6
Continuous
 62
     3
100
AcDbLine
 10
-561.550000189055
 20
56.6673426090557
 30
0.0
 11
-666.550000189055
 21
56.6673426090557
 31
0.0
  0
LINE
  5
146
330
52
100
AcDbEntity
  8
0
  6
Continuous
 62
     3
100
AcDbLine
 10
-670.7082257344308
 20
60.49999999997428
 30
0.0
 11
-670.3826575799736
 21
60.49999999997428
 31
0.0
  0
LINE
  5
147
330
52
100
AcDbEntity
  8
0
  6
Continuous
 62
     3
100
AcDbLine
 10
-666.550000189055
 20
56.34177445459854
 30
0.0
 11
-666.550000189055
 21
56.6673426090557
 31
0.0
  0
LINE
  5
148
330
52
100
AcDbEntity
  8
0
  6
Continuous
 62
     3
100
AcDbLine
 10
-666.550000189055
 20
56.34177445459854
 30
0.0
 11
-666.550000189055
 21
51.17443184551712
 31
0.0
  0
LINE
  5
149
330
52
100
AcDbEntity
  8
0
  6
Continuous
 62
     3
100
AcDbLine
 10
-675.8755683435122
 20
60.49999999997428
 30
0.0
 11
-670.7082257344308
 21
60.49999999997428
 31
0.0
  0
LINE
  5
14A
330
52
100
AcDbEntity
  8
0
  6
Continuous
 62
     7
100
AcDbLine
 10
-666.550000189055
 20
50.49999999997428
 30
0.0
 11
-561.550000189055
 21
50.49999999997428
 31
0.0
  0
LINE
  5
14B
330
52
100
AcDbEntity
  8
0
  6
Continuous
 62
     3
100
AcDbLine
 10
-670.7082257344308
 20
165.4999999999743
 30
0.0
 11
-675.8755683435122
 21
165.4999999999743
 31
0.0
  0
LINE
  5
14C
330
52
100
AcDbEntity
  8
0
  6
Continuous
 62
     3
100
AcDbLine
 10
-670.7082257344308
 20
165.4999999999743
 30
0.0
 11
-670.3826575799737
 21
165.4999999999743
 31
0.0
  0
LINE
  5
14D
330
52
100
AcDbEntity
  8
0
  6
Continuous
 62
     3
100
AcDbLine
 10
-675.8755683435122
 20
165.4999999999743
 30
0.0
 11
-676.550000189055
 21
165.4999999999743
 31
0.0
  0
LINE
  5
14E
330
52
100
AcDbEntity
  8
0
  6
Continuous
 62
     3
100
AcDbLine
 10
-657.2500001890551
 20
147.1999999999742
 30
0.0
 11
-659.2500001890551
 21
147.1999999999742
 31
0.0
  0
LINE
  5
14F
330
52
100
AcDbEntity
  8
0
  6
Continuous
 62
     3
100
AcDbLine
 10
-648.2500001890551
 20
151.1999999999742
 30
0.0
 11
-648.2500001890551
 21
150.1999999999742
 31
0.0
  0
LINE
  5
150
330
52
100
AcDbEntity
  8
0
  6
Continuous
 62
     3
100
AcDbLine
 10
-648.2500001890551
 20
150.1999999999742
 30
0.0
 11
-648.2500001890551
 21
148.1999999999742
 31
0.0
  0
LINE
  5
151
330
52
100
AcDbEntity
  8
0
  6
Continuous
 62
     3
100
AcDbLine
 10
-652.2500001890551
 20
147.1999999999742
 30
0.0
 11
-651.2500001890551
 21
147.1999999999742
 31
0.0
  0
LINE
  5
152
330
52
100
AcDbEntity
  8
0
  6
Continuous
 62
     3
100
AcDbLine
 10
-652.2500001890551
 20
144.9999999999743
 30
0.0
 11
-651.2500001890551
 21
144.9999999999743
 31
0.0
  0
LINE
  5
153
330
52
100
AcDbEntity
  8
0
  6
Continuous
 62
     3
100
AcDbLine
 10
-652.2500001890551
 20
147.1999999999742
 30
0.0
 11
-652.2500001890551
 21
144.9999999999743
 31
0.0
  0
LINE
  5
154
330
52
100
AcDbEntity
  8
0
  6
Continuous
 62
     3
100
AcDbLine
 10
-648.2500001890551
 20
156.1999999999742
 30
0.0
 11
-648.2500001890551
 21
155.1999999999742
 31
0.0
  0
LINE
  5
155
330
52
100
AcDbEntity
  8
0
  6
Continuous
 62
     3
100
AcDbLine
 10
-656.2500001890551
 20
147.1999999999742
 30
0.0
 11
-657.2500001890551
 21
147.1999999999742
 31
0.0
  0
LINE
  5
156
330
52
100
AcDbEntity
  8
0
  6
Continuous
 62
     3
100
AcDbLine
 10
-648.2500001890551
 20
156.1999999999742
 30
0.0
 11
-648.2500001890551
 21
158.1999999999742
 31
0.0
  0
LINE
  5
157
330
52
100
AcDbEntity
  8
0
  6
Continuous
 62
     3
100
AcDbLine
 10
-659.2500001890551
 20
147.1999999999742
 30
0.0
 11
-659.2500001890551
 21
78.79999999997428
 31
0.0
  0
LINE
  5
158
330
52
100
AcDbEntity
  8
0
  6
Continuous
 62
     3
100
AcDbLine
 10
-670.3826575799736
 20
60.49999999997428
 30
0.0
 11
-670.3826575799737
 21
165.4999999999743
 31
0.0
  0
LINE
  5
159
330
52
100
AcDbEntity
  8
0
  6
Continuous
 62
     3
100
AcDbLine
 10
-670.7082257344308
 20
60.49999999997428
 30
0.0
 11
-670.7082257344308
 21
165.4999999999743
 31
0.0
  0
LINE
  5
15A
330
52
100
AcDbEntity
  8
0
  6
Continuous
 62
     3
100
AcDbLine
 10
-675.8755683435122
 20
60.49999999997428
 30
0.0
 11
-675.8755683435122
 21
165.4999999999743
 31
0.0
  0
LINE
  5
15B
330
52
100
AcDbEntity
  8
0
  6
Continuous
 62
     7
100
AcDbLine
 10
-676.550000189055
 20
60.49999999997428
 30
0.0
 11
-676.550000189055
 21
165.4999999999743
 31
0.0
  0
LINE
  5
15C
330
52
100
AcDbEntity
  8
0
  6
Continuous
 62
     3
100
AcDbLine
 10
-659.2500001890551
 20
78.79999999997428
 30
0.0
 11
-657.2500001890551
 21
78.79999999997428
 31
0.0
  0
LINE
  5
15D
330
52
100
AcDbEntity
  8
0
  6
Continuous
 62
     7
100
AcDbLine
 10
-657.2500001890551
 20
147.1999999999742
 30
0.0
 11
-657.2500001890551
 21
78.79999999997428
 31
0.0
  0
LINE
  5
15E
330
52
100
AcDbEntity
  8
0
  6
Continuous
 62
     3
100
AcDbLine
 10
-656.2500001890551
 20
78.79999999997428
 30
0.0
 11
-657.2500001890551
 21
78.79999999997428
 31
0.0
  0
LINE
  5
15F
330
52
100
AcDbEntity
  8
0
  6
Continuous
 62
     3
100
AcDbLine
 10
-652.2500001890551
 20
80.9999999999743
 30
0.0
 11
-651.2500001890551
 21
80.9999999999743
 31
0.0
  0
LINE
  5
160
330
52
100
AcDbEntity
  8
0
  6
Continuous
 62
     3
100
AcDbLine
 10
-652.2500001890551
 20
78.79999999997432
 30
0.0
 11
-651.2500001890551
 21
78.79999999997428
 31
0.0
  0
LINE
  5
161
330
52
100
AcDbEntity
  8
0
  6
Continuous
 62
     3
100
AcDbLine
 10
-652.2500001890551
 20
78.79999999997432
 30
0.0
 11
-652.2500001890551
 21
80.9999999999743
 31
0.0
  0
LINE
  5
162
330
52
100
AcDbEntity
  8
0
  6
Continuous
 62
     3
100
AcDbLine
 10
-656.2500001890551
 20
78.79999999997428
 30
0.0
 11
-656.2500001890551
 21
147.1999999999742
 31
0.0
  0
LINE
  5
163
330
52
100
AcDbEntity
  8
0
  6
Continuous
 62
     3
100
AcDbLine
 10
-648.2500001890551
 20
75.79999999997428
 30
0.0
 11
-648.2500001890551
 21
77.79999999997428
 31
0.0
  0
LINE
  5
164
330
52
100
AcDbEntity
  8
0
  6
Continuous
 62
     7
100
AcDbLine
 10
-651.2500001890551
 20
81.81046545234868
 30
0.0
 11
-651.2500001890551
 21
144.1895345476073
 31
0.0
  0
LINE
  5
165
330
52
100
AcDbEntity
  8
0
  6
Continuous
 62
     7
100
AcDbLine
 10
-651.2500001890551
 20
144.1895345476073
 30
0.0
 11
-651.2500001890551
 21
144.9999999999743
 31
0.0
  0
LINE
  5
166
330
52
100
AcDbEntity
  8
0
  6
Continuous
 62
     7
100
AcDbLine
 10
-651.2500001890551
 20
80.9999999999743
 30
0.0
 11
-651.2500001890551
 21
81.81046545234868
 31
0.0
  0
LINE
  5
167
330
52
100
AcDbEntity
  8
0
  6
Continuous
 62
     7
100
AcDbLine
 10
-651.2500001890551
 20
78.79999999997428
 30
0.0
 11
-651.2500001890551
 21
80.9999999999743
 31
0.0
  0
LINE
  5
168
330
52
100
AcDbEntity
  8
0
  6
Continuous
 62
     7
100
AcDbLine
 10
-651.2500001890551
 20
144.9999999999743
 30
0.0
 11
-651.2500001890551
 21
147.1999999999742
 31
0.0
  0
LINE
  5
169
330
52
100
AcDbEntity
  8
0
  6
Continuous
 62
     3
100
AcDbLine
 10
-649.2500001890551
 20
78.79999999997428
 30
0.0
 11
-649.2500001890551
 21
147.1999999999742
 31
0.0
  0
LINE
  5
16A
330
52
100
AcDbEntity
  8
0
  6
Continuous
 62
     3
100
AcDbLine
 10
-651.2500001890551
 20
78.79999999997428
 30
0.0
 11
-649.2500001890551
 21
78.79999999997428
 31
0.0
  0
LINE
  5
16B
330
52
100
AcDbEntity
  8
0
  6
Continuous
 62
     3
100
AcDbLine
 10
-651.2500001890551
 20
147.1999999999742
 30
0.0
 11
-649.2500001890551
 21
147.1999999999742
 31
0.0
  0
LINE
  5
16C
330
52
100
AcDbEntity
  8
0
  6
Continuous
 62
     3
100
AcDbLine
 10
-648.2500001890551
 20
74.79999999997432
 30
0.0
 11
-648.2500001890551
 21
75.79999999997428
 31
0.0
  0
LINE
  5
16D
330
52
100
AcDbEntity
  8
0
  6
Continuous
 62
     3
100
AcDbLine
 10
-582.050000189055
 20
74.79999999997432
 30
0.0
 11
-579.850000189055
 21
74.79999999997432
 31
0.0
  0
LINE
  5
16E
330
52
100
AcDbEntity
  8
0
  6
Continuous
 62
     3
100
AcDbLine
 10
-582.050000189055
 20
74.79999999997432
 30
0.0
 11
-582.050000189055
 21
75.79999999997432
 31
0.0
  0
LINE
  5
16F
330
52
100
AcDbEntity
  8
0
  6
Continuous
 62
     3
100
AcDbLine
 10
-646.050000189055
 20
74.79999999997432
 30
0.0
 11
-646.050000189055
 21
75.79999999997432
 31
0.0
  0
LINE
  5
170
330
52
100
AcDbEntity
  8
0
  6
Continuous
 62
     3
100
AcDbLine
 10
-648.2500001890551
 20
77.79999999997428
 30
0.0
 11
-579.850000189055
 21
77.79999999997428
 31
0.0
  0
LINE
  5
171
330
52
100
AcDbEntity
  8
0
  6
Continuous
 62
     7
100
AcDbLine
 10
-646.050000189055
 20
75.79999999997432
 30
0.0
 11
-645.2395347366835
 21
75.79999999997207
 31
0.0
  0
LINE
  5
172
330
52
100
AcDbEntity
  8
0
  6
Continuous
 62
     7
100
AcDbLine
 10
-645.2395347366835
 20
75.79999999997207
 30
0.0
 11
-582.8604656414266
 21
75.79999999997212
 31
0.0
  0
LINE
  5
173
330
52
100
AcDbEntity
  8
0
  6
Continuous
 62
     7
100
AcDbLine
 10
-648.2500001890551
 20
75.79999999997428
 30
0.0
 11
-646.050000189055
 21
75.79999999997432
 31
0.0
  0
LINE
  5
174
330
52
100
AcDbEntity
  8
0
  6
Continuous
 62
     7
100
AcDbLine
 10
-582.8604656414266
 20
75.79999999997212
 30
0.0
 11
-582.050000189055
 21
75.79999999997432
 31
0.0
  0
LINE
  5
175
330
52
100
AcDbEntity
  8
0
  6
Continuous
 62
     7
100
AcDbLine
 10
-582.050000189055
 20
75.79999999997432
 30
0.0
 11
-579.850000189055
 21
75.79999999997428
 31
0.0
  0
LINE
  5
176
330
52
100
AcDbEntity
  8
0
  6
Continuous
 62
     7
100
AcDbLine
 10
-579.850000189055
 20
69.79999999997428
 30
0.0
 11
-648.2500001890551
 21
69.79999999997428
 31
0.0
  0
LINE
  5
177
330
52
100
AcDbEntity
  8
0
  6
Continuous
 62
     3
100
AcDbLine
 10
-648.2500001890551
 20
67.79999999997428
 30
0.0
 11
-648.2500001890551
 21
69.79999999997428
 31
0.0
  0
LINE
  5
178
330
52
100
AcDbEntity
  8
0
  6
Continuous
 62
     3
100
AcDbLine
 10
-579.850000189055
 20
67.79999999997428
 30
0.0
 11
-579.850000189055
 21
69.79999999997428
 31
0.0
  0
LINE
  5
179
330
52
100
AcDbEntity
  8
0
  6
Continuous
 62
     3
100
AcDbLine
 10
-648.2500001890551
 20
70.79999999997428
 30
0.0
 11
-648.2500001890551
 21
69.79999999997428
 31
0.0
  0
LINE
  5
17A
330
52
100
AcDbEntity
  8
0
  6
Continuous
 62
     3
100
AcDbLine
 10
-579.850000189055
 20
70.79999999997428
 30
0.0
 11
-648.2500001890551
 21
70.79999999997428
 31
0.0
  0
LINE
  5
17B
330
52
100
AcDbEntity
  8
0
  6
Continuous
 62
     3
100
AcDbLine
 10
-579.850000189055
 20
67.79999999997428
 30
0.0
 11
-648.2500001890551
 21
67.79999999997428
 31
0.0
  0
LINE
  5
17C
330
52
100
AcDbEntity
  8
0
  6
Continuous
 62
     3
100
AcDbLine
 10
-646.050000189055
 20
74.79999999997432
 30
0.0
 11
-648.2500001890551
 21
74.79999999997432
 31
0.0
  0
LINE
  5
17D
330
52
100
AcDbEntity
  8
0
  6
Continuous
 62
     3
100
AcDbLine
 10
-666.550000189055
 20
174.8255681544314
 30
0.0
 11
-666.550000189055
 21
175.4999999999743
 31
0.0
  0
LINE
  5
17E
330
52
100
AcDbEntity
  8
0
  6
Continuous
 62
     3
100
AcDbLine
 10
-561.550000189055
 20
169.3326573908928
 30
0.0
 11
-561.550000189055
 21
169.65822554535
 31
0.0
  0
LINE
  5
17F
330
52
100
AcDbEntity
  8
0
  6
Continuous
 62
     3
100
AcDbLine
 10
-666.550000189055
 20
169.65822554535
 30
0.0
 11
-666.550000189055
 21
169.3326573908929
 31
0.0
  0
LINE
  5
180
330
52
100
AcDbEntity
  8
0
  6
Continuous
 62
     3
100
AcDbLine
 10
-561.550000189055
 20
169.65822554535
 30
0.0
 11
-561.550000189055
 21
174.8255681544314
 31
0.0
  0
LINE
  5
181
330
52
100
AcDbEntity
  8
0
  6
Continuous
 62
     3
100
AcDbLine
 10
-561.550000189055
 20
169.65822554535
 30
0.0
 11
-666.550000189055
 21
169.65822554535
 31
0.0
  0
LINE
  5
182
330
52
100
AcDbEntity
  8
0
  6
Continuous
 62
     3
100
AcDbLine
 10
-666.550000189055
 20
169.65822554535
 30
0.0
 11
-666.550000189055
 21
174.8255681544314
 31
0.0
  0
LINE
  5
183
330
52
100
AcDbEntity
  8
0
  6
Continuous
 62
     3
100
AcDbLine
 10
-579.850000189055
 20
158.1999999999742
 30
0.0
 11
-648.2500001890551
 21
158.1999999999742
 31
0.0
  0
LINE
  5
184
330
52
100
AcDbEntity
  8
0
  6
Continuous
 62
     3
100
AcDbLine
 10
-561.550000189055
 20
169.3326573908928
 30
0.0
 11
-666.550000189055
 21
169.3326573908929
 31
0.0
  0
LINE
  5
185
330
52
100
AcDbEntity
  8
0
  6
Continuous
 62
     3
100
AcDbLine
 10
-561.550000189055
 20
174.8255681544314
 30
0.0
 11
-666.550000189055
 21
174.8255681544314
 31
0.0
  0
LINE
  5
186
330
52
100
AcDbEntity
  8
0
  6
Continuous
 62
     7
100
AcDbLine
 10
-561.550000189055
 20
175.4999999999743
 30
0.0
 11
-666.550000189055
 21
175.4999999999743
 31
0.0
  0
LINE
  5
187
330
52
100
AcDbEntity
  8
0
  6
Continuous
 62
     3
100
AcDbLine
 10
-575.850000189055
 20
80.9999999999743
 30
0.0
 11
-576.850000189055
 21
80.9999999999743
 31
0.0
  0
LINE
  5
188
330
52
100
AcDbEntity
  8
0
  6
Continuous
 62
     3
100
AcDbLine
 10
-575.850000189055
 20
144.9999999999743
 30
0.0
 11
-576.850000189055
 21
144.9999999999743
 31
0.0
  0
LINE
  5
189
330
52
100
AcDbEntity
  8
0
  6
Continuous
 62
     3
100
AcDbLine
 10
-575.850000189055
 20
78.79999999997432
 30
0.0
 11
-575.850000189055
 21
80.9999999999743
 31
0.0
  0
LINE
  5
18A
330
52
100
AcDbEntity
  8
0
  6
Continuous
 62
     3
100
AcDbLine
 10
-575.850000189055
 20
147.1999999999742
 30
0.0
 11
-575.850000189055
 21
144.9999999999743
 31
0.0
  0
LINE
  5
18B
330
52
100
AcDbEntity
  8
0
  6
Continuous
 62
     7
100
AcDbLine
 10
-576.850000189055
 20
80.9999999999743
 30
0.0
 11
-576.850000189055
 21
81.81046545234867
 31
0.0
  0
LINE
  5
18C
330
52
100
AcDbEntity
  8
0
  6
Continuous
 62
     7
100
AcDbLine
 10
-576.850000189055
 20
81.81046545234867
 30
0.0
 11
-576.850000189055
 21
144.1895345475999
 31
0.0
  0
LINE
  5
18D
330
52
100
AcDbEntity
  8
0
  6
Continuous
 62
     7
100
AcDbLine
 10
-576.850000189055
 20
78.79999999997428
 30
0.0
 11
-576.850000189055
 21
80.9999999999743
 31
0.0
  0
LINE
  5
18E
330
52
100
AcDbEntity
  8
0
  6
Continuous
 62
     7
100
AcDbLine
 10
-576.850000189055
 20
144.1895345475999
 30
0.0
 11
-576.850000189055
 21
144.9999999999743
 31
0.0
  0
LINE
  5
18F
330
52
100
AcDbEntity
  8
0
  6
Continuous
 62
     7
100
AcDbLine
 10
-576.850000189055
 20
144.9999999999743
 30
0.0
 11
-576.850000189055
 21
147.1999999999742
 31
0.0
  0
LINE
  5
190
330
52
100
AcDbEntity
  8
0
  6
Continuous
 62
     3
100
AcDbLine
 10
-578.850000189055
 20
78.79999999997428
 30
0.0
 11
-578.850000189055
 21
147.1999999999742
 31
0.0
  0
LINE
  5
191
330
52
100
AcDbEntity
  8
0
  6
Continuous
 62
     3
100
AcDbLine
 10
-552.2244320345978
 20
165.4999999999743
 30
0.0
 11
-551.550000189055
 21
165.4999999999743
 31
0.0
  0
LINE
  5
192
330
52
100
AcDbEntity
  8
0
  6
Continuous
 62
     3
100
AcDbLine
 10
-552.2244320345978
 20
165.4999999999743
 30
0.0
 11
-557.3917746436794
 21
165.4999999999743
 31
0.0
  0
LINE
  5
193
330
52
100
AcDbEntity
  8
0
  6
Continuous
 62
     3
100
AcDbLine
 10
-557.7173427981365
 20
165.4999999999743
 30
0.0
 11
-557.3917746436794
 21
165.4999999999743
 31
0.0
  0
LINE
  5
194
330
52
100
AcDbEntity
  8
0
  6
Continuous
 62
     3
100
AcDbLine
 10
-561.550000189055
 20
174.8255681544314
 30
0.0
 11
-561.550000189055
 21
175.4999999999743
 31
0.0
  0
LINE
  5
195
330
52
100
AcDbEntity
  8
0
  6
Continuous
 62
     3
100
AcDbLine
 10
-575.850000189055
 20
147.1999999999742
 30
0.0
 11
-576.850000189055
 21
147.1999999999742
 31
0.0
  0
LINE
  5
196
330
52
100
AcDbEntity
  8
0
  6
Continuous
 62
     3
100
AcDbLine
 10
-579.850000189055
 20
151.1999999999742
 30
0.0
 11
-579.850000189055
 21
150.1999999999742
 31
0.0
  0
LINE
  5
197
330
52
100
AcDbEntity
  8
0
  6
Continuous
 62
     3
100
AcDbLine
 10
-576.850000189055
 20
147.1999999999742
 30
0.0
 11
-578.850000189055
 21
147.1999999999742
 31
0.0
  0
LINE
  5
198
330
52
100
AcDbEntity
  8
0
  6
Continuous
 62
     3
100
AcDbLine
 10
-579.850000189055
 20
156.1999999999742
 30
0.0
 11
-579.850000189055
 21
158.1999999999742
 31
0.0
  0
LINE
  5
199
330
52
100
AcDbEntity
  8
0
  6
Continuous
 62
     3
100
AcDbLine
 10
-570.850000189055
 20
147.1999999999742
 30
0.0
 11
-571.850000189055
 21
147.1999999999742
 31
0.0
  0
LINE
  5
19A
330
52
100
AcDbEntity
  8
0
  6
Continuous
 62
     3
100
AcDbLine
 10
-579.850000189055
 20
155.1999999999742
 30
0.0
 11
-579.850000189055
 21
156.1999999999742
 31
0.0
  0
LINE
  5
19B
330
52
100
AcDbEntity
  8
0
  6
Continuous
 62
     3
100
AcDbLine
 10
-557.3917746436794
 20
60.49999999997428
 30
0.0
 11
-557.3917746436794
 21
165.4999999999743
 31
0.0
  0
LINE
  5
19C
330
52
100
AcDbEntity
  8
0
  6
Continuous
 62
     3
100
AcDbLine
 10
-568.850000189055
 20
147.1999999999742
 30
0.0
 11
-570.850000189055
 21
147.1999999999742
 31
0.0
  0
LINE
  5
19D
330
52
100
AcDbEntity
  8
0
  6
Continuous
 62
     7
100
AcDbLine
 10
-570.850000189055
 20
147.1999999999742
 30
0.0
 11
-570.850000189055
 21
78.79999999997428
 31
0.0
  0
LINE
  5
19E
330
52
100
AcDbEntity
  8
0
  6
Continuous
 62
     3
100
AcDbLine
 10
-568.850000189055
 20
78.79999999997428
 30
0.0
 11
-570.850000189055
 21
78.79999999997428
 31
0.0
  0
LINE
  5
19F
330
52
100
AcDbEntity
  8
0
  6
Continuous
 62
     3
100
AcDbLine
 10
-568.850000189055
 20
147.1999999999742
 30
0.0
 11
-568.850000189055
 21
78.79999999997428
 31
0.0
  0
LINE
  5
1A0
330
52
100
AcDbEntity
  8
0
  6
Continuous
 62
     3
100
AcDbLine
 10
-557.7173427981365
 20
60.49999999997428
 30
0.0
 11
-557.7173427981365
 21
165.4999999999743
 31
0.0
  0
LINE
  5
1A1
330
52
100
AcDbEntity
  8
0
  6
Continuous
 62
     3
100
AcDbLine
 10
-571.850000189055
 20
78.79999999997428
 30
0.0
 11
-571.850000189055
 21
147.1999999999742
 31
0.0
  0
LINE
  5
1A2
330
52
100
AcDbEntity
  8
0
  6
Continuous
 62
     3
100
AcDbLine
 10
-552.2244320345978
 20
60.49999999997428
 30
0.0
 11
-552.2244320345978
 21
165.4999999999743
 31
0.0
  0
LINE
  5
1A3
330
52
100
AcDbEntity
  8
0
  6
Continuous
 62
     7
100
AcDbLine
 10
-551.550000189055
 20
60.49999999997428
 30
0.0
 11
-551.550000189055
 21
165.4999999999743
 31
0.0
  0
LINE
  5
1A4
330
52
100
AcDbEntity
  8
1
  6
DOT_CENTER
 62
     2
100
AcDbLine
 10
-548.443508193816
 20
112.9999999999743
 30
0.0
 11
-679.859904959782
 21
112.9999999999743
 31
0.0
  0
LINE
  5
1A5
330
52
100
AcDbEntity
  8
1
  6
DOT_CENTER
 62
     2
100
AcDbLine
 10
-614.050000189055
 20
46.8280786167457
 30
0.0
 11
-614.050000189055
 21
177.729196454875
 31
0.0
  0
ARC
  5
1A6
330
52
100
AcDbEntity
  8
0
  6
Continuous
 62
     3
100
AcDbCircle
 10
-561.550000189055
 20
60.49999999997428
 30
0.0
 40
4.158225545375736
100
AcDbArc
 50
270.0
 51
0.0
  0
ARC
  5
1A7
330
52
100
AcDbEntity
  8
0
  6
Continuous
 62
     3
100
AcDbCircle
 10
-561.550000189055
 20
60.49999999997428
 30
0.0
 40
9.325568154457159
100
AcDbArc
 50
270.0
 51
0.0
  0
ARC
  5
1A8
330
52
100
AcDbEntity
  8
0
  6
Continuous
 62
     3
100
AcDbCircle
 10
-561.550000189055
 20
60.49999999997428
 30
0.0
 40
3.832657390918577
100
AcDbArc
 50
270.0
 51
0.0
  0
ARC
  5
1A9
330
52
100
AcDbEntity
  8
0
  6
Continuous
 62
     3
100
AcDbCircle
 10
-579.850000189055
 20
78.79999999997428
 30
0.0
 40
8.0
100
AcDbArc
 50
270.0
 51
0.0
  0
ARC
  5
1AA
330
52
100
AcDbEntity
  8
0
  6
Continuous
 62
     3
100
AcDbCircle
 10
-579.850000189055
 20
78.79999999997428
 30
0.0
 40
1.0
100
AcDbArc
 50
270.0
 51
0.0
  0
ARC
  5
1AB
330
52
100
AcDbEntity
  8
0
  6
Continuous
 62
     7
100
AcDbCircle
 10
-579.850000189055
 20
78.79999999997428
 30
0.0
 40
3.0
100
AcDbArc
 50
270.0
 51
0.0
  0
ARC
  5
1AC
330
52
100
AcDbEntity
  8
0
  6
Continuous
 62
     3
100
AcDbCircle
 10
-579.850000189055
 20
78.79999999997428
 30
0.0
 40
3.999999999999957
100
AcDbArc
 50
270.0
 51
0.00000000000061
  0
ARC
  5
1AD
330
52
100
AcDbEntity
  8
0
  6
Continuous
 62
     3
100
AcDbCircle
 10
-579.850000189055
 20
78.79999999997428
 30
0.0
 40
11.0
100
AcDbArc
 50
270.0
 51
0.0
  0
ARC
  5
1AE
330
52
100
AcDbEntity
  8
0
  6
Continuous
 62
     7
100
AcDbCircle
 10
-579.850000189055
 20
78.79999999997428
 30
0.0
 40
9.0
100
AcDbArc
 50
270.0
 51
0.0
  0
ARC
  5
1AF
330
52
100
AcDbEntity
  8
0
  6
Continuous
 62
     7
100
AcDbCircle
 10
-561.550000189055
 20
60.49999999997428
 30
0.0
 40
10.0
100
AcDbArc
 50
270.0
 51
0.0
  0
ARC
  5
1B0
330
52
100
AcDbEntity
  8
0
  6
Continuous
 62
     3
100
AcDbCircle
 10
-666.550000189055
 20
60.49999999997428
 30
0.0
 40
4.158225545375785
100
AcDbArc
 50
180.0
 51
270.0
  0
ARC
  5
1B1
330
52
100
AcDbEntity
  8
0
  6
Continuous
 62
     3
100
AcDbCircle
 10
-666.550000189055
 20
60.49999999997428
 30
0.0
 40
9.325568154457187
100
AcDbArc
 50
180.0
 51
270.0
  0
ARC
  5
1B2
330
52
100
AcDbEntity
  8
0
  6
Continuous
 62
     3
100
AcDbCircle
 10
-666.550000189055
 20
60.49999999997428
 30
0.0
 40
3.832657390918598
100
AcDbArc
 50
180.0
 51
270.0
  0
ARC
  5
1B3
330
52
100
AcDbEntity
  8
0
  6
Continuous
 62
     7
100
AcDbCircle
 10
-666.550000189055
 20
60.49999999997428
 30
0.0
 40
10.0
100
AcDbArc
 50
180.0
 51
270.0
  0
ARC
  5
1B4
330
52
100
AcDbEntity
  8
0
  6
Continuous
 62
     3
100
AcDbCircle
 10
-666.550000189055
 20
165.4999999999743
 30
0.0
 40
4.1582255453757
100
AcDbArc
 50
90.0
 51
180.0
  0
ARC
  5
1B5
330
52
100
AcDbEntity
  8
0
  6
Continuous
 62
     3
100
AcDbCircle
 10
-666.550000189055
 20
165.4999999999743
 30
0.0
 40
9.325568154457102
100
AcDbArc
 50
90.0
 51
180.0
  0
ARC
  5
1B6
330
52
100
AcDbEntity
  8
0
  6
Continuous
 62
     3
100
AcDbCircle
 10
-666.550000189055
 20
165.4999999999743
 30
0.0
 40
3.832657390918598
100
AcDbArc
 50
90.0
 51
180.0
  0
ARC
  5
1B7
330
52
100
AcDbEntity
  8
0
  6
Continuous
 62
     3
100
AcDbCircle
 10
-648.2500001890551
 20
147.1999999999742
 30
0.0
 40
1.0
100
AcDbArc
 50
90.0
 51
180.0
  0
ARC
  5
1B8
330
52
100
AcDbEntity
  8
0
  6
Continuous
 62
     7
100
AcDbCircle
 10
-648.2500001890551
 20
147.1999999999742
 30
0.0
 40
3.0
100
AcDbArc
 50
90.0
 51
180.0
  0
ARC
  5
1B9
330
52
100
AcDbEntity
  8
0
  6
Continuous
 62
     3
100
AcDbCircle
 10
-648.2500001890551
 20
147.1999999999742
 30
0.0
 40
4.0
100
AcDbArc
 50
90.0
 51
180.0
  0
ARC
  5
1BA
330
52
100
AcDbEntity
  8
0
  6
Continuous
 62
     3
100
AcDbCircle
 10
-648.2500001890551
 20
147.1999999999742
 30
0.0
 40
8.0
100
AcDbArc
 50
90.0
 51
180.0
  0
ARC
  5
1BB
330
52
100
AcDbEntity
  8
0
  6
Continuous
 62
     3
100
AcDbCircle
 10
-648.2500001890551
 20
147.1999999999742
 30
0.0
 40
11.0
100
AcDbArc
 50
90.0
 51
180.0
  0
ARC
  5
1BC
330
52
100
AcDbEntity
  8
0
  6
Continuous
 62
     7
100
AcDbCircle
 10
-648.2500001890551
 20
147.1999999999742
 30
0.0
 40
9.0
100
AcDbArc
 50
90.0
 51
180.0
  0
ARC
  5
1BD
330
52
100
AcDbEntity
  8
0
  6
Continuous
 62
     7
100
AcDbCircle
 10
-666.550000189055
 20
165.4999999999743
 30
0.0
 40
10.0
100
AcDbArc
 50
90.0
 51
180.0
  0
ARC
  5
1BE
330
52
100
AcDbEntity
  8
0
  6
Continuous
 62
     3
100
AcDbCircle
 10
-648.2500001890551
 20
78.79999999997428
 30
0.0
 40
1.0
100
AcDbArc
 50
180.0
 51
270.0
  0
ARC
  5
1BF
330
52
100
AcDbEntity
  8
0
  6
Continuous
 62
     3
100
AcDbCircle
 10
-648.2500001890551
 20
78.79999999997428
 30
0.0
 40
8.0
100
AcDbArc
 50
180.0
 51
270.0
  0
ARC
  5
1C0
330
52
100
AcDbEntity
  8
0
  6
Continuous
 62
     7
100
AcDbCircle
 10
-648.2500001890551
 20
78.79999999997428
 30
0.0
 40
3.0
100
AcDbArc
 50
180.0
 51
270.0
  0
ARC
  5
1C1
330
52
100
AcDbEntity
  8
0
  6
Continuous
 62
     3
100
AcDbCircle
 10
-648.2500001890551
 20
78.79999999997428
 30
0.0
 40
4.0
100
AcDbArc
 50
179.9999999999994
 51
270.0
  0
ARC
  5
1C2
330
52
100
AcDbEntity
  8
0
  6
Continuous
 62
     7
100
AcDbCircle
 10
-648.2500001890551
 20
78.79999999997428
 30
0.0
 40
9.0
100
AcDbArc
 50
180.0
 51
270.0
  0
ARC
  5
1C3
330
52
100
AcDbEntity
  8
0
  6
Continuous
 62
     3
100
AcDbCircle
 10
-561.550000189055
 20
165.4999999999743
 30
0.0
 40
9.325568154457187
100
AcDbArc
 50
0.0
 51
90.0
  0
ARC
  5
1C4
330
52
100
AcDbEntity
  8
0
  6
Continuous
 62
     3
100
AcDbCircle
 10
-561.550000189055
 20
165.4999999999743
 30
0.0
 40
4.158225545375672
100
AcDbArc
 50
0.0
 51
90.0
  0
ARC
  5
1C5
330
52
100
AcDbEntity
  8
0
  6
Continuous
 62
     3
100
AcDbCircle
 10
-579.850000189055
 20
147.1999999999742
 30
0.0
 40
1.0
100
AcDbArc
 50
0.0
 51
90.0
  0
ARC
  5
1C6
330
52
100
AcDbEntity
  8
0
  6
Continuous
 62
     7
100
AcDbCircle
 10
-579.850000189055
 20
147.1999999999742
 30
0.0
 40
3.0
100
AcDbArc
 50
0.0
 51
90.0
  0
ARC
  5
1C7
330
52
100
AcDbEntity
  8
0
  6
Continuous
 62
     3
100
AcDbCircle
 10
-579.850000189055
 20
147.1999999999742
 30
0.0
 40
11.0
100
AcDbArc
 50
0.0
 51
90.0
  0
ARC
  5
1C8
330
52
100
AcDbEntity
  8
0
  6
Continuous
 62
     3
100
AcDbCircle
 10
-561.550000189055
 20
165.4999999999743
 30
0.0
 40
3.832657390918484
100
AcDbArc
 50
0.0
 51
90.0
  0
ARC
  5
1C9
330
52
100
AcDbEntity
  8
0
  6
Continuous
 62
     3
100
AcDbCircle
 10
-579.850000189055
 20
147.1999999999742
 30
0.0
 40
4.0
100
AcDbArc
 50
0.0
 51
90.0
  0
ARC
  5
1CA
330
52
100
AcDbEntity
  8
0
  6
Continuous
 62
     3
100
AcDbCircle
 10
-579.850000189055
 20
147.1999999999742
 30
0.0
 40
8.0
100
AcDbArc
 50
0.0
 51
90.0
  0
ARC
  5
1CB
330
52
100
AcDbEntity
  8
0
  6
Continuous
 62
     7
100
AcDbCircle
 10
-561.550000189055
 20
165.4999999999743
 30
0.0
 40
10.0
100
AcDbArc
 50
0.0
 51
90.0
  0
ARC
  5
1CC
330
52
100
AcDbEntity
  8
0
  6
Continuous
 62
     7
100
AcDbCircle
 10
-579.850000189055
 20
147.1999999999742
 30
0.0
 40
9.0
100
AcDbArc
 50
0.0
 51
90.0
  0
ARC
  5
1CD
330
52
100
AcDbEntity
  8
0
  6
Continuous
 62
     3
100
AcDbCircle
 10
-648.2500001890551
 20
78.79999999997428
 30
0.0
 40
11.0
100
AcDbArc
 50
180.0
 51
270.0
  0
SPLINE
  5
1CE
330
52
100
AcDbEntity
  8
0
  6
Continuous
 62
     7
100
AcDbSpline
210
0.0
220
0.0
230
1.0
 70
     8
 71
     3
 72
    13
 73
     9
 74
     7
 42
0.000000001
 43
0.0000000001
 44
0.00000001
 40
0.0
 40
0.0
 40
0.0
 40
0.0
 40
0.3227298371483511
 40
0.6457343972545357
 40
0.8062642801226351
 40
0.9683300897161382
 40
1.127986378116163
 40
1.292662092472391
 40
1.292662092472391
 40
1.292662092472391
 40
1.292662092472391
 10
-582.050000189055
 20
151.1999999999742
 30
0.0
 10
-582.1260701019061
 20
151.1239340576201
 30
0.0
 10
-582.2782746721963
 20
150.9717374123824
 30
0.0
 10
-582.4608409885851
 20
150.774269831454
 30
0.0
 10
-582.5975530108464
 20
150.6079691726115
 30
0.0
 10
-582.6933039480953
 20
150.4787885945152
 30
0.0
 10
-582.7829436350296
 20
150.3434721975296
 30
0.0
 10
-582.8343597349941
 20
150.2483149589393
 30
0.0
 10
-582.8604656414266
 20
150.1999999999764
 30
0.0
 11
-582.050000189055
 21
151.1999999999742
 31
0.0
 11
-582.2767142427466
 21
150.9703148168909
 31
0.0
 11
-582.4944644444229
 21
150.7317424033397
 31
0.0
 11
-582.5961725218702
 21
150.6075437294934
 31
0.0
 11
-582.6926184547438
 21
150.4772996929679
 31
0.0
 11
-582.7799937572414
 21
150.3436745180723
 31
0.0
 11
-582.8604656414266
 21
150.1999999999764
 31
0.0
  0
SPLINE
  5
1CF
330
52
100
AcDbEntity
  8
0
  6
Continuous
 62
     7
100
AcDbSpline
210
0.0
220
0.0
230
1.0
 70
     8
 71
     3
 72
    13
 73
     9
 74
     7
 42
0.000000001
 43
0.0000000001
 44
0.00000001
 40
0.0
 40
0.0
 40
0.0
 40
0.0
 40
0.164675714324746
 40
0.324332002756319
 40
0.4863978123754426
 40
0.6469276952181433
 40
0.9699322551926015
 40
1.292662092472402
 40
1.292662092472402
 40
1.292662092472402
 40
1.292662092472402
 10
-645.2395347366835
 20
150.1999999999764
 30
0.0
 10
-645.2656406431109
 20
150.2483149589302
 30
0.0
 10
-645.3170567430748
 20
150.3434721975206
 30
0.0
 10
-645.4066964300133
 20
150.4787885945139
 30
0.0
 10
-645.5024473672693
 20
150.6079691726181
 30
0.0
 10
-645.639159389503
 20
150.7742698314264
 30
0.0
 10
-645.8217257058828
 20
150.9717374123516
 30
0.0
 10
-645.9739302761728
 20
151.1239340575891
 30
0.0
 10
-646.050000189055
 20
151.1999999999742
 30
0.0
 11
-645.2395347366835
 21
150.1999999999764
 31
0.0
 11
-645.3200066208523
 21
150.3436745180454
 31
0.0
 11
-645.4073819233664
 21
150.4772996929679
 31
0.0
 11
-645.5038278562558
 21
150.6075437295135
 31
0.0
 11
-645.6055359336875
 21
150.7317424033398
 31
0.0
 11
-645.8232861352723
 21
150.9703148167962
 31
0.0
 11
-646.050000189055
 21
151.1999999999742
 31
0.0
  0
SPLINE
  5
1D0
330
52
100
AcDbEntity
  8
0
  6
Continuous
 62
     7
100
AcDbSpline
210
0.0
220
0.0
230
1.0
 70
     8
 71
     3
 72
    13
 73
     9
 74
     7
 42
0.000000001
 43
0.0000000001
 44
0.00000001
 40
0.0
 40
0.0
 40
0.0
 40
0.0
 40
0.3227298372780119
 40
0.6457343972540286
 40
0.8062642801047504
 40
0.9683300897162307
 40
1.127986378143472
 40
1.29266209247207
 40
1.29266209247207
 40
1.29266209247207
 40
1.29266209247207
 10
-652.2500001890551
 20
144.9999999999743
 30
0.0
 10
-652.1739342466702
 20
144.9239300870925
 30
0.0
 10
-652.021737601433
 20
144.7717255168026
 30
0.0
 10
-651.8242700205057
 20
144.5891592004211
 30
0.0
 10
-651.6579693616973
 20
144.4524471781866
 30
0.0
 10
-651.5287887835937
 20
144.3566962409321
 30
0.0
 10
-651.3934723866031
 20
144.2670565539946
 30
0.0
 10
-651.2983151480108
 20
144.2156404540336
 30
0.0
 10
-651.2500001890551
 20
144.1895345476073
 30
0.0
 11
-652.2500001890551
 21
144.9999999999743
 31
0.0
 11
-652.0203150058783
 21
144.7732859461929
 31
0.0
 11
-651.7817425924209
 21
144.5555357446069
 31
0.0
 11
-651.6575439185883
 21
144.4538276671702
 31
0.0
 11
-651.5272998820487
 21
144.3573817342856
 31
0.0
 11
-651.3936747071295
 21
144.2700064317742
 31
0.0
 11
-651.2500001890551
 21
144.1895345476073
 31
0.0
  0
SPLINE
  5
1D1
330
52
100
AcDbEntity
  8
0
  6
Continuous
 62
     7
100
AcDbSpline
210
0.0
220
0.0
230
1.0
 70
     8
 71
     3
 72
    13
 73
     9
 74
     7
 42
0.000000001
 43
0.0000000001
 44
0.00000001
 40
0.0
 40
0.0
 40
0.0
 40
0.0
 40
0.1646757143294031
 40
0.3243320027594844
 40
0.4863978123713419
 40
0.6469276952218137
 40
0.9699322552628715
 40
1.292662092475702
 40
1.292662092475702
 40
1.292662092475702
 40
1.292662092475702
 10
-651.2500001890551
 20
81.81046545234868
 30
0.0
 10
-651.29831514801
 20
81.78435954592021
 30
0.0
 10
-651.3934723866009
 20
81.73294344595472
 30
0.0
 10
-651.528788783593
 20
81.64330375901719
 30
0.0
 10
-651.6579693616972
 20
81.54755282176166
 30
0.0
 10
-651.824270020523
 20
81.41084079951372
 30
0.0
 10
-652.021737601448
 20
81.22827448313045
 30
0.0
 10
-652.1739342466858
 20
81.07606991284072
 30
0.0
 10
-652.2500001890551
 20
80.9999999999743
 30
0.0
 11
-651.2500001890551
 21
81.81046545234868
 31
0.0
 11
-651.3936747071275
 21
81.7299935681765
 31
0.0
 11
-651.5272998820487
 21
81.64261826566302
 31
0.0
 11
-651.6575439185885
 21
81.54617233277813
 31
0.0
 11
-651.781742592421
 21
81.44446425534163
 31
0.0
 11
-652.0203150059252
 21
81.22671405371055
 31
0.0
 11
-652.2500001890551
 21
80.9999999999743
 31
0.0
  0
SPLINE
  5
1D2
330
52
100
AcDbEntity
  8
0
  6
Continuous
 62
     7
100
AcDbSpline
210
0.0
220
0.0
230
1.0
 70
     8
 71
     3
 72
    13
 73
     9
 74
     7
 42
0.000000001
 43
0.0000000001
 44
0.00000001
 40
0.0
 40
0.0
 40
0.0
 40
0.0
 40
0.3227298370687484
 40
0.6457343972542187
 40
0.8062642801242758
 40
0.9683300897160623
 40
1.12798637813259
 40
1.292662092472291
 40
1.292662092472291
 40
1.292662092472291
 40
1.292662092472291
 10
-646.050000189055
 20
74.79999999997432
 30
0.0
 10
-645.9739302762225
 20
74.87606594230968
 30
0.0
 10
-645.8217257059325
 20
75.02826258754733
 30
0.0
 10
-645.6391593895419
 20
75.22573016847454
 30
0.0
 10
-645.5024473672634
 20
75.39203082733749
 30
0.0
 10
-645.4066964300115
 20
75.52121140543828
 30
0.0
 10
-645.3170567430775
 20
75.65652780242362
 30
0.0
 10
-645.2656406431133
 20
75.75168504101399
 30
0.0
 10
-645.2395347366835
 20
75.79999999997207
 30
0.0
 11
-646.050000189055
 21
74.79999999997432
 31
0.0
 11
-645.8232861354187
 21
75.02968518300031
 31
0.0
 11
-645.6055359336875
 21
75.26825759660875
 31
0.0
 11
-645.5038278562389
 21
75.39245627045653
 31
0.0
 11
-645.4073819233664
 21
75.52270030698065
 31
0.0
 11
-645.3200066208601
 21
75.65632548189035
 31
0.0
 11
-645.2395347366835
 21
75.79999999997207
 31
0.0
  0
SPLINE
  5
1D3
330
52
100
AcDbEntity
  8
0
  6
Continuous
 62
     7
100
AcDbSpline
210
0.0
220
0.0
230
1.0
 70
     8
 71
     3
 72
    13
 73
     9
 74
     7
 42
0.000000001
 43
0.0000000001
 44
0.00000001
 40
0.0
 40
0.0
 40
0.0
 40
0.0
 40
0.1646757143283749
 40
0.3243320027561903
 40
0.4863978123579686
 40
0.6469276952180341
 40
0.9699322552759884
 40
1.292662092472387
 40
1.292662092472387
 40
1.292662092472387
 40
1.292662092472387
 10
-582.8604656414266
 20
75.79999999997212
 30
0.0
 10
-582.8343597349987
 20
75.75168504101728
 30
0.0
 10
-582.7829436350346
 20
75.65652780242684
 30
0.0
 10
-582.6933039480992
 20
75.52121140543854
 30
0.0
 10
-582.5975530108448
 20
75.39203082733489
 30
0.0
 10
-582.460840988593
 20
75.22573016850495
 30
0.0
 10
-582.2782746722075
 20
75.02826258757736
 30
0.0
 10
-582.1260701019177
 20
74.87606594233978
 30
0.0
 10
-582.050000189055
 20
74.79999999997432
 30
0.0
 11
-582.8604656414266
 21
75.79999999997212
 31
0.0
 11
-582.779993757256
 21
75.6563254819
 31
0.0
 11
-582.6926184547438
 21
75.52270030698068
 31
0.0
 11
-582.5961725218651
 21
75.39245627044868
 31
0.0
 11
-582.4944644444226
 21
75.26825759660878
 31
0.0
 11
-582.2767142427799
 21
75.02968518309225
 31
0.0
 11
-582.050000189055
 21
74.79999999997432
 31
0.0
  0
SPLINE
  5
1D4
330
52
100
AcDbEntity
  8
0
  6
Continuous
 62
     7
100
AcDbSpline
210
0.0
220
0.0
230
1.0
 70
     8
 71
     3
 72
    13
 73
     9
 74
     7
 42
0.000000001
 43
0.0000000001
 44
0.00000001
 40
0.0
 40
0.0
 40
0.0
 40
0.0
 40
0.3227298370833703
 40
0.6457343972538463
 40
0.8062642801230364
 40
0.968330089716175
 40
1.127986378137487
 40
1.292662092475659
 40
1.292662092475659
 40
1.292662092475659
 40
1.292662092475659
 10
-575.850000189055
 20
80.9999999999743
 30
0.0
 10
-575.9260661313939
 20
81.07606991281018
 30
0.0
 10
-576.0782627766312
 20
81.22827448309992
 30
0.0
 10
-576.2757303575584
 20
81.41084079949056
 30
0.0
 10
-576.4420310164178
 20
81.54755282176546
 30
0.0
 10
-576.5712115945198
 20
81.64330375901886
 30
0.0
 10
-576.7065279915066
 20
81.7329434459532
 30
0.0
 10
-576.8016852300974
 20
81.78435954591875
 30
0.0
 10
-576.850000189055
 20
81.81046545234867
 30
0.0
 11
-575.850000189055
 21
80.9999999999743
 31
0.0
 11
-576.0796853720915
 21
81.22671405362082
 31
0.0
 11
-576.3182577856891
 21
81.44446425534161
 31
0.0
 11
-576.4424564595363
 21
81.54617233278961
 31
0.0
 11
-576.5727004960613
 21
81.642618265663
 31
0.0
 11
-576.706325670975
 21
81.72999356817193
 31
0.0
 11
-576.850000189055
 21
81.81046545234867
 31
0.0
  0
SPLINE
  5
1D5
330
52
100
AcDbEntity
  8
0
  6
Continuous
 62
     7
100
AcDbSpline
210
0.0
220
0.0
230
1.0
 70
     8
 71
     3
 72
    13
 73
     9
 74
     7
 42
0.000000001
 43
0.0000000001
 44
0.00000001
 40
0.0
 40
0.0
 40
0.0
 40
0.0
 40
0.1646757143334988
 40
0.3243320027592657
 40
0.4863978123511659
 40
0.6469276952217148
 40
0.9699322554558032
 40
1.292662092475679
 40
1.292662092475679
 40
1.292662092475679
 40
1.292662092475679
 10
-576.850000189055
 20
144.1895345475999
 30
0.0
 10
-576.801685230099
 20
144.215640454029
 30
0.0
 10
-576.7065279915079
 20
144.2670565539944
 30
0.0
 10
-576.5712115945215
 20
144.3566962409285
 30
0.0
 10
-576.4420310164184
 20
144.4524471781827
 30
0.0
 10
-576.2757303575424
 20
144.5891592004712
 30
0.0
 10
-576.0782627766165
 20
144.7717255168636
 30
0.0
 10
-575.9260661313787
 20
144.9239300871533
 30
0.0
 10
-575.850000189055
 20
144.9999999999743
 30
0.0
 11
-576.850000189055
 21
144.1895345475999
 31
0.0
 11
-576.706325670979
 21
144.2700064317742
 31
0.0
 11
-576.5727004960615
 21
144.3573817342855
 31
0.0
 11
-576.4424564595374
 21
144.453827667158
 31
0.0
 11
-576.3182577856892
 21
144.5555357446069
 31
0.0
 11
-576.0796853720457
 21
144.7732859463718
 31
0.0
 11
-575.850000189055
 21
144.9999999999743
 31
0.0
  0
ENDBLK
  5
54
330
52
100
AcDbEntity
  8
0
100
AcDbBlockEnd
  0
BLOCK
  5
57
330
55
100
AcDbEntity
  8
0
100
AcDbBlockBegin
  2
HL905_1-WEB-Zeichnungen__4
 70
     0
 10
-676.550000189055
 20
50.49999999997428
 30
0.0
  3
HL905_1-WEB-Zeichnungen__4
  1

  0
INSERT
  5
56
330
55
100
AcDbEntity
  8
0
100
AcDbBlockReference
  2
HL905-Abdeckung-flach-11217__3
 10
-676.550000189055
 20
50.49999999997428
 30
0.0
  0
ENDBLK
  5
58
330
55
100
AcDbEntity
  8
0
100
AcDbBlockEnd
  0
BLOCK
  5
5B
330
59
100
AcDbEntity
  8
0
100
AcDbBlockBegin
  2
Vordans2
 70
     0
 10
-614.0500001898948
 20
112.999999999987
 30
0.0
  3
Vordans2
  1

  0
INSERT
  5
5A
330
59
100
AcDbEntity
  8
0
100
AcDbBlockReference
  2
HL905_1-WEB-Zeichnungen__4
 10
-676.550000189055
 20
50.49999999997428
 30
0.0
  0
MTEXT
  5
1D6
330
59
100
AcDbEntity
  8
1
 62
     1
100
AcDbMText
 10
-614.050000189895
 20
45.49999999998704
 30
0.0
 40
3.5
 41
0.0
 71
     2
 72
     1
  1
 
  7
CONVERTER_11
 73
     1
 44
1.32052821128451
  0
DIMENSION
  5
1E1
330
59
100
AcDbEntity
  8
1
100
AcDbDimension
  2
*D7
 10
-676.550000189055
 20
18.9078932466024
 30
0.0
 11
-614.567925206674
 21
26.9078932466024
 31
0.0
 70
    32
  1
<>
 71
     5
 42
-1.0
 53
0.00013888888889
  3
ME10_DIM_10
100
AcDbAlignedDimension
 13
-551.550000189055
 23
60.49999999997428
 33
0.0
 14
-676.550000189055
 24
60.49999999997428
 34
0.0
100
AcDbRotatedDimension
  0
DIMENSION
  5
1EC
330
59
100
AcDbEntity
  8
1
100
AcDbDimension
  2
*D8
 10
-698.283870837363
 20
50.49999999997428
 30
0.0
 11
-706.283870837363
 21
113.409001528273
 31
0.0
 70
    32
  1
<>
 71
     5
 42
-1.0
 53
90.0
  3
ME10_DIM_11
100
AcDbAlignedDimension
 13
-666.550000189055
 23
175.4999999999743
 33
0.0
 14
-666.550000189055
 24
50.49999999997428
 34
0.0
 50
90.0
100
AcDbRotatedDimension
  0
ENDBLK
  5
5C
330
59
100
AcDbEntity
  8
0
100
AcDbBlockEnd
  0
BLOCK
  5
1DE
330
1D7
100
AcDbEntity
  8
0
100
AcDbBlockBegin
  2
*D7
 70
     1
 10
0.0
 20
0.0
 30
0.0
  3
*D7
  1

  0
LINE
  5
1D8
330
1D7
100
AcDbEntity
  8
1
  6
Continuous
 62
     4
100
AcDbLine
 10
-676.550000189055
 20
18.9078932466024
 30
0.0
 11
-551.550000189055
 21
18.9078932466024
 31
0.0
  0
LINE
  5
1D9
330
1D7
100
AcDbEntity
  8
1
  6
Continuous
 62
     4
100
AcDbLine
 10
-676.550000189055
 20
60.49999999997428
 30
0.0
 11
-676.550000189055
 21
16.9078932466024
 31
0.0
  0
LINE
  5
1DA
330
1D7
100
AcDbEntity
  8
1
  6
Continuous
 62
     4
100
AcDbLine
 10
-551.550000189055
 20
60.49999999997428
 30
0.0
 11
-551.550000189055
 21
16.9078932466024
 31
0.0
  0
SOLID
  5
1DB
330
1D7
100
AcDbEntity
  8
1
 62
     4
100
AcDbTrace
 10
-666.550000189055
 20
20.22441822247636
 30
0.0
 11
-666.550000189055
 21
17.59136827072844
 31
0.0
 12
-676.550000189055
 22
18.9078932466024
 32
0.0
 13
-676.550000189055
 23
18.9078932466024
 33
0.0
  0
SOLID
  5
1DC
330
1D7
100
AcDbEntity
  8
1
 62
     4
100
AcDbTrace
 10
-561.550000189055
 20
17.59136827072844
 30
0.0
 11
-561.550000189055
 21
20.22441822247636
 31
0.0
 12
-551.550000189055
 22
18.9078932466024
 32
0.0
 13
-551.550000189055
 23
18.9078932466024
 33
0.0
  0
MTEXT
  5
1DD
330
1D7
100
AcDbEntity
  8
1
 62
     1
100
AcDbMText
 10
-625.067925206674
 20
21.9078932466024
 30
0.0
 40
10.0
 41
0.0
 71
     7
 72
     1
  1
125
  7
CONVERTER_11
 11
0.9999999999970619
 21
2.424068405545306E-6
 31
0.0
 73
     1
 44
0.60024009603842
  0
ENDBLK
  5
1DF
330
1D7
100
AcDbEntity
  8
0
100
AcDbBlockEnd
  0
BLOCK
  5
1E9
330
1E2
100
AcDbEntity
  8
0
100
AcDbBlockBegin
  2
*D8
 70
     1
 10
0.0
 20
0.0
 30
0.0
  3
*D8
  1

  0
LINE
  5
1E3
330
1E2
100
AcDbEntity
  8
1
  6
Continuous
 62
     4
100
AcDbLine
 10
-698.283870837363
 20
50.49999999997428
 30
0.0
 11
-698.283870837363
 21
175.4999999999742
 31
0.0
  0
LINE
  5
1E4
330
1E2
100
AcDbEntity
  8
1
  6
Continuous
 62
     4
100
AcDbLine
 10
-666.550000189055
 20
50.49999999997428
 30
0.0
 11
-700.283870837363
 21
50.49999999997428
 31
0.0
  0
LINE
  5
1E5
330
1E2
100
AcDbEntity
  8
1
  6
Continuous
 62
     4
100
AcDbLine
 10
-666.550000189055
 20
175.4999999999742
 30
0.0
 11
-700.283870837363
 21
175.4999999999742
 31
0.0
  0
SOLID
  5
1E6
330
1E2
100
AcDbEntity
  8
1
 62
     4
100
AcDbTrace
 10
-699.6003958132369
 20
60.49999999997428
 30
0.0
 11
-696.9673458614891
 21
60.49999999997428
 31
0.0
 12
-698.283870837363
 22
50.49999999997428
 32
0.0
 13
-698.283870837363
 23
50.49999999997428
 33
0.0
  0
SOLID
  5
1E7
330
1E2
100
AcDbEntity
  8
1
 62
     4
100
AcDbTrace
 10
-696.9673458614891
 20
165.4999999999742
 30
0.0
 11
-699.6003958132369
 21
165.4999999999742
 31
0.0
 12
-698.283870837363
 22
175.4999999999742
 32
0.0
 13
-698.283870837363
 23
175.4999999999742
 33
0.0
  0
MTEXT
  5
1E8
330
1E2
100
AcDbEntity
  8
1
 62
     1
100
AcDbMText
 10
-701.283870837363
 20
102.909001528273
 30
0.0
 40
10.0
 41
0.0
 71
     7
 72
     1
  1
125
  7
CONVERTER_11
 11
0.0
 21
1.0
 31
0.0
 73
     1
 44
0.60024009603842
  0
ENDBLK
  5
1EA
330
1E2
100
AcDbEntity
  8
0
100
AcDbBlockEnd
  0
ENDSEC
  0
SECTION
  2
ENTITIES
  0
INSERT
  5
5D
330
1F
100
AcDbEntity
  8
0
100
AcDbBlockReference
  2
SA_Links2
 10
-521.000000002366
 20
112.999999999987
 30
0.0
  0
INSERT
  5
5E
330
1F
100
AcDbEntity
  8
0
100
AcDbBlockReference
  2
Vordans2
 10
-614.0500001898948
 20
112.999999999987
 30
0.0
  0
ENDSEC
  0
SECTION
  2
OBJECTS
  0
DICTIONARY
  5
C
330
0
100
AcDbDictionary
281
     1
  3
ACAD_GROUP
350
D
  3
ACAD_LAYOUT
350
1A
  3
ACAD_MATERIAL
350
3B
  3
ACAD_MLEADERSTYLE
350
1EF
  3
ACAD_MLINESTYLE
350
17
  3
ACAD_PLOTSETTINGS
350
19
  3
ACAD_PLOTSTYLENAME
350
E
  3
ACAD_VISUALSTYLE
350
2A
  3
AcDbVariableDictionary
350
1ED
  0
DICTIONARY
  5
D
102
{ACAD_REACTORS
330
C
102
}
330
C
100
AcDbDictionary
281
     1
  0
DICTIONARY
  5
1A
102
{ACAD_REACTORS
330
C
102
}
330
C
100
AcDbDictionary
281
     1
  3
Layout1
350
1E
  3
Layout2
350
26
  3
Model
350
22
  0
DICTIONARY
  5
3B
102
{ACAD_REACTORS
330
C
102
}
330
C
100
AcDbDictionary
281
     1
  3
ByBlock
350
3D
  3
ByLayer
350
3C
  3
Global
350
3E
  0
DICTIONARY
  5
1EF
102
{ACAD_REACTORS
330
C
102
}
330
C
100
AcDbDictionary
281
     1
  0
DICTIONARY
  5
17
102
{ACAD_REACTORS
330
C
102
}
330
C
100
AcDbDictionary
281
     1
  3
Standard
350
18
  0
DICTIONARY
  5
19
102
{ACAD_REACTORS
330
C
102
}
330
C
100
AcDbDictionary
281
     1
  0
ACDBDICTIONARYWDFLT
  5
E
102
{ACAD_REACTORS
330
C
102
}
330
C
100
AcDbDictionary
281
     1
  3
Normal
350
F
100
AcDbDictionaryWithDefault
340
F
  0
DICTIONARY
  5
2A
102
{ACAD_REACTORS
330
C
102
}
330
C
100
AcDbDictionary
281
     1
  3
2dWireframe
350
2F
  3
3D Hidden
350
31
  3
3dWireframe
350
30
  3
Basic
350
32
  3
Brighten
350
36
  3
ColorChange
350
3A
  3
Conceptual
350
34
  3
Dim
350
35
  3
Facepattern
350
39
  3
Flat
350
2B
  3
FlatWithEdges
350
2C
  3
Gouraud
350
2D
  3
GouraudWithEdges
350
2E
  3
Linepattern
350
38
  3
Realistic
350
33
  3
Thicken
350
37
  0
DICTIONARY
  5
1ED
102
{ACAD_REACTORS
330
C
102
}
330
C
100
AcDbDictionary
281
     1
  3
DIMASSOC
350
1F0
  3
HIDETEXT
350
1F1
  0
LAYOUT
  5
1E
102
{ACAD_REACTORS
330
1A
102
}
330
1A
100
AcDbPlotSettings
  1

  2
none_device
  4

  6

 40
0.0
 41
0.0
 42
0.0
 43
0.0
 44
0.0
 45
0.0
 46
0.0
 47
0.0
 48
0.0
 49
0.0
140
0.0
141
0.0
142
1.0
143
1.0
 70
   688
 72
     0
 73
     0
 74
     5
  7

 75
    16
147
1.0
148
0.0
149
0.0
100
AcDbLayout
  1
Layout1
 70
     1
 71
     1
 10
0.0
 20
0.0
 11
12.0
 21
9.0
 12
0.0
 22
0.0
 32
0.0
 14
1.00000000000000E+20
 24
1.00000000000000E+20
 34
1.00000000000000E+20
 15
-1.00000000000000E+20
 25
-1.00000000000000E+20
 35
-1.00000000000000E+20
146
0.0
 13
0.0
 23
0.0
 33
0.0
 16
1.0
 26
0.0
 36
0.0
 17
0.0
 27
1.0
 37
0.0
 76
     0
330
1B
  0
LAYOUT
  5
26
102
{ACAD_REACTORS
330
1A
102
}
330
1A
100
AcDbPlotSettings
  1

  2
none_device
  4

  6

 40
0.0
 41
0.0
 42
0.0
 43
0.0
 44
0.0
 45
0.0
 46
0.0
 47
0.0
 48
0.0
 49
0.0
140
0.0
141
0.0
142
1.0
143
1.0
 70
   688
 72
     0
 73
     0
 74
     5
  7

 75
    16
147
1.0
148
0.0
149
0.0
100
AcDbLayout
  1
Layout2
 70
     1
 71
     2
 10
0.0
 20
0.0
 11
0.0
 21
0.0
 12
0.0
 22
0.0
 32
0.0
 14
0.0
 24
0.0
 34
0.0
 15
0.0
 25
0.0
 35
0.0
146
0.0
 13
0.0
 23
0.0
 33
0.0
 16
1.0
 26
0.0
 36
0.0
 17
0.0
 27
1.0
 37
0.0
 76
     0
330
23
  0
LAYOUT
  5
22
102
{ACAD_REACTORS
330
1A
102
}
330
1A
100
AcDbPlotSettings
  1

  2
none_device
  4

  6

 40
0.0
 41
0.0
 42
0.0
 43
0.0
 44
0.0
 45
0.0
 46
0.0
 47
0.0
 48
0.0
 49
0.0
140
0.0
141
0.0
142
1.0
143
1.0
 70
  1712
 72
     0
 73
     0
 74
     0
  7

 75
     0
147
1.0
148
0.0
149
0.0
100
AcDbLayout
  1
Model
 70
     1
 71
     0
 10
0.0
 20
0.0
 11
12.0
 21
9.0
 12
0.0
 22
0.0
 32
0.0
 14
-711.283870837363
 24
16.9078932466024
 34
0.0
 15
-509.4544849898098
 25
177.729196454875
 35
0.0
146
0.0
 13
0.0
 23
0.0
 33
0.0
 16
1.0
 26
0.0
 36
0.0
 17
0.0
 27
1.0
 37
0.0
 76
     0
330
1F
331
29
  0
MATERIAL
  5
3D
102
{ACAD_REACTORS
330
3B
102
}
102
{ACAD_XDICTIONARY
360
214
102
}
330
3B
100
AcDbMaterial
  1
ByBlock
  0
MATERIAL
  5
3C
102
{ACAD_REACTORS
330
3B
102
}
102
{ACAD_XDICTIONARY
360
212
102
}
330
3B
100
AcDbMaterial
  1
ByLayer
  0
MATERIAL
  5
3E
102
{ACAD_REACTORS
330
3B
102
}
102
{ACAD_XDICTIONARY
360
216
102
}
330
3B
100
AcDbMaterial
  1
Global
  0
MLINESTYLE
  5
18
102
{ACAD_REACTORS
330
17
102
}
330
17
100
AcDbMlineStyle
  2
Standard
 70
     0
  3

 62
   256
 51
90.0
 52
90.0
 71
     2
 49
0.5
 62
   256
  6
BYLAYER
 49
-0.5
 62
   256
  6
BYLAYER
  0
ACDBPLACEHOLDER
  5
F
102
{ACAD_REACTORS
330
E
102
}
330
E
  0
VISUALSTYLE
  5
2F
102
{ACAD_REACTORS
330
2A
102
}
102
{ACAD_XDICTIONARY
360
1FA
102
}
330
2A
100
AcDbVisualStyle
  2
2dWireframe
 70
     4
 71
     0
 72
     2
 73
     0
 90
        0
 40
-0.6
 41
-30.0
 62
     5
 63
     7
 74
     1
 91
        4
 64
     7
 65
   257
 75
     1
175
     1
 42
1.0
 92
        0
 66
   257
 43
1.0
 76
     1
 77
     6
 78
     2
 67
     7
 79
     5
170
     0
171
     0
290
     0
174
     0
 93
        1
 44
0.0
173
     0
291
     0
 45
0.0
1001
ACAD
1000
AcDbSavedByObjectVersion
1070
     0
  0
VISUALSTYLE
  5
31
102
{ACAD_REACTORS
330
2A
102
}
102
{ACAD_XDICTIONARY
360
1FE
102
}
330
2A
100
AcDbVisualStyle
  2
3D Hidden
 70
     6
 71
     1
 72
     2
 73
     2
 90
        0
 40
-0.6
 41
-30.0
 62
     5
 63
     7
 74
     2
 91
        2
 64
     7
 65
   257
 75
     2
175
     1
 42
40.0
 92
        0
 66
   257
 43
1.0
 76
     1
 77
     6
 78
     2
 67
     7
 79
     3
170
     0
171
     0
290
     0
174
     0
 93
        1
 44
0.0
173
     0
291
     0
 45
0.0
1001
ACAD
1000
AcDbSavedByObjectVersion
1070
     0
  0
VISUALSTYLE
  5
30
102
{ACAD_REACTORS
330
2A
102
}
102
{ACAD_XDICTIONARY
360
1FC
102
}
330
2A
100
AcDbVisualStyle
  2
3dWireframe
 70
     5
 71
     0
 72
     2
 73
     0
 90
        0
 40
-0.6
 41
-30.0
 62
     5
 63
     7
 74
     1
 91
        4
 64
     7
 65
   257
 75
     1
175
     1
 42
1.0
 92
        0
 66
   257
 43
1.0
 76
     1
 77
     6
 78
     2
 67
     7
 79
     5
170
     0
171
     0
290
     0
174
     0
 93
        1
 44
0.0
173
     0
291
     0
 45
0.0
1001
ACAD
1000
AcDbSavedByObjectVersion
1070
     0
  0
VISUALSTYLE
  5
32
102
{ACAD_REACTORS
330
2A
102
}
102
{ACAD_XDICTIONARY
360
200
102
}
330
2A
100
AcDbVisualStyle
  2
Basic
 70
     7
 71
     1
 72
     0
 73
     1
 90
        0
 40
-0.6
 41
-30.0
 62
     5
 63
     7
 74
     0
 91
        4
 64
     7
 65
   257
 75
     1
175
     1
 42
1.0
 92
        8
 66
     7
 43
1.0
 76
     1
 77
     6
 78
     2
 67
     7
 79
     5
170
     0
171
     0
290
     0
174
     0
 93
        1
 44
0.0
173
     0
291
     1
 45
0.0
1001
ACAD
1000
AcDbSavedByObjectVersion
1070
     0
  0
VISUALSTYLE
  5
36
102
{ACAD_REACTORS
330
2A
102
}
102
{ACAD_XDICTIONARY
360
208
102
}
330
2A
100
AcDbVisualStyle
  2
Brighten
 70
    12
 71
     2
 72
     2
 73
     0
 90
        0
 40
-0.6
 41
-30.0
 62
     5
 63
     7
 74
     1
 91
        4
 64
     7
 65
   257
 75
     1
175
     1
 42
1.0
 92
        8
 66
     7
 43
1.0
 76
     1
 77
     6
 78
     2
 67
     7
 79
     5
170
     0
171
     0
290
     0
174
     0
 93
        1
 44
50.0
173
     0
291
     1
 45
0.0
1001
ACAD
1000
AcDbSavedByObjectVersion
1070
     0
  0
VISUALSTYLE
  5
3A
102
{ACAD_REACTORS
330
2A
102
}
102
{ACAD_XDICTIONARY
360
210
102
}
330
2A
100
AcDbVisualStyle
  2
ColorChange
 70
    16
 71
     2
 72
     2
 73
     3
 90
        0
 40
-0.6
 41
-30.0
 62
     5
 63
     8
 74
     1
 91
        4
 64
     7
 65
   257
 75
     1
175
     1
 42
1.0
 92
        8
 66
     8
 43
1.0
 76
     1
 77
     6
 78
     2
 67
     7
 79
     5
170
     0
171
     0
290
     0
174
     0
 93
        1
 44
0.0
173
     0
291
     1
 45
0.0
1001
ACAD
1000
AcDbSavedByObjectVersion
1070
     0
  0
VISUALSTYLE
  5
34
102
{ACAD_REACTORS
330
2A
102
}
102
{ACAD_XDICTIONARY
360
204
102
}
330
2A
100
AcDbVisualStyle
  2
Conceptual
 70
     9
 71
     3
 72
     2
 73
     0
 90
        0
 40
-0.6
 41
-30.0
 62
     5
 63
     7
 74
     2
 91
        2
 64
     7
 65
   257
 75
     1
175
     1
 42
40.0
 92
        8
 66
     7
 43
1.0
 76
     1
 77
     6
 78
     2
 67
     7
 79
     3
170
     0
171
     0
290
     0
174
     0
 93
        1
 44
0.0
173
     0
291
     0
 45
0.0
1001
ACAD
1000
AcDbSavedByObjectVersion
1070
     0
  0
VISUALSTYLE
  5
35
102
{ACAD_REACTORS
330
2A
102
}
102
{ACAD_XDICTIONARY
360
206
102
}
330
2A
100
AcDbVisualStyle
  2
Dim
 70
    11
 71
     2
 72
     2
 73
     0
 90
        0
 40
-0.6
 41
-30.0
 62
     5
 63
     7
 74
     1
 91
        4
 64
     7
 65
   257
 75
     1
175
     1
 42
1.0
 92
        8
 66
     7
 43
1.0
 76
     1
 77
     6
 78
     2
 67
     7
 79
     5
170
     0
171
     0
290
     0
174
     0
 93
        1
 44
-50.0
173
     0
291
     1
 45
0.0
1001
ACAD
1000
AcDbSavedByObjectVersion
1070
     0
  0
VISUALSTYLE
  5
39
102
{ACAD_REACTORS
330
2A
102
}
102
{ACAD_XDICTIONARY
360
20E
102
}
330
2A
100
AcDbVisualStyle
  2
Facepattern
 70
    15
 71
     2
 72
     2
 73
     0
 90
        0
 40
-0.6
 41
-30.0
 62
     5
 63
     7
 74
     1
 91
        4
 64
     7
 65
   257
 75
     1
175
     1
 42
1.0
 92
        8
 66
     7
 43
1.0
 76
     1
 77
     6
 78
     2
 67
     7
 79
     5
170
     0
171
     0
290
     0
174
     0
 93
        1
 44
0.0
173
     0
291
     1
 45
0.0
1001
ACAD
1000
AcDbSavedByObjectVersion
1070
     0
  0
VISUALSTYLE
  5
2B
102
{ACAD_REACTORS
330
2A
102
}
102
{ACAD_XDICTIONARY
360
1F2
102
}
330
2A
100
AcDbVisualStyle
  2
Flat
 70
     0
 71
     2
 72
     1
 73
     1
 90
        2
 40
-0.6
 41
30.0
 62
     5
 63
     7
 74
     0
 91
        4
 64
     7
 65
   257
 75
     1
175
     1
 42
1.0
 92
        8
 66
     7
 43
1.0
 76
     1
 77
     6
 78
     2
 67
     7
 79
     5
170
     0
171
     0
290
     0
174
     0
 93
       13
 44
0.0
173
     0
291
     1
 45
0.0
1001
ACAD
1000
AcDbSavedByObjectVersion
1070
     0
  0
VISUALSTYLE
  5
2C
102
{ACAD_REACTORS
330
2A
102
}
102
{ACAD_XDICTIONARY
360
1F4
102
}
330
2A
100
AcDbVisualStyle
  2
FlatWithEdges
 70
     1
 71
     2
 72
     1
 73
     1
 90
        2
 40
-0.6
 41
30.0
 62
     5
 63
     7
 74
     1
 91
        4
 64
     7
 65
   257
 75
     1
175
     1
 42
1.0
 92
        0
 66
   257
 43
1.0
 76
     1
 77
     6
 78
     2
 67
     7
 79
     5
170
     0
171
     0
290
     0
174
     0
 93
       13
 44
0.0
173
     0
291
     1
 45
0.0
1001
ACAD
1000
AcDbSavedByObjectVersion
1070
     0
  0
VISUALSTYLE
  5
2D
102
{ACAD_REACTORS
330
2A
102
}
102
{ACAD_XDICTIONARY
360
1F6
102
}
330
2A
100
AcDbVisualStyle
  2
Gouraud
 70
     2
 71
     2
 72
     2
 73
     1
 90
        2
 40
-0.6
 41
30.0
 62
     5
 63
     7
 74
     0
 91
        4
 64
     7
 65
   257
 75
     1
175
     1
 42
1.0
 92
        0
 66
     7
 43
1.0
 76
     1
 77
     6
 78
     2
 67
     7
 79
     5
170
     0
171
     0
290
     0
174
     0
 93
       13
 44
0.0
173
     0
291
     1
 45
0.0
1001
ACAD
1000
AcDbSavedByObjectVersion
1070
     0
  0
VISUALSTYLE
  5
2E
102
{ACAD_REACTORS
330
2A
102
}
102
{ACAD_XDICTIONARY
360
1F8
102
}
330
2A
100
AcDbVisualStyle
  2
GouraudWithEdges
 70
     3
 71
     2
 72
     2
 73
     1
 90
        2
 40
-0.6
 41
30.0
 62
     5
 63
     7
 74
     1
 91
        4
 64
     7
 65
   257
 75
     1
175
     1
 42
1.0
 92
        0
 66
   257
 43
1.0
 76
     1
 77
     6
 78
     2
 67
     7
 79
     5
170
     0
171
     0
290
     0
174
     0
 93
       13
 44
0.0
173
     0
291
     1
 45
0.0
1001
ACAD
1000
AcDbSavedByObjectVersion
1070
     0
  0
VISUALSTYLE
  5
38
102
{ACAD_REACTORS
330
2A
102
}
102
{ACAD_XDICTIONARY
360
20C
102
}
330
2A
100
AcDbVisualStyle
  2
Linepattern
 70
    14
 71
     2
 72
     2
 73
     0
 90
        0
 40
-0.6
 41
-30.0
 62
     5
 63
     7
 74
     1
 91
        4
 64
     7
 65
   257
 75
     7
175
     7
 42
1.0
 92
        8
 66
     7
 43
1.0
 76
     1
 77
     6
 78
     2
 67
     7
 79
     5
170
     0
171
     0
290
     0
174
     0
 93
        1
 44
0.0
173
     0
291
     1
 45
0.0
1001
ACAD
1000
AcDbSavedByObjectVersion
1070
     0
  0
VISUALSTYLE
  5
33
102
{ACAD_REACTORS
330
2A
102
}
102
{ACAD_XDICTIONARY
360
202
102
}
330
2A
100
AcDbVisualStyle
  2
Realistic
 70
     8
 71
     2
 72
     2
 73
     0
 90
        0
 40
-0.6
 41
-30.0
 62
     5
 63
     7
 74
     1
 91
        0
 64
     7
 65
   257
 75
     1
175
     1
 42
1.0
 92
        8
 66
     8
 43
1.0
 76
     1
 77
     6
 78
     2
 67
     7
 79
     5
170
     0
171
     0
290
     0
174
     0
 93
       13
 44
0.0
173
     0
291
     0
 45
0.0
1001
ACAD
1000
AcDbSavedByObjectVersion
1070
     0
  0
VISUALSTYLE
  5
37
102
{ACAD_REACTORS
330
2A
102
}
102
{ACAD_XDICTIONARY
360
20A
102
}
330
2A
100
AcDbVisualStyle
  2
Thicken
 70
    13
 71
     2
 72
     2
 73
     0
 90
        0
 40
-0.6
 41
-30.0
 62
     5
 63
     7
 74
     1
 91
        4
 64
     7
 65
   257
 75
     1
175
     1
 42
1.0
 92
       12
 66
     7
 43
1.0
 76
     1
 77
     6
 78
     2
 67
     7
 79
     5
170
     0
171
     0
290
     0
174
     0
 93
        1
 44
0.0
173
     0
291
     1
 45
0.0
1001
ACAD
1000
AcDbSavedByObjectVersion
1070
     0
  0
DICTIONARYVAR
  5
1F0
102
{ACAD_REACTORS
330
1ED
102
}
330
1ED
100
DictionaryVariables
280
     0
  1
2
  0
DICTIONARYVAR
  5
1F1
102
{ACAD_REACTORS
330
1ED
102
}
330
1ED
100
DictionaryVariables
280
     0
  1
1
  0
DICTIONARY
  5
214
330
3D
100
AcDbDictionary
280
     1
281
     1
  3
ACAD_XREC_ROUNDTRIP
360
215
  0
DICTIONARY
  5
212
330
3C
100
AcDbDictionary
280
     1
281
     1
  3
ACAD_XREC_ROUNDTRIP
360
213
  0
DICTIONARY
  5
216
330
3E
100
AcDbDictionary
280
     1
281
     1
  3
ACAD_XREC_ROUNDTRIP
360
217
  0
DICTIONARY
  5
1FA
330
2F
100
AcDbDictionary
280
     1
281
     1
  3
ACAD_XREC_ROUNDTRIP
360
1FB
  0
DICTIONARY
  5
1FE
330
31
100
AcDbDictionary
280
     1
281
     1
  3
ACAD_XREC_ROUNDTRIP
360
1FF
  0
DICTIONARY
  5
1FC
330
30
100
AcDbDictionary
280
     1
281
     1
  3
ACAD_XREC_ROUNDTRIP
360
1FD
  0
DICTIONARY
  5
200
330
32
100
AcDbDictionary
280
     1
281
     1
  3
ACAD_XREC_ROUNDTRIP
360
201
  0
DICTIONARY
  5
208
330
36
100
AcDbDictionary
280
     1
281
     1
  3
ACAD_XREC_ROUNDTRIP
360
209
  0
DICTIONARY
  5
210
330
3A
100
AcDbDictionary
280
     1
281
     1
  3
ACAD_XREC_ROUNDTRIP
360
211
  0
DICTIONARY
  5
204
330
34
100
AcDbDictionary
280
     1
281
     1
  3
ACAD_XREC_ROUNDTRIP
360
205
  0
DICTIONARY
  5
206
330
35
100
AcDbDictionary
280
     1
281
     1
  3
ACAD_XREC_ROUNDTRIP
360
207
  0
DICTIONARY
  5
20E
330
39
100
AcDbDictionary
280
     1
281
     1
  3
ACAD_XREC_ROUNDTRIP
360
20F
  0
DICTIONARY
  5
1F2
330
2B
100
AcDbDictionary
280
     1
281
     1
  3
ACAD_XREC_ROUNDTRIP
360
1F3
  0
DICTIONARY
  5
1F4
330
2C
100
AcDbDictionary
280
     1
281
     1
  3
ACAD_XREC_ROUNDTRIP
360
1F5
  0
DICTIONARY
  5
1F6
330
2D
100
AcDbDictionary
280
     1
281
     1
  3
ACAD_XREC_ROUNDTRIP
360
1F7
  0
DICTIONARY
  5
1F8
330
2E
100
AcDbDictionary
280
     1
281
     1
  3
ACAD_XREC_ROUNDTRIP
360
1F9
  0
DICTIONARY
  5
20C
330
38
100
AcDbDictionary
280
     1
281
     1
  3
ACAD_XREC_ROUNDTRIP
360
20D
  0
DICTIONARY
  5
202
330
33
100
AcDbDictionary
280
     1
281
     1
  3
ACAD_XREC_ROUNDTRIP
360
203
  0
DICTIONARY
  5
20A
330
37
100
AcDbDictionary
280
     1
281
     1
  3
ACAD_XREC_ROUNDTRIP
360
20B
  0
XRECORD
  5
215
102
{ACAD_REACTORS
330
214
102
}
330
214
100
AcDbXrecord
280
     1
102
MATERIAL
148
0.0
149
0.0
149
0.0
 93
        0
 94
      127
282
     0
 72
     1
 77
     1
171
     1
175
     1
179
     1
273
     0
  0
XRECORD
  5
213
102
{ACAD_REACTORS
330
212
102
}
330
212
100
AcDbXrecord
280
     1
102
MATERIAL
148
0.0
149
0.0
149
0.0
 93
        0
 94
      127
282
     0
 72
     1
 77
     1
171
     1
175
     1
179
     1
273
     0
  0
XRECORD
  5
217
102
{ACAD_REACTORS
330
216
102
}
330
216
100
AcDbXrecord
280
     1
102
MATERIAL
148
0.0
149
0.0
149
0.0
 93
        0
 94
      127
282
     0
 72
     1
 77
     1
171
     1
175
     1
179
     1
273
     0
  0
XRECORD
  5
1FB
102
{ACAD_REACTORS
330
1FA
102
}
330
1FA
100
AcDbXrecord
280
     1
102
RTVSPropertyOp0
 70
     1
102
RTVSPropertyOp1
 70
     1
102
RTVSPropertyOp2
 70
     1
102
RTVSPropertyOp3
 70
     1
102
RTVSPropertyOp4
 70
     1
102
RTVSPropertyOp5
 70
     1
102
RTVSPropertyOp6
 70
     1
102
RTVSPropertyOp7
 70
     1
102
RTVSPropertyOp8
 70
     1
102
RTVSPropertyOp9
 70
     1
102
RTVSPropertyOp10
 70
     1
102
RTVSPropertyOp11
 70
     1
102
RTVSPropertyOp12
 70
     1
102
RTVSPropertyOp13
 70
     1
102
RTVSPropertyOp14
 70
     1
102
RTVSPropertyOp15
 70
     1
102
RTVSPropertyOp16
 70
     1
102
RTVSPropertyOp17
 70
     1
102
RTVSPropertyOp18
 70
     1
102
RTVSPropertyOp19
 70
     1
102
RTVSPropertyOp20
 70
     1
102
RTVSPropertyOp21
 70
     1
102
RTVSPropertyOp22
 70
     1
102
RTVSPropertyOp23
 70
     1
102
RTVSPropertyOp24
 70
     1
102
RTVSPropertyOp25
 70
     1
102
RTVSPropertyOp26
 70
     1
102
RTVSPropertyOp27
 70
     1
102
RTVSPropertyOp28
 70
     1
102
RTVSPropertyOp29
 70
     1
102
RTVSPropertyOp30
 70
     1
102
RTVSPropertyOp31
 70
     1
102
RTVSPropertyOp32
 70
     1
  0
XRECORD
  5
1FF
102
{ACAD_REACTORS
330
1FE
102
}
330
1FE
100
AcDbXrecord
280
     1
102
RTVSPropertyOp0
 70
     1
102
RTVSPropertyOp1
 70
     1
102
RTVSPropertyOp2
 70
     1
102
RTVSPropertyOp3
 70
     1
102
RTVSPropertyOp4
 70
     1
102
RTVSPropertyOp5
 70
     1
102
RTVSPropertyOp6
 70
     1
102
RTVSPropertyOp7
 70
     1
102
RTVSPropertyOp8
 70
     1
102
RTVSPropertyOp9
 70
     1
102
RTVSPropertyOp10
 70
     1
102
RTVSPropertyOp11
 70
     1
102
RTVSPropertyOp12
 70
     1
102
RTVSPropertyOp13
 70
     1
102
RTVSPropertyOp14
 70
     1
102
RTVSPropertyOp15
 70
     1
102
RTVSPropertyOp16
 70
     1
102
RTVSPropertyOp17
 70
     1
102
RTVSPropertyOp18
 70
     1
102
RTVSPropertyOp19
 70
     1
102
RTVSPropertyOp20
 70
     1
102
RTVSPropertyOp21
 70
     1
102
RTVSPropertyOp22
 70
     1
102
RTVSPropertyOp23
 70
     1
102
RTVSPropertyOp24
 70
     1
102
RTVSPropertyOp25
 70
     1
102
RTVSPropertyOp26
 70
     1
102
RTVSPropertyOp27
 70
     1
102
RTVSPropertyOp28
 70
     1
102
RTVSPropertyOp29
 70
     1
102
RTVSPropertyOp30
 70
     1
102
RTVSPropertyOp31
 70
     1
102
RTVSPropertyOp32
 70
     1
  0
XRECORD
  5
1FD
102
{ACAD_REACTORS
330
1FC
102
}
330
1FC
100
AcDbXrecord
280
     1
102
RTVSPropertyOp0
 70
     1
102
RTVSPropertyOp1
 70
     1
102
RTVSPropertyOp2
 70
     1
102
RTVSPropertyOp3
 70
     1
102
RTVSPropertyOp4
 70
     1
102
RTVSPropertyOp5
 70
     1
102
RTVSPropertyOp6
 70
     1
102
RTVSPropertyOp7
 70
     1
102
RTVSPropertyOp8
 70
     1
102
RTVSPropertyOp9
 70
     1
102
RTVSPropertyOp10
 70
     1
102
RTVSPropertyOp11
 70
     1
102
RTVSPropertyOp12
 70
     1
102
RTVSPropertyOp13
 70
     1
102
RTVSPropertyOp14
 70
     1
102
RTVSPropertyOp15
 70
     1
102
RTVSPropertyOp16
 70
     1
102
RTVSPropertyOp17
 70
     1
102
RTVSPropertyOp18
 70
     1
102
RTVSPropertyOp19
 70
     1
102
RTVSPropertyOp20
 70
     1
102
RTVSPropertyOp21
 70
     1
102
RTVSPropertyOp22
 70
     1
102
RTVSPropertyOp23
 70
     1
102
RTVSPropertyOp24
 70
     1
102
RTVSPropertyOp25
 70
     1
102
RTVSPropertyOp26
 70
     1
102
RTVSPropertyOp27
 70
     1
102
RTVSPropertyOp28
 70
     1
102
RTVSPropertyOp29
 70
     1
102
RTVSPropertyOp30
 70
     1
102
RTVSPropertyOp31
 70
     1
102
RTVSPropertyOp32
 70
     1
  0
XRECORD
  5
201
102
{ACAD_REACTORS
330
200
102
}
330
200
100
AcDbXrecord
280
     1
102
RTVSPropertyOp0
 70
     1
102
RTVSPropertyOp1
 70
     1
102
RTVSPropertyOp2
 70
     1
102
RTVSPropertyOp3
 70
     1
102
RTVSPropertyOp4
 70
     1
102
RTVSPropertyOp5
 70
     1
102
RTVSPropertyOp6
 70
     1
102
RTVSPropertyOp7
 70
     1
102
RTVSPropertyOp8
 70
     1
102
RTVSPropertyOp9
 70
     1
102
RTVSPropertyOp10
 70
     1
102
RTVSPropertyOp11
 70
     1
102
RTVSPropertyOp12
 70
     1
102
RTVSPropertyOp13
 70
     1
102
RTVSPropertyOp14
 70
     1
102
RTVSPropertyOp15
 70
     1
102
RTVSPropertyOp16
 70
     1
102
RTVSPropertyOp17
 70
     1
102
RTVSPropertyOp18
 70
     1
102
RTVSPropertyOp19
 70
     1
102
RTVSPropertyOp20
 70
     1
102
RTVSPropertyOp21
 70
     1
102
RTVSPropertyOp22
 70
     1
102
RTVSPropertyOp23
 70
     1
102
RTVSPropertyOp24
 70
     1
102
RTVSPropertyOp25
 70
     1
102
RTVSPropertyOp26
 70
     1
102
RTVSPropertyOp27
 70
     1
102
RTVSPropertyOp28
 70
     1
102
RTVSPropertyOp29
 70
     1
102
RTVSPropertyOp30
 70
     1
102
RTVSPropertyOp31
 70
     1
102
RTVSPropertyOp32
 70
     1
  0
XRECORD
  5
209
102
{ACAD_REACTORS
330
208
102
}
330
208
100
AcDbXrecord
280
     1
102
RTVSPropertyOp0
 70
     1
102
RTVSPropertyOp1
 70
     1
102
RTVSPropertyOp2
 70
     1
102
RTVSPropertyOp3
 70
     1
102
RTVSPropertyOp4
 70
     1
102
RTVSPropertyOp5
 70
     1
102
RTVSPropertyOp6
 70
     1
102
RTVSPropertyOp7
 70
     1
102
RTVSPropertyOp8
 70
     1
102
RTVSPropertyOp9
 70
     1
102
RTVSPropertyOp10
 70
     1
102
RTVSPropertyOp11
 70
     1
102
RTVSPropertyOp12
 70
     1
102
RTVSPropertyOp13
 70
     1
102
RTVSPropertyOp14
 70
     1
102
RTVSPropertyOp15
 70
     1
102
RTVSPropertyOp16
 70
     1
102
RTVSPropertyOp17
 70
     1
102
RTVSPropertyOp18
 70
     1
102
RTVSPropertyOp19
 70
     1
102
RTVSPropertyOp20
 70
     1
102
RTVSPropertyOp21
 70
     1
102
RTVSPropertyOp22
 70
     1
102
RTVSPropertyOp23
 70
     1
102
RTVSPropertyOp24
 70
     1
102
RTVSPropertyOp25
 70
     1
102
RTVSPropertyOp26
 70
     1
102
RTVSPropertyOp27
 70
     1
102
RTVSPropertyOp28
 70
     1
102
RTVSPropertyOp29
 70
     1
102
RTVSPropertyOp30
 70
     1
102
RTVSPropertyOp31
 70
     1
102
RTVSPropertyOp32
 70
     1
  0
XRECORD
  5
211
102
{ACAD_REACTORS
330
210
102
}
330
210
100
AcDbXrecord
280
     1
102
RTVSPropertyOp0
 70
     1
102
RTVSPropertyOp1
 70
     1
102
RTVSPropertyOp2
 70
     1
102
RTVSPropertyOp3
 70
     1
102
RTVSPropertyOp4
 70
     1
102
RTVSPropertyOp5
 70
     1
102
RTVSPropertyOp6
 70
     1
102
RTVSPropertyOp7
 70
     1
102
RTVSPropertyOp8
 70
     1
102
RTVSPropertyOp9
 70
     1
102
RTVSPropertyOp10
 70
     1
102
RTVSPropertyOp11
 70
     1
102
RTVSPropertyOp12
 70
     1
102
RTVSPropertyOp13
 70
     1
102
RTVSPropertyOp14
 70
     1
102
RTVSPropertyOp15
 70
     1
102
RTVSPropertyOp16
 70
     1
102
RTVSPropertyOp17
 70
     1
102
RTVSPropertyOp18
 70
     1
102
RTVSPropertyOp19
 70
     1
102
RTVSPropertyOp20
 70
     1
102
RTVSPropertyOp21
 70
     1
102
RTVSPropertyOp22
 70
     1
102
RTVSPropertyOp23
 70
     1
102
RTVSPropertyOp24
 70
     1
102
RTVSPropertyOp25
 70
     1
102
RTVSPropertyOp26
 70
     1
102
RTVSPropertyOp27
 70
     1
102
RTVSPropertyOp28
 70
     1
102
RTVSPropertyOp29
 70
     1
102
RTVSPropertyOp30
 70
     1
102
RTVSPropertyOp31
 70
     1
102
RTVSPropertyOp32
 70
     1
  0
XRECORD
  5
205
102
{ACAD_REACTORS
330
204
102
}
330
204
100
AcDbXrecord
280
     1
102
RTVSPropertyOp0
 70
     1
102
RTVSPropertyOp1
 70
     1
102
RTVSPropertyOp2
 70
     1
102
RTVSPropertyOp3
 70
     1
102
RTVSPropertyOp4
 70
     1
102
RTVSPropertyOp5
 70
     1
102
RTVSPropertyOp6
 70
     1
102
RTVSPropertyOp7
 70
     1
102
RTVSPropertyOp8
 70
     1
102
RTVSPropertyOp9
 70
     1
102
RTVSPropertyOp10
 70
     1
102
RTVSPropertyOp11
 70
     1
102
RTVSPropertyOp12
 70
     1
102
RTVSPropertyOp13
 70
     1
102
RTVSPropertyOp14
 70
     1
102
RTVSPropertyOp15
 70
     1
102
RTVSPropertyOp16
 70
     1
102
RTVSPropertyOp17
 70
     1
102
RTVSPropertyOp18
 70
     1
102
RTVSPropertyOp19
 70
     1
102
RTVSPropertyOp20
 70
     1
102
RTVSPropertyOp21
 70
     1
102
RTVSPropertyOp22
 70
     1
102
RTVSPropertyOp23
 70
     1
102
RTVSPropertyOp24
 70
     1
102
RTVSPropertyOp25
 70
     1
102
RTVSPropertyOp26
 70
     1
102
RTVSPropertyOp27
 70
     1
102
RTVSPropertyOp28
 70
     1
102
RTVSPropertyOp29
 70
     1
102
RTVSPropertyOp30
 70
     1
102
RTVSPropertyOp31
 70
     1
102
RTVSPropertyOp32
 70
     1
  0
XRECORD
  5
207
102
{ACAD_REACTORS
330
206
102
}
330
206
100
AcDbXrecord
280
     1
102
RTVSPropertyOp0
 70
     1
102
RTVSPropertyOp1
 70
     1
102
RTVSPropertyOp2
 70
     1
102
RTVSPropertyOp3
 70
     1
102
RTVSPropertyOp4
 70
     1
102
RTVSPropertyOp5
 70
     1
102
RTVSPropertyOp6
 70
     1
102
RTVSPropertyOp7
 70
     1
102
RTVSPropertyOp8
 70
     1
102
RTVSPropertyOp9
 70
     1
102
RTVSPropertyOp10
 70
     1
102
RTVSPropertyOp11
 70
     1
102
RTVSPropertyOp12
 70
     1
102
RTVSPropertyOp13
 70
     1
102
RTVSPropertyOp14
 70
     1
102
RTVSPropertyOp15
 70
     1
102
RTVSPropertyOp16
 70
     1
102
RTVSPropertyOp17
 70
     1
102
RTVSPropertyOp18
 70
     1
102
RTVSPropertyOp19
 70
     1
102
RTVSPropertyOp20
 70
     1
102
RTVSPropertyOp21
 70
     1
102
RTVSPropertyOp22
 70
     1
102
RTVSPropertyOp23
 70
     1
102
RTVSPropertyOp24
 70
     1
102
RTVSPropertyOp25
 70
     1
102
RTVSPropertyOp26
 70
     1
102
RTVSPropertyOp27
 70
     1
102
RTVSPropertyOp28
 70
     1
102
RTVSPropertyOp29
 70
     1
102
RTVSPropertyOp30
 70
     1
102
RTVSPropertyOp31
 70
     1
102
RTVSPropertyOp32
 70
     1
  0
XRECORD
  5
20F
102
{ACAD_REACTORS
330
20E
102
}
330
20E
100
AcDbXrecord
280
     1
102
RTVSPropertyOp0
 70
     1
102
RTVSPropertyOp1
 70
     1
102
RTVSPropertyOp2
 70
     1
102
RTVSPropertyOp3
 70
     1
102
RTVSPropertyOp4
 70
     1
102
RTVSPropertyOp5
 70
     1
102
RTVSPropertyOp6
 70
     1
102
RTVSPropertyOp7
 70
     1
102
RTVSPropertyOp8
 70
     1
102
RTVSPropertyOp9
 70
     1
102
RTVSPropertyOp10
 70
     1
102
RTVSPropertyOp11
 70
     1
102
RTVSPropertyOp12
 70
     1
102
RTVSPropertyOp13
 70
     1
102
RTVSPropertyOp14
 70
     1
102
RTVSPropertyOp15
 70
     1
102
RTVSPropertyOp16
 70
     1
102
RTVSPropertyOp17
 70
     1
102
RTVSPropertyOp18
 70
     1
102
RTVSPropertyOp19
 70
     1
102
RTVSPropertyOp20
 70
     1
102
RTVSPropertyOp21
 70
     1
102
RTVSPropertyOp22
 70
     1
102
RTVSPropertyOp23
 70
     1
102
RTVSPropertyOp24
 70
     1
102
RTVSPropertyOp25
 70
     1
102
RTVSPropertyOp26
 70
     1
102
RTVSPropertyOp27
 70
     1
102
RTVSPropertyOp28
 70
     1
102
RTVSPropertyOp29
 70
     1
102
RTVSPropertyOp30
 70
     1
102
RTVSPropertyOp31
 70
     1
102
RTVSPropertyOp32
 70
     1
  0
XRECORD
  5
1F3
102
{ACAD_REACTORS
330
1F2
102
}
330
1F2
100
AcDbXrecord
280
     1
102
RTVSPropertyOp0
 70
     1
102
RTVSPropertyOp1
 70
     1
102
RTVSPropertyOp2
 70
     1
102
RTVSPropertyOp3
 70
     1
102
RTVSPropertyOp4
 70
     1
102
RTVSPropertyOp5
 70
     1
102
RTVSPropertyOp6
 70
     1
102
RTVSPropertyOp7
 70
     1
102
RTVSPropertyOp8
 70
     1
102
RTVSPropertyOp9
 70
     1
102
RTVSPropertyOp10
 70
     1
102
RTVSPropertyOp11
 70
     1
102
RTVSPropertyOp12
 70
     1
102
RTVSPropertyOp13
 70
     1
102
RTVSPropertyOp14
 70
     1
102
RTVSPropertyOp15
 70
     1
102
RTVSPropertyOp16
 70
     1
102
RTVSPropertyOp17
 70
     1
102
RTVSPropertyOp18
 70
     1
102
RTVSPropertyOp19
 70
     1
102
RTVSPropertyOp20
 70
     1
102
RTVSPropertyOp21
 70
     1
102
RTVSPropertyOp22
 70
     1
102
RTVSPropertyOp23
 70
     1
102
RTVSPropertyOp24
 70
     1
102
RTVSPropertyOp25
 70
     1
102
RTVSPropertyOp26
 70
     1
102
RTVSPropertyOp27
 70
     1
102
RTVSPropertyOp28
 70
     1
102
RTVSPropertyOp29
 70
     1
102
RTVSPropertyOp30
 70
     1
102
RTVSPropertyOp31
 70
     1
102
RTVSPropertyOp32
 70
     1
  0
XRECORD
  5
1F5
102
{ACAD_REACTORS
330
1F4
102
}
330
1F4
100
AcDbXrecord
280
     1
102
RTVSPropertyOp0
 70
     1
102
RTVSPropertyOp1
 70
     1
102
RTVSPropertyOp2
 70
     1
102
RTVSPropertyOp3
 70
     1
102
RTVSPropertyOp4
 70
     1
102
RTVSPropertyOp5
 70
     1
102
RTVSPropertyOp6
 70
     1
102
RTVSPropertyOp7
 70
     1
102
RTVSPropertyOp8
 70
     1
102
RTVSPropertyOp9
 70
     1
102
RTVSPropertyOp10
 70
     1
102
RTVSPropertyOp11
 70
     1
102
RTVSPropertyOp12
 70
     1
102
RTVSPropertyOp13
 70
     1
102
RTVSPropertyOp14
 70
     1
102
RTVSPropertyOp15
 70
     1
102
RTVSPropertyOp16
 70
     1
102
RTVSPropertyOp17
 70
     1
102
RTVSPropertyOp18
 70
     1
102
RTVSPropertyOp19
 70
     1
102
RTVSPropertyOp20
 70
     1
102
RTVSPropertyOp21
 70
     1
102
RTVSPropertyOp22
 70
     1
102
RTVSPropertyOp23
 70
     1
102
RTVSPropertyOp24
 70
     1
102
RTVSPropertyOp25
 70
     1
102
RTVSPropertyOp26
 70
     1
102
RTVSPropertyOp27
 70
     1
102
RTVSPropertyOp28
 70
     1
102
RTVSPropertyOp29
 70
     1
102
RTVSPropertyOp30
 70
     1
102
RTVSPropertyOp31
 70
     1
102
RTVSPropertyOp32
 70
     1
  0
XRECORD
  5
1F7
102
{ACAD_REACTORS
330
1F6
102
}
330
1F6
100
AcDbXrecord
280
     1
102
RTVSPropertyOp0
 70
     1
102
RTVSPropertyOp1
 70
     1
102
RTVSPropertyOp2
 70
     1
102
RTVSPropertyOp3
 70
     1
102
RTVSPropertyOp4
 70
     1
102
RTVSPropertyOp5
 70
     1
102
RTVSPropertyOp6
 70
     1
102
RTVSPropertyOp7
 70
     1
102
RTVSPropertyOp8
 70
     1
102
RTVSPropertyOp9
 70
     1
102
RTVSPropertyOp10
 70
     1
102
RTVSPropertyOp11
 70
     1
102
RTVSPropertyOp12
 70
     1
102
RTVSPropertyOp13
 70
     1
102
RTVSPropertyOp14
 70
     1
102
RTVSPropertyOp15
 70
     1
102
RTVSPropertyOp16
 70
     1
102
RTVSPropertyOp17
 70
     1
102
RTVSPropertyOp18
 70
     1
102
RTVSPropertyOp19
 70
     1
102
RTVSPropertyOp20
 70
     1
102
RTVSPropertyOp21
 70
     1
102
RTVSPropertyOp22
 70
     1
102
RTVSPropertyOp23
 70
     1
102
RTVSPropertyOp24
 70
     1
102
RTVSPropertyOp25
 70
     1
102
RTVSPropertyOp26
 70
     1
102
RTVSPropertyOp27
 70
     1
102
RTVSPropertyOp28
 70
     1
102
RTVSPropertyOp29
 70
     1
102
RTVSPropertyOp30
 70
     1
102
RTVSPropertyOp31
 70
     1
102
RTVSPropertyOp32
 70
     1
  0
XRECORD
  5
1F9
102
{ACAD_REACTORS
330
1F8
102
}
330
1F8
100
AcDbXrecord
280
     1
102
RTVSPropertyOp0
 70
     1
102
RTVSPropertyOp1
 70
     1
102
RTVSPropertyOp2
 70
     1
102
RTVSPropertyOp3
 70
     1
102
RTVSPropertyOp4
 70
     1
102
RTVSPropertyOp5
 70
     1
102
RTVSPropertyOp6
 70
     1
102
RTVSPropertyOp7
 70
     1
102
RTVSPropertyOp8
 70
     1
102
RTVSPropertyOp9
 70
     1
102
RTVSPropertyOp10
 70
     1
102
RTVSPropertyOp11
 70
     1
102
RTVSPropertyOp12
 70
     1
102
RTVSPropertyOp13
 70
     1
102
RTVSPropertyOp14
 70
     1
102
RTVSPropertyOp15
 70
     1
102
RTVSPropertyOp16
 70
     1
102
RTVSPropertyOp17
 70
     1
102
RTVSPropertyOp18
 70
     1
102
RTVSPropertyOp19
 70
     1
102
RTVSPropertyOp20
 70
     1
102
RTVSPropertyOp21
 70
     1
102
RTVSPropertyOp22
 70
     1
102
RTVSPropertyOp23
 70
     1
102
RTVSPropertyOp24
 70
     1
102
RTVSPropertyOp25
 70
     1
102
RTVSPropertyOp26
 70
     1
102
RTVSPropertyOp27
 70
     1
102
RTVSPropertyOp28
 70
     1
102
RTVSPropertyOp29
 70
     1
102
RTVSPropertyOp30
 70
     1
102
RTVSPropertyOp31
 70
     1
102
RTVSPropertyOp32
 70
     1
  0
XRECORD
  5
20D
102
{ACAD_REACTORS
330
20C
102
}
330
20C
100
AcDbXrecord
280
     1
102
RTVSPropertyOp0
 70
     1
102
RTVSPropertyOp1
 70
     1
102
RTVSPropertyOp2
 70
     1
102
RTVSPropertyOp3
 70
     1
102
RTVSPropertyOp4
 70
     1
102
RTVSPropertyOp5
 70
     1
102
RTVSPropertyOp6
 70
     1
102
RTVSPropertyOp7
 70
     1
102
RTVSPropertyOp8
 70
     1
102
RTVSPropertyOp9
 70
     1
102
RTVSPropertyOp10
 70
     1
102
RTVSPropertyOp11
 70
     1
102
RTVSPropertyOp12
 70
     1
102
RTVSPropertyOp13
 70
     1
102
RTVSPropertyOp14
 70
     1
102
RTVSPropertyOp15
 70
     1
102
RTVSPropertyOp16
 70
     1
102
RTVSPropertyOp17
 70
     1
102
RTVSPropertyOp18
 70
     1
102
RTVSPropertyOp19
 70
     1
102
RTVSPropertyOp20
 70
     1
102
RTVSPropertyOp21
 70
     1
102
RTVSPropertyOp22
 70
     1
102
RTVSPropertyOp23
 70
     1
102
RTVSPropertyOp24
 70
     1
102
RTVSPropertyOp25
 70
     1
102
RTVSPropertyOp26
 70
     1
102
RTVSPropertyOp27
 70
     1
102
RTVSPropertyOp28
 70
     1
102
RTVSPropertyOp29
 70
     1
102
RTVSPropertyOp30
 70
     1
102
RTVSPropertyOp31
 70
     1
102
RTVSPropertyOp32
 70
     1
  0
XRECORD
  5
203
102
{ACAD_REACTORS
330
202
102
}
330
202
100
AcDbXrecord
280
     1
102
RTVSPropertyOp0
 70
     1
102
RTVSPropertyOp1
 70
     1
102
RTVSPropertyOp2
 70
     1
102
RTVSPropertyOp3
 70
     1
102
RTVSPropertyOp4
 70
     1
102
RTVSPropertyOp5
 70
     1
102
RTVSPropertyOp6
 70
     1
102
RTVSPropertyOp7
 70
     1
102
RTVSPropertyOp8
 70
     1
102
RTVSPropertyOp9
 70
     1
102
RTVSPropertyOp10
 70
     1
102
RTVSPropertyOp11
 70
     1
102
RTVSPropertyOp12
 70
     1
102
RTVSPropertyOp13
 70
     1
102
RTVSPropertyOp14
 70
     1
102
RTVSPropertyOp15
 70
     1
102
RTVSPropertyOp16
 70
     1
102
RTVSPropertyOp17
 70
     1
102
RTVSPropertyOp18
 70
     1
102
RTVSPropertyOp19
 70
     1
102
RTVSPropertyOp20
 70
     1
102
RTVSPropertyOp21
 70
     1
102
RTVSPropertyOp22
 70
     1
102
RTVSPropertyOp23
 70
     1
102
RTVSPropertyOp24
 70
     1
102
RTVSPropertyOp25
 70
     1
102
RTVSPropertyOp26
 70
     1
102
RTVSPropertyOp27
 70
     1
102
RTVSPropertyOp28
 70
     1
102
RTVSPropertyOp29
 70
     1
102
RTVSPropertyOp30
 70
     1
102
RTVSPropertyOp31
 70
     1
102
RTVSPropertyOp32
 70
     1
  0
XRECORD
  5
20B
102
{ACAD_REACTORS
330
20A
102
}
330
20A
100
AcDbXrecord
280
     1
102
RTVSPropertyOp0
 70
     1
102
RTVSPropertyOp1
 70
     1
102
RTVSPropertyOp2
 70
     1
102
RTVSPropertyOp3
 70
     1
102
RTVSPropertyOp4
 70
     1
102
RTVSPropertyOp5
 70
     1
102
RTVSPropertyOp6
 70
     1
102
RTVSPropertyOp7
 70
     1
102
RTVSPropertyOp8
 70
     1
102
RTVSPropertyOp9
 70
     1
102
RTVSPropertyOp10
 70
     1
102
RTVSPropertyOp11
 70
     1
102
RTVSPropertyOp12
 70
     1
102
RTVSPropertyOp13
 70
     1
102
RTVSPropertyOp14
 70
     1
102
RTVSPropertyOp15
 70
     1
102
RTVSPropertyOp16
 70
     1
102
RTVSPropertyOp17
 70
     1
102
RTVSPropertyOp18
 70
     1
102
RTVSPropertyOp19
 70
     1
102
RTVSPropertyOp20
 70
     1
102
RTVSPropertyOp21
 70
     1
102
RTVSPropertyOp22
 70
     1
102
RTVSPropertyOp23
 70
     1
102
RTVSPropertyOp24
 70
     1
102
RTVSPropertyOp25
 70
     1
102
RTVSPropertyOp26
 70
     1
102
RTVSPropertyOp27
 70
     1
102
RTVSPropertyOp28
 70
     1
102
RTVSPropertyOp29
 70
     1
102
RTVSPropertyOp30
 70
     1
102
RTVSPropertyOp31
 70
     1
102
RTVSPropertyOp32
 70
     1
  0
ENDSEC
  0
EOF
