  0
SECTION
  2
HEADER
  9
$ACADVER
  1
AC1015
  9
$ACADMAINTVER
 70
     6
  9
$DWGCODEPAGE
  3
ANSI_1252
  9
$INSBASE
 10
0.0
 20
0.0
 30
0.0
  9
$EXTMIN
 10
-752.788436470252
 20
10.6194014346104
 30
0.0
  9
$EXTMAX
 10
-550.6536609458772
 20
166.711652051132
 30
0.0
  9
$LIMMIN
 10
0.0
 20
0.0
  9
$LIMMAX
 10
12.0
 20
9.0
  9
$ORTHOMODE
 70
     0
  9
$REGENMODE
 70
     1
  9
$FILLMODE
 70
     1
  9
$QTEXTMODE
 70
     0
  9
$MIRRTEXT
 70
     1
  9
$LTSCALE
 40
1.0
  9
$ATTMODE
 70
     1
  9
$TEXTSIZE
 40
0.2
  9
$TRACEWID
 40
0.05
  9
$TEXTSTYLE
  7
Standard
  9
$CLAYER
  8
0
  9
$CELTYPE
  6
ByLayer
  9
$CECOLOR
 62
   256
  9
$CELTSCALE
 40
1.0
  9
$DISPSILH
 70
     0
  9
$DIMSCALE
 40
1.0
  9
$DIMASZ
 40
0.18
  9
$DIMEXO
 40
0.0625
  9
$DIMDLI
 40
0.38
  9
$DIMRND
 40
0.0
  9
$DIMDLE
 40
0.0
  9
$DIMEXE
 40
0.18
  9
$DIMTP
 40
0.0
  9
$DIMTM
 40
0.0
  9
$DIMTXT
 40
0.18
  9
$DIMCEN
 40
0.09
  9
$DIMTSZ
 40
0.0
  9
$DIMTOL
 70
     0
  9
$DIMLIM
 70
     0
  9
$DIMTIH
 70
     1
  9
$DIMTOH
 70
     1
  9
$DIMSE1
 70
     0
  9
$DIMSE2
 70
     0
  9
$DIMTAD
 70
     0
  9
$DIMZIN
 70
     0
  9
$DIMBLK
  1

  9
$DIMASO
 70
     1
  9
$DIMSHO
 70
     1
  9
$DIMPOST
  1

  9
$DIMAPOST
  1

  9
$DIMALT
 70
     0
  9
$DIMALTD
 70
     2
  9
$DIMALTF
 40
25.4
  9
$DIMLFAC
 40
1.0
  9
$DIMTOFL
 70
     0
  9
$DIMTVP
 40
0.0
  9
$DIMTIX
 70
     0
  9
$DIMSOXD
 70
     0
  9
$DIMSAH
 70
     0
  9
$DIMBLK1
  1

  9
$DIMBLK2
  1

  9
$DIMSTYLE
  2
Standard
  9
$DIMCLRD
 70
     0
  9
$DIMCLRE
 70
     0
  9
$DIMCLRT
 70
     0
  9
$DIMTFAC
 40
1.0
  9
$DIMGAP
 40
0.09
  9
$DIMJUST
 70
     0
  9
$DIMSD1
 70
     0
  9
$DIMSD2
 70
     0
  9
$DIMTOLJ
 70
     1
  9
$DIMTZIN
 70
     0
  9
$DIMALTZ
 70
     0
  9
$DIMALTTZ
 70
     0
  9
$DIMUPT
 70
     0
  9
$DIMDEC
 70
     4
  9
$DIMTDEC
 70
     4
  9
$DIMALTU
 70
     2
  9
$DIMALTTD
 70
     2
  9
$DIMTXSTY
  7
Standard
  9
$DIMAUNIT
 70
     0
  9
$DIMADEC
 70
     0
  9
$DIMALTRND
 40
0.0
  9
$DIMAZIN
 70
     0
  9
$DIMDSEP
 70
    46
  9
$DIMATFIT
 70
     3
  9
$DIMFRAC
 70
     0
  9
$DIMLDRBLK
  1

  9
$DIMLUNIT
 70
     2
  9
$DIMLWD
 70
    -2
  9
$DIMLWE
 70
    -2
  9
$DIMTMOVE
 70
     0
  9
$LUNITS
 70
     2
  9
$LUPREC
 70
     4
  9
$SKETCHINC
 40
0.1
  9
$FILLETRAD
 40
0.5
  9
$AUNITS
 70
     0
  9
$AUPREC
 70
     0
  9
$MENU
  1
.
  9
$ELEVATION
 40
0.0
  9
$PELEVATION
 40
0.0
  9
$THICKNESS
 40
0.0
  9
$LIMCHECK
 70
     0
  9
$CHAMFERA
 40
0.5
  9
$CHAMFERB
 40
0.5
  9
$CHAMFERC
 40
1.0
  9
$CHAMFERD
 40
0.0
  9
$SKPOLY
 70
     0
  9
$TDCREATE
 40
2456800.457943276
  9
$TDUCREATE
 40
2456800.374609942
  9
$TDUPDATE
 40
2456800.457943634
  9
$TDUUPDATE
 40
2456800.374610301
  9
$TDINDWG
 40
0.0000000116
  9
$TDUSRTIMER
 40
0.0000000116
  9
$USRTIMER
 70
     1
  9
$ANGBASE
 50
0.0
  9
$ANGDIR
 70
     0
  9
$PDMODE
 70
     0
  9
$PDSIZE
 40
0.0
  9
$PLINEWID
 40
0.0
  9
$SPLFRAME
 70
     0
  9
$SPLINETYPE
 70
     6
  9
$SPLINESEGS
 70
     8
  9
$HANDSEED
  5
218
  9
$SURFTAB1
 70
     6
  9
$SURFTAB2
 70
     6
  9
$SURFTYPE
 70
     6
  9
$SURFU
 70
     6
  9
$SURFV
 70
     6
  9
$UCSBASE
  2

  9
$UCSNAME
  2

  9
$UCSORG
 10
0.0
 20
0.0
 30
0.0
  9
$UCSXDIR
 10
1.0
 20
0.0
 30
0.0
  9
$UCSYDIR
 10
0.0
 20
1.0
 30
0.0
  9
$UCSORTHOREF
  2

  9
$UCSORTHOVIEW
 70
     0
  9
$UCSORGTOP
 10
0.0
 20
0.0
 30
0.0
  9
$UCSORGBOTTOM
 10
0.0
 20
0.0
 30
0.0
  9
$UCSORGLEFT
 10
0.0
 20
0.0
 30
0.0
  9
$UCSORGRIGHT
 10
0.0
 20
0.0
 30
0.0
  9
$UCSORGFRONT
 10
0.0
 20
0.0
 30
0.0
  9
$UCSORGBACK
 10
0.0
 20
0.0
 30
0.0
  9
$PUCSBASE
  2

  9
$PUCSNAME
  2

  9
$PUCSORG
 10
0.0
 20
0.0
 30
0.0
  9
$PUCSXDIR
 10
1.0
 20
0.0
 30
0.0
  9
$PUCSYDIR
 10
0.0
 20
1.0
 30
0.0
  9
$PUCSORTHOREF
  2

  9
$PUCSORTHOVIEW
 70
     0
  9
$PUCSORGTOP
 10
0.0
 20
0.0
 30
0.0
  9
$PUCSORGBOTTOM
 10
0.0
 20
0.0
 30
0.0
  9
$PUCSORGLEFT
 10
0.0
 20
0.0
 30
0.0
  9
$PUCSORGRIGHT
 10
0.0
 20
0.0
 30
0.0
  9
$PUCSORGFRONT
 10
0.0
 20
0.0
 30
0.0
  9
$PUCSORGBACK
 10
0.0
 20
0.0
 30
0.0
  9
$USERI1
 70
     0
  9
$USERI2
 70
     0
  9
$USERI3
 70
     0
  9
$USERI4
 70
     0
  9
$USERI5
 70
     0
  9
$USERR1
 40
18.1
  9
$USERR2
 40
0.0
  9
$USERR3
 40
0.0
  9
$USERR4
 40
0.0
  9
$USERR5
 40
0.0
  9
$WORLDVIEW
 70
     1
  9
$SHADEDGE
 70
     3
  9
$SHADEDIF
 70
    70
  9
$TILEMODE
 70
     1
  9
$MAXACTVP
 70
    64
  9
$PINSBASE
 10
0.0
 20
0.0
 30
0.0
  9
$PLIMCHECK
 70
     0
  9
$PEXTMIN
 10
1.00000000000000E+20
 20
1.00000000000000E+20
 30
1.00000000000000E+20
  9
$PEXTMAX
 10
-1.00000000000000E+20
 20
-1.00000000000000E+20
 30
-1.00000000000000E+20
  9
$PLIMMIN
 10
0.0
 20
0.0
  9
$PLIMMAX
 10
12.0
 20
9.0
  9
$UNITMODE
 70
     0
  9
$VISRETAIN
 70
     1
  9
$PLINEGEN
 70
     0
  9
$PSLTSCALE
 70
     1
  9
$TREEDEPTH
 70
  3020
  9
$CMLSTYLE
  2
Standard
  9
$CMLJUST
 70
     0
  9
$CMLSCALE
 40
1.0
  9
$PROXYGRAPHICS
 70
     1
  9
$MEASUREMENT
 70
     1
  9
$CELWEIGHT
370
    -1
  9
$ENDCAPS
280
     0
  9
$JOINSTYLE
280
     0
  9
$LWDISPLAY
290
     0
  9
$INSUNITS
 70
     1
  9
$HYPERLINKBASE
  1

  9
$STYLESHEET
  1

  9
$XEDIT
290
     1
  9
$CEPSNTYPE
380
     0
  9
$PSTYLEMODE
290
     1
  9
$FINGERPRINTGUID
  2
{5ADF8847-C4D3-4014-9472-BCED326E649D}
  9
$VERSIONGUID
  2
{FAEB1C32-E019-11D5-929B-00C0DF256EC4}
  9
$EXTNAMES
290
     1
  9
$PSVPSCALE
 40
0.0
  9
$OLESTARTUP
290
     0
  0
ENDSEC
  0
SECTION
  2
CLASSES
  0
CLASS
  1
ACDBDICTIONARYWDFLT
  2
AcDbDictionaryWithDefault
  3
ObjectDBX Classes
 90
        0
280
     0
281
     0
  0
CLASS
  1
VISUALSTYLE
  2
AcDbVisualStyle
  3
ObjectDBX Classes
 90
     4095
280
     0
281
     0
  0
CLASS
  1
MATERIAL
  2
AcDbMaterial
  3
ObjectDBX Classes
 90
     1153
280
     0
281
     0
  0
CLASS
  1
DICTIONARYVAR
  2
AcDbDictionaryVar
  3
ObjectDBX Classes
 90
        0
280
     0
281
     0
  0
CLASS
  1
ACDBPLACEHOLDER
  2
AcDbPlaceHolder
  3
ObjectDBX Classes
 90
        0
280
     0
281
     0
  0
CLASS
  1
LAYOUT
  2
AcDbLayout
  3
ObjectDBX Classes
 90
        0
280
     0
281
     0
  0
ENDSEC
  0
SECTION
  2
TABLES
  0
TABLE
  2
VPORT
  5
8
330
0
100
AcDbSymbolTable
 70
     1
  0
VPORT
  5
29
330
8
100
AcDbSymbolTableRecord
100
AcDbViewportTableRecord
  2
*Active
 70
     0
 10
0.0
 20
0.0
 11
1.0
 21
1.0
 12
-651.7210487080646
 22
88.66552674287121
 13
0.0
 23
0.0
 14
0.5
 24
0.5
 15
0.5
 25
0.5
 16
0.0
 26
0.0
 36
1.0
 17
0.0
 27
0.0
 37
0.0
 40
171.7014756781738
 41
1.60267857142857
 42
50.0
 43
0.0
 44
0.0
 50
0.0
 51
0.0
 71
     0
 72
   100
 73
     1
 74
     3
 75
     0
 76
     0
 77
     0
 78
     0
281
     0
 65
     1
110
0.0
120
0.0
130
0.0
111
1.0
121
0.0
131
0.0
112
0.0
122
1.0
132
0.0
 79
     0
146
0.0
  0
ENDTAB
  0
TABLE
  2
LTYPE
  5
5
330
0
100
AcDbSymbolTable
 70
     8
  0
LTYPE
  5
14
330
5
100
AcDbSymbolTableRecord
100
AcDbLinetypeTableRecord
  2
ByBlock
 70
     0
  3

 72
    65
 73
     0
 40
0.0
  0
LTYPE
  5
15
330
5
100
AcDbSymbolTableRecord
100
AcDbLinetypeTableRecord
  2
ByLayer
 70
     0
  3

 72
    65
 73
     0
 40
0.0
  0
LTYPE
  5
16
330
5
100
AcDbSymbolTableRecord
100
AcDbLinetypeTableRecord
  2
Continuous
 70
     0
  3
Solid line
 72
    65
 73
     0
 40
0.0
  0
LTYPE
  5
3F
330
5
100
AcDbSymbolTableRecord
100
AcDbLinetypeTableRecord
  2
DASHED
 70
     0
  3
Dashed
 72
    65
 73
     2
 40
15.0
 49
7.0
 74
     0
 49
-8.0
 74
     0
  0
LTYPE
  5
40
330
5
100
AcDbSymbolTableRecord
100
AcDbLinetypeTableRecord
  2
DOTTED
 70
     0
  3
Dotted
 72
    65
 73
     2
 40
1.0
 49
0.0
 74
     0
 49
-1.0
 74
     0
  0
LTYPE
  5
41
330
5
100
AcDbSymbolTableRecord
100
AcDbLinetypeTableRecord
  2
DOT_CENTER
 70
     0
  3
Dot_Center
 72
    65
 73
     4
 40
14.0
 49
12.0
 74
     0
 49
-1.0
 74
     0
 49
0.0
 74
     0
 49
-1.0
 74
     0
  0
LTYPE
  5
42
330
5
100
AcDbSymbolTableRecord
100
AcDbLinetypeTableRecord
  2
LONG_DASHED
 70
     0
  3
Long_Dashed
 72
    65
 73
     2
 40
15.0
 49
10.0
 74
     0
 49
-5.0
 74
     0
  0
LTYPE
  5
43
330
5
100
AcDbSymbolTableRecord
100
AcDbLinetypeTableRecord
  2
DASH_CENTER
 70
     0
  3
Dash_Center
 72
    65
 73
     4
 40
14.0
 49
11.0
 74
     0
 49
-1.0
 74
     0
 49
1.0
 74
     0
 49
-1.0
 74
     0
  0
LTYPE
  5
44
330
5
100
AcDbSymbolTableRecord
100
AcDbLinetypeTableRecord
  2
PHANTOM
 70
     0
  3
Phantom
 72
    65
 73
     6
 40
13.0
 49
10.0
 74
     0
 49
-1.0
 74
     0
 49
0.0
 74
     0
 49
-1.0
 74
     0
 49
0.0
 74
     0
 49
-1.0
 74
     0
  0
LTYPE
  5
45
330
5
100
AcDbSymbolTableRecord
100
AcDbLinetypeTableRecord
  2
CENTER_DASH_DASH
 70
     0
  3
Center_Dash_Dash
 72
    65
 73
     6
 40
14.0
 49
9.0
 74
     0
 49
-1.0
 74
     0
 49
1.0
 74
     0
 49
-1.0
 74
     0
 49
1.0
 74
     0
 49
-1.0
 74
     0
  0
ENDTAB
  0
TABLE
  2
LAYER
  5
2
330
0
100
AcDbSymbolTable
 70
     2
  0
LAYER
  5
10
330
2
100
AcDbSymbolTableRecord
100
AcDbLayerTableRecord
  2
0
 70
     0
 62
     7
  6
Continuous
370
    -3
390
F
  0
LAYER
  5
46
330
2
100
AcDbSymbolTableRecord
100
AcDbLayerTableRecord
  2
1
 70
     0
 62
     7
  6
Continuous
370
    -3
390
F
  0
ENDTAB
  0
TABLE
  2
STYLE
  5
3
330
0
100
AcDbSymbolTable
 70
     2
  0
STYLE
  5
11
330
3
100
AcDbSymbolTableRecord
100
AcDbTextStyleTableRecord
  2
Standard
 70
     0
 40
0.0
 41
1.0
 50
0.0
 71
     0
 42
0.2
  3
txt
  4

  0
STYLE
  5
126
330
3
100
AcDbSymbolTableRecord
100
AcDbTextStyleTableRecord
  2
CONVERTER_11
 70
     0
 40
0.0
 41
0.9
 50
0.0
 71
     0
 42
0.2
  3
txt.shx
  4

  0
ENDTAB
  0
TABLE
  2
VIEW
  5
6
330
0
100
AcDbSymbolTable
 70
     0
  0
ENDTAB
  0
TABLE
  2
UCS
  5
7
330
0
100
AcDbSymbolTable
 70
     0
  0
ENDTAB
  0
TABLE
  2
APPID
  5
9
330
0
100
AcDbSymbolTable
 70
     1
  0
APPID
  5
12
330
9
100
AcDbSymbolTableRecord
100
AcDbRegAppTableRecord
  2
ACAD
 70
     0
  0
ENDTAB
  0
TABLE
  2
DIMSTYLE
  5
A
330
0
100
AcDbSymbolTable
 70
     3
100
AcDbDimStyleTable
  0
DIMSTYLE
105
27
330
A
100
AcDbSymbolTableRecord
100
AcDbDimStyleTableRecord
  2
Standard
 70
     0
178
     0
340
11
  0
DIMSTYLE
105
1E0
102
{ACAD_REACTORS
330
1E1
102
}
330
A
100
AcDbSymbolTableRecord
100
AcDbDimStyleTableRecord
  2
ME10_DIM_10
 70
     0
 41
10.0
 42
0.0
 44
2.0
 73
     0
 74
     0
 77
     1
 78
     8
140
10.0
147
3.0
172
     1
173
     1
174
     1
175
     1
176
     4
177
     4
271
     2
178
     1
271
     2
340
126
  0
DIMSTYLE
105
1EB
102
{ACAD_REACTORS
330
1EC
102
}
330
A
100
AcDbSymbolTableRecord
100
AcDbDimStyleTableRecord
  2
ME10_DIM_11
 70
     0
 41
10.0
 42
0.0
 44
2.0
 73
     0
 74
     0
 77
     1
 78
     8
140
10.0
147
3.0
172
     1
173
     1
174
     1
175
     1
176
     4
177
     4
271
     2
178
     1
271
     2
340
126
  0
ENDTAB
  0
TABLE
  2
BLOCK_RECORD
  5
1
330
0
100
AcDbSymbolTable
 70
     9
  0
BLOCK_RECORD
  5
1F
330
1
100
AcDbSymbolTableRecord
100
AcDbBlockTableRecord
  2
*Model_Space
340
22
  0
BLOCK_RECORD
  5
1B
330
1
100
AcDbSymbolTableRecord
100
AcDbBlockTableRecord
  2
*Paper_Space
340
1E
  0
BLOCK_RECORD
  5
23
330
1
100
AcDbSymbolTableRecord
100
AcDbBlockTableRecord
  2
*Paper_Space0
340
26
  0
BLOCK_RECORD
  5
47
330
1
100
AcDbSymbolTableRecord
100
AcDbBlockTableRecord
  2
HL905-Abdeckung-flach-11217__1
340
0
102
{BLKREFS
331
4B
102
}
  0
BLOCK_RECORD
  5
4A
330
1
100
AcDbSymbolTableRecord
100
AcDbBlockTableRecord
  2
HL905_2-WEB-Zeichnungen__2
340
0
102
{BLKREFS
331
4F
102
}
  0
BLOCK_RECORD
  5
4E
330
1
100
AcDbSymbolTableRecord
100
AcDbBlockTableRecord
  2
SA_Links3
340
0
102
{BLKREFS
331
5D
102
}
  0
BLOCK_RECORD
  5
52
330
1
100
AcDbSymbolTableRecord
100
AcDbBlockTableRecord
  2
HL905-Abdeckung-flach-11217__3
340
0
102
{BLKREFS
331
56
102
}
  0
BLOCK_RECORD
  5
55
330
1
100
AcDbSymbolTableRecord
100
AcDbBlockTableRecord
  2
HL905_2-WEB-Zeichnungen__4
340
0
102
{BLKREFS
331
5A
102
}
  0
BLOCK_RECORD
  5
59
330
1
100
AcDbSymbolTableRecord
100
AcDbBlockTableRecord
  2
Vordans3
340
0
102
{BLKREFS
331
5E
102
}
  0
BLOCK_RECORD
  5
1D7
330
1
100
AcDbSymbolTableRecord
100
AcDbBlockTableRecord
  2
*D7
340
0
  0
BLOCK_RECORD
  5
1E2
330
1
100
AcDbSymbolTableRecord
100
AcDbBlockTableRecord
  2
*D8
340
0
  0
ENDTAB
  0
ENDSEC
  0
SECTION
  2
BLOCKS
  0
BLOCK
  5
20
330
1F
100
AcDbEntity
  8
0
100
AcDbBlockBegin
  2
*Model_Space
 70
     0
 10
0.0
 20
0.0
 30
0.0
  3
*Model_Space
  1

  0
ENDBLK
  5
21
330
1F
100
AcDbEntity
  8
0
100
AcDbBlockEnd
  0
BLOCK
  5
1C
330
1B
100
AcDbEntity
 67
     1
  8
0
100
AcDbBlockBegin
  2
*Paper_Space
 70
     0
 10
0.0
 20
0.0
 30
0.0
  3
*Paper_Space
  1

  0
ENDBLK
  5
1D
330
1B
100
AcDbEntity
 67
     1
  8
0
100
AcDbBlockEnd
  0
BLOCK
  5
24
330
23
100
AcDbEntity
  8
0
100
AcDbBlockBegin
  2
*Paper_Space0
 70
     0
 10
0.0
 20
0.0
 30
0.0
  3
*Paper_Space0
  1

  0
ENDBLK
  5
25
330
23
100
AcDbEntity
  8
0
100
AcDbBlockEnd
  0
BLOCK
  5
48
330
47
100
AcDbEntity
  8
0
100
AcDbBlockBegin
  2
HL905-Abdeckung-flach-11217__1
 70
     0
 10
-572.5499998139974
 20
38.49999999997405
 30
0.0
  3
HL905-Abdeckung-flach-11217__1
  1

  0
LINE
  5
5F
330
47
100
AcDbEntity
  8
0
  6
Continuous
 62
     7
100
AcDbLine
 10
-569.5486832932108
 20
149.4189568294589
 30
0.0
 11
-569.55932611156
 21
149.4182327489881
 31
0.0
  0
LINE
  5
60
330
47
100
AcDbEntity
  8
0
  6
Continuous
 62
     7
100
AcDbLine
 10
-569.548683293211
 20
149.3451499623179
 30
0.0
 11
-569.5593261115596
 21
149.344425881847
 31
0.0
  0
LINE
  5
61
330
47
100
AcDbEntity
  8
0
  6
Continuous
 62
     7
100
AcDbLine
 10
-569.5501140448049
 20
149.3450526216273
 30
0.0
 11
-569.5501140448049
 21
149.3599318644451
 31
0.0
  0
LINE
  5
62
330
47
100
AcDbEntity
  8
0
  6
Continuous
 62
     3
100
AcDbLine
 10
-569.5430129325152
 20
149.3604149861673
 30
0.0
 11
-569.5501140448049
 21
149.3599318644451
 31
0.0
  0
LINE
  5
63
330
47
100
AcDbEntity
  8
0
  6
Continuous
 62
     7
100
AcDbLine
 10
-564.4499998139972
 20
66.79999999997405
 30
0.0
 11
-564.4499998139972
 21
135.199999999974
 31
0.0
  0
LINE
  5
64
330
47
100
AcDbEntity
  8
0
  6
Continuous
 62
     3
100
AcDbLine
 10
-569.5430129325152
 20
149.3604149861673
 30
0.0
 11
-555.4499999430295
 21
149.4473805367778
 31
0.0
  0
LINE
  5
65
330
47
100
AcDbEntity
  8
0
  6
Continuous
 62
     3
100
AcDbLine
 10
-555.4499999430295
 20
149.3735682845397
 30
0.0
 11
-569.5499998139974
 21
149.2865596190896
 31
0.0
  0
LINE
  5
66
330
47
100
AcDbEntity
  8
0
  6
Continuous
 62
     7
100
AcDbLine
 10
-555.4499999430295
 20
149.4321507361773
 30
0.0
 11
-569.5486757702932
 21
149.3451502411723
 31
0.0
  0
LINE
  5
67
330
47
100
AcDbEntity
  8
0
  6
Continuous
 62
     7
100
AcDbLine
 10
-569.5486757702931
 20
149.4189571083134
 30
0.0
 11
-555.4499999430295
 21
149.5059576033184
 31
0.0
  0
LINE
  5
68
330
47
100
AcDbEntity
  8
0
  6
Continuous
 62
     7
100
AcDbLine
 10
-569.5593335467914
 20
149.4182320136532
 30
0.0
 11
-572.5499998139974
 21
149.0295935380094
 31
0.0
  0
LINE
  5
69
330
47
100
AcDbEntity
  8
0
  6
Continuous
 62
     3
100
AcDbLine
 10
-569.550000475184
 20
149.286667138715
 30
0.0
 11
-569.5570680301674
 21
149.2861863000525
 31
0.0
  0
LINE
  5
6A
330
47
100
AcDbEntity
  8
0
  6
Continuous
 62
     7
100
AcDbLine
 10
-569.5499998139974
 20
149.2865596190896
 30
0.0
 11
-569.5499998139971
 21
144.0687224231457
 31
0.0
  0
LINE
  5
6B
330
47
100
AcDbEntity
  8
0
  6
Continuous
 62
     3
100
AcDbLine
 10
-569.5501798907342
 20
143.786514043874
 30
0.0
 11
-572.5499998139974
 21
143.8051813583255
 31
0.0
  0
LINE
  5
6C
330
47
100
AcDbEntity
  8
0
  6
Continuous
 62
     7
100
AcDbLine
 10
-572.5499998139974
 20
149.0295935380094
 30
0.0
 11
-572.5499998139974
 21
148.9711732158584
 31
0.0
  0
LINE
  5
6D
330
47
100
AcDbEntity
  8
0
  6
Continuous
 62
     3
100
AcDbLine
 10
-569.5501798907343
 20
149.3610012133742
 30
0.0
 11
-572.5499998139974
 21
148.9711732158584
 31
0.0
  0
LINE
  5
6E
330
47
100
AcDbEntity
  8
0
  6
Continuous
 62
     7
100
AcDbLine
 10
-572.5499998139974
 20
148.9557866708684
 30
0.0
 11
-572.5499998139974
 21
148.9711732158584
 31
0.0
  0
LINE
  5
6F
330
47
100
AcDbEntity
  8
0
  6
Continuous
 62
     7
100
AcDbLine
 10
-572.5499998139974
 20
148.8972534194671
 30
0.0
 11
-572.5499998139974
 21
148.9557866708684
 31
0.0
  0
LINE
  5
70
330
47
100
AcDbEntity
  8
0
  6
Continuous
 62
     7
100
AcDbLine
 10
-572.5499998139974
 20
144.0868456592314
 30
0.0
 11
-572.5499998139974
 21
148.8972534194671
 31
0.0
  0
LINE
  5
71
330
47
100
AcDbEntity
  8
0
  6
Continuous
 62
     7
100
AcDbLine
 10
-572.5499998139974
 20
143.8051813583255
 30
0.0
 11
-572.5499998139974
 21
143.2870976998146
 31
0.0
  0
LINE
  5
72
330
47
100
AcDbEntity
  8
0
  6
Continuous
 62
     7
100
AcDbLine
 10
-572.5499998139974
 20
143.2870976998146
 30
0.0
 11
-572.5499998139974
 21
143.2262781256559
 31
0.0
  0
LINE
  5
73
330
47
100
AcDbEntity
  8
0
  6
Continuous
 62
     3
100
AcDbLine
 10
-569.5430129325152
 20
143.7858312107344
 30
0.0
 11
-569.5501140448049
 21
143.7854357284887
 31
0.0
  0
LINE
  5
74
330
47
100
AcDbEntity
  8
0
  6
Continuous
 62
     7
100
AcDbLine
 10
-569.5501140448049
 20
142.5196587442985
 30
0.0
 11
-569.5501140448049
 21
143.7854357284887
 31
0.0
  0
LINE
  5
75
330
47
100
AcDbEntity
  8
0
  6
Continuous
 62
     3
100
AcDbLine
 10
-555.7499998139974
 20
135.199999999974
 30
0.0
 11
-555.7499998139974
 21
142.3116774985816
 31
0.0
  0
LINE
  5
76
330
47
100
AcDbEntity
  8
0
  6
Continuous
 62
     3
100
AcDbLine
 10
-561.4499998139974
 20
135.199999999974
 30
0.0
 11
-564.4499998139972
 21
135.199999999974
 31
0.0
  0
LINE
  5
77
330
47
100
AcDbEntity
  8
0
  6
Continuous
 62
     7
100
AcDbLine
 10
-564.4499998139972
 20
142.4230336450898
 30
0.0
 11
-564.4499998139972
 21
135.199999999974
 31
0.0
  0
LINE
  5
78
330
47
100
AcDbEntity
  8
0
  6
Continuous
 62
     3
100
AcDbLine
 10
-563.6534898798095
 20
142.1966311667406
 30
0.0
 11
-563.6534898798095
 21
142.1704641696317
 31
0.0
  0
LINE
  5
79
330
47
100
AcDbEntity
  8
0
  6
Continuous
 62
     7
100
AcDbLine
 10
-564.04999926561
 20
142.4205653107483
 30
0.0
 11
-564.04999926561
 21
142.0832704134903
 31
0.0
  0
LINE
  5
7A
330
47
100
AcDbEntity
  8
0
  6
Continuous
 62
     3
100
AcDbLine
 10
-561.4499998139972
 20
142.3486687840216
 30
0.0
 11
-561.4499998139974
 21
135.199999999974
 31
0.0
  0
LINE
  5
7B
330
47
100
AcDbEntity
  8
0
  6
Continuous
 62
     7
100
AcDbLine
 10
-564.04999926561
 20
142.0832704134903
 30
0.0
 11
-564.04999926561
 21
141.8556234582275
 31
0.0
  0
LINE
  5
7C
330
47
100
AcDbEntity
  8
0
  6
Continuous
 62
     3
100
AcDbLine
 10
-564.0863629518271
 20
141.9803507312186
 30
0.0
 11
-564.0863629518271
 21
141.7561075870657
 31
0.0
  0
LINE
  5
7D
330
47
100
AcDbEntity
  8
0
  6
Continuous
 62
     7
100
AcDbLine
 10
-569.6752857892031
 20
142.4858802065899
 30
0.0
 11
-572.5499998139974
 21
143.2262781256559
 31
0.0
  0
LINE
  5
7E
330
47
100
AcDbEntity
  8
0
  6
Continuous
 62
     3
100
AcDbLine
 10
-572.5499998139974
 20
148.8972534194671
 30
0.0
 11
-569.5570680301674
 21
149.2861863000525
 31
0.0
  0
LINE
  5
7F
330
47
100
AcDbEntity
  8
0
  6
Continuous
 62
     7
100
AcDbLine
 10
-572.5499998139974
 20
148.9557866708684
 30
0.0
 11
-569.5593335467911
 21
149.3444251465123
 31
0.0
  0
LINE
  5
80
330
47
100
AcDbEntity
  8
0
  6
Continuous
 62
     7
100
AcDbLine
 10
-572.5499998139974
 20
144.0868456592314
 30
0.0
 11
-572.5499998139974
 21
143.8051813583255
 31
0.0
  0
LINE
  5
81
330
47
100
AcDbEntity
  8
0
  6
Continuous
 62
     3
100
AcDbLine
 10
-569.5500004751837
 20
144.0686148217131
 30
0.0
 11
-569.557068030168
 21
144.0682212083744
 31
0.0
  0
LINE
  5
82
330
47
100
AcDbEntity
  8
0
  6
Continuous
 62
     3
100
AcDbLine
 10
-569.557068030168
 20
144.0682212083744
 30
0.0
 11
-572.5499998139974
 21
144.0868456592314
 31
0.0
  0
LINE
  5
83
330
47
100
AcDbEntity
  8
0
  6
Continuous
 62
     3
100
AcDbLine
 10
-569.5499998139971
 20
144.0687224231457
 30
0.0
 11
-555.4499999430295
 21
143.9817137576954
 31
0.0
  0
LINE
  5
84
330
47
100
AcDbEntity
  8
0
  6
Continuous
 62
     3
100
AcDbLine
 10
-555.4499999430295
 20
142.4260732658863
 30
0.0
 11
-569.4200926235095
 21
142.5122802964868
 31
0.0
  0
LINE
  5
85
330
47
100
AcDbEntity
  8
0
  6
Continuous
 62
     3
100
AcDbLine
 10
-569.5430129325152
 20
143.7858312107344
 30
0.0
 11
-555.4499999430295
 21
143.6988656601239
 31
0.0
  0
LINE
  5
86
330
47
100
AcDbEntity
  8
0
  6
Continuous
 62
     7
100
AcDbLine
 10
-569.4195814583913
 20
142.4537000756345
 30
0.0
 11
-555.4499999430295
 21
142.3674961993457
 31
0.0
  0
LINE
  5
87
330
47
100
AcDbEntity
  8
0
  6
Continuous
 62
     7
100
AcDbLine
 10
-551.4499998139974
 20
48.49999999997405
 30
0.0
 11
-551.4499998139974
 21
153.4999999999741
 31
0.0
  0
LINE
  5
88
330
47
100
AcDbEntity
  8
0
  6
Continuous
 62
     3
100
AcDbLine
 10
-555.7499998139974
 20
135.199999999974
 30
0.0
 11
-561.4499998139974
 21
135.199999999974
 31
0.0
  0
LINE
  5
89
330
47
100
AcDbEntity
  8
0
  6
Continuous
 62
     3
100
AcDbLine
 10
-569.6445717029959
 20
142.5387892041383
 30
0.0
 11
-572.5499998139974
 21
143.2870976998146
 31
0.0
  0
LINE
  5
8A
330
47
100
AcDbEntity
  8
0
  6
Continuous
 62
     7
100
AcDbLine
 10
-554.9499999430295
 20
163.4999999999741
 30
0.0
 11
-554.2292585616324
 21
163.4999999999741
 31
0.0
  0
LINE
  5
8B
330
47
100
AcDbEntity
  8
0
  6
Continuous
 62
     7
100
AcDbLine
 10
-554.2292585616324
 20
38.49999999997405
 30
0.0
 11
-554.9499999430295
 21
38.49999999997405
 31
0.0
  0
LINE
  5
8C
330
47
100
AcDbEntity
  8
0
  6
Continuous
 62
     3
100
AcDbLine
 10
-554.9499999430295
 20
38.49999999997405
 30
0.0
 11
-554.9499999430295
 21
48.49999999997405
 31
0.0
  0
LINE
  5
8D
330
47
100
AcDbEntity
  8
0
  6
Continuous
 62
     7
100
AcDbLine
 10
-555.4499999430295
 20
38.99999999997405
 30
0.0
 11
-555.4499999430295
 21
48.49999999997405
 31
0.0
  0
LINE
  5
8E
330
47
100
AcDbEntity
  8
0
  6
Continuous
 62
     3
100
AcDbLine
 10
-554.9499999430295
 20
48.49999999997405
 30
0.0
 11
-554.9499999430295
 21
153.4999999999741
 31
0.0
  0
LINE
  5
8F
330
47
100
AcDbEntity
  8
0
  6
Continuous
 62
     3
100
AcDbLine
 10
-554.9499999430295
 20
163.4999999999741
 30
0.0
 11
-554.9499999430295
 21
153.4999999999741
 31
0.0
  0
LINE
  5
90
330
47
100
AcDbEntity
  8
0
  6
Continuous
 62
     3
100
AcDbLine
 10
-554.2292585616324
 20
163.4999999999741
 30
0.0
 11
-554.2292585616324
 21
153.4999999999741
 31
0.0
  0
LINE
  5
91
330
47
100
AcDbEntity
  8
0
  6
Continuous
 62
     3
100
AcDbLine
 10
-554.9499999430295
 20
153.4999999999741
 30
0.0
 11
-554.2292585616324
 21
153.4999999999741
 31
0.0
  0
LINE
  5
92
330
47
100
AcDbEntity
  8
0
  6
Continuous
 62
     3
100
AcDbLine
 10
-555.4499999430295
 20
153.4999999999741
 30
0.0
 11
-554.9499999430295
 21
153.4999999999741
 31
0.0
  0
LINE
  5
93
330
47
100
AcDbEntity
  8
0
  6
Continuous
 62
     7
100
AcDbLine
 10
-555.4499999430295
 20
162.9999999999741
 30
0.0
 11
-555.4499999430295
 21
153.4999999999741
 31
0.0
  0
LINE
  5
94
330
47
100
AcDbEntity
  8
0
  6
Continuous
 62
     7
100
AcDbLine
 10
-555.4499999430295
 20
48.49999999997405
 30
0.0
 11
-555.4499999430295
 21
153.4999999999741
 31
0.0
  0
LINE
  5
95
330
47
100
AcDbEntity
  8
0
  6
Continuous
 62
     3
100
AcDbLine
 10
-555.4499999430295
 20
135.199999999974
 30
0.0
 11
-555.7499998139974
 21
135.199999999974
 31
0.0
  0
LINE
  5
96
330
47
100
AcDbEntity
  8
0
  6
Continuous
 62
     3
100
AcDbLine
 10
-555.7499998139974
 20
135.199999999974
 30
0.0
 11
-555.7499998139974
 21
66.79999999997405
 31
0.0
  0
LINE
  5
97
330
47
100
AcDbEntity
  8
0
  6
Continuous
 62
     3
100
AcDbLine
 10
-561.4499998139974
 20
66.79999999997405
 30
0.0
 11
-561.4499998139974
 21
135.199999999974
 31
0.0
  0
LINE
  5
98
330
47
100
AcDbEntity
  8
0
  6
Continuous
 62
     7
100
AcDbLine
 10
-564.4499998139972
 20
59.50315948771736
 30
0.0
 11
-564.4499998139972
 21
66.79999999997405
 31
0.0
  0
LINE
  5
99
330
47
100
AcDbEntity
  8
0
  6
Continuous
 62
     3
100
AcDbLine
 10
-564.4499998139972
 20
66.79999999997405
 30
0.0
 11
-561.4499998139974
 21
66.79999999997405
 31
0.0
  0
LINE
  5
9A
330
47
100
AcDbEntity
  8
0
  6
Continuous
 62
     3
100
AcDbLine
 10
-561.4499998139972
 20
59.65132275232125
 30
0.0
 11
-561.4499998139974
 21
66.79999999997405
 31
0.0
  0
LINE
  5
9B
330
47
100
AcDbEntity
  8
0
  6
Continuous
 62
     3
100
AcDbLine
 10
-555.7499998139974
 20
59.68831398897385
 30
0.0
 11
-555.7499998139974
 21
66.79999999997405
 31
0.0
  0
LINE
  5
9C
330
47
100
AcDbEntity
  8
0
  6
Continuous
 62
     3
100
AcDbLine
 10
-563.6534898798095
 20
59.82952709767895
 30
0.0
 11
-563.6534898798095
 21
59.73265007744355
 31
0.0
  0
LINE
  5
9D
330
47
100
AcDbEntity
  8
0
  6
Continuous
 62
     7
100
AcDbLine
 10
-564.04999926561
 20
60.14436832825545
 30
0.0
 11
-564.04999926561
 21
59.91672958645775
 31
0.0
  0
LINE
  5
9E
330
47
100
AcDbEntity
  8
0
  6
Continuous
 62
     3
100
AcDbLine
 10
-555.7499998139974
 20
66.79999999997405
 30
0.0
 11
-561.4499998139974
 21
66.79999999997405
 31
0.0
  0
LINE
  5
9F
330
47
100
AcDbEntity
  8
0
  6
Continuous
 62
     3
100
AcDbLine
 10
-555.4499999430295
 20
66.79999999997405
 30
0.0
 11
-555.7499998139974
 21
66.79999999997405
 31
0.0
  0
LINE
  5
A0
330
47
100
AcDbEntity
  8
0
  6
Continuous
 62
     3
100
AcDbLine
 10
-554.2292585616324
 20
38.49999999997405
 30
0.0
 11
-554.2292585616324
 21
48.49999999997405
 31
0.0
  0
LINE
  5
A1
330
47
100
AcDbEntity
  8
0
  6
Continuous
 62
     3
100
AcDbLine
 10
-553.283739986033
 20
162.8255681544312
 30
0.0
 11
-553.283739986033
 21
153.4999999999741
 31
0.0
  0
LINE
  5
A2
330
47
100
AcDbEntity
  8
0
  6
Continuous
 62
     3
100
AcDbLine
 10
-553.283739986033
 20
153.4999999999741
 30
0.0
 11
-554.2292585616324
 21
153.4999999999741
 31
0.0
  0
LINE
  5
A3
330
47
100
AcDbEntity
  8
0
  6
Continuous
 62
     3
100
AcDbLine
 10
-553.283739986033
 20
39.17443184551689
 30
0.0
 11
-553.283739986033
 21
48.49999999997405
 31
0.0
  0
LINE
  5
A4
330
47
100
AcDbEntity
  8
0
  6
Continuous
 62
     3
100
AcDbLine
 10
-554.2292585616324
 20
48.49999999997405
 30
0.0
 11
-554.2292585616324
 21
153.4999999999741
 31
0.0
  0
LINE
  5
A5
330
47
100
AcDbEntity
  8
0
  6
Continuous
 62
     3
100
AcDbLine
 10
-551.5044812383981
 20
157.6582255453498
 30
0.0
 11
-551.5044812383981
 21
153.4999999999741
 31
0.0
  0
LINE
  5
A6
330
47
100
AcDbEntity
  8
0
  6
Continuous
 62
     7
100
AcDbLine
 10
-551.4499998139974
 20
153.4999999999741
 30
0.0
 11
-551.4499998139974
 21
157.3326573908926
 31
0.0
  0
LINE
  5
A7
330
47
100
AcDbEntity
  8
0
  6
Continuous
 62
     3
100
AcDbLine
 10
-551.5044812383981
 20
153.4999999999741
 30
0.0
 11
-553.283739986033
 21
153.4999999999741
 31
0.0
  0
LINE
  5
A8
330
47
100
AcDbEntity
  8
0
  6
Continuous
 62
     3
100
AcDbLine
 10
-551.5044812383981
 20
153.4999999999741
 30
0.0
 11
-551.4499998139974
 21
153.4999999999741
 31
0.0
  0
LINE
  5
A9
330
47
100
AcDbEntity
  8
0
  6
Continuous
 62
     7
100
AcDbLine
 10
-551.4499998139974
 20
44.66734260905548
 30
0.0
 11
-551.4499998139974
 21
48.49999999997405
 31
0.0
  0
LINE
  5
AA
330
47
100
AcDbEntity
  8
0
  6
Continuous
 62
     3
100
AcDbLine
 10
-551.5044812383981
 20
48.49999999997405
 30
0.0
 11
-551.4499998139974
 21
48.49999999997405
 31
0.0
  0
LINE
  5
AB
330
47
100
AcDbEntity
  8
0
  6
Continuous
 62
     3
100
AcDbLine
 10
-551.5044812383981
 20
44.34177445459832
 30
0.0
 11
-551.5044812383981
 21
48.49999999997405
 31
0.0
  0
LINE
  5
AC
330
47
100
AcDbEntity
  8
0
  6
Continuous
 62
     3
100
AcDbLine
 10
-551.5044812383981
 20
48.49999999997405
 30
0.0
 11
-551.5044812383981
 21
153.4999999999741
 31
0.0
  0
LINE
  5
AD
330
47
100
AcDbEntity
  8
0
  6
Continuous
 62
     3
100
AcDbLine
 10
-553.283739986033
 20
48.49999999997405
 30
0.0
 11
-553.283739986033
 21
153.4999999999741
 31
0.0
  0
LINE
  5
AE
330
47
100
AcDbEntity
  8
0
  6
Continuous
 62
     7
100
AcDbLine
 10
-551.5044812383981
 20
157.6582255453498
 30
0.0
 11
-553.283739986033
 21
162.8255681544312
 31
0.0
  0
LINE
  5
AF
330
47
100
AcDbEntity
  8
0
  6
Continuous
 62
     3
100
AcDbLine
 10
-569.5570680301679
 20
52.64000683275465
 30
0.0
 11
-572.5499998139974
 21
53.02893971333995
 31
0.0
  0
LINE
  5
B0
330
47
100
AcDbEntity
  8
0
  6
Continuous
 62
     3
100
AcDbLine
 10
-572.5499998139974
 20
57.83934747357566
 30
0.0
 11
-569.5570680301674
 21
57.85797192443255
 31
0.0
  0
LINE
  5
B1
330
47
100
AcDbEntity
  8
0
  6
Continuous
 62
     3
100
AcDbLine
 10
-572.5499998139974
 20
58.12101177448155
 30
0.0
 11
-569.550179890734
 21
58.13967908893305
 31
0.0
  0
LINE
  5
B2
330
47
100
AcDbEntity
  8
0
  6
Continuous
 62
     3
100
AcDbLine
 10
-569.5500004751837
 20
52.63952599409205
 30
0.0
 11
-569.5570680301679
 21
52.64000683275465
 31
0.0
  0
LINE
  5
B3
330
47
100
AcDbEntity
  8
0
  6
Continuous
 62
     7
100
AcDbLine
 10
-569.5486832932108
 20
52.58104317048915
 30
0.0
 11
-569.55932611156
 21
52.58176725096006
 31
0.0
  0
LINE
  5
B4
330
47
100
AcDbEntity
  8
0
  6
Continuous
 62
     7
100
AcDbLine
 10
-572.5499998139974
 20
58.12101177448155
 30
0.0
 11
-572.5499998139974
 21
57.83934747357566
 31
0.0
  0
LINE
  5
B5
330
47
100
AcDbEntity
  8
0
  6
Continuous
 62
     7
100
AcDbLine
 10
-572.5499998139974
 20
58.63909543299255
 30
0.0
 11
-572.5499998139974
 21
58.12101177448155
 31
0.0
  0
LINE
  5
B6
330
47
100
AcDbEntity
  8
0
  6
Continuous
 62
     7
100
AcDbLine
 10
-572.5499998139974
 20
57.83934747357566
 30
0.0
 11
-572.5499998139974
 21
53.02893971333995
 31
0.0
  0
LINE
  5
B7
330
47
100
AcDbEntity
  8
0
  6
Continuous
 62
     7
100
AcDbLine
 10
-572.5499998139974
 20
53.02893971333995
 30
0.0
 11
-572.5499998139974
 21
52.97040646193875
 31
0.0
  0
LINE
  5
B8
330
47
100
AcDbEntity
  8
0
  6
Continuous
 62
     7
100
AcDbLine
 10
-569.5593335467914
 20
52.58176798629475
 30
0.0
 11
-572.5499998139974
 21
52.97040646193875
 31
0.0
  0
LINE
  5
B9
330
47
100
AcDbEntity
  8
0
  6
Continuous
 62
     7
100
AcDbLine
 10
-572.5499998139974
 20
58.63909543299255
 30
0.0
 11
-572.5499998139974
 21
58.69991500715125
 31
0.0
  0
LINE
  5
BA
330
47
100
AcDbEntity
  8
0
  6
Continuous
 62
     7
100
AcDbLine
 10
-572.5499998139974
 20
58.70301119617355
 30
0.0
 11
-572.5499998139974
 21
58.69991500715125
 31
0.0
  0
LINE
  5
BB
330
47
100
AcDbEntity
  8
0
  6
Continuous
 62
     7
100
AcDbLine
 10
-569.6752857892031
 20
59.44340911523955
 30
0.0
 11
-572.5499998139974
 21
58.70301119617355
 31
0.0
  0
LINE
  5
BC
330
47
100
AcDbEntity
  8
0
  6
Continuous
 62
     7
100
AcDbLine
 10
-572.5499998139974
 20
58.69991500715125
 30
0.0
 11
-569.6752857892035
 21
59.44031292621905
 31
0.0
  0
LINE
  5
BD
330
47
100
AcDbEntity
  8
0
  6
Continuous
 62
     3
100
AcDbLine
 10
-569.6445717029959
 20
59.38740392866875
 30
0.0
 11
-572.5499998139974
 21
58.63909543299255
 31
0.0
  0
LINE
  5
BE
330
47
100
AcDbEntity
  8
0
  6
Continuous
 62
     3
100
AcDbLine
 10
-569.550000475184
 20
57.85757831109385
 30
0.0
 11
-569.5570680301674
 21
57.85797192443255
 31
0.0
  0
LINE
  5
BF
330
47
100
AcDbEntity
  8
0
  6
Continuous
 62
     7
100
AcDbLine
 10
-569.4195814583913
 20
59.47558924619496
 30
0.0
 11
-564.4499998139972
 21
59.50625567673976
 31
0.0
  0
LINE
  5
C0
330
47
100
AcDbEntity
  8
0
  6
Continuous
 62
     3
100
AcDbLine
 10
-555.4499999430295
 20
59.50011986692086
 30
0.0
 11
-569.4200926235095
 21
59.41391283632035
 31
0.0
  0
LINE
  5
C1
330
47
100
AcDbEntity
  8
0
  6
Continuous
 62
     7
100
AcDbLine
 10
-569.5501140448047
 20
59.40653438850895
 30
0.0
 11
-569.5501140448047
 21
58.14075740431835
 31
0.0
  0
LINE
  5
C2
330
47
100
AcDbEntity
  8
0
  6
Continuous
 62
     3
100
AcDbLine
 10
-569.5430129325152
 20
58.14036192207266
 30
0.0
 11
-569.5501140448047
 21
58.14075740431835
 31
0.0
  0
LINE
  5
C3
330
47
100
AcDbEntity
  8
0
  6
Continuous
 62
     3
100
AcDbLine
 10
-555.4499999430295
 20
58.22732747268316
 30
0.0
 11
-569.5430129325152
 21
58.14036192207266
 31
0.0
  0
LINE
  5
C4
330
47
100
AcDbEntity
  8
0
  6
Continuous
 62
     7
100
AcDbLine
 10
-555.4499999430295
 20
59.55869693346145
 30
0.0
 11
-569.4195814583911
 21
59.47249305717256
 31
0.0
  0
LINE
  5
C5
330
47
100
AcDbEntity
  8
0
  6
Continuous
 62
     7
100
AcDbLine
 10
-569.5486757702931
 20
52.58104289163475
 30
0.0
 11
-555.4499999430295
 21
52.49404239662975
 31
0.0
  0
LINE
  5
C6
330
47
100
AcDbEntity
  8
0
  6
Continuous
 62
     3
100
AcDbLine
 10
-555.4499999430295
 20
57.94447937511156
 30
0.0
 11
-569.5499998139974
 21
57.85747070966136
 31
0.0
  0
LINE
  5
C7
330
47
100
AcDbEntity
  8
0
  6
Continuous
 62
     7
100
AcDbLine
 10
-569.5499998139974
 20
57.85747070966136
 30
0.0
 11
-569.5499998139971
 21
52.63963351371746
 31
0.0
  0
LINE
  5
C8
330
47
100
AcDbEntity
  8
0
  6
Continuous
 62
     7
100
AcDbLine
 10
-564.04999926561
 20
59.91672958645775
 30
0.0
 11
-564.0499992656102
 21
59.50562782205876
 31
0.0
  0
LINE
  5
C9
330
47
100
AcDbEntity
  8
0
  6
Continuous
 62
     3
100
AcDbLine
 10
-564.0863629518271
 20
60.01964144565125
 30
0.0
 11
-564.0863629518271
 21
60.24388432222635
 31
0.0
  0
LINE
  5
CA
330
47
100
AcDbEntity
  8
0
  6
Continuous
 62
     3
100
AcDbLine
 10
-554.9499999430295
 20
48.49999999997405
 30
0.0
 11
-555.4499999430295
 21
48.49999999997405
 31
0.0
  0
LINE
  5
CB
330
47
100
AcDbEntity
  8
0
  6
Continuous
 62
     3
100
AcDbLine
 10
-554.9499999430295
 20
48.49999999997405
 30
0.0
 11
-554.2292585616324
 21
48.49999999997405
 31
0.0
  0
LINE
  5
CC
330
47
100
AcDbEntity
  8
0
  6
Continuous
 62
     3
100
AcDbLine
 10
-554.2292585616324
 20
48.49999999997405
 30
0.0
 11
-553.283739986033
 21
48.49999999997405
 31
0.0
  0
LINE
  5
CD
330
47
100
AcDbEntity
  8
0
  6
Continuous
 62
     3
100
AcDbLine
 10
-553.283739986033
 20
48.49999999997405
 30
0.0
 11
-551.5044812383981
 21
48.49999999997405
 31
0.0
  0
LINE
  5
CE
330
47
100
AcDbEntity
  8
0
  6
Continuous
 62
     3
100
AcDbLine
 10
-569.5499998139971
 20
52.63963351371746
 30
0.0
 11
-555.4499999430295
 21
52.55262484826726
 31
0.0
  0
LINE
  5
CF
330
47
100
AcDbEntity
  8
0
  6
Continuous
 62
     7
100
AcDbLine
 10
-551.5044812383981
 20
44.34177445459832
 30
0.0
 11
-553.283739986033
 21
39.17443184551689
 31
0.0
  0
LINE
  5
D0
330
47
100
AcDbEntity
  8
1
  6
DOT_CENTER
 62
     2
100
AcDbLine
 10
-550.6536609458772
 20
100.9999999999741
 30
0.0
 11
-566.9527965878635
 21
100.999999999974
 31
0.0
  0
ARC
  5
D1
330
47
100
AcDbEntity
  8
0
  6
Continuous
 62
     7
100
AcDbCircle
 10
-569.55879359968
 20
149.3599341163308
 30
0.0
 40
0.0086795551672524
100
AcDbArc
 50
359.9851347740129
 51
7.06202528038435
  0
ARC
  5
D2
330
47
100
AcDbEntity
  8
0
  6
Continuous
 62
     7
100
AcDbCircle
 10
-569.559012389064
 20
143.7854335307377
 30
0.0
 40
0.008898344530542
100
AcDbArc
 50
0.01415115560677
 51
6.9745558318357
  0
ARC
  5
D3
330
47
100
AcDbEntity
  8
0
  6
Continuous
 62
     7
100
AcDbCircle
 10
-554.9499999430295
 20
38.99999999997405
 30
0.0
 40
0.5
100
AcDbArc
 50
180.0
 51
270.0
  0
ARC
  5
D4
330
47
100
AcDbEntity
  8
0
  6
Continuous
 62
     7
100
AcDbCircle
 10
-554.9499999430295
 20
162.9999999999741
 30
0.0
 40
0.5
100
AcDbArc
 50
90.0
 51
180.0
  0
ARC
  5
D5
330
47
100
AcDbEntity
  8
0
  6
Continuous
 62
     7
100
AcDbCircle
 10
-554.2292585616324
 20
162.4999999999741
 30
0.0
 40
1.000000000000068
100
AcDbArc
 50
18.99999999999533
 51
90.0
  0
ARC
  5
D6
330
47
100
AcDbEntity
  8
0
  6
Continuous
 62
     7
100
AcDbCircle
 10
-554.2292585616324
 20
39.49999999997405
 30
0.0
 40
1.0
100
AcDbArc
 50
270.0
 51
341.0000000000016
  0
ARC
  5
D7
330
47
100
AcDbEntity
  8
0
  6
Continuous
 62
     7
100
AcDbCircle
 10
-552.4499998139974
 20
44.66734260905548
 30
0.0
 40
0.9999999999999793
100
AcDbArc
 50
340.9999999999995
 51
0.0
  0
ARC
  5
D8
330
47
100
AcDbEntity
  8
0
  6
Continuous
 62
     7
100
AcDbCircle
 10
-552.4499998139974
 20
157.3326573908926
 30
0.0
 40
1.0
100
AcDbArc
 50
0.0
 51
19.00000000000361
  0
ARC
  5
D9
330
47
100
AcDbEntity
  8
0
  6
Continuous
 62
     7
100
AcDbCircle
 10
-569.5590123890634
 20
58.1407596020686
 30
0.0
 40
0.0088983445300319
100
AcDbArc
 50
353.0254441727133
 51
359.9858488492421
  0
SPLINE
  5
DA
330
47
100
AcDbEntity
  8
0
  6
Continuous
 62
     7
100
AcDbSpline
210
0.0
220
0.0
230
1.0
 70
    24
 71
     3
 72
     8
 73
     4
 74
     2
 42
0.0000000001
 43
0.0000000001
 44
0.00000001
 40
0.0
 40
0.0
 40
0.0
 40
0.0
 40
0.0000074715047544
 40
0.0000074715047544
 40
0.0000074715047544
 40
0.0000074715047544
 10
-569.55932611156
 20
149.4182327489881
 30
0.0
 10
-569.5593285899704
 20
149.4182325038764
 30
0.0
 10
-569.5593310683809
 20
149.4182322587648
 30
0.0
 10
-569.5593335467914
 20
149.4182320136532
 30
0.0
 11
-569.55932611156
 21
149.4182327489881
 31
0.0
 11
-569.5593335467914
 21
149.4182320136532
 31
0.0
  0
SPLINE
  5
DB
330
47
100
AcDbEntity
  8
0
  6
Continuous
 62
     7
100
AcDbSpline
210
0.0
220
0.0
230
1.0
 70
    24
 71
     3
 72
     8
 73
     4
 74
     2
 42
0.0000000001
 43
0.0000000001
 44
0.00000001
 40
0.0
 40
0.0
 40
0.0
 40
0.0
 40
0.0000074715048508
 40
0.0000074715048508
 40
0.0000074715048508
 40
0.0000074715048508
 10
-569.5593335467911
 20
149.3444251465123
 30
0.0
 10
-569.5593310683805
 20
149.3444253916239
 30
0.0
 10
-569.55932858997
 20
149.3444256367354
 30
0.0
 10
-569.5593261115596
 20
149.344425881847
 30
0.0
 11
-569.5593335467911
 21
149.3444251465123
 31
0.0
 11
-569.5593261115596
 21
149.344425881847
 31
0.0
  0
SPLINE
  5
DC
330
47
100
AcDbEntity
  8
0
  6
Continuous
 62
     3
100
AcDbSpline
210
0.0
220
0.0
230
1.0
 70
     8
 71
     3
 72
    15
 73
    11
 74
     9
 42
0.000000001
 43
0.0000000001
 44
0.00000001
 40
0.0
 40
0.0
 40
0.0
 40
0.0
 40
0.0130326038368135
 40
0.0245656414176938
 40
0.0345229619986894
 40
0.0428287262825775
 40
0.0493801330841942
 40
0.0541091118644093
 40
0.0569977178340053
 40
0.0580764097087702
 40
0.0580764097087702
 40
0.0580764097087702
 40
0.0580764097087702
 10
-569.5501798907343
 20
149.3610012133742
 30
0.0
 10
-569.5507204810269
 20
149.3653117443184
 30
0.0
 10
-569.5517394462756
 20
149.3734368267317
 30
0.0
 10
-569.5532561174216
 20
149.3848431720571
 30
0.0
 10
-569.5546265986352
 20
149.3946834141191
 30
0.0
 10
-569.5558842590028
 20
149.4028504649351
 30
0.0
 10
-569.5568969347091
 20
149.4093221849411
 30
0.0
 10
-569.557932469118
 20
149.4138879832126
 30
0.0
 10
-569.5583678948066
 20
149.4168367285947
 30
0.0
 10
-569.5591212756485
 20
149.4179343161851
 30
0.0
 10
-569.55932611156
 20
149.4182327489881
 30
0.0
 11
-569.5501798907343
 21
149.3610012133742
 31
0.0
 11
-569.5518186164046
 21
149.3739303770447
 31
0.0
 11
-569.5533381203209
 21
149.385362877362
 31
0.0
 11
-569.554728018006
 21
149.3952227159479
 31
0.0
 11
-569.5559779249832
 21
149.4034338944243
 31
0.0
 11
-569.5570725226003
 21
149.4098932121828
 31
0.0
 11
-569.5579994173797
 21
149.4145304640314
 31
0.0
 11
-569.5587526126051
 21
149.4173191447175
 31
0.0
 11
-569.55932611156
 21
149.4182327489881
 31
0.0
  0
SPLINE
  5
DD
330
47
100
AcDbEntity
  8
0
  6
Continuous
 62
     3
100
AcDbSpline
210
0.0
220
0.0
230
1.0
 70
     8
 71
     3
 72
    15
 73
    11
 74
     9
 42
0.000000001
 43
0.0000000001
 44
0.00000001
 40
0.0
 40
0.0
 40
0.0
 40
0.0
 40
0.0131489115405665
 40
0.0247872947257707
 40
0.0348375288993626
 40
0.0432223049914882
 40
0.0498368024648808
 40
0.0546115570690527
 40
0.0575280942083203
 40
0.0586163929099135
 40
0.0586163929099135
 40
0.0586163929099135
 40
0.0586163929099135
 10
-569.550000475184
 20
149.286667138715
 30
0.0
 10
-569.5500489574447
 20
149.2910499367444
 30
0.0
 10
-569.5501403660799
 20
149.299312043057
 30
0.0
 10
-569.5501827851944
 20
149.3109235575033
 30
0.0
 10
-569.5501575777563
 20
149.3209511737712
 30
0.0
 10
-569.5500168707496
 20
149.3292916291722
 30
0.0
 10
-569.5498894656629
 20
149.3359035413065
 30
0.0
 10
-569.5494794867137
 20
149.3406130058787
 30
0.0
 10
-569.5494477360646
 20
149.3436215048757
 30
0.0
 10
-569.5488466345951
 20
149.3448233602294
 30
0.0
 10
-569.548683293211
 20
149.3451499623179
 30
0.0
 11
-569.550000475184
 21
149.286667138715
 31
0.0
 11
-569.5501286976468
 21
149.2998154224677
 31
0.0
 11
-569.550171870042
 21
149.3114537255711
 31
0.0
 11
-569.5501299877195
 21
149.3215038724443
 31
0.0
 11
-569.5500030460291
 21
149.3298876875068
 31
0.0
 11
-569.5497922632271
 21
149.3364988255478
 31
0.0
 11
-569.5495004520798
 21
149.3412646545536
 31
0.0
 11
-569.5491299997025
 21
149.3441575687388
 31
0.0
 11
-569.548683293211
 21
149.3451499623179
 31
0.0
  0
SPLINE
  5
DE
330
47
100
AcDbEntity
  8
0
  6
Continuous
 62
     7
100
AcDbSpline
210
0.0
220
0.0
230
1.0
 70
    24
 71
     3
 72
     8
 73
     4
 74
     2
 42
0.0000000001
 43
0.0000000001
 44
0.00000001
 40
0.0
 40
0.0
 40
0.0
 40
0.0
 40
0.0000075280841357
 40
0.0000075280841357
 40
0.0000075280841357
 40
0.0000075280841357
 10
-569.5486832932108
 20
149.4189568294589
 30
0.0
 10
-569.5486807855717
 20
149.4189569224104
 30
0.0
 10
-569.5486782779325
 20
149.4189570153619
 30
0.0
 10
-569.5486757702931
 20
149.4189571083134
 30
0.0
 11
-569.5486832932108
 21
149.4189568294589
 31
0.0
 11
-569.5486757702931
 21
149.4189571083134
 31
0.0
  0
SPLINE
  5
DF
330
47
100
AcDbEntity
  8
0
  6
Continuous
 62
     7
100
AcDbSpline
210
0.0
220
0.0
230
1.0
 70
    24
 71
     3
 72
     8
 73
     4
 74
     2
 42
0.0000000001
 43
0.0000000001
 44
0.00000001
 40
0.0
 40
0.0
 40
0.0
 40
0.0
 40
0.0000075280841314
 40
0.0000075280841314
 40
0.0000075280841314
 40
0.0000075280841314
 10
-569.548683293211
 20
149.3451499623179
 30
0.0
 10
-569.5486807855717
 20
149.3451500552694
 30
0.0
 10
-569.5486782779325
 20
149.3451501482209
 30
0.0
 10
-569.5486757702932
 20
149.3451502411723
 30
0.0
 11
-569.548683293211
 21
149.3451499623179
 31
0.0
 11
-569.5486757702932
 21
149.3451502411723
 31
0.0
  0
SPLINE
  5
E0
330
47
100
AcDbEntity
  8
0
  6
Continuous
 62
     3
100
AcDbSpline
210
0.0
220
0.0
230
1.0
 70
     8
 71
     3
 72
    15
 73
    11
 74
     9
 42
0.000000001
 43
0.0000000001
 44
0.00000001
 40
0.0
 40
0.0
 40
0.0
 40
0.0
 40
0.0010939050735597
 40
0.0040268520172988
 40
0.0088285393250557
 40
0.0154801781330862
 40
0.023911476368064
 40
0.0340164139213402
 40
0.0457168087061664
 40
0.0589341669630533
 40
0.0589341669630533
 40
0.0589341669630533
 40
0.0589341669630533
 10
-569.5486757702931
 20
149.4189571083134
 30
0.0
 10
-569.5484881266375
 20
149.4186416590775
 30
0.0
 10
-569.547797358223
 20
149.4174804471818
 30
0.0
 10
-569.5475423400509
 20
149.4144661196013
 30
0.0
 10
-569.5467820706401
 20
149.4097732527333
 30
0.0
 10
-569.5461633284151
 20
149.4031520676977
 30
0.0
 10
-569.5454027812948
 20
149.3947988648682
 30
0.0
 10
-569.5446325158672
 20
149.3847462682509
 30
0.0
 10
-569.5438123108247
 20
149.3731018073221
 30
0.0
 10
-569.5432899960845
 20
149.3648121478039
 30
0.0
 10
-569.5430129325152
 20
149.3604149861673
 30
0.0
 11
-569.5486757702931
 21
149.4189571083134
 31
0.0
 11
-569.5481552293827
 21
149.4179949944404
 31
0.0
 11
-569.5475696804193
 21
149.4151210931297
 31
0.0
 11
-569.5469235884183
 21
149.4103630720651
 31
0.0
 11
-569.5462214183956
 21
149.4037485989303
 31
0.0
 11
-569.5454714290297
 21
149.3953507239042
 31
0.0
 11
-569.5446827936249
 21
149.3852766077389
 31
0.0
 11
-569.5438613491353
 21
149.3736050839786
 31
0.0
 11
-569.5430129325152
 21
149.3604149861673
 31
0.0
  0
SPLINE
  5
E1
330
47
100
AcDbEntity
  8
0
  6
Continuous
 62
     7
100
AcDbSpline
210
0.0
220
0.0
230
1.0
 70
     8
 71
     3
 72
     9
 73
     5
 74
     3
 42
0.000000001
 43
0.0000000001
 44
0.00000001
 40
0.0
 40
0.0
 40
0.0
 40
0.0
 40
0.0000537508206144
 40
0.0001075221073298
 40
0.0001075221073298
 40
0.0001075221073298
 40
0.0001075221073298
 10
-569.550000475184
 20
149.286667138715
 30
0.0
 10
-569.5500002823378
 20
149.2866492227067
 30
0.0
 10
-569.5499999165718
 20
149.2866133837156
 30
0.0
 10
-569.5499998415258
 20
149.2865775429367
 30
0.0
 10
-569.5499998139974
 20
149.2865596190896
 30
0.0
 11
-569.550000475184
 21
149.286667138715
 31
0.0
 11
-569.5499999792941
 21
149.2866133901521
 31
0.0
 11
-569.5499998139974
 21
149.2865596190896
 31
0.0
  0
SPLINE
  5
E2
330
47
100
AcDbEntity
  8
0
  6
Continuous
 62
     3
100
AcDbSpline
210
0.0
220
0.0
230
1.0
 70
     8
 71
     3
 72
    15
 73
    11
 74
     9
 42
0.000000001
 43
0.0000000001
 44
0.00000001
 40
0.0
 40
0.0
 40
0.0
 40
0.0
 40
0.0131027110821156
 40
0.0246992346398769
 40
0.034712535204245
 40
0.0430658888413356
 40
0.0496552791870822
 40
0.0544117973894359
 40
0.0573171804908985
 40
0.0584016040790513
 40
0.0584016040790513
 40
0.0584016040790513
 40
0.0584016040790513
 10
-569.5570680301674
 20
149.2861863000525
 30
0.0
 10
-569.5573844646083
 20
149.2905424882297
 30
0.0
 10
-569.5579809722578
 20
149.2987541095354
 30
0.0
 10
-569.5587335876683
 20
149.3102995326763
 30
0.0
 10
-569.559321899719
 20
149.3202731042175
 30
0.0
 10
-569.559691943612
 20
149.3285753539795
 30
0.0
 10
-569.5599694494169
 20
149.3351577108853
 30
0.0
 10
-569.5598492131228
 20
149.3398653114512
 30
0.0
 10
-569.5600014650134
 20
149.3428589629429
 30
0.0
 10
-569.5594762843549
 20
149.3440904326692
 30
0.0
 10
-569.5593335467911
 20
149.3444251465123
 30
0.0
 11
-569.5570680301674
 21
149.2861863000525
 31
0.0
 11
-569.558000173115
 21
149.2992558095802
 31
0.0
 11
-569.5587551664839
 21
149.3108277300541
 31
0.0
 11
-569.5593282418137
 21
149.3208246181809
 31
0.0
 11
-569.5597146306436
 21
149.3291690306671
 31
0.0
 11
-569.5599090616676
 21
149.3357555517875
 31
0.0
 11
-569.5599099002932
 21
149.3405120697405
 31
0.0
 11
-569.5597178331309
 21
149.3434110971181
 31
0.0
 11
-569.5593335467911
 21
149.3444251465123
 31
0.0
  0
SPLINE
  5
E3
330
47
100
AcDbEntity
  8
0
  6
Continuous
 62
     7
100
AcDbSpline
210
0.0
220
0.0
230
1.0
 70
     8
 71
     3
 72
    15
 73
    11
 74
     9
 42
0.000000001
 43
0.0000000001
 44
0.00000001
 40
0.0
 40
0.0
 40
0.0
 40
0.0
 40
0.0000086061677499
 40
0.0000172081646668
 40
0.0000258061558175
 40
0.0000344002855234
 40
0.0000429906959973
 40
0.0000515775301356
 40
0.0000601609322776
 40
0.0000687410697091
 40
0.0000687410697091
 40
0.0000687410697091
 40
0.0000687410697091
 10
-569.5615360733693
 20
142.4621112613113
 30
0.0
 10
-569.5615332406601
 20
142.4621108081549
 30
0.0
 10
-569.5615275745976
 20
142.4621099147727
 30
0.0
 10
-569.5615190740335
 20
142.46210859719
 30
0.0
 10
-569.5615105717061
 20
142.4621073176617
 30
0.0
 10
-569.561502068028
 20
142.4621060735756
 30
0.0
 10
-569.5614935628715
 20
142.4621048658096
 30
0.0
 10
-569.5614850563652
 20
142.4621036934666
 30
0.0
 10
-569.5614765481553
 20
142.4621025592598
 30
0.0
 10
-569.5614708751793
 20
142.4621018181037
 30
0.0
 10
-569.5614680384
 20
142.462101454003
 30
0.0
 11
-569.5615360733693
 21
142.4621112613113
 31
0.0
 11
-569.5615275740477
 21
142.4621099093174
 31
0.0
 11
-569.5615190732691
 21
142.4621085933445
 31
0.0
 11
-569.5615105710407
 21
142.4621073133939
 31
0.0
 11
-569.5615020673695
 21
142.4621060694661
 31
0.0
 11
-569.5614935622627
 21
142.4621048615623
 31
0.0
 11
-569.5614850557274
 21
142.4621036896832
 31
0.0
 11
-569.5614765477709
 21
142.4621025538299
 31
0.0
 11
-569.5614680384
 21
142.462101454003
 31
0.0
  0
SPLINE
  5
E4
330
47
100
AcDbEntity
  8
0
  6
Continuous
 62
     7
100
AcDbSpline
210
0.0
220
0.0
230
1.0
 70
     8
 71
     3
 72
    11
 73
     7
 74
     5
 42
0.000000001
 43
0.0000000001
 44
0.00000001
 40
0.0
 40
0.0
 40
0.0
 40
0.0
 40
0.0121517627777435
 40
0.024134672861622
 40
0.0361383436774582
 40
0.048146224707419
 40
0.048146224707419
 40
0.048146224707419
 40
0.048146224707419
 10
-569.5615360733693
 20
142.4621112613113
 30
0.0
 10
-569.5655338363481
 20
142.4627634158541
 30
0.0
 10
-569.5734738096514
 20
142.4640586777762
 30
0.0
 10
-569.5853447349662
 20
142.466106423836
 30
0.0
 10
-569.5971493372388
 20
142.4682551230955
 30
0.0
 10
-569.6050005287216
 20
142.4698114498125
 30
0.0
 10
-569.6089268113483
 20
142.4705897569737
 30
0.0
 11
-569.5615360733693
 21
142.4621112613113
 31
0.0
 11
-569.5735262988378
 21
142.4640860605257
 31
0.0
 11
-569.5853347472066
 21
142.4661233831293
 31
0.0
 11
-569.5971420746996
 21
142.4682855887962
 31
0.0
 11
-569.6089268113483
 21
142.4705897569737
 31
0.0
  0
SPLINE
  5
E5
330
47
100
AcDbEntity
  8
0
  6
Continuous
 62
     3
100
AcDbSpline
210
0.0
220
0.0
230
1.0
 70
     8
 71
     3
 72
    23
 73
    19
 74
    17
 42
0.000000001
 43
0.0000000001
 44
0.00000001
 40
0.0
 40
0.0
 40
0.0
 40
0.0
 40
0.000523175295248
 40
0.0010673180131993
 40
0.0016615099418173
 40
0.0023279977197363
 40
0.0039317914439827
 40
0.0059511167942239
 40
0.0084104004693757
 40
0.0113127840856521
 40
0.0146499507471683
 40
0.0184062184574359
 40
0.02256109813386
 40
0.0270905093029645
 40
0.0319679322757237
 40
0.0371650566126222
 40
0.0483995503577683
 40
0.0605557502195894
 40
0.0605557502195894
 40
0.0605557502195894
 40
0.0605557502195894
 10
-569.5614680384
 20
142.462101454003
 30
0.0
 10
-569.5612928782701
 20
142.4620925708344
 30
0.0
 10
-569.5609355381024
 20
142.4620744343661
 30
0.0
 10
-569.5603942057475
 20
142.4622272236798
 30
0.0
 10
-569.5598585143458
 20
142.4625066595887
 30
0.0
 10
-569.5591032814723
 20
142.4630985031644
 30
0.0
 10
-569.5581850716992
 20
142.4642118563032
 30
0.0
 10
-569.5571688005899
 20
142.4659712946062
 30
0.0
 10
-569.5561813383051
 20
142.4682291594988
 30
0.0
 10
-569.5552339142524
 20
142.4709718131598
 30
0.0
 10
-569.5543384428998
 20
142.4741828723743
 30
0.0
 10
-569.5535054296134
 20
142.4778397813008
 30
0.0
 10
-569.5527456697755
 20
142.4819173837869
 30
0.0
 10
-569.552067781719
 20
142.4863875681489
 30
0.0
 10
-569.5514797227781
 20
142.4912205968126
 30
0.0
 10
-569.5508099714993
 20
142.4982924194084
 30
0.0
 10
-569.5502356572833
 20
142.5078090541769
 30
0.0
 10
-569.5501556357932
 20
142.5156064295736
 30
0.0
 10
-569.5501140448049
 20
142.5196587442985
 30
0.0
 11
-569.5614680384
 21
142.462101454003
 31
0.0
 11
-569.5609448624948
 21
142.4621027406842
 31
0.0
 11
-569.5604180540355
 21
142.4622389841155
 31
0.0
 11
-569.5598892588068
 21
142.4625099797985
 31
0.0
 11
-569.559360113141
 21
142.4629152081214
 31
0.0
 11
-569.5583073663353
 21
142.4641251154633
 31
0.0
 11
-569.5572726319178
 21
142.4658591850659
 31
0.0
 11
-569.5562686763199
 21
142.46810421237
 31
0.0
 11
-569.5553073680328
 21
142.4708427732329
 31
0.0
 11
-569.5544003708208
 21
142.4740543205555
 31
0.0
 11
-569.5535581135852
 21
142.4777149419361
 31
0.0
 11
-569.5527905841718
 21
142.4817983134518
 31
0.0
 11
-569.5521063767768
 21
142.4862757485602
 31
0.0
 11
-569.5515134672371
 21
142.4911169997063
 31
0.0
 11
-569.5510183751064
 21
142.4962904883608
 31
0.0
 11
-569.5503441195301
 21
142.5075047306393
 31
0.0
 11
-569.5501140448049
 21
142.5196587442985
 31
0.0
  0
SPLINE
  5
E6
330
47
100
AcDbEntity
  8
0
  6
Continuous
 62
     3
100
AcDbSpline
210
0.0
220
0.0
230
1.0
 70
     8
 71
     3
 72
    17
 73
    13
 74
    11
 42
0.000000001
 43
0.0000000001
 44
0.00000001
 40
0.0
 40
0.0
 40
0.0
 40
0.0
 40
0.0098519377184136
 40
0.0198457547768122
 40
0.0295577294628897
 40
0.0385676262815405
 40
0.0434027499715917
 40
0.0482356812816619
 40
0.0599854968961614
 40
0.0717214606903363
 40
0.084085570602757
 40
0.0964354176432642
 40
0.0964354176432642
 40
0.0964354176432642
 40
0.0964354176432642
 10
-569.5501140448049
 20
142.5196587442985
 30
0.0
 10
-569.5533563321447
 20
142.5201806964901
 30
0.0
 10
-569.5598875972231
 20
142.521232132126
 30
0.0
 10
-569.5696371654933
 20
142.5226539021378
 30
0.0
 10
-569.5790990091855
 20
142.5241033046721
 30
0.0
 10
-569.5868281172227
 20
142.5254980536854
 30
0.0
 10
-569.5929223070283
 20
142.5267730094161
 30
0.0
 10
-569.5999098075379
 20
142.5282371936545
 30
0.0
 10
-569.6091325376071
 20
142.5302500359323
 30
0.0
 10
-569.6207813260456
 20
142.5329165580754
 30
0.0
 10
-569.6325976950995
 20
142.5357458050429
 30
0.0
 10
-569.6405819041656
 20
142.5377751234259
 30
0.0
 10
-569.6445717029959
 20
142.5387892041383
 30
0.0
 11
-569.5501140448049
 21
142.5196587442985
 31
0.0
 11
-569.5598445594682
 21
142.521200743859
 31
0.0
 11
-569.5697283711002
 21
142.5226794754308
 31
0.0
 11
-569.5793233009247
 21
142.5241827302255
 31
0.0
 11
-569.5881871701655
 21
142.5257982994544
 31
0.0
 11
-569.5929229493428
 21
142.526773397816
 31
0.0
 11
-569.5976523986157
 21
142.5277681514436
 31
0.0
 11
-569.6091326779749
 21
142.5302704212322
 31
0.0
 11
-569.6205729286198
 21
142.5328883428194
 31
0.0
 11
-569.6325954168874
 21
142.5357746889578
 31
0.0
 11
-569.6445717029959
 21
142.5387892041383
 31
0.0
  0
SPLINE
  5
E7
330
47
100
AcDbEntity
  8
0
  6
Continuous
 62
     3
100
AcDbSpline
210
0.0
220
0.0
230
1.0
 70
     8
 71
     3
 72
    22
 73
    18
 74
    16
 42
0.000000001
 43
0.0000000001
 44
0.00000001
 40
0.0
 40
0.0
 40
0.0
 40
0.0
 40
0.000608197579101
 40
0.0012447744742706
 40
0.0019343490140893
 40
0.0026960890937507
 40
0.0044848335487094
 40
0.0066793893414115
 40
0.009305208536952
 40
0.0123667596655134
 40
0.0158565680134869
 40
0.0197592935605596
 40
0.0255690890532938
 40
0.0320168055142273
 40
0.0390364421239605
 40
0.0504806942654057
 40
0.0628030228276119
 40
0.0628030228276119
 40
0.0628030228276119
 40
0.0628030228276119
 10
-569.6752857892031
 20
142.4858802065899
 30
0.0
 10
-569.6750857633176
 20
142.485842502455
 30
0.0
 10
-569.6746763800894
 20
142.4857653211485
 30
0.0
 10
-569.6740270014393
 20
142.4858227759963
 30
0.0
 10
-569.6733522991881
 20
142.4860019209119
 30
0.0
 10
-569.6723614842325
 20
142.486441709146
 30
0.0
 10
-569.671054103716
 20
142.4873529078297
 30
0.0
 10
-569.6694585831949
 20
142.4888785340015
 30
0.0
 10
-569.6677572873086
 20
142.4908854124623
 30
0.0
 10
-569.6659565852963
 20
142.4933606674004
 30
0.0
 10
-569.6640647224328
 20
142.4962887318088
 30
0.0
 10
-569.6618350275284
 20
142.5000840047006
 30
0.0
 10
-569.6592934370244
 20
142.5048351515888
 30
0.0
 10
-569.6564550759633
 20
142.510601041022
 30
0.0
 10
-569.6529917816232
 20
142.5181489794973
 30
0.0
 10
-569.6489602851474
 20
142.5275881475126
 30
0.0
 10
-569.6460701592893
 20
142.5349646757109
 30
0.0
 10
-569.6445717029959
 20
142.5387892041383
 30
0.0
 11
-569.6752857892031
 21
142.4858802065899
 31
0.0
 11
-569.674683680426
 21
142.4857943419691
 31
0.0
 11
-569.6740486288024
 21
142.4858383538308
 31
0.0
 11
-569.6733813023698
 21
142.4860120990311
 31
0.0
 11
-569.6726824310294
 21
142.4863151269533
 31
0.0
 11
-569.6711933175687
 21
142.4873061592274
 31
0.0
 11
-569.6695882378294
 21
142.4888027526316
 31
0.0
 11
-569.6678751415582
 21
142.4907927842095
 31
0.0
 11
-569.6660624310168
 21
142.4932600041425
 31
0.0
 11
-569.6641593545785
 21
142.4961852496068
 31
0.0
 11
-569.6621753185138
 21
142.4995460332142
 31
0.0
 11
-569.6594214008027
 21
142.5046616621354
 31
0.0
 11
-569.656564651464
 21
142.5104419760977
 31
0.0
 11
-569.6536284512639
 21
142.5168180270399
 31
0.0
 11
-569.6491267804543
 21
142.5273397125827
 31
0.0
 11
-569.6445717029959
 21
142.5387892041383
 31
0.0
  0
SPLINE
  5
E8
330
47
100
AcDbEntity
  8
0
  6
Continuous
 62
     7
100
AcDbSpline
210
0.0
220
0.0
230
1.0
 70
     8
 71
     3
 72
    11
 73
     7
 74
     5
 42
0.000000001
 43
0.0000000001
 44
0.00000001
 40
0.0
 40
0.0
 40
0.0
 40
0.0
 40
0.014927495817181
 40
0.0338357887740161
 40
0.051782538696639
 40
0.0681047565947295
 40
0.0681047565947295
 40
0.0681047565947295
 40
0.0681047565947295
 10
-569.6089268113483
 20
142.4705897569737
 30
0.0
 10
-569.6137992729364
 20
142.4715990049907
 30
0.0
 10
-569.6248435587988
 20
142.4738866586723
 30
0.0
 10
-569.6416888734145
 20
142.4776544955306
 30
0.0
 10
-569.6589402737181
 20
142.4817307902676
 30
0.0
 10
-569.6700122420401
 20
142.4845414768795
 30
0.0
 10
-569.6752857892031
 20
142.4858802065899
 30
0.0
 11
-569.6089268113483
 21
142.4705897569737
 31
0.0
 11
-569.6235369535428
 21
142.4736514359427
 31
0.0
 11
-569.6419929852739
 21
142.4777622072797
 31
0.0
 11
-569.6594548620907
 21
142.4819057197619
 31
0.0
 11
-569.6752857892031
 21
142.4858802065899
 31
0.0
  0
SPLINE
  5
E9
330
47
100
AcDbEntity
  8
0
  6
Continuous
 62
     7
100
AcDbSpline
210
0.0
220
0.0
230
1.0
 70
     8
 71
     3
 72
    11
 73
     7
 74
     5
 42
0.000000001
 43
0.0000000001
 44
0.00000001
 40
0.0
 40
0.0
 40
0.0
 40
0.0
 40
0.0030718176251359
 40
0.0061185734332007
 40
0.0091271219114949
 40
0.012178791315888
 40
0.012178791315888
 40
0.012178791315888
 40
0.012178791315888
 10
-569.5493727801914
 20
142.4606794308411
 30
0.0
 10
-569.5503908713985
 20
142.4607887484914
 30
0.0
 10
-569.5524187459603
 20
142.4610065067864
 30
0.0
 10
-569.5554408974796
 20
142.4613569614094
 30
0.0
 10
-569.5584546479074
 20
142.4617210937335
 30
0.0
 10
-569.5604588220177
 20
142.4619740622837
 30
0.0
 10
-569.5614680384
 20
142.462101454003
 30
0.0
 11
-569.5493727801914
 21
142.4606794308411
 31
0.0
 11
-569.5524265727267
 21
142.4610117182733
 31
0.0
 11
-569.5554532586339
 21
142.461360851143
 31
0.0
 11
-569.5584400538547
 21
142.4617219862378
 31
0.0
 11
-569.5614680384
 21
142.462101454003
 31
0.0
  0
SPLINE
  5
EA
330
47
100
AcDbEntity
  8
0
  6
Continuous
 62
     3
100
AcDbSpline
210
0.0
220
0.0
230
1.0
 70
     8
 71
     3
 72
    15
 73
    11
 74
     9
 42
0.000000001
 43
0.0000000001
 44
0.00000001
 40
0.0
 40
0.0
 40
0.0
 40
0.0
 40
0.0303108831301935
 40
0.0648854405215419
 40
0.1023993603544625
 40
0.1414147697997874
 40
0.1804358920785362
 40
0.2179667300692643
 40
0.2525687581770303
 40
0.2829166022864169
 40
0.2829166022864169
 40
0.2829166022864169
 40
0.2829166022864169
 10
-569.5500004751837
 20
144.0686148217131
 30
0.0
 10
-569.5500798883947
 20
144.0585114000782
 30
0.0
 10
-569.5502498633798
 20
144.0368833609894
 30
0.0
 10
-569.5500347935997
 20
144.0027499705475
 30
0.0
 10
-569.5495365047423
 20
143.9657185326609
 30
0.0
 10
-569.5487192798463
 20
143.9272099951625
 30
0.0
 10
-569.5476334014115
 20
143.8887024557343
 30
0.0
 10
-569.5463016803058
 20
143.8516749048043
 30
0.0
 10
-569.5448298444055
 20
143.8175454450341
 30
0.0
 10
-569.5435915405889
 20
143.7959307035764
 30
0.0
 10
-569.5430129325152
 20
143.7858312107344
 30
0.0
 11
-569.5500004751837
 21
144.0686148217131
 31
0.0
 11
-569.5501718721616
 21
144.0383044232406
 31
0.0
 11
-569.5500014149793
 21
144.003730286242
 31
0.0
 11
-569.5494956462529
 21
143.9662197757987
 31
0.0
 11
-569.5486739852076
 21
143.9272130193876
 31
0.0
 11
-569.5475679758943
 21
143.8882075745657
 31
0.0
 11
-569.5462200818845
 21
143.8507009485228
 31
0.0
 11
-569.5446820509571
 21
143.8161331196166
 31
0.0
 11
-569.5430129325152
 21
143.7858312107344
 31
0.0
  0
SPLINE
  5
EB
330
47
100
AcDbEntity
  8
0
  6
Continuous
 62
     3
100
AcDbSpline
210
0.0
220
0.0
230
1.0
 70
     8
 71
     3
 72
   157
 73
   153
 74
   151
 42
0.000000001
 43
0.0000000001
 44
0.00000001
 40
0.0
 40
0.0
 40
0.0
 40
0.0
 40
0.0000064386718559
 40
0.0000091489031992
 40
0.0000157340878215
 40
0.0000240812562116
 40
0.0000381570383707
 40
0.000055733995234
 40
0.0000768865804083
 40
0.000101656296156
 40
0.0001300684725144
 40
0.0001621386783511
 40
0.0001978771277823
 40
0.0002372906629324
 40
0.0002803838997454
 40
0.0003315919876048
 40
0.0003871854777796
 40
0.0004471634361306
 40
0.0005115241330884
 40
0.0005802652473557
 40
0.0006533840084275
 40
0.000730877298764
 40
0.0008127417286796
 40
0.0008989736915824
 40
0.0009895694065099
 40
0.0010845249501934
 40
0.0011939793947848
 40
0.0013087043604732
 40
0.0014286880950178
 40
0.0015539187466627
 40
0.001684384380581
 40
0.0018200729919192
 40
0.0019609725165326
 40
0.0021070708396935
 40
0.002258355803152
 40
0.0024148152112405
 40
0.002576436835801
 40
0.0027432084200955
 40
0.0029151176827714
 40
0.0030921523205419
 40
0.0032743000106253
 40
0.0034615484134755
 40
0.0036538851740391
 40
0.0038512979238223
 40
0.0040537742820262
 40
0.0042613018571237
 40
0.0044736799535225
 40
0.0046911087095857
 40
0.0049135653954182
 40
0.0051410272730738
 40
0.0053734715974561
 40
0.0056108756167016
 40
0.0058532165731141
 40
0.0061004717033497
 40
0.0063526182392802
 40
0.0066096334078554
 40
0.0068714944322412
 40
0.0071381785312849
 40
0.0074096629206945
 40
0.0076859248125769
 40
0.007966941416157
 40
0.008252689937811
 40
0.0085431475813242
 40
0.0088382915480608
 40
0.0091380990371455
 40
0.0094425472455596
 40
0.0097516133685048
 40
0.0100652745991846
 40
0.0103835081291803
 40
0.0107062911484966
 40
0.0110336008456629
 40
0.0113654144078118
 40
0.0117017090208127
 40
0.0120424618692479
 40
0.0123876501365564
 40
0.0127372510051595
 40
0.0130912416563967
 40
0.0134495992707178
 40
0.0138123010276054
 40
0.0141793241056636
 40
0.0145506456828672
 40
0.0149262429361983
 40
0.0153060930421234
 40
0.015690173176256
 40
0.0160784605137073
 40
0.0164709322289227
 40
0.0169116171669192
 40
0.0173573702005809
 40
0.0178081489382575
 40
0.0182639109876351
 40
0.0187246139553799
 40
0.0191902154472987
 40
0.0196606730686476
 40
0.0201359444238495
 40
0.0206159871165647
 40
0.0211007587500084
 40
0.021590216926622
 40
0.0220843192483805
 40
0.0225830233166823
 40
0.0230862867322349
 40
0.0235940670955931
 40
0.0241063220064977
 40
0.0246230090644997
 40
0.025144085868552
 40
0.025669510017316
 40
0.0261992391089202
 40
0.0267332307413579
 40
0.0272714425120344
 40
0.0278138320181089
 40
0.0283603568565614
 40
0.0289109746237209
 40
0.0294656429159371
 40
0.030024319329252
 40
0.0305869614592358
 40
0.0311535269013192
 40
0.0317239732507698
 40
0.0322982581025064
 40
0.0328763390513059
 40
0.033458173691587
 40
0.0340437196177032
 40
0.0346329344238083
 40
0.0352257757037206
 40
0.0359418526949721
 40
0.0366629801662733
 40
0.037389082464528
 40
0.0381200839360927
 40
0.038855908927166
 40
0.039596481783322
 40
0.0403417268499538
 40
0.0410915684720875
 40
0.0418459309943426
 40
0.0426047387611718
 40
0.043367916116561
 40
0.0441353874044125
 40
0.0449070769681574
 40
0.0456829091510806
 40
0.0464628082961885
 40
0.0472466987462763
 40
0.0480345048438522
 40
0.0488261509312886
 40
0.0496215613506892
 40
0.0504206604439245
 40
0.0512233725526694
 40
0.0520296220184671
 40
0.0528393331827078
 40
0.0536524303864651
 40
0.0544688379707866
 40
0.0552884802763594
 40
0.056111281643857
 40
0.0569371664134904
 40
0.0577660589241891
 40
0.0585978895578543
 40
0.0585978895578543
 40
0.0585978895578543
 40
0.0585978895578543
 10
-569.4195814583913
 20
142.4537000756345
 30
0.0
 10
-569.4195835892845
 20
142.4537006469859
 30
0.0
 10
-569.4195866214703
 20
142.4537014480066
 30
0.0
 10
-569.4195903850579
 20
142.4537052063553
 30
0.0
 10
-569.4195938583803
 20
142.4537099595597
 30
0.0
 10
-569.4195983171446
 20
142.453718578387
 30
0.0
 10
-569.4196031497329
 20
142.4537310208551
 30
0.0
 10
-569.4196082755408
 20
142.4537478723316
 30
0.0
 10
-569.4196134021203
 20
142.4537684144289
 30
0.0
 10
-569.4196185209721
 20
142.4537926623618
 30
0.0
 10
-569.4196236275066
 20
142.4538206198201
 30
0.0
 10
-569.4196287182473
 20
142.4538522887906
 30
0.0
 10
-569.4196337908907
 20
142.4538876690989
 30
0.0
 10
-569.4196388437894
 20
142.4539267599945
 30
0.0
 10
-569.4196440481878
 20
142.4539710275474
 30
0.0
 10
-569.4196493761244
 20
142.4540207084136
 30
0.0
 10
-569.419654810398
 20
142.4540760359733
 30
0.0
 10
-569.4196602175145
 20
142.4541357696287
 30
0.0
 10
-569.419665596865
 20
142.4541999047537
 30
0.0
 10
-569.4196709479063
 20
142.454268436687
 30
0.0
 10
-569.4196762701914
 20
142.4543413607222
 30
0.0
 10
-569.4196815633304
 20
142.4544186721288
 30
0.0
 10
-569.4196868269768
 20
142.4545003661574
 30
0.0
 10
-569.4196920608247
 20
142.4545864380457
 30
0.0
 10
-569.4196972645727
 20
142.4546768830236
 30
0.0
 10
-569.4197026222378
 20
142.4547750723262
 30
0.0
 10
-569.4197081159004
 20
142.4548813088414
 30
0.0
 10
-569.4197137311614
 20
142.4549958925074
 30
0.0
 10
-569.4197193091721
 20
142.4551157426676
 30
0.0
 10
-569.419724849656
 20
142.4552408468122
 30
0.0
 10
-569.4197303523786
 20
142.455371192429
 30
0.0
 10
-569.419735817107
 20
142.4555067670035
 30
0.0
 10
-569.41974124362
 20
142.4556475580191
 30
0.0
 10
-569.4197466316982
 20
142.4557935529577
 30
0.0
 10
-569.4197519811338
 20
142.4559447393002
 30
0.0
 10
-569.4197572917178
 20
142.4561011045263
 30
0.0
 10
-569.4197625632492
 20
142.4562626361152
 30
0.0
 10
-569.4197677955281
 20
142.4564293215452
 30
0.0
 10
-569.4197729883575
 20
142.4566011482943
 30
0.0
 10
-569.4197781415446
 20
142.4567781038401
 30
0.0
 10
-569.4197832548948
 20
142.4569601756596
 30
0.0
 10
-569.4197883282204
 20
142.4571473512296
 30
0.0
 10
-569.4197933613276
 20
142.457339618027
 30
0.0
 10
-569.4197983540424
 20
142.4575369635278
 30
0.0
 10
-569.4198033061297
 20
142.4577393752093
 30
0.0
 10
-569.4198082161022
 20
142.4579467777963
 30
0.0
 10
-569.419813083419
 20
142.45815916686
 30
0.0
 10
-569.419817907864
 20
142.458376534525
 30
0.0
 10
-569.4198226912546
 20
142.4585989322129
 30
0.0
 10
-569.4198274334606
 20
142.4588263370837
 30
0.0
 10
-569.4198321344218
 20
142.4590587262959
 30
0.0
 10
-569.4198367940594
 20
142.4592960770084
 30
0.0
 10
-569.4198414123003
 20
142.4595383663799
 30
0.0
 10
-569.4198459890704
 20
142.4597855715689
 30
0.0
 10
-569.4198505242964
 20
142.460037669734
 30
0.0
 10
-569.4198550179049
 20
142.4602946380338
 30
0.0
 10
-569.4198594698236
 20
142.4605564536267
 30
0.0
 10
-569.4198638799801
 20
142.4608230936713
 30
0.0
 10
-569.4198682483022
 20
142.4610945353259
 30
0.0
 10
-569.4198725747177
 20
142.4613707557489
 30
0.0
 10
-569.419876859156
 20
142.4616517320989
 30
0.0
 10
-569.4198811015439
 20
142.4619374415341
 30
0.0
 10
-569.4198853018117
 20
142.462227861213
 30
0.0
 10
-569.4198894598877
 20
142.4625229682937
 30
0.0
 10
-569.4198935757005
 20
142.4628227399346
 30
0.0
 10
-569.4198976491804
 20
142.4631271532942
 30
0.0
 10
-569.419901680255
 20
142.4634361855306
 30
0.0
 10
-569.4199056688557
 20
142.4637498138022
 30
0.0
 10
-569.4199096149102
 20
142.4640680152672
 30
0.0
 10
-569.4199135183487
 20
142.4643907670839
 30
0.0
 10
-569.4199173791023
 20
142.4647180464106
 30
0.0
 10
-569.4199211970981
 20
142.4650498304054
 30
0.0
 10
-569.4199249722687
 20
142.4653860962268
 30
0.0
 10
-569.4199287045424
 20
142.4657268210329
 30
0.0
 10
-569.4199323938492
 20
142.466071981982
 30
0.0
 10
-569.4199360401201
 20
142.4664215562322
 30
0.0
 10
-569.4199396432841
 20
142.466775520942
 30
0.0
 10
-569.4199432032724
 20
142.4671338532693
 30
0.0
 10
-569.419946720015
 20
142.4674965303727
 30
0.0
 10
-569.4199501934411
 20
142.4678635294099
 30
0.0
 10
-569.4199536234827
 20
142.4682348275396
 30
0.0
 10
-569.4199570100685
 20
142.4686104019198
 30
0.0
 10
-569.4199603531308
 20
142.4689902297088
 30
0.0
 10
-569.4199636525957
 20
142.4693742880647
 30
0.0
 10
-569.4199669084076
 20
142.4697625541457
 30
0.0
 10
-569.4199702406228
 20
142.4701696885091
 30
0.0
 10
-569.4199736414257
 20
142.4705959781763
 30
0.0
 10
-569.419977103164
 20
142.47104170364
 30
0.0
 10
-569.4199805112564
 20
142.471492455366
 30
0.0
 10
-569.4199838658132
 20
142.4719481909414
 30
0.0
 10
-569.4199871669247
 20
142.4724088679532
 30
0.0
 10
-569.4199904146851
 20
142.4728744439886
 30
0.0
 10
-569.4199936091904
 20
142.4733448766345
 30
0.0
 10
-569.4199967505342
 20
142.4738201234783
 30
0.0
 10
-569.4199998388113
 20
142.4743001421068
 30
0.0
 10
-569.4200028741154
 20
142.4747848901072
 30
0.0
 10
-569.4200058565419
 20
142.4752743250666
 30
0.0
 10
-569.4200087861851
 20
142.475768404572
 30
0.0
 10
-569.4200116631399
 20
142.4762670862107
 30
0.0
 10
-569.4200144875003
 20
142.4767703275695
 30
0.0
 10
-569.420017259362
 20
142.4772780862357
 30
0.0
 10
-569.4200199788186
 20
142.4777903197962
 30
0.0
 10
-569.4200226459657
 20
142.4783069858382
 30
0.0
 10
-569.4200252608973
 20
142.4788280419487
 30
0.0
 10
-569.4200278237092
 20
142.4793534457148
 30
0.0
 10
-569.4200303344948
 20
142.4798831547236
 30
0.0
 10
-569.4200327933506
 20
142.4804171265621
 30
0.0
 10
-569.4200352003701
 20
142.4809553188176
 30
0.0
 10
-569.4200375556482
 20
142.4814976890767
 30
0.0
 10
-569.4200398592809
 20
142.482044194927
 30
0.0
 10
-569.420042111362
 20
142.4825947939553
 30
0.0
 10
-569.4200443119867
 20
142.4831494437486
 30
0.0
 10
-569.4200464612503
 20
142.4837081018942
 30
0.0
 10
-569.4200485592469
 20
142.4842707259789
 30
0.0
 10
-569.4200506060721
 20
142.48483727359
 30
0.0
 10
-569.4200526018207
 20
142.4854077023144
 30
0.0
 10
-569.4200545465877
 20
142.4859819697393
 30
0.0
 10
-569.4200564404675
 20
142.4865600334516
 30
0.0
 10
-569.420058283556
 20
142.4871418510385
 30
0.0
 10
-569.4200600759458
 20
142.4877273800871
 30
0.0
 10
-569.4200618177431
 20
142.4883165781843
 30
0.0
 10
-569.4200636227822
 20
142.4889492866363
 30
0.0
 10
-569.4200654777064
 20
142.4896259660098
 30
0.0
 10
-569.4200673686321
 20
142.4903470657858
 30
0.0
 10
-569.4200691879668
 20
142.4910731405885
 30
0.0
 10
-569.4200709361036
 20
142.4918041147532
 30
0.0
 10
-569.4200726134197
 20
142.4925399126159
 30
0.0
 10
-569.4200742202952
 20
142.493280458512
 30
0.0
 10
-569.4200757571112
 20
142.4940256767771
 30
0.0
 10
-569.4200772242464
 20
142.4947754917467
 30
0.0
 10
-569.4200786220822
 20
142.4955298277567
 30
0.0
 10
-569.4200799509979
 20
142.4962886091424
 30
0.0
 10
-569.4200812113738
 20
142.4970517602396
 30
0.0
 10
-569.4200824035902
 20
142.4978192053837
 30
0.0
 10
-569.4200835280271
 20
142.4985908689105
 30
0.0
 10
-569.4200845850647
 20
142.4993666751554
 30
0.0
 10
-569.4200855750834
 20
142.5001465484542
 30
0.0
 10
-569.4200864984634
 20
142.5009304131423
 30
0.0
 10
-569.4200873555844
 20
142.5017181935555
 30
0.0
 10
-569.4200881468272
 20
142.5025098140292
 30
0.0
 10
-569.4200888725723
 20
142.5033051988991
 30
0.0
 10
-569.4200895331987
 20
142.5041042725008
 30
0.0
 10
-569.4200901290881
 20
142.5049069591698
 30
0.0
 10
-569.4200906606188
 20
142.5057131832418
 30
0.0
 10
-569.4200911281761
 20
142.5065228690522
 30
0.0
 10
-569.420091532123
 20
142.5073359409369
 30
0.0
 10
-569.4200918729049
 20
142.5081523232311
 30
0.0
 10
-569.4200921506567
 20
142.5089719402707
 30
0.0
 10
-569.4200923666796
 20
142.5097947163908
 30
0.0
 10
-569.4200925178966
 20
142.5106205759267
 30
0.0
 10
-569.4200926176624
 20
142.5114494452269
 30
0.0
 10
-569.4200926176676
 20
142.5120030196088
 30
0.0
 10
-569.4200926235095
 20
142.5122802964868
 30
0.0
 11
-569.4195814583913
 21
142.4537000756345
 31
0.0
 11
-569.4195874340569
 21
142.4537024686269
 31
0.0
 11
-569.4195894194474
 21
142.4537043133948
 31
0.0
 11
-569.4195933804336
 21
142.4537095735072
 31
0.0
 11
-569.419597328312
 21
142.4537169275737
 31
0.0
 11
-569.4196025716413
 21
142.4537299898632
 31
0.0
 11
-569.4196077914187
 21
142.4537467735743
 31
0.0
 11
-569.4196129875048
 21
142.4537672778019
 31
0.0
 11
-569.4196181596801
 21
142.4537915013275
 31
0.0
 11
-569.4196233078974
 21
142.4538194430561
 31
0.0
 11
-569.4196284320172
 21
142.4538511011472
 31
0.0
 11
-569.4196335319004
 21
142.4538864737603
 31
0.0
 11
-569.4196386074075
 21
142.4539255590548
 31
0.0
 11
-569.4196436583991
 21
142.4539683551903
 31
0.0
 11
-569.4196491400595
 21
142.4540192689778
 31
0.0
 11
-569.4196545922767
 21
142.4540745944148
 31
0.0
 11
-569.4196600148816
 21
142.4541343266984
 31
0.0
 11
-569.4196654077056
 21
142.4541984610255
 31
0.0
 11
-569.4196707705795
 21
142.4542669925935
 31
0.0
 11
-569.4196761033347
 21
142.4543399165993
 31
0.0
 11
-569.4196814058021
 21
142.4544172282401
 31
0.0
 11
-569.4196866778128
 21
142.4544989227129
 31
0.0
 11
-569.4196919191982
 21
142.4545849952149
 31
0.0
 11
-569.4196971297891
 21
142.4546754409432
 31
0.0
 11
-569.4197023094168
 21
142.4547702550948
 31
0.0
 11
-569.419707969409
 21
142.4548795630817
 31
0.0
 11
-569.4197135916977
 21
142.4549941501834
 31
0.0
 11
-569.4197191761061
 21
142.4551140038749
 31
0.0
 11
-569.4197247224573
 21
142.4552391116311
 31
0.0
 11
-569.4197302305747
 21
142.4553694609271
 31
0.0
 11
-569.4197357002815
 21
142.455505039238
 31
0.0
 11
-569.4197411314013
 21
142.4556458340388
 31
0.0
 11
-569.4197465237568
 21
142.4557918328045
 31
0.0
 11
-569.419751877172
 21
142.4559430230101
 31
0.0
 11
-569.4197571914694
 21
142.4560993921307
 31
0.0
 11
-569.4197624664729
 21
142.4562609276414
 31
0.0
 11
-569.4197677020055
 21
142.4564276170171
 31
0.0
 11
-569.4197728978905
 21
142.4565994477329
 31
0.0
 11
-569.4197780539515
 21
142.4567764072639
 31
0.0
 11
-569.4197831700112
 21
142.456958483085
 31
0.0
 11
-569.4197882458934
 21
142.4571456626713
 31
0.0
 11
-569.419793281421
 21
142.4573379334979
 31
0.0
 11
-569.4197982764176
 21
142.4575352830397
 31
0.0
 11
-569.4198032307063
 21
142.4577376987718
 31
0.0
 11
-569.4198081441104
 21
142.4579451681692
 31
0.0
 11
-569.4198130117243
 21
142.4581574904719
 31
0.0
 11
-569.4198178382113
 21
142.4583748656478
 31
0.0
 11
-569.4198226235027
 21
142.458597270855
 31
0.0
 11
-569.4198273675294
 21
142.4588246832517
 31
0.0
 11
-569.4198320702224
 21
142.4590570799963
 31
0.0
 11
-569.4198367315128
 21
142.4592944382466
 31
0.0
 11
-569.4198413513316
 21
142.4595367351611
 31
0.0
 11
-569.4198459296099
 21
142.4597839478977
 31
0.0
 11
-569.4198504662785
 21
142.4600360536149
 31
0.0
 11
-569.4198549612687
 21
142.4602930294706
 31
0.0
 11
-569.4198594145114
 21
142.4605548526231
 31
0.0
 11
-569.4198638259377
 21
142.4608215002305
 31
0.0
 11
-569.4198681954787
 21
142.4610929494511
 31
0.0
 11
-569.4198725230651
 21
142.4613691774429
 31
0.0
 11
-569.4198768086284
 21
142.4616501613642
 31
0.0
 11
-569.4198810520993
 21
142.4619358783733
 31
0.0
 11
-569.4198852534089
 21
142.4622263056281
 31
0.0
 11
-569.4198894124884
 21
142.4625214202869
 31
0.0
 11
-569.4198935292686
 21
142.462821199508
 31
0.0
 11
-569.4198976036807
 21
142.4631256204493
 31
0.0
 11
-569.4199016356555
 21
142.4634346602693
 31
0.0
 11
-569.4199056251244
 21
142.4637482961259
 31
0.0
 11
-569.4199095720182
 21
142.4640665051775
 31
0.0
 11
-569.4199134762678
 21
142.4643892645821
 31
0.0
 11
-569.4199173378046
 21
142.4647165514979
 31
0.0
 11
-569.4199211565592
 21
142.4650483430832
 31
0.0
 11
-569.4199249324631
 21
142.4653846164961
 31
0.0
 11
-569.4199286654471
 21
142.4657253488948
 31
0.0
 11
-569.4199323554419
 21
142.4660705174373
 31
0.0
 11
-569.4199360023791
 21
142.4664200992821
 31
0.0
 11
-569.4199396061894
 21
142.4667740715871
 31
0.0
 11
-569.419943166804
 21
142.4671324115106
 31
0.0
 11
-569.419946684154
 21
142.4674950962108
 31
0.0
 11
-569.4199501581701
 21
142.4678621028458
 31
0.0
 11
-569.4199535887835
 21
142.4682334085738
 31
0.0
 11
-569.4199569759253
 21
142.468608990553
 31
0.0
 11
-569.4199603195266
 21
142.4689888259416
 31
0.0
 11
-569.4199636195182
 21
142.4693728918976
 31
0.0
 11
-569.4199668758313
 21
142.4697611655795
 31
0.0
 11
-569.4199700883969
 21
142.4701536241452
 31
0.0
 11
-569.4199736045816
 21
142.4705942950542
 31
0.0
 11
-569.4199770670155
 21
142.4710400346391
 31
0.0
 11
-569.4199804757933
 21
142.471490800487
 31
0.0
 11
-569.4199838310105
 21
142.471946550185
 31
0.0
 11
-569.4199871327623
 21
142.4724072413201
 31
0.0
 11
-569.4199903811436
 21
142.4728728314793
 31
0.0
 11
-569.4199935762499
 21
142.4733432782498
 31
0.0
 11
-569.4199967181765
 21
142.4738185392186
 31
0.0
 11
-569.4199998070186
 21
142.4742985719728
 31
0.0
 11
-569.4200028428709
 21
142.4747833340993
 31
0.0
 11
-569.420005825829
 21
142.4752727831853
 31
0.0
 11
-569.4200087559882
 21
142.4757668768178
 31
0.0
 11
-569.4200116334436
 21
142.476265572584
 31
0.0
 11
-569.4200144582901
 21
142.4767688280707
 31
0.0
 11
-569.4200172306234
 21
142.4772766008651
 31
0.0
 11
-569.4200199505384
 21
142.4777888485543
 31
0.0
 11
-569.4200226181304
 21
142.4783055287253
 31
0.0
 11
-569.4200252334946
 21
142.4788265989652
 31
0.0
 11
-569.4200277967262
 21
142.479352016861
 31
0.0
 11
-569.4200303079202
 21
142.4798817399997
 31
0.0
 11
-569.4200327671724
 21
142.4804157259685
 31
0.0
 11
-569.4200351745774
 21
142.4809539323544
 31
0.0
 11
-569.4200375302305
 21
142.4814963167444
 31
0.0
 11
-569.4200398342273
 21
142.4820428367257
 31
0.0
 11
-569.4200420866625
 21
142.4825934498852
 31
0.0
 11
-569.4200442876315
 21
142.48314811381
 31
0.0
 11
-569.4200464372299
 21
142.4837067860873
 31
0.0
 11
-569.4200485355523
 21
142.4842694243039
 31
0.0
 11
-569.4200505826941
 21
142.4848359860471
 31
0.0
 11
-569.4200525787506
 21
142.4854064289038
 31
0.0
 11
-569.420054523817
 21
142.4859807104611
 31
0.0
 11
-569.4200564179885
 21
142.4865587883061
 31
0.0
 11
-569.42005826136
 21
142.4871406200258
 31
0.0
 11
-569.4200600540272
 21
142.4877261632073
 31
0.0
 11
-569.4200617960853
 21
142.4883153754377
 31
0.0
 11
-569.420063487629
 21
142.4889082143039
 31
0.0
 11
-569.4200654509791
 21
142.489624288603
 31
0.0
 11
-569.4200673423535
 21
142.4903454135935
 31
0.0
 11
-569.4200691621328
 21
142.4910715136108
 31
0.0
 11
-569.4200709106975
 21
142.4918025129906
 31
0.0
 11
-569.4200725884281
 21
142.4925383360685
 31
0.0
 11
-569.4200741957048
 21
142.4932789071801
 31
0.0
 11
-569.4200757329087
 21
142.4940241506609
 31
0.0
 11
-569.4200772004197
 21
142.4947739908465
 31
0.0
 11
-569.4200785986184
 21
142.4955283520726
 31
0.0
 11
-569.4200799278855
 21
142.4962871586747
 31
0.0
 11
-569.4200811886013
 21
142.4970503349884
 31
0.0
 11
-569.4200823811464
 21
142.4978178053493
 31
0.0
 11
-569.4200835059012
 21
142.498589494093
 31
0.0
 11
-569.4200845632461
 21
142.4993653255551
 31
0.0
 11
-569.4200855535618
 21
142.5001452240711
 31
0.0
 11
-569.4200864772287
 21
142.5009291139767
 31
0.0
 11
-569.420087334627
 21
142.5017169196073
 31
0.0
 11
-569.4200881261377
 21
142.5025085652988
 31
0.0
 11
-569.4200888521412
 21
142.5033039753866
 31
0.0
 11
-569.4200895130176
 21
142.5041030742062
 31
0.0
 11
-569.4200901091476
 21
142.5049057860933
 31
0.0
 11
-569.4200906409117
 21
142.5057120353835
 31
0.0
 11
-569.4200911086903
 21
142.5065217464124
 31
0.0
 11
-569.420091512864
 21
142.5073348435156
 31
0.0
 11
-569.4200918538133
 21
142.5081512510286
 31
0.0
 11
-569.4200921319185
 21
142.508970893287
 31
0.0
 11
-569.4200923475603
 21
142.5097936946264
 31
0.0
 11
-569.420092501119
 21
142.5106195793825
 31
0.0
 11
-569.4200925929753
 21
142.5114484718908
 31
0.0
 11
-569.4200926235095
 21
142.5122802964868
 31
0.0
  0
SPLINE
  5
EC
330
47
100
AcDbEntity
  8
0
  6
Continuous
 62
     7
100
AcDbSpline
210
0.0
220
0.0
230
1.0
 70
     8
 71
     3
 72
    19
 73
    15
 74
    13
 42
0.000000001
 43
0.0000000001
 44
0.00000001
 40
0.0
 40
0.0
 40
0.0
 40
0.0
 40
0.0350877984754678
 40
0.0657455682925812
 40
0.07392910448212
 40
0.0821784374353462
 40
0.0862884713342356
 40
0.0903916450523459
 40
0.0940035467462098
 40
0.098442241351452
 40
0.1072409142887751
 40
0.1148454203450833
 40
0.121374521172021
 40
0.1300233772880894
 40
0.1300233772880894
 40
0.1300233772880894
 40
0.1300233772880894
 10
-569.4195814583913
 20
142.4537000756345
 30
0.0
 10
-569.4312769604612
 20
142.4538598653519
 30
0.0
 10
-569.4531913426256
 20
142.4541592827736
 30
0.0
 10
-569.4778126417378
 20
142.4552835665459
 30
0.0
 10
-569.49348258575
 20
142.4562014322941
 30
0.0
 10
-569.5003158768293
 20
142.456645531988
 30
0.0
 10
-569.5057901394154
 20
142.4570266999386
 30
0.0
 10
-569.5097214737192
 20
142.4573125355527
 30
0.0
 10
-569.5137611332364
 20
142.4576188864145
 30
0.0
 10
-569.5193614256052
 20
142.4580441984169
 30
0.0
 10
-569.526288086599
 20
142.4585795741165
 30
0.0
 10
-569.5339062423494
 20
142.4592088106501
 30
0.0
 10
-569.5414714557648
 20
142.4598728439426
 30
0.0
 10
-569.5465046921024
 20
142.4603866406142
 30
0.0
 10
-569.5493727801914
 20
142.4606794308411
 30
0.0
 11
-569.4195814583913
 21
142.4537000756345
 31
0.0
 11
-569.45466268879
 21
142.4543789440237
 31
0.0
 11
-569.4852907181262
 21
142.4557289986571
 31
0.0
 11
-569.4934601758698
 21
142.4562088069264
 31
0.0
 11
-569.501692159996
 21
142.4567434622384
 31
0.0
 11
-569.5057922677734
 21
142.4570289617994
 31
0.0
 11
-569.5098846292356
 21
142.4573266774054
 31
0.0
 11
-569.513486317789
 21
142.4575981141491
 31
0.0
 11
-569.5179122237932
 21
142.4579348158644
 31
0.0
 11
-569.5266842924599
 21
142.4586185251109
 31
0.0
 11
-569.5342629230161
 21
142.4592453159694
 31
0.0
 11
-569.5407663054704
 21
142.4598242641858
 31
0.0
 11
-569.5493727801914
 21
142.4606794308411
 31
0.0
  0
SPLINE
  5
ED
330
47
100
AcDbEntity
  8
0
  6
Continuous
 62
     3
100
AcDbSpline
210
0.0
220
0.0
230
1.0
 70
     8
 71
     3
 72
    17
 73
    13
 74
    11
 42
0.000000001
 43
0.0000000001
 44
0.00000001
 40
0.0
 40
0.0
 40
0.0
 40
0.0
 40
0.0179634117074257
 40
0.035954238326858
 40
0.0402882363165528
 40
0.0445116172102654
 40
0.0497430067947518
 40
0.0525388043817725
 40
0.0603025448550693
 40
0.0680693832154727
 40
0.1010644355574211
 40
0.1302738960190944
 40
0.1302738960190944
 40
0.1302738960190944
 40
0.1302738960190944
 10
-569.5501140448049
 20
142.5196587442985
 30
0.0
 10
-569.5441592763167
 20
142.5190247332107
 30
0.0
 10
-569.5322406493207
 20
142.5177557673364
 30
0.0
 10
-569.5188373444813
 20
142.5168812046377
 30
0.0
 10
-569.5100077270868
 20
142.5162918615698
 30
0.0
 10
-569.5054217743129
 20
142.5159840728514
 30
0.0
 10
-569.5013480019062
 20
142.515701714352
 30
0.0
 10
-569.496099286324
 20
142.5153055437194
 30
0.0
 10
-569.4900062453684
 20
142.5148661550277
 30
0.0
 10
-569.4738646535325
 20
142.5138252215477
 30
0.0
 10
-569.4505626547144
 20
142.5126956367051
 30
0.0
 10
-569.4298286973241
 20
142.5124130024028
 30
0.0
 10
-569.4200926235095
 20
142.5122802964868
 30
0.0
 11
-569.5501140448049
 21
142.5196587442985
 31
0.0
 11
-569.5322390497602
 21
142.517878659856
 31
0.0
 11
-569.5142953267136
 21
142.5165776335517
 31
0.0
 11
-569.5099709407668
 21
142.5162891465847
 31
0.0
 11
-569.5057571150348
 21
142.516005211935
 31
0.0
 11
-569.5005385849028
 21
142.5156386326312
 31
0.0
 11
-569.4977505068181
 21
142.5154310155886
 31
0.0
 11
-569.4900066275054
 21
142.5148760372585
 31
0.0
 11
-569.4822560143045
 21
142.5143742620347
 31
0.0
 11
-569.4492967680607
 21
142.5128375298052
 31
0.0
 11
-569.4200926235095
 21
142.5122802964868
 31
0.0
  0
SPLINE
  5
EE
330
47
100
AcDbEntity
  8
0
  6
Continuous
 62
     7
100
AcDbSpline
210
0.0
220
0.0
230
1.0
 70
     8
 71
     3
 72
     9
 73
     5
 74
     3
 42
0.000000001
 43
0.0000000001
 44
0.00000001
 40
0.0
 40
0.0
 40
0.0
 40
0.0
 40
0.0000537917384994
 40
0.0001076039118887
 40
0.0001076039118887
 40
0.0001076039118887
 40
0.0001076039118887
 10
-569.5499998139971
 20
144.0687224231457
 30
0.0
 10
-569.5499998415675
 20
144.0687044924817
 30
0.0
 10
-569.5499999167184
 20
144.0686686244352
 30
0.0
 10
-569.5500002823377
 20
144.0686327581733
 30
0.0
 10
-569.5500004751837
 20
144.0686148217131
 30
0.0
 11
-569.5499998139971
 21
144.0687224231457
 31
0.0
 11
-569.5499999792938
 21
144.0686686316314
 31
0.0
 11
-569.5500004751837
 21
144.0686148217131
 31
0.0
  0
SPLINE
  5
EF
330
47
100
AcDbEntity
  8
0
  6
Continuous
 62
     3
100
AcDbSpline
210
0.0
220
0.0
230
1.0
 70
     8
 71
     3
 72
    12
 73
     8
 74
     6
 42
0.000000001
 43
0.0000000001
 44
0.00000001
 40
0.0
 40
0.0
 40
0.0
 40
0.0
 40
1.31433735060201
 40
2.305572810679294
 40
2.8500598568082
 40
4.458705114026158
 40
5.700120030053734
 40
5.700120030053734
 40
5.700120030053734
 40
5.700120030053734
 10
-561.4499998139972
 20
142.3486687840216
 30
0.0
 10
-561.0118965565839
 20
142.3458306744749
 30
0.0
 10
-560.2433884121683
 20
142.3408521308024
 30
0.0
 10
-559.2933884358374
 20
142.3346913927209
 30
0.0
 10
-558.2452879107536
 20
142.327890775755
 30
0.0
 10
-557.1137960219745
 20
142.3205440035427
 30
0.0
 10
-556.163796041014
 20
142.3143677340988
 30
0.0
 10
-555.7499998139974
 20
142.3116774985816
 30
0.0
 11
-561.4499998139972
 21
142.3486687840216
 31
0.0
 11
-560.1356900527904
 21
142.3401527530179
 31
0.0
 11
-559.1444754339112
 21
142.333724951295
 31
0.0
 11
-558.5999998489622
 21
142.3301921342087
 31
0.0
 11
-556.9913885048431
 21
142.319746697817
 31
0.0
 11
-555.7499998139974
 21
142.3116774985816
 31
0.0
  0
SPLINE
  5
F0
330
47
100
AcDbEntity
  8
0
  6
Continuous
 62
     3
100
AcDbSpline
210
0.0
220
0.0
230
1.0
 70
     8
 71
     3
 72
    15
 73
    11
 74
     9
 42
0.000000001
 43
0.0000000001
 44
0.00000001
 40
0.0
 40
0.0
 40
0.0
 40
0.0
 40
0.0076590606705707
 40
0.0151336285885047
 40
0.0224182989577329
 40
0.0295083792019799
 40
0.0363998207001003
 40
0.0430892650486509
 40
0.049573970487435
 40
0.0558518486181773
 40
0.0558518486181773
 40
0.0558518486181773
 40
0.0558518486181773
 10
-561.4494130801025
 20
142.404517542276
 30
0.0
 10
-561.4494377851968
 20
142.4019646415784
 30
0.0
 10
-561.4494866148161
 20
142.3969203350295
 30
0.0
 10
-561.4495609916718
 20
142.3894479387676
 30
0.0
 10
-561.4496350247509
 20
142.3821652088223
 30
0.0
 10
-561.4497087586565
 20
142.3750768615352
 30
0.0
 10
-561.4497820631674
 20
142.3681869293771
 30
0.0
 10
-561.4498549094515
 20
142.3614987956003
 30
0.0
 10
-561.4499270599364
 20
142.3550151876191
 30
0.0
 10
-561.4499758211964
 20
142.3507612725296
 30
0.0
 10
-561.4499998139972
 20
142.3486687840216
 30
0.0
 11
-561.4494130801025
 21
142.404517542276
 31
0.0
 11
-561.4494875532996
 21
142.3968588436877
 31
0.0
 11
-561.449561879175
 21
142.3893846453209
 31
0.0
 11
-561.4496359651453
 21
142.3821003516917
 31
0.0
 11
-561.4497097216486
 21
142.3750106550916
 31
0.0
 11
-561.4497830637831
 21
142.3681196038729
 31
0.0
 11
-561.4498559102
 21
142.3614305561719
 31
0.0
 11
-561.4499281844451
 21
142.3549462535017
 31
0.0
 11
-561.4499998139972
 21
142.3486687840216
 31
0.0
  0
SPLINE
  5
F1
330
47
100
AcDbEntity
  8
0
  6
Continuous
 62
     3
100
AcDbSpline
210
0.0
220
0.0
230
1.0
 70
     8
 71
     3
 72
    13
 73
     9
 74
     7
 42
0.000000001
 43
0.0000000001
 44
0.00000001
 40
0.0
 40
0.0
 40
0.0
 40
0.0
 40
0.4967427334219985
 40
1.017002812141784
 40
1.284185523826135
 40
1.554864400467481
 40
1.828474577919754
 40
2.10223349885358
 40
2.10223349885358
 40
2.10223349885358
 40
2.10223349885358
 10
-563.4555524307175
 20
141.81410678802
 30
0.0
 10
-563.3112314908616
 20
141.8959446965882
 30
0.0
 10
-563.0157570022353
 20
142.0634949614526
 30
0.0
 10
-562.6066298069323
 20
142.1981883287132
 30
0.0
 10
-562.2629607297513
 20
142.2776230132887
 30
0.0
 10
-561.9955309763593
 20
142.3196729651898
 30
0.0
 10
-561.7237920414443
 20
142.3454830886129
 30
0.0
 10
-561.5412804219969
 20
142.3476066980716
 30
0.0
 10
-561.4499998139972
 20
142.3486687840216
 30
0.0
 11
-563.4555524307175
 21
141.81410678802
 31
0.0
 11
-563.015782857244
 21
142.0450961081486
 31
0.0
 11
-562.5238700736691
 21
142.2144843141278
 31
0.0
 11
-562.2634632038805
 21
142.2742744801048
 31
0.0
 11
-561.9961445669371
 21
142.3167927231158
 31
0.0
 11
-561.7236698665532
 21
142.3416938731413
 31
0.0
 11
-561.4499998139972
 21
142.3486687840216
 31
0.0
  0
SPLINE
  5
F2
330
47
100
AcDbEntity
  8
0
  6
Continuous
 62
     3
100
AcDbSpline
210
0.0
220
0.0
230
1.0
 70
     8
 71
     3
 72
    11
 73
     7
 74
     5
 42
0.000000001
 43
0.0000000001
 44
0.00000001
 40
0.0
 40
0.0
 40
0.0
 40
0.0
 40
0.0217126266146136
 40
0.0434312408726143
 40
0.1329875083054333
 40
0.2228357540956066
 40
0.2228357540956066
 40
0.2228357540956066
 40
0.2228357540956066
 10
-563.6534898798095
 20
142.1966311667406
 30
0.0
 10
-563.6535272610117
 20
142.2038689628023
 30
0.0
 10
-563.653602048176
 20
142.2183465507417
 30
0.0
 10
-563.6548606164326
 20
142.262657085955
 30
0.0
 10
-563.6594424362365
 20
142.3296458870542
 30
0.0
 10
-563.6691544429551
 20
142.3886800689569
 30
0.0
 10
-563.6740183579285
 20
142.4182451974639
 30
0.0
 11
-563.6534898798095
 21
142.1966311667406
 31
0.0
 11
-563.6536860641428
 21
142.2183429074304
 31
0.0
 11
-563.654275056702
 21
142.2400535340286
 31
0.0
 11
-563.660837441787
 21
142.3293690437541
 31
0.0
 11
-563.6740183579285
 21
142.4182451974639
 31
0.0
  0
SPLINE
  5
F3
330
47
100
AcDbEntity
  8
0
  6
Continuous
 62
     3
100
AcDbSpline
210
0.0
220
0.0
230
1.0
 70
     8
 71
     3
 72
     9
 73
     5
 74
     3
 42
0.000000001
 43
0.0000000001
 44
0.00000001
 40
0.0
 40
0.0
 40
0.0
 40
0.0
 40
0.2392816915073148
 40
0.5263042964570045
 40
0.5263042964570045
 40
0.5263042964570045
 40
0.5263042964570045
 10
-563.6534898798095
 20
142.1704641696317
 30
0.0
 10
-563.585168194437
 20
142.2117485075548
 30
0.0
 10
-563.4348934338396
 20
142.3025541186425
 30
0.0
 10
-563.275134935299
 20
142.3754771844587
 30
0.0
 10
-563.1880098569918
 20
142.4152461228929
 30
0.0
 11
-563.6534898798095
 21
142.1704641696317
 31
0.0
 11
-563.446564509888
 21
142.2906208147143
 31
0.0
 11
-563.1880098569918
 21
142.4152461228929
 31
0.0
  0
SPLINE
  5
F4
330
47
100
AcDbEntity
  8
0
  6
Continuous
 62
     3
100
AcDbSpline
210
0.0
220
0.0
230
1.0
 70
     8
 71
     3
 72
    15
 73
    11
 74
     9
 42
0.000000001
 43
0.0000000001
 44
0.00000001
 40
0.0
 40
0.0
 40
0.0
 40
0.0
 40
0.0484039280218917
 40
0.0936174079347285
 40
0.1199764324373319
 40
0.1532260855452588
 40
0.1672830398795402
 40
0.1812864799092485
 40
0.1949083439142496
 40
0.2075127699524535
 40
0.2075127699524535
 40
0.2075127699524535
 40
0.2075127699524535
 10
-564.0499992656102
 20
142.1839654127511
 30
0.0
 10
-564.0544989343394
 20
142.1684684767801
 30
0.0
 10
-564.0632016711245
 20
142.1384960504854
 30
0.0
 10
-564.0722030041953
 20
142.0995058743219
 30
0.0
 10
-564.0787111326363
 20
142.065173166137
 30
0.0
 10
-564.0822893355611
 20
142.040867068279
 30
0.0
 10
-564.0844512855533
 20
142.0205429863276
 30
0.0
 10
-564.0855431939326
 20
142.0066905218437
 30
0.0
 10
-564.0862306403426
 20
141.9932947279619
 30
0.0
 10
-564.0863200084694
 20
141.9845523445093
 30
0.0
 10
-564.0863629518271
 20
141.9803507312186
 30
0.0
 11
-564.0499992656102
 21
142.1839654127511
 31
0.0
 11
-564.0630494150497
 21
142.137353895542
 31
0.0
 11
-564.0732480297829
 21
142.0933056643352
 31
0.0
 11
-564.0781257990367
 21
142.0674018905192
 31
0.0
 11
-564.0829105263763
 21
142.0344983047125
 31
0.0
 11
-564.0843893352356
 21
142.0205193506778
 31
0.0
 11
-564.0854885468505
 21
142.0065591165659
 31
0.0
 11
-564.0861512449641
 21
141.9929533802534
 31
0.0
 11
-564.0863629518271
 21
141.9803507312186
 31
0.0
  0
SPLINE
  5
F5
330
47
100
AcDbEntity
  8
0
  6
Continuous
 62
     3
100
AcDbSpline
210
0.0
220
0.0
230
1.0
 70
     8
 71
     3
 72
    39
 73
    35
 74
    33
 42
0.000000001
 43
0.0000000001
 44
0.00000001
 40
0.0
 40
0.0
 40
0.0
 40
0.0
 40
0.0118409957271266
 40
0.0239264103084881
 40
0.0362671964989837
 40
0.0488728285985947
 40
0.0617511850605061
 40
0.0749080158804344
 40
0.0883468891217406
 40
0.1020687391445055
 40
0.1160719070655049
 40
0.1303518080783195
 40
0.1449010744147204
 40
0.1597093642979685
 40
0.1747635981854057
 40
0.1900479168222483
 40
0.2055439871650531
 40
0.2212311031531711
 40
0.2370865283901488
 40
0.2530857217384743
 40
0.2692026800465144
 40
0.2854102622534617
 40
0.301680496917169
 40
0.3179849737154771
 40
0.3342950863815955
 40
0.3505824595291196
 40
0.3668191064381106
 40
0.3829778614735122
 40
0.3990324428314164
 40
0.4149578656724606
 40
0.4307304099275816
 40
0.4463279962245387
 40
0.4617300675372842
 40
0.47691791646447
 40
0.47691791646447
 40
0.47691791646447
 40
0.47691791646447
 10
-564.0412144512113
 20
142.420511101175
 30
0.0
 10
-564.0400145782453
 20
142.4167498702889
 30
0.0
 10
-564.0375900513172
 20
142.4091497746552
 30
0.0
 10
-564.0331211355644
 20
142.3979071501045
 30
0.0
 10
-564.0279892167181
 20
142.3866755682707
 30
0.0
 10
-564.0221287598927
 20
142.375504760714
 30
0.0
 10
-564.0155519482602
 20
142.3644235585761
 30
0.0
 10
-564.0082563764356
 20
142.3534663009192
 30
0.0
 10
-564.0002469908727
 20
142.3426675811235
 30
0.0
 10
-563.9915339871603
 20
142.3320605873848
 30
0.0
 10
-563.9821296399266
 20
142.3216801649925
 30
0.0
 10
-563.972052956866
 20
142.3115582684282
 30
0.0
 10
-563.9613246128383
 20
142.3017283281672
 30
0.0
 10
-563.9499717785963
 20
142.2922198822091
 30
0.0
 10
-563.938023111547
 20
142.2830635876877
 30
0.0
 10
-563.9255131018149
 20
142.2742853822517
 30
0.0
 10
-563.912477415766
 20
142.2659119280767
 30
0.0
 10
-563.8989566128067
 20
142.2579645487956
 30
0.0
 10
-563.8849919742215
 20
142.2504649070423
 30
0.0
 10
-563.8706285425424
 20
142.243428956507
 30
0.0
 10
-563.8559115160051
 20
142.2368726519112
 30
0.0
 10
-563.8408886228387
 20
142.2308061356993
 30
0.0
 10
-563.8256071188787
 20
142.2252392907095
 30
0.0
 10
-563.8101155547265
 20
142.2201763447227
 30
0.0
 10
-563.7944613758086
 20
142.2156210985296
 30
0.0
 10
-563.7786921703666
 20
142.2115720903067
 30
0.0
 10
-563.7628538392111
 20
142.2080273445216
 30
0.0
 10
-563.746991426759
 20
142.204980261226
 30
0.0
 10
-563.7311478044927
 20
142.2024234996207
 30
0.0
 10
-563.7153641829838
 20
142.2003467009445
 30
0.0
 10
-563.6996792584515
 20
142.1987355131537
 30
0.0
 10
-563.6841294137622
 20
142.1975856023519
 30
0.0
 10
-563.6687485691823
 20
142.1968438071383
 30
0.0
 10
-563.6585523080897
 20
142.196701710704
 30
0.0
 10
-563.6534898798095
 20
142.1966311667406
 30
0.0
 11
-564.0412144512113
 21
142.420511101175
 31
0.0
 11
-564.0374865545033
 21
142.4092722371736
 31
0.0
 11
-564.0330607646614
 21
142.39802636114
 31
0.0
 11
-564.027926068971
 21
142.3868045095033
 31
0.0
 11
-564.0220758181131
 21
142.3756386444016
 31
0.0
 11
-564.0155062347056
 21
142.364561973219
 31
0.0
 11
-564.0082184299894
 21
142.3536079739156
 31
0.0
 11
-564.0002166997479
 21
142.3428109545725
 31
0.0
 11
-563.991510531626
 21
142.3322047392377
 31
0.0
 11
-563.9821127466522
 21
142.3218234893927
 31
0.0
 11
-563.9720413933325
 21
142.3117000801728
 31
0.0
 11
-563.9613178051112
 21
142.3018671861077
 31
0.0
 11
-563.9499682895031
 21
142.2923554068846
 31
0.0
 11
-563.9380221782665
 21
142.2831945999507
 31
0.0
 11
-563.9255132425235
 21
142.2744118371538
 31
0.0
 11
-563.9124778128705
 21
142.2660329488289
 31
0.0
 11
-563.8989558806434
 21
142.2580804047873
 31
0.0
 11
-563.8849893597434
 21
142.250575019828
 31
0.0
 11
-563.8706228650947
 21
142.2435338537738
 31
0.0
 11
-563.8559021770733
 21
142.2369720179441
 31
0.0
 11
-563.8408747162
 21
142.2309006802892
 31
0.0
 11
-563.8255882556201
 21
142.2253289068566
 31
0.0
 11
-563.8100911327402
 21
142.2202618419975
 31
0.0
 11
-563.7944312366802
 21
142.215702518517
 31
0.0
 11
-563.7786560109871
 21
142.2116502625879
 31
0.0
 11
-563.7628117233478
 21
142.2081024109467
 31
0.0
 11
-563.746943318729
 21
142.205052968798
 31
0.0
 11
-563.7310939595677
 21
142.2024941813296
 31
0.0
 11
-563.7153047868462
 21
142.2004154532005
 31
0.0
 11
-563.6996147032964
 21
142.1988047339007
 31
0.0
 11
-563.6840600924045
 21
142.1976476910474
 31
0.0
 11
-563.6686748057263
 21
142.1969288830962
 31
0.0
 11
-563.6534898798095
 21
142.1966311667406
 31
0.0
  0
SPLINE
  5
F6
330
47
100
AcDbEntity
  8
0
  6
Continuous
 62
     3
100
AcDbSpline
210
0.0
220
0.0
230
1.0
 70
     8
 71
     3
 72
    15
 73
    11
 74
     9
 42
0.000000001
 43
0.0000000001
 44
0.00000001
 40
0.0
 40
0.0
 40
0.0
 40
0.0
 40
0.0145237466243475
 40
0.0288574685899627
 40
0.0429965038105323
 40
0.0569435580734203
 40
0.0707080427898284
 40
0.0843052729726176
 40
0.0977548387412457
 40
0.1110791477245114
 40
0.1110791477245114
 40
0.1110791477245114
 40
0.1110791477245114
 10
-564.0863629518271
 20
141.9803507312186
 30
0.0
 10
-564.0835226321005
 20
141.9842738434632
 30
0.0
 10
-564.0778791665344
 20
141.9920687474037
 30
0.0
 10
-564.0705723689914
 20
142.0044216181572
 30
0.0
 10
-564.064265313343
 20
142.0170903228333
 30
0.0
 10
-564.0590744308648
 20
142.0300558827964
 30
0.0
 10
-564.0550129173624
 20
142.0432306907564
 30
0.0
 10
-564.0521306474718
 20
142.0565385772807
 30
0.0
 10
-564.0503326232006
 20
142.0699003298569
 30
0.0
 10
-564.0501100328376
 20
142.0788276403449
 30
0.0
 10
-564.04999926561
 20
142.0832704134903
 30
0.0
 11
-564.0863629518271
 21
141.9803507312186
 31
0.0
 11
-564.0780293006991
 21
141.9922456660196
 31
0.0
 11
-564.0706926668788
 21
142.0045594551794
 31
0.0
 11
-564.0644122018995
 21
142.0172270553353
 31
0.0
 11
-564.0592322677107
 21
142.0301765195891
 31
0.0
 11
-564.0551882426348
 21
142.0433335300282
 31
0.0
 11
-564.0522985324178
 21
142.0566201499884
 31
0.0
 11
-564.0505717707587
 21
142.0699584086543
 31
0.0
 11
-564.04999926561
 21
142.0832704134903
 31
0.0
  0
SPLINE
  5
F7
330
47
100
AcDbEntity
  8
0
  6
Continuous
 62
     3
100
AcDbSpline
210
0.0
220
0.0
230
1.0
 70
     8
 71
     3
 72
    39
 73
    35
 74
    33
 42
0.000000001
 43
0.0000000001
 44
0.00000001
 40
0.0
 40
0.0
 40
0.0
 40
0.0
 40
0.0097208747364081
 40
0.0198855238538256
 40
0.0304943186156685
 40
0.0415438152657184
 40
0.0530269626273486
 40
0.0649325931035577
 40
0.0772456981281075
 40
0.0899470499034605
 40
0.1030136026159242
 40
0.1164182644633242
 40
0.1301304204193693
 40
0.1441158883022483
 40
0.1583375373160155
 40
0.1727554429623165
 40
0.1873275577311221
 40
0.2020100561872872
 40
0.2167580003768684
 40
0.2315258432530769
 40
0.2462680257591023
 40
0.2609395880682504
 40
0.2754966400677774
 40
0.2898970198075441
 40
0.3041005935065433
 40
0.3180699008021111
 40
0.3317702616423995
 40
0.3451703573109746
 40
0.3582421451679608
 40
0.3709613399367962
 40
0.3833071583509789
 40
0.3952626827807115
 40
0.4068144896986922
 40
0.4179528514770584
 40
0.4179528514770584
 40
0.4179528514770584
 40
0.4179528514770584
 10
-563.4555524307175
 20
141.81410678802
 30
0.0
 10
-563.4557460886075
 20
141.8173416355369
 30
0.0
 10
-563.4561422650982
 20
141.82395900532
 30
0.0
 10
-563.4572123091577
 20
141.8340705801908
 30
0.0
 10
-563.4586590091558
 20
141.844580548067
 30
0.0
 10
-563.4605316966546
 20
141.8554699647436
 30
0.0
 10
-563.4628319890229
 20
141.8667183569208
 30
0.0
 10
-563.4655710675281
 20
141.8783013345927
 30
0.0
 10
-563.4687553877114
 20
141.8901907026953
 30
0.0
 10
-563.4723878884703
 20
141.9023552698794
 30
0.0
 10
-563.4764700797455
 20
141.9147599863289
 30
0.0
 10
-563.4809984027299
 20
141.9273674489667
 30
0.0
 10
-563.4859680522285
 20
141.9401367754726
 30
0.0
 10
-563.4913687595156
 20
141.9530255968137
 30
0.0
 10
-563.4971890907948
 20
141.9659887211023
 30
0.0
 10
-563.5034121154442
 20
141.9789805516196
 30
0.0
 10
-563.5100199782801
 20
141.9919535436368
 30
0.0
 10
-563.516989605766
 20
142.0048609626446
 30
0.0
 10
-563.5242974137902
 20
142.0176551376442
 30
0.0
 10
-563.5319151667208
 20
142.0302904455139
 30
0.0
 10
-563.5398146742607
 20
142.0427213720798
 30
0.0
 10
-563.5479638966865
 20
142.0549055916434
 30
0.0
 10
-563.5563314804872
 20
142.0668018597175
 30
0.0
 10
-563.5648831808668
 20
142.078373054395
 30
0.0
 10
-563.5735860934188
 20
142.0895839419101
 30
0.0
 10
-563.5824054462157
 20
142.1004040541704
 30
0.0
 10
-563.5913083939892
 20
142.1108054004989
 30
0.0
 10
-563.6002612550827
 20
142.120765023757
 30
0.0
 10
-563.6092326124465
 20
142.1302629402366
 30
0.0
 10
-563.6181916038468
 20
142.1392835494246
 30
0.0
 10
-563.6271081468102
 20
142.147816574297
 30
0.0
 10
-563.6359598751085
 20
142.1558476963653
 30
0.0
 10
-563.6447025352279
 20
142.1633965921876
 30
0.0
 10
-563.6505965603693
 20
142.1681371076897
 30
0.0
 10
-563.6534898798095
 20
142.1704641696317
 30
0.0
 11
-563.4555524307175
 21
141.81410678802
 31
0.0
 11
-563.4562054876073
 21
141.8238057028956
 31
0.0
 11
-563.4572483119841
 21
141.8339167245676
 31
0.0
 11
-563.4586963792237
 21
141.8444262209275
 31
0.0
 11
-563.460562951438
 21
141.855316917107
 31
0.0
 11
-563.4628597419096
 21
141.8665680244272
 31
0.0
 11
-563.4655955807456
 21
141.8781550523001
 31
0.0
 11
-563.4687773080274
 21
141.8900499739078
 31
0.0
 11
-563.4724082920807
 21
141.9022212633007
 31
0.0
 11
-563.4764895562387
 21
141.9146340823471
 31
0.0
 11
-563.4810182149379
 21
141.9272505875595
 31
0.0
 11
-563.4859888251868
 21
141.9400301121555
 31
0.0
 11
-563.4913918129955
 21
141.9529297644312
 31
0.0
 11
-563.4972150230755
 21
141.9659045676746
 31
0.0
 11
-563.5034422069416
 21
141.9789083432217
 31
0.0
 11
-563.5100547250049
 21
141.9918937630392
 31
0.0
 11
-563.5170301578441
 21
142.00481348021
 31
0.0
 11
-563.5243440965262
 21
142.0176200470004
 31
0.0
 11
-563.531968921868
 21
142.0302672291365
 31
0.0
 11
-563.5398756053822
 21
142.0427097487861
 31
0.0
 11
-563.5480326808045
 21
142.054904700845
 31
0.0
 11
-563.5564079727985
 21
142.0668110958397
 31
0.0
 11
-563.5649677646669
 21
142.0783912899248
 31
0.0
 11
-563.573678376489
 21
142.0896103247886
 31
0.0
 11
-563.5825055162979
 21
142.100437288614
 31
0.0
 11
-563.5914156433386
 21
142.1108444746421
 31
0.0
 11
-563.6003754791761
 21
142.1208086055821
 31
0.0
 11
-563.6093531128047
 21
142.1303098547324
 31
0.0
 11
-563.6183176435514
 21
142.1393328872015
 31
0.0
 11
-563.6272400091411
 21
142.1478658033347
 31
0.0
 11
-563.6360927327445
 21
142.1559009721198
 31
0.0
 11
-563.6448504787072
 21
142.1634339636473
 31
0.0
 11
-563.6534898798095
 21
142.1704641696317
 31
0.0
  0
SPLINE
  5
F8
330
47
100
AcDbEntity
  8
0
  6
Continuous
 62
     3
100
AcDbSpline
210
0.0
220
0.0
230
1.0
 70
     8
 71
     3
 72
    36
 73
    32
 74
    30
 42
0.000000001
 43
0.0000000001
 44
0.00000001
 40
0.0
 40
0.0
 40
0.0
 40
0.0
 40
0.0230659711212434
 40
0.0469790492713987
 40
0.0583806113586688
 40
0.0669362477761499
 40
0.0760670652971568
 40
0.0846863545888083
 40
0.1118310090163252
 40
0.1334845318950242
 40
0.144605530680917
 40
0.1542686926675077
 40
0.1654134571761057
 40
0.1745039686043958
 40
0.2038683013388717
 40
0.2425647421178903
 40
0.2624171927939186
 40
0.2811343139979158
 40
0.2992548981808273
 40
0.323070968603233
 40
0.3630194063084027
 40
0.4170715874225804
 40
0.4739989218496823
 40
0.5244903031984978
 40
0.5712699257957807
 40
0.6121232255018471
 40
0.6451598866356293
 40
0.680418643867281
 40
0.7104362797902816
 40
0.74829242279871
 40
0.7789027001145962
 40
0.7789027001145962
 40
0.7789027001145962
 40
0.7789027001145962
 10
-564.0863629518271
 20
141.7561075870657
 30
0.0
 10
-564.0862315377133
 20
141.7484175414605
 30
0.0
 10
-564.0859638744075
 20
141.7327550305668
 30
0.0
 10
-564.0838226361991
 20
141.7133748388071
 30
0.0
 10
-564.0811780736141
 20
141.6989872639495
 30
0.0
 10
-564.0789430780972
 20
141.6895490970753
 30
0.0
 10
-564.0765011764427
 20
141.6811215821765
 30
0.0
 10
-564.0715418834438
 20
141.6670020519794
 30
0.0
 10
-564.0628993674115
 20
141.6497178000726
 30
0.0
 10
-564.0499115544808
 20
141.6343045249482
 30
0.0
 10
-564.0389813437434
 20
141.6252736181636
 30
0.0
 10
-564.0300532548271
 20
141.6194465946128
 30
0.0
 10
-564.021145925968
 20
141.6149270956801
 30
0.0
 10
-564.0057334935227
 20
141.6088977610317
 30
0.0
 10
-563.9803338729679
 20
141.6036004689956
 30
0.0
 10
-563.9508721781436
 20
141.6034755003188
 30
0.0
 10
-563.9252365370342
 20
141.6060201286262
 30
0.0
 10
-563.9065556634418
 20
141.6089291603267
 30
0.0
 10
-563.8867266696312
 20
141.612898009656
 30
0.0
 10
-563.8601987274188
 20
141.6193595834515
 30
0.0
 10
-563.8225427190101
 20
141.6305837124689
 30
0.0
 10
-563.7751772522884
 20
141.6476159796638
 30
0.0
 10
-563.7254453623609
 20
141.6682433505795
 30
0.0
 10
-563.6787118720304
 20
141.6896612920572
 30
0.0
 10
-563.6374119428938
 20
141.7100228322203
 30
0.0
 10
-563.6017473313325
 20
141.7286284436673
 30
0.0
 10
-563.5697979266835
 20
141.7460368033983
 30
0.0
 10
-563.5412703864164
 20
141.7621682406487
 30
0.0
 10
-563.5116017982825
 20
141.7795358914924
 30
0.0
 10
-563.4835017652354
 20
141.7965127054969
 30
0.0
 10
-563.4641875268534
 20
141.8086710006721
 30
0.0
 10
-563.4555524307175
 20
141.81410678802
 30
0.0
 11
-564.0863629518271
 21
141.7561075870657
 31
0.0
 11
-564.0856178599606
 21
141.733053644953
 31
0.0
 11
-564.0829815390244
 21
141.709286331932
 31
0.0
 11
-564.08089869068
 21
141.6980766322127
 31
0.0
 11
-564.0789210885029
 21
141.6897526903676
 31
0.0
 11
-564.0763708531813
 21
141.6809852430392
 31
0.0
 11
-564.0735050789826
 21
141.6728563138298
 31
0.0
 11
-564.0610727195864
 21
141.6487260682743
 31
0.0
 11
-564.0470448309619
 21
141.6322308134058
 31
0.0
 11
-564.0384745651838
 21
141.6251437003992
 31
0.0
 11
-564.0303854399723
 21
141.6198576089413
 31
0.0
 11
-564.0204552451333
 21
141.6147982591428
 31
0.0
 11
-564.0119935990033
 21
141.6114759177603
 31
0.0
 11
-563.9833313686051
 21
141.6050930751131
 31
0.0
 11
-563.9446425029815
 21
141.6043273493486
 31
0.0
 11
-563.9248829197979
 21
141.6062453418934
 31
0.0
 11
-563.9063838521233
 21
141.6090940502243
 31
0.0
 11
-563.8886117753543
 21
141.6126308385699
 31
0.0
 11
-563.8654637441347
 21
141.6182320776254
 31
0.0
 11
-563.8271487263393
 21
141.6295385855454
 31
0.0
 11
-563.7762331698127
 21
141.6476836792432
 31
0.0
 11
-563.7236115265847
 21
141.6694019686282
 31
0.0
 11
-563.6776935532763
 21
141.6904000478274
 31
0.0
 11
-563.6357260716487
 21
141.711065564599
 31
0.0
 11
-563.599501250536
 21
141.7299535088019
 31
0.0
 11
-563.5704890123254
 21
141.7457557559453
 31
0.0
 11
-563.5397970954234
 21
141.7631104728737
 31
0.0
 11
-563.5138879062779
 21
141.7782687176266
 31
0.0
 11
-563.4815018844043
 21
141.7978705833835
 31
0.0
 11
-563.4555524307175
 21
141.81410678802
 31
0.0
  0
SPLINE
  5
F9
330
47
100
AcDbEntity
  8
0
  6
Continuous
 62
     3
100
AcDbSpline
210
0.0
220
0.0
230
1.0
 70
     8
 71
     3
 72
    15
 73
    11
 74
     9
 42
0.000000001
 43
0.0000000001
 44
0.00000001
 40
0.0
 40
0.0
 40
0.0
 40
0.0
 40
0.0128844729288424
 40
0.0258966868388353
 40
0.0390648554594651
 40
0.0524140237340892
 40
0.0659643591163753
 40
0.0797293103099229
 40
0.0937147171190155
 40
0.1079180835301329
 40
0.1079180835301329
 40
0.1079180835301329
 40
0.1079180835301329
 10
-564.04999926561
 20
141.8556234582275
 30
0.0
 10
-564.0501100728948
 20
141.8513272523662
 30
0.0
 10
-564.0503328006657
 20
141.8426922472724
 30
0.0
 10
-564.0521317785331
 20
141.8297692443632
 30
0.0
 10
-564.0550153401425
 20
141.8168987676373
 30
0.0
 10
-564.059078518772
 20
141.8041575589515
 30
0.0
 10
-564.0642712556024
 20
141.7916193501729
 30
0.0
 10
-564.0705796357032
 20
141.7793692030345
 30
0.0
 10
-564.077889242941
 20
141.7674236090866
 30
0.0
 10
-564.0835238556958
 20
141.7598989853569
 30
0.0
 10
-564.0863629518271
 20
141.7561075870657
 30
0.0
 11
-564.04999926561
 21
141.8556234582275
 31
0.0
 11
-564.0505717665474
 21
141.842751709643
 31
0.0
 11
-564.0522985324178
 21
141.8298545773289
 31
0.0
 11
-564.0551882374529
 21
141.8170073871108
 31
0.0
 11
-564.0592322677107
 21
141.8042855108332
 31
0.0
 11
-564.0644121955178
 21
141.7917643305065
 31
0.0
 11
-564.0706926668788
 21
141.7795156743599
 31
0.0
 11
-564.0780292933737
 21
141.7676091413605
 31
0.0
 11
-564.0863629518271
 21
141.7561075870657
 31
0.0
  0
SPLINE
  5
FA
330
47
100
AcDbEntity
  8
0
  6
Continuous
 62
     3
100
AcDbSpline
210
0.0
220
0.0
230
1.0
 70
     8
 71
     3
 72
    30
 73
    26
 74
    24
 42
0.000000001
 43
0.0000000001
 44
0.00000001
 40
0.0
 40
0.0
 40
0.0
 40
0.0
 40
0.013200892629555
 40
0.0240121437371454
 40
0.0318441811992229
 40
0.0396223314664522
 40
0.0456707574377271
 40
0.0503992010562917
 40
0.0645114578839609
 40
0.0846261447277123
 40
0.1144432480398422
 40
0.1549336161696265
 40
0.206859832511846
 40
0.2421880639220472
 40
0.2872458585099045
 40
0.3076151212979404
 40
0.3376546328312051
 40
0.3774028397199414
 40
0.4121063996540946
 40
0.4412830563607363
 40
0.4632659036783435
 40
0.4763878700761051
 40
0.5053310692403498
 40
0.5418690704765942
 40
0.5835736312135688
 40
0.5835736312135688
 40
0.5835736312135688
 40
0.5835736312135688
 10
-564.04999926561
 20
141.8556234582275
 30
0.0
 10
-564.049923540229
 20
141.8512218284852
 30
0.0
 10
-564.0497857936243
 20
141.8432153575274
 30
0.0
 10
-564.0484998861289
 20
141.83265303501
 30
0.0
 10
-564.0464750637077
 20
141.8240666795925
 30
0.0
 10
-564.0437471998955
 20
141.8173231030704
 30
0.0
 10
-564.0400914350668
 20
141.8122527102114
 30
0.0
 10
-564.0334104461419
 20
141.8070697765655
 30
0.0
 10
-564.0191937902949
 20
141.8068483705696
 30
0.0
 10
-564.0001350456014
 20
141.8168402619267
 30
0.0
 10
-563.9757839167833
 20
141.8346839573284
 30
0.0
 10
-563.9454158976023
 20
141.8619111540538
 30
0.0
 10
-563.9149653505569
 20
141.8916762787157
 30
0.0
 10
-563.8840281224126
 20
141.923112410033
 30
0.0
 10
-563.8607298206639
 20
141.9473026416764
 30
0.0
 10
-563.8387739227369
 20
141.970337243191
 30
0.0
 10
-563.8181125926714
 20
141.9921605292346
 30
0.0
 10
-563.7942571365511
 20
142.017539286647
 30
0.0
 10
-563.7706773807201
 20
142.0427821788827
 30
0.0
 10
-563.7511922506364
 20
142.063746290239
 30
0.0
 10
-563.7366360429257
 20
142.0794701693632
 30
0.0
 10
-563.7221569678759
 20
142.0951593642172
 30
0.0
 10
-563.7044212139682
 20
142.1144450821126
 30
0.0
 10
-563.6803089088105
 20
142.1408105719843
 30
0.0
 10
-563.6628146212922
 20
142.1601538749169
 30
0.0
 10
-563.6534898798095
 20
142.1704641696317
 30
0.0
 11
-564.04999926561
 21
141.8556234582275
 31
0.0
 11
-564.049520659705
 21
141.8424312347179
 31
0.0
 11
-564.0481522864761
 21
141.831706929893
 31
0.0
 11
-564.0462771562227
 21
141.8241026745072
 31
0.0
 11
-564.0432183455677
 21
141.8169512199595
 31
0.0
 11
-564.0395889623684
 21
141.812112724518
 31
0.0
 11
-564.0358148000082
 21
141.8092642368384
 31
0.0
 11
-564.0217762908262
 21
141.8078233627939
 31
0.0
 11
-564.0032515403219
 21
141.8156613666683
 31
0.0
 11
-563.9789220849901
 21
141.8328990367597
 31
0.0
 11
-563.94843571982
 21
141.8595458273151
 31
0.0
 11
-563.9111494930593
 21
141.8956854071226
 31
0.0
 11
-563.8863431906749
 21
141.9208395577392
 31
0.0
 11
-563.8550597533723
 21
141.9532671910069
 31
0.0
 11
-563.8410046361024
 21
141.9680103434624
 31
0.0
 11
-563.8203487799841
 21
141.9898210715517
 31
0.0
 11
-563.7931215516035
 21
142.0187796278615
 31
0.0
 11
-563.769431253469
 21
142.0441391792206
 31
0.0
 11
-563.7495678518529
 21
142.0655102477965
 31
0.0
 11
-563.7346347527521
 21
142.0816424555524
 31
0.0
 11
-563.7257353621637
 21
142.0912854244517
 31
0.0
 11
-563.7061435550085
 21
142.1125896463311
 31
0.0
 11
-563.6814944993175
 21
142.1395609197176
 31
0.0
 11
-563.6534898798095
 21
142.1704641696317
 31
0.0
  0
SPLINE
  5
FB
330
47
100
AcDbEntity
  8
0
  6
Continuous
 62
     3
100
AcDbSpline
210
0.0
220
0.0
230
1.0
 70
     8
 71
     3
 72
    11
 73
     7
 74
     5
 42
0.000000001
 43
0.0000000001
 44
0.00000001
 40
0.0
 40
0.0
 40
0.0
 40
0.0
 40
0.0649593693870781
 40
0.1411994425637212
 40
0.2173607062186597
 40
0.2820959653203138
 40
0.2820959653203138
 40
0.2820959653203138
 40
0.2820959653203138
 10
-569.5501798907342
 20
143.786514043874
 30
0.0
 10
-569.552322723193
 20
143.8080657484364
 30
0.0
 10
-569.5569804919639
 20
143.8549117813976
 30
0.0
 10
-569.5596483488798
 20
143.9273456968699
 30
0.0
 10
-569.560526745541
 20
143.9997491262911
 30
0.0
 10
-569.5581568786944
 20
144.0466654065619
 30
0.0
 10
-569.557068030168
 20
144.0682212083744
 30
0.0
 11
-569.5501798907342
 21
143.786514043874
 31
0.0
 11
-569.5559893705773
 21
143.851213113626
 31
0.0
 11
-569.5593354930597
 21
143.9273797224958
 31
0.0
 11
-569.5597139799721
 21
144.0035400462535
 31
0.0
 11
-569.557068030168
 21
144.0682212083744
 31
0.0
  0
SPLINE
  5
FC
330
47
100
AcDbEntity
  8
0
  6
Continuous
 62
     3
100
AcDbSpline
210
0.0
220
0.0
230
1.0
 70
     8
 71
     3
 72
    15
 73
    11
 74
     9
 42
0.000000001
 43
0.0000000001
 44
0.00000001
 40
0.0
 40
0.0
 40
0.0
 40
0.0
 40
0.0079166207028684
 40
0.0156411602832668
 40
0.023167575970833
 40
0.0304906147834818
 40
0.0376057387421395
 40
0.0445091769126648
 40
0.0511978440270726
 40
0.0576693814687708
 40
0.0576693814687708
 40
0.0576693814687708
 40
0.0576693814687708
 10
-555.7493982784549
 20
142.3693437347955
 30
0.0
 10
-555.7494237070694
 20
142.366704983738
 30
0.0
 10
-555.749473961854
 20
142.3614915058321
 30
0.0
 10
-555.749550439477
 20
142.3537693591169
 30
0.0
 10
-555.7496264923994
 20
142.3462450787225
 30
0.0
 10
-555.7497021537409
 20
142.3389239434613
 30
0.0
 10
-555.749777282663
 20
142.3318104731379
 30
0.0
 10
-555.7498518391698
 20
142.324908466014
 30
0.0
 10
-555.7499255805794
 20
142.3182209915536
 30
0.0
 10
-555.7499753383241
 20
142.3138345388836
 30
0.0
 10
-555.7499998139974
 20
142.3116774985816
 30
0.0
 11
-555.7493982784549
 21
142.3693437347955
 31
0.0
 11
-555.749474921936
 21
142.3614274851089
 31
0.0
 11
-555.7495513494944
 21
142.3537033236294
 31
0.0
 11
-555.7496274561639
 21
142.3461772927434
 31
0.0
 11
-555.7497031407642
 21
142.3388546450443
 31
0.0
 11
-555.7497783074947
 21
142.3317399181378
 31
0.0
 11
-555.7498528649642
 21
142.3248368825874
 31
0.0
 11
-555.7499267274312
 21
142.3181486233102
 31
0.0
 11
-555.7499998139974
 21
142.3116774985816
 31
0.0
  0
SPLINE
  5
FD
330
47
100
AcDbEntity
  8
0
  6
Continuous
 62
     3
100
AcDbSpline
210
0.0
220
0.0
230
1.0
 70
     8
 71
     3
 72
    13
 73
     9
 74
     7
 42
0.000000001
 43
0.0000000001
 44
0.00000001
 40
0.0
 40
0.0
 40
0.0
 40
0.0
 40
0.1200749750187201
 40
0.2416117287269504
 40
0.2479099008535148
 40
0.2542081569489296
 40
0.2781157101392894
 40
0.3020321703319443
 40
0.3020321703319443
 40
0.3020321703319443
 40
0.3020321703319443
 10
-555.4499999430295
 20
142.342068963237
 30
0.0
 10
-555.4893744627619
 20
142.334754905032
 30
0.0
 10
-555.5686028454907
 20
142.3200377630346
 30
0.0
 10
-555.6512031983466
 20
142.3140067872301
 30
0.0
 10
-555.6958853651237
 20
142.3124365218142
 30
0.0
 10
-555.7080477744403
 20
142.3120655864217
 30
0.0
 10
-555.726085792556
 20
142.3116817451787
 30
0.0
 10
-555.7420274838096
 20
142.3116789093438
 30
0.0
 10
-555.7499998139974
 20
142.3116774985816
 30
0.0
 11
-555.4499999430295
 21
142.342068963237
 31
0.0
 11
-555.5684380374173
 21
142.3223099807518
 31
0.0
 11
-555.6895912127051
 21
142.3126616226068
 31
0.0
 11
-555.6958855328132
 21
142.3124413789595
 31
0.0
 11
-555.7021808362593
 21
142.3122485443259
 31
0.0
 11
-555.726083516515
 21
142.3117658514105
 31
0.0
 11
-555.7499998139974
 21
142.3116774985816
 31
0.0
  0
SPLINE
  5
FE
330
47
100
AcDbEntity
  8
0
  6
Continuous
 62
     3
100
AcDbSpline
210
0.0
220
0.0
230
1.0
 70
     8
 71
     3
 72
    13
 73
     9
 74
     7
 42
0.000000001
 43
0.0000000001
 44
0.00000001
 40
0.0
 40
0.0
 40
0.0
 40
0.0
 40
0.0233553701406893
 40
0.0536692611523804
 40
0.0783379467792443
 40
0.1126057565188373
 40
0.1637235049647307
 40
0.2075069202159244
 40
0.2075069202159244
 40
0.2075069202159244
 40
0.2075069202159244
 10
-564.0863629518271
 20
60.01964144565125
 30
0.0
 10
-564.0862159478226
 20
60.01185571277188
 30
0.0
 10
-564.0858781252008
 20
59.99396455894764
 30
0.0
 10
-564.0833907493707
 20
59.96794477471668
 30
0.0
 10
-564.0793287916849
 20
59.93847018263298
 30
0.0
 10
-564.072703142891
 20
59.90237579490976
 30
0.0
 10
-564.0629308909731
 20
59.86041449598884
 30
0.0
 10
-564.0540818491241
 20
59.83003997326193
 30
0.0
 10
-564.04999926561
 20
59.81602644480014
 30
0.0
 11
-564.0863629518271
 21
60.01964144565125
 31
0.0
 11
-564.0856631973477
 21
59.99629655973329
 31
0.0
 11
-564.0829815390244
 21
59.96610151363456
 31
0.0
 11
-564.0796139789762
 21
59.94166376290345
 31
0.0
 11
-564.0735050789827
 21
59.90794486321565
 31
0.0
 11
-564.0618916958203
 21
59.85816380823231
 31
0.0
 11
-564.04999926561
 21
59.81602644480014
 31
0.0
  0
SPLINE
  5
FF
330
47
100
AcDbEntity
  8
0
  6
Continuous
 62
     3
100
AcDbSpline
210
0.0
220
0.0
230
1.0
 70
     8
 71
     3
 72
    23
 73
    19
 74
    17
 42
0.000000001
 43
0.0000000001
 44
0.00000001
 40
0.0
 40
0.0
 40
0.0
 40
0.0
 40
0.0610978618091946
 40
0.1067501075194204
 40
0.1446226968056623
 40
0.2053787747999949
 40
0.2602421747479726
 40
0.2952545051788277
 40
0.3372270721433681
 40
0.3754509321680146
 40
0.4496048128565674
 40
0.4983550529004527
 40
0.5189336021107523
 40
0.5329907526474538
 40
0.5447925321433774
 40
0.5591470944523623
 40
0.571581666345615
 40
0.5833589677080526
 40
0.5833589677080526
 40
0.5833589677080526
 40
0.5833589677080526
 10
-563.6534898798095
 20
59.82952709767895
 30
0.0
 10
-563.667160766589
 20
59.84462285877992
 30
0.0
 10
-563.6910465208543
 20
59.87099815542847
 30
0.0
 10
-563.7236664880359
 20
59.9064937103546
 30
0.0
 10
-563.7563187368168
 20
59.94180419498527
 30
0.0
 10
-563.7912045084527
 20
59.97923097548448
 30
0.0
 10
-563.8256117967203
 20
60.01579956644228
 30
0.0
 10
-563.8558942852062
 20
60.04765155057751
 30
0.0
 10
-563.8825171398086
 20
60.07532808593977
 30
0.0
 10
-563.9185963797428
 20
60.11201440597914
 30
0.0
 10
-563.9569944277409
 20
60.14954512443076
 30
0.0
 10
-563.9942111044518
 20
60.17992769148508
 30
0.0
 10
-564.0188986797783
 20
60.193102104145
 30
0.0
 10
-564.0359265086199
 20
60.19291313618314
 30
0.0
 10
-564.0450476282784
 20
60.1816653914921
 30
0.0
 10
-564.0482979268847
 20
60.16916480806064
 30
0.0
 10
-564.0498192693776
 20
60.15636811236725
 30
0.0
 10
-564.0499403638885
 20
60.14829520564174
 30
0.0
 10
-564.04999926561
 20
60.14436832825545
 30
0.0
 11
-563.6534898798095
 21
59.82952709767895
 31
0.0
 11
-563.6945654170728
 21
59.87475704083853
 31
0.0
 11
-563.7254401164278
 21
59.90838560723435
 31
0.0
 11
-563.7511540755603
 21
59.93619073848919
 31
0.0
 11
-563.7925801646979
 21
59.98063373735955
 31
0.0
 11
-563.8301882645364
 21
60.02057899335428
 31
0.0
 11
-563.8543180769667
 21
60.04594857025755
 31
0.0
 11
-563.883441951586
 21
60.07617267158628
 31
0.0
 11
-563.9102570341383
 21
60.10341262054175
 31
0.0
 11
-563.9639911329961
 21
60.15451491623123
 31
0.0
 11
-564.0027757873494
 21
60.18405025984235
 31
0.0
 11
-564.0216928497666
 21
60.19215096959958
 31
0.0
 11
-564.0356847120697
 21
60.19079770133236
 31
0.0
 11
-564.0437093045673
 21
60.18214391999489
 31
0.0
 11
-564.0481152248758
 21
60.16848224612406
 31
0.0
 11
-564.0496252251453
 21
60.15613969825604
 31
0.0
 11
-564.04999926561
 21
60.14436832825545
 31
0.0
  0
SPLINE
  5
100
330
47
100
AcDbEntity
  8
0
  6
Continuous
 62
     3
100
AcDbSpline
210
0.0
220
0.0
230
1.0
 70
     8
 71
     3
 72
    13
 73
     9
 74
     7
 42
0.000000001
 43
0.0000000001
 44
0.00000001
 40
0.0
 40
0.0
 40
0.0
 40
0.0
 40
0.2963014947501389
 40
0.5473834708819492
 40
0.7965500044182416
 40
1.085450236370026
 40
1.605606907269314
 40
2.102230079333866
 40
2.102230079333866
 40
2.102230079333866
 40
2.102230079333866
 10
-561.4499998139972
 20
59.65132275232125
 30
0.0
 10
-561.548802542839
 20
59.6526014259963
 30
0.0
 10
-561.7313293997297
 20
59.65496364476245
 30
0.0
 10
-561.9958277944561
 20
59.68080427136877
 30
0.0
 10
-562.2559698314765
 20
59.7210228158434
 30
0.0
 10
-562.5999168002754
 20
59.79956028117812
 30
0.0
 10
-563.0158530470613
 20
59.93655365186221
 30
0.0
 10
-563.311265216268
 20
60.10406678430164
 30
0.0
 10
-563.4555526213582
 20
60.18588480062005
 30
0.0
 11
-561.4499998139972
 21
59.65132275232125
 31
0.0
 11
-561.7461837153164
 21
59.65966976756773
 31
0.0
 11
-561.9961606136102
 21
59.68320079800655
 31
0.0
 11
-562.2423379085718
 21
59.72168067852088
 31
0.0
 11
-562.5240863114486
 21
59.78556480743126
 31
0.0
 11
-563.0158932452042
 21
59.95494279797845
 31
0.0
 11
-563.4555526213582
 21
60.18588480062005
 31
0.0
  0
SPLINE
  5
101
330
47
100
AcDbEntity
  8
0
  6
Continuous
 62
     3
100
AcDbSpline
210
0.0
220
0.0
230
1.0
 70
     8
 71
     3
 72
    11
 73
     7
 74
     5
 42
0.000000001
 43
0.0000000001
 44
0.00000001
 40
0.0
 40
0.0
 40
0.0
 40
0.0
 40
0.0906380481159735
 40
0.1748366436935399
 40
0.4297710544190749
 40
0.7206252135032625
 40
0.7206252135032625
 40
0.7206252135032625
 40
0.7206252135032625
 10
-563.0077965183277
 20
59.51205907532105
 30
0.0
 10
-563.0360263210541
 20
59.52283080015379
 30
0.0
 10
-563.0904803124938
 20
59.54360897723046
 30
0.0
 10
-563.2227385458776
 20
59.59865255079092
 30
0.0
 10
-563.4137001141769
 20
59.68678632596082
 30
0.0
 10
-563.5701283133851
 20
59.77990406298117
 30
0.0
 10
-563.6534898798095
 20
59.82952709767895
 30
0.0
 11
-563.0077965183277
 21
59.51205907532105
 31
0.0
 11
-563.0923113518465
 21
59.54480810214216
 31
0.0
 11
-563.1700995088956
 21
59.57703241248875
 31
0.0
 11
-563.4008461203155
 21
59.68541855294788
 31
0.0
 11
-563.6534898798095
 21
59.82952709767895
 31
0.0
  0
SPLINE
  5
102
330
47
100
AcDbEntity
  8
0
  6
Continuous
 62
     7
100
AcDbSpline
210
0.0
220
0.0
230
1.0
 70
     8
 71
     3
 72
    11
 73
     7
 74
     5
 42
0.000000001
 43
0.0000000001
 44
0.00000001
 40
0.0
 40
0.0
 40
0.0
 40
0.0
 40
0.0030516695696784
 40
0.0060602179099235
 40
0.0091069735156004
 40
0.0121787913158871
 40
0.0121787913158871
 40
0.0121787913158871
 40
0.0121787913158871
 10
-569.5614680384
 20
59.46718786782645
 30
0.0
 10
-569.5604588219629
 20
59.46731525955261
 30
0.0
 10
-569.5584546478436
 20
59.46756822810384
 30
0.0
 10
-569.5554408974738
 20
59.46793236042031
 30
0.0
 10
-569.5524187460092
 20
59.46828281503744
 30
0.0
 10
-569.5503908714566
 20
59.46850057333168
 30
0.0
 10
-569.5493727801914
 20
59.46860989098835
 30
0.0
 11
-569.5614680384
 21
59.46718786782645
 31
0.0
 11
-569.5584400536907
 21
59.46756733561178
 31
0.0
 11
-569.5554532586068
 21
59.46792847068956
 31
0.0
 11
-569.5524265729008
 21
59.46827760353658
 31
0.0
 11
-569.5493727801914
 21
59.46860989098835
 31
0.0
  0
SPLINE
  5
103
330
47
100
AcDbEntity
  8
0
  6
Continuous
 62
     7
100
AcDbSpline
210
0.0
220
0.0
230
1.0
 70
     8
 71
     3
 72
    15
 73
    11
 74
     9
 42
0.000000001
 43
0.0000000001
 44
0.00000001
 40
0.0
 40
0.0
 40
0.0
 40
0.0
 40
0.0000086061684347
 40
0.000017208165343
 40
0.000025806156395
 40
0.0000344002861029
 40
0.0000429906965808
 40
0.0000515775307085
 40
0.0000601609328449
 40
0.0000687410697108
 40
0.0000687410697108
 40
0.0000687410697108
 40
0.0000687410697108
 10
-569.5615360733693
 20
59.46717806051815
 30
0.0
 10
-569.5615332406595
 20
59.4671785136746
 30
0.0
 10
-569.5615275745971
 20
59.46717940705679
 30
0.0
 10
-569.561519074033
 20
59.46718072463938
 30
0.0
 10
-569.5615105717055
 20
59.46718200416787
 30
0.0
 10
-569.5615020680275
 20
59.46718324825401
 30
0.0
 10
-569.5614935628711
 20
59.46718445602004
 30
0.0
 10
-569.5614850563647
 20
59.46718562836284
 30
0.0
 10
-569.5614765481549
 20
59.46718676256963
 30
0.0
 10
-569.561470875179
 20
59.46718750372576
 30
0.0
 10
-569.5614680384
 20
59.46718786782645
 30
0.0
 11
-569.5615360733693
 21
59.46717806051815
 31
0.0
 11
-569.5615275740477
 21
59.46717941251204
 31
0.0
 11
-569.5615190732691
 21
59.46718072848485
 31
0.0
 11
-569.5615105710407
 21
59.46718200843559
 31
0.0
 11
-569.5615020673695
 21
59.46718325236336
 31
0.0
 11
-569.5614935622627
 21
59.46718446026722
 31
0.0
 11
-569.5614850557274
 21
59.46718563214625
 31
0.0
 11
-569.5614765477708
 21
59.46718676799963
 31
0.0
 11
-569.5614680384
 21
59.46718786782645
 31
0.0
  0
SPLINE
  5
104
330
47
100
AcDbEntity
  8
0
  6
Continuous
 62
     7
100
AcDbSpline
210
0.0
220
0.0
230
1.0
 70
     8
 71
     3
 72
    15
 73
    11
 74
     9
 42
0.000000001
 43
0.0000000001
 44
0.00000001
 40
0.0
 40
0.0
 40
0.0
 40
0.0
 40
0.0000085801370914
 40
0.0000171635393433
 40
0.0000257503734709
 40
0.0000343407839528
 40
0.0000429349137743
 40
0.0000515329047128
 40
0.0000601349017128
 40
0.0000687410697116
 40
0.0000687410697116
 40
0.0000687410697116
 40
0.0000687410697116
 10
-569.5614680383997
 20
59.46409167880425
 30
0.0
 10
-569.5614708751788
 20
59.46409131470355
 30
0.0
 10
-569.5614765481548
 20
59.46409057354744
 30
0.0
 10
-569.5614850563645
 20
59.46408943934062
 30
0.0
 10
-569.5614935628712
 20
59.46408826699781
 30
0.0
 10
-569.5615020680273
 20
59.46408705923172
 30
0.0
 10
-569.5615105717055
 20
59.46408581514563
 30
0.0
 10
-569.5615190740332
 20
59.46408453561707
 30
0.0
 10
-569.5615275745972
 20
59.46408321803483
 30
0.0
 10
-569.5615332406595
 20
59.46408232465242
 30
0.0
 10
-569.561536073369
 20
59.46408187149595
 30
0.0
 11
-569.5614680383997
 21
59.46409167880425
 31
0.0
 11
-569.5614765477706
 21
59.46409057897743
 31
0.0
 11
-569.5614850557272
 21
59.46408944312405
 31
0.0
 11
-569.5614935622625
 21
59.46408827124502
 31
0.0
 11
-569.5615020673692
 21
59.46408706334115
 31
0.0
 11
-569.5615105710405
 21
59.46408581941338
 31
0.0
 11
-569.5615190732688
 21
59.46408453946265
 31
0.0
 11
-569.5615275740473
 21
59.46408322348984
 31
0.0
 11
-569.561536073369
 21
59.46408187149595
 31
0.0
  0
SPLINE
  5
105
330
47
100
AcDbEntity
  8
0
  6
Continuous
 62
     7
100
AcDbSpline
210
0.0
220
0.0
230
1.0
 70
     8
 71
     3
 72
    11
 73
     7
 74
     5
 42
0.000000001
 43
0.0000000001
 44
0.00000001
 40
0.0
 40
0.0
 40
0.0
 40
0.0
 40
0.0030516696160728
 40
0.0060602179117542
 40
0.0091069735061094
 40
0.0121787913156621
 40
0.0121787913156621
 40
0.0121787913156621
 40
0.0121787913156621
 10
-569.5614680383997
 20
59.46409167880425
 30
0.0
 10
-569.5604588219472
 20
59.46421907053232
 30
0.0
 10
-569.5584546478273
 20
59.46447203908367
 30
0.0
 10
-569.5554408974607
 20
59.46483617139954
 30
0.0
 10
-569.5524187460115
 20
59.46518662601501
 30
0.0
 10
-569.5503908714595
 20
59.46540438430915
 30
0.0
 10
-569.5493727801913
 20
59.46551370196615
 30
0.0
 11
-569.5614680383997
 21
59.46409167880425
 31
0.0
 11
-569.5584400536443
 21
59.46447114659527
 31
0.0
 11
-569.5554532586046
 21
59.46483228166756
 31
0.0
 11
-569.5524265729099
 21
59.46518141451335
 31
0.0
 11
-569.5493727801913
 21
59.46551370196615
 31
0.0
  0
SPLINE
  5
106
330
47
100
AcDbEntity
  8
0
  6
Continuous
 62
     3
100
AcDbSpline
210
0.0
220
0.0
230
1.0
 70
     8
 71
     3
 72
    15
 73
    11
 74
     9
 42
0.000000001
 43
0.0000000001
 44
0.00000001
 40
0.0
 40
0.0
 40
0.0
 40
0.0
 40
0.0008731969893836
 40
0.0016695373861357
 40
0.0023915053597682
 40
0.0030429227610936
 40
0.0036294614207602
 40
0.0041593265714793
 40
0.0046439911841005
 40
0.0050986789913179
 40
0.0050986789913179
 40
0.0050986789913179
 40
0.0050986789913179
 10
-569.5648536967248
 20
59.46354383757586
 30
0.0
 10
-569.5647291036414
 20
59.46380698152638
 30
0.0
 10
-569.5644908809552
 20
59.46431010669167
 30
0.0
 10
-569.5640957245946
 20
59.46500336878148
 30
0.0
 10
-569.563693116778
 20
59.46560512217865
 30
0.0
 10
-569.5632806016276
 20
59.46611302263732
 30
0.0
 10
-569.5628593686423
 20
59.46652773200357
 30
0.0
 10
-569.5624288081194
 20
59.46684509465462
 30
0.0
 10
-569.5619906962779
 20
59.46707426035962
 30
0.0
 10
-569.5616843569983
 20
59.46714420912753
 30
0.0
 10
-569.5615360733693
 20
59.46717806051815
 30
0.0
 11
-569.5648536967248
 21
59.46354383757586
 31
0.0
 11
-569.5644696239189
 21
59.46432802114756
 31
0.0
 11
-569.5640749515311
 21
59.46501967977615
 31
0.0
 11
-569.5636705732962
 21
59.46561777335704
 31
0.0
 11
-569.5632574220532
 21
59.46612141058336
 31
0.0
 11
-569.5628364300513
 21
59.46652981400964
 31
0.0
 11
-569.5624085617878
 21
59.46684236495756
 31
0.0
 11
-569.5619747811498
 21
59.46705856004316
 31
0.0
 11
-569.5615360733693
 21
59.46717806051815
 31
0.0
  0
SPLINE
  5
107
330
47
100
AcDbEntity
  8
0
  6
Continuous
 62
     7
100
AcDbSpline
210
0.0
220
0.0
230
1.0
 70
     8
 71
     3
 72
    11
 73
     7
 74
     5
 42
0.000000001
 43
0.0000000001
 44
0.00000001
 40
0.0
 40
0.0
 40
0.0
 40
0.0
 40
0.0120078810060018
 40
0.0240115518260379
 40
0.0359944618396249
 40
0.0481462247074151
 40
0.0481462247074151
 40
0.0481462247074151
 40
0.0481462247074151
 10
-569.6089268113483
 20
59.45869956485575
 30
0.0
 10
-569.6050005287295
 20
59.45947787201552
 30
0.0
 10
-569.5971493372531
 20
59.46103419873113
 30
0.0
 10
-569.5853447350098
 20
59.46318289798546
 30
0.0
 10
-569.5734738096875
 20
59.46523064404722
 30
0.0
 10
-569.5655338363775
 20
59.46652590597051
 30
0.0
 10
-569.5615360733693
 20
59.46717806051815
 30
0.0
 11
-569.6089268113483
 21
59.45869956485575
 31
0.0
 11
-569.5971420747231
 21
59.46100373302874
 31
0.0
 11
-569.585334747226
 21
59.46316593869665
 31
0.0
 11
-569.5735262989266
 21
59.46520326128874
 31
0.0
 11
-569.5615360733693
 21
59.46717806051815
 31
0.0
  0
SPLINE
  5
108
330
47
100
AcDbEntity
  8
0
  6
Continuous
 62
     7
100
AcDbSpline
210
0.0
220
0.0
230
1.0
 70
     8
 71
     3
 72
    11
 73
     7
 74
     5
 42
0.000000001
 43
0.0000000001
 44
0.00000001
 40
0.0
 40
0.0
 40
0.0
 40
0.0
 40
0.0120078810082767
 40
0.0240115518396431
 40
0.0359944618578768
 40
0.0481462247317936
 40
0.0481462247317936
 40
0.0481462247317936
 40
0.0481462247317936
 10
-569.608926811372
 20
59.45560337582975
 30
0.0
 10
-569.6050005287526
 20
59.45638168298934
 30
0.0
 10
-569.5971493372713
 20
59.45793800970515
 30
0.0
 10
-569.5853447350225
 20
59.46008670896082
 30
0.0
 10
-569.5734738096925
 20
59.462134455024
 30
0.0
 10
-569.5655338363794
 20
59.46342971694796
 30
0.0
 10
-569.561536073369
 20
59.46408187149595
 30
0.0
 11
-569.608926811372
 21
59.45560337582975
 31
0.0
 11
-569.5971420747445
 21
59.45790754400239
 31
0.0
 11
-569.5853347472363
 21
59.46006974967236
 31
0.0
 11
-569.5735262989323
 21
59.46210707226543
 31
0.0
 11
-569.561536073369
 21
59.46408187149595
 31
0.0
  0
SPLINE
  5
109
330
47
100
AcDbEntity
  8
0
  6
Continuous
 62
     7
100
AcDbSpline
210
0.0
220
0.0
230
1.0
 70
    24
 71
     3
 72
     8
 73
     4
 74
     2
 42
0.0000000001
 43
0.0000000001
 44
0.00000001
 40
0.0
 40
0.0
 40
0.0
 40
0.0
 40
0.0000074715047355
 40
0.0000074715047355
 40
0.0000074715047355
 40
0.0000074715047355
 10
-569.55932611156
 20
52.58176725096006
 30
0.0
 10
-569.5593285899704
 20
52.58176749607162
 30
0.0
 10
-569.5593310683809
 20
52.58176774118319
 30
0.0
 10
-569.5593335467914
 20
52.58176798629475
 30
0.0
 11
-569.55932611156
 21
52.58176725096006
 31
0.0
 11
-569.5593335467914
 21
52.58176798629475
 31
0.0
  0
SPLINE
  5
10A
330
47
100
AcDbEntity
  8
0
  6
Continuous
 62
     3
100
AcDbSpline
210
0.0
220
0.0
230
1.0
 70
     8
 71
     3
 72
    15
 73
    11
 74
     9
 42
0.000000001
 43
0.0000000001
 44
0.00000001
 40
0.0
 40
0.0
 40
0.0
 40
0.0
 40
0.0131489115405616
 40
0.0247872947257516
 40
0.0348375288993288
 40
0.0432223049914686
 40
0.0498368024648861
 40
0.0546115570690793
 40
0.0575280942083681
 40
0.0586163929099159
 40
0.0586163929099159
 40
0.0586163929099159
 40
0.0586163929099159
 10
-569.5500004751837
 20
52.63952599409205
 30
0.0
 10
-569.5500489574445
 20
52.63514319606264
 30
0.0
 10
-569.5501403660799
 20
52.62688108975004
 30
0.0
 10
-569.5501827851941
 20
52.61526957530371
 30
0.0
 10
-569.5501575777562
 20
52.60524195903581
 30
0.0
 10
-569.5500168707497
 20
52.59690150363484
 30
0.0
 10
-569.5498894656625
 20
52.59028959150051
 30
0.0
 10
-569.5494794867136
 20
52.58558012692841
 30
0.0
 10
-569.5494477360646
 20
52.58257162793132
 30
0.0
 10
-569.5488466345951
 20
52.58136977257766
 30
0.0
 10
-569.5486832932108
 20
52.58104317048915
 30
0.0
 11
-569.5500004751837
 21
52.63952599409205
 31
0.0
 11
-569.5501286976466
 21
52.62637771033935
 31
0.0
 11
-569.5501718700419
 21
52.61473940723599
 31
0.0
 11
-569.5501299877195
 21
52.60468926036273
 31
0.0
 11
-569.5500030460291
 21
52.59630544530025
 31
0.0
 11
-569.549792263227
 21
52.58969430725919
 31
0.0
 11
-569.5495004520797
 21
52.58492847825337
 31
0.0
 11
-569.5491299997024
 21
52.58203556406822
 31
0.0
 11
-569.5486832932108
 21
52.58104317048915
 31
0.0
  0
SPLINE
  5
10B
330
47
100
AcDbEntity
  8
0
  6
Continuous
 62
     3
100
AcDbSpline
210
0.0
220
0.0
230
1.0
 70
     8
 71
     3
 72
    15
 73
    11
 74
     9
 42
0.000000001
 43
0.0000000001
 44
0.00000001
 40
0.0
 40
0.0
 40
0.0
 40
0.0
 40
0.0010844235881794
 40
0.0039898066896633
 40
0.0087463248920312
 40
0.0153357152378061
 40
0.023689068874911
 40
0.0337023694392152
 40
0.0452988929969907
 40
0.0584016040791408
 40
0.0584016040791408
 40
0.0584016040791408
 40
0.0584016040791408
 10
-569.5593335467914
 20
52.58176798629475
 30
0.0
 10
-569.5594762843552
 20
52.58210270013787
 30
0.0
 10
-569.5600014650138
 20
52.58333416986407
 30
0.0
 10
-569.559849213123
 20
52.58632782135598
 30
0.0
 10
-569.5599694494174
 20
52.59103542192179
 30
0.0
 10
-569.5596919436124
 20
52.59761777882765
 30
0.0
 10
-569.5593218997194
 20
52.60592002858959
 30
0.0
 10
-569.5587335876685
 20
52.61589360013083
 30
0.0
 10
-569.557980972258
 20
52.62743902327165
 30
0.0
 10
-569.5573844646087
 20
52.63565064457746
 30
0.0
 10
-569.5570680301679
 20
52.64000683275465
 30
0.0
 11
-569.5593335467914
 21
52.58176798629475
 31
0.0
 11
-569.5597178331312
 21
52.58278203568894
 31
0.0
 11
-569.5599099002935
 21
52.58568106306657
 31
0.0
 11
-569.5599090616679
 21
52.59043758101961
 31
0.0
 11
-569.559714630644
 21
52.59702410214005
 31
0.0
 11
-569.559328241814
 21
52.60536851462624
 31
0.0
 11
-569.5587551664843
 21
52.61536540275295
 31
0.0
 11
-569.5580001731154
 21
52.62693732322687
 31
0.0
 11
-569.5570680301679
 21
52.64000683275465
 31
0.0
  0
SPLINE
  5
10C
330
47
100
AcDbEntity
  8
0
  6
Continuous
 62
     7
100
AcDbSpline
210
0.0
220
0.0
230
1.0
 70
     8
 71
     3
 72
    11
 73
     7
 74
     5
 42
0.000000001
 43
0.0000000001
 44
0.00000001
 40
0.0
 40
0.0
 40
0.0
 40
0.0
 40
0.0163222181207043
 40
0.0342689674803241
 40
0.0531772606697617
 40
0.068104756594733
 40
0.068104756594733
 40
0.068104756594733
 40
0.068104756594733
 10
-569.6752857892031
 20
59.44340911523955
 30
0.0
 10
-569.6700122419683
 20
59.44474784496804
 30
0.0
 10
-569.6589402737557
 20
59.44755853155173
 30
0.0
 10
-569.6416888734879
 20
59.45163482628131
 30
0.0
 10
-569.624843558945
 20
59.45540266312658
 30
0.0
 10
-569.6137992729716
 20
59.45769031683135
 30
0.0
 10
-569.6089268113483
 20
59.45869956485575
 30
0.0
 11
-569.6752857892031
 21
59.44340911523955
 31
0.0
 11
-569.6594548618745
 21
59.4473836021205
 31
0.0
 11
-569.6419929856056
 21
59.45152711447345
 31
0.0
 11
-569.6235369536482
 21
59.45563788586409
 31
0.0
 11
-569.6089268113483
 21
59.45869956485575
 31
0.0
  0
SPLINE
  5
10D
330
47
100
AcDbEntity
  8
0
  6
Continuous
 62
     3
100
AcDbSpline
210
0.0
220
0.0
230
1.0
 70
     8
 71
     3
 72
    23
 73
    19
 74
    17
 42
0.000000001
 43
0.0000000001
 44
0.00000001
 40
0.0
 40
0.0
 40
0.0
 40
0.0
 40
0.0121561998618971
 40
0.0233906936069864
 40
0.02858781794386
 40
0.0334652409165129
 40
0.0379946520856626
 40
0.0421495317619609
 40
0.0459057994722216
 40
0.0492429661338266
 40
0.0521453497500401
 40
0.0546046334251076
 40
0.0566239587754004
 40
0.0582277524996254
 40
0.0588942402776043
 40
0.0594884322060888
 40
0.0600325749240401
 40
0.0605557502192884
 40
0.0605557502192884
 40
0.0605557502192884
 40
0.0605557502192884
 10
-569.5501140448047
 20
59.40653438850895
 30
0.0
 10
-569.5501556357931
 20
59.41058670323391
 30
0.0
 10
-569.5502356572831
 20
59.41838407863058
 30
0.0
 10
-569.5508099714987
 20
59.42790071339915
 30
0.0
 10
-569.5514797227778
 20
59.43497253599483
 30
0.0
 10
-569.5520677817186
 20
59.43980556465853
 30
0.0
 10
-569.5527456697755
 20
59.44427574902036
 30
0.0
 10
-569.5535054296131
 20
59.44835335150653
 30
0.0
 10
-569.5543384428994
 20
59.45201026043306
 30
0.0
 10
-569.5552339142521
 20
59.45522131964746
 30
0.0
 10
-569.556181338305
 20
59.45796397330842
 30
0.0
 10
-569.5571688005896
 20
59.46022183820089
 30
0.0
 10
-569.558185071699
 20
59.46198127650412
 30
0.0
 10
-569.5591032814717
 20
59.46309462964292
 30
0.0
 10
-569.5598585143453
 20
59.46368647321849
 30
0.0
 10
-569.5603942057475
 20
59.46396590912737
 30
0.0
 10
-569.5609355381018
 20
59.46411869844107
 30
0.0
 10
-569.5612928782699
 20
59.46410056197287
 30
0.0
 10
-569.5614680383997
 20
59.46409167880425
 30
0.0
 11
-569.5501140448047
 21
59.40653438850895
 31
0.0
 11
-569.5503441195298
 21
59.41868840216821
 31
0.0
 11
-569.5510183751061
 21
59.42990264444666
 31
0.0
 11
-569.5515134672366
 21
59.43507613310117
 31
0.0
 11
-569.5521063767766
 21
59.43991738424715
 31
0.0
 11
-569.5527905841717
 21
59.44439481935559
 31
0.0
 11
-569.5535581135848
 21
59.44847819087116
 31
0.0
 11
-569.5544003708204
 21
59.45213881225173
 31
0.0
 11
-569.5553073680325
 21
59.45535035957445
 31
0.0
 11
-569.5562686763196
 21
59.45808892043722
 31
0.0
 11
-569.5572726319176
 21
59.46033394774125
 31
0.0
 11
-569.5583073663349
 21
59.46206801734396
 31
0.0
 11
-569.5593601131407
 21
59.46327792468586
 31
0.0
 11
-569.5598892588066
 21
59.46368315300874
 31
0.0
 11
-569.5604180540352
 21
59.46395414869166
 31
0.0
 11
-569.5609448624945
 21
59.46409039212298
 31
0.0
 11
-569.5614680383997
 21
59.46409167880425
 31
0.0
  0
SPLINE
  5
10E
330
47
100
AcDbEntity
  8
0
  6
Continuous
 62
     7
100
AcDbSpline
210
0.0
220
0.0
230
1.0
 70
     8
 71
     3
 72
    11
 73
     7
 74
     5
 42
0.000000001
 43
0.0000000001
 44
0.00000001
 40
0.0
 40
0.0
 40
0.0
 40
0.0
 40
0.0163222485156767
 40
0.0342689713231289
 40
0.0531772622006931
 40
0.0681047565707067
 40
0.0681047565707067
 40
0.0681047565707067
 40
0.0681047565707067
 10
-569.6752857892035
 20
59.44031292621905
 30
0.0
 10
-569.6700122321378
 20
59.44165165839998
 30
0.0
 10
-569.6589402626614
 20
59.44446234521378
 30
0.0
 10
-569.6416888618592
 20
59.44853863989252
 30
0.0
 10
-569.6248435572004
 20
59.45230647447374
 30
0.0
 10
-569.6137992724881
 20
59.45459412791251
 30
0.0
 10
-569.608926811372
 20
59.45560337582975
 30
0.0
 11
-569.6752857892035
 21
59.44031292621905
 31
0.0
 11
-569.6594548323445
 21
59.44428742030139
 31
0.0
 11
-569.6419929818627
 21
59.44843092632266
 31
0.0
 11
-569.6235369521524
 21
59.45254169716829
 31
0.0
 11
-569.608926811372
 21
59.45560337582975
 31
0.0
  0
SPLINE
  5
10F
330
47
100
AcDbEntity
  8
0
  6
Continuous
 62
     3
100
AcDbSpline
210
0.0
220
0.0
230
1.0
 70
     8
 71
     3
 72
    15
 73
    11
 74
     9
 42
0.000000001
 43
0.0000000001
 44
0.00000001
 40
0.0
 40
0.0
 40
0.0
 40
0.0
 40
0.0008571131068586
 40
0.0016434906459301
 40
0.0023628293044746
 40
0.0030204016675067
 40
0.0036235129373832
 40
0.0041819839696693
 40
0.0047084404374608
 40
0.0052181163786798
 40
0.0052181163786798
 40
0.0052181163786798
 40
0.0052181163786798
 10
-569.6784383328566
 20
59.43950097180046
 30
0.0
 10
-569.6783398355344
 20
59.43976926777061
 30
0.0
 10
-569.6781509607265
 20
59.44028371439211
 30
0.0
 10
-569.6778180422565
 20
59.44099858416055
 30
0.0
 10
-569.6774625362987
 20
59.44162700556647
 30
0.0
 10
-569.6770806875132
 20
59.44216685971943
 30
0.0
 10
-569.676673043938
 20
59.44261845367683
 30
0.0
 10
-569.6762382155343
 20
59.44297792565411
 30
0.0
 10
-569.6757783783942
 20
59.4432529852855
 30
0.0
 10
-569.6754482047797
 20
59.44335764129875
 30
0.0
 10
-569.6752857892031
 20
59.44340911523955
 30
0.0
 11
-569.6784383328566
 21
59.43950097180046
 31
0.0
 11
-569.6781312292793
 21
59.44030116989732
 31
0.0
 11
-569.6777989787172
 21
59.44101390967315
 31
0.0
 11
-569.677441678176
 21
59.44163823720268
 31
0.0
 11
-569.6770594811727
 21
59.44217333346495
 31
0.0
 11
-569.6766525573337
 21
59.44261848323371
 31
0.0
 11
-569.6762211305428
 21
59.44297311588765
 31
0.0
 11
-569.6757654440396
 21
59.44323676496055
 31
0.0
 11
-569.6752857892031
 21
59.44340911523955
 31
0.0
  0
SPLINE
  5
110
330
47
100
AcDbEntity
  8
0
  6
Continuous
 62
     3
100
AcDbSpline
210
0.0
220
0.0
230
1.0
 70
     8
 71
     3
 72
    22
 73
    18
 74
    16
 42
0.000000001
 43
0.0000000001
 44
0.00000001
 40
0.0
 40
0.0
 40
0.0
 40
0.0
 40
0.012322328562226
 40
0.0237665807035873
 40
0.0307862173133099
 40
0.0372339337742881
 40
0.0430437292670473
 40
0.046946454814001
 40
0.0504362631619447
 40
0.0534978142905132
 40
0.056123633486144
 40
0.0583181892788461
 40
0.0601069337336984
 40
0.0608686738133682
 40
0.0615582483532085
 40
0.0621948252486206
 40
0.0628030228278355
 40
0.0628030228278355
 40
0.0628030228278355
 40
0.0628030228278355
 10
-569.6445717029959
 20
59.38740392866875
 30
0.0
 10
-569.6460701592893
 20
59.39122845709614
 30
0.0
 10
-569.6489602851475
 20
59.39860498529446
 30
0.0
 10
-569.6529917816229
 20
59.40804415330982
 30
0.0
 10
-569.6564550759633
 20
59.41559209178496
 30
0.0
 10
-569.6592934370244
 20
59.42135798121818
 30
0.0
 10
-569.6618350275284
 20
59.42610912810637
 30
0.0
 10
-569.6640647224327
 20
59.42990440099821
 30
0.0
 10
-569.6659565852963
 20
59.43283246540648
 30
0.0
 10
-569.6677572873081
 20
59.43530772034476
 30
0.0
 10
-569.6694585831951
 20
59.43731459880551
 30
0.0
 10
-569.6710541037157
 20
59.43884022497734
 30
0.0
 10
-569.6723614842324
 20
59.43975142366106
 30
0.0
 10
-569.6733522991879
 20
59.44019121189507
 30
0.0
 10
-569.6740270014391
 20
59.44037035681097
 30
0.0
 10
-569.6746763800895
 20
59.44042781165845
 30
0.0
 10
-569.6750857633178
 20
59.44035063035328
 30
0.0
 10
-569.6752857892035
 20
59.44031292621905
 30
0.0
 11
-569.6445717029959
 21
59.38740392866875
 31
0.0
 11
-569.6491267804543
 21
59.39885342022434
 31
0.0
 11
-569.6536284512638
 21
59.40937510576715
 31
0.0
 11
-569.656564651464
 21
59.41575115670926
 31
0.0
 11
-569.6594214008027
 21
59.4215314706716
 31
0.0
 11
-569.6621753185138
 21
59.42664709959286
 31
0.0
 11
-569.6641593545784
 21
59.43000788320018
 31
0.0
 11
-569.6660624310167
 21
59.43293312866445
 31
0.0
 11
-569.6678751415579
 21
59.43540034859755
 31
0.0
 11
-569.6695882378293
 21
59.43739038017546
 31
0.0
 11
-569.6711933175686
 21
59.4388869735797
 31
0.0
 11
-569.6726824310292
 21
59.43987800585376
 31
0.0
 11
-569.6733813023695
 21
59.44018103377595
 31
0.0
 11
-569.6740486288022
 21
59.44035477897636
 31
0.0
 11
-569.674683680426
 21
59.44039879083829
 31
0.0
 11
-569.6752857892035
 21
59.44031292621905
 31
0.0
  0
SPLINE
  5
111
330
47
100
AcDbEntity
  8
0
  6
Continuous
 62
     3
100
AcDbSpline
210
0.0
220
0.0
230
1.0
 70
     8
 71
     3
 72
    17
 73
    13
 74
    11
 42
0.000000001
 43
0.0000000001
 44
0.00000001
 40
0.0
 40
0.0
 40
0.0
 40
0.0
 40
0.0098519377235543
 40
0.0198457547870768
 40
0.0295577294783195
 40
0.038567626302386
 40
0.043402749993439
 40
0.0482356813036425
 40
0.0599854969120528
 40
0.0717214606974033
 40
0.0840855706065863
 40
0.0964354176438137
 40
0.0964354176438137
 40
0.0964354176438137
 40
0.0964354176438137
 10
-569.5501140448047
 20
59.40653438850895
 30
0.0
 10
-569.5533563321464
 20
59.40601243631697
 30
0.0
 10
-569.5598875972275
 20
59.40496100068012
 30
0.0
 10
-569.5696371655033
 20
59.40353923066704
 30
0.0
 10
-569.5790990092003
 20
59.4020898281321
 30
0.0
 10
-569.5868281172418
 20
59.40069507911866
 30
0.0
 10
-569.5929223070493
 20
59.39942012338846
 30
0.0
 10
-569.5999098075579
 20
59.39795593915196
 30
0.0
 10
-569.6091325376224
 20
59.39594309687682
 30
0.0
 10
-569.6207813260565
 20
59.39327657474132
 30
0.0
 10
-569.6325976951039
 20
59.39044732776779
 30
0.0
 10
-569.6405819041669
 20
59.38841800938242
 30
0.0
 10
-569.6445717029959
 20
59.38740392866875
 30
0.0
 11
-569.5501140448047
 21
59.40653438850895
 31
0.0
 11
-569.5598445594729
 21
59.40499238894716
 31
0.0
 11
-569.5697283711099
 21
59.40351365737415
 31
0.0
 11
-569.5793233009396
 21
59.40201040257872
 31
0.0
 11
-569.5881871701858
 21
59.40039483334967
 31
0.0
 11
-569.5929229493643
 21
59.39941973498853
 31
0.0
 11
-569.5976523986375
 21
59.39842498136198
 31
0.0
 11
-569.6091326779914
 21
59.39592271157744
 31
0.0
 11
-569.6205729286285
 21
59.39330478999548
 31
0.0
 11
-569.6325954168918
 21
59.39041844385349
 31
0.0
 11
-569.6445717029959
 21
59.38740392866875
 31
0.0
  0
SPLINE
  5
112
330
47
100
AcDbEntity
  8
0
  6
Continuous
 62
     3
100
AcDbSpline
210
0.0
220
0.0
230
1.0
 70
     8
 71
     3
 72
    11
 73
     7
 74
     5
 42
0.000000001
 43
0.0000000001
 44
0.00000001
 40
0.0
 40
0.0
 40
0.0
 40
0.0
 40
0.0647352591016091
 40
0.1408965227565896
 40
0.2171365959333109
 40
0.2820959653204071
 40
0.2820959653204071
 40
0.2820959653204071
 40
0.2820959653204071
 10
-569.5570680301674
 20
57.85797192443255
 30
0.0
 10
-569.5581568786937
 20
57.879527726245
 30
0.0
 10
-569.5605267455408
 20
57.92644400651586
 30
0.0
 10
-569.5596483488795
 20
57.99884743593705
 30
0.0
 10
-569.5569804919636
 20
58.07128135140945
 30
0.0
 10
-569.5523227231926
 20
58.11812738437064
 30
0.0
 10
-569.550179890734
 20
58.13967908893305
 30
0.0
 11
-569.5570680301674
 21
57.85797192443255
 31
0.0
 11
-569.5597139799717
 21
57.9226530865534
 31
0.0
 11
-569.5593354930594
 21
57.99881341031115
 31
0.0
 11
-569.555989370577
 21
58.07498001918102
 31
0.0
 11
-569.550179890734
 21
58.13967908893305
 31
0.0
  0
SPLINE
  5
113
330
47
100
AcDbEntity
  8
0
  6
Continuous
 62
     3
100
AcDbSpline
210
0.0
220
0.0
230
1.0
 70
     8
 71
     3
 72
    15
 73
    11
 74
     9
 42
0.000000001
 43
0.0000000001
 44
0.00000001
 40
0.0
 40
0.0
 40
0.0
 40
0.0
 40
0.0303108831303414
 40
0.064885440521662
 40
0.102399360354547
 40
0.1414147697998719
 40
0.1804358920786246
 40
0.2179667300693355
 40
0.252568758177139
 40
0.2829166022864963
 40
0.2829166022864963
 40
0.2829166022864963
 40
0.2829166022864963
 10
-569.550000475184
 20
57.85757831109385
 30
0.0
 10
-569.550079888395
 20
57.86768173272881
 30
0.0
 10
-569.5502498633799
 20
57.88930977181762
 30
0.0
 10
-569.5500347935997
 20
57.92344316225959
 30
0.0
 10
-569.5495365047423
 20
57.96047460014609
 30
0.0
 10
-569.5487192798462
 20
57.99898313764454
 30
0.0
 10
-569.5476334014118
 20
58.03749067707272
 30
0.0
 10
-569.5463016803056
 20
58.07451822800276
 30
0.0
 10
-569.5448298444057
 20
58.10864768777295
 30
0.0
 10
-569.5435915405889
 20
58.13026242923063
 30
0.0
 10
-569.5430129325152
 20
58.14036192207266
 30
0.0
 11
-569.550000475184
 21
57.85757831109385
 31
0.0
 11
-569.5501718721617
 21
57.88788870956651
 31
0.0
 11
-569.5500014149793
 21
57.9224628465651
 31
0.0
 11
-569.5494956462529
 21
57.95997335700834
 31
0.0
 11
-569.5486739852076
 21
57.99898011341951
 31
0.0
 11
-569.5475679758944
 21
58.03798555824136
 31
0.0
 11
-569.5462200818845
 21
58.0754921842842
 31
0.0
 11
-569.5446820509572
 21
58.11006001319052
 31
0.0
 11
-569.5430129325152
 21
58.14036192207266
 31
0.0
  0
SPLINE
  5
114
330
47
100
AcDbEntity
  8
0
  6
Continuous
 62
     3
100
AcDbSpline
210
0.0
220
0.0
230
1.0
 70
     8
 71
     3
 72
   158
 73
   154
 74
   152
 42
0.000000001
 43
0.0000000001
 44
0.00000001
 40
0.0
 40
0.0
 40
0.0
 40
0.0
 40
0.000831830453603
 40
0.0016607229641595
 40
0.0024866077337645
 40
0.003309409101248
 40
0.0041290514068421
 40
0.0049454589911423
 40
0.0057585561949209
 40
0.0065682673591474
 40
0.0073745168249736
 40
0.008177228933747
 40
0.008976328026968
 40
0.0097717384463543
 40
0.0105633845337978
 40
0.0113511906314022
 40
0.0121350810815112
 40
0.0129149802266546
 40
0.0136908124095852
 40
0.0144625019733584
 40
0.0152299732611817
 40
0.0159931506166206
 40
0.0167519583834636
 40
0.0175063209057544
 40
0.0182561625278884
 40
0.0190014075945484
 40
0.0197419804507541
 40
0.0204778054418343
 40
0.02120880691347
 40
0.0219349092117315
 40
0.0226560366830546
 40
0.0233721136743271
 40
0.023964954954254
 40
0.0245541697603581
 40
0.0251397156864959
 40
0.0257215503268339
 40
0.0262996312756132
 40
0.0268739161273775
 40
0.0274443624768497
 40
0.02801092791899
 40
0.0285735700489951
 40
0.0291322464622736
 40
0.0296869147545547
 40
0.0302375325217634
 40
0.0307840573601733
 40
0.0313264468663123
 40
0.0318646586370253
 40
0.0323986502694614
 40
0.0329283793611443
 40
0.0334538035099225
 40
0.0339748803140109
 40
0.0344915673720484
 40
0.0350038222830241
 40
0.0355116026463746
 40
0.0360148660620131
 40
0.0365135701303136
 40
0.0370076724521005
 40
0.0374971306287923
 40
0.0379819022622516
 40
0.0384619449550584
 40
0.0389372163102943
 40
0.0394076739316859
 40
0.0398732754236789
 40
0.0403339783914576
 40
0.040789740440877
 40
0.0412405191786539
 40
0.0416862722123706
 40
0.0421269571504258
 40
0.0425194288656536
 40
0.0429077162031627
 40
0.0432917963373663
 40
0.0436716464433198
 40
0.0440472436967443
 40
0.0444185652739813
 40
0.0447855883521554
 40
0.0451482901090845
 40
0.0455066477234542
 40
0.0458606383747636
 40
0.0462102392434366
 40
0.0465554275108115
 40
0.0468961803593035
 40
0.04723247497238
 40
0.0475642885346155
 40
0.0478915982318884
 40
0.0482143812512998
 40
0.0485326147813665
 40
0.0488462760121373
 40
0.0491553421351479
 40
0.0494597903437066
 40
0.0497595978328655
 40
0.0500547417997016
 40
0.0503451994433355
 40
0.0506309479650978
 40
0.0509119645688094
 40
0.0511882264608143
 40
0.0514597108503305
 40
0.0517263949495642
 40
0.0519882559740249
 40
0.0522452711428132
 40
0.0524974176788452
 40
0.0527446728092826
 40
0.0529870137658443
 40
0.0532244177852887
 40
0.0534568621098345
 40
0.053684323987715
 40
0.0539067806737417
 40
0.0541242094300252
 40
0.0543365875266538
 40
0.0545441151019787
 40
0.0547465914604497
 40
0.0549440042104773
 40
0.0551363409713096
 40
0.0553235893744267
 40
0.0555057370648614
 40
0.0556827717029126
 40
0.0558546809659223
 40
0.0560214525506146
 40
0.0561830741755125
 40
0.0563395335840587
 40
0.0564908185479779
 40
0.0566369168715958
 40
0.0567778163967373
 40
0.0569135050086481
 40
0.0570439706431982
 40
0.0571692012955225
 40
0.0572891850307999
 40
0.0574039099972715
 40
0.0575133644427984
 40
0.0576083199874388
 40
0.0576989157033807
 40
0.0577851476674249
 40
0.0578670120985893
 40
0.0579445053903584
 40
0.0580176241529927
 40
0.0580863652690063
 40
0.0581507259680177
 40
0.0582107039287584
 40
0.0582662974216831
 40
0.0583175055127997
 40
0.0583605987531896
 40
0.0584000122927442
 40
0.0584357507476808
 40
0.058467820960475
 40
0.0584962331460776
 40
0.0585210028745555
 40
0.0585421554785517
 40
0.0585597324660986
 40
0.0585738083063573
 40
0.058582155566851
 40
0.0585887409942343
 40
0.0585914516189904
 40
0.0585938393856906
 40
0.0585959857790427
 40
0.0585959857790427
 40
0.0585959857790427
 40
0.0585959857790427
 10
-569.4200926235095
 20
59.41391283632035
 30
0.0
 10
-569.4200926176676
 20
59.41419011313829
 30
0.0
 10
-569.4200926178571
 20
59.41474368746017
 30
0.0
 10
-569.4200925180137
 20
59.41557255670031
 30
0.0
 10
-569.4200923668172
 20
59.41639841623611
 30
0.0
 10
-569.4200921507886
 20
59.41722119235627
 30
0.0
 10
-569.4200918730385
 20
59.41804080939576
 30
0.0
 10
-569.420091532256
 20
59.41885719169007
 30
0.0
 10
-569.4200911283094
 20
59.41967026357467
 30
0.0
 10
-569.4200906607518
 20
59.42047994938518
 30
0.0
 10
-569.4200901292211
 20
59.42128617345715
 30
0.0
 10
-569.4200895333317
 20
59.42208886012619
 30
0.0
 10
-569.4200888727052
 20
59.42288793372786
 30
0.0
 10
-569.4200881469606
 20
59.42368331859777
 30
0.0
 10
-569.4200873557177
 20
59.42447493907149
 30
0.0
 10
-569.4200864985964
 20
59.42526271948465
 30
0.0
 10
-569.4200855752166
 20
59.42604658417279
 30
0.0
 10
-569.4200845851983
 20
59.42682645747159
 30
0.0
 10
-569.4200835281599
 20
59.42760226371655
 30
0.0
 10
-569.4200824037234
 20
59.42837392724333
 30
0.0
 10
-569.4200812115067
 20
59.4291413723875
 30
0.0
 10
-569.4200799511308
 20
59.42990452348467
 30
0.0
 10
-569.4200786222152
 20
59.43066330487042
 30
0.0
 10
-569.4200772243798
 20
59.43141764088037
 30
0.0
 10
-569.4200757572441
 20
59.43216745585009
 30
0.0
 10
-569.4200742204284
 20
59.4329126741152
 30
0.0
 10
-569.4200726135526
 20
59.43365322001128
 30
0.0
 10
-569.4200709362369
 20
59.43438901787397
 30
0.0
 10
-569.4200691880999
 20
59.43511999203886
 30
0.0
 10
-569.4200673687656
 20
59.43584606684151
 30
0.0
 10
-569.4200654778393
 20
59.43656716661751
 30
0.0
 10
-569.4200636229157
 20
59.437243845991
 30
0.0
 10
-569.420061817876
 20
59.43787655444306
 30
0.0
 10
-569.4200600760796
 20
59.43846575254031
 30
0.0
 10
-569.4200582836893
 20
59.43905128158886
 30
0.0
 10
-569.420056440601
 20
59.43963309917581
 30
0.0
 10
-569.4200545467206
 20
59.4402111628882
 30
0.0
 10
-569.4200526019539
 20
59.44078543031307
 30
0.0
 10
-569.4200506062052
 20
59.4413558590375
 30
0.0
 10
-569.42004855938
 20
59.44192240664859
 30
0.0
 10
-569.4200464613834
 20
59.44248503073337
 30
0.0
 10
-569.4200443121199
 20
59.44304368887891
 30
0.0
 10
-569.4200421114951
 20
59.4435983386723
 30
0.0
 10
-569.420039859414
 20
59.44414893770056
 30
0.0
 10
-569.4200375557817
 20
59.44469544355086
 30
0.0
 10
-569.4200352005032
 20
59.44523781381014
 30
0.0
 10
-569.4200327934834
 20
59.44577600606553
 30
0.0
 10
-569.4200303346281
 20
59.44630997790411
 30
0.0
 10
-569.4200278238422
 20
59.44683968691294
 30
0.0
 10
-569.4200252610306
 20
59.4473650906791
 30
0.0
 10
-569.4200226460986
 20
59.44788614678964
 30
0.0
 10
-569.4200199789517
 20
59.44840281283167
 30
0.0
 10
-569.4200172594949
 20
59.44891504639223
 30
0.0
 10
-569.4200144876338
 20
59.44942280505843
 30
0.0
 10
-569.4200116632727
 20
59.44992604641727
 30
0.0
 10
-569.4200087863185
 20
59.45042472805592
 30
0.0
 10
-569.4200058566752
 20
59.45091880756146
 30
0.0
 10
-569.4200028742489
 20
59.45140824252088
 30
0.0
 10
-569.419999838944
 20
59.45189299052134
 30
0.0
 10
-569.4199967506675
 20
59.45237300914991
 30
0.0
 10
-569.419993609324
 20
59.45284825599369
 30
0.0
 10
-569.4199904148187
 20
59.45331868863972
 30
0.0
 10
-569.4199871670573
 20
59.45378426467511
 30
0.0
 10
-569.4199838659463
 20
59.45424494168698
 30
0.0
 10
-569.4199805113897
 20
59.45470067726241
 30
0.0
 10
-569.419977103297
 20
59.4551514289885
 30
0.0
 10
-569.4199736415592
 20
59.45559715445228
 30
0.0
 10
-569.4199702407559
 20
59.45602344411955
 30
0.0
 10
-569.4199669085413
 20
59.45643057848299
 30
0.0
 10
-569.4199636527289
 20
59.45681884456405
 30
0.0
 10
-569.4199603532638
 20
59.45720290292003
 30
0.0
 10
-569.4199570102019
 20
59.45758273070905
 30
0.0
 10
-569.4199536236156
 20
59.45795830508929
 30
0.0
 10
-569.4199501935748
 20
59.45832960321903
 30
0.0
 10
-569.4199467201477
 20
59.45869660225644
 30
0.0
 10
-569.4199432034058
 20
59.45905927935975
 30
0.0
 10
-569.4199396434175
 20
59.45941761168717
 30
0.0
 10
-569.4199360402534
 20
59.45977157639697
 30
0.0
 10
-569.4199323939825
 20
59.46012115064728
 30
0.0
 10
-569.4199287046754
 20
59.46046631159643
 30
0.0
 10
-569.4199249724019
 20
59.46080703640263
 30
0.0
 10
-569.4199211972317
 20
59.46114330222407
 30
0.0
 10
-569.4199173792351
 20
59.46147508621906
 30
0.0
 10
-569.4199135184823
 20
59.46180236554584
 30
0.0
 10
-569.4199096150433
 20
59.4621251173626
 30
0.0
 10
-569.4199056689886
 20
59.46244331882772
 30
0.0
 10
-569.4199016803881
 20
59.46275694709934
 30
0.0
 10
-569.4198976493132
 20
59.46306597933585
 30
0.0
 10
-569.4198935758343
 20
59.46337039269554
 30
0.0
 10
-569.4198894600206
 20
59.46367016433656
 30
0.0
 10
-569.419885301945
 20
59.46396527141744
 30
0.0
 10
-569.4198811016772
 20
59.46425569109631
 30
0.0
 10
-569.4198768592887
 20
59.46454140053166
 30
0.0
 10
-569.4198725748512
 20
59.46482237688172
 30
0.0
 10
-569.4198682484353
 20
59.46509859730496
 30
0.0
 10
-569.4198638801132
 20
59.4653700389597
 30
0.0
 10
-569.4198594699569
 20
59.46563667900439
 30
0.0
 10
-569.4198550180377
 20
59.46589849459744
 30
0.0
 10
-569.4198505244294
 20
59.4661554628974
 30
0.0
 10
-569.4198459892032
 20
59.46640756106264
 30
0.0
 10
-569.4198414124335
 20
59.46665476625181
 30
0.0
 10
-569.4198367941924
 20
59.46689705562342
 30
0.0
 10
-569.4198321345548
 20
59.46713440633611
 30
0.0
 10
-569.4198274335938
 20
59.46736679554859
 30
0.0
 10
-569.4198226913875
 20
59.46759420041955
 30
0.0
 10
-569.4198179079972
 20
59.46781659810764
 30
0.0
 10
-569.4198130835521
 20
59.46803396577289
 30
0.0
 10
-569.4198082162352
 20
59.46824635483684
 30
0.0
 10
-569.4198033062626
 20
59.46845375742399
 30
0.0
 10
-569.4197983541757
 20
59.4686561691058
 30
0.0
 10
-569.4197933614608
 20
59.46885351460682
 30
0.0
 10
-569.4197883283532
 20
59.46904578140445
 30
0.0
 10
-569.4197832550279
 20
59.46923295697482
 30
0.0
 10
-569.4197781416773
 20
59.46941502879463
 30
0.0
 10
-569.4197729884906
 20
59.46959198434067
 30
0.0
 10
-569.419767795661
 20
59.46976381109016
 30
0.0
 10
-569.4197625633819
 20
59.46993049652054
 30
0.0
 10
-569.4197572918504
 20
59.47009202810979
 30
0.0
 10
-569.4197519812662
 20
59.47024839333638
 30
0.0
 10
-569.4197466318312
 20
59.47039957967925
 30
0.0
 10
-569.4197412437521
 20
59.47054557461838
 30
0.0
 10
-569.4197358172398
 20
59.47068636563448
 30
0.0
 10
-569.4197303525109
 20
59.47082194020952
 30
0.0
 10
-569.4197248497885
 20
59.47095228582702
 30
0.0
 10
-569.4197193093042
 20
59.47107738997222
 30
0.0
 10
-569.4197137312942
 20
59.47119724013314
 30
0.0
 10
-569.4197081160324
 20
59.47131182380004
 30
0.0
 10
-569.4197026223699
 20
59.47141806031603
 30
0.0
 10
-569.4196972647044
 20
59.47151624961968
 30
0.0
 10
-569.4196920609568
 20
59.47160669459853
 30
0.0
 10
-569.4196868271084
 20
59.47169276648793
 30
0.0
 10
-569.4196815634616
 20
59.47177446051784
 30
0.0
 10
-569.4196762703227
 20
59.47185177192584
 30
0.0
 10
-569.419670948037
 20
59.47192469596263
 30
0.0
 10
-569.4196655969957
 20
59.47199322789771
 30
0.0
 10
-569.4196602176451
 20
59.47205736302482
 30
0.0
 10
-569.4196548105275
 20
59.47211709668234
 30
0.0
 10
-569.4196493762535
 20
59.4721724242452
 30
0.0
 10
-569.419644048316
 20
59.47222210511362
 30
0.0
 10
-569.4196388439173
 20
59.4722663726728
 30
0.0
 10
-569.419633791014
 20
59.47230546356437
 30
0.0
 10
-569.4196287183786
 20
59.47234084390483
 30
0.0
 10
-569.4196236276024
 20
59.47237251279709
 30
0.0
 10
-569.419618521165
 20
59.47240047052938
 30
0.0
 10
-569.4196134019976
 20
59.47242471766926
 30
0.0
 10
-569.4196082763167
 20
59.47244526215981
 30
0.0
 10
-569.41960314791
 20
59.47246210694307
 30
0.0
 10
-569.4195983218094
 20
59.47247456649924
 30
0.0
 10
-569.419593849407
 20
59.47248315009795
 30
0.0
 10
-569.41959040443
 20
59.47248797796731
 30
0.0
 10
-569.4195875635587
 20
59.47249064870853
 30
0.0
 10
-569.4195855685823
 20
59.4724920562581
 30
0.0
 10
-569.4195841312718
 20
59.47249254503675
 30
0.0
 10
-569.419583453521
 20
59.4724927830687
 30
0.0
 11
-569.4200926235095
 21
59.41391283632035
 31
0.0
 11
-569.4200925929753
 21
59.41474466091639
 31
0.0
 11
-569.4200925011191
 21
59.41557355342466
 31
0.0
 11
-569.4200923475604
 21
59.41639943818072
 31
0.0
 11
-569.4200921319185
 21
59.41722223952016
 31
0.0
 11
-569.4200918538132
 21
59.41804188177857
 31
0.0
 11
-569.420091512864
 21
59.41885828929156
 31
0.0
 11
-569.4200911086903
 21
59.41967138639471
 31
0.0
 11
-569.4200906409116
 21
59.4204810974236
 31
0.0
 11
-569.4200901091475
 21
59.42128734671381
 31
0.0
 11
-569.4200895130175
 21
59.42209005860095
 31
0.0
 11
-569.4200888521411
 21
59.42288915742059
 31
0.0
 11
-569.4200881261378
 21
59.42368456750834
 31
0.0
 11
-569.4200873346272
 21
59.42447621319976
 31
0.0
 11
-569.4200864772286
 21
59.42526401883045
 31
0.0
 11
-569.4200855535618
 21
59.42604790873602
 31
0.0
 11
-569.4200845632461
 21
59.42682780725204
 31
0.0
 11
-569.420083505901
 21
59.42760363871409
 31
0.0
 11
-569.4200823811462
 21
59.42837532745779
 31
0.0
 11
-569.4200811886011
 21
59.42914279781868
 31
0.0
 11
-569.4200799278854
 21
59.42990597413239
 31
0.0
 11
-569.4200785986184
 21
59.4306647807345
 31
0.0
 11
-569.4200772004195
 21
59.43141914196057
 31
0.0
 11
-569.4200757329085
 21
59.43216898214622
 31
0.0
 11
-569.4200741957047
 21
59.43291422562703
 31
0.0
 11
-569.420072588428
 21
59.4336547967386
 31
0.0
 11
-569.4200709106975
 21
59.43439061981651
 31
0.0
 11
-569.4200691621329
 21
59.43512161919634
 31
0.0
 11
-569.4200673423536
 21
59.43584771921368
 31
0.0
 11
-569.420065450979
 21
59.43656884420411
 31
0.0
 11
-569.420063487629
 21
59.43728491850325
 31
0.0
 11
-569.4200617960852
 21
59.43787775736948
 31
0.0
 11
-569.4200600540274
 21
59.43846696959982
 31
0.0
 11
-569.4200582613602
 21
59.43905251278131
 31
0.0
 11
-569.4200564179886
 21
59.43963434450104
 31
0.0
 11
-569.4200545238169
 21
59.44021242234601
 31
0.0
 11
-569.4200525787506
 21
59.44078670390333
 31
0.0
 11
-569.4200505826941
 21
59.44135714676003
 31
0.0
 11
-569.4200485355522
 21
59.44192370850319
 31
0.0
 11
-569.4200464372299
 21
59.44248634671985
 31
0.0
 11
-569.4200442876316
 21
59.44304501899707
 31
0.0
 11
-569.4200420866624
 21
59.44359968292191
 31
0.0
 11
-569.4200398342273
 21
59.44415029608142
 31
0.0
 11
-569.4200375302305
 21
59.44469681606267
 31
0.0
 11
-569.4200351745773
 21
59.44523920045272
 31
0.0
 11
-569.4200327671722
 21
59.44577740683861
 31
0.0
 11
-569.4200303079202
 21
59.4463113928074
 31
0.0
 11
-569.4200277967261
 21
59.44684111594616
 31
0.0
 11
-569.4200252334945
 21
59.44736653384193
 31
0.0
 11
-569.4200226181302
 21
59.44788760408179
 31
0.0
 11
-569.4200199505383
 21
59.44840428425279
 31
0.0
 11
-569.4200172306233
 21
59.44891653194198
 31
0.0
 11
-569.4200144582901
 21
59.4494243047364
 31
0.0
 11
-569.4200116334433
 21
59.44992756022314
 31
0.0
 11
-569.4200087559882
 21
59.45042625598926
 31
0.0
 11
-569.4200058258291
 21
59.45092034962178
 31
0.0
 11
-569.420002842871
 21
59.45140979870781
 31
0.0
 11
-569.4199998070184
 21
59.45189456083433
 31
0.0
 11
-569.4199967181764
 21
59.45237459358849
 31
0.0
 11
-569.4199935762501
 21
59.4528498545573
 31
0.0
 11
-569.4199903811437
 21
59.4533203013278
 31
0.0
 11
-569.4199871327621
 21
59.45378589148706
 31
0.0
 11
-569.4199838310105
 21
59.45424658262217
 31
0.0
 11
-569.4199804757934
 21
59.45470233232015
 31
0.0
 11
-569.4199770670155
 21
59.45515309816805
 31
0.0
 11
-569.4199736045817
 21
59.45559883775299
 31
0.0
 11
-569.4199700883969
 21
59.45603950866195
 31
0.0
 11
-569.4199668758314
 21
59.45643196722767
 31
0.0
 11
-569.4199636195182
 21
59.45682024090949
 31
0.0
 11
-569.4199603195266
 21
59.45720430686558
 31
0.0
 11
-569.4199569759254
 21
59.45758414225414
 31
0.0
 11
-569.4199535887835
 21
59.45795972423335
 31
0.0
 11
-569.4199501581702
 21
59.45833102996136
 31
0.0
 11
-569.419946684154
 21
59.45869803659637
 31
0.0
 11
-569.419943166804
 21
59.45906072129653
 31
0.0
 11
-569.4199396061895
 21
59.45941906122004
 31
0.0
 11
-569.4199360023792
 21
59.45977303352507
 31
0.0
 11
-569.419932355442
 21
59.46012261536981
 31
0.0
 11
-569.419928665447
 21
59.46046778391239
 31
0.0
 11
-569.4199249324631
 21
59.46080851631104
 31
0.0
 11
-569.4199211565593
 21
59.46114478972392
 31
0.0
 11
-569.4199173378046
 21
59.46147658130919
 31
0.0
 11
-569.4199134762679
 21
59.46180386822505
 31
0.0
 11
-569.4199095720181
 21
59.46212662762965
 31
0.0
 11
-569.4199056251243
 21
59.46244483668118
 31
0.0
 11
-569.4199016356555
 21
59.46275847253784
 31
0.0
 11
-569.4198976036806
 21
59.46306751235777
 31
0.0
 11
-569.4198935292687
 21
59.46337193329917
 31
0.0
 11
-569.4198894124884
 21
59.46367171252018
 31
0.0
 11
-569.4198852534089
 21
59.46396682717902
 31
0.0
 11
-569.4198810520993
 21
59.46425725443386
 31
0.0
 11
-569.4198768086283
 21
59.46454297144285
 31
0.0
 11
-569.4198725230652
 21
59.46482395536421
 31
0.0
 11
-569.4198681954787
 21
59.46510018335607
 31
0.0
 11
-569.4198638259377
 21
59.46537163257663
 31
0.0
 11
-569.4198594145115
 21
59.46563828018407
 31
0.0
 11
-569.4198549612686
 21
59.46590010333654
 31
0.0
 11
-569.4198504662785
 21
59.46615707919226
 31
0.0
 11
-569.4198459296097
 21
59.46640918490937
 31
0.0
 11
-569.4198413513316
 21
59.46665639764607
 31
0.0
 11
-569.4198367315128
 21
59.46689869456051
 31
0.0
 11
-569.4198320702225
 21
59.46713605281089
 31
0.0
 11
-569.4198273675294
 21
59.46736844955538
 31
0.0
 11
-569.4198226235028
 21
59.46759586195216
 31
0.0
 11
-569.4198178382113
 21
59.46781826715939
 31
0.0
 11
-569.4198130117244
 21
59.46803564233527
 31
0.0
 11
-569.4198081441104
 21
59.46824796463795
 31
0.0
 11
-569.4198032307063
 21
59.46845543403539
 31
0.0
 11
-569.4197982764177
 21
59.46865784976749
 31
0.0
 11
-569.419793281421
 21
59.46885519930929
 31
0.0
 11
-569.4197882458933
 21
59.46904747013582
 31
0.0
 11
-569.4197831700111
 21
59.46923464972211
 31
0.0
 11
-569.4197780539514
 21
59.4694167255432
 31
0.0
 11
-569.4197728978905
 21
59.46959368507414
 31
0.0
 11
-569.4197677020055
 21
59.46976551578993
 31
0.0
 11
-569.4197624664728
 21
59.46993220516564
 31
0.0
 11
-569.4197571914692
 21
59.47009374067628
 31
0.0
 11
-569.4197518771717
 21
59.47025010979692
 31
0.0
 11
-569.4197465237569
 21
59.47040130000256
 31
0.0
 11
-569.4197411314011
 21
59.47054729876823
 31
0.0
 11
-569.4197357002813
 21
59.47068809356898
 31
0.0
 11
-569.4197302305745
 21
59.47082367187986
 31
0.0
 11
-569.4197247224572
 21
59.47095402117589
 31
0.0
 11
-569.4197191761059
 21
59.47107912893209
 31
0.0
 11
-569.4197135916977
 21
59.47119898262352
 31
0.0
 11
-569.4197079694088
 21
59.47131356972518
 31
0.0
 11
-569.4197023094166
 21
59.47142287771216
 31
0.0
 11
-569.4196971297889
 21
59.47151769186382
 31
0.0
 11
-569.419691919198
 21
59.47160813759212
 31
0.0
 11
-569.4196866778127
 21
59.47169421009414
 31
0.0
 11
-569.4196814058018
 21
59.471775904567
 31
0.0
 11
-569.4196761033345
 21
59.47185321620778
 31
0.0
 11
-569.4196707705793
 21
59.47192614021361
 31
0.0
 11
-569.4196654077055
 21
59.47199467178158
 31
0.0
 11
-569.4196600148816
 21
59.47205880610879
 31
0.0
 11
-569.4196545922766
 21
59.47211853839234
 31
0.0
 11
-569.4196491400595
 21
59.47217386382932
 31
0.0
 11
-569.4196436583991
 21
59.47222477761684
 31
0.0
 11
-569.4196386074076
 21
59.47226757375233
 31
0.0
 11
-569.4196335319004
 21
59.47230665904684
 31
0.0
 11
-569.4196284320172
 21
59.4723420316599
 31
0.0
 11
-569.4196233078973
 21
59.472373689751
 31
0.0
 11
-569.4196181596799
 21
59.47240163147961
 31
0.0
 11
-569.4196129875047
 21
59.47242585500526
 31
0.0
 11
-569.4196077914186
 21
59.47244635923283
 31
0.0
 11
-569.4196025716413
 21
59.47246314294387
 31
0.0
 11
-569.419597328312
 21
59.47247620523345
 31
0.0
 11
-569.4195933804336
 21
59.4724835592999
 31
0.0
 11
-569.4195894194474
 21
59.47248881941225
 31
0.0
 11
-569.4195874340569
 21
59.47249066418025
 31
0.0
 11
-569.4195854454123
 21
59.47249198540266
 31
0.0
 11
-569.419583453521
 21
59.4724927830687
 31
0.0
  0
SPLINE
  5
115
330
47
100
AcDbEntity
  8
0
  6
Continuous
 62
     7
100
AcDbSpline
210
0.0
220
0.0
230
1.0
 70
     8
 71
     3
 72
    19
 73
    15
 74
    13
 42
0.000000001
 43
0.0000000001
 44
0.00000001
 40
0.0
 40
0.0
 40
0.0
 40
0.0
 40
0.0086488561263505
 40
0.0151779569460817
 40
0.022782463022466
 40
0.0315811359430229
 40
0.0360198305860031
 40
0.0396317322436102
 40
0.043733321761586
 40
0.047844939862184
 40
0.0560940265083915
 40
0.0642778090088401
 40
0.0949355788092196
 40
0.1300233772880987
 40
0.1300233772880987
 40
0.1300233772880987
 40
0.1300233772880987
 10
-569.5493727801914
 20
59.46860989098835
 30
0.0
 10
-569.546504692099
 20
59.4689026812156
 30
0.0
 10
-569.5414714557606
 20
59.46941647788736
 30
0.0
 10
-569.5339062423371
 20
59.47008051118051
 30
0.0
 10
-569.5262880865882
 20
59.47070974771265
 30
0.0
 10
-569.5193614255808
 20
59.47124512341854
 30
0.0
 10
-569.5137611332168
 20
59.47167043540985
 30
0.0
 10
-569.5097220002554
 20
59.47197674636769
 30
0.0
 10
-569.5057906661448
 20
59.47226258437911
 30
0.0
 10
-569.5003164856837
 20
59.4726437499055
 30
0.0
 10
-569.4934826676883
 20
59.47308788445975
 30
0.0
 10
-569.4778127237591
 20
59.47400575159634
 30
0.0
 10
-569.4531913426231
 20
59.47513003903147
 30
0.0
 10
-569.4312769604627
 20
59.4754294564693
 30
0.0
 10
-569.4195814583913
 20
59.47558924619496
 30
0.0
 11
-569.5493727801914
 21
59.46860989098835
 31
0.0
 11
-569.5407663054601
 21
59.46946505764467
 31
0.0
 11
-569.534262923013
 21
59.47004400586025
 31
0.0
 11
-569.5266842924368
 21
59.47067079672039
 31
0.0
 11
-569.5179122237869
 21
59.47135450596555
 31
0.0
 11
-569.513486317745
 21
59.47169120768373
 31
0.0
 11
-569.5098846292277
 21
59.47196264442465
 31
0.0
 11
-569.5057938479705
 21
59.47226024753269
 31
0.0
 11
-569.5016921599865
 21
59.47254585959165
 31
0.0
 11
-569.4934604216992
 21
59.47308049970445
 31
0.0
 11
-569.4852907181129
 21
59.47356032317315
 31
0.0
 11
-569.4546626887934
 21
59.47491037780571
 31
0.0
 11
-569.4195814583913
 21
59.47558924619496
 31
0.0
  0
SPLINE
  5
116
330
47
100
AcDbEntity
  8
0
  6
Continuous
 62
     7
100
AcDbSpline
210
0.0
220
0.0
230
1.0
 70
     8
 71
     3
 72
    19
 73
    15
 74
    13
 42
0.000000001
 43
0.0000000001
 44
0.00000001
 40
0.0
 40
0.0
 40
0.0
 40
0.0
 40
0.0086488561172088
 40
0.0151779569461842
 40
0.0227824630346527
 40
0.0315811359428912
 40
0.0360198305736746
 40
0.0396317322469019
 40
0.043746024830094
 40
0.0478449398661799
 40
0.0560940804977939
 40
0.0642778090108894
 40
0.0949355785353338
 40
0.1300233772882063
 40
0.1300233772882063
 40
0.1300233772882063
 40
0.1300233772882063
 10
-569.5493727801913
 20
59.46551370196615
 30
0.0
 10
-569.5465046921017
 20
59.46580649219331
 30
0.0
 10
-569.5414714557634
 20
59.46632028886545
 30
0.0
 10
-569.5339062423358
 20
59.46698432215629
 30
0.0
 10
-569.5262880865848
 20
59.46761355870019
 30
0.0
 10
-569.5193614255792
 20
59.46814893436316
 30
0.0
 10
-569.5137611332227
 20
59.4685742464405
 30
0.0
 10
-569.5097177780137
 20
59.46888087737161
 30
0.0
 10
-569.5057864424433
 20
59.46916669615451
 30
0.0
 10
-569.5003122422527
 20
59.46954783663495
 30
0.0
 10
-569.4934826497204
 20
59.4699916965866
 30
0.0
 10
-569.4778127058729
 20
59.47090956333553
 30
0.0
 10
-569.4531913427122
 20
59.47203385002955
 30
0.0
 10
-569.4312769605531
 20
59.47233326745101
 30
0.0
 10
-569.4195814583911
 20
59.47249305717256
 30
0.0
 11
-569.5493727801913
 21
59.46551370196615
 31
0.0
 11
-569.5407663054691
 21
59.46636886862155
 31
0.0
 11
-569.5342629230128
 21
59.46694781683794
 31
0.0
 11
-569.5266842924245
 21
59.46757460769899
 31
0.0
 11
-569.5179122237869
 21
59.46825831694315
 31
0.0
 11
-569.5134863177572
 21
59.46859501866044
 31
0.0
 11
-569.5098846292243
 21
59.46886645540255
 31
0.0
 11
-569.505781176933
 21
59.46916496053367
 31
0.0
 11
-569.5016921599824
 21
59.46944967056955
 31
0.0
 11
-569.4934603678123
 21
59.46998431401368
 31
0.0
 11
-569.4852907181107
 21
59.47046413415085
 31
0.0
 11
-569.454662689067
 21
59.47181418877436
 31
0.0
 11
-569.4195814583911
 21
59.47249305717256
 31
0.0
  0
SPLINE
  5
117
330
47
100
AcDbEntity
  8
0
  6
Continuous
 62
     3
100
AcDbSpline
210
0.0
220
0.0
230
1.0
 70
     8
 71
     3
 72
    50
 73
    46
 74
    44
 42
0.000000001
 43
0.0000000001
 44
0.00000001
 40
0.0
 40
0.0
 40
0.0
 40
0.0
 40
0.0001518474639934
 40
0.0002999595934943
 40
0.0004443355155383
 40
0.000584967619817
 40
0.0007218483123942
 40
0.0008549700138026
 40
0.0009843251600273
 40
0.0011099062045421
 40
0.0012317056202483
 40
0.0013497159021591
 40
0.0014639337428269
 40
0.0015743495627394
 40
0.0016809580749902
 40
0.0017837540297118
 40
0.00188273222016
 40
0.0019778874895897
 40
0.0020692147398021
 40
0.0021567089416923
 40
0.0022403651480288
 40
0.0023201785094575
 40
0.00239614870496
 40
0.0024682688085877
 40
0.0025365366307792
 40
0.0026009501980939
 40
0.0026615078085228
 40
0.0027182081058722
 40
0.0027710501812483
 40
0.0028200337145471
 40
0.002865159176751
 40
0.0029064281263994
 40
0.0029438468821002
 40
0.0029774207565769
 40
0.0030071601504494
 40
0.0030330808358434
 40
0.003055207637792
 40
0.0030707786092118
 40
0.0030837842554793
 40
0.0030942955254769
 40
0.0031006232480245
 40
0.0031057335887848
 40
0.0031078967557943
 40
0.0031098481627417
 40
0.0031133395844176
 40
0.0031133395844176
 40
0.0031133395844176
 40
0.0031133395844176
 10
-569.4193460459289
 20
59.47249450986224
 30
0.0
 10
-569.4193481239868
 20
59.4725450830112
 30
0.0
 10
-569.4193522182494
 20
59.47264498569027
 30
0.0
 10
-569.4193584743873
 20
59.4727929653789
 30
0.0
 10
-569.4193646988215
 20
59.47293720454091
 30
0.0
 10
-569.4193709094826
 20
59.47307769693385
 30
0.0
 10
-569.4193771015086
 20
59.47321443499975
 30
0.0
 10
-569.4193832758879
 20
59.47334741094265
 30
0.0
 10
-569.4193894321007
 20
59.47347661702911
 30
0.0
 10
-569.419395570014
 20
59.47360204551002
 30
0.0
 10
-569.4194016893939
 20
59.4737236886409
 30
0.0
 10
-569.4194077900987
 20
59.4738415400657
 30
0.0
 10
-569.4194138719581
 20
59.47395559271982
 30
0.0
 10
-569.4194199347311
 20
59.47406584025453
 30
0.0
 10
-569.4194259781259
 20
59.47417227564367
 30
0.0
 10
-569.4194320019217
 20
59.47427489327987
 30
0.0
 10
-569.4194380058941
 20
59.47437368755715
 30
0.0
 10
-569.4194439898135
 20
59.47446865287106
 30
0.0
 10
-569.4194499534431
 20
59.47455978361892
 30
0.0
 10
-569.4194558965385
 20
59.47464707420073
 30
0.0
 10
-569.4194618188458
 20
59.47473051901935
 30
0.0
 10
-569.4194677202049
 20
59.47481011394835
 30
0.0
 10
-569.4194736004149
 20
59.47488585408676
 30
0.0
 10
-569.4194794591521
 20
59.47495773529196
 30
0.0
 10
-569.4194852959821
 20
59.47502575270758
 30
0.0
 10
-569.4194911105567
 20
59.47508990300638
 30
0.0
 10
-569.4194969024877
 20
59.4751501828799
 30
0.0
 10
-569.4195026713317
 20
59.47520658904617
 30
0.0
 10
-569.4195084165688
 20
59.47525911826227
 30
0.0
 10
-569.4195141375812
 20
59.4753077673429
 30
0.0
 10
-569.4195198335893
 20
59.47535253319574
 30
0.0
 10
-569.4195255038062
 20
59.47539341392676
 30
0.0
 10
-569.419531147021
 20
59.47543040789462
 30
0.0
 10
-569.419536761491
 20
59.47546351442459
 30
0.0
 10
-569.4195423444696
 20
59.47549273320196
 30
0.0
 10
-569.4195478932224
 20
59.47551806552282
 30
0.0
 10
-569.4195531676572
 20
59.47553861166164
 30
0.0
 10
-569.4195581305981
 20
59.47555477585901
 30
0.0
 10
-569.4195626765706
 20
59.47556699369233
 30
0.0
 10
-569.4195669253864
 20
59.47557601675788
 30
0.0
 10
-569.419570830025
 20
59.47558221604473
 30
0.0
 10
-569.4195738201569
 20
59.47558567890039
 30
0.0
 10
-569.4195762478982
 20
59.47558756822782
 30
0.0
 10
-569.4195784613464
 20
59.47558886906052
 30
0.0
 10
-569.419580288201
 20
59.47558909405716
 30
0.0
 10
-569.4195814583913
 20
59.47558924619496
 30
0.0
 11
-569.4193460459289
 21
59.47249450986224
 31
0.0
 11
-569.4193523094303
 21
59.47264622135545
 31
0.0
 11
-569.419358555966
 21
59.47279420171096
 31
0.0
 11
-569.4193647853363
 21
59.47293844318076
 31
0.0
 11
-569.4193709973424
 21
59.47307893801687
 31
0.0
 11
-569.4193771917849
 21
59.47321567847126
 31
0.0
 11
-569.4193833684648
 21
59.47334865679597
 31
0.0
 11
-569.4193895271824
 21
59.47347786524294
 31
0.0
 11
-569.4193956677391
 21
59.47360329606423
 31
0.0
 11
-569.4194017899354
 21
59.47372494151179
 31
0.0
 11
-569.4194078935718
 21
59.47384279383765
 31
0.0
 11
-569.4194139786589
 21
59.47395684946095
 31
0.0
 11
-569.4194200448061
 21
59.47406709851275
 31
0.0
 11
-569.4194260918217
 21
59.47417353537982
 31
0.0
 11
-569.4194321195138
 21
59.47427615444884
 31
0.0
 11
-569.4194381276903
 21
59.47437495010657
 31
0.0
 11
-569.4194441161596
 21
59.47446991673972
 31
0.0
 11
-569.4194500847298
 21
59.474561048735
 31
0.0
 11
-569.4194560332087
 21
59.47464834047915
 31
0.0
 11
-569.4194619614047
 21
59.47473178635889
 31
0.0
 11
-569.419467869126
 21
59.47481138076095
 31
0.0
 11
-569.4194737565062
 21
59.47488712247034
 31
0.0
 11
-569.4194796230599
 21
59.47495900355197
 31
0.0
 11
-569.4194854686026
 21
59.47502702062324
 31
0.0
 11
-569.4194912929491
 21
59.47509117030154
 31
0.0
 11
-569.4194970959145
 21
59.47515144920426
 31
0.0
 11
-569.4195028773138
 21
59.4752078539488
 31
0.0
 11
-569.4195086369622
 21
59.47526038115258
 31
0.0
 11
-569.4195143746745
 21
59.47530902743296
 31
0.0
 11
-569.4195200902659
 21
59.47535378940736
 31
0.0
 11
-569.4195257835513
 21
59.47539466369315
 31
0.0
 11
-569.4195314546961
 21
59.47543165011471
 31
0.0
 11
-569.4195371032445
 21
59.47546474531504
 31
0.0
 11
-569.4195427290261
 21
59.4754939476212
 31
0.0
 11
-569.419548331871
 21
59.47551925536028
 31
0.0
 11
-569.4195539116087
 21
59.47554066685935
 31
0.0
 11
-569.4195585436717
 21
59.47555553264291
 31
0.0
 11
-569.419563159483
 21
59.47556769127753
 31
0.0
 11
-569.4195677589516
 21
59.47557714228856
 31
0.0
 11
-569.4195711977773
 21
59.47558245342028
 31
0.0
 11
-569.419574627318
 21
59.47558624116805
 31
0.0
 11
-569.4195763385948
 21
59.47558756374363
 31
0.0
 11
-569.4195780475359
 21
59.47558850544336
 31
0.0
 11
-569.4195814583913
 21
59.47558924619496
 31
0.0
  0
SPLINE
  5
118
330
47
100
AcDbEntity
  8
0
  6
Continuous
 62
     3
100
AcDbSpline
210
0.0
220
0.0
230
1.0
 70
     8
 71
     3
 72
    17
 73
    13
 74
    11
 42
0.000000001
 43
0.0000000001
 44
0.00000001
 40
0.0
 40
0.0
 40
0.0
 40
0.0
 40
0.017963411703658
 40
0.0359542383268337
 40
0.0402882363080969
 40
0.0445116172102358
 40
0.049743006797918
 40
0.0525388043817421
 40
0.0603350924625527
 40
0.06806938321378
 40
0.1010644356385294
 40
0.1302738960170629
 40
0.1302738960170629
 40
0.1302738960170629
 40
0.1302738960170629
 10
-569.5501140448047
 20
59.40653438850895
 30
0.0
 10
-569.5441592763175
 20
59.40716839959205
 30
0.0
 10
-569.5322406493208
 20
59.40843736545738
 30
0.0
 10
-569.5188373444881
 20
59.40931192820655
 30
0.0
 10
-569.510007727087
 20
59.40990127120804
 30
0.0
 10
-569.5054217743243
 20
59.41020906007686
 30
0.0
 10
-569.5013480018665
 20
59.41049141799367
 30
0.0
 10
-569.4960884680096
 20
59.41088840712403
 30
0.0
 10
-569.4899954206139
 20
59.41132771391631
 30
0.0
 10
-569.4738538150417
 20
59.41236843009675
 30
0.0
 10
-569.4505626544924
 20
59.41349749821535
 30
0.0
 10
-569.4298286972344
 20
59.41378013108072
 30
0.0
 10
-569.4200926235095
 20
59.41391283632035
 30
0.0
 11
-569.5501140448047
 21
59.40653438850895
 31
0.0
 11
-569.5322390497637
 21
59.40831447295109
 31
0.0
 11
-569.5142953267134
 21
59.40961549925545
 31
0.0
 11
-569.509970940775
 21
59.40990398622184
 31
0.0
 11
-569.5057571150346
 21
59.41018792087205
 31
0.0
 11
-569.5005385848993
 21
59.41055450017618
 31
0.0
 11
-569.4977505068179
 21
59.41076211721845
 31
0.0
 11
-569.4899741551056
 21
59.41131930975597
 31
0.0
 11
-569.4822560143043
 21
59.41181887077235
 31
0.0
 11
-569.4492967679776
 21
59.41335560300452
 31
0.0
 11
-569.4200926235095
 21
59.41391283632035
 31
0.0
  0
SPLINE
  5
119
330
47
100
AcDbEntity
  8
0
  6
Continuous
 62
     7
100
AcDbSpline
210
0.0
220
0.0
230
1.0
 70
     8
 71
     3
 72
     9
 73
     5
 74
     3
 42
0.000000001
 43
0.0000000001
 44
0.00000001
 40
0.0
 40
0.0
 40
0.0
 40
0.0
 40
0.0000538121733619
 40
0.0001076039118116
 40
0.0001076039118116
 40
0.0001076039118116
 40
0.0001076039118116
 10
-569.550000475184
 20
57.85757831109385
 30
0.0
 10
-569.5500002823379
 20
57.85756037463364
 30
0.0
 10
-569.5499999167183
 20
57.85752450837184
 30
0.0
 10
-569.5499998415678
 20
57.85748864032532
 30
0.0
 10
-569.5499998139974
 20
57.85747070966136
 30
0.0
 11
-569.550000475184
 21
57.85757831109385
 31
0.0
 11
-569.5499999792941
 21
57.85752450117562
 31
0.0
 11
-569.5499998139974
 21
57.85747070966136
 31
0.0
  0
SPLINE
  5
11A
330
47
100
AcDbEntity
  8
0
  6
Continuous
 62
     7
100
AcDbSpline
210
0.0
220
0.0
230
1.0
 70
     8
 71
     3
 72
     9
 73
     5
 74
     3
 42
0.000000001
 43
0.0000000001
 44
0.00000001
 40
0.0
 40
0.0
 40
0.0
 40
0.0
 40
0.0000537712867651
 40
0.000107522107343
 40
0.000107522107343
 40
0.000107522107343
 40
0.000107522107343
 10
-569.5499998139971
 20
52.63963351371746
 30
0.0
 10
-569.5499998415256
 20
52.63961558987035
 30
0.0
 10
-569.5499999165717
 20
52.63957974909135
 30
0.0
 10
-569.5500002823376
 20
52.6395439101003
 30
0.0
 10
-569.5500004751837
 20
52.63952599409205
 30
0.0
 11
-569.5499998139971
 21
52.63963351371746
 31
0.0
 11
-569.5499999792938
 21
52.63957974265494
 31
0.0
 11
-569.5500004751837
 21
52.63952599409205
 31
0.0
  0
SPLINE
  5
11B
330
47
100
AcDbEntity
  8
0
  6
Continuous
 62
     7
100
AcDbSpline
210
0.0
220
0.0
230
1.0
 70
    24
 71
     3
 72
     8
 73
     4
 74
     2
 42
0.0000000001
 43
0.0000000001
 44
0.00000001
 40
0.0
 40
0.0
 40
0.0
 40
0.0
 40
0.0000075280841314
 40
0.0000075280841314
 40
0.0000075280841314
 40
0.0000075280841314
 10
-569.5486832932108
 20
52.58104317048915
 30
0.0
 10
-569.5486807855716
 20
52.58104307753769
 30
0.0
 10
-569.5486782779324
 20
52.58104298458622
 30
0.0
 10
-569.5486757702931
 20
52.58104289163475
 30
0.0
 11
-569.5486832932108
 21
52.58104317048915
 31
0.0
 11
-569.5486757702931
 21
52.58104289163475
 31
0.0
  0
SPLINE
  5
11C
330
47
100
AcDbEntity
  8
0
  6
Continuous
 62
     3
100
AcDbSpline
210
0.0
220
0.0
230
1.0
 70
     8
 71
     3
 72
    36
 73
    32
 74
    30
 42
0.000000001
 43
0.0000000001
 44
0.00000001
 40
0.0
 40
0.0
 40
0.0
 40
0.0
 40
0.0543132236990151
 40
0.0992329007997717
 40
0.1332030870976012
 40
0.1880892670017587
 40
0.2534551035302258
 40
0.301737299620534
 40
0.3605560662742922
 40
0.4062162190245457
 40
0.4543588583218156
 40
0.5004129697917123
 40
0.5348090934407566
 40
0.5511492272302138
 40
0.5704823927156524
 40
0.5888191746581605
 40
0.6036510333359772
 40
0.6149743816961135
 40
0.6239722381407538
 40
0.6333054762892971
 40
0.6448146952711507
 40
0.6564544241069414
 40
0.6674402515716618
 40
0.6818736094440352
 40
0.6936363619454834
 40
0.7093096710073298
 40
0.7315856713491313
 40
0.7437406585412698
 40
0.7541199311484492
 40
0.7660957649020946
 40
0.7790288589320397
 40
0.7790288589320397
 40
0.7790288589320397
 40
0.7790288589320397
 10
-563.4555526213582
 20
60.18588480062005
 30
0.0
 10
-563.470901739925
 20
60.1954871105161
 30
0.0
 10
-563.4989453279795
 20
60.21303099431387
 30
0.0
 10
-563.5372308339458
 20
60.23552766940337
 30
0.0
 10
-563.5760422470498
 20
60.25748701222688
 30
0.0
 10
-563.6213101782425
 20
60.28186224542326
 30
0.0
 10
-563.6715615004127
 20
60.3070057085385
 30
0.0
 10
-563.7238004558974
 20
60.33102429511625
 30
0.0
 10
-563.7708173714597
 20
60.35062436504565
 30
0.0
 10
-563.818622342257
 20
60.36807196902121
 30
0.0
 10
-563.8632179796128
 20
60.38175782337399
 30
0.0
 10
-563.9050589807157
 20
60.39131441507383
 30
0.0
 10
-563.937114615819
 20
60.39548008567214
 30
0.0
 10
-563.9604665006038
 20
60.39641561693787
 30
0.0
 10
-563.9784844706874
 20
60.39573833540231
 30
0.0
 10
-563.995846225505
 20
60.39323477678441
 30
0.0
 10
-564.0102034599615
 20
60.38938002409159
 30
0.0
 10
-564.0211258510157
 20
60.38507767075005
 30
0.0
 10
-564.0299341102412
 20
60.38056257593122
 30
0.0
 10
-564.0383287986729
 20
60.37519762965976
 30
0.0
 10
-564.0467606194766
 20
60.36835834131013
 30
0.0
 10
-564.0546427716376
 20
60.36011076108268
 30
0.0
 10
-564.0620827515957
 20
60.35021983572456
 30
0.0
 10
-564.0682917438922
 20
60.33945024546446
 30
0.0
 10
-564.0739276130731
 20
60.32666394583849
 30
0.0
 10
-564.0791089771121
 20
60.31089354496736
 30
0.0
 10
-564.0825683880203
 20
60.2945148641382
 30
0.0
 10
-564.0845533338832
 20
60.27970663126059
 30
0.0
 10
-564.0855935983137
 20
60.26824797893363
 30
0.0
 10
-564.0862404412372
 20
60.25649908716814
 30
0.0
 10
-564.0863210848391
 20
60.24819561257131
 30
0.0
 10
-564.0863629518271
 20
60.24388432222635
 30
0.0
 11
-563.4555526213582
 21
60.18588480062005
 31
0.0
 11
-563.5017432056485
 21
60.21445672995498
 31
0.0
 11
-563.5404470139822
 21
60.23725569054876
 31
0.0
 11
-563.5700182202721
 21
60.25397446191435
 31
0.0
 11
-563.6183504462026
 21
60.27998385802597
 31
0.0
 11
-563.6768329419577
 21
60.30918129435825
 31
0.0
 11
-563.7207153834661
 21
60.3293183695594
 31
0.0
 11
-563.7750476269334
 21
60.35184956252695
 31
0.0
 11
-563.8179701222706
 21
60.36742226199889
 31
0.0
 11
-563.8640440982699
 21
60.38138301059105
 31
0.0
 11
-563.9090053842169
 21
60.39135617577544
 31
0.0
 11
-563.9431430423068
 21
60.39556493909365
 31
0.0
 11
-563.959471526079
 21
60.39618187481656
 31
0.0
 11
-563.9787879362311
 21
60.39537712685535
 31
0.0
 11
-563.9969241993173
 21
60.39267276609021
 31
0.0
 11
-564.0112348388648
 21
60.38877537575465
 31
0.0
 11
-564.0217620872581
 21
60.38460461162146
 31
0.0
 11
-564.0297651048498
 21
60.38049205295906
 31
0.0
 11
-564.0376257981255
 21
60.37546026952327
 31
0.0
 11
-564.0465626834253
 21
60.36820808258965
 31
0.0
 11
-564.054613213706
 21
60.35980140304329
 31
0.0
 11
-564.0612302779039
 21
60.35103197459475
 31
0.0
 11
-564.0684801800602
 21
60.33855155989672
 31
0.0
 11
-564.0732480297827
 21
60.32779842255906
 31
0.0
 11
-564.0781930491924
 21
60.31292564840903
 31
0.0
 11
-564.0829105263763
 21
60.29115489692005
 31
0.0
 11
-564.0845392034252
 21
60.27910951891189
 31
0.0
 11
-564.0854885468505
 21
60.26877375316356
 31
0.0
 11
-564.0861359987755
 21
60.25681543309754
 31
0.0
 11
-564.0863629518271
 21
60.24388432222635
 31
0.0
  0
SPLINE
  5
11D
330
47
100
AcDbEntity
  8
0
  6
Continuous
 62
     3
100
AcDbSpline
210
0.0
220
0.0
230
1.0
 70
     8
 71
     3
 72
    11
 73
     7
 74
     5
 42
0.000000001
 43
0.0000000001
 44
0.00000001
 40
0.0
 40
0.0
 40
0.0
 40
0.0
 40
1.241015656805829
 40
2.850060365409156
 40
3.881420288052767
 40
5.70012002973388
 40
5.70012002973388
 40
5.70012002973388
 40
5.70012002973388
 10
-555.7499998139974
 20
59.68831398897385
 30
0.0
 10
-556.163662957408
 20
59.68562461689928
 30
0.0
 10
-557.1136630023968
 20
59.67944834314561
 30
0.0
 10
-558.4074424936875
 20
59.67104791904848
 30
0.0
 10
-559.8937793385799
 20
59.66140507182087
 30
0.0
 10
-560.8437792893001
 20
59.65525028138418
 30
0.0
 10
-561.4499998139972
 20
59.65132275232125
 30
0.0
 11
-555.7499998139974
 21
59.68831398897385
 31
0.0
 11
-556.990989254097
 21
59.68024739126065
 31
0.0
 11
-558.6000000412346
 21
59.66979936946845
 31
0.0
 11
-559.6313382623503
 21
59.66310880135924
 31
0.0
 11
-561.4499998139972
 21
59.65132275232125
 31
0.0
  0
SPLINE
  5
11E
330
47
100
AcDbEntity
  8
0
  6
Continuous
 62
     3
100
AcDbSpline
210
0.0
220
0.0
230
1.0
 70
     8
 71
     3
 72
    15
 73
    11
 74
     9
 42
0.000000001
 43
0.0000000001
 44
0.00000001
 40
0.0
 40
0.0
 40
0.0
 40
0.0
 40
0.0142033728126811
 40
0.0281887916255074
 40
0.0419537591233329
 40
0.055504113440958
 40
0.0688533013145867
 40
0.0820214880280039
 40
0.0950337162762674
 40
0.1079181976100089
 40
0.1079181976100089
 40
0.1079181976100089
 40
0.1079181976100089
 10
-564.0863629518271
 20
60.24388432222635
 30
0.0
 10
-564.0835238554714
 20
60.2400929214178
 30
0.0
 10
-564.0778892411324
 20
60.23256829117031
 30
0.0
 10
-564.0705796346498
 20
60.22062268305938
 30
0.0
 10
-564.0642712549836
 20
60.20837251798372
 30
0.0
 10
-564.0590785186282
 20
60.19583428922419
 30
0.0
 10
-564.0550153403183
 20
60.18309306066192
 30
0.0
 10
-564.0521317788924
 20
60.17022256616718
 30
0.0
 10
-564.0503328008949
 20
60.15729954957828
 30
0.0
 10
-564.0501100729541
 20
60.14866453691317
 30
0.0
 10
-564.04999926561
 20
60.14436832825545
 30
0.0
 11
-564.0863629518271
 21
60.24388432222635
 31
0.0
 11
-564.0780292933753
 21
60.23238276002508
 31
0.0
 11
-564.0706926668788
 21
60.22047621292705
 31
0.0
 11
-564.0644121955186
 21
60.20822753845739
 31
0.0
 11
-564.0592322677107
 21
60.19570633763935
 31
0.0
 11
-564.0551882374529
 21
60.1829844407964
 31
0.0
 11
-564.0522985324178
 21
60.17013723203345
 31
0.0
 11
-564.050571766547
 21
60.15724008525317
 31
0.0
 11
-564.04999926561
 21
60.14436832825545
 31
0.0
  0
SPLINE
  5
11F
330
47
100
AcDbEntity
  8
0
  6
Continuous
 62
     3
100
AcDbSpline
210
0.0
220
0.0
230
1.0
 70
     8
 71
     3
 72
    39
 73
    35
 74
    33
 42
0.000000001
 43
0.0000000001
 44
0.00000001
 40
0.0
 40
0.0
 40
0.0
 40
0.0
 40
0.0111383096775257
 40
0.0226900748908812
 40
0.0346455670669278
 40
0.0469913617051739
 40
0.059710540193736
 40
0.0727823182761114
 40
0.0861824096871949
 40
0.0998827708266876
 40
0.1138520820204111
 40
0.1280556622953941
 40
0.1424560504288315
 40
0.1570131118222078
 40
0.1716846837773004
 40
0.1864268755133
 40
0.2011947266162893
 40
0.2159426775524369
 40
0.2306251808839987
 40
0.2451972983888389
 40
0.2596152044753556
 40
0.2738368515968452
 40
0.2878223153277115
 40
0.3015344651059666
 40
0.3149391190413202
 40
0.3280056625546779
 40
0.340707004390339
 40
0.3530200993854943
 40
0.3649257204895592
 40
0.3764088599709926
 40
0.3874583511468066
 40
0.3980671438207239
 40
0.408231795277667
 40
0.4179526778636973
 40
0.4179526778636973
 40
0.4179526778636973
 40
0.4179526778636973
 10
-563.6534898798095
 20
59.82952709767895
 30
0.0
 10
-563.650596610572
 20
59.83185419427506
 30
0.0
 10
-563.644702684497
 20
59.83659478294798
 30
0.0
 10
-563.6359601570318
 20
59.84414376763247
 30
0.0
 10
-563.6271085467467
 20
59.85217497108506
 30
0.0
 10
-563.6181921061884
 20
59.86070806781764
 30
0.0
 10
-563.6092332019281
 20
59.86972873991169
 30
0.0
 10
-563.6002619166355
 20
59.87922671034657
 30
0.0
 10
-563.5913091128523
 20
59.88918637876649
 30
0.0
 10
-563.5824062081355
 20
59.89958776173931
 30
0.0
 10
-563.573586884673
 20
59.91040790237582
 30
0.0
 10
-563.5648839884877
 20
59.92161881040678
 30
0.0
 10
-563.5563322922751
 20
59.93319001812601
 30
0.0
 10
-563.5479647014176
 20
59.94508629229486
 30
0.0
 10
-563.5398154616996
 20
59.95727051152174
 30
0.0
 10
-563.5319159277988
 20
59.96970143194591
 30
0.0
 10
-563.5242981406066
 20
59.98233672849953
 30
0.0
 10
-563.5169902917245
 20
59.99513088771363
 30
0.0
 10
-563.5100206180841
 20
60.00803828718352
 30
0.0
 10
-563.5034127051736
 20
60.02101125666546
 30
0.0
 10
-563.497189627899
 20
60.03400306242079
 30
0.0
 10
-563.4913692428269
 20
60.04696616049328
 30
0.0
 10
-563.4859684819468
 20
60.05985495495682
 30
0.0
 10
-563.480998780379
 20
60.07262425468316
 30
0.0
 10
-563.4764704081563
 20
60.08523169140958
 30
0.0
 10
-563.472388171679
 20
60.09763638352738
 30
0.0
 10
-563.4687556309444
 20
60.10980092867692
 30
0.0
 10
-563.4655712770546
 20
60.12169027768956
 30
0.0
 10
-563.4628321721345
 20
60.13327323984909
 30
0.0
 10
-563.460531861522
 20
60.14452162064948
 30
0.0
 10
-563.4586591646921
 20
60.15541103061798
 30
0.0
 10
-563.4572124652793
 20
60.16592099689996
 30
0.0
 10
-563.456142431097
 20
60.17603257574834
 30
0.0
 10
-563.4557462711962
 20
60.18264994997589
 30
0.0
 10
-563.4555526213582
 20
60.18588480062005
 30
0.0
 11
-563.6534898798095
 21
59.82952709767895
 31
0.0
 11
-563.644850627019
 21
59.83655740337364
 31
0.0
 11
-563.636093014094
 21
59.84409048561444
 31
0.0
 11
-563.6272404081403
 21
59.85212573602757
 31
0.0
 11
-563.618318144828
 21
59.86065872470495
 31
0.0
 11
-563.6093537010765
 21
59.86968182065536
 31
0.0
 11
-563.6003761393982
 21
59.87918312434255
 31
0.0
 11
-563.5914163607887
 21
59.88914730101659
 31
0.0
 11
-563.5825062767219
 21
59.89955452423065
 31
0.0
 11
-563.5736791662013
 21
59.91038151696402
 31
0.0
 11
-563.5649685707033
 21
59.92160057282744
 31
0.0
 11
-563.5564087829903
 21
59.93318078042196
 31
0.0
 11
-563.5480334839299
 21
59.94508718193116
 31
0.0
 11
-563.5398763912381
 21
59.95728213404361
 31
0.0
 11
-563.5319696813903
 21
59.96972464789505
 31
0.0
 11
-563.5243448218476
 21
59.9823718190182
 31
0.0
 11
-563.5170308423778
 21
59.99517837028365
 31
0.0
 11
-563.510055363486
 21
60.00809806813088
 31
0.0
 11
-563.5034427954706
 21
60.02108346558175
 31
0.0
 11
-563.4972155591298
 21
60.03408721648797
 31
0.0
 11
-563.4913922954344
 21
60.04706199359406
 31
0.0
 11
-563.4859892542408
 21
60.05996161900799
 31
0.0
 11
-563.4810185921564
 21
60.07274111681375
 31
0.0
 11
-563.4764898844768
 21
60.08535759603838
 31
0.0
 11
-563.4724085754085
 21
60.09777039063485
 31
0.0
 11
-563.468777551682
 21
60.10994165781967
 31
0.0
 11
-563.465595791025
 21
60.12183656011786
 31
0.0
 11
-563.4628599261094
 21
60.13342357220314
 31
0.0
 11
-563.4605631177267
 21
60.14467466782425
 31
0.0
 11
-563.4586965365729
 21
60.15556535691732
 31
0.0
 11
-563.4572484700345
 21
60.16607485126666
 31
0.0
 11
-563.4562056565998
 21
60.17618587641905
 31
0.0
 11
-563.4555526213582
 21
60.18588480062005
 31
0.0
  0
SPLINE
  5
120
330
47
100
AcDbEntity
  8
0
  6
Continuous
 62
     3
100
AcDbSpline
210
0.0
220
0.0
230
1.0
 70
     8
 71
     3
 72
    13
 73
     9
 74
     7
 42
0.000000001
 43
0.0000000001
 44
0.00000001
 40
0.0
 40
0.0
 40
0.0
 40
0.0
 40
0.0239164232899784
 40
0.0478239399052552
 40
0.0543031187852973
 40
0.0607822028451225
 40
0.1821370878300039
 40
0.3020324981731156
 40
0.3020324981731156
 40
0.3020324981731156
 40
0.3020324981731156
 10
-555.7499998139974
 20
59.68831398897385
 30
0.0
 10
-555.7420274958552
 20
59.68831257494312
 30
0.0
 10
-555.7260858285832
 20
59.68830973257577
 30
0.0
 10
-555.7079875394197
 20
59.68792464530162
 30
0.0
 10
-555.6957046046158
 20
59.6875493058998
 30
0.0
 10
-555.6509628198895
 20
59.68596835728257
 30
0.0
 10
-555.5684244345332
 20
59.67992515372698
 30
0.0
 10
-555.4893152456466
 20
59.6652270924993
 30
0.0
 10
-555.4499999430295
 20
59.65792251338415
 30
0.0
 11
-555.7499998139974
 21
59.68831398897385
 31
0.0
 11
-555.7260835534183
 21
59.68822563616319
 31
0.0
 11
-555.7021809097191
 21
59.68774294453372
 31
0.0
 11
-555.695704780713
 21
59.68754416592893
 31
0.0
 11
-555.6892297019484
 21
59.68731638085346
 31
0.0
 11
-555.5682596445481
 21
59.67765959482061
 31
0.0
 11
-555.4499999430295
 21
59.65792251338415
 31
0.0
  0
SPLINE
  5
121
330
47
100
AcDbEntity
  8
0
  6
Continuous
 62
     3
100
AcDbSpline
210
0.0
220
0.0
230
1.0
 70
     8
 71
     3
 72
    15
 73
    11
 74
     9
 42
0.000000001
 43
0.0000000001
 44
0.00000001
 40
0.0
 40
0.0
 40
0.0
 40
0.0
 40
0.018841265134339
 40
0.0371557255893167
 40
0.0548466041334149
 40
0.0718298931708206
 40
0.0880341661886446
 40
0.1034021967586803
 40
0.1178897883051723
 40
0.1314665773347534
 40
0.1314665773347534
 40
0.1314665773347534
 40
0.1314665773347534
 10
-555.748755176633
 20
59.55685336648195
 30
0.0
 10
-555.7488056264997
 20
59.56313358563913
 30
0.0
 10
-555.7489051301618
 20
59.57551842793932
 30
0.0
 10
-555.7490609045585
 20
59.59379996635629
 30
0.0
 10
-555.7492179722267
 20
59.61146214438266
 30
0.0
 10
-555.7493758562377
 20
59.62842089016127
 30
0.0
 10
-555.7495333648473
 20
59.6446053218413
 30
0.0
 10
-555.7496897845779
 20
59.6599578237692
 30
0.0
 10
-555.7498435028322
 20
59.67443447897131
 30
0.0
 10
-555.749948845046
 20
59.68378867955872
 30
0.0
 10
-555.7499998139974
 20
59.68831398897385
 30
0.0
 11
-555.748755176633
 21
59.55685336648195
 31
0.0
 11
-555.7489080803218
 21
59.57569401116278
 31
0.0
 11
-555.7490638207505
 21
59.59400780941665
 31
0.0
 11
-555.7492213141136
 21
59.61169798690204
 31
0.0
 11
-555.7493794866485
 21
59.62868053936455
 31
0.0
 11
-555.749537332704
 21
59.64488404358355
 31
0.0
 11
-555.7496938977122
 21
59.66025127662554
 31
0.0
 11
-555.7498483194104
 21
59.67473804517796
 31
0.0
 11
-555.7499998139974
 21
59.68831398897385
 31
0.0
  0
SPLINE
  5
122
330
47
100
AcDbEntity
  8
0
  6
Continuous
 62
     3
100
AcDbSpline
210
0.0
220
0.0
230
1.0
 70
     8
 71
     3
 72
    11
 73
     7
 74
     5
 42
0.000000001
 43
0.0000000001
 44
0.00000001
 40
0.0
 40
0.0
 40
0.0
 40
0.0
 40
0.0915077439075286
 40
0.1825264889642928
 40
0.2042556735042753
 40
0.2259788666589398
 40
0.2259788666589398
 40
0.2259788666589398
 40
0.2259788666589398
 10
-563.6745967725886
 20
59.50794436604615
 30
0.0
 10
-563.6695775676432
 20
59.53804522316482
 30
0.0
 10
-563.6595659964491
 20
59.59808608674179
 30
0.0
 10
-563.6548770121169
 20
59.66611939101118
 30
0.0
 10
-563.6536026946608
 20
59.71092411879515
 30
0.0
 10
-563.6535274764873
 20
59.72540875691526
 30
0.0
 10
-563.6534898798095
 20
59.73265007744355
 30
0.0
 11
-563.6745967725886
 21
59.50794436604615
 31
0.0
 11
-563.6610023263322
 21
59.59843667622496
 31
0.0
 11
-563.6542768289376
 21
59.6892066039555
 31
0.0
 11
-563.6536867908219
 21
59.71092777635042
 31
0.0
 11
-563.6534898798095
 21
59.73265007744355
 31
0.0
  0
SPLINE
  5
123
330
47
100
AcDbEntity
  8
0
  6
Continuous
 62
     3
100
AcDbSpline
210
0.0
220
0.0
230
1.0
 70
     8
 71
     3
 72
    39
 73
    35
 74
    33
 42
0.000000001
 43
0.0000000001
 44
0.00000001
 40
0.0
 40
0.0
 40
0.0
 40
0.0
 40
0.0153196656837211
 40
0.0308571009592987
 40
0.0465930880131752
 40
0.062506496171513
 40
0.0785746219398228
 40
0.0947730689280016
 40
0.1110761390331187
 40
0.1274568030836544
 40
0.1438871310733196
 40
0.160338362656374
 40
0.1767813571529372
 40
0.1931867635742711
 40
0.2095254640454612
 40
0.225768832113878
 40
0.2418891379115815
 40
0.2578598724657846
 40
0.2736560804681043
 40
0.2892547189229085
 40
0.3046348846828633
 40
0.3197781697837538
 40
0.3346687562831795
 40
0.3492937294740726
 40
0.3636430218153161
 40
0.3777096497771564
 40
0.3914895012006274
 40
0.4049814720383308
 40
0.4181871064932929
 40
0.4311106257808214
 40
0.443758446603353
 40
0.4561391133227141
 40
0.4682627367753094
 40
0.4801408638490249
 40
0.4801408638490249
 40
0.4801408638490249
 40
0.4801408638490249
 10
-563.6534898798095
 20
59.73265007744355
 30
0.0
 10
-563.6585962458875
 20
59.73257857639516
 30
0.0
 10
-563.6688815649403
 20
59.73243454444673
 30
0.0
 10
-563.684397247743
 20
59.73168054439141
 30
0.0
 10
-563.7000842742939
 20
59.7305110913361
 30
0.0
 10
-563.7159077854824
 20
59.72887199908328
 30
0.0
 10
-563.7318303707907
 20
59.726758778516
 30
0.0
 10
-563.7478122357703
 20
59.72415681306816
 30
0.0
 10
-563.763810990335
 20
59.72105556013815
 30
0.0
 10
-563.7797825445343
 20
59.71744763624907
 30
0.0
 10
-563.7956805733128
 20
59.7133264222167
 30
0.0
 10
-563.8114578979747
 20
59.70869010783295
 30
0.0
 10
-563.8270656155448
 20
59.70353741373617
 30
0.0
 10
-563.8424550193965
 20
59.6978725272199
 30
0.0
 10
-563.8575762896842
 20
59.69170007231133
 30
0.0
 10
-563.8723810108988
 20
59.68503053842808
 30
0.0
 10
-563.8868203159798
 20
59.67787467200174
 30
0.0
 10
-563.9008480333677
 20
59.67024923406942
 30
0.0
 10
-563.9144181933366
 20
59.66217096542414
 30
0.0
 10
-563.9274888026199
 20
59.653662495341
 30
0.0
 10
-563.9400186543239
 20
59.6447460758984
 30
0.0
 10
-563.9519716872824
 20
59.63544944100212
 30
0.0
 10
-563.9633130903574
 20
59.62579954307543
 30
0.0
 10
-563.9740141582101
 20
59.61582815076237
 30
0.0
 10
-563.9840477457229
 20
59.60556584069855
 30
0.0
 10
-563.9933934770862
 20
59.59504712657988
 30
0.0
 10
-564.0020327092592
 20
59.58430496183719
 30
0.0
 10
-564.0099537838058
 20
59.57337518401093
 30
0.0
 10
-564.017147180127
 20
59.56229187918669
 30
0.0
 10
-564.0236088136111
 20
59.55109050139415
 30
0.0
 10
-564.0293420885776
 20
59.53980609385309
 30
0.0
 10
-564.0343356141278
 20
59.5284683412343
 30
0.0
 10
-564.0386570629823
 20
59.51712686109155
 30
0.0
 10
-564.0409744688391
 20
59.5094671302157
 30
0.0
 10
-564.0421213135314
 20
59.50567643554125
 30
0.0
 11
-563.6534898798095
 21
59.73265007744355
 31
0.0
 11
-563.6688065619664
 21
59.73234798967277
 31
0.0
 11
-563.6843268075487
 21
59.73161737167905
 31
0.0
 11
-563.7000187347576
 21
59.73044064771488
 31
0.0
 11
-563.7158475504557
 21
59.72880200828575
 31
0.0
 11
-563.7317758441084
 21
59.72668679664003
 31
0.0
 11
-563.7477636052525
 21
59.72408272770475
 31
0.0
 11
-563.7637685155288
 21
59.72097902987738
 31
0.0
 11
-563.7797461808312
 21
59.71736788525776
 31
0.0
 11
-563.7956503791445
 21
59.71324330605201
 31
0.0
 11
-563.8114335481472
 21
59.70860276762505
 31
0.0
 11
-563.8270469357692
 21
59.70344581162469
 31
0.0
 11
-563.8424413715342
 21
59.69777582859135
 31
0.0
 11
-563.8575672591663
 21
59.6915983973537
 31
0.0
 11
-563.8723756428591
 21
59.68492316111505
 31
0.0
 11
-563.8868179793101
 21
59.67776193377645
 31
0.0
 11
-563.9008474899939
 21
59.67013060412695
 31
0.0
 11
-563.9144186558286
 21
59.66204706251034
 31
0.0
 11
-563.9274888255555
 21
59.65353306317145
 31
0.0
 11
-563.9400173910716
 21
59.64461204615775
 31
0.0
 11
-563.951967602486
 21
59.63531088868726
 31
0.0
 11
-563.9633054057001
 21
59.62565771387732
 31
0.0
 11
-563.9740013986797
 21
59.61568346833145
 31
0.0
 11
-563.9840293430154
 21
59.60541981780277
 31
0.0
 11
-563.9933681849272
 21
59.59490049971655
 31
0.0
 11
-564.0020002854575
 21
59.58415940364363
 31
0.0
 11
-564.0099134246242
 21
59.57323166347055
 31
0.0
 11
-564.0170988255604
 21
59.56215200661953
 31
0.0
 11
-564.02355306149
 21
59.55095556991824
 31
0.0
 11
-564.0292759723152
 21
59.53967657701826
 31
0.0
 11
-564.0342724017333
 21
59.52834888304285
 31
0.0
 11
-564.0385501162823
 21
59.5170050079608
 31
0.0
 11
-564.0421213135314
 21
59.50567643554125
 31
0.0
  0
SPLINE
  5
124
330
47
100
AcDbEntity
  8
0
  6
Continuous
 62
     3
100
AcDbSpline
210
0.0
220
0.0
230
1.0
 70
     8
 71
     3
 72
    15
 73
    11
 74
     9
 42
0.000000001
 43
0.0000000001
 44
0.00000001
 40
0.0
 40
0.0
 40
0.0
 40
0.0
 40
0.0145226836061499
 40
0.028855368459388
 40
0.0429933937089844
 40
0.0569394644693603
 40
0.0707029898509503
 40
0.0842992812792883
 40
0.0977479246360927
 40
0.1110713231950569
 40
0.1110713231950569
 40
0.1110713231950569
 40
0.1110713231950569
 10
-564.0863629518271
 20
60.01964144565125
 30
0.0
 10
-564.0835228374309
 20
60.01571862281757
 30
0.0
 10
-564.0778797774924
 20
60.00792429067133
 30
0.0
 10
-564.0705734095081
 20
59.99557237575833
 30
0.0
 10
-564.0642666258443
 20
59.98290466732268
 30
0.0
 10
-564.059075839683
 20
59.96994013308846
 30
0.0
 10
-564.0550142447157
 20
59.9567663595716
 30
0.0
 10
-564.0521317119758
 20
59.94345949500401
 30
0.0
 10
-564.0503332611972
 20
59.93009873768064
 30
0.0
 10
-564.0501102448484
 20
59.92117205015062
 30
0.0
 10
-564.04999926561
 20
59.91672958645775
 30
0.0
 11
-564.0863629518271
 21
60.01964144565125
 31
0.0
 11
-564.0780298873643
 21
60.00774739777766
 31
0.0
 11
-564.0706936866181
 21
59.99543455782874
 31
0.0
 11
-564.0644134889768
 21
59.98276795241768
 31
0.0
 11
-564.0592336488359
 21
59.96981950981585
 31
0.0
 11
-564.0551895398588
 21
59.9566635287992
 31
0.0
 11
-564.052299568325
 21
59.94337792638176
 31
0.0
 11
-564.0505723714625
 21
59.93004065417815
 31
0.0
 11
-564.04999926561
 21
59.91672958645775
 31
0.0
  0
SPLINE
  5
125
330
47
100
AcDbEntity
  8
0
  6
Continuous
 62
     3
100
AcDbSpline
210
0.0
220
0.0
230
1.0
 70
     8
 71
     3
 72
    15
 73
    11
 74
     9
 42
0.000000001
 43
0.0000000001
 44
0.00000001
 40
0.0
 40
0.0
 40
0.0
 40
0.0
 40
0.0133846457118552
 40
0.02766533461462
 40
0.0428134339028071
 40
0.0587870249193643
 40
0.0755316526565735
 40
0.0929791646881991
 40
0.1110492301449148
 40
0.1296490955066152
 40
0.1296490955066152
 40
0.1296490955066152
 40
0.1296490955066152
 10
-561.4499998139972
 20
59.65132275232125
 30
0.0
 10
-561.4499492722356
 20
59.6468614899355
 30
0.0
 10
-561.449844820117
 20
59.63764030309142
 30
0.0
 10
-561.4496925900556
 20
59.62336996945086
 30
0.0
 10
-561.4495378009369
 20
59.60823663426395
 30
0.0
 10
-561.4493820364487
 20
59.59228195467904
 30
0.0
 10
-561.4492259638685
 20
59.57556077226775
 30
0.0
 10
-561.4490707268895
 20
59.55814072847071
 30
0.0
 10
-561.4489167585039
 20
59.54010223725143
 30
0.0
 10
-561.4488184091883
 20
59.52787932249478
 30
0.0
 10
-561.4487685314261
 20
59.52167956792965
 30
0.0
 11
-561.4499998139972
 21
59.65132275232125
 31
0.0
 11
-561.4498496171493
 21
59.6379389493509
 31
0.0
 11
-561.4496966787239
 21
59.62365907940335
 31
0.0
 11
-561.449541748964
 21
59.60851177240859
 31
0.0
 11
-561.4493856508531
 21
59.59253894411575
 31
0.0
 11
-561.4492292951512
 21
59.57579504638787
 31
0.0
 11
-561.4490736397611
 21
59.55834822869966
 31
0.0
 11
-561.4489197078243
 21
59.54027881890418
 31
0.0
 11
-561.4487685314261
 21
59.52167956792965
 31
0.0
  0
ENDBLK
  5
49
330
47
100
AcDbEntity
  8
0
100
AcDbBlockEnd
  0
BLOCK
  5
4C
330
4A
100
AcDbEntity
  8
0
100
AcDbBlockBegin
  2
HL905_2-WEB-Zeichnungen__2
 70
     0
 10
-572.5499998139974
 20
38.49999999997405
 30
0.0
  3
HL905_2-WEB-Zeichnungen__2
  1

  0
INSERT
  5
4B
330
4A
100
AcDbEntity
  8
0
100
AcDbBlockReference
  2
HL905-Abdeckung-flach-11217__1
 10
-572.5499998139974
 20
38.49999999997405
 30
0.0
  0
ENDBLK
  5
4D
330
4A
100
AcDbEntity
  8
0
100
AcDbBlockEnd
  0
BLOCK
  5
50
330
4E
100
AcDbEntity
  8
0
100
AcDbBlockBegin
  2
SA_Links3
 70
     0
 10
-562.0000000023662
 20
100.9999999999868
 30
0.0
  3
SA_Links3
  1

  0
INSERT
  5
4F
330
4E
100
AcDbEntity
  8
0
100
AcDbBlockReference
  2
HL905_2-WEB-Zeichnungen__2
 10
-572.5499998139974
 20
38.49999999997405
 30
0.0
  0
MTEXT
  5
127
330
4E
100
AcDbEntity
  8
1
 62
     1
100
AcDbMText
 10
-562.000000002366
 20
33.49999999998704
 30
0.0
 40
3.5
 41
0.0
 71
     2
 72
     1
  1
 
  7
CONVERTER_11
 73
     1
 44
1.32052821128451
  0
ENDBLK
  5
51
330
4E
100
AcDbEntity
  8
0
100
AcDbBlockEnd
  0
BLOCK
  5
53
330
52
100
AcDbEntity
  8
0
100
AcDbBlockBegin
  2
HL905-Abdeckung-flach-11217__3
 70
     0
 10
-717.550000189055
 20
38.49999999997402
 30
0.0
  3
HL905-Abdeckung-flach-11217__3
  1

  0
LINE
  5
128
330
52
100
AcDbEntity
  8
0
  6
Continuous
 62
     3
100
AcDbLine
 10
-687.050000189055
 20
139.1999999999739
 30
0.0
 11
-689.2500001890551
 21
139.1999999999739
 31
0.0
  0
LINE
  5
129
330
52
100
AcDbEntity
  8
0
  6
Continuous
 62
     3
100
AcDbLine
 10
-623.050000189055
 20
139.1999999999739
 30
0.0
 11
-620.850000189055
 21
139.1999999999739
 31
0.0
  0
LINE
  5
12A
330
52
100
AcDbEntity
  8
0
  6
Continuous
 62
     3
100
AcDbLine
 10
-623.050000189055
 20
139.1999999999739
 30
0.0
 11
-623.050000189055
 21
138.1999999999739
 31
0.0
  0
LINE
  5
12B
330
52
100
AcDbEntity
  8
0
  6
Continuous
 62
     3
100
AcDbLine
 10
-687.050000189055
 20
139.1999999999739
 30
0.0
 11
-687.050000189055
 21
138.1999999999739
 31
0.0
  0
LINE
  5
12C
330
52
100
AcDbEntity
  8
0
  6
Continuous
 62
     3
100
AcDbLine
 10
-689.2500001890551
 20
136.1999999999739
 30
0.0
 11
-620.850000189055
 21
136.1999999999739
 31
0.0
  0
LINE
  5
12D
330
52
100
AcDbEntity
  8
0
  6
Continuous
 62
     7
100
AcDbLine
 10
-686.2395347366835
 20
138.1999999999761
 30
0.0
 11
-623.8604656414266
 21
138.1999999999761
 31
0.0
  0
LINE
  5
12E
330
52
100
AcDbEntity
  8
0
  6
Continuous
 62
     7
100
AcDbLine
 10
-687.050000189055
 20
138.1999999999739
 30
0.0
 11
-686.2395347366835
 21
138.1999999999761
 31
0.0
  0
LINE
  5
12F
330
52
100
AcDbEntity
  8
0
  6
Continuous
 62
     7
100
AcDbLine
 10
-623.8604656414266
 20
138.1999999999761
 30
0.0
 11
-623.050000189055
 21
138.1999999999739
 31
0.0
  0
LINE
  5
130
330
52
100
AcDbEntity
  8
0
  6
Continuous
 62
     7
100
AcDbLine
 10
-623.050000189055
 20
138.1999999999739
 30
0.0
 11
-620.850000189055
 21
138.1999999999739
 31
0.0
  0
LINE
  5
131
330
52
100
AcDbEntity
  8
0
  6
Continuous
 62
     3
100
AcDbLine
 10
-620.850000189055
 20
138.1999999999739
 30
0.0
 11
-620.850000189055
 21
136.1999999999739
 31
0.0
  0
LINE
  5
132
330
52
100
AcDbEntity
  8
0
  6
Continuous
 62
     3
100
AcDbLine
 10
-620.850000189055
 20
143.1999999999739
 30
0.0
 11
-689.2500001890551
 21
143.1999999999739
 31
0.0
  0
LINE
  5
133
330
52
100
AcDbEntity
  8
0
  6
Continuous
 62
     7
100
AcDbLine
 10
-620.850000189055
 20
144.1999999999739
 30
0.0
 11
-689.2500001890551
 21
144.1999999999739
 31
0.0
  0
LINE
  5
134
330
52
100
AcDbEntity
  8
0
  6
Continuous
 62
     7
100
AcDbLine
 10
-689.2500001890551
 20
138.1999999999739
 30
0.0
 11
-687.050000189055
 21
138.1999999999739
 31
0.0
  0
LINE
  5
135
330
52
100
AcDbEntity
  8
0
  6
Continuous
 62
     3
100
AcDbLine
 10
-598.3917746436794
 20
48.49999999997402
 30
0.0
 11
-593.2244320345978
 21
48.49999999997402
 31
0.0
  0
LINE
  5
136
330
52
100
AcDbEntity
  8
0
  6
Continuous
 62
     3
100
AcDbLine
 10
-598.7173427981365
 20
48.49999999997402
 30
0.0
 11
-598.3917746436794
 21
48.49999999997402
 31
0.0
  0
LINE
  5
137
330
52
100
AcDbEntity
  8
0
  6
Continuous
 62
     3
100
AcDbLine
 10
-593.2244320345978
 20
48.49999999997402
 30
0.0
 11
-592.550000189055
 21
48.49999999997402
 31
0.0
  0
LINE
  5
138
330
52
100
AcDbEntity
  8
0
  6
Continuous
 62
     3
100
AcDbLine
 10
-611.850000189055
 20
66.79999999997403
 30
0.0
 11
-612.850000189055
 21
66.79999999997403
 31
0.0
  0
LINE
  5
139
330
52
100
AcDbEntity
  8
0
  6
Continuous
 62
     3
100
AcDbLine
 10
-616.850000189055
 20
66.79999999997403
 30
0.0
 11
-617.850000189055
 21
66.79999999997403
 31
0.0
  0
LINE
  5
13A
330
52
100
AcDbEntity
  8
0
  6
Continuous
 62
     3
100
AcDbLine
 10
-620.850000189055
 20
62.79999999997403
 30
0.0
 11
-620.850000189055
 21
63.79999999997403
 31
0.0
  0
LINE
  5
13B
330
52
100
AcDbEntity
  8
0
  6
Continuous
 62
     3
100
AcDbLine
 10
-620.850000189055
 20
63.79999999997403
 30
0.0
 11
-620.850000189055
 21
65.79999999997403
 31
0.0
  0
LINE
  5
13C
330
52
100
AcDbEntity
  8
0
  6
Continuous
 62
     3
100
AcDbLine
 10
-617.850000189055
 20
66.79999999997403
 30
0.0
 11
-619.850000189055
 21
66.79999999997403
 31
0.0
  0
LINE
  5
13D
330
52
100
AcDbEntity
  8
0
  6
Continuous
 62
     3
100
AcDbLine
 10
-620.850000189055
 20
57.79999999997403
 30
0.0
 11
-620.850000189055
 21
58.79999999997403
 31
0.0
  0
LINE
  5
13E
330
52
100
AcDbEntity
  8
0
  6
Continuous
 62
     3
100
AcDbLine
 10
-717.550000189055
 20
48.49999999997402
 30
0.0
 11
-716.8755683435122
 21
48.49999999997402
 31
0.0
  0
LINE
  5
13F
330
52
100
AcDbEntity
  8
0
  6
Continuous
 62
     3
100
AcDbLine
 10
-602.550000189055
 20
39.17443184551684
 30
0.0
 11
-602.550000189055
 21
38.49999999997402
 31
0.0
  0
LINE
  5
140
330
52
100
AcDbEntity
  8
0
  6
Continuous
 62
     3
100
AcDbLine
 10
-707.550000189055
 20
39.17443184551684
 30
0.0
 11
-707.550000189055
 21
38.49999999997402
 31
0.0
  0
LINE
  5
141
330
52
100
AcDbEntity
  8
0
  6
Continuous
 62
     3
100
AcDbLine
 10
-602.550000189055
 20
44.34177445459821
 30
0.0
 11
-602.550000189055
 21
44.66734260905542
 31
0.0
  0
LINE
  5
142
330
52
100
AcDbEntity
  8
0
  6
Continuous
 62
     3
100
AcDbLine
 10
-602.550000189055
 20
44.34177445459821
 30
0.0
 11
-707.550000189055
 21
44.34177445459821
 31
0.0
  0
LINE
  5
143
330
52
100
AcDbEntity
  8
0
  6
Continuous
 62
     3
100
AcDbLine
 10
-602.550000189055
 20
44.34177445459821
 30
0.0
 11
-602.550000189055
 21
39.17443184551684
 31
0.0
  0
LINE
  5
144
330
52
100
AcDbEntity
  8
0
  6
Continuous
 62
     3
100
AcDbLine
 10
-602.550000189055
 20
39.17443184551684
 30
0.0
 11
-707.550000189055
 21
39.17443184551684
 31
0.0
  0
LINE
  5
145
330
52
100
AcDbEntity
  8
0
  6
Continuous
 62
     3
100
AcDbLine
 10
-602.550000189055
 20
44.66734260905542
 30
0.0
 11
-707.550000189055
 21
44.66734260905542
 31
0.0
  0
LINE
  5
146
330
52
100
AcDbEntity
  8
0
  6
Continuous
 62
     3
100
AcDbLine
 10
-711.7082257344308
 20
48.49999999997402
 30
0.0
 11
-711.3826575799736
 21
48.49999999997402
 31
0.0
  0
LINE
  5
147
330
52
100
AcDbEntity
  8
0
  6
Continuous
 62
     3
100
AcDbLine
 10
-707.550000189055
 20
44.34177445459821
 30
0.0
 11
-707.550000189055
 21
44.66734260905542
 31
0.0
  0
LINE
  5
148
330
52
100
AcDbEntity
  8
0
  6
Continuous
 62
     3
100
AcDbLine
 10
-707.550000189055
 20
44.34177445459821
 30
0.0
 11
-707.550000189055
 21
39.17443184551684
 31
0.0
  0
LINE
  5
149
330
52
100
AcDbEntity
  8
0
  6
Continuous
 62
     3
100
AcDbLine
 10
-716.8755683435122
 20
48.49999999997402
 30
0.0
 11
-711.7082257344308
 21
48.49999999997402
 31
0.0
  0
LINE
  5
14A
330
52
100
AcDbEntity
  8
0
  6
Continuous
 62
     7
100
AcDbLine
 10
-707.550000189055
 20
38.49999999997402
 30
0.0
 11
-602.550000189055
 21
38.49999999997402
 31
0.0
  0
LINE
  5
14B
330
52
100
AcDbEntity
  8
0
  6
Continuous
 62
     3
100
AcDbLine
 10
-711.7082257344308
 20
153.4999999999739
 30
0.0
 11
-716.8755683435122
 21
153.4999999999739
 31
0.0
  0
LINE
  5
14C
330
52
100
AcDbEntity
  8
0
  6
Continuous
 62
     3
100
AcDbLine
 10
-711.7082257344308
 20
153.4999999999739
 30
0.0
 11
-711.3826575799737
 21
153.4999999999739
 31
0.0
  0
LINE
  5
14D
330
52
100
AcDbEntity
  8
0
  6
Continuous
 62
     3
100
AcDbLine
 10
-716.8755683435122
 20
153.4999999999739
 30
0.0
 11
-717.550000189055
 21
153.4999999999739
 31
0.0
  0
LINE
  5
14E
330
52
100
AcDbEntity
  8
0
  6
Continuous
 62
     3
100
AcDbLine
 10
-698.2500001890551
 20
135.1999999999739
 30
0.0
 11
-700.2500001890551
 21
135.1999999999739
 31
0.0
  0
LINE
  5
14F
330
52
100
AcDbEntity
  8
0
  6
Continuous
 62
     3
100
AcDbLine
 10
-689.2500001890551
 20
139.1999999999739
 30
0.0
 11
-689.2500001890551
 21
138.1999999999739
 31
0.0
  0
LINE
  5
150
330
52
100
AcDbEntity
  8
0
  6
Continuous
 62
     3
100
AcDbLine
 10
-689.2500001890551
 20
138.1999999999739
 30
0.0
 11
-689.2500001890551
 21
136.1999999999739
 31
0.0
  0
LINE
  5
151
330
52
100
AcDbEntity
  8
0
  6
Continuous
 62
     3
100
AcDbLine
 10
-693.2500001890551
 20
135.1999999999739
 30
0.0
 11
-692.2500001890551
 21
135.1999999999739
 31
0.0
  0
LINE
  5
152
330
52
100
AcDbEntity
  8
0
  6
Continuous
 62
     3
100
AcDbLine
 10
-693.2500001890551
 20
132.9999999999739
 30
0.0
 11
-692.2500001890551
 21
132.9999999999739
 31
0.0
  0
LINE
  5
153
330
52
100
AcDbEntity
  8
0
  6
Continuous
 62
     3
100
AcDbLine
 10
-693.2500001890551
 20
135.1999999999739
 30
0.0
 11
-693.2500001890551
 21
132.9999999999739
 31
0.0
  0
LINE
  5
154
330
52
100
AcDbEntity
  8
0
  6
Continuous
 62
     3
100
AcDbLine
 10
-689.2500001890551
 20
144.1999999999739
 30
0.0
 11
-689.2500001890551
 21
143.1999999999739
 31
0.0
  0
LINE
  5
155
330
52
100
AcDbEntity
  8
0
  6
Continuous
 62
     3
100
AcDbLine
 10
-697.2500001890551
 20
135.1999999999739
 30
0.0
 11
-698.2500001890551
 21
135.1999999999739
 31
0.0
  0
LINE
  5
156
330
52
100
AcDbEntity
  8
0
  6
Continuous
 62
     3
100
AcDbLine
 10
-689.2500001890551
 20
144.1999999999739
 30
0.0
 11
-689.2500001890551
 21
146.1999999999739
 31
0.0
  0
LINE
  5
157
330
52
100
AcDbEntity
  8
0
  6
Continuous
 62
     3
100
AcDbLine
 10
-700.2500001890551
 20
135.1999999999739
 30
0.0
 11
-700.2500001890551
 21
66.79999999997403
 31
0.0
  0
LINE
  5
158
330
52
100
AcDbEntity
  8
0
  6
Continuous
 62
     3
100
AcDbLine
 10
-711.3826575799736
 20
48.49999999997402
 30
0.0
 11
-711.3826575799737
 21
153.4999999999739
 31
0.0
  0
LINE
  5
159
330
52
100
AcDbEntity
  8
0
  6
Continuous
 62
     3
100
AcDbLine
 10
-711.7082257344308
 20
48.49999999997402
 30
0.0
 11
-711.7082257344308
 21
153.4999999999739
 31
0.0
  0
LINE
  5
15A
330
52
100
AcDbEntity
  8
0
  6
Continuous
 62
     3
100
AcDbLine
 10
-716.8755683435122
 20
48.49999999997402
 30
0.0
 11
-716.8755683435122
 21
153.4999999999739
 31
0.0
  0
LINE
  5
15B
330
52
100
AcDbEntity
  8
0
  6
Continuous
 62
     7
100
AcDbLine
 10
-717.550000189055
 20
48.49999999997402
 30
0.0
 11
-717.550000189055
 21
153.4999999999739
 31
0.0
  0
LINE
  5
15C
330
52
100
AcDbEntity
  8
0
  6
Continuous
 62
     3
100
AcDbLine
 10
-700.2500001890551
 20
66.79999999997403
 30
0.0
 11
-698.2500001890551
 21
66.79999999997403
 31
0.0
  0
LINE
  5
15D
330
52
100
AcDbEntity
  8
0
  6
Continuous
 62
     7
100
AcDbLine
 10
-698.2500001890551
 20
135.1999999999739
 30
0.0
 11
-698.2500001890551
 21
66.79999999997403
 31
0.0
  0
LINE
  5
15E
330
52
100
AcDbEntity
  8
0
  6
Continuous
 62
     3
100
AcDbLine
 10
-697.2500001890551
 20
66.79999999997403
 30
0.0
 11
-698.2500001890551
 21
66.79999999997403
 31
0.0
  0
LINE
  5
15F
330
52
100
AcDbEntity
  8
0
  6
Continuous
 62
     3
100
AcDbLine
 10
-693.2500001890551
 20
68.99999999997402
 30
0.0
 11
-692.2500001890551
 21
68.99999999997402
 31
0.0
  0
LINE
  5
160
330
52
100
AcDbEntity
  8
0
  6
Continuous
 62
     3
100
AcDbLine
 10
-693.2500001890551
 20
66.79999999997403
 30
0.0
 11
-692.2500001890551
 21
66.79999999997403
 31
0.0
  0
LINE
  5
161
330
52
100
AcDbEntity
  8
0
  6
Continuous
 62
     3
100
AcDbLine
 10
-693.2500001890551
 20
66.79999999997403
 30
0.0
 11
-693.2500001890551
 21
68.99999999997402
 31
0.0
  0
LINE
  5
162
330
52
100
AcDbEntity
  8
0
  6
Continuous
 62
     3
100
AcDbLine
 10
-697.2500001890551
 20
66.79999999997403
 30
0.0
 11
-697.2500001890551
 21
135.1999999999739
 31
0.0
  0
LINE
  5
163
330
52
100
AcDbEntity
  8
0
  6
Continuous
 62
     3
100
AcDbLine
 10
-689.2500001890551
 20
63.79999999997403
 30
0.0
 11
-689.2500001890551
 21
65.79999999997403
 31
0.0
  0
LINE
  5
164
330
52
100
AcDbEntity
  8
0
  6
Continuous
 62
     7
100
AcDbLine
 10
-692.2500001890551
 20
69.81046545234841
 30
0.0
 11
-692.2500001890551
 21
132.189534547607
 31
0.0
  0
LINE
  5
165
330
52
100
AcDbEntity
  8
0
  6
Continuous
 62
     7
100
AcDbLine
 10
-692.2500001890551
 20
132.189534547607
 30
0.0
 11
-692.2500001890551
 21
132.9999999999739
 31
0.0
  0
LINE
  5
166
330
52
100
AcDbEntity
  8
0
  6
Continuous
 62
     7
100
AcDbLine
 10
-692.2500001890551
 20
68.99999999997402
 30
0.0
 11
-692.2500001890551
 21
69.81046545234841
 31
0.0
  0
LINE
  5
167
330
52
100
AcDbEntity
  8
0
  6
Continuous
 62
     7
100
AcDbLine
 10
-692.2500001890551
 20
66.79999999997403
 30
0.0
 11
-692.2500001890551
 21
68.99999999997402
 31
0.0
  0
LINE
  5
168
330
52
100
AcDbEntity
  8
0
  6
Continuous
 62
     7
100
AcDbLine
 10
-692.2500001890551
 20
132.9999999999739
 30
0.0
 11
-692.2500001890551
 21
135.1999999999739
 31
0.0
  0
LINE
  5
169
330
52
100
AcDbEntity
  8
0
  6
Continuous
 62
     3
100
AcDbLine
 10
-690.2500001890551
 20
66.79999999997403
 30
0.0
 11
-690.2500001890551
 21
135.1999999999739
 31
0.0
  0
LINE
  5
16A
330
52
100
AcDbEntity
  8
0
  6
Continuous
 62
     3
100
AcDbLine
 10
-692.2500001890551
 20
66.79999999997403
 30
0.0
 11
-690.2500001890551
 21
66.79999999997403
 31
0.0
  0
LINE
  5
16B
330
52
100
AcDbEntity
  8
0
  6
Continuous
 62
     3
100
AcDbLine
 10
-692.2500001890551
 20
135.1999999999739
 30
0.0
 11
-690.2500001890551
 21
135.1999999999739
 31
0.0
  0
LINE
  5
16C
330
52
100
AcDbEntity
  8
0
  6
Continuous
 62
     3
100
AcDbLine
 10
-689.2500001890551
 20
62.79999999997403
 30
0.0
 11
-689.2500001890551
 21
63.79999999997403
 31
0.0
  0
LINE
  5
16D
330
52
100
AcDbEntity
  8
0
  6
Continuous
 62
     3
100
AcDbLine
 10
-623.050000189055
 20
62.79999999997403
 30
0.0
 11
-620.850000189055
 21
62.79999999997403
 31
0.0
  0
LINE
  5
16E
330
52
100
AcDbEntity
  8
0
  6
Continuous
 62
     3
100
AcDbLine
 10
-623.050000189055
 20
62.79999999997403
 30
0.0
 11
-623.050000189055
 21
63.79999999997403
 31
0.0
  0
LINE
  5
16F
330
52
100
AcDbEntity
  8
0
  6
Continuous
 62
     3
100
AcDbLine
 10
-687.050000189055
 20
62.79999999997403
 30
0.0
 11
-687.050000189055
 21
63.79999999997403
 31
0.0
  0
LINE
  5
170
330
52
100
AcDbEntity
  8
0
  6
Continuous
 62
     3
100
AcDbLine
 10
-689.2500001890551
 20
65.79999999997403
 30
0.0
 11
-620.850000189055
 21
65.79999999997403
 31
0.0
  0
LINE
  5
171
330
52
100
AcDbEntity
  8
0
  6
Continuous
 62
     7
100
AcDbLine
 10
-687.050000189055
 20
63.79999999997403
 30
0.0
 11
-686.2395347366835
 21
63.79999999997182
 31
0.0
  0
LINE
  5
172
330
52
100
AcDbEntity
  8
0
  6
Continuous
 62
     7
100
AcDbLine
 10
-686.2395347366835
 20
63.79999999997182
 30
0.0
 11
-623.8604656414266
 21
63.79999999997182
 31
0.0
  0
LINE
  5
173
330
52
100
AcDbEntity
  8
0
  6
Continuous
 62
     7
100
AcDbLine
 10
-689.2500001890551
 20
63.79999999997403
 30
0.0
 11
-687.050000189055
 21
63.79999999997403
 31
0.0
  0
LINE
  5
174
330
52
100
AcDbEntity
  8
0
  6
Continuous
 62
     7
100
AcDbLine
 10
-623.8604656414266
 20
63.79999999997182
 30
0.0
 11
-623.050000189055
 21
63.79999999997403
 31
0.0
  0
LINE
  5
175
330
52
100
AcDbEntity
  8
0
  6
Continuous
 62
     7
100
AcDbLine
 10
-623.050000189055
 20
63.79999999997403
 30
0.0
 11
-620.850000189055
 21
63.79999999997403
 31
0.0
  0
LINE
  5
176
330
52
100
AcDbEntity
  8
0
  6
Continuous
 62
     7
100
AcDbLine
 10
-620.850000189055
 20
57.79999999997403
 30
0.0
 11
-689.2500001890551
 21
57.79999999997403
 31
0.0
  0
LINE
  5
177
330
52
100
AcDbEntity
  8
0
  6
Continuous
 62
     3
100
AcDbLine
 10
-689.2500001890551
 20
55.79999999997403
 30
0.0
 11
-689.2500001890551
 21
57.79999999997403
 31
0.0
  0
LINE
  5
178
330
52
100
AcDbEntity
  8
0
  6
Continuous
 62
     3
100
AcDbLine
 10
-620.850000189055
 20
55.79999999997403
 30
0.0
 11
-620.850000189055
 21
57.79999999997403
 31
0.0
  0
LINE
  5
179
330
52
100
AcDbEntity
  8
0
  6
Continuous
 62
     3
100
AcDbLine
 10
-689.2500001890551
 20
58.79999999997403
 30
0.0
 11
-689.2500001890551
 21
57.79999999997403
 31
0.0
  0
LINE
  5
17A
330
52
100
AcDbEntity
  8
0
  6
Continuous
 62
     3
100
AcDbLine
 10
-620.850000189055
 20
58.79999999997403
 30
0.0
 11
-689.2500001890551
 21
58.79999999997403
 31
0.0
  0
LINE
  5
17B
330
52
100
AcDbEntity
  8
0
  6
Continuous
 62
     3
100
AcDbLine
 10
-620.850000189055
 20
55.79999999997403
 30
0.0
 11
-689.2500001890551
 21
55.79999999997403
 31
0.0
  0
LINE
  5
17C
330
52
100
AcDbEntity
  8
0
  6
Continuous
 62
     3
100
AcDbLine
 10
-687.050000189055
 20
62.79999999997403
 30
0.0
 11
-689.2500001890551
 21
62.79999999997403
 31
0.0
  0
LINE
  5
17D
330
52
100
AcDbEntity
  8
0
  6
Continuous
 62
     3
100
AcDbLine
 10
-707.550000189055
 20
162.8255681544311
 30
0.0
 11
-707.550000189055
 21
163.4999999999739
 31
0.0
  0
LINE
  5
17E
330
52
100
AcDbEntity
  8
0
  6
Continuous
 62
     3
100
AcDbLine
 10
-602.550000189055
 20
157.3326573908925
 30
0.0
 11
-602.550000189055
 21
157.6582255453498
 31
0.0
  0
LINE
  5
17F
330
52
100
AcDbEntity
  8
0
  6
Continuous
 62
     3
100
AcDbLine
 10
-707.550000189055
 20
157.6582255453498
 30
0.0
 11
-707.550000189055
 21
157.3326573908925
 31
0.0
  0
LINE
  5
180
330
52
100
AcDbEntity
  8
0
  6
Continuous
 62
     3
100
AcDbLine
 10
-602.550000189055
 20
157.6582255453498
 30
0.0
 11
-602.550000189055
 21
162.8255681544311
 31
0.0
  0
LINE
  5
181
330
52
100
AcDbEntity
  8
0
  6
Continuous
 62
     3
100
AcDbLine
 10
-602.550000189055
 20
157.6582255453498
 30
0.0
 11
-707.550000189055
 21
157.6582255453498
 31
0.0
  0
LINE
  5
182
330
52
100
AcDbEntity
  8
0
  6
Continuous
 62
     3
100
AcDbLine
 10
-707.550000189055
 20
157.6582255453498
 30
0.0
 11
-707.550000189055
 21
162.8255681544311
 31
0.0
  0
LINE
  5
183
330
52
100
AcDbEntity
  8
0
  6
Continuous
 62
     3
100
AcDbLine
 10
-620.850000189055
 20
146.1999999999739
 30
0.0
 11
-689.2500001890551
 21
146.1999999999739
 31
0.0
  0
LINE
  5
184
330
52
100
AcDbEntity
  8
0
  6
Continuous
 62
     3
100
AcDbLine
 10
-602.550000189055
 20
157.3326573908925
 30
0.0
 11
-707.550000189055
 21
157.3326573908925
 31
0.0
  0
LINE
  5
185
330
52
100
AcDbEntity
  8
0
  6
Continuous
 62
     3
100
AcDbLine
 10
-602.550000189055
 20
162.8255681544311
 30
0.0
 11
-707.550000189055
 21
162.8255681544311
 31
0.0
  0
LINE
  5
186
330
52
100
AcDbEntity
  8
0
  6
Continuous
 62
     7
100
AcDbLine
 10
-602.550000189055
 20
163.4999999999739
 30
0.0
 11
-707.550000189055
 21
163.4999999999739
 31
0.0
  0
LINE
  5
187
330
52
100
AcDbEntity
  8
0
  6
Continuous
 62
     3
100
AcDbLine
 10
-616.850000189055
 20
68.99999999997402
 30
0.0
 11
-617.850000189055
 21
68.99999999997402
 31
0.0
  0
LINE
  5
188
330
52
100
AcDbEntity
  8
0
  6
Continuous
 62
     3
100
AcDbLine
 10
-616.850000189055
 20
132.9999999999739
 30
0.0
 11
-617.850000189055
 21
132.9999999999739
 31
0.0
  0
LINE
  5
189
330
52
100
AcDbEntity
  8
0
  6
Continuous
 62
     3
100
AcDbLine
 10
-616.850000189055
 20
66.79999999997403
 30
0.0
 11
-616.850000189055
 21
68.99999999997402
 31
0.0
  0
LINE
  5
18A
330
52
100
AcDbEntity
  8
0
  6
Continuous
 62
     3
100
AcDbLine
 10
-616.850000189055
 20
135.1999999999739
 30
0.0
 11
-616.850000189055
 21
132.9999999999739
 31
0.0
  0
LINE
  5
18B
330
52
100
AcDbEntity
  8
0
  6
Continuous
 62
     7
100
AcDbLine
 10
-617.850000189055
 20
68.99999999997402
 30
0.0
 11
-617.850000189055
 21
69.81046545234841
 31
0.0
  0
LINE
  5
18C
330
52
100
AcDbEntity
  8
0
  6
Continuous
 62
     7
100
AcDbLine
 10
-617.850000189055
 20
69.81046545234841
 30
0.0
 11
-617.850000189055
 21
132.1895345475996
 31
0.0
  0
LINE
  5
18D
330
52
100
AcDbEntity
  8
0
  6
Continuous
 62
     7
100
AcDbLine
 10
-617.850000189055
 20
66.79999999997403
 30
0.0
 11
-617.850000189055
 21
68.99999999997402
 31
0.0
  0
LINE
  5
18E
330
52
100
AcDbEntity
  8
0
  6
Continuous
 62
     7
100
AcDbLine
 10
-617.850000189055
 20
132.1895345475996
 30
0.0
 11
-617.850000189055
 21
132.9999999999739
 31
0.0
  0
LINE
  5
18F
330
52
100
AcDbEntity
  8
0
  6
Continuous
 62
     7
100
AcDbLine
 10
-617.850000189055
 20
132.9999999999739
 30
0.0
 11
-617.850000189055
 21
135.1999999999739
 31
0.0
  0
LINE
  5
190
330
52
100
AcDbEntity
  8
0
  6
Continuous
 62
     3
100
AcDbLine
 10
-619.850000189055
 20
66.79999999997403
 30
0.0
 11
-619.850000189055
 21
135.1999999999739
 31
0.0
  0
LINE
  5
191
330
52
100
AcDbEntity
  8
0
  6
Continuous
 62
     3
100
AcDbLine
 10
-593.2244320345978
 20
153.4999999999739
 30
0.0
 11
-592.550000189055
 21
153.4999999999739
 31
0.0
  0
LINE
  5
192
330
52
100
AcDbEntity
  8
0
  6
Continuous
 62
     3
100
AcDbLine
 10
-593.2244320345978
 20
153.4999999999739
 30
0.0
 11
-598.3917746436794
 21
153.4999999999739
 31
0.0
  0
LINE
  5
193
330
52
100
AcDbEntity
  8
0
  6
Continuous
 62
     3
100
AcDbLine
 10
-598.7173427981365
 20
153.4999999999739
 30
0.0
 11
-598.3917746436794
 21
153.4999999999739
 31
0.0
  0
LINE
  5
194
330
52
100
AcDbEntity
  8
0
  6
Continuous
 62
     3
100
AcDbLine
 10
-602.550000189055
 20
162.8255681544311
 30
0.0
 11
-602.550000189055
 21
163.4999999999739
 31
0.0
  0
LINE
  5
195
330
52
100
AcDbEntity
  8
0
  6
Continuous
 62
     3
100
AcDbLine
 10
-616.850000189055
 20
135.1999999999739
 30
0.0
 11
-617.850000189055
 21
135.1999999999739
 31
0.0
  0
LINE
  5
196
330
52
100
AcDbEntity
  8
0
  6
Continuous
 62
     3
100
AcDbLine
 10
-620.850000189055
 20
139.1999999999739
 30
0.0
 11
-620.850000189055
 21
138.1999999999739
 31
0.0
  0
LINE
  5
197
330
52
100
AcDbEntity
  8
0
  6
Continuous
 62
     3
100
AcDbLine
 10
-617.850000189055
 20
135.1999999999739
 30
0.0
 11
-619.850000189055
 21
135.1999999999739
 31
0.0
  0
LINE
  5
198
330
52
100
AcDbEntity
  8
0
  6
Continuous
 62
     3
100
AcDbLine
 10
-620.850000189055
 20
144.1999999999739
 30
0.0
 11
-620.850000189055
 21
146.1999999999739
 31
0.0
  0
LINE
  5
199
330
52
100
AcDbEntity
  8
0
  6
Continuous
 62
     3
100
AcDbLine
 10
-611.850000189055
 20
135.1999999999739
 30
0.0
 11
-612.850000189055
 21
135.1999999999739
 31
0.0
  0
LINE
  5
19A
330
52
100
AcDbEntity
  8
0
  6
Continuous
 62
     3
100
AcDbLine
 10
-620.850000189055
 20
143.1999999999739
 30
0.0
 11
-620.850000189055
 21
144.1999999999739
 31
0.0
  0
LINE
  5
19B
330
52
100
AcDbEntity
  8
0
  6
Continuous
 62
     3
100
AcDbLine
 10
-598.3917746436794
 20
48.49999999997402
 30
0.0
 11
-598.3917746436794
 21
153.4999999999739
 31
0.0
  0
LINE
  5
19C
330
52
100
AcDbEntity
  8
0
  6
Continuous
 62
     3
100
AcDbLine
 10
-609.850000189055
 20
135.1999999999739
 30
0.0
 11
-611.850000189055
 21
135.1999999999739
 31
0.0
  0
LINE
  5
19D
330
52
100
AcDbEntity
  8
0
  6
Continuous
 62
     7
100
AcDbLine
 10
-611.850000189055
 20
135.1999999999739
 30
0.0
 11
-611.850000189055
 21
66.79999999997403
 31
0.0
  0
LINE
  5
19E
330
52
100
AcDbEntity
  8
0
  6
Continuous
 62
     3
100
AcDbLine
 10
-609.850000189055
 20
66.79999999997403
 30
0.0
 11
-611.850000189055
 21
66.79999999997403
 31
0.0
  0
LINE
  5
19F
330
52
100
AcDbEntity
  8
0
  6
Continuous
 62
     3
100
AcDbLine
 10
-609.850000189055
 20
135.1999999999739
 30
0.0
 11
-609.850000189055
 21
66.79999999997403
 31
0.0
  0
LINE
  5
1A0
330
52
100
AcDbEntity
  8
0
  6
Continuous
 62
     3
100
AcDbLine
 10
-598.7173427981365
 20
48.49999999997402
 30
0.0
 11
-598.7173427981365
 21
153.4999999999739
 31
0.0
  0
LINE
  5
1A1
330
52
100
AcDbEntity
  8
0
  6
Continuous
 62
     3
100
AcDbLine
 10
-612.850000189055
 20
66.79999999997403
 30
0.0
 11
-612.850000189055
 21
135.1999999999739
 31
0.0
  0
LINE
  5
1A2
330
52
100
AcDbEntity
  8
0
  6
Continuous
 62
     3
100
AcDbLine
 10
-593.2244320345978
 20
48.49999999997402
 30
0.0
 11
-593.2244320345978
 21
153.4999999999739
 31
0.0
  0
LINE
  5
1A3
330
52
100
AcDbEntity
  8
0
  6
Continuous
 62
     7
100
AcDbLine
 10
-592.550000189055
 20
48.49999999997402
 30
0.0
 11
-592.550000189055
 21
153.4999999999739
 31
0.0
  0
LINE
  5
1A4
330
52
100
AcDbEntity
  8
1
  6
DOT_CENTER
 62
     2
100
AcDbLine
 10
-589.457278994456
 20
100.999999999974
 30
0.0
 11
-721.917987348777
 21
100.999999999974
 31
0.0
  0
LINE
  5
1A5
330
52
100
AcDbEntity
  8
1
  6
DOT_CENTER
 62
     2
100
AcDbLine
 10
-655.050000189055
 20
34.872154662344
 30
0.0
 11
-655.050000189055
 21
166.711652051132
 31
0.0
  0
ARC
  5
1A6
330
52
100
AcDbEntity
  8
0
  6
Continuous
 62
     3
100
AcDbCircle
 10
-602.550000189055
 20
48.49999999997402
 30
0.0
 40
4.158225545375814
100
AcDbArc
 50
270.0
 51
0.0
  0
ARC
  5
1A7
330
52
100
AcDbEntity
  8
0
  6
Continuous
 62
     3
100
AcDbCircle
 10
-602.550000189055
 20
48.49999999997402
 30
0.0
 40
9.32556815445718
100
AcDbArc
 50
270.0
 51
0.0
  0
ARC
  5
1A8
330
52
100
AcDbEntity
  8
0
  6
Continuous
 62
     3
100
AcDbCircle
 10
-602.550000189055
 20
48.49999999997402
 30
0.0
 40
3.832657390918605
100
AcDbArc
 50
270.0
 51
0.0
  0
ARC
  5
1A9
330
52
100
AcDbEntity
  8
0
  6
Continuous
 62
     3
100
AcDbCircle
 10
-620.850000189055
 20
66.79999999997403
 30
0.0
 40
8.000000000000007
100
AcDbArc
 50
270.0
 51
0.0
  0
ARC
  5
1AA
330
52
100
AcDbEntity
  8
0
  6
Continuous
 62
     3
100
AcDbCircle
 10
-620.850000189055
 20
66.79999999997403
 30
0.0
 40
1.0
100
AcDbArc
 50
270.0
 51
0.0
  0
ARC
  5
1AB
330
52
100
AcDbEntity
  8
0
  6
Continuous
 62
     7
100
AcDbCircle
 10
-620.850000189055
 20
66.79999999997403
 30
0.0
 40
3.000000000000007
100
AcDbArc
 50
270.0
 51
0.0
  0
ARC
  5
1AC
330
52
100
AcDbEntity
  8
0
  6
Continuous
 62
     3
100
AcDbCircle
 10
-620.850000189055
 20
66.79999999997403
 30
0.0
 40
4.000000000000007
100
AcDbArc
 50
270.0
 51
0.0
  0
ARC
  5
1AD
330
52
100
AcDbEntity
  8
0
  6
Continuous
 62
     3
100
AcDbCircle
 10
-620.850000189055
 20
66.79999999997403
 30
0.0
 40
11.00000000000001
100
AcDbArc
 50
270.0
 51
0.0
  0
ARC
  5
1AE
330
52
100
AcDbEntity
  8
0
  6
Continuous
 62
     7
100
AcDbCircle
 10
-620.850000189055
 20
66.79999999997403
 30
0.0
 40
9.000000000000007
100
AcDbArc
 50
270.0
 51
0.0
  0
ARC
  5
1AF
330
52
100
AcDbEntity
  8
0
  6
Continuous
 62
     7
100
AcDbCircle
 10
-602.550000189055
 20
48.49999999997402
 30
0.0
 40
10.0
100
AcDbArc
 50
270.0
 51
0.0
  0
ARC
  5
1B0
330
52
100
AcDbEntity
  8
0
  6
Continuous
 62
     3
100
AcDbCircle
 10
-707.550000189055
 20
48.49999999997402
 30
0.0
 40
4.158225545375785
100
AcDbArc
 50
180.0
 51
270.0
  0
ARC
  5
1B1
330
52
100
AcDbEntity
  8
0
  6
Continuous
 62
     3
100
AcDbCircle
 10
-707.550000189055
 20
48.49999999997402
 30
0.0
 40
9.325568154457187
100
AcDbArc
 50
180.0
 51
270.0
  0
ARC
  5
1B2
330
52
100
AcDbEntity
  8
0
  6
Continuous
 62
     3
100
AcDbCircle
 10
-707.550000189055
 20
48.49999999997402
 30
0.0
 40
3.832657390918598
100
AcDbArc
 50
180.0
 51
270.0
  0
ARC
  5
1B3
330
52
100
AcDbEntity
  8
0
  6
Continuous
 62
     7
100
AcDbCircle
 10
-707.550000189055
 20
48.49999999997402
 30
0.0
 40
10.0
100
AcDbArc
 50
180.0
 51
270.0
  0
ARC
  5
1B4
330
52
100
AcDbEntity
  8
0
  6
Continuous
 62
     3
100
AcDbCircle
 10
-707.550000189055
 20
153.4999999999739
 30
0.0
 40
4.158225545375899
100
AcDbArc
 50
90.0
 51
180.0
  0
ARC
  5
1B5
330
52
100
AcDbEntity
  8
0
  6
Continuous
 62
     3
100
AcDbCircle
 10
-707.550000189055
 20
153.4999999999739
 30
0.0
 40
9.325568154457187
100
AcDbArc
 50
90.0
 51
180.0
  0
ARC
  5
1B6
330
52
100
AcDbEntity
  8
0
  6
Continuous
 62
     3
100
AcDbCircle
 10
-707.550000189055
 20
153.4999999999739
 30
0.0
 40
3.832657390918598
100
AcDbArc
 50
90.0
 51
180.0
  0
ARC
  5
1B7
330
52
100
AcDbEntity
  8
0
  6
Continuous
 62
     3
100
AcDbCircle
 10
-689.2500001890551
 20
135.1999999999739
 30
0.0
 40
1.0
100
AcDbArc
 50
90.0
 51
180.0
  0
ARC
  5
1B8
330
52
100
AcDbEntity
  8
0
  6
Continuous
 62
     7
100
AcDbCircle
 10
-689.2500001890551
 20
135.1999999999739
 30
0.0
 40
3.0
100
AcDbArc
 50
90.0
 51
180.0
  0
ARC
  5
1B9
330
52
100
AcDbEntity
  8
0
  6
Continuous
 62
     3
100
AcDbCircle
 10
-689.2500001890551
 20
135.1999999999739
 30
0.0
 40
4.0
100
AcDbArc
 50
90.0
 51
180.0
  0
ARC
  5
1BA
330
52
100
AcDbEntity
  8
0
  6
Continuous
 62
     3
100
AcDbCircle
 10
-689.2500001890551
 20
135.1999999999739
 30
0.0
 40
8.0
100
AcDbArc
 50
90.0
 51
180.0
  0
ARC
  5
1BB
330
52
100
AcDbEntity
  8
0
  6
Continuous
 62
     3
100
AcDbCircle
 10
-689.2500001890551
 20
135.1999999999739
 30
0.0
 40
11.0
100
AcDbArc
 50
90.0
 51
180.0
  0
ARC
  5
1BC
330
52
100
AcDbEntity
  8
0
  6
Continuous
 62
     7
100
AcDbCircle
 10
-689.2500001890551
 20
135.1999999999739
 30
0.0
 40
9.0
100
AcDbArc
 50
90.0
 51
180.0
  0
ARC
  5
1BD
330
52
100
AcDbEntity
  8
0
  6
Continuous
 62
     7
100
AcDbCircle
 10
-707.550000189055
 20
153.4999999999739
 30
0.0
 40
10.0
100
AcDbArc
 50
90.0
 51
180.0
  0
ARC
  5
1BE
330
52
100
AcDbEntity
  8
0
  6
Continuous
 62
     3
100
AcDbCircle
 10
-689.2500001890551
 20
66.79999999997403
 30
0.0
 40
1.0
100
AcDbArc
 50
180.0
 51
270.0
  0
ARC
  5
1BF
330
52
100
AcDbEntity
  8
0
  6
Continuous
 62
     3
100
AcDbCircle
 10
-689.2500001890551
 20
66.79999999997403
 30
0.0
 40
8.0
100
AcDbArc
 50
180.0
 51
270.0
  0
ARC
  5
1C0
330
52
100
AcDbEntity
  8
0
  6
Continuous
 62
     7
100
AcDbCircle
 10
-689.2500001890551
 20
66.79999999997403
 30
0.0
 40
3.0
100
AcDbArc
 50
180.0
 51
270.0
  0
ARC
  5
1C1
330
52
100
AcDbEntity
  8
0
  6
Continuous
 62
     3
100
AcDbCircle
 10
-689.2500001890551
 20
66.79999999997403
 30
0.0
 40
4.0
100
AcDbArc
 50
180.0
 51
270.0
  0
ARC
  5
1C2
330
52
100
AcDbEntity
  8
0
  6
Continuous
 62
     7
100
AcDbCircle
 10
-689.2500001890551
 20
66.79999999997403
 30
0.0
 40
9.0
100
AcDbArc
 50
180.0
 51
270.0
  0
ARC
  5
1C3
330
52
100
AcDbEntity
  8
0
  6
Continuous
 62
     3
100
AcDbCircle
 10
-602.550000189055
 20
153.4999999999739
 30
0.0
 40
9.325568154457187
100
AcDbArc
 50
0.0
 51
90.0
  0
ARC
  5
1C4
330
52
100
AcDbEntity
  8
0
  6
Continuous
 62
     3
100
AcDbCircle
 10
-602.550000189055
 20
153.4999999999739
 30
0.0
 40
4.158225545375672
100
AcDbArc
 50
0.0
 51
90.0
  0
ARC
  5
1C5
330
52
100
AcDbEntity
  8
0
  6
Continuous
 62
     3
100
AcDbCircle
 10
-620.850000189055
 20
135.1999999999739
 30
0.0
 40
1.0
100
AcDbArc
 50
0.0
 51
90.0
  0
ARC
  5
1C6
330
52
100
AcDbEntity
  8
0
  6
Continuous
 62
     7
100
AcDbCircle
 10
-620.850000189055
 20
135.1999999999739
 30
0.0
 40
3.0
100
AcDbArc
 50
0.0
 51
90.0
  0
ARC
  5
1C7
330
52
100
AcDbEntity
  8
0
  6
Continuous
 62
     3
100
AcDbCircle
 10
-620.850000189055
 20
135.1999999999739
 30
0.0
 40
11.0
100
AcDbArc
 50
0.0
 51
90.0
  0
ARC
  5
1C8
330
52
100
AcDbEntity
  8
0
  6
Continuous
 62
     3
100
AcDbCircle
 10
-602.550000189055
 20
153.4999999999739
 30
0.0
 40
3.832657390918484
100
AcDbArc
 50
0.0
 51
90.0
  0
ARC
  5
1C9
330
52
100
AcDbEntity
  8
0
  6
Continuous
 62
     3
100
AcDbCircle
 10
-620.850000189055
 20
135.1999999999739
 30
0.0
 40
4.0
100
AcDbArc
 50
0.0
 51
90.0
  0
ARC
  5
1CA
330
52
100
AcDbEntity
  8
0
  6
Continuous
 62
     3
100
AcDbCircle
 10
-620.850000189055
 20
135.1999999999739
 30
0.0
 40
8.0
100
AcDbArc
 50
0.0
 51
90.0
  0
ARC
  5
1CB
330
52
100
AcDbEntity
  8
0
  6
Continuous
 62
     7
100
AcDbCircle
 10
-602.550000189055
 20
153.4999999999739
 30
0.0
 40
10.0
100
AcDbArc
 50
0.0
 51
90.0
  0
ARC
  5
1CC
330
52
100
AcDbEntity
  8
0
  6
Continuous
 62
     7
100
AcDbCircle
 10
-620.850000189055
 20
135.1999999999739
 30
0.0
 40
9.0
100
AcDbArc
 50
0.0
 51
90.0
  0
ARC
  5
1CD
330
52
100
AcDbEntity
  8
0
  6
Continuous
 62
     3
100
AcDbCircle
 10
-689.2500001890551
 20
66.79999999997403
 30
0.0
 40
11.0
100
AcDbArc
 50
180.0
 51
270.0
  0
SPLINE
  5
1CE
330
52
100
AcDbEntity
  8
0
  6
Continuous
 62
     7
100
AcDbSpline
210
0.0
220
0.0
230
1.0
 70
     8
 71
     3
 72
    13
 73
     9
 74
     7
 42
0.000000001
 43
0.0000000001
 44
0.00000001
 40
0.0
 40
0.0
 40
0.0
 40
0.0
 40
0.3227298371483511
 40
0.6457343972545146
 40
0.806264280122636
 40
0.9683300897162076
 40
1.127986378116137
 40
1.292662092472391
 40
1.292662092472391
 40
1.292662092472391
 40
1.292662092472391
 10
-623.050000189055
 20
139.1999999999739
 30
0.0
 10
-623.1260701019062
 20
139.1239340576198
 30
0.0
 10
-623.2782746721963
 20
138.9717374123821
 30
0.0
 10
-623.460840988585
 20
138.7742698314537
 30
0.0
 10
-623.5975530108465
 20
138.6079691726112
 30
0.0
 10
-623.693303948095
 20
138.4787885945148
 30
0.0
 10
-623.7829436350294
 20
138.3434721975293
 30
0.0
 10
-623.8343597349942
 20
138.2483149589391
 30
0.0
 10
-623.8604656414266
 20
138.1999999999761
 30
0.0
 11
-623.050000189055
 21
139.1999999999739
 31
0.0
 11
-623.2767142427466
 21
138.9703148168906
 31
0.0
 11
-623.4944644444229
 21
138.7317424033394
 31
0.0
 11
-623.5961725218702
 21
138.6075437294931
 31
0.0
 11
-623.6926184547438
 21
138.4772996929675
 31
0.0
 11
-623.7799937572414
 21
138.343674518072
 31
0.0
 11
-623.8604656414266
 21
138.1999999999761
 31
0.0
  0
SPLINE
  5
1CF
330
52
100
AcDbEntity
  8
0
  6
Continuous
 62
     7
100
AcDbSpline
210
0.0
220
0.0
230
1.0
 70
     8
 71
     3
 72
    13
 73
     9
 74
     7
 42
0.000000001
 43
0.0000000001
 44
0.00000001
 40
0.0
 40
0.0
 40
0.0
 40
0.0
 40
0.1646757143247708
 40
0.3243320027562486
 40
0.4863978123754179
 40
0.6469276952181406
 40
0.9699322551925778
 40
1.292662092472398
 40
1.292662092472398
 40
1.292662092472398
 40
1.292662092472398
 10
-686.2395347366835
 20
138.1999999999761
 30
0.0
 10
-686.2656406431107
 20
138.2483149589299
 30
0.0
 10
-686.317056743075
 20
138.3434721975203
 30
0.0
 10
-686.4066964300132
 20
138.4787885945135
 30
0.0
 10
-686.5024473672693
 20
138.6079691726178
 30
0.0
 10
-686.6391593895032
 20
138.7742698314261
 30
0.0
 10
-686.8217257058827
 20
138.9717374123512
 30
0.0
 10
-686.9739302761728
 20
139.1239340575888
 30
0.0
 10
-687.050000189055
 20
139.1999999999739
 30
0.0
 11
-686.2395347366835
 21
138.1999999999761
 31
0.0
 11
-686.3200066208523
 21
138.3436745180451
 31
0.0
 11
-686.4073819233664
 21
138.4772996929675
 31
0.0
 11
-686.5038278562558
 21
138.6075437295132
 31
0.0
 11
-686.6055359336875
 21
138.7317424033395
 31
0.0
 11
-686.8232861352723
 21
138.9703148167959
 31
0.0
 11
-687.050000189055
 21
139.1999999999739
 31
0.0
  0
SPLINE
  5
1D0
330
52
100
AcDbEntity
  8
0
  6
Continuous
 62
     7
100
AcDbSpline
210
0.0
220
0.0
230
1.0
 70
     8
 71
     3
 72
    13
 73
     9
 74
     7
 42
0.000000001
 43
0.0000000001
 44
0.00000001
 40
0.0
 40
0.0
 40
0.0
 40
0.0
 40
0.3227298372779321
 40
0.645734397253968
 40
0.8062642801046717
 40
0.9683300897161689
 40
1.127986378143394
 40
1.292662092472006
 40
1.292662092472006
 40
1.292662092472006
 40
1.292662092472006
 10
-693.2500001890551
 20
132.9999999999739
 30
0.0
 10
-693.1739342466701
 20
132.9239300870921
 30
0.0
 10
-693.021737601433
 20
132.7717255168023
 30
0.0
 10
-692.8242700205058
 20
132.5891592004208
 30
0.0
 10
-692.6579693616973
 20
132.4524471781864
 30
0.0
 10
-692.5287887835939
 20
132.3566962409318
 30
0.0
 10
-692.393472386603
 20
132.2670565539943
 30
0.0
 10
-692.2983151480109
 20
132.2156404540333
 30
0.0
 10
-692.2500001890551
 20
132.189534547607
 30
0.0
 11
-693.2500001890551
 21
132.9999999999739
 31
0.0
 11
-693.0203150058783
 21
132.7732859461926
 31
0.0
 11
-692.7817425924209
 21
132.5555357446066
 31
0.0
 11
-692.6575439185883
 21
132.4538276671699
 31
0.0
 11
-692.5272998820487
 21
132.3573817342853
 31
0.0
 11
-692.3936747071295
 21
132.2700064317739
 31
0.0
 11
-692.2500001890551
 21
132.189534547607
 31
0.0
  0
SPLINE
  5
1D1
330
52
100
AcDbEntity
  8
0
  6
Continuous
 62
     7
100
AcDbSpline
210
0.0
220
0.0
230
1.0
 70
     8
 71
     3
 72
    13
 73
     9
 74
     7
 42
0.000000001
 43
0.0000000001
 44
0.00000001
 40
0.0
 40
0.0
 40
0.0
 40
0.0
 40
0.1646757143293962
 40
0.3243320027594853
 40
0.4863978123713598
 40
0.6469276952218495
 40
0.9699322552628881
 40
1.292662092475708
 40
1.292662092475708
 40
1.292662092475708
 40
1.292662092475708
 10
-692.2500001890551
 20
69.81046545234841
 30
0.0
 10
-692.29831514801
 20
69.78435954591995
 30
0.0
 10
-692.3934723866009
 20
69.73294344595446
 30
0.0
 10
-692.5287887835932
 20
69.6433037590169
 30
0.0
 10
-692.6579693616972
 20
69.54755282176137
 30
0.0
 10
-692.824270020523
 20
69.4108407995134
 30
0.0
 10
-693.021737601448
 20
69.22827448313018
 30
0.0
 10
-693.1739342466857
 20
69.07606991284042
 30
0.0
 10
-693.2500001890551
 20
68.99999999997402
 30
0.0
 11
-692.2500001890551
 21
69.81046545234841
 31
0.0
 11
-692.3936747071275
 21
69.72999356817624
 31
0.0
 11
-692.5272998820487
 21
69.64261826566275
 31
0.0
 11
-692.6575439185885
 21
69.54617233277783
 31
0.0
 11
-692.781742592421
 21
69.4444642553413
 31
0.0
 11
-693.0203150059252
 21
69.22671405371025
 31
0.0
 11
-693.2500001890551
 21
68.99999999997402
 31
0.0
  0
SPLINE
  5
1D2
330
52
100
AcDbEntity
  8
0
  6
Continuous
 62
     7
100
AcDbSpline
210
0.0
220
0.0
230
1.0
 70
     8
 71
     3
 72
    13
 73
     9
 74
     7
 42
0.000000001
 43
0.0000000001
 44
0.00000001
 40
0.0
 40
0.0
 40
0.0
 40
0.0
 40
0.3227298370687636
 40
0.6457343972541866
 40
0.8062642801242766
 40
0.9683300897161202
 40
1.127986378132589
 40
1.29266209247232
 40
1.29266209247232
 40
1.29266209247232
 40
1.29266209247232
 10
-687.050000189055
 20
62.79999999997403
 30
0.0
 10
-686.9739302762226
 20
62.87606594230942
 30
0.0
 10
-686.8217257059325
 20
63.02826258754708
 30
0.0
 10
-686.6391593895419
 20
63.22573016847419
 30
0.0
 10
-686.5024473672634
 20
63.3920308273372
 30
0.0
 10
-686.4066964300116
 20
63.52121140543804
 30
0.0
 10
-686.3170567430775
 20
63.65652780242335
 30
0.0
 10
-686.2656406431132
 20
63.75168504101372
 30
0.0
 10
-686.2395347366835
 20
63.79999999997182
 30
0.0
 11
-687.050000189055
 21
62.79999999997403
 31
0.0
 11
-686.8232861354187
 21
63.02968518300003
 31
0.0
 11
-686.6055359336875
 21
63.26825759660841
 31
0.0
 11
-686.5038278562389
 21
63.39245627045625
 31
0.0
 11
-686.4073819233664
 21
63.52270030698043
 31
0.0
 11
-686.3200066208601
 21
63.65632548189006
 31
0.0
 11
-686.2395347366835
 21
63.79999999997182
 31
0.0
  0
SPLINE
  5
1D3
330
52
100
AcDbEntity
  8
0
  6
Continuous
 62
     7
100
AcDbSpline
210
0.0
220
0.0
230
1.0
 70
     8
 71
     3
 72
    13
 73
     9
 74
     7
 42
0.000000001
 43
0.0000000001
 44
0.00000001
 40
0.0
 40
0.0
 40
0.0
 40
0.0
 40
0.1646757143283377
 40
0.3243320027561472
 40
0.486397812357954
 40
0.6469276952179919
 40
0.9699322552760543
 40
1.292662092472373
 40
1.292662092472373
 40
1.292662092472373
 40
1.292662092472373
 10
-623.8604656414266
 20
63.79999999997182
 30
0.0
 10
-623.8343597349985
 20
63.75168504101697
 30
0.0
 10
-623.7829436350346
 20
63.65652780242659
 30
0.0
 10
-623.6933039480991
 20
63.52121140543827
 30
0.0
 10
-623.5975530108448
 20
63.39203082733461
 30
0.0
 10
-623.4608409885932
 20
63.2257301685047
 30
0.0
 10
-623.2782746722074
 20
63.02826258757717
 30
0.0
 10
-623.1260701019175
 20
62.87606594233949
 30
0.0
 10
-623.050000189055
 20
62.79999999997403
 30
0.0
 11
-623.8604656414266
 21
63.79999999997182
 31
0.0
 11
-623.779993757256
 21
63.65632548189975
 31
0.0
 11
-623.6926184547438
 21
63.52270030698043
 31
0.0
 11
-623.5961725218651
 21
63.3924562704484
 31
0.0
 11
-623.4944644444226
 21
63.26825759660852
 31
0.0
 11
-623.2767142427798
 21
63.02968518309196
 31
0.0
 11
-623.050000189055
 21
62.79999999997403
 31
0.0
  0
SPLINE
  5
1D4
330
52
100
AcDbEntity
  8
0
  6
Continuous
 62
     7
100
AcDbSpline
210
0.0
220
0.0
230
1.0
 70
     8
 71
     3
 72
    13
 73
     9
 74
     7
 42
0.000000001
 43
0.0000000001
 44
0.00000001
 40
0.0
 40
0.0
 40
0.0
 40
0.0
 40
0.3227298370833903
 40
0.6457343972538279
 40
0.806264280123036
 40
0.9683300897161915
 40
1.127986378137481
 40
1.292662092475673
 40
1.292662092475673
 40
1.292662092475673
 40
1.292662092475673
 10
-616.850000189055
 20
68.99999999997402
 30
0.0
 10
-616.9260661313937
 20
69.0760699128099
 30
0.0
 10
-617.0782627766314
 20
69.22827448309968
 30
0.0
 10
-617.2757303575581
 20
69.41084079949023
 30
0.0
 10
-617.4420310164181
 20
69.54755282176521
 30
0.0
 10
-617.5712115945197
 20
69.64330375901862
 30
0.0
 10
-617.7065279915066
 20
69.73294344595287
 30
0.0
 10
-617.8016852300976
 20
69.78435954591849
 30
0.0
 10
-617.850000189055
 20
69.81046545234841
 30
0.0
 11
-616.850000189055
 21
68.99999999997402
 31
0.0
 11
-617.0796853720915
 21
69.22671405362057
 31
0.0
 11
-617.3182577856891
 21
69.4444642553413
 31
0.0
 11
-617.4424564595363
 21
69.54617233278933
 31
0.0
 11
-617.5727004960613
 21
69.64261826566275
 31
0.0
 11
-617.706325670975
 21
69.72999356817164
 31
0.0
 11
-617.850000189055
 21
69.81046545234841
 31
0.0
  0
SPLINE
  5
1D5
330
52
100
AcDbEntity
  8
0
  6
Continuous
 62
     7
100
AcDbSpline
210
0.0
220
0.0
230
1.0
 70
     8
 71
     3
 72
    13
 73
     9
 74
     7
 42
0.000000001
 43
0.0000000001
 44
0.00000001
 40
0.0
 40
0.0
 40
0.0
 40
0.0
 40
0.1646757143334988
 40
0.3243320027592657
 40
0.4863978123511659
 40
0.6469276952216968
 40
0.9699322554557852
 40
1.292662092475601
 40
1.292662092475601
 40
1.292662092475601
 40
1.292662092475601
 10
-617.850000189055
 20
132.1895345475996
 30
0.0
 10
-617.801685230099
 20
132.2156404540287
 30
0.0
 10
-617.7065279915078
 20
132.2670565539941
 30
0.0
 10
-617.5712115945215
 20
132.3566962409283
 30
0.0
 10
-617.4420310164182
 20
132.4524471781824
 30
0.0
 10
-617.2757303575424
 20
132.5891592004709
 30
0.0
 10
-617.0782627766163
 20
132.7717255168632
 30
0.0
 10
-616.9260661313788
 20
132.923930087153
 30
0.0
 10
-616.850000189055
 20
132.9999999999739
 30
0.0
 11
-617.850000189055
 21
132.1895345475996
 31
0.0
 11
-617.706325670979
 21
132.2700064317739
 31
0.0
 11
-617.5727004960615
 21
132.3573817342852
 31
0.0
 11
-617.4424564595374
 21
132.4538276671578
 31
0.0
 11
-617.3182577856892
 21
132.5555357446066
 31
0.0
 11
-617.0796853720457
 21
132.7732859463715
 31
0.0
 11
-616.850000189055
 21
132.9999999999739
 31
0.0
  0
ENDBLK
  5
54
330
52
100
AcDbEntity
  8
0
100
AcDbBlockEnd
  0
BLOCK
  5
57
330
55
100
AcDbEntity
  8
0
100
AcDbBlockBegin
  2
HL905_2-WEB-Zeichnungen__4
 70
     0
 10
-717.550000189055
 20
38.49999999997402
 30
0.0
  3
HL905_2-WEB-Zeichnungen__4
  1

  0
INSERT
  5
56
330
55
100
AcDbEntity
  8
0
100
AcDbBlockReference
  2
HL905-Abdeckung-flach-11217__3
 10
-717.550000189055
 20
38.49999999997402
 30
0.0
  0
ENDBLK
  5
58
330
55
100
AcDbEntity
  8
0
100
AcDbBlockEnd
  0
BLOCK
  5
5B
330
59
100
AcDbEntity
  8
0
100
AcDbBlockBegin
  2
Vordans3
 70
     0
 10
-655.0500001898948
 20
100.9999999999867
 30
0.0
  3
Vordans3
  1

  0
INSERT
  5
5A
330
59
100
AcDbEntity
  8
0
100
AcDbBlockReference
  2
HL905_2-WEB-Zeichnungen__4
 10
-717.550000189055
 20
38.49999999997402
 30
0.0
  0
MTEXT
  5
1D6
330
59
100
AcDbEntity
  8
1
 62
     1
100
AcDbMText
 10
-655.050000189895
 20
33.49999999998704
 30
0.0
 40
3.5
 41
0.0
 71
     2
 72
     1
  1
 
  7
CONVERTER_11
 73
     1
 44
1.32052821128451
  0
DIMENSION
  5
1E1
330
59
100
AcDbEntity
  8
1
100
AcDbDimension
  2
*D7
 10
-717.550000189055
 20
12.6194014346104
 30
0.0
 11
-654.524613553075
 21
20.6194014346104
 31
0.0
 70
    32
  1
<>
 71
     5
 42
-1.0
 53
0.00013888888889
  3
ME10_DIM_10
100
AcDbAlignedDimension
 13
-592.550000189055
 23
48.49999999997402
 33
0.0
 14
-717.550000189055
 24
48.49999999997402
 34
0.0
100
AcDbRotatedDimension
  0
DIMENSION
  5
1EC
330
59
100
AcDbEntity
  8
1
100
AcDbDimension
  2
*D8
 10
-739.788436470252
 20
38.49999999997402
 30
0.0
 11
-747.788436470252
 21
101.875460446872
 31
0.0
 70
    32
  1
<>
 71
     5
 42
-1.0
 53
90.0
  3
ME10_DIM_11
100
AcDbAlignedDimension
 13
-707.550000189055
 23
163.4999999999739
 33
0.0
 14
-707.550000189055
 24
38.49999999997402
 34
0.0
 50
90.0
100
AcDbRotatedDimension
  0
ENDBLK
  5
5C
330
59
100
AcDbEntity
  8
0
100
AcDbBlockEnd
  0
BLOCK
  5
1DE
330
1D7
100
AcDbEntity
  8
0
100
AcDbBlockBegin
  2
*D7
 70
     1
 10
0.0
 20
0.0
 30
0.0
  3
*D7
  1

  0
LINE
  5
1D8
330
1D7
100
AcDbEntity
  8
1
  6
Continuous
 62
     4
100
AcDbLine
 10
-717.550000189055
 20
12.6194014346104
 30
0.0
 11
-592.550000189055
 21
12.6194014346104
 31
0.0
  0
LINE
  5
1D9
330
1D7
100
AcDbEntity
  8
1
  6
Continuous
 62
     4
100
AcDbLine
 10
-717.550000189055
 20
48.49999999997402
 30
0.0
 11
-717.550000189055
 21
10.6194014346104
 31
0.0
  0
LINE
  5
1DA
330
1D7
100
AcDbEntity
  8
1
  6
Continuous
 62
     4
100
AcDbLine
 10
-592.550000189055
 20
48.49999999997402
 30
0.0
 11
-592.550000189055
 21
10.6194014346104
 31
0.0
  0
SOLID
  5
1DB
330
1D7
100
AcDbEntity
  8
1
 62
     4
100
AcDbTrace
 10
-707.550000189055
 20
13.93592641048436
 30
0.0
 11
-707.550000189055
 21
11.30287645873644
 31
0.0
 12
-717.550000189055
 22
12.6194014346104
 32
0.0
 13
-717.550000189055
 23
12.6194014346104
 33
0.0
  0
SOLID
  5
1DC
330
1D7
100
AcDbEntity
  8
1
 62
     4
100
AcDbTrace
 10
-602.550000189055
 20
11.30287645873644
 30
0.0
 11
-602.550000189055
 21
13.93592641048436
 31
0.0
 12
-592.550000189055
 22
12.6194014346104
 32
0.0
 13
-592.550000189055
 23
12.6194014346104
 33
0.0
  0
MTEXT
  5
1DD
330
1D7
100
AcDbEntity
  8
1
 62
     1
100
AcDbMText
 10
-665.024613553075
 20
15.6194014346104
 30
0.0
 40
10.0
 41
0.0
 71
     7
 72
     1
  1
125
  7
CONVERTER_11
 11
0.9999999999970619
 21
2.424068405545306E-6
 31
0.0
 73
     1
 44
0.60024009603842
  0
ENDBLK
  5
1DF
330
1D7
100
AcDbEntity
  8
0
100
AcDbBlockEnd
  0
BLOCK
  5
1E9
330
1E2
100
AcDbEntity
  8
0
100
AcDbBlockBegin
  2
*D8
 70
     1
 10
0.0
 20
0.0
 30
0.0
  3
*D8
  1

  0
LINE
  5
1E3
330
1E2
100
AcDbEntity
  8
1
  6
Continuous
 62
     4
100
AcDbLine
 10
-739.788436470252
 20
38.49999999997402
 30
0.0
 11
-739.788436470252
 21
163.4999999999739
 31
0.0
  0
LINE
  5
1E4
330
1E2
100
AcDbEntity
  8
1
  6
Continuous
 62
     4
100
AcDbLine
 10
-707.550000189055
 20
38.49999999997402
 30
0.0
 11
-741.788436470252
 21
38.49999999997402
 31
0.0
  0
LINE
  5
1E5
330
1E2
100
AcDbEntity
  8
1
  6
Continuous
 62
     4
100
AcDbLine
 10
-707.550000189055
 20
163.4999999999739
 30
0.0
 11
-741.788436470252
 21
163.4999999999739
 31
0.0
  0
SOLID
  5
1E6
330
1E2
100
AcDbEntity
  8
1
 62
     4
100
AcDbTrace
 10
-741.1049614461259
 20
48.49999999997402
 30
0.0
 11
-738.4719114943781
 21
48.49999999997402
 31
0.0
 12
-739.788436470252
 22
38.49999999997402
 32
0.0
 13
-739.788436470252
 23
38.49999999997402
 33
0.0
  0
SOLID
  5
1E7
330
1E2
100
AcDbEntity
  8
1
 62
     4
100
AcDbTrace
 10
-738.4719114943781
 20
153.4999999999739
 30
0.0
 11
-741.1049614461259
 21
153.4999999999739
 31
0.0
 12
-739.788436470252
 22
163.4999999999739
 32
0.0
 13
-739.788436470252
 23
163.4999999999739
 33
0.0
  0
MTEXT
  5
1E8
330
1E2
100
AcDbEntity
  8
1
 62
     1
100
AcDbMText
 10
-742.788436470252
 20
91.375460446872
 30
0.0
 40
10.0
 41
0.0
 71
     7
 72
     1
  1
125
  7
CONVERTER_11
 11
0.0
 21
1.0
 31
0.0
 73
     1
 44
0.60024009603842
  0
ENDBLK
  5
1EA
330
1E2
100
AcDbEntity
  8
0
100
AcDbBlockEnd
  0
ENDSEC
  0
SECTION
  2
ENTITIES
  0
INSERT
  5
5D
330
1F
100
AcDbEntity
  8
0
100
AcDbBlockReference
  2
SA_Links3
 10
-562.0000000023662
 20
100.9999999999868
 30
0.0
  0
INSERT
  5
5E
330
1F
100
AcDbEntity
  8
0
100
AcDbBlockReference
  2
Vordans3
 10
-655.0500001898948
 20
100.9999999999867
 30
0.0
  0
ENDSEC
  0
SECTION
  2
OBJECTS
  0
DICTIONARY
  5
C
330
0
100
AcDbDictionary
281
     1
  3
ACAD_GROUP
350
D
  3
ACAD_LAYOUT
350
1A
  3
ACAD_MATERIAL
350
3B
  3
ACAD_MLEADERSTYLE
350
1EF
  3
ACAD_MLINESTYLE
350
17
  3
ACAD_PLOTSETTINGS
350
19
  3
ACAD_PLOTSTYLENAME
350
E
  3
ACAD_VISUALSTYLE
350
2A
  3
AcDbVariableDictionary
350
1ED
  0
DICTIONARY
  5
D
102
{ACAD_REACTORS
330
C
102
}
330
C
100
AcDbDictionary
281
     1
  0
DICTIONARY
  5
1A
102
{ACAD_REACTORS
330
C
102
}
330
C
100
AcDbDictionary
281
     1
  3
Layout1
350
1E
  3
Layout2
350
26
  3
Model
350
22
  0
DICTIONARY
  5
3B
102
{ACAD_REACTORS
330
C
102
}
330
C
100
AcDbDictionary
281
     1
  3
ByBlock
350
3D
  3
ByLayer
350
3C
  3
Global
350
3E
  0
DICTIONARY
  5
1EF
102
{ACAD_REACTORS
330
C
102
}
330
C
100
AcDbDictionary
281
     1
  0
DICTIONARY
  5
17
102
{ACAD_REACTORS
330
C
102
}
330
C
100
AcDbDictionary
281
     1
  3
Standard
350
18
  0
DICTIONARY
  5
19
102
{ACAD_REACTORS
330
C
102
}
330
C
100
AcDbDictionary
281
     1
  0
ACDBDICTIONARYWDFLT
  5
E
102
{ACAD_REACTORS
330
C
102
}
330
C
100
AcDbDictionary
281
     1
  3
Normal
350
F
100
AcDbDictionaryWithDefault
340
F
  0
DICTIONARY
  5
2A
102
{ACAD_REACTORS
330
C
102
}
330
C
100
AcDbDictionary
281
     1
  3
2dWireframe
350
2F
  3
3D Hidden
350
31
  3
3dWireframe
350
30
  3
Basic
350
32
  3
Brighten
350
36
  3
ColorChange
350
3A
  3
Conceptual
350
34
  3
Dim
350
35
  3
Facepattern
350
39
  3
Flat
350
2B
  3
FlatWithEdges
350
2C
  3
Gouraud
350
2D
  3
GouraudWithEdges
350
2E
  3
Linepattern
350
38
  3
Realistic
350
33
  3
Thicken
350
37
  0
DICTIONARY
  5
1ED
102
{ACAD_REACTORS
330
C
102
}
330
C
100
AcDbDictionary
281
     1
  3
DIMASSOC
350
1F0
  3
HIDETEXT
350
1F1
  0
LAYOUT
  5
1E
102
{ACAD_REACTORS
330
1A
102
}
330
1A
100
AcDbPlotSettings
  1

  2
none_device
  4

  6

 40
0.0
 41
0.0
 42
0.0
 43
0.0
 44
0.0
 45
0.0
 46
0.0
 47
0.0
 48
0.0
 49
0.0
140
0.0
141
0.0
142
1.0
143
1.0
 70
   688
 72
     0
 73
     0
 74
     5
  7

 75
    16
147
1.0
148
0.0
149
0.0
100
AcDbLayout
  1
Layout1
 70
     1
 71
     1
 10
0.0
 20
0.0
 11
12.0
 21
9.0
 12
0.0
 22
0.0
 32
0.0
 14
1.00000000000000E+20
 24
1.00000000000000E+20
 34
1.00000000000000E+20
 15
-1.00000000000000E+20
 25
-1.00000000000000E+20
 35
-1.00000000000000E+20
146
0.0
 13
0.0
 23
0.0
 33
0.0
 16
1.0
 26
0.0
 36
0.0
 17
0.0
 27
1.0
 37
0.0
 76
     0
330
1B
  0
LAYOUT
  5
26
102
{ACAD_REACTORS
330
1A
102
}
330
1A
100
AcDbPlotSettings
  1

  2
none_device
  4

  6

 40
0.0
 41
0.0
 42
0.0
 43
0.0
 44
0.0
 45
0.0
 46
0.0
 47
0.0
 48
0.0
 49
0.0
140
0.0
141
0.0
142
1.0
143
1.0
 70
   688
 72
     0
 73
     0
 74
     5
  7

 75
    16
147
1.0
148
0.0
149
0.0
100
AcDbLayout
  1
Layout2
 70
     1
 71
     2
 10
0.0
 20
0.0
 11
0.0
 21
0.0
 12
0.0
 22
0.0
 32
0.0
 14
0.0
 24
0.0
 34
0.0
 15
0.0
 25
0.0
 35
0.0
146
0.0
 13
0.0
 23
0.0
 33
0.0
 16
1.0
 26
0.0
 36
0.0
 17
0.0
 27
1.0
 37
0.0
 76
     0
330
23
  0
LAYOUT
  5
22
102
{ACAD_REACTORS
330
1A
102
}
330
1A
100
AcDbPlotSettings
  1

  2
none_device
  4

  6

 40
0.0
 41
0.0
 42
0.0
 43
0.0
 44
0.0
 45
0.0
 46
0.0
 47
0.0
 48
0.0
 49
0.0
140
0.0
141
0.0
142
1.0
143
1.0
 70
  1712
 72
     0
 73
     0
 74
     0
  7

 75
     0
147
1.0
148
0.0
149
0.0
100
AcDbLayout
  1
Model
 70
     1
 71
     0
 10
0.0
 20
0.0
 11
12.0
 21
9.0
 12
0.0
 22
0.0
 32
0.0
 14
-752.788436470252
 24
10.6194014346104
 34
0.0
 15
-550.6536609458772
 25
166.711652051132
 35
0.0
146
0.0
 13
0.0
 23
0.0
 33
0.0
 16
1.0
 26
0.0
 36
0.0
 17
0.0
 27
1.0
 37
0.0
 76
     0
330
1F
331
29
  0
MATERIAL
  5
3D
102
{ACAD_REACTORS
330
3B
102
}
102
{ACAD_XDICTIONARY
360
214
102
}
330
3B
100
AcDbMaterial
  1
ByBlock
  0
MATERIAL
  5
3C
102
{ACAD_REACTORS
330
3B
102
}
102
{ACAD_XDICTIONARY
360
212
102
}
330
3B
100
AcDbMaterial
  1
ByLayer
  0
MATERIAL
  5
3E
102
{ACAD_REACTORS
330
3B
102
}
102
{ACAD_XDICTIONARY
360
216
102
}
330
3B
100
AcDbMaterial
  1
Global
  0
MLINESTYLE
  5
18
102
{ACAD_REACTORS
330
17
102
}
330
17
100
AcDbMlineStyle
  2
Standard
 70
     0
  3

 62
   256
 51
90.0
 52
90.0
 71
     2
 49
0.5
 62
   256
  6
BYLAYER
 49
-0.5
 62
   256
  6
BYLAYER
  0
ACDBPLACEHOLDER
  5
F
102
{ACAD_REACTORS
330
E
102
}
330
E
  0
VISUALSTYLE
  5
2F
102
{ACAD_REACTORS
330
2A
102
}
102
{ACAD_XDICTIONARY
360
1FA
102
}
330
2A
100
AcDbVisualStyle
  2
2dWireframe
 70
     4
 71
     0
 72
     2
 73
     0
 90
        0
 40
-0.6
 41
-30.0
 62
     5
 63
     7
 74
     1
 91
        4
 64
     7
 65
   257
 75
     1
175
     1
 42
1.0
 92
        0
 66
   257
 43
1.0
 76
     1
 77
     6
 78
     2
 67
     7
 79
     5
170
     0
171
     0
290
     0
174
     0
 93
        1
 44
0.0
173
     0
291
     0
 45
0.0
1001
ACAD
1000
AcDbSavedByObjectVersion
1070
     0
  0
VISUALSTYLE
  5
31
102
{ACAD_REACTORS
330
2A
102
}
102
{ACAD_XDICTIONARY
360
1FE
102
}
330
2A
100
AcDbVisualStyle
  2
3D Hidden
 70
     6
 71
     1
 72
     2
 73
     2
 90
        0
 40
-0.6
 41
-30.0
 62
     5
 63
     7
 74
     2
 91
        2
 64
     7
 65
   257
 75
     2
175
     1
 42
40.0
 92
        0
 66
   257
 43
1.0
 76
     1
 77
     6
 78
     2
 67
     7
 79
     3
170
     0
171
     0
290
     0
174
     0
 93
        1
 44
0.0
173
     0
291
     0
 45
0.0
1001
ACAD
1000
AcDbSavedByObjectVersion
1070
     0
  0
VISUALSTYLE
  5
30
102
{ACAD_REACTORS
330
2A
102
}
102
{ACAD_XDICTIONARY
360
1FC
102
}
330
2A
100
AcDbVisualStyle
  2
3dWireframe
 70
     5
 71
     0
 72
     2
 73
     0
 90
        0
 40
-0.6
 41
-30.0
 62
     5
 63
     7
 74
     1
 91
        4
 64
     7
 65
   257
 75
     1
175
     1
 42
1.0
 92
        0
 66
   257
 43
1.0
 76
     1
 77
     6
 78
     2
 67
     7
 79
     5
170
     0
171
     0
290
     0
174
     0
 93
        1
 44
0.0
173
     0
291
     0
 45
0.0
1001
ACAD
1000
AcDbSavedByObjectVersion
1070
     0
  0
VISUALSTYLE
  5
32
102
{ACAD_REACTORS
330
2A
102
}
102
{ACAD_XDICTIONARY
360
200
102
}
330
2A
100
AcDbVisualStyle
  2
Basic
 70
     7
 71
     1
 72
     0
 73
     1
 90
        0
 40
-0.6
 41
-30.0
 62
     5
 63
     7
 74
     0
 91
        4
 64
     7
 65
   257
 75
     1
175
     1
 42
1.0
 92
        8
 66
     7
 43
1.0
 76
     1
 77
     6
 78
     2
 67
     7
 79
     5
170
     0
171
     0
290
     0
174
     0
 93
        1
 44
0.0
173
     0
291
     1
 45
0.0
1001
ACAD
1000
AcDbSavedByObjectVersion
1070
     0
  0
VISUALSTYLE
  5
36
102
{ACAD_REACTORS
330
2A
102
}
102
{ACAD_XDICTIONARY
360
208
102
}
330
2A
100
AcDbVisualStyle
  2
Brighten
 70
    12
 71
     2
 72
     2
 73
     0
 90
        0
 40
-0.6
 41
-30.0
 62
     5
 63
     7
 74
     1
 91
        4
 64
     7
 65
   257
 75
     1
175
     1
 42
1.0
 92
        8
 66
     7
 43
1.0
 76
     1
 77
     6
 78
     2
 67
     7
 79
     5
170
     0
171
     0
290
     0
174
     0
 93
        1
 44
50.0
173
     0
291
     1
 45
0.0
1001
ACAD
1000
AcDbSavedByObjectVersion
1070
     0
  0
VISUALSTYLE
  5
3A
102
{ACAD_REACTORS
330
2A
102
}
102
{ACAD_XDICTIONARY
360
210
102
}
330
2A
100
AcDbVisualStyle
  2
ColorChange
 70
    16
 71
     2
 72
     2
 73
     3
 90
        0
 40
-0.6
 41
-30.0
 62
     5
 63
     8
 74
     1
 91
        4
 64
     7
 65
   257
 75
     1
175
     1
 42
1.0
 92
        8
 66
     8
 43
1.0
 76
     1
 77
     6
 78
     2
 67
     7
 79
     5
170
     0
171
     0
290
     0
174
     0
 93
        1
 44
0.0
173
     0
291
     1
 45
0.0
1001
ACAD
1000
AcDbSavedByObjectVersion
1070
     0
  0
VISUALSTYLE
  5
34
102
{ACAD_REACTORS
330
2A
102
}
102
{ACAD_XDICTIONARY
360
204
102
}
330
2A
100
AcDbVisualStyle
  2
Conceptual
 70
     9
 71
     3
 72
     2
 73
     0
 90
        0
 40
-0.6
 41
-30.0
 62
     5
 63
     7
 74
     2
 91
        2
 64
     7
 65
   257
 75
     1
175
     1
 42
40.0
 92
        8
 66
     7
 43
1.0
 76
     1
 77
     6
 78
     2
 67
     7
 79
     3
170
     0
171
     0
290
     0
174
     0
 93
        1
 44
0.0
173
     0
291
     0
 45
0.0
1001
ACAD
1000
AcDbSavedByObjectVersion
1070
     0
  0
VISUALSTYLE
  5
35
102
{ACAD_REACTORS
330
2A
102
}
102
{ACAD_XDICTIONARY
360
206
102
}
330
2A
100
AcDbVisualStyle
  2
Dim
 70
    11
 71
     2
 72
     2
 73
     0
 90
        0
 40
-0.6
 41
-30.0
 62
     5
 63
     7
 74
     1
 91
        4
 64
     7
 65
   257
 75
     1
175
     1
 42
1.0
 92
        8
 66
     7
 43
1.0
 76
     1
 77
     6
 78
     2
 67
     7
 79
     5
170
     0
171
     0
290
     0
174
     0
 93
        1
 44
-50.0
173
     0
291
     1
 45
0.0
1001
ACAD
1000
AcDbSavedByObjectVersion
1070
     0
  0
VISUALSTYLE
  5
39
102
{ACAD_REACTORS
330
2A
102
}
102
{ACAD_XDICTIONARY
360
20E
102
}
330
2A
100
AcDbVisualStyle
  2
Facepattern
 70
    15
 71
     2
 72
     2
 73
     0
 90
        0
 40
-0.6
 41
-30.0
 62
     5
 63
     7
 74
     1
 91
        4
 64
     7
 65
   257
 75
     1
175
     1
 42
1.0
 92
        8
 66
     7
 43
1.0
 76
     1
 77
     6
 78
     2
 67
     7
 79
     5
170
     0
171
     0
290
     0
174
     0
 93
        1
 44
0.0
173
     0
291
     1
 45
0.0
1001
ACAD
1000
AcDbSavedByObjectVersion
1070
     0
  0
VISUALSTYLE
  5
2B
102
{ACAD_REACTORS
330
2A
102
}
102
{ACAD_XDICTIONARY
360
1F2
102
}
330
2A
100
AcDbVisualStyle
  2
Flat
 70
     0
 71
     2
 72
     1
 73
     1
 90
        2
 40
-0.6
 41
30.0
 62
     5
 63
     7
 74
     0
 91
        4
 64
     7
 65
   257
 75
     1
175
     1
 42
1.0
 92
        8
 66
     7
 43
1.0
 76
     1
 77
     6
 78
     2
 67
     7
 79
     5
170
     0
171
     0
290
     0
174
     0
 93
       13
 44
0.0
173
     0
291
     1
 45
0.0
1001
ACAD
1000
AcDbSavedByObjectVersion
1070
     0
  0
VISUALSTYLE
  5
2C
102
{ACAD_REACTORS
330
2A
102
}
102
{ACAD_XDICTIONARY
360
1F4
102
}
330
2A
100
AcDbVisualStyle
  2
FlatWithEdges
 70
     1
 71
     2
 72
     1
 73
     1
 90
        2
 40
-0.6
 41
30.0
 62
     5
 63
     7
 74
     1
 91
        4
 64
     7
 65
   257
 75
     1
175
     1
 42
1.0
 92
        0
 66
   257
 43
1.0
 76
     1
 77
     6
 78
     2
 67
     7
 79
     5
170
     0
171
     0
290
     0
174
     0
 93
       13
 44
0.0
173
     0
291
     1
 45
0.0
1001
ACAD
1000
AcDbSavedByObjectVersion
1070
     0
  0
VISUALSTYLE
  5
2D
102
{ACAD_REACTORS
330
2A
102
}
102
{ACAD_XDICTIONARY
360
1F6
102
}
330
2A
100
AcDbVisualStyle
  2
Gouraud
 70
     2
 71
     2
 72
     2
 73
     1
 90
        2
 40
-0.6
 41
30.0
 62
     5
 63
     7
 74
     0
 91
        4
 64
     7
 65
   257
 75
     1
175
     1
 42
1.0
 92
        0
 66
     7
 43
1.0
 76
     1
 77
     6
 78
     2
 67
     7
 79
     5
170
     0
171
     0
290
     0
174
     0
 93
       13
 44
0.0
173
     0
291
     1
 45
0.0
1001
ACAD
1000
AcDbSavedByObjectVersion
1070
     0
  0
VISUALSTYLE
  5
2E
102
{ACAD_REACTORS
330
2A
102
}
102
{ACAD_XDICTIONARY
360
1F8
102
}
330
2A
100
AcDbVisualStyle
  2
GouraudWithEdges
 70
     3
 71
     2
 72
     2
 73
     1
 90
        2
 40
-0.6
 41
30.0
 62
     5
 63
     7
 74
     1
 91
        4
 64
     7
 65
   257
 75
     1
175
     1
 42
1.0
 92
        0
 66
   257
 43
1.0
 76
     1
 77
     6
 78
     2
 67
     7
 79
     5
170
     0
171
     0
290
     0
174
     0
 93
       13
 44
0.0
173
     0
291
     1
 45
0.0
1001
ACAD
1000
AcDbSavedByObjectVersion
1070
     0
  0
VISUALSTYLE
  5
38
102
{ACAD_REACTORS
330
2A
102
}
102
{ACAD_XDICTIONARY
360
20C
102
}
330
2A
100
AcDbVisualStyle
  2
Linepattern
 70
    14
 71
     2
 72
     2
 73
     0
 90
        0
 40
-0.6
 41
-30.0
 62
     5
 63
     7
 74
     1
 91
        4
 64
     7
 65
   257
 75
     7
175
     7
 42
1.0
 92
        8
 66
     7
 43
1.0
 76
     1
 77
     6
 78
     2
 67
     7
 79
     5
170
     0
171
     0
290
     0
174
     0
 93
        1
 44
0.0
173
     0
291
     1
 45
0.0
1001
ACAD
1000
AcDbSavedByObjectVersion
1070
     0
  0
VISUALSTYLE
  5
33
102
{ACAD_REACTORS
330
2A
102
}
102
{ACAD_XDICTIONARY
360
202
102
}
330
2A
100
AcDbVisualStyle
  2
Realistic
 70
     8
 71
     2
 72
     2
 73
     0
 90
        0
 40
-0.6
 41
-30.0
 62
     5
 63
     7
 74
     1
 91
        0
 64
     7
 65
   257
 75
     1
175
     1
 42
1.0
 92
        8
 66
     8
 43
1.0
 76
     1
 77
     6
 78
     2
 67
     7
 79
     5
170
     0
171
     0
290
     0
174
     0
 93
       13
 44
0.0
173
     0
291
     0
 45
0.0
1001
ACAD
1000
AcDbSavedByObjectVersion
1070
     0
  0
VISUALSTYLE
  5
37
102
{ACAD_REACTORS
330
2A
102
}
102
{ACAD_XDICTIONARY
360
20A
102
}
330
2A
100
AcDbVisualStyle
  2
Thicken
 70
    13
 71
     2
 72
     2
 73
     0
 90
        0
 40
-0.6
 41
-30.0
 62
     5
 63
     7
 74
     1
 91
        4
 64
     7
 65
   257
 75
     1
175
     1
 42
1.0
 92
       12
 66
     7
 43
1.0
 76
     1
 77
     6
 78
     2
 67
     7
 79
     5
170
     0
171
     0
290
     0
174
     0
 93
        1
 44
0.0
173
     0
291
     1
 45
0.0
1001
ACAD
1000
AcDbSavedByObjectVersion
1070
     0
  0
DICTIONARYVAR
  5
1F0
102
{ACAD_REACTORS
330
1ED
102
}
330
1ED
100
DictionaryVariables
280
     0
  1
2
  0
DICTIONARYVAR
  5
1F1
102
{ACAD_REACTORS
330
1ED
102
}
330
1ED
100
DictionaryVariables
280
     0
  1
1
  0
DICTIONARY
  5
214
330
3D
100
AcDbDictionary
280
     1
281
     1
  3
ACAD_XREC_ROUNDTRIP
360
215
  0
DICTIONARY
  5
212
330
3C
100
AcDbDictionary
280
     1
281
     1
  3
ACAD_XREC_ROUNDTRIP
360
213
  0
DICTIONARY
  5
216
330
3E
100
AcDbDictionary
280
     1
281
     1
  3
ACAD_XREC_ROUNDTRIP
360
217
  0
DICTIONARY
  5
1FA
330
2F
100
AcDbDictionary
280
     1
281
     1
  3
ACAD_XREC_ROUNDTRIP
360
1FB
  0
DICTIONARY
  5
1FE
330
31
100
AcDbDictionary
280
     1
281
     1
  3
ACAD_XREC_ROUNDTRIP
360
1FF
  0
DICTIONARY
  5
1FC
330
30
100
AcDbDictionary
280
     1
281
     1
  3
ACAD_XREC_ROUNDTRIP
360
1FD
  0
DICTIONARY
  5
200
330
32
100
AcDbDictionary
280
     1
281
     1
  3
ACAD_XREC_ROUNDTRIP
360
201
  0
DICTIONARY
  5
208
330
36
100
AcDbDictionary
280
     1
281
     1
  3
ACAD_XREC_ROUNDTRIP
360
209
  0
DICTIONARY
  5
210
330
3A
100
AcDbDictionary
280
     1
281
     1
  3
ACAD_XREC_ROUNDTRIP
360
211
  0
DICTIONARY
  5
204
330
34
100
AcDbDictionary
280
     1
281
     1
  3
ACAD_XREC_ROUNDTRIP
360
205
  0
DICTIONARY
  5
206
330
35
100
AcDbDictionary
280
     1
281
     1
  3
ACAD_XREC_ROUNDTRIP
360
207
  0
DICTIONARY
  5
20E
330
39
100
AcDbDictionary
280
     1
281
     1
  3
ACAD_XREC_ROUNDTRIP
360
20F
  0
DICTIONARY
  5
1F2
330
2B
100
AcDbDictionary
280
     1
281
     1
  3
ACAD_XREC_ROUNDTRIP
360
1F3
  0
DICTIONARY
  5
1F4
330
2C
100
AcDbDictionary
280
     1
281
     1
  3
ACAD_XREC_ROUNDTRIP
360
1F5
  0
DICTIONARY
  5
1F6
330
2D
100
AcDbDictionary
280
     1
281
     1
  3
ACAD_XREC_ROUNDTRIP
360
1F7
  0
DICTIONARY
  5
1F8
330
2E
100
AcDbDictionary
280
     1
281
     1
  3
ACAD_XREC_ROUNDTRIP
360
1F9
  0
DICTIONARY
  5
20C
330
38
100
AcDbDictionary
280
     1
281
     1
  3
ACAD_XREC_ROUNDTRIP
360
20D
  0
DICTIONARY
  5
202
330
33
100
AcDbDictionary
280
     1
281
     1
  3
ACAD_XREC_ROUNDTRIP
360
203
  0
DICTIONARY
  5
20A
330
37
100
AcDbDictionary
280
     1
281
     1
  3
ACAD_XREC_ROUNDTRIP
360
20B
  0
XRECORD
  5
215
102
{ACAD_REACTORS
330
214
102
}
330
214
100
AcDbXrecord
280
     1
102
MATERIAL
148
0.0
149
0.0
149
0.0
 93
        0
 94
      127
282
     0
 72
     1
 77
     1
171
     1
175
     1
179
     1
273
     0
  0
XRECORD
  5
213
102
{ACAD_REACTORS
330
212
102
}
330
212
100
AcDbXrecord
280
     1
102
MATERIAL
148
0.0
149
0.0
149
0.0
 93
        0
 94
      127
282
     0
 72
     1
 77
     1
171
     1
175
     1
179
     1
273
     0
  0
XRECORD
  5
217
102
{ACAD_REACTORS
330
216
102
}
330
216
100
AcDbXrecord
280
     1
102
MATERIAL
148
0.0
149
0.0
149
0.0
 93
        0
 94
      127
282
     0
 72
     1
 77
     1
171
     1
175
     1
179
     1
273
     0
  0
XRECORD
  5
1FB
102
{ACAD_REACTORS
330
1FA
102
}
330
1FA
100
AcDbXrecord
280
     1
102
RTVSPropertyOp0
 70
     1
102
RTVSPropertyOp1
 70
     1
102
RTVSPropertyOp2
 70
     1
102
RTVSPropertyOp3
 70
     1
102
RTVSPropertyOp4
 70
     1
102
RTVSPropertyOp5
 70
     1
102
RTVSPropertyOp6
 70
     1
102
RTVSPropertyOp7
 70
     1
102
RTVSPropertyOp8
 70
     1
102
RTVSPropertyOp9
 70
     1
102
RTVSPropertyOp10
 70
     1
102
RTVSPropertyOp11
 70
     1
102
RTVSPropertyOp12
 70
     1
102
RTVSPropertyOp13
 70
     1
102
RTVSPropertyOp14
 70
     1
102
RTVSPropertyOp15
 70
     1
102
RTVSPropertyOp16
 70
     1
102
RTVSPropertyOp17
 70
     1
102
RTVSPropertyOp18
 70
     1
102
RTVSPropertyOp19
 70
     1
102
RTVSPropertyOp20
 70
     1
102
RTVSPropertyOp21
 70
     1
102
RTVSPropertyOp22
 70
     1
102
RTVSPropertyOp23
 70
     1
102
RTVSPropertyOp24
 70
     1
102
RTVSPropertyOp25
 70
     1
102
RTVSPropertyOp26
 70
     1
102
RTVSPropertyOp27
 70
     1
102
RTVSPropertyOp28
 70
     1
102
RTVSPropertyOp29
 70
     1
102
RTVSPropertyOp30
 70
     1
102
RTVSPropertyOp31
 70
     1
102
RTVSPropertyOp32
 70
     1
  0
XRECORD
  5
1FF
102
{ACAD_REACTORS
330
1FE
102
}
330
1FE
100
AcDbXrecord
280
     1
102
RTVSPropertyOp0
 70
     1
102
RTVSPropertyOp1
 70
     1
102
RTVSPropertyOp2
 70
     1
102
RTVSPropertyOp3
 70
     1
102
RTVSPropertyOp4
 70
     1
102
RTVSPropertyOp5
 70
     1
102
RTVSPropertyOp6
 70
     1
102
RTVSPropertyOp7
 70
     1
102
RTVSPropertyOp8
 70
     1
102
RTVSPropertyOp9
 70
     1
102
RTVSPropertyOp10
 70
     1
102
RTVSPropertyOp11
 70
     1
102
RTVSPropertyOp12
 70
     1
102
RTVSPropertyOp13
 70
     1
102
RTVSPropertyOp14
 70
     1
102
RTVSPropertyOp15
 70
     1
102
RTVSPropertyOp16
 70
     1
102
RTVSPropertyOp17
 70
     1
102
RTVSPropertyOp18
 70
     1
102
RTVSPropertyOp19
 70
     1
102
RTVSPropertyOp20
 70
     1
102
RTVSPropertyOp21
 70
     1
102
RTVSPropertyOp22
 70
     1
102
RTVSPropertyOp23
 70
     1
102
RTVSPropertyOp24
 70
     1
102
RTVSPropertyOp25
 70
     1
102
RTVSPropertyOp26
 70
     1
102
RTVSPropertyOp27
 70
     1
102
RTVSPropertyOp28
 70
     1
102
RTVSPropertyOp29
 70
     1
102
RTVSPropertyOp30
 70
     1
102
RTVSPropertyOp31
 70
     1
102
RTVSPropertyOp32
 70
     1
  0
XRECORD
  5
1FD
102
{ACAD_REACTORS
330
1FC
102
}
330
1FC
100
AcDbXrecord
280
     1
102
RTVSPropertyOp0
 70
     1
102
RTVSPropertyOp1
 70
     1
102
RTVSPropertyOp2
 70
     1
102
RTVSPropertyOp3
 70
     1
102
RTVSPropertyOp4
 70
     1
102
RTVSPropertyOp5
 70
     1
102
RTVSPropertyOp6
 70
     1
102
RTVSPropertyOp7
 70
     1
102
RTVSPropertyOp8
 70
     1
102
RTVSPropertyOp9
 70
     1
102
RTVSPropertyOp10
 70
     1
102
RTVSPropertyOp11
 70
     1
102
RTVSPropertyOp12
 70
     1
102
RTVSPropertyOp13
 70
     1
102
RTVSPropertyOp14
 70
     1
102
RTVSPropertyOp15
 70
     1
102
RTVSPropertyOp16
 70
     1
102
RTVSPropertyOp17
 70
     1
102
RTVSPropertyOp18
 70
     1
102
RTVSPropertyOp19
 70
     1
102
RTVSPropertyOp20
 70
     1
102
RTVSPropertyOp21
 70
     1
102
RTVSPropertyOp22
 70
     1
102
RTVSPropertyOp23
 70
     1
102
RTVSPropertyOp24
 70
     1
102
RTVSPropertyOp25
 70
     1
102
RTVSPropertyOp26
 70
     1
102
RTVSPropertyOp27
 70
     1
102
RTVSPropertyOp28
 70
     1
102
RTVSPropertyOp29
 70
     1
102
RTVSPropertyOp30
 70
     1
102
RTVSPropertyOp31
 70
     1
102
RTVSPropertyOp32
 70
     1
  0
XRECORD
  5
201
102
{ACAD_REACTORS
330
200
102
}
330
200
100
AcDbXrecord
280
     1
102
RTVSPropertyOp0
 70
     1
102
RTVSPropertyOp1
 70
     1
102
RTVSPropertyOp2
 70
     1
102
RTVSPropertyOp3
 70
     1
102
RTVSPropertyOp4
 70
     1
102
RTVSPropertyOp5
 70
     1
102
RTVSPropertyOp6
 70
     1
102
RTVSPropertyOp7
 70
     1
102
RTVSPropertyOp8
 70
     1
102
RTVSPropertyOp9
 70
     1
102
RTVSPropertyOp10
 70
     1
102
RTVSPropertyOp11
 70
     1
102
RTVSPropertyOp12
 70
     1
102
RTVSPropertyOp13
 70
     1
102
RTVSPropertyOp14
 70
     1
102
RTVSPropertyOp15
 70
     1
102
RTVSPropertyOp16
 70
     1
102
RTVSPropertyOp17
 70
     1
102
RTVSPropertyOp18
 70
     1
102
RTVSPropertyOp19
 70
     1
102
RTVSPropertyOp20
 70
     1
102
RTVSPropertyOp21
 70
     1
102
RTVSPropertyOp22
 70
     1
102
RTVSPropertyOp23
 70
     1
102
RTVSPropertyOp24
 70
     1
102
RTVSPropertyOp25
 70
     1
102
RTVSPropertyOp26
 70
     1
102
RTVSPropertyOp27
 70
     1
102
RTVSPropertyOp28
 70
     1
102
RTVSPropertyOp29
 70
     1
102
RTVSPropertyOp30
 70
     1
102
RTVSPropertyOp31
 70
     1
102
RTVSPropertyOp32
 70
     1
  0
XRECORD
  5
209
102
{ACAD_REACTORS
330
208
102
}
330
208
100
AcDbXrecord
280
     1
102
RTVSPropertyOp0
 70
     1
102
RTVSPropertyOp1
 70
     1
102
RTVSPropertyOp2
 70
     1
102
RTVSPropertyOp3
 70
     1
102
RTVSPropertyOp4
 70
     1
102
RTVSPropertyOp5
 70
     1
102
RTVSPropertyOp6
 70
     1
102
RTVSPropertyOp7
 70
     1
102
RTVSPropertyOp8
 70
     1
102
RTVSPropertyOp9
 70
     1
102
RTVSPropertyOp10
 70
     1
102
RTVSPropertyOp11
 70
     1
102
RTVSPropertyOp12
 70
     1
102
RTVSPropertyOp13
 70
     1
102
RTVSPropertyOp14
 70
     1
102
RTVSPropertyOp15
 70
     1
102
RTVSPropertyOp16
 70
     1
102
RTVSPropertyOp17
 70
     1
102
RTVSPropertyOp18
 70
     1
102
RTVSPropertyOp19
 70
     1
102
RTVSPropertyOp20
 70
     1
102
RTVSPropertyOp21
 70
     1
102
RTVSPropertyOp22
 70
     1
102
RTVSPropertyOp23
 70
     1
102
RTVSPropertyOp24
 70
     1
102
RTVSPropertyOp25
 70
     1
102
RTVSPropertyOp26
 70
     1
102
RTVSPropertyOp27
 70
     1
102
RTVSPropertyOp28
 70
     1
102
RTVSPropertyOp29
 70
     1
102
RTVSPropertyOp30
 70
     1
102
RTVSPropertyOp31
 70
     1
102
RTVSPropertyOp32
 70
     1
  0
XRECORD
  5
211
102
{ACAD_REACTORS
330
210
102
}
330
210
100
AcDbXrecord
280
     1
102
RTVSPropertyOp0
 70
     1
102
RTVSPropertyOp1
 70
     1
102
RTVSPropertyOp2
 70
     1
102
RTVSPropertyOp3
 70
     1
102
RTVSPropertyOp4
 70
     1
102
RTVSPropertyOp5
 70
     1
102
RTVSPropertyOp6
 70
     1
102
RTVSPropertyOp7
 70
     1
102
RTVSPropertyOp8
 70
     1
102
RTVSPropertyOp9
 70
     1
102
RTVSPropertyOp10
 70
     1
102
RTVSPropertyOp11
 70
     1
102
RTVSPropertyOp12
 70
     1
102
RTVSPropertyOp13
 70
     1
102
RTVSPropertyOp14
 70
     1
102
RTVSPropertyOp15
 70
     1
102
RTVSPropertyOp16
 70
     1
102
RTVSPropertyOp17
 70
     1
102
RTVSPropertyOp18
 70
     1
102
RTVSPropertyOp19
 70
     1
102
RTVSPropertyOp20
 70
     1
102
RTVSPropertyOp21
 70
     1
102
RTVSPropertyOp22
 70
     1
102
RTVSPropertyOp23
 70
     1
102
RTVSPropertyOp24
 70
     1
102
RTVSPropertyOp25
 70
     1
102
RTVSPropertyOp26
 70
     1
102
RTVSPropertyOp27
 70
     1
102
RTVSPropertyOp28
 70
     1
102
RTVSPropertyOp29
 70
     1
102
RTVSPropertyOp30
 70
     1
102
RTVSPropertyOp31
 70
     1
102
RTVSPropertyOp32
 70
     1
  0
XRECORD
  5
205
102
{ACAD_REACTORS
330
204
102
}
330
204
100
AcDbXrecord
280
     1
102
RTVSPropertyOp0
 70
     1
102
RTVSPropertyOp1
 70
     1
102
RTVSPropertyOp2
 70
     1
102
RTVSPropertyOp3
 70
     1
102
RTVSPropertyOp4
 70
     1
102
RTVSPropertyOp5
 70
     1
102
RTVSPropertyOp6
 70
     1
102
RTVSPropertyOp7
 70
     1
102
RTVSPropertyOp8
 70
     1
102
RTVSPropertyOp9
 70
     1
102
RTVSPropertyOp10
 70
     1
102
RTVSPropertyOp11
 70
     1
102
RTVSPropertyOp12
 70
     1
102
RTVSPropertyOp13
 70
     1
102
RTVSPropertyOp14
 70
     1
102
RTVSPropertyOp15
 70
     1
102
RTVSPropertyOp16
 70
     1
102
RTVSPropertyOp17
 70
     1
102
RTVSPropertyOp18
 70
     1
102
RTVSPropertyOp19
 70
     1
102
RTVSPropertyOp20
 70
     1
102
RTVSPropertyOp21
 70
     1
102
RTVSPropertyOp22
 70
     1
102
RTVSPropertyOp23
 70
     1
102
RTVSPropertyOp24
 70
     1
102
RTVSPropertyOp25
 70
     1
102
RTVSPropertyOp26
 70
     1
102
RTVSPropertyOp27
 70
     1
102
RTVSPropertyOp28
 70
     1
102
RTVSPropertyOp29
 70
     1
102
RTVSPropertyOp30
 70
     1
102
RTVSPropertyOp31
 70
     1
102
RTVSPropertyOp32
 70
     1
  0
XRECORD
  5
207
102
{ACAD_REACTORS
330
206
102
}
330
206
100
AcDbXrecord
280
     1
102
RTVSPropertyOp0
 70
     1
102
RTVSPropertyOp1
 70
     1
102
RTVSPropertyOp2
 70
     1
102
RTVSPropertyOp3
 70
     1
102
RTVSPropertyOp4
 70
     1
102
RTVSPropertyOp5
 70
     1
102
RTVSPropertyOp6
 70
     1
102
RTVSPropertyOp7
 70
     1
102
RTVSPropertyOp8
 70
     1
102
RTVSPropertyOp9
 70
     1
102
RTVSPropertyOp10
 70
     1
102
RTVSPropertyOp11
 70
     1
102
RTVSPropertyOp12
 70
     1
102
RTVSPropertyOp13
 70
     1
102
RTVSPropertyOp14
 70
     1
102
RTVSPropertyOp15
 70
     1
102
RTVSPropertyOp16
 70
     1
102
RTVSPropertyOp17
 70
     1
102
RTVSPropertyOp18
 70
     1
102
RTVSPropertyOp19
 70
     1
102
RTVSPropertyOp20
 70
     1
102
RTVSPropertyOp21
 70
     1
102
RTVSPropertyOp22
 70
     1
102
RTVSPropertyOp23
 70
     1
102
RTVSPropertyOp24
 70
     1
102
RTVSPropertyOp25
 70
     1
102
RTVSPropertyOp26
 70
     1
102
RTVSPropertyOp27
 70
     1
102
RTVSPropertyOp28
 70
     1
102
RTVSPropertyOp29
 70
     1
102
RTVSPropertyOp30
 70
     1
102
RTVSPropertyOp31
 70
     1
102
RTVSPropertyOp32
 70
     1
  0
XRECORD
  5
20F
102
{ACAD_REACTORS
330
20E
102
}
330
20E
100
AcDbXrecord
280
     1
102
RTVSPropertyOp0
 70
     1
102
RTVSPropertyOp1
 70
     1
102
RTVSPropertyOp2
 70
     1
102
RTVSPropertyOp3
 70
     1
102
RTVSPropertyOp4
 70
     1
102
RTVSPropertyOp5
 70
     1
102
RTVSPropertyOp6
 70
     1
102
RTVSPropertyOp7
 70
     1
102
RTVSPropertyOp8
 70
     1
102
RTVSPropertyOp9
 70
     1
102
RTVSPropertyOp10
 70
     1
102
RTVSPropertyOp11
 70
     1
102
RTVSPropertyOp12
 70
     1
102
RTVSPropertyOp13
 70
     1
102
RTVSPropertyOp14
 70
     1
102
RTVSPropertyOp15
 70
     1
102
RTVSPropertyOp16
 70
     1
102
RTVSPropertyOp17
 70
     1
102
RTVSPropertyOp18
 70
     1
102
RTVSPropertyOp19
 70
     1
102
RTVSPropertyOp20
 70
     1
102
RTVSPropertyOp21
 70
     1
102
RTVSPropertyOp22
 70
     1
102
RTVSPropertyOp23
 70
     1
102
RTVSPropertyOp24
 70
     1
102
RTVSPropertyOp25
 70
     1
102
RTVSPropertyOp26
 70
     1
102
RTVSPropertyOp27
 70
     1
102
RTVSPropertyOp28
 70
     1
102
RTVSPropertyOp29
 70
     1
102
RTVSPropertyOp30
 70
     1
102
RTVSPropertyOp31
 70
     1
102
RTVSPropertyOp32
 70
     1
  0
XRECORD
  5
1F3
102
{ACAD_REACTORS
330
1F2
102
}
330
1F2
100
AcDbXrecord
280
     1
102
RTVSPropertyOp0
 70
     1
102
RTVSPropertyOp1
 70
     1
102
RTVSPropertyOp2
 70
     1
102
RTVSPropertyOp3
 70
     1
102
RTVSPropertyOp4
 70
     1
102
RTVSPropertyOp5
 70
     1
102
RTVSPropertyOp6
 70
     1
102
RTVSPropertyOp7
 70
     1
102
RTVSPropertyOp8
 70
     1
102
RTVSPropertyOp9
 70
     1
102
RTVSPropertyOp10
 70
     1
102
RTVSPropertyOp11
 70
     1
102
RTVSPropertyOp12
 70
     1
102
RTVSPropertyOp13
 70
     1
102
RTVSPropertyOp14
 70
     1
102
RTVSPropertyOp15
 70
     1
102
RTVSPropertyOp16
 70
     1
102
RTVSPropertyOp17
 70
     1
102
RTVSPropertyOp18
 70
     1
102
RTVSPropertyOp19
 70
     1
102
RTVSPropertyOp20
 70
     1
102
RTVSPropertyOp21
 70
     1
102
RTVSPropertyOp22
 70
     1
102
RTVSPropertyOp23
 70
     1
102
RTVSPropertyOp24
 70
     1
102
RTVSPropertyOp25
 70
     1
102
RTVSPropertyOp26
 70
     1
102
RTVSPropertyOp27
 70
     1
102
RTVSPropertyOp28
 70
     1
102
RTVSPropertyOp29
 70
     1
102
RTVSPropertyOp30
 70
     1
102
RTVSPropertyOp31
 70
     1
102
RTVSPropertyOp32
 70
     1
  0
XRECORD
  5
1F5
102
{ACAD_REACTORS
330
1F4
102
}
330
1F4
100
AcDbXrecord
280
     1
102
RTVSPropertyOp0
 70
     1
102
RTVSPropertyOp1
 70
     1
102
RTVSPropertyOp2
 70
     1
102
RTVSPropertyOp3
 70
     1
102
RTVSPropertyOp4
 70
     1
102
RTVSPropertyOp5
 70
     1
102
RTVSPropertyOp6
 70
     1
102
RTVSPropertyOp7
 70
     1
102
RTVSPropertyOp8
 70
     1
102
RTVSPropertyOp9
 70
     1
102
RTVSPropertyOp10
 70
     1
102
RTVSPropertyOp11
 70
     1
102
RTVSPropertyOp12
 70
     1
102
RTVSPropertyOp13
 70
     1
102
RTVSPropertyOp14
 70
     1
102
RTVSPropertyOp15
 70
     1
102
RTVSPropertyOp16
 70
     1
102
RTVSPropertyOp17
 70
     1
102
RTVSPropertyOp18
 70
     1
102
RTVSPropertyOp19
 70
     1
102
RTVSPropertyOp20
 70
     1
102
RTVSPropertyOp21
 70
     1
102
RTVSPropertyOp22
 70
     1
102
RTVSPropertyOp23
 70
     1
102
RTVSPropertyOp24
 70
     1
102
RTVSPropertyOp25
 70
     1
102
RTVSPropertyOp26
 70
     1
102
RTVSPropertyOp27
 70
     1
102
RTVSPropertyOp28
 70
     1
102
RTVSPropertyOp29
 70
     1
102
RTVSPropertyOp30
 70
     1
102
RTVSPropertyOp31
 70
     1
102
RTVSPropertyOp32
 70
     1
  0
XRECORD
  5
1F7
102
{ACAD_REACTORS
330
1F6
102
}
330
1F6
100
AcDbXrecord
280
     1
102
RTVSPropertyOp0
 70
     1
102
RTVSPropertyOp1
 70
     1
102
RTVSPropertyOp2
 70
     1
102
RTVSPropertyOp3
 70
     1
102
RTVSPropertyOp4
 70
     1
102
RTVSPropertyOp5
 70
     1
102
RTVSPropertyOp6
 70
     1
102
RTVSPropertyOp7
 70
     1
102
RTVSPropertyOp8
 70
     1
102
RTVSPropertyOp9
 70
     1
102
RTVSPropertyOp10
 70
     1
102
RTVSPropertyOp11
 70
     1
102
RTVSPropertyOp12
 70
     1
102
RTVSPropertyOp13
 70
     1
102
RTVSPropertyOp14
 70
     1
102
RTVSPropertyOp15
 70
     1
102
RTVSPropertyOp16
 70
     1
102
RTVSPropertyOp17
 70
     1
102
RTVSPropertyOp18
 70
     1
102
RTVSPropertyOp19
 70
     1
102
RTVSPropertyOp20
 70
     1
102
RTVSPropertyOp21
 70
     1
102
RTVSPropertyOp22
 70
     1
102
RTVSPropertyOp23
 70
     1
102
RTVSPropertyOp24
 70
     1
102
RTVSPropertyOp25
 70
     1
102
RTVSPropertyOp26
 70
     1
102
RTVSPropertyOp27
 70
     1
102
RTVSPropertyOp28
 70
     1
102
RTVSPropertyOp29
 70
     1
102
RTVSPropertyOp30
 70
     1
102
RTVSPropertyOp31
 70
     1
102
RTVSPropertyOp32
 70
     1
  0
XRECORD
  5
1F9
102
{ACAD_REACTORS
330
1F8
102
}
330
1F8
100
AcDbXrecord
280
     1
102
RTVSPropertyOp0
 70
     1
102
RTVSPropertyOp1
 70
     1
102
RTVSPropertyOp2
 70
     1
102
RTVSPropertyOp3
 70
     1
102
RTVSPropertyOp4
 70
     1
102
RTVSPropertyOp5
 70
     1
102
RTVSPropertyOp6
 70
     1
102
RTVSPropertyOp7
 70
     1
102
RTVSPropertyOp8
 70
     1
102
RTVSPropertyOp9
 70
     1
102
RTVSPropertyOp10
 70
     1
102
RTVSPropertyOp11
 70
     1
102
RTVSPropertyOp12
 70
     1
102
RTVSPropertyOp13
 70
     1
102
RTVSPropertyOp14
 70
     1
102
RTVSPropertyOp15
 70
     1
102
RTVSPropertyOp16
 70
     1
102
RTVSPropertyOp17
 70
     1
102
RTVSPropertyOp18
 70
     1
102
RTVSPropertyOp19
 70
     1
102
RTVSPropertyOp20
 70
     1
102
RTVSPropertyOp21
 70
     1
102
RTVSPropertyOp22
 70
     1
102
RTVSPropertyOp23
 70
     1
102
RTVSPropertyOp24
 70
     1
102
RTVSPropertyOp25
 70
     1
102
RTVSPropertyOp26
 70
     1
102
RTVSPropertyOp27
 70
     1
102
RTVSPropertyOp28
 70
     1
102
RTVSPropertyOp29
 70
     1
102
RTVSPropertyOp30
 70
     1
102
RTVSPropertyOp31
 70
     1
102
RTVSPropertyOp32
 70
     1
  0
XRECORD
  5
20D
102
{ACAD_REACTORS
330
20C
102
}
330
20C
100
AcDbXrecord
280
     1
102
RTVSPropertyOp0
 70
     1
102
RTVSPropertyOp1
 70
     1
102
RTVSPropertyOp2
 70
     1
102
RTVSPropertyOp3
 70
     1
102
RTVSPropertyOp4
 70
     1
102
RTVSPropertyOp5
 70
     1
102
RTVSPropertyOp6
 70
     1
102
RTVSPropertyOp7
 70
     1
102
RTVSPropertyOp8
 70
     1
102
RTVSPropertyOp9
 70
     1
102
RTVSPropertyOp10
 70
     1
102
RTVSPropertyOp11
 70
     1
102
RTVSPropertyOp12
 70
     1
102
RTVSPropertyOp13
 70
     1
102
RTVSPropertyOp14
 70
     1
102
RTVSPropertyOp15
 70
     1
102
RTVSPropertyOp16
 70
     1
102
RTVSPropertyOp17
 70
     1
102
RTVSPropertyOp18
 70
     1
102
RTVSPropertyOp19
 70
     1
102
RTVSPropertyOp20
 70
     1
102
RTVSPropertyOp21
 70
     1
102
RTVSPropertyOp22
 70
     1
102
RTVSPropertyOp23
 70
     1
102
RTVSPropertyOp24
 70
     1
102
RTVSPropertyOp25
 70
     1
102
RTVSPropertyOp26
 70
     1
102
RTVSPropertyOp27
 70
     1
102
RTVSPropertyOp28
 70
     1
102
RTVSPropertyOp29
 70
     1
102
RTVSPropertyOp30
 70
     1
102
RTVSPropertyOp31
 70
     1
102
RTVSPropertyOp32
 70
     1
  0
XRECORD
  5
203
102
{ACAD_REACTORS
330
202
102
}
330
202
100
AcDbXrecord
280
     1
102
RTVSPropertyOp0
 70
     1
102
RTVSPropertyOp1
 70
     1
102
RTVSPropertyOp2
 70
     1
102
RTVSPropertyOp3
 70
     1
102
RTVSPropertyOp4
 70
     1
102
RTVSPropertyOp5
 70
     1
102
RTVSPropertyOp6
 70
     1
102
RTVSPropertyOp7
 70
     1
102
RTVSPropertyOp8
 70
     1
102
RTVSPropertyOp9
 70
     1
102
RTVSPropertyOp10
 70
     1
102
RTVSPropertyOp11
 70
     1
102
RTVSPropertyOp12
 70
     1
102
RTVSPropertyOp13
 70
     1
102
RTVSPropertyOp14
 70
     1
102
RTVSPropertyOp15
 70
     1
102
RTVSPropertyOp16
 70
     1
102
RTVSPropertyOp17
 70
     1
102
RTVSPropertyOp18
 70
     1
102
RTVSPropertyOp19
 70
     1
102
RTVSPropertyOp20
 70
     1
102
RTVSPropertyOp21
 70
     1
102
RTVSPropertyOp22
 70
     1
102
RTVSPropertyOp23
 70
     1
102
RTVSPropertyOp24
 70
     1
102
RTVSPropertyOp25
 70
     1
102
RTVSPropertyOp26
 70
     1
102
RTVSPropertyOp27
 70
     1
102
RTVSPropertyOp28
 70
     1
102
RTVSPropertyOp29
 70
     1
102
RTVSPropertyOp30
 70
     1
102
RTVSPropertyOp31
 70
     1
102
RTVSPropertyOp32
 70
     1
  0
XRECORD
  5
20B
102
{ACAD_REACTORS
330
20A
102
}
330
20A
100
AcDbXrecord
280
     1
102
RTVSPropertyOp0
 70
     1
102
RTVSPropertyOp1
 70
     1
102
RTVSPropertyOp2
 70
     1
102
RTVSPropertyOp3
 70
     1
102
RTVSPropertyOp4
 70
     1
102
RTVSPropertyOp5
 70
     1
102
RTVSPropertyOp6
 70
     1
102
RTVSPropertyOp7
 70
     1
102
RTVSPropertyOp8
 70
     1
102
RTVSPropertyOp9
 70
     1
102
RTVSPropertyOp10
 70
     1
102
RTVSPropertyOp11
 70
     1
102
RTVSPropertyOp12
 70
     1
102
RTVSPropertyOp13
 70
     1
102
RTVSPropertyOp14
 70
     1
102
RTVSPropertyOp15
 70
     1
102
RTVSPropertyOp16
 70
     1
102
RTVSPropertyOp17
 70
     1
102
RTVSPropertyOp18
 70
     1
102
RTVSPropertyOp19
 70
     1
102
RTVSPropertyOp20
 70
     1
102
RTVSPropertyOp21
 70
     1
102
RTVSPropertyOp22
 70
     1
102
RTVSPropertyOp23
 70
     1
102
RTVSPropertyOp24
 70
     1
102
RTVSPropertyOp25
 70
     1
102
RTVSPropertyOp26
 70
     1
102
RTVSPropertyOp27
 70
     1
102
RTVSPropertyOp28
 70
     1
102
RTVSPropertyOp29
 70
     1
102
RTVSPropertyOp30
 70
     1
102
RTVSPropertyOp31
 70
     1
102
RTVSPropertyOp32
 70
     1
  0
ENDSEC
  0
EOF
