  0
SECTION
  2
HEADER
  9
$ACADVER
  1
AC1014
  9
$ACADMAINTVER
 70
             0
  9
$DWGCODEPAGE
  3
ANSI_1252
  9
$INSBASE
 10
0.0
 20
0.0
 30
0.0
  9
$EXTMIN
 10
-76.50082507583488
 20
-322.25780458418558
 30
0.0
  9
$EXTMAX
 10
98.46004084601398
 20
65.88373241581478
 30
0.0
  9
$LIMMIN
 10
0.0
 20
0.0
  9
$LIMMAX
 10
0.0
 20
0.0
  9
$ORTHOMODE
 70
             0
  9
$REGENMODE
 70
             1
  9
$FILLMODE
 70
             1
  9
$QTEXTMODE
 70
             0
  9
$MIRRTEXT
 70
             1
  9
$DRAGMODE
 70
             2
  9
$LTSCALE
 40
1.0
  9
$OSMODE
 70
             0
  9
$ATTMODE
 70
             1
  9
$TEXTSIZE
 40
0.2
  9
$TRACEWID
 40
0.05
  9
$TEXTSTYLE
  7
STANDARD
  9
$CLAYER
  8
0
  9
$CELTYPE
  6
CONTINUOUS
  9
$CECOLOR
 62
           256
  9
$CELTSCALE
 40
1.0
  9
$DELOBJ
 70
             1
  9
$DISPSILH
 70
             0
  9
$DIMSCALE
 40
1.0
  9
$DIMASZ
 40
0.18
  9
$DIMEXO
 40
0.0625
  9
$DIMDLI
 40
0.38
  9
$DIMRND
 40
0.0
  9
$DIMDLE
 40
0.0
  9
$DIMEXE
 40
0.18
  9
$DIMTP
 40
0.0
  9
$DIMTM
 40
0.0
  9
$DIMTXT
 40
0.18
  9
$DIMCEN
 40
0.09
  9
$DIMTSZ
 40
0.0
  9
$DIMTOL
 70
             0
  9
$DIMLIM
 70
             0
  9
$DIMTIH
 70
             1
  9
$DIMTOH
 70
             1
  9
$DIMSE1
 70
             0
  9
$DIMSE2
 70
             0
  9
$DIMTAD
 70
             0
  9
$DIMZIN
 70
             0
  9
$DIMBLK
  1

  9
$DIMASO
 70
             1
  9
$DIMSHO
 70
             1
  9
$DIMPOST
  1

  9
$DIMAPOST
  1

  9
$DIMALT
 70
             0
  9
$DIMALTD
 70
             2
  9
$DIMALTF
 40
25.4
  9
$DIMLFAC
 40
1.0
  9
$DIMTOFL
 70
             0
  9
$DIMTVP
 40
0.0
  9
$DIMTIX
 70
             0
  9
$DIMSOXD
 70
             0
  9
$DIMSAH
 70
             0
  9
$DIMBLK1
  1

  9
$DIMBLK2
  1

  9
$DIMSTYLE
  2
STANDARD
  9
$DIMCLRD
 70
             0
  9
$DIMCLRE
 70
             0
  9
$DIMCLRT
 70
             0
  9
$DIMTFAC
 40
1.0
  9
$DIMGAP
 40
0.09
  9
$DIMJUST
 70
             0
  9
$DIMSD1
 70
             0
  9
$DIMSD2
 70
             0
  9
$DIMTOLJ
 70
             1
  9
$DIMTZIN
 70
             0
  9
$DIMALTZ
 70
             0
  9
$DIMALTTZ
 70
             0
  9
$DIMFIT
 70
             3
  9
$DIMUPT
 70
             0
  9
$DIMUNIT
 70
             2
  9
$DIMDEC
 70
             4
  9
$DIMTDEC
 70
             4
  9
$DIMALTU
 70
             2
  9
$DIMALTTD
 70
             2
  9
$DIMTXSTY
  7
STANDARD
  9
$DIMAUNIT
 70
             0
  9
$LUNITS
 70
             2
  9
$LUPREC
 70
             4
  9
$SKETCHINC
 40
0.1
  9
$FILLETRAD
 40
0.0
  9
$AUNITS
 70
             0
  9
$AUPREC
 70
             0
  9
$MENU
  1
acad
  9
$ELEVATION
 40
0.0
  9
$PELEVATION
 40
0.0
  9
$THICKNESS
 40
0.0
  9
$LIMCHECK
 70
             0
  9
$BLIPMODE
 70
             1
  9
$CHAMFERA
 40
0.0
  9
$CHAMFERB
 40
0.0
  9
$CHAMFERC
 40
0.0
  9
$CHAMFERD
 40
0.0
  9
$SKPOLY
 70
             0
  9
$TDCREATE
 40
0.000000000
  9
$TDUPDATE
 40
0.000000000
  9
$TDINDWG
 40
0.0000000000
  9
$TDUSRTIMER
 40
0.0000000000
  9
$USRTIMER
 70
             1
  9
$ANGBASE
 50
0.0
  9
$ANGDIR
 70
             0
  9
$PDMODE
 70
             0
  9
$PDSIZE
 40
0.0
  9
$PLINEWID
 40
0.0
  9
$COORDS
 70
             0
  9
$SPLFRAME
 70
             0
  9
$SPLINETYPE
 70
             6
  9
$SPLINESEGS
 70
             8
  9
$ATTDIA
 70
             0
  9
$ATTREQ
 70
             1
  9
$HANDLING
 70
             1
  9
$HANDSEED
  5
CF
  9
$SURFTAB1
 70
             6
  9
$SURFTAB2
 70
             6
  9
$SURFTYPE
 70
             6
  9
$SURFU
 70
             6
  9
$SURFV
 70
             6
  9
$UCSNAME
  2

  9
$UCSORG
 10
0.0
 20
0.0
 30
0.0
  9
$UCSXDIR
 10
1.0
 20
0.0
 30
0.0
  9
$UCSYDIR
 10
0.0
 20
1.0
 30
0.0
  9
$PUCSNAME
  2

  9
$PUCSORG
 10
0.0
 20
0.0
 30
0.0
  9
$PUCSXDIR
 10
1.0
 20
0.0
 30
0.0
  9
$PUCSYDIR
 10
0.0
 20
1.0
 30
0.0
  9
$USERI1
 70
             0
  9
$USERI2
 70
             0
  9
$USERI3
 70
             0
  9
$USERI4
 70
             0
  9
$USERI5
 70
             0
  9
$USERR1
 40
12.01
  9
$USERR2
 40
0.0
  9
$USERR3
 40
0.0
  9
$USERR4
 40
0.0
  9
$USERR5
 40
0.0
  9
$WORLDVIEW
 70
             1
  9
$SHADEDGE
 70
             3
  9
$SHADEDIF
 70
            70
  9
$TILEMODE
 70
             1
  9
$MAXACTVP
 70
            16
  9
$PINSBASE
 10
0.0
 20
0.0
 30
0.0
  9
$PLIMCHECK
 70
             0
  9
$PEXTMIN
 10
1.00000000000000E+20
 20
1.00000000000000E+20
 30
1.00000000000000E+20
  9
$PEXTMAX
 10
-1.00000000000000E+20
 20
-1.00000000000000E+20
 30
-1.00000000000000E+20
  9
$PLIMMIN
 10
0.0
 20
0.0
  9
$PLIMMAX
 10
12.0
 20
9.0
  9
$UNITMODE
 70
             0
  9
$VISRETAIN
 70
             0
  9
$PLINEGEN
 70
             1
  9
$PSLTSCALE
 70
             0
  9
$TREEDEPTH
 70
          3020
  9
$PICKSTYLE
 70
             1
  9
$CMLSTYLE
  2
STANDARD
  9
$CMLJUST
 70
             0
  9
$CMLSCALE
 40
1.0
  9
$PROXYGRAPHICS
 70
             0
  9
$MEASUREMENT
 70
             1
  0
ENDSEC
  0
SECTION
  2
CLASSES
  0
CLASS
  1
LWPOLYLINE
  2
AcDbPolyline
  3
"AutoCAD"
 90
        0
280
             0
281
             1
  0
CLASS
  1
IMAGE
  2
AcDbRasterImage
  3
ISM
 90
      127
280
             0
281
             1
  0
CLASS
  1
OLE2FRAME
  2
AcDbOle2Frame
  3
""
 90
        0
280
             0
281
             1
  0
CLASS
  1
HATCH
  2
AcDbHatch
  3
"ACAD_SEDONA"
 90
        0
280
             0
281
             1
  0
CLASS
  1
DICTIONARYVAR
  2
AcDbDictionaryVar
  3
"AutoCAD"
 90
        0
280
             0
281
             0
  0
CLASS
  1
RASTERVARIABLES
  2
AcDbRasterVariables
  3
ISM
 90
        0
280
             0
281
             0
  0
CLASS
  1
IMAGEDEF
  2
AcDbRasterImageDef
  3
ISM
 90
        0
280
             0
281
             0
  0
CLASS
  1
IMAGEDEF_REACTOR
  2
AcDbRasterImageDefReactor
  3
ISM
 90
        1
280
             0
281
             0
  0
CLASS
  1
IDBUFFER
  2
AcDbIdBuffer
  3
"Acad"
 90
        0
280
             0
281
             0
  0
CLASS
  1
SPATIAL_FILTER
  2
AcDbSpatialFilter
  3
"Acad"
 90
        0
280
             0
281
             0
  0
CLASS
  1
XRECORD
  2
AcDbXrecord
  3
"<Built In>"
 90
        0
280
             0
281
             0
  0
CLASS
  1
SORTENTSTABLE
  2
AcDbSortentsTable
  3
"AutoCAD"
 90
        0
280
             0
281
             0
  0
CLASS
  1
LAYER_INDEX
  2
AcDbLayerIndex
  3
"Acad"
 90
        0
280
             0
281
             0
  0
CLASS
  1
SPATIAL_INDEX
  2
AcDbSpatialIndex
  3
"Acad"
 90
        0
280
             0
281
             0
  0
CLASS
  1
OBJECT_PTR
  2
CAseDLPNTableRecord
  3
"ASE-LPNTableRecord"
 90
        1
280
             0
281
             0
  0
CLASS
  1
LAYOUT
  2
AcDbLayout
  3
"AutoCAD 2000"
 90
        0
280
             0
281
             0
  0
CLASS
  1
PLOTSETTINGS
  2
AcDbPlotSettings
  3
"AutoCAD 2000"
 90
        0
280
             0
281
             0
  0
CLASS
  1
ACDBDICTIONARYWDFLT
  2
AcDbDictionaryWithDefault
  3
"AutoCAD 2000"
 90
        0
280
             0
281
             0
  0
CLASS
  1
ACDBPLACEHOLDER
  2
AcDbPlaceHolder
  3
"AutoCAD 2000"
 90
        0
280
             0
281
             0
  0
ENDSEC
  0
SECTION
  2
TABLES
  0
TABLE
  2
VPORT
  5
7
100
AcDbSymbolTable
 70
             1
  0
VPORT
  5
15
100
AcDbSymbolTableRecord
100
AcDbViewportTableRecord
  2
*ACTIVE
 70
             0
 10
0.0
 20
0.0
 11
1.0
 21
1.0
 12
10.97960788508955
 22
-128.18703608418539
 13
0.0
 23
0.0
 14
1.0
 24
1.0
 15
0.0
 25
0.0
 16
0.0
 26
0.0
 36
1.0
 17
0.0
 27
0.0
 37
0.0
 40
426.95569070000045
 41
1.60267857142857
 42
50.0
 43
0.0
 44
0.0
 50
0.0
 51
0.0
 71
             0
 72
           100
 73
             1
 74
             1
 75
             0
 76
             0
 77
             0
 78
             0
  0
ENDTAB
  0
TABLE
  2
LTYPE
  5
4
100
AcDbSymbolTable
 70
            10
  0
LTYPE
  5
11
100
AcDbSymbolTableRecord
100
AcDbLinetypeTableRecord
  2
BYBLOCK
 70
            64
  3

 72
            65
 73
             0
 40
0.0
  0
LTYPE
  5
12
100
AcDbSymbolTableRecord
100
AcDbLinetypeTableRecord
  2
BYLAYER
 70
            64
  3

 72
            65
 73
             0
 40
0.0
  0
LTYPE
  5
13
100
AcDbSymbolTableRecord
100
AcDbLinetypeTableRecord
  2
CONTINUOUS
 70
            64
  3
Solid line
 72
            65
 73
             0
 40
0.0
  0
LTYPE
  5
1D
100
AcDbSymbolTableRecord
100
AcDbLinetypeTableRecord
  2
DASHED
 70
            64
  3
Dashed
 72
            65
 73
             2
 40
15.0
 49
7.0
 74
             0
 49
-8.0
 74
             0
  0
LTYPE
  5
1E
100
AcDbSymbolTableRecord
100
AcDbLinetypeTableRecord
  2
DOTTED
 70
            64
  3
Dotted
 72
            65
 73
             2
 40
1.0
 49
0.0
 74
             0
 49
-1.0
 74
             0
  0
LTYPE
  5
1F
100
AcDbSymbolTableRecord
100
AcDbLinetypeTableRecord
  2
DOT_CENTER
 70
            64
  3
Dot_Center
 72
            65
 73
             4
 40
14.0
 49
12.0
 74
             0
 49
-1.0
 74
             0
 49
0.0
 74
             0
 49
-1.0
 74
             0
  0
LTYPE
  5
20
100
AcDbSymbolTableRecord
100
AcDbLinetypeTableRecord
  2
LONG_DASHED
 70
            64
  3
Long_Dashed
 72
            65
 73
             2
 40
15.0
 49
10.0
 74
             0
 49
-5.0
 74
             0
  0
LTYPE
  5
21
100
AcDbSymbolTableRecord
100
AcDbLinetypeTableRecord
  2
DASH_CENTER
 70
            64
  3
Dash_Center
 72
            65
 73
             4
 40
14.0
 49
11.0
 74
             0
 49
-1.0
 74
             0
 49
1.0
 74
             0
 49
-1.0
 74
             0
  0
LTYPE
  5
22
100
AcDbSymbolTableRecord
100
AcDbLinetypeTableRecord
  2
PHANTOM
 70
            64
  3
Phantom
 72
            65
 73
             6
 40
13.0
 49
10.0
 74
             0
 49
-1.0
 74
             0
 49
0.0
 74
             0
 49
-1.0
 74
             0
 49
0.0
 74
             0
 49
-1.0
 74
             0
  0
LTYPE
  5
23
100
AcDbSymbolTableRecord
100
AcDbLinetypeTableRecord
  2
CENTER_DASH_DASH
 70
            64
  3
Center_Dash_Dash
 72
            65
 73
             6
 40
14.0
 49
9.0
 74
             0
 49
-1.0
 74
             0
 49
1.0
 74
             0
 49
-1.0
 74
             0
 49
1.0
 74
             0
 49
-1.0
 74
             0
  0
ENDTAB
  0
TABLE
  2
LAYER
  5
2
100
AcDbSymbolTable
 70
             7
  0
LAYER
  5
14
100
AcDbSymbolTableRecord
100
AcDbLayerTableRecord
  2
0
 70
             0
 62
             7
  6
CONTINUOUS
  0
LAYER
  5
24
100
AcDbSymbolTableRecord
100
AcDbLayerTableRecord
  2
1
 70
             0
 62
             7
  6
CONTINUOUS
  0
LAYER
  5
25
100
AcDbSymbolTableRecord
100
AcDbLayerTableRecord
  2
LC-001-002-----0
 70
             0
 62
             7
  6
CONTINUOUS
  0
LAYER
  5
26
100
AcDbSymbolTableRecord
100
AcDbLayerTableRecord
  2
LC-002-002-RND-0
 70
             0
 62
             7
  6
CONTINUOUS
  0
LAYER
  5
27
100
AcDbSymbolTableRecord
100
AcDbLayerTableRecord
  2
LC-003-001-----0
 70
             0
 62
             7
  6
CONTINUOUS
  0
LAYER
  5
28
100
AcDbSymbolTableRecord
100
AcDbLayerTableRecord
  2
LC-004-020-----0
 70
             0
 62
             7
  6
CONTINUOUS
  0
LAYER
  5
29
100
AcDbSymbolTableRecord
100
AcDbLayerTableRecord
  2
LC-005-003-----0
 70
             0
 62
             7
  6
CONTINUOUS
  0
ENDTAB
  0
TABLE
  2
STYLE
  5
3
100
AcDbSymbolTable
 70
             2
  0
STYLE
  5
17
100
AcDbSymbolTableRecord
100
AcDbTextStyleTableRecord
  2
STANDARD
 70
             0
 40
0.0
 41
1.0
 50
0.0
 71
             0
 42
0.0
  3
txt
  4

  0
STYLE
  5
60
100
AcDbSymbolTableRecord
100
AcDbTextStyleTableRecord
  2
CONVERTER_1
 70
             0
 40
0.0
 41
0.9
 50
0.0
 71
             0
 42
0.0
  3
txt.shx
  4

  0
ENDTAB
  0
TABLE
  2
VIEW
  5
5
100
AcDbSymbolTable
 70
             0
  0
ENDTAB
  0
TABLE
  2
UCS
  5
6
100
AcDbSymbolTable
 70
             0
  0
ENDTAB
  0
TABLE
  2
APPID
  5
8
100
AcDbSymbolTable
 70
             1
  0
APPID
  5
16
100
AcDbSymbolTableRecord
100
AcDbRegAppTableRecord
  2
ACAD
 70
             0
  0
ENDTAB
  0
TABLE
  2
DIMSTYLE
  5
9
100
AcDbSymbolTable
 70
             5
  0
DIMSTYLE
105
18
100
AcDbSymbolTableRecord
100
AcDbDimStyleTableRecord
  2
STANDARD
 70
             0
  3

  4

  5

  6

  7

 40
1.0
 41
0.18
 42
0.0625
 43
0.38
 44
0.18
 45
0.0
 46
0.0
 47
0.0
 48
0.0
 71
             0
 72
             0
 73
             1
 74
             1
 75
             0
 76
             0
 77
             0
 78
             0
140
0.18
141
0.09
142
0.0
143
25.4
144
1.0
145
0.0
146
1.0
147
0.09
170
             0
171
             2
172
             0
173
             0
174
             0
175
             0
176
             0
177
             0
178
             0
270
             2
271
             4
272
             4
273
             2
274
             2
275
             0
280
             0
281
             0
282
             0
283
             1
284
             0
285
             0
286
             0
287
             3
288
             0
340
17
  0
DIMSTYLE
105
63
100
AcDbSymbolTableRecord
100
AcDbDimStyleTableRecord
  2
ME10_DIM_0
 70
             0
  3
DN<>
  4

  5

  6

  7

 40
1.0
 41
10.0
 42
0.0
 43
0.38
 44
2.0
 45
0.0
 46
0.0
 47
0.0
 48
0.0
 71
             0
 72
             0
 73
             0
 74
             0
 75
             0
 76
             0
 77
             1
 78
             8
140
10.0
141
0.09
142
0.0
143
25.4
144
1.0
145
0.0
146
1.0
147
0.625
170
             0
171
             2
172
             1
173
             1
174
             0
175
             0
176
             4
177
             4
178
             1
270
             2
271
             2
272
             4
273
             2
274
             2
275
             0
280
             0
281
             0
282
             0
283
             1
284
             0
285
             0
286
             0
287
             3
288
             0
340
60
  0
DIMSTYLE
105
6E
100
AcDbSymbolTableRecord
100
AcDbDimStyleTableRecord
  2
ME10_DIM_1
 70
             0
  3
x150
  4

  5

  6

  7

 40
1.0
 41
10.0
 42
0.0
 43
0.38
 44
2.0
 45
0.0
 46
0.0
 47
0.0
 48
0.0
 71
             0
 72
             0
 73
             0
 74
             0
 75
             0
 76
             0
 77
             1
 78
             8
140
10.0
141
0.09
142
0.0
143
25.4
144
1.0
145
0.0
146
1.0
147
0.625
170
             0
171
             2
172
             1
173
             1
174
             0
175
             0
176
             4
177
             4
178
             1
270
             2
271
             2
272
             4
273
             2
274
             2
275
             0
280
             0
281
             0
282
             0
283
             1
284
             0
285
             0
286
             0
287
             3
288
             0
340
60
  0
DIMSTYLE
105
79
100
AcDbSymbolTableRecord
100
AcDbDimStyleTableRecord
  2
ME10_DIM_2
 70
             0
  3

  4

  5

  6

  7

 40
1.0
 41
10.0
 42
0.0
 43
0.38
 44
2.0
 45
0.0
 46
0.0
 47
0.0
 48
0.0
 71
             0
 72
             0
 73
             0
 74
             0
 75
             0
 76
             0
 77
             1
 78
             8
140
10.0
141
0.09
142
0.0
143
25.4
144
1.0
145
0.0
146
1.0
147
0.625
170
             0
171
             2
172
             1
173
             1
174
             0
175
             0
176
             4
177
             4
178
             1
270
             2
271
             2
272
             4
273
             2
274
             2
275
             0
280
             0
281
             0
282
             0
283
             1
284
             0
285
             0
286
             0
287
             3
288
             0
340
60
  0
DIMSTYLE
105
84
100
AcDbSymbolTableRecord
100
AcDbDimStyleTableRecord
  2
ME10_DIM_3
 70
             0
  3

  4

  5

  6

  7

 40
1.0
 41
10.0
 42
0.0
 43
0.38
 44
2.0
 45
0.0
 46
0.0
 47
0.0
 48
0.0
 71
             0
 72
             0
 73
             0
 74
             0
 75
             0
 76
             0
 77
             1
 78
             8
140
10.0
141
0.09
142
0.0
143
25.4
144
1.0
145
0.0
146
1.0
147
0.625
170
             0
171
             2
172
             1
173
             1
174
             0
175
             0
176
             4
177
             4
178
             1
270
             2
271
             2
272
             4
273
             2
274
             2
275
             0
280
             0
281
             0
282
             0
283
             1
284
             0
285
             0
286
             0
287
             3
288
             0
340
60
  0
ENDTAB
  0
TABLE
  2
BLOCK_RECORD
  5
1
100
AcDbSymbolTable
 70
             6
  0
BLOCK_RECORD
  5
A
100
AcDbSymbolTableRecord
100
AcDbBlockTableRecord
  2
*MODEL_SPACE
  0
BLOCK_RECORD
  5
B
100
AcDbSymbolTableRecord
100
AcDbBlockTableRecord
  2
*PAPER_SPACE
  0
BLOCK_RECORD
  5
2A
100
AcDbSymbolTableRecord
100
AcDbBlockTableRecord
  2
HL_98_REINIGUNGSVERSCHS__1
  0
BLOCK_RECORD
  5
2C
100
AcDbSymbolTableRecord
100
AcDbBlockTableRecord
  2
HL_98_REINIGUNGSVERSCHS__2
  0
BLOCK_RECORD
  5
59
100
AcDbSymbolTableRecord
100
AcDbBlockTableRecord
  2
*D2
  0
BLOCK_RECORD
  5
65
100
AcDbSymbolTableRecord
100
AcDbBlockTableRecord
  2
*D3
  0
BLOCK_RECORD
  5
70
100
AcDbSymbolTableRecord
100
AcDbBlockTableRecord
  2
*D4
  0
BLOCK_RECORD
  5
7B
100
AcDbSymbolTableRecord
100
AcDbBlockTableRecord
  2
*D5
  0
ENDTAB
  0
ENDSEC
  0
SECTION
  2
BLOCKS
  0
BLOCK
  5
D
100
AcDbEntity
  8
0
100
AcDbBlockBegin
  2
*MODEL_SPACE
 70
             0
 10
0.0
 20
0.0
 30
0.0
  3
*MODEL_SPACE
  1

  0
ENDBLK
  5
E
100
AcDbEntity
  8
0
100
AcDbBlockEnd
  0
BLOCK
  5
F
100
AcDbEntity
 67
             1
  8
0
100
AcDbBlockBegin
  2
*PAPER_SPACE
 70
             0
 10
0.0
 20
0.0
 30
0.0
  3
*PAPER_SPACE
  1

  0
ENDBLK
  5
10
100
AcDbEntity
 67
             1
  8
0
100
AcDbBlockEnd
  0
BLOCK
  5
2B
100
AcDbEntity
  8
0
100
AcDbBlockBegin
  2
HL_98_REINIGUNGSVERSCHS__1
 70
             0
 10
301.47022290724198
 20
-20.5352792685545
 30
0.0
  3
HL_98_REINIGUNGSVERSCHS__1
  1

  0
DIMENSION
  5
85
100
AcDbEntity
  8
1
100
AcDbDimension
  2
*D5
 10
96.45787881968805
 20
-95.27573744267923
 11
89.45897029208973
 21
-48.83198917586137
 31
0.0
 53
89.99865349212439
  1
<>
  3
ME10_DIM_3
100
AcDbAlignedDimension
 13
73.4998569241651
 23
-3.2779525841852
 14
53.65720343536407
 24
-95.27473158418518
 50
89.99865349212439
100
AcDbRotatedDimension
  0
DIMENSION
  5
7A
100
AcDbEntity
  8
1
100
AcDbDimension
  2
*D4
 10
78.7656907935089
 20
-95.27532165864207
 11
71.76640804257116
 21
-64.75529602956338
 31
0.0
 53
89.99865349212439
  1
<>
  3
ME10_DIM_2
100
AcDbAlignedDimension
 13
60.49914937305016
 23
-30.27748507751901
 14
53.65720343536407
 24
-95.27473158418518
 50
89.99865349212439
100
AcDbRotatedDimension
  0
DIMENSION
  5
6F
100
AcDbEntity
  8
1
100
AcDbDimension
  2
*D3
 10
75.00006846077203
 20
7.11665012641394
 11
10.79783853109208
 21
14.11815894468535
 31
0.0
 53
179.99865349212439
  1
<>
  3
ME10_DIM_1
100
AcDbAlignedDimension
 13
-75.0001430758349
 23
-4.77460858418523
 14
74.99978892416516
 24
-4.7780205841852
 50
179.99865349212439
100
AcDbRotatedDimension
  0
DIMENSION
  5
64
100
AcDbEntity
  8
1
100
AcDbDimension
  2
*D2
 10
-55.00130009012902
 20
-113.50839784656115
 11
1.67338999400437
 21
-106.5097297562839
 31
0.0
 53
179.99865349212439
  1
<>
  3
ME10_DIM_0
100
AcDbAlignedDimension
 13
54.99651092416514
 23
-90.27727958418517
 14
-55.00075407583489
 24
-90.27473158418518
 50
179.99865349212439
100
AcDbRotatedDimension
  0
ARC
  5
58
100
AcDbEntity
  8
LC-001-002-----0
  6
CONTINUOUS
 62
             7
100
AcDbCircle
 10
-73.5001430758349
 20
-4.77460858418523
 40
1.50000000000008
100
AcDbArc
 50
89.99998099999287
 51
180.0
  0
ARC
  5
57
100
AcDbEntity
  8
LC-001-002-----0
  6
CONTINUOUS
 62
             7
100
AcDbCircle
 10
73.49978892416516
 20
-4.7779525841852
 40
1.49999999999949
100
AcDbArc
 50
-0.00260599998439
 51
89.99741199998445
  0
ARC
  5
56
100
AcDbEntity
  8
LC-001-002-----0
  6
CONTINUOUS
 62
             7
100
AcDbCircle
 10
73.49978892416516
 20
-4.7779525841852
 40
1.49999999999949
100
AcDbArc
 50
-0.00260599998439
 51
89.99741199998445
  0
ARC
  5
55
100
AcDbEntity
  8
LC-002-002-RND-0
  6
CONTINUOUS
 62
             7
100
AcDbCircle
 10
60.49933392416506
 20
-28.28023707970901
 40
1.9999999999998
100
AcDbArc
 50
-90.00528700000157
 51
-0.00130299999186
  0
ARC
  5
54
100
AcDbEntity
  8
LC-002-002-RND-0
  6
CONTINUOUS
 62
             7
100
AcDbCircle
 10
-60.50066607583489
 20
-28.27748507970902
 40
2.00000000000019
100
AcDbArc
 50
179.99869700000977
 51
-89.99731900001267
  0
LINE
  5
53
100
AcDbEntity
  8
1
  6
CONTINUOUS
 62
             7
100
AcDbLine
 10
-60.50057249128088
 20
-30.27748507751901
 11
60.49914937305016
 21
-30.27748507751901
  0
LINE
  5
52
100
AcDbEntity
  8
1
  6
PHANTOM
 62
             2
100
AcDbLine
 10
0.0
 20
0.0
 11
-0.00238557881096
 21
-101.5096903725084
  0
LINE
  5
51
100
AcDbEntity
  8
LC-001-002-----0
  6
CONTINUOUS
 62
             7
100
AcDbLine
 10
-55.00075407583489
 20
-90.27473158418518
 11
54.99651092416514
 21
-90.27727958418517
  0
LINE
  5
50
100
AcDbEntity
  8
LC-001-002-----0
  6
DASHED
 62
             7
100
AcDbLine
 10
-71.0001430758349
 20
-3.27460858418523
 11
-69.31966407583491
 21
-6.27460858418523
  0
LINE
  5
4F
100
AcDbEntity
  8
LC-001-002-----0
  6
CONTINUOUS
 62
             7
100
AcDbLine
 10
70.99917492416512
 20
-18.2778385841852
 11
-71.0001430758349
 21
-18.2778385841852
  0
LINE
  5
4E
100
AcDbEntity
  8
LC-001-002-----0
  6
CONTINUOUS
 62
             7
100
AcDbLine
 10
-75.0001430758349
 20
-13.27460858418523
 11
74.99940192416511
 21
-13.27460858418523
  0
LINE
  5
4D
100
AcDbEntity
  8
LC-001-002-----0
  6
CONTINUOUS
 62
             7
100
AcDbLine
 10
-75.0001430758349
 20
-13.27460858418523
 11
-76.5001430758349
 21
-13.27460858418523
  0
LINE
  5
4C
100
AcDbEntity
  8
LC-003-001-----0
  6
CONTINUOUS
 62
             7
100
AcDbLine
 10
-73.5001430758349
 20
-3.27460858418523
 11
-71.0001430758349
 21
-3.27460858418523
  0
LINE
  5
4B
100
AcDbEntity
  8
LC-001-002-----0
  6
CONTINUOUS
 62
             7
100
AcDbLine
 10
-75.0001430758349
 20
-4.77460858418523
 11
-75.0001430758349
 21
-13.27460858418523
  0
LINE
  5
4A
100
AcDbEntity
  8
LC-001-002-----0
  6
CONTINUOUS
 62
             7
100
AcDbLine
 10
-76.5001430758349
 20
-18.27460858418523
 11
-71.0001430758349
 21
-18.27460858418523
  0
LINE
  5
49
100
AcDbEntity
  8
LC-001-002-----0
  6
CONTINUOUS
 62
             7
100
AcDbLine
 10
-76.5001430758349
 20
-13.27460858418523
 11
-76.5001430758349
 21
-18.27460858418523
  0
LINE
  5
48
100
AcDbEntity
  8
LC-001-002-----0
  6
CONTINUOUS
 62
             7
100
AcDbLine
 10
-55.00075407583489
 20
-30.27727507970904
 11
-55.00075407583489
 21
-90.27473158418518
  0
LINE
  5
47
100
AcDbEntity
  8
LC-001-002-----0
  6
CONTINUOUS
 62
             7
100
AcDbLine
 10
-55.00075407583489
 20
-90.27473158418518
 11
-53.66100807583484
 21
-95.27473158418518
  0
LINE
  5
46
100
AcDbEntity
  8
LC-001-002-----0
  6
DASHED
 62
             7
100
AcDbLine
 10
49.24684492416509
 20
65.64025841581479
 11
50.74672692416516
 21
63.0421134158148
  0
LINE
  5
45
100
AcDbEntity
  8
LC-004-020-----0
  6
DASHED
 62
             7
100
AcDbLine
 10
-69.31966407583491
 20
-6.27460858418523
 11
50.74515092416505
 21
63.04484441581478
  0
LINE
  5
44
100
AcDbEntity
  8
LC-001-002-----0
  6
DASHED
 62
             7
100
AcDbLine
 10
-69.52062607583491
 20
-2.92653258418518
 11
49.66224892416517
 21
65.88373241581478
  0
LINE
  5
43
100
AcDbEntity
  8
LC-001-002-----0
  6
CONTINUOUS
 62
             7
100
AcDbLine
 10
-53.66100807583484
 20
-95.27473158418518
 11
53.65720343536407
 21
-95.27473158418518
  0
LINE
  5
42
100
AcDbEntity
  8
LC-003-001-----0
  6
CONTINUOUS
 62
             7
100
AcDbLine
 10
73.4998569241651
 20
-3.2779525841852
 11
70.9998569241651
 21
-3.2778385841852
  0
LINE
  5
41
100
AcDbEntity
  8
LC-001-002-----0
  6
CONTINUOUS
 62
             7
100
AcDbLine
 10
74.99978892416516
 20
-4.7780205841852
 11
74.99940192416511
 21
-13.2780205841852
  0
LINE
  5
40
100
AcDbEntity
  8
LC-001-002-----0
  6
CONTINUOUS
 62
             7
100
AcDbLine
 10
74.99940192416511
 20
-13.2780205841852
 11
76.49940192416511
 21
-13.2780885841852
  0
LINE
  5
3F
100
AcDbEntity
  8
LC-001-002-----0
  6
CONTINUOUS
 62
             7
100
AcDbLine
 10
76.49940192416511
 20
-13.2780885841852
 11
76.49917492416512
 21
-18.2780885841852
  0
LINE
  5
3E
100
AcDbEntity
  8
LC-001-002-----0
  6
CONTINUOUS
 62
             7
100
AcDbLine
 10
76.49917492416512
 20
-18.2780885841852
 11
70.99917492416512
 21
-18.2778385841852
  0
LINE
  5
3D
100
AcDbEntity
  8
LC-001-002-----0
  6
CONTINUOUS
 62
             7
100
AcDbLine
 10
62.49933392416506
 20
-28.280283079709
 11
62.49951592416505
 21
-18.2778385841852
  0
LINE
  5
3C
100
AcDbEntity
  8
LC-001-002-----0
  6
CONTINUOUS
 62
             7
100
AcDbLine
 10
54.99651092416514
 20
-90.27727958418517
 11
53.65720343536407
 21
-95.27473158418518
  0
LINE
  5
3B
100
AcDbEntity
  8
LC-001-002-----0
  6
CONTINUOUS
 62
             7
100
AcDbLine
 10
54.99933092417041
 20
-30.27982196762424
 11
54.99651092416514
 21
-90.27727958418517
  0
LINE
  5
3A
100
AcDbEntity
  8
LC-001-002-----0
  6
CONTINUOUS
 62
             7
100
AcDbLine
 10
-71.0001430758349
 20
-3.27460858418523
 11
70.9998569241651
 21
-3.27460858418523
  0
LINE
  5
39
100
AcDbEntity
  8
LC-001-002-----0
  6
CONTINUOUS
 62
             7
100
AcDbLine
 10
-62.50066607583494
 20
-28.27744007970902
 11
-62.50048407583489
 21
-18.2778385841852
  0
POINT
  5
38
100
AcDbEntity
  8
LC-005-003-----0
 62
             7
100
AcDbPoint
 10
-52.50452207583487
 20
-95.27473158418518
  0
POINT
  5
37
100
AcDbEntity
  8
LC-005-003-----0
 62
             7
100
AcDbPoint
 10
-73.5001430758349
 20
-3.27460858418523
  0
POINT
  5
36
100
AcDbEntity
  8
LC-005-003-----0
 62
             7
100
AcDbPoint
 10
-52.50452207583487
 20
-95.27473158418518
  0
POINT
  5
35
100
AcDbEntity
  8
LC-005-003-----0
 62
             7
100
AcDbPoint
 10
54.99651092416514
 20
-90.27727958418517
  0
POINT
  5
34
100
AcDbEntity
  8
LC-005-003-----0
 62
             7
100
AcDbPoint
 10
-55.00075407583489
 20
-90.27473158418518
  0
POINT
  5
33
100
AcDbEntity
  8
LC-005-003-----0
 62
             7
100
AcDbPoint
 10
74.99978892416516
 20
-4.7780205841852
  0
POINT
  5
32
100
AcDbEntity
  8
LC-005-003-----0
 62
             7
100
AcDbPoint
 10
-75.0001430758349
 20
-4.77460858418523
  0
ENDBLK
  5
86
100
AcDbEntity
  8
0
100
AcDbBlockEnd
  0
BLOCK
  5
2D
100
AcDbEntity
  8
0
100
AcDbBlockBegin
  2
HL_98_REINIGUNGSVERSCHS__2
 70
             0
 10
-76.5007481192722
 20
-318.98319600000042
 30
0.0
  3
HL_98_REINIGUNGSVERSCHS__2
  1

  0
CIRCLE
  5
CB
100
AcDbEntity
  8
LC-001-002-----0
  6
CONTINUOUS
 62
             7
100
AcDbCircle
 10
59.49782392416523
 20
-293.7598675841852
 40
5.0
  0
CIRCLE
  5
CA
100
AcDbEntity
  8
LC-001-002-----0
  6
CONTINUOUS
 62
             7
100
AcDbCircle
 10
59.49782392416523
 20
-175.7598675841852
 40
5.0
  0
CIRCLE
  5
C9
100
AcDbEntity
  8
LC-001-002-----0
  6
CONTINUOUS
 62
             7
100
AcDbCircle
 10
58.49765392416521
 20
-316.75780458418518
 40
1.40000000000008
  0
CIRCLE
  5
C8
100
AcDbEntity
  8
LC-001-002-----0
  6
CONTINUOUS
 62
             7
100
AcDbCircle
 10
-61.50234607583479
 20
-316.7571675841852
 40
1.39999999999997
  0
CIRCLE
  5
C7
100
AcDbEntity
  8
LC-001-002-----0
  6
CONTINUOUS
 62
             7
100
AcDbCircle
 10
-61.50082507583488
 20
-153.75549358418519
 40
1.40000000000009
  0
CIRCLE
  5
C6
100
AcDbEntity
  8
LC-001-002-----0
  6
CONTINUOUS
 62
             7
100
AcDbCircle
 10
58.49917492416512
 20
-153.75549358418519
 40
1.40000000000009
  0
ARC
  5
C5
100
AcDbEntity
  8
LC-001-002-----0
  6
CONTINUOUS
 62
             7
100
AcDbCircle
 10
72.49920392416516
 20
-235.25542358418519
 40
10.00000000000002
100
AcDbArc
 50
107.45729299999739
 51
-107.45736800000131
  0
ARC
  5
C4
100
AcDbEntity
  8
LC-001-002-----0
  6
CONTINUOUS
 62
             7
100
AcDbCircle
 10
71.99917492416512
 20
-307.2554935841851
 40
3.0
100
AcDbArc
 50
-90.0
 51
0.0
  0
ARC
  5
C3
100
AcDbEntity
  8
LC-001-002-----0
  6
CONTINUOUS
 62
             7
100
AcDbCircle
 10
71.99917492416512
 20
-307.2554935841851
 40
4.5
100
AcDbArc
 50
-90.0
 51
0.0
  0
ARC
  5
C2
100
AcDbEntity
  8
LC-003-001-----0
  6
CONTINUOUS
 62
             7
100
AcDbCircle
 10
65.49920692416526
 20
-300.75542358418522
 40
3.9999999999997
100
AcDbArc
 50
-90.00003699999655
 51
0.0000210000083
  0
ARC
  5
C1
100
AcDbEntity
  8
LC-003-001-----0
  6
CONTINUOUS
 62
             7
100
AcDbCircle
 10
-65.50082507583488
 20
-300.7554935841851
 40
4.0
100
AcDbArc
 50
180.0
 51
-89.99994199999676
  0
ARC
  5
C0
100
AcDbEntity
  8
LC-001-002-----0
  6
CONTINUOUS
 62
             7
100
AcDbCircle
 10
-72.00082507583488
 20
-307.2554935841851
 40
4.49999999999969
100
AcDbArc
 50
179.99984800000237
 51
-90.0
  0
ARC
  5
BF
100
AcDbEntity
  8
LC-001-002-----0
  6
CONTINUOUS
 62
             7
100
AcDbCircle
 10
-72.00082507583488
 20
-307.2554935841851
 40
3.0
100
AcDbArc
 50
180.0
 51
-89.99994199999676
  0
ARC
  5
BE
100
AcDbEntity
  8
LC-003-001-----0
  6
CONTINUOUS
 62
             7
100
AcDbCircle
 10
65.49929192416516
 20
-169.75985958418519
 40
4.00000000000027
100
AcDbArc
 50
0.00002100000586
 51
89.99978899999701
  0
ARC
  5
BD
100
AcDbEntity
  8
LC-003-001-----0
  6
CONTINUOUS
 62
             7
100
AcDbCircle
 10
-65.50082507583488
 20
-169.75922158418521
 40
4.00000000000049
100
AcDbArc
 50
89.99975200000044
 51
180.0
  0
ARC
  5
BC
100
AcDbEntity
  8
LC-001-002-----0
  6
CONTINUOUS
 62
             7
100
AcDbCircle
 10
71.99917492416512
 20
-163.25549358418519
 40
4.5
100
AcDbArc
 50
0.0
 51
90.0
  0
ARC
  5
BB
100
AcDbEntity
  8
LC-001-002-----0
  6
CONTINUOUS
 62
             7
100
AcDbCircle
 10
71.99917492416512
 20
-163.25549358418519
 40
3.0
100
AcDbArc
 50
0.0
 51
90.0
  0
ARC
  5
BA
100
AcDbEntity
  8
LC-001-002-----0
  6
CONTINUOUS
 62
             7
100
AcDbCircle
 10
-72.00082507583488
 20
-163.25549358418519
 40
3.0
100
AcDbArc
 50
90.0
 51
179.9998480000076
  0
ARC
  5
B9
100
AcDbEntity
  8
LC-001-002-----0
  6
CONTINUOUS
 62
             7
100
AcDbCircle
 10
-72.00082507583488
 20
-163.25549358418519
 40
4.5
100
AcDbArc
 50
90.0
 51
179.99984800000129
  0
ARC
  5
B8
100
AcDbEntity
  8
LC-001-002-----0
  6
CONTINUOUS
 62
             7
100
AcDbCircle
 10
58.49765392416521
 20
-316.75780458418518
 40
4.99999999999968
100
AcDbArc
 50
179.99990599999313
 51
-0.00030400000324
  0
ARC
  5
B7
100
AcDbEntity
  8
LC-001-002-----0
  6
CONTINUOUS
 62
             7
100
AcDbCircle
 10
-61.50234607583479
 20
-316.7571675841852
 40
4.99999999999969
100
AcDbArc
 50
179.99990600000424
 51
-0.00030400000454
  0
ARC
  5
B6
100
AcDbEntity
  8
LC-001-002-----0
  6
CONTINUOUS
 62
             7
100
AcDbCircle
 10
58.49917492416512
 20
-153.75549358418519
 40
5.0
100
AcDbArc
 50
0.0
 51
179.9998480000036
  0
ARC
  5
B5
100
AcDbEntity
  8
LC-001-002-----0
  6
CONTINUOUS
 62
             7
100
AcDbCircle
 10
-61.50082507583488
 20
-153.75549358418519
 40
5.0
100
AcDbArc
 50
0.0
 51
179.9998480000036
  0
LINE
  5
B4
100
AcDbEntity
  8
1
  6
PHANTOM
 62
             2
100
AcDbLine
 10
58.49765392416521
 20
-311.25780458418478
 11
58.49765392416521
 21
-322.25780458418558
  0
LINE
  5
B3
100
AcDbEntity
  8
1
  6
PHANTOM
 62
             2
100
AcDbLine
 10
63.99765392416555
 20
-316.75780458418518
 11
52.99765392416487
 21
-316.75780458418518
  0
LINE
  5
B2
100
AcDbEntity
  8
1
  6
PHANTOM
 62
             2
100
AcDbLine
 10
-61.50234607583479
 20
-311.2571675841848
 11
-61.50234607583479
 21
-322.25716758418559
  0
LINE
  5
B1
100
AcDbEntity
  8
1
  6
PHANTOM
 62
             2
100
AcDbLine
 10
-56.0023460758344
 20
-316.7571675841852
 11
-67.00234607583519
 21
-316.7571675841852
  0
LINE
  5
B0
100
AcDbEntity
  8
1
  6
PHANTOM
 62
             2
100
AcDbLine
 10
58.49917492416512
 20
-148.2554935841859
 11
58.49917492416512
 21
-159.25549358418459
  0
LINE
  5
AF
100
AcDbEntity
  8
1
  6
PHANTOM
 62
             2
100
AcDbLine
 10
63.99917492416444
 20
-153.75549358418519
 11
52.9991749241658
 21
-153.75549358418519
  0
LINE
  5
AE
100
AcDbEntity
  8
1
  6
PHANTOM
 62
             2
100
AcDbLine
 10
-61.50082507583488
 20
-148.2554935841857
 11
-61.50082507583488
 21
-159.25549358418471
  0
LINE
  5
AD
100
AcDbEntity
  8
1
  6
PHANTOM
 62
             2
100
AcDbLine
 10
-56.00082507583539
 20
-153.75549358418519
 11
-67.00082507583437
 21
-153.75549358418519
  0
LINE
  5
AC
100
AcDbEntity
  8
1
  6
PHANTOM
 62
             2
100
AcDbLine
 10
59.49782392416523
 20
-288.2598675841852
 11
59.49782392416523
 21
-299.2598675841852
  0
LINE
  5
AB
100
AcDbEntity
  8
1
  6
PHANTOM
 62
             2
100
AcDbLine
 10
64.99782392416523
 20
-293.7598675841852
 11
53.99782392416523
 21
-293.7598675841852
  0
LINE
  5
AA
100
AcDbEntity
  8
1
  6
PHANTOM
 62
             2
100
AcDbLine
 10
59.49782392416523
 20
-170.2598675841852
 11
59.49782392416523
 21
-181.2598675841852
  0
LINE
  5
A9
100
AcDbEntity
  8
1
  6
PHANTOM
 62
             2
100
AcDbLine
 10
64.99782392416523
 20
-175.7598675841852
 11
53.99782392416523
 21
-175.7598675841852
  0
LINE
  5
A8
100
AcDbEntity
  8
LC-001-002-----0
  6
CONTINUOUS
 62
             7
100
AcDbLine
 10
56.53262092416526
 20
-179.78573058418519
 11
63.5236869241653
 21
-172.7946645841852
  0
LINE
  5
A7
100
AcDbEntity
  8
LC-001-002-----0
  6
CONTINUOUS
 62
             7
100
AcDbLine
 10
55.47196092416516
 20
-178.7250705841852
 11
62.46302592416509
 21
-171.73400458418519
  0
LINE
  5
A6
100
AcDbEntity
  8
LC-001-002-----0
  6
CONTINUOUS
 62
             7
100
AcDbLine
 10
56.49261992416518
 20
-297.82573158418512
 11
63.56368792416515
 21
-290.7546635841851
  0
LINE
  5
A5
100
AcDbEntity
  8
LC-001-002-----0
  6
CONTINUOUS
 62
             7
100
AcDbLine
 10
55.47196092416516
 20
-296.72507058418518
 11
62.46302592416509
 21
-289.73400458418507
  0
LINE
  5
A4
100
AcDbEntity
  8
LC-001-002-----0
  6
CONTINUOUS
 62
             7
100
AcDbLine
 10
-59.50082507583488
 20
-271.0054935841851
 11
-59.50082507583488
 21
-286.5054935841851
  0
LINE
  5
A3
100
AcDbEntity
  8
LC-001-002-----0
  6
CONTINUOUS
 62
             7
100
AcDbLine
 10
-59.50082507583488
 20
-184.0092475841852
 11
-59.50082507583488
 21
-199.5092035841852
  0
LINE
  5
A2
100
AcDbEntity
  8
LC-001-002-----0
  6
CONTINUOUS
 62
             7
100
AcDbLine
 10
-59.50082507583488
 20
-286.5054935841851
 11
-69.50082507583488
 21
-286.5054935841851
  0
LINE
  5
A1
100
AcDbEntity
  8
LC-001-002-----0
  6
CONTINUOUS
 62
             7
100
AcDbLine
 10
-69.50082507583488
 20
-271.0054935841851
 11
-59.50082507583488
 21
-271.0054935841851
  0
LINE
  5
A0
100
AcDbEntity
  8
LC-001-002-----0
  6
CONTINUOUS
 62
             7
100
AcDbLine
 10
-69.50082507583488
 20
-199.5092035841852
 11
-59.50082507583488
 21
-199.5092475841852
  0
LINE
  5
9F
100
AcDbEntity
  8
LC-001-002-----0
  6
CONTINUOUS
 62
             7
100
AcDbLine
 10
-59.50082507583488
 20
-184.0092475841852
 11
-69.50082507583488
 21
-184.0092035841852
  0
LINE
  5
9E
100
AcDbEntity
  8
LC-003-001-----0
  6
CONTINUOUS
 62
             7
100
AcDbLine
 10
69.49924292416517
 20
-244.79482758418521
 11
69.49920692416526
 21
-300.7554265841851
  0
LINE
  5
9D
100
AcDbEntity
  8
LC-003-001-----0
  6
CONTINUOUS
 62
             7
100
AcDbLine
 10
69.49929192416516
 20
-169.75986158418519
 11
69.49925592416525
 21
-225.71601558418519
  0
LINE
  5
9C
100
AcDbEntity
  8
LC-003-001-----0
  6
CONTINUOUS
 62
             7
100
AcDbLine
 10
65.49920392416516
 20
-304.75542358418522
 11
-0.00079507583473
 21
-304.7553805841851
  0
LINE
  5
9B
100
AcDbEntity
  8
LC-003-001-----0
  6
CONTINUOUS
 62
             7
100
AcDbLine
 10
-65.50082507583488
 20
-304.7554935841851
 11
-0.00082507583488
 21
-304.7554935841851
  0
LINE
  5
9A
100
AcDbEntity
  8
LC-003-001-----0
  6
CONTINUOUS
 62
             7
100
AcDbLine
 10
-69.50082507583488
 20
-169.75922158418521
 11
-69.50082507583488
 21
-300.7554935841851
  0
LINE
  5
99
100
AcDbEntity
  8
LC-001-002-----0
  6
CONTINUOUS
 62
             7
100
AcDbLine
 10
76.49917492416512
 20
-307.2554935841851
 11
76.49917492416512
 21
-163.25549358418519
  0
LINE
  5
98
100
AcDbEntity
  8
LC-001-002-----0
  6
CONTINUOUS
 62
             7
100
AcDbLine
 10
74.99917492416512
 20
-307.2554935841851
 11
74.99917492416512
 21
-163.25549358418519
  0
LINE
  5
97
100
AcDbEntity
  8
LC-003-001-----0
  6
CONTINUOUS
 62
             7
100
AcDbLine
 10
-65.50082507583488
 20
-304.7554935841851
 11
-0.00082507583488
 21
-304.7554935841851
  0
LINE
  5
96
100
AcDbEntity
  8
LC-001-002-----0
  6
CONTINUOUS
 62
             7
100
AcDbLine
 10
-72.00082507583488
 20
-310.2554935841851
 11
71.99917492416512
 21
-310.2554935841851
  0
LINE
  5
95
100
AcDbEntity
  8
LC-001-002-----0
  6
CONTINUOUS
 62
             7
100
AcDbLine
 10
-72.00082507583488
 20
-311.7554935841851
 11
71.99917492416512
 21
-311.7554935841851
  0
LINE
  5
94
100
AcDbEntity
  8
LC-001-002-----0
  6
CONTINUOUS
 62
             7
100
AcDbLine
 10
-75.00082507583488
 20
-163.25549358418519
 11
-75.00082507583488
 21
-307.2554935841851
  0
LINE
  5
93
100
AcDbEntity
  8
LC-001-002-----0
  6
CONTINUOUS
 62
             7
100
AcDbLine
 10
-76.50082507583488
 20
-163.25549358418519
 11
-76.50082507583488
 21
-307.2554935841851
  0
LINE
  5
92
100
AcDbEntity
  8
LC-001-002-----0
  6
CONTINUOUS
 62
             7
100
AcDbLine
 10
-72.00082507583488
 20
-158.75549358418519
 11
71.99917492416512
 21
-158.75549358418519
  0
LINE
  5
91
100
AcDbEntity
  8
LC-001-002-----0
  6
CONTINUOUS
 62
             7
100
AcDbLine
 10
71.99917492416512
 20
-160.25549358418519
 11
-72.00082507583488
 21
-160.25549358418519
  0
LINE
  5
90
100
AcDbEntity
  8
LC-003-001-----0
  6
CONTINUOUS
 62
             7
100
AcDbLine
 10
65.49930692416524
 20
-165.75985958418519
 11
-0.00200807583474
 21
-165.75961758418521
  0
LINE
  5
8F
100
AcDbEntity
  8
LC-003-001-----0
  6
CONTINUOUS
 62
             7
100
AcDbLine
 10
-65.50080807583481
 20
-165.75922158418521
 11
-0.00203907583477
 21
-165.75950558418521
  0
LINE
  5
8E
100
AcDbEntity
  8
LC-003-001-----0
  6
CONTINUOUS
 62
             7
100
AcDbLine
 10
63.49765392416521
 20
-316.75783058418523
 11
63.49768092416525
 21
-311.75783058418523
  0
LINE
  5
8D
100
AcDbEntity
  8
LC-003-001-----0
  6
CONTINUOUS
 62
             7
100
AcDbLine
 10
53.49765392416521
 20
-316.75777758418508
 11
53.49768092416525
 21
-311.75777758418508
  0
LINE
  5
8C
100
AcDbEntity
  8
LC-003-001-----0
  6
CONTINUOUS
 62
             7
100
AcDbLine
 10
-66.50234607583479
 20
-316.75714058418509
 11
-66.50231907583475
 21
-311.75714058418509
  0
LINE
  5
8B
100
AcDbEntity
  8
LC-003-001-----0
  6
CONTINUOUS
 62
             7
100
AcDbLine
 10
-56.50234607583479
 20
-316.75719358418507
 11
-56.50231907583475
 21
-311.75719358418507
  0
LINE
  5
8A
100
AcDbEntity
  8
LC-003-001-----0
  6
CONTINUOUS
 62
             7
100
AcDbLine
 10
53.49917492416512
 20
-153.75549358418519
 11
53.49917492416512
 21
-158.75549358418519
  0
LINE
  5
89
100
AcDbEntity
  8
LC-003-001-----0
  6
CONTINUOUS
 62
             7
100
AcDbLine
 10
-56.50082507583488
 20
-153.75549358418519
 11
-56.50082507583488
 21
-158.75549358418519
  0
LINE
  5
88
100
AcDbEntity
  8
LC-003-001-----0
  6
CONTINUOUS
 62
             7
100
AcDbLine
 10
63.49917492416512
 20
-153.75549358418519
 11
63.49917492416512
 21
-158.75549358418519
  0
LINE
  5
87
100
AcDbEntity
  8
LC-003-001-----0
  6
CONTINUOUS
 62
             7
100
AcDbLine
 10
-66.50082507583488
 20
-153.75549358418519
 11
-66.50082507583488
 21
-158.75549358418519
  0
ENDBLK
  5
CC
100
AcDbEntity
  8
0
100
AcDbBlockEnd
  0
BLOCK
  5
5A
100
AcDbEntity
  8
0
100
AcDbBlockBegin
  2
*D2
 70
             1
 10
0.0
 20
0.0
 30
0.0
  3
*D2
  1

  0
LINE
  5
5B
100
AcDbEntity
  8
0
  6
CONTINUOUS
 62
             4
100
AcDbLine
 10
-55.00130009012902
 20
-113.50839784656115
 11
54.99596490900041
 21
-113.51098289182808
  0
LINE
  5
5C
100
AcDbEntity
  8
0
  6
CONTINUOUS
 62
             4
100
AcDbLine
 10
54.99651092416515
 20
-90.27727958418515
 11
54.99591790700875
 21
-115.51098289127579
  0
LINE
  5
5D
100
AcDbEntity
  8
0
  6
CONTINUOUS
 62
             4
100
AcDbLine
 10
-55.00075407583489
 20
-90.27473158418516
 11
-55.00134709212068
 21
-115.50839784600886
  0
SOLID
  5
5E
100
AcDbEntity
  8
0
 62
             4
100
AcDbTrace
 10
-45.00126915324253
 20
-112.19210788100912
 11
-45.00133103253848
 21
-114.82515783202993
 12
-55.00130009012902
 22
-113.50839784656115
 13
-55.00130009012902
 23
-113.50839784656115
  0
SOLID
  5
5F
100
AcDbEntity
  8
0
 62
             4
100
AcDbTrace
 10
44.99593397211391
 20
-114.82727285738011
 11
44.99599585140987
 21
-112.1942229063593
 12
54.99596490900041
 22
-113.51098289182808
 13
54.99596490900041
 23
-113.51098289182808
  0
MTEXT
  5
61
100
AcDbEntity
  8
0
 62
             1
100
AcDbMText
 10
-12.72672750699825
 20
-111.50939134056318
 30
0.0
 40
10.0
 41
0.0
 71
             7
 72
             1
  1
\C1;DN\C1;110
  7
CONVERTER_1
 11
0.99999999972385
 21
-0.00002350099583
 31
0.0
  0
ENDBLK
  5
62
100
AcDbEntity
  8
0
100
AcDbBlockEnd
  0
BLOCK
  5
66
100
AcDbEntity
  8
0
100
AcDbBlockBegin
  2
*D3
 70
             1
 10
0.0
 20
0.0
 30
0.0
  3
*D3
  1

  0
LINE
  5
67
100
AcDbEntity
  8
0
  6
CONTINUOUS
 62
             4
100
AcDbLine
 10
75.00006846077203
 20
7.11665012641394
 11
-74.99986353656895
 21
7.12017527419151
  0
LINE
  5
68
100
AcDbEntity
  8
0
  6
CONTINUOUS
 62
             4
100
AcDbLine
 10
-75.0001430758349
 20
-4.77460858418523
 11
-74.99981653457729
 21
9.12017527363921
  0
LINE
  5
69
100
AcDbEntity
  8
0
  6
CONTINUOUS
 62
             4
100
AcDbLine
 10
74.99978892416516
 20
-4.7780205841852
 11
75.00011546276369
 21
9.11665012586165
  0
SOLID
  5
6A
100
AcDbEntity
  8
0
 62
             4
100
AcDbTrace
 10
65.00003752388554
 20
5.80036016086187
 11
65.00009940318148
 21
8.43341011188267
 12
75.00006846077203
 22
7.11665012641394
 13
75.00006846077203
 23
7.11665012641394
  0
SOLID
  5
6B
100
AcDbEntity
  8
0
 62
             4
100
AcDbTrace
 10
-64.99983259968246
 20
8.43646523974359
 11
-64.99989447897841
 21
5.80341528872279
 12
-74.99986353656895
 22
7.12017527419151
 13
-74.99986353656895
 23
7.12017527419151
  0
MTEXT
  5
6C
100
AcDbEntity
  8
0
 62
             1
100
AcDbMText
 10
-17.20227896615492
 20
9.11881697394937
 30
0.0
 40
10.0
 41
0.0
 71
             7
 72
             1
  1
\C1;150\C1;x150
  7
CONVERTER_1
 11
0.99999999972385
 21
-0.00002350099583
 31
0.0
  0
ENDBLK
  5
6D
100
AcDbEntity
  8
0
100
AcDbBlockEnd
  0
BLOCK
  5
71
100
AcDbEntity
  8
0
100
AcDbBlockBegin
  2
*D4
 70
             1
 10
0.0
 20
0.0
 30
0.0
  3
*D4
  1

  0
LINE
  5
72
100
AcDbEntity
  8
0
  6
CONTINUOUS
 62
             4
100
AcDbLine
 10
78.7656907935089
 20
-95.27532165864207
 11
78.76721829730647
 21
-30.27791439533078
  0
LINE
  5
73
100
AcDbEntity
  8
0
  6
CONTINUOUS
 62
             4
100
AcDbLine
 10
60.49914937305016
 20
-30.277485077519
 11
80.76721829675418
 21
-30.27796139732244
  0
LINE
  5
74
100
AcDbEntity
  8
0
  6
CONTINUOUS
 62
             4
100
AcDbLine
 10
53.65720343536407
 20
-95.27473158418518
 11
80.76569079295661
 21
-95.27536866063373
  0
SOLID
  5
75
100
AcDbEntity
  8
0
 62
             4
100
AcDbTrace
 10
77.44940082795687
 20
-85.27529072175558
 11
80.08245077897767
 21
-85.27535260105154
 12
78.7656907935089
 22
-95.27532165864207
 13
78.7656907935089
 23
-95.27532165864207
  0
SOLID
  5
76
100
AcDbEntity
  8
0
 62
             4
100
AcDbTrace
 10
80.0835082628585
 20
-40.27794533221727
 11
77.45045831183769
 21
-40.27788345292132
 12
78.76721829730647
 22
-30.27791439533078
 13
78.76721829730647
 23
-30.27791439533078
  0
MTEXT
  5
77
100
AcDbEntity
  8
0
 62
             1
100
AcDbMText
 10
76.76623178372168
 20
-72.25541353247142
 30
0.0
 40
10.0
 41
0.0
 71
             7
 72
             1
  1
65
  7
CONVERTER_1
 11
0.00002350099583
 21
0.99999999972385
 31
0.0
  0
ENDBLK
  5
78
100
AcDbEntity
  8
0
100
AcDbBlockEnd
  0
BLOCK
  5
7C
100
AcDbEntity
  8
0
100
AcDbBlockBegin
  2
*D5
 70
             1
 10
0.0
 20
0.0
 30
0.0
  3
*D5
  1

  0
LINE
  5
7D
100
AcDbEntity
  8
0
  6
CONTINUOUS
 62
             4
100
AcDbLine
 10
96.45787881968805
 20
-95.27573744267923
 11
96.46004084656627
 21
-3.27849217137199
  0
LINE
  5
7E
100
AcDbEntity
  8
0
  6
CONTINUOUS
 62
             4
100
AcDbLine
 10
73.4998569241651
 20
-3.27795258418519
 11
98.46004084601398
 21
-3.27853917336365
  0
LINE
  5
7F
100
AcDbEntity
  8
0
  6
CONTINUOUS
 62
             4
100
AcDbLine
 10
53.65720343536407
 20
-95.27473158418516
 11
98.45787881913576
 21
-95.2757844446709
  0
SOLID
  5
80
100
AcDbEntity
  8
0
 62
             4
100
AcDbTrace
 10
95.14158885413602
 20
-85.27570650579274
 11
97.77463880515683
 21
-85.2757683850887
 12
96.45787881968805
 22
-95.27573744267923
 13
96.45787881968805
 23
-95.27573744267923
  0
SOLID
  5
81
100
AcDbEntity
  8
0
 62
             4
100
AcDbTrace
 10
97.7763308121183
 20
-13.27852310825848
 11
95.14328086109749
 21
-13.27846122896253
 12
96.46004084656627
 22
-3.27849217137199
 13
96.46004084656627
 23
-3.27849217137199
  0
MTEXT
  5
82
100
AcDbEntity
  8
0
 62
             1
100
AcDbMText
 10
94.45879403324025
 20
-56.33210667876941
 30
0.0
 40
10.0
 41
0.0
 71
             7
 72
             1
  1
92
  7
CONVERTER_1
 11
0.00002350099583
 21
0.99999999972385
 31
0.0
  0
ENDBLK
  5
83
100
AcDbEntity
  8
0
100
AcDbBlockEnd
  0
ENDSEC
  0
SECTION
  2
ENTITIES
  0
INSERT
  5
30
100
AcDbEntity
  8
0
100
AcDbBlockReference
  2
HL_98_REINIGUNGSVERSCHS__1
 10
301.47022290724198
 20
-20.5352792685545
  0
INSERT
  5
31
100
AcDbEntity
  8
1
100
AcDbBlockReference
  2
HL_98_REINIGUNGSVERSCHS__2
 10
-76.5007481192722
 20
-318.98319600000042
  0
ENDSEC
  0
SECTION
  2
OBJECTS
  0
DICTIONARY
  5
19
100
AcDbDictionary
  3
ACAD_GROUP
350
1A
  3
ACAD_MLINESTYLE
350
1B
  0
DICTIONARY
  5
1A
102
{ACAD_REACTORS
330
19
102
}
100
AcDbDictionary
  0
DICTIONARY
  5
1B
102
{ACAD_REACTORS
330
19
102
}
100
AcDbDictionary
  3
STANDARD
350
1C
  0
MLINESTYLE
  5
1C
102
{ACAD_REACTORS
330
1B
102
}
100
AcDbMlineStyle
  2
STANDARD
 70
             0
  3

 62
             0
 51
90.0
 52
90.0
 71
             2
 49
0.5
 62
           256
  6
BYLAYER
 49
-0.5
 62
           256
  6
BYLAYER
  0
ENDSEC
  0
EOF
