  0
SECTION
  2
HEADER
  9
$ACADVER
  1
AC1015
  9
$ACADMAINTVER
 70
     6
  9
$DWGCODEPAGE
  3
ANSI_1252
  9
$INSBASE
 10
0.0
 20
0.0
 30
0.0
  9
$EXTMIN
 10
184.1552440497871
 20
-502.9434394342588
 30
0.0
  9
$EXTMAX
 10
316.1552440497871
 20
-335.8189588957466
 30
0.0
  9
$LIMMIN
 10
0.0
 20
0.0
  9
$LIMMAX
 10
12.0
 20
9.0
  9
$ORTHOMODE
 70
     0
  9
$REGENMODE
 70
     1
  9
$FILLMODE
 70
     1
  9
$QTEXTMODE
 70
     0
  9
$MIRRTEXT
 70
     1
  9
$LTSCALE
 40
1.0
  9
$ATTMODE
 70
     1
  9
$TEXTSIZE
 40
0.2
  9
$TRACEWID
 40
0.05
  9
$TEXTSTYLE
  7
Standard
  9
$CLAYER
  8
0
  9
$CELTYPE
  6
ByLayer
  9
$CECOLOR
 62
   256
  9
$CELTSCALE
 40
1.0
  9
$DISPSILH
 70
     0
  9
$DIMSCALE
 40
1.0
  9
$DIMASZ
 40
0.18
  9
$DIMEXO
 40
0.0625
  9
$DIMDLI
 40
0.38
  9
$DIMRND
 40
0.0
  9
$DIMDLE
 40
0.0
  9
$DIMEXE
 40
0.18
  9
$DIMTP
 40
0.0
  9
$DIMTM
 40
0.0
  9
$DIMTXT
 40
0.18
  9
$DIMCEN
 40
0.09
  9
$DIMTSZ
 40
0.0
  9
$DIMTOL
 70
     0
  9
$DIMLIM
 70
     0
  9
$DIMTIH
 70
     1
  9
$DIMTOH
 70
     1
  9
$DIMSE1
 70
     0
  9
$DIMSE2
 70
     0
  9
$DIMTAD
 70
     0
  9
$DIMZIN
 70
     0
  9
$DIMBLK
  1

  9
$DIMASO
 70
     1
  9
$DIMSHO
 70
     1
  9
$DIMPOST
  1

  9
$DIMAPOST
  1

  9
$DIMALT
 70
     0
  9
$DIMALTD
 70
     2
  9
$DIMALTF
 40
25.4
  9
$DIMLFAC
 40
1.0
  9
$DIMTOFL
 70
     0
  9
$DIMTVP
 40
0.0
  9
$DIMTIX
 70
     0
  9
$DIMSOXD
 70
     0
  9
$DIMSAH
 70
     0
  9
$DIMBLK1
  1

  9
$DIMBLK2
  1

  9
$DIMSTYLE
  2
Standard
  9
$DIMCLRD
 70
     0
  9
$DIMCLRE
 70
     0
  9
$DIMCLRT
 70
     0
  9
$DIMTFAC
 40
1.0
  9
$DIMGAP
 40
0.09
  9
$DIMJUST
 70
     0
  9
$DIMSD1
 70
     0
  9
$DIMSD2
 70
     0
  9
$DIMTOLJ
 70
     1
  9
$DIMTZIN
 70
     0
  9
$DIMALTZ
 70
     0
  9
$DIMALTTZ
 70
     0
  9
$DIMUPT
 70
     0
  9
$DIMDEC
 70
     4
  9
$DIMTDEC
 70
     4
  9
$DIMALTU
 70
     2
  9
$DIMALTTD
 70
     2
  9
$DIMTXSTY
  7
Standard
  9
$DIMAUNIT
 70
     0
  9
$DIMADEC
 70
     0
  9
$DIMALTRND
 40
0.0
  9
$DIMAZIN
 70
     0
  9
$DIMDSEP
 70
    46
  9
$DIMATFIT
 70
     3
  9
$DIMFRAC
 70
     0
  9
$DIMLDRBLK
  1

  9
$DIMLUNIT
 70
     2
  9
$DIMLWD
 70
    -2
  9
$DIMLWE
 70
    -2
  9
$DIMTMOVE
 70
     0
  9
$LUNITS
 70
     2
  9
$LUPREC
 70
     4
  9
$SKETCHINC
 40
0.1
  9
$FILLETRAD
 40
0.5
  9
$AUNITS
 70
     0
  9
$AUPREC
 70
     0
  9
$MENU
  1
.
  9
$ELEVATION
 40
0.0
  9
$PELEVATION
 40
0.0
  9
$THICKNESS
 40
0.0
  9
$LIMCHECK
 70
     0
  9
$CHAMFERA
 40
0.5
  9
$CHAMFERB
 40
0.5
  9
$CHAMFERC
 40
1.0
  9
$CHAMFERD
 40
0.0
  9
$SKPOLY
 70
     0
  9
$TDCREATE
 40
2454704.673609005
  9
$TDUCREATE
 40
2454704.590275671
  9
$TDUPDATE
 40
2454704.673609016
  9
$TDUUPDATE
 40
2454704.590275683
  9
$TDINDWG
 40
0.0000000116
  9
$TDUSRTIMER
 40
0.0000000116
  9
$USRTIMER
 70
     1
  9
$ANGBASE
 50
0.0
  9
$ANGDIR
 70
     0
  9
$PDMODE
 70
     0
  9
$PDSIZE
 40
0.0
  9
$PLINEWID
 40
0.0
  9
$SPLFRAME
 70
     0
  9
$SPLINETYPE
 70
     6
  9
$SPLINESEGS
 70
     8
  9
$HANDSEED
  5
BC
  9
$SURFTAB1
 70
     6
  9
$SURFTAB2
 70
     6
  9
$SURFTYPE
 70
     6
  9
$SURFU
 70
     6
  9
$SURFV
 70
     6
  9
$UCSBASE
  2

  9
$UCSNAME
  2

  9
$UCSORG
 10
0.0
 20
0.0
 30
0.0
  9
$UCSXDIR
 10
1.0
 20
0.0
 30
0.0
  9
$UCSYDIR
 10
0.0
 20
1.0
 30
0.0
  9
$UCSORTHOREF
  2

  9
$UCSORTHOVIEW
 70
     0
  9
$UCSORGTOP
 10
0.0
 20
0.0
 30
0.0
  9
$UCSORGBOTTOM
 10
0.0
 20
0.0
 30
0.0
  9
$UCSORGLEFT
 10
0.0
 20
0.0
 30
0.0
  9
$UCSORGRIGHT
 10
0.0
 20
0.0
 30
0.0
  9
$UCSORGFRONT
 10
0.0
 20
0.0
 30
0.0
  9
$UCSORGBACK
 10
0.0
 20
0.0
 30
0.0
  9
$PUCSBASE
  2

  9
$PUCSNAME
  2

  9
$PUCSORG
 10
0.0
 20
0.0
 30
0.0
  9
$PUCSXDIR
 10
1.0
 20
0.0
 30
0.0
  9
$PUCSYDIR
 10
0.0
 20
1.0
 30
0.0
  9
$PUCSORTHOREF
  2

  9
$PUCSORTHOVIEW
 70
     0
  9
$PUCSORGTOP
 10
0.0
 20
0.0
 30
0.0
  9
$PUCSORGBOTTOM
 10
0.0
 20
0.0
 30
0.0
  9
$PUCSORGLEFT
 10
0.0
 20
0.0
 30
0.0
  9
$PUCSORGRIGHT
 10
0.0
 20
0.0
 30
0.0
  9
$PUCSORGFRONT
 10
0.0
 20
0.0
 30
0.0
  9
$PUCSORGBACK
 10
0.0
 20
0.0
 30
0.0
  9
$USERI1
 70
     0
  9
$USERI2
 70
     0
  9
$USERI3
 70
     0
  9
$USERI4
 70
     0
  9
$USERI5
 70
     0
  9
$USERR1
 40
15.5
  9
$USERR2
 40
0.0
  9
$USERR3
 40
0.0
  9
$USERR4
 40
0.0
  9
$USERR5
 40
0.0
  9
$WORLDVIEW
 70
     1
  9
$SHADEDGE
 70
     3
  9
$SHADEDIF
 70
    70
  9
$TILEMODE
 70
     1
  9
$MAXACTVP
 70
    64
  9
$PINSBASE
 10
0.0
 20
0.0
 30
0.0
  9
$PLIMCHECK
 70
     0
  9
$PEXTMIN
 10
1.00000000000000E+20
 20
1.00000000000000E+20
 30
1.00000000000000E+20
  9
$PEXTMAX
 10
-1.00000000000000E+20
 20
-1.00000000000000E+20
 30
-1.00000000000000E+20
  9
$PLIMMIN
 10
0.0
 20
0.0
  9
$PLIMMAX
 10
12.0
 20
9.0
  9
$UNITMODE
 70
     0
  9
$VISRETAIN
 70
     1
  9
$PLINEGEN
 70
     0
  9
$PSLTSCALE
 70
     1
  9
$TREEDEPTH
 70
  3020
  9
$CMLSTYLE
  2
Standard
  9
$CMLJUST
 70
     0
  9
$CMLSCALE
 40
1.0
  9
$PROXYGRAPHICS
 70
     1
  9
$MEASUREMENT
 70
     1
  9
$CELWEIGHT
370
    -1
  9
$ENDCAPS
280
     0
  9
$JOINSTYLE
280
     0
  9
$LWDISPLAY
290
     0
  9
$INSUNITS
 70
     1
  9
$HYPERLINKBASE
  1

  9
$STYLESHEET
  1

  9
$XEDIT
290
     1
  9
$CEPSNTYPE
380
     0
  9
$PSTYLEMODE
290
     1
  9
$FINGERPRINTGUID
  2
{CAF2BC18-A13D-4BEE-9325-11C73712BF0C}
  9
$VERSIONGUID
  2
{FAEB1C32-E019-11D5-929B-00C0DF256EC4}
  9
$EXTNAMES
290
     1
  9
$PSVPSCALE
 40
0.0
  9
$OLESTARTUP
290
     0
  0
ENDSEC
  0
SECTION
  2
CLASSES
  0
CLASS
  1
ACDBDICTIONARYWDFLT
  2
AcDbDictionaryWithDefault
  3
ObjectDBX Classes
 90
        0
280
     0
281
     0
  0
CLASS
  1
VISUALSTYLE
  2
AcDbVisualStyle
  3
ObjectDBX Classes
 90
     4095
280
     0
281
     0
  0
CLASS
  1

  2
exOdDbSpline
  3

 90
        0
280
     0
281
     1
  0
CLASS
  1
ACDBPLACEHOLDER
  2
AcDbPlaceHolder
  3
ObjectDBX Classes
 90
        0
280
     0
281
     0
  0
CLASS
  1
LAYOUT
  2
AcDbLayout
  3
ObjectDBX Classes
 90
        0
280
     0
281
     0
  0
ENDSEC
  0
SECTION
  2
TABLES
  0
TABLE
  2
VPORT
  5
8
330
0
100
AcDbSymbolTable
 70
     1
  0
VPORT
  5
29
330
8
100
AcDbSymbolTableRecord
100
AcDbViewportTableRecord
  2
*Active
 70
     0
 10
0.0
 20
0.0
 11
1.0
 21
1.0
 12
250.1552440497871
 22
-419.3811991650027
 13
0.0
 23
0.0
 14
0.5
 24
0.5
 15
0.5
 25
0.5
 16
0.0
 26
0.0
 36
1.0
 17
0.0
 27
0.0
 37
0.0
 40
183.8369285923634
 41
1.60267857142857
 42
50.0
 43
0.0
 44
0.0
 50
0.0
 51
0.0
 71
     0
 72
   100
 73
     1
 74
     3
 75
     0
 76
     0
 77
     0
 78
     0
281
     0
 65
     1
110
0.0
120
0.0
130
0.0
111
1.0
121
0.0
131
0.0
112
0.0
122
1.0
132
0.0
 79
     0
146
0.0
  0
ENDTAB
  0
TABLE
  2
LTYPE
  5
5
330
0
100
AcDbSymbolTable
 70
     8
  0
LTYPE
  5
14
330
5
100
AcDbSymbolTableRecord
100
AcDbLinetypeTableRecord
  2
ByBlock
 70
     0
  3

 72
    65
 73
     0
 40
0.0
  0
LTYPE
  5
15
330
5
100
AcDbSymbolTableRecord
100
AcDbLinetypeTableRecord
  2
ByLayer
 70
     0
  3

 72
    65
 73
     0
 40
0.0
  0
LTYPE
  5
16
330
5
100
AcDbSymbolTableRecord
100
AcDbLinetypeTableRecord
  2
Continuous
 70
     0
  3
Solid line
 72
    65
 73
     0
 40
0.0
  0
LTYPE
  5
3B
330
5
100
AcDbSymbolTableRecord
100
AcDbLinetypeTableRecord
  2
DASHED
 70
     0
  3
Dashed
 72
    65
 73
     2
 40
15.0
 49
7.0
 74
     0
 49
-8.0
 74
     0
  0
LTYPE
  5
3C
330
5
100
AcDbSymbolTableRecord
100
AcDbLinetypeTableRecord
  2
DOTTED
 70
     0
  3
Dotted
 72
    65
 73
     2
 40
1.0
 49
0.0
 74
     0
 49
-1.0
 74
     0
  0
LTYPE
  5
3D
330
5
100
AcDbSymbolTableRecord
100
AcDbLinetypeTableRecord
  2
DOT_CENTER
 70
     0
  3
Dot_Center
 72
    65
 73
     4
 40
14.0
 49
12.0
 74
     0
 49
-1.0
 74
     0
 49
0.0
 74
     0
 49
-1.0
 74
     0
  0
LTYPE
  5
3E
330
5
100
AcDbSymbolTableRecord
100
AcDbLinetypeTableRecord
  2
LONG_DASHED
 70
     0
  3
Long_Dashed
 72
    65
 73
     2
 40
15.0
 49
10.0
 74
     0
 49
-5.0
 74
     0
  0
LTYPE
  5
3F
330
5
100
AcDbSymbolTableRecord
100
AcDbLinetypeTableRecord
  2
DASH_CENTER
 70
     0
  3
Dash_Center
 72
    65
 73
     4
 40
14.0
 49
11.0
 74
     0
 49
-1.0
 74
     0
 49
1.0
 74
     0
 49
-1.0
 74
     0
  0
LTYPE
  5
40
330
5
100
AcDbSymbolTableRecord
100
AcDbLinetypeTableRecord
  2
PHANTOM
 70
     0
  3
Phantom
 72
    65
 73
     6
 40
13.0
 49
10.0
 74
     0
 49
-1.0
 74
     0
 49
0.0
 74
     0
 49
-1.0
 74
     0
 49
0.0
 74
     0
 49
-1.0
 74
     0
  0
LTYPE
  5
41
330
5
100
AcDbSymbolTableRecord
100
AcDbLinetypeTableRecord
  2
CENTER_DASH_DASH
 70
     0
  3
Center_Dash_Dash
 72
    65
 73
     6
 40
14.0
 49
9.0
 74
     0
 49
-1.0
 74
     0
 49
1.0
 74
     0
 49
-1.0
 74
     0
 49
1.0
 74
     0
 49
-1.0
 74
     0
  0
ENDTAB
  0
TABLE
  2
LAYER
  5
2
330
0
100
AcDbSymbolTable
 70
     2
  0
LAYER
  5
10
330
2
100
AcDbSymbolTableRecord
100
AcDbLayerTableRecord
  2
0
 70
     0
 62
     7
  6
Continuous
370
    -3
390
F
  0
LAYER
  5
42
330
2
100
AcDbSymbolTableRecord
100
AcDbLayerTableRecord
  2
1
 70
     0
 62
     7
  6
Continuous
370
    -3
390
F
  0
ENDTAB
  0
TABLE
  2
STYLE
  5
3
330
0
100
AcDbSymbolTable
 70
     2
  0
STYLE
  5
11
330
3
100
AcDbSymbolTableRecord
100
AcDbTextStyleTableRecord
  2
Standard
 70
     0
 40
0.0
 41
1.0
 50
0.0
 71
     0
 42
0.2
  3
txt
  4

  0
STYLE
  5
AA
330
3
100
AcDbSymbolTableRecord
100
AcDbTextStyleTableRecord
  2
CONVERTER_11
 70
     0
 40
0.0
 41
0.9
 50
0.0
 71
     0
 42
0.2
  3
txt.shx
  4

  0
ENDTAB
  0
TABLE
  2
VIEW
  5
6
330
0
100
AcDbSymbolTable
 70
     0
  0
ENDTAB
  0
TABLE
  2
UCS
  5
7
330
0
100
AcDbSymbolTable
 70
     0
  0
ENDTAB
  0
TABLE
  2
APPID
  5
9
330
0
100
AcDbSymbolTable
 70
     1
  0
APPID
  5
12
330
9
100
AcDbSymbolTableRecord
100
AcDbRegAppTableRecord
  2
ACAD
 70
     0
  0
ENDTAB
  0
TABLE
  2
DIMSTYLE
  5
A
330
0
100
AcDbSymbolTable
 70
     3
100
AcDbDimStyleTable
  0
DIMSTYLE
105
27
330
A
100
AcDbSymbolTableRecord
100
AcDbDimStyleTableRecord
  2
Standard
 70
     0
340
11
  0
DIMSTYLE
105
AE
102
{ACAD_REACTORS
330
AF
102
}
330
A
100
AcDbSymbolTableRecord
100
AcDbDimStyleTableRecord
  2
ME10_DIM_10
 70
     0
 41
5.0
 42
0.0
 44
2.0
 73
     0
 74
     0
 77
     1
 78
     8
140
5.0
147
2.0
172
     1
173
     1
176
     4
177
     4
178
     1
271
     2
340
AA
  0
DIMSTYLE
105
B9
102
{ACAD_REACTORS
330
BA
102
}
330
A
100
AcDbSymbolTableRecord
100
AcDbDimStyleTableRecord
  2
ME10_DIM_11
 70
     0
  3
x115
 41
5.0
 42
0.0
 44
2.0
 73
     0
 74
     0
 77
     1
 78
     8
140
5.0
147
2.0
172
     1
173
     1
176
     4
177
     4
178
     1
271
     2
340
AA
  0
ENDTAB
  0
TABLE
  2
BLOCK_RECORD
  5
1
330
0
100
AcDbSymbolTable
 70
     5
  0
BLOCK_RECORD
  5
1F
330
1
100
AcDbSymbolTableRecord
100
AcDbBlockTableRecord
  2
*Model_Space
340
22
  0
BLOCK_RECORD
  5
1B
330
1
100
AcDbSymbolTableRecord
100
AcDbBlockTableRecord
  2
*Paper_Space
340
1E
  0
BLOCK_RECORD
  5
23
330
1
100
AcDbSymbolTableRecord
100
AcDbBlockTableRecord
  2
*Paper_Space0
340
26
  0
BLOCK_RECORD
  5
43
330
1
100
AcDbSymbolTableRecord
100
AcDbBlockTableRecord
  2
10890_Einlaufrost-Pr__1
340
0
102
{BLKREFS
331
49
102
}
  0
BLOCK_RECORD
  5
46
330
1
100
AcDbSymbolTableRecord
100
AcDbBlockTableRecord
  2
10890_Einlaufrost-Pr__2
340
0
102
{BLKREFS
331
4A
102
}
  0
BLOCK_RECORD
  5
A2
330
1
100
AcDbSymbolTableRecord
100
AcDbBlockTableRecord
  2
*D3
340
0
  0
BLOCK_RECORD
  5
B0
330
1
100
AcDbSymbolTableRecord
100
AcDbBlockTableRecord
  2
*D4
340
0
  0
ENDTAB
  0
ENDSEC
  0
SECTION
  2
BLOCKS
  0
BLOCK
  5
20
330
1F
100
AcDbEntity
  8
0
100
AcDbBlockBegin
  2
*Model_Space
 70
     0
 71
     0
 10
0.0
 20
0.0
 30
0.0
  3
*Model_Space
  1

  0
ENDBLK
  5
21
330
1F
100
AcDbEntity
  8
0
100
AcDbBlockEnd
  0
BLOCK
  5
1C
330
1B
100
AcDbEntity
 67
     1
  8
0
100
AcDbBlockBegin
  2
*Paper_Space
 70
     0
 71
     0
 10
0.0
 20
0.0
 30
0.0
  3
*Paper_Space
  1

  0
ENDBLK
  5
1D
330
1B
100
AcDbEntity
 67
     1
  8
0
100
AcDbBlockEnd
  0
BLOCK
  5
24
330
23
100
AcDbEntity
  8
0
100
AcDbBlockBegin
  2
*Paper_Space0
 70
     0
 71
     0
 10
0.0
 20
0.0
 30
0.0
  3
*Paper_Space0
  1

  0
ENDBLK
  5
25
330
23
100
AcDbEntity
  8
0
100
AcDbBlockEnd
  0
BLOCK
  5
44
330
43
100
AcDbEntity
  8
0
100
AcDbBlockBegin
  2
10890_Einlaufrost-Pr__1
 70
     0
 71
     0
 10
201.1552440497871
 20
-342.8189588957466
 30
0.0
  3
10890_Einlaufrost-Pr__1
  1

  0
LINE
  5
4B
330
43
100
AcDbEntity
  8
1
  6
PHANTOM
 62
     2
100
AcDbLine
 10
258.6552440497871
 20
-344.001690149586
 30
0.0
 11
258.6552440497871
 21
-352.952275225614
 31
0.0
  0
LINE
  5
4C
330
43
100
AcDbEntity
  8
0
  6
Continuous
 62
     7
100
AcDbLine
 10
211.6552440497871
 20
-345.8189588957466
 30
0.0
 11
203.1552440497871
 21
-345.8189588957466
 31
0.0
  0
LINE
  5
4D
330
43
100
AcDbEntity
  8
0
  6
Continuous
 62
     7
100
AcDbLine
 10
203.1552440497871
 20
-350.8189588957466
 30
0.0
 11
314.1552440497871
 21
-350.8189588957466
 31
0.0
  0
LINE
  5
4E
330
43
100
AcDbEntity
  8
0
  6
Continuous
 62
     7
100
AcDbLine
 10
201.1552440497871
 20
-347.8189588957466
 30
0.0
 11
201.1552440497871
 21
-350.8189588957466
 31
0.0
  0
LINE
  5
4F
330
43
100
AcDbEntity
  8
0
  6
Continuous
 62
     7
100
AcDbLine
 10
202.6552440497871
 20
-350.8189588957466
 30
0.0
 11
201.1552440497871
 21
-350.8189588957466
 31
0.0
  0
LINE
  5
50
330
43
100
AcDbEntity
  8
0
  6
Continuous
 62
     7
100
AcDbLine
 10
202.6552440497871
 20
-350.8189588957466
 30
0.0
 11
203.1552440497871
 21
-350.8189588957466
 31
0.0
  0
LINE
  5
51
330
43
100
AcDbEntity
  8
0
  6
Continuous
 62
     7
100
AcDbLine
 10
219.8156466675573
 20
-345.8189588957466
 30
0.0
 11
211.6552440497871
 21
-345.8189588957466
 31
0.0
  0
LINE
  5
52
330
43
100
AcDbEntity
  8
0
  6
Continuous
 62
     7
100
AcDbLine
 10
314.1552440497871
 20
-345.8189588957466
 30
0.0
 11
305.6552440497871
 21
-345.8189588957466
 31
0.0
  0
LINE
  5
53
330
43
100
AcDbEntity
  8
0
  6
Continuous
 62
     7
100
AcDbLine
 10
293.6552440497871
 20
-345.8189588957466
 30
0.0
 11
223.6552440497871
 21
-345.8189588957466
 31
0.0
  0
LINE
  5
54
330
43
100
AcDbEntity
  8
0
  6
Continuous
 62
     7
100
AcDbLine
 10
297.494841432017
 20
-345.8189588957466
 30
0.0
 11
293.6552440497871
 21
-345.8189588957466
 31
0.0
  0
LINE
  5
55
330
43
100
AcDbEntity
  8
0
  6
Continuous
 62
     7
100
AcDbLine
 10
223.6552440497871
 20
-345.8189588957466
 30
0.0
 11
219.8156466675573
 21
-345.8189588957466
 31
0.0
  0
LINE
  5
56
330
43
100
AcDbEntity
  8
0
  6
Continuous
 62
     7
100
AcDbLine
 10
305.6552440497871
 20
-345.8189588957466
 30
0.0
 11
297.494841432017
 21
-345.8189588957466
 31
0.0
  0
LINE
  5
57
330
43
100
AcDbEntity
  8
0
  6
Continuous
 62
     7
100
AcDbLine
 10
316.1552440497871
 20
-350.8189588957466
 30
0.0
 11
316.1552440497871
 21
-347.8189588957466
 31
0.0
  0
LINE
  5
58
330
43
100
AcDbEntity
  8
0
  6
Continuous
 62
     7
100
AcDbLine
 10
316.1552440497871
 20
-350.8189588957466
 30
0.0
 11
314.6552440497871
 21
-350.8189588957466
 31
0.0
  0
LINE
  5
59
330
43
100
AcDbEntity
  8
0
  6
Continuous
 62
     7
100
AcDbLine
 10
314.1552440497871
 20
-350.8189588957466
 30
0.0
 11
314.6552440497871
 21
-350.8189588957466
 31
0.0
  0
LINE
  5
5A
330
43
100
AcDbEntity
  8
1
  6
Continuous
 62
     7
100
AcDbLine
 10
316.1552440497871
 20
-347.8189588957466
 30
0.0
 11
201.1552440497871
 21
-347.8189588957466
 31
0.0
  0
ARC
  5
5B
330
43
100
AcDbEntity
  8
0
  6
Continuous
 62
     7
100
AcDbCircle
 10
203.1552440497871
 20
-347.8189588957466
 30
0.0
 40
2.0
100
AcDbArc
 50
90.0
 51
180.0
  0
ARC
  5
5C
330
43
100
AcDbEntity
  8
0
  6
Continuous
 62
     7
100
AcDbCircle
 10
314.1552440497871
 20
-347.8189588957466
 30
0.0
 40
2.0
100
AcDbArc
 50
0.0
 51
90.0
  0
ENDBLK
  5
45
330
43
100
AcDbEntity
  8
0
100
AcDbBlockEnd
  0
BLOCK
  5
47
330
46
100
AcDbEntity
  8
0
100
AcDbBlockBegin
  2
10890_Einlaufrost-Pr__2
 70
     0
 71
     0
 10
201.1552440497871
 20
-502.9434394342588
 30
0.0
  3
10890_Einlaufrost-Pr__2
  1

  0
LINE
  5
5D
330
46
100
AcDbEntity
  8
1
  6
DOT_CENTER
 62
     2
100
AcDbLine
 10
272.6552440497835
 20
-446.1883255024368
 30
0.0
 11
272.6552440497835
 21
-445.1883255024368
 31
0.0
  0
LINE
  5
5E
330
46
100
AcDbEntity
  8
1
  6
DOT_CENTER
 62
     2
100
AcDbLine
 10
244.6552440497908
 20
-445.1883255024368
 30
0.0
 11
244.6552440497908
 21
-446.1883255024368
 31
0.0
  0
LINE
  5
5F
330
46
100
AcDbEntity
  8
1
  6
DOT_CENTER
 62
     2
100
AcDbLine
 10
258.6552440497871
 20
-440.9435467595795
 30
0.0
 11
256.6552440497871
 21
-440.9435467595795
 31
0.0
  0
LINE
  5
60
330
46
100
AcDbEntity
  8
0
  6
Continuous
 62
     7
100
AcDbLine
 10
255.0052440497893
 20
-447.4434394342607
 30
0.0
 11
255.0052440497893
 21
-443.4434394342607
 31
0.0
  0
LINE
  5
61
330
46
100
AcDbEntity
  8
0
  6
Continuous
 62
     7
100
AcDbLine
 10
261.5052440497893
 20
-446.4434394342607
 30
0.0
 11
261.5052440497893
 21
-443.4434394342607
 31
0.0
  0
LINE
  5
62
330
46
100
AcDbEntity
  8
0
  6
Continuous
 62
     7
100
AcDbLine
 10
262.0052440497893
 20
-446.9434394342607
 30
0.0
 11
263.0052440497893
 21
-446.9434394342607
 31
0.0
  0
LINE
  5
63
330
46
100
AcDbEntity
  8
0
  6
Continuous
 62
     7
100
AcDbLine
 10
260.5052440497893
 20
-447.4434394342607
 30
0.0
 11
260.5052440497893
 21
-443.4434394342607
 31
0.0
  0
LINE
  5
64
330
46
100
AcDbEntity
  8
0
  6
Continuous
 62
     7
100
AcDbLine
 10
261.0052440497893
 20
-447.9434394342607
 30
0.0
 11
263.0052440497893
 21
-447.9434394342607
 31
0.0
  0
LINE
  5
65
330
46
100
AcDbEntity
  8
0
  6
Continuous
 62
     7
100
AcDbLine
 10
256.0052440497893
 20
-447.4434394342607
 30
0.0
 11
256.0052440497893
 21
-445.9434394342607
 31
0.0
  0
LINE
  5
66
330
46
100
AcDbEntity
  8
0
  6
Continuous
 62
     7
100
AcDbLine
 10
256.0052440497893
 20
-445.9434394342607
 30
0.0
 11
258.0052440497893
 21
-445.9434394342607
 31
0.0
  0
LINE
  5
67
330
46
100
AcDbEntity
  8
0
  6
Continuous
 62
     7
100
AcDbLine
 10
256.0052440497893
 20
-444.9434394342607
 30
0.0
 11
258.0052440497893
 21
-444.9434394342607
 31
0.0
  0
LINE
  5
68
330
46
100
AcDbEntity
  8
0
  6
Continuous
 62
     7
100
AcDbLine
 10
258.0052440497893
 20
-444.9434394342607
 30
0.0
 11
258.0052440497893
 21
-443.4434394342607
 31
0.0
  0
LINE
  5
69
330
46
100
AcDbEntity
  8
0
  6
Continuous
 62
     7
100
AcDbLine
 10
256.0052440497893
 20
-444.9434394342607
 30
0.0
 11
256.0052440497893
 21
-443.4434394342607
 31
0.0
  0
LINE
  5
6A
330
46
100
AcDbEntity
  8
0
  6
Continuous
 62
     7
100
AcDbLine
 10
258.0052440497893
 20
-447.4434394342607
 30
0.0
 11
258.0052440497893
 21
-445.9434394342607
 31
0.0
  0
LINE
  5
6B
330
46
100
AcDbEntity
  8
0
  6
Continuous
 62
     7
100
AcDbLine
 10
259.0052440497893
 20
-447.4434394342607
 30
0.0
 11
259.0052440497893
 21
-443.4434394342607
 31
0.0
  0
LINE
  5
6C
330
46
100
AcDbEntity
  8
0
  6
Continuous
 62
     7
100
AcDbLine
 10
246.7552440497893
 20
-445.1934394342607
 30
0.0
 11
252.7552440497893
 21
-445.1934394342607
 31
0.0
  0
LINE
  5
6D
330
46
100
AcDbEntity
  8
0
  6
Continuous
 62
     7
100
AcDbLine
 10
246.7552440497893
 20
-445.6934394342607
 30
0.0
 11
252.7552440497893
 21
-445.6934394342607
 31
0.0
  0
LINE
  5
6E
330
46
100
AcDbEntity
  8
0
  6
Continuous
 62
     7
100
AcDbLine
 10
270.7552440497893
 20
-445.6934394342607
 30
0.0
 11
270.7552440497893
 21
-445.1934394342607
 31
0.0
  0
LINE
  5
6F
330
46
100
AcDbEntity
  8
0
  6
Continuous
 62
     7
100
AcDbLine
 10
246.7552440497893
 20
-445.6934394342607
 30
0.0
 11
246.7552440497893
 21
-445.1934394342607
 31
0.0
  0
LINE
  5
70
330
46
100
AcDbEntity
  8
0
  6
Continuous
 62
     7
100
AcDbLine
 10
264.7552440497893
 20
-445.1934394342607
 30
0.0
 11
270.7552440497893
 21
-445.1934394342607
 31
0.0
  0
LINE
  5
71
330
46
100
AcDbEntity
  8
0
  6
Continuous
 62
     7
100
AcDbLine
 10
264.7552440497893
 20
-445.6934394342607
 30
0.0
 11
264.7552440497893
 21
-445.1934394342607
 31
0.0
  0
LINE
  5
72
330
46
100
AcDbEntity
  8
0
  6
Continuous
 62
     7
100
AcDbLine
 10
264.7552440497893
 20
-445.6934394342607
 30
0.0
 11
270.7552440497893
 21
-445.6934394342607
 31
0.0
  0
LINE
  5
73
330
46
100
AcDbEntity
  8
0
  6
Continuous
 62
     7
100
AcDbLine
 10
252.7552440497893
 20
-445.6934394342607
 30
0.0
 11
252.7552440497893
 21
-445.1934394342607
 31
0.0
  0
LINE
  5
74
330
46
100
AcDbEntity
  8
0
  6
Continuous
 62
     7
100
AcDbLine
 10
316.1552440497871
 20
-500.9434394342588
 30
0.0
 11
316.1552440497871
 21
-389.9434394342588
 31
0.0
  0
LINE
  5
75
330
46
100
AcDbEntity
  8
0
  6
Continuous
 62
     7
100
AcDbLine
 10
201.1552440497871
 20
-389.9434394342588
 30
0.0
 11
201.1552440497871
 21
-500.9434394342588
 31
0.0
  0
LINE
  5
76
330
46
100
AcDbEntity
  8
0
  6
Continuous
 62
     7
100
AcDbLine
 10
314.1552440497871
 20
-387.9434394342588
 30
0.0
 11
203.1552440497871
 21
-387.9434394342588
 31
0.0
  0
LINE
  5
77
330
46
100
AcDbEntity
  8
0
  6
Continuous
 62
     7
100
AcDbLine
 10
203.1552440497871
 20
-502.9434394342588
 30
0.0
 11
314.1552440497871
 21
-502.9434394342588
 31
0.0
  0
LINE
  5
78
330
46
100
AcDbEntity
  8
1
  6
DOT_CENTER
 62
     2
100
AcDbLine
 10
283.0906691328397
 20
-413.9369465393407
 30
0.0
 11
283.9680953755913
 21
-413.0595202965893
 31
0.0
  0
LINE
  5
79
330
46
100
AcDbEntity
  8
1
  6
DOT_CENTER
 62
     2
100
AcDbLine
 10
289.7021191940757
 20
-421.4676321018357
 30
0.0
 11
291.2485505359307
 21
-419.9212007599807
 31
0.0
  0
ARC
  5
7A
330
46
100
AcDbEntity
  8
0
  6
Continuous
 62
     7
100
AcDbCircle
 10
261.0052440497893
 20
-443.4434394342607
 30
0.0
 40
0.5
100
AcDbArc
 50
0.0
 51
90.0
  0
ARC
  5
7B
330
46
100
AcDbEntity
  8
0
  6
Continuous
 62
     7
100
AcDbCircle
 10
263.0052440497893
 20
-447.4434394342607
 30
0.0
 40
0.5
100
AcDbArc
 50
-90.0
 51
90.0
  0
ARC
  5
7C
330
46
100
AcDbEntity
  8
0
  6
Continuous
 62
     7
100
AcDbCircle
 10
262.0052440497893
 20
-446.4434394342607
 30
0.0
 40
0.5
100
AcDbArc
 50
180.0
 51
-90.0
  0
ARC
  5
7D
330
46
100
AcDbEntity
  8
0
  6
Continuous
 62
     7
100
AcDbCircle
 10
261.0052440497893
 20
-447.4434394342607
 30
0.0
 40
0.5
100
AcDbArc
 50
180.0
 51
-90.0
  0
ARC
  5
7E
330
46
100
AcDbEntity
  8
0
  6
Continuous
 62
     7
100
AcDbCircle
 10
255.5052440497893
 20
-447.4434394342607
 30
0.0
 40
0.5
100
AcDbArc
 50
180.0
 51
0.0
  0
ARC
  5
7F
330
46
100
AcDbEntity
  8
0
  6
Continuous
 62
     7
100
AcDbCircle
 10
261.0052440497893
 20
-443.4434394342607
 30
0.0
 40
0.5
100
AcDbArc
 50
90.0
 51
180.0
  0
ARC
  5
80
330
46
100
AcDbEntity
  8
0
  6
Continuous
 62
     7
100
AcDbCircle
 10
258.5052440497893
 20
-443.4434394342607
 30
0.0
 40
0.5
100
AcDbArc
 50
0.0
 51
180.0
  0
ARC
  5
81
330
46
100
AcDbEntity
  8
0
  6
Continuous
 62
     7
100
AcDbCircle
 10
255.5052440497893
 20
-443.4434394342607
 30
0.0
 40
0.5000000000000284
100
AcDbArc
 50
0.0
 51
180.0
  0
ARC
  5
82
330
46
100
AcDbEntity
  8
0
  6
Continuous
 62
     7
100
AcDbCircle
 10
258.5052440497893
 20
-447.4434394342607
 30
0.0
 40
0.5
100
AcDbArc
 50
180.0
 51
0.0
  0
ARC
  5
83
330
46
100
AcDbEntity
  8
0
  6
Continuous
 62
     7
100
AcDbCircle
 10
203.1552440497871
 20
-389.9434394342588
 30
0.0
 40
2.0
100
AcDbArc
 50
90.0
 51
180.0
  0
ARC
  5
84
330
46
100
AcDbEntity
  8
0
  6
Continuous
 62
     7
100
AcDbCircle
 10
314.1552440497871
 20
-389.9434394342588
 30
0.0
 40
2.0
100
AcDbArc
 50
0.0
 51
90.0
  0
ARC
  5
85
330
46
100
AcDbEntity
  8
0
  6
Continuous
 62
     7
100
AcDbCircle
 10
314.1552440497871
 20
-500.9434394342588
 30
0.0
 40
2.0
100
AcDbArc
 50
-90.0
 51
0.0
  0
ARC
  5
86
330
46
100
AcDbEntity
  8
0
  6
Continuous
 62
     7
100
AcDbCircle
 10
203.1552440497871
 20
-500.9434394342588
 30
0.0
 40
2.0
100
AcDbArc
 50
180.0
 51
-90.0
  0
ARC
  5
87
330
46
100
AcDbEntity
  8
0
  6
Continuous
 62
     7
100
AcDbCircle
 10
258.6552440497871
 20
-445.4434394342588
 30
0.0
 40
45.00000000000062
100
AcDbArc
 50
57.68038349182122
 51
122.3196165081827
  0
ARC
  5
88
330
46
100
AcDbEntity
  8
0
  6
Continuous
 62
     7
100
AcDbCircle
 10
258.6552440497871
 20
-445.4434394342588
 30
0.0
 40
36.99999999999822
100
AcDbArc
 50
57.68038349182342
 51
122.3196165081814
  0
ARC
  5
89
330
46
100
AcDbEntity
  8
0
  6
Continuous
 62
     7
100
AcDbCircle
 10
236.7349338330022
 20
-410.7952071561176
 30
0.0
 40
4.000000000001273
100
AcDbArc
 50
122.3196165081883
 51
-135.0
  0
ARC
  5
8A
330
46
100
AcDbEntity
  8
0
  6
Continuous
 62
     7
100
AcDbCircle
 10
280.5755542665683
 20
-410.7952071561176
 30
0.0
 40
4.000000000001129
100
AcDbArc
 50
-122.3196165081896
 51
-45.00000778911597
  0
ARC
  5
8B
330
46
100
AcDbEntity
  8
0
  6
Continuous
 62
     7
100
AcDbCircle
 10
236.7349338330022
 20
-410.7952071561176
 30
0.0
 40
4.000000000000595
100
AcDbArc
 50
-135.0
 51
-57.68038349181039
  0
ARC
  5
8C
330
46
100
AcDbEntity
  8
0
  6
Continuous
 62
     7
100
AcDbCircle
 10
280.5755542665683
 20
-410.7952071561176
 30
0.0
 40
4.000000000000672
100
AcDbArc
 50
-45.00000778911597
 51
57.6803834918117
  0
ARC
  5
8D
330
46
100
AcDbEntity
  8
0
  6
Continuous
 62
     7
100
AcDbCircle
 10
224.0070117716459
 20
-423.5231292174739
 30
0.0
 40
3.999999999998097
100
AcDbArc
 50
-32.31961650821613
 51
45.00000000003656
  0
ARC
  5
8E
330
46
100
AcDbEntity
  8
0
  6
Continuous
 62
     7
100
AcDbCircle
 10
224.0070117716459
 20
-423.5231292174739
 30
0.0
 40
3.999999999998042
100
AcDbArc
 50
45.00000000003656
 51
147.6803834918562
  0
ARC
  5
8F
330
46
100
AcDbEntity
  8
0
  6
Continuous
 62
     7
100
AcDbCircle
 10
258.6552440497871
 20
-445.4434394342588
 30
0.0
 40
45.00000000000253
100
AcDbArc
 50
-122.3196165081828
 51
-57.68038349182118
  0
ARC
  5
90
330
46
100
AcDbEntity
  8
0
  6
Continuous
 62
     7
100
AcDbCircle
 10
258.6552440497871
 20
-445.4434394342588
 30
0.0
 40
37.00000000000018
100
AcDbArc
 50
-122.3196165081814
 51
-57.68038349182342
  0
ARC
  5
91
330
46
100
AcDbEntity
  8
0
  6
Continuous
 62
     7
100
AcDbCircle
 10
280.5755542665683
 20
-480.0916717124
 30
0.0
 40
4.000000000000756
100
AcDbArc
 50
45.0
 51
122.3196165081892
  0
ARC
  5
92
330
46
100
AcDbEntity
  8
0
  6
Continuous
 62
     7
100
AcDbCircle
 10
236.7349338330022
 20
-480.0916717124
 30
0.0
 40
4.000000000001177
100
AcDbArc
 50
57.68038349181084
 51
134.9999961249703
  0
ARC
  5
93
330
46
100
AcDbEntity
  8
0
  6
Continuous
 62
     7
100
AcDbCircle
 10
280.5755542665683
 20
-480.0916717124
 30
0.0
 40
4.000000000001177
100
AcDbArc
 50
-57.68038349181084
 51
45.0
  0
ARC
  5
94
330
46
100
AcDbEntity
  8
0
  6
Continuous
 62
     7
100
AcDbCircle
 10
236.7349338330022
 20
-480.0916717124
 30
0.0
 40
4.000000000000685
100
AcDbArc
 50
134.9999961249703
 51
-122.3196165081892
  0
ARC
  5
95
330
46
100
AcDbEntity
  8
0
  6
Continuous
 62
     7
100
AcDbCircle
 10
258.6552440497871
 20
-445.4434394342588
 30
0.0
 40
44.9999999999975
100
AcDbArc
 50
-32.3196165081813
 51
32.31961650818124
  0
ARC
  5
96
330
46
100
AcDbEntity
  8
0
  6
Continuous
 62
     7
100
AcDbCircle
 10
293.3034763279283
 20
-423.5231292174739
 30
0.0
 40
3.999999999996128
100
AcDbArc
 50
32.3196165081723
 51
135.0000000000011
  0
ARC
  5
97
330
46
100
AcDbEntity
  8
0
  6
Continuous
 62
     7
100
AcDbCircle
 10
258.6552440497871
 20
-445.4434394342588
 30
0.0
 40
37.00000000000016
100
AcDbArc
 50
-32.31961650818135
 51
32.31961650818142
  0
ARC
  5
98
330
46
100
AcDbEntity
  8
0
  6
Continuous
 62
     7
100
AcDbCircle
 10
293.3034763279247
 20
-467.36374965104
 30
0.0
 40
3.999999999998224
100
AcDbArc
 50
-134.9999999999637
 51
-32.3196165081896
  0
ARC
  5
99
330
46
100
AcDbEntity
  8
0
  6
Continuous
 62
     7
100
AcDbCircle
 10
258.6552440497871
 20
-445.4434394342588
 30
0.0
 40
45.00000000000059
100
AcDbArc
 50
147.6803834918213
 51
-147.6803834918212
  0
ARC
  5
9A
330
46
100
AcDbEntity
  8
0
  6
Continuous
 62
     7
100
AcDbCircle
 10
258.6552440497871
 20
-445.4434394342588
 30
0.0
 40
37.00000000000322
100
AcDbArc
 50
147.6803834918215
 51
-147.6803834918216
  0
ARC
  5
9B
330
46
100
AcDbEntity
  8
0
  6
Continuous
 62
     7
100
AcDbCircle
 10
224.0070117716459
 20
-467.36374965104
 30
0.0
 40
3.999999999998123
100
AcDbArc
 50
-45.00000000003772
 51
32.31961650817278
  0
ARC
  5
9C
330
46
100
AcDbEntity
  8
0
  6
Continuous
 62
     7
100
AcDbCircle
 10
224.0070117716459
 20
-467.36374965104
 30
0.0
 40
4.000000000001249
100
AcDbArc
 50
-147.6803834918115
 51
-45.00000000003772
  0
ARC
  5
9D
330
46
100
AcDbEntity
  8
0
  6
Continuous
 62
     7
100
AcDbCircle
 10
293.3034763279247
 20
-467.36374965104
 30
0.0
 40
3.999999999996206
100
AcDbArc
 50
147.6803834918275
 51
-134.9999999999637
  0
ARC
  5
9E
330
46
100
AcDbEntity
  8
0
  6
Continuous
 62
     7
100
AcDbCircle
 10
293.3034763279283
 20
-423.5231292174739
 30
0.0
 40
4.000000000000675
100
AcDbArc
 50
135.0000000000011
 51
-147.6803834918115
  0
SPLINE
  5
9F
330
46
100
AcDbEntity
  8
1
  6
Continuous
 62
     7
100
AcDbSpline
210
0.0
220
0.0
230
1.0
 70
     8
 71
     3
 72
    45
 73
    41
 74
    39
 42
0.0000000001
 43
0.0000000001
 44
0.00000001
 40
0.0
 40
0.0
 40
0.0
 40
0.0
 40
0.603688912349881
 40
1.207496415148471
 40
2.398576041228132
 40
3.589682797810384
 40
4.732295557653585
 40
5.874970613020264
 40
6.939082821623135
 40
8.003315836008671
 40
8.96245915574464
 40
9.921823909513911
 40
10.75502599184746
 40
11.5887116224653
 40
12.28343699795807
 40
12.97904405711975
 40
13.53722345727702
 40
14.09829922636127
 40
14.54712557699076
 40
15.00000547341935
 40
15.40550218408827
 40
15.81099889475808
 40
16.26387879118773
 40
16.71270514181665
 40
17.27378091090014
 40
17.83196031105788
 40
18.52756737022007
 40
19.22229274571256
 40
20.05597837632984
 40
20.88918045866319
 40
21.84854521243241
 40
22.80768853216842
 40
23.87192154655393
 40
24.93603375515682
 40
26.07870881052343
 40
27.2213215703666
 40
28.41242832694851
 40
29.60350795302703
 40
30.20731545583136
 40
30.81100436818795
 40
30.81100436818795
 40
30.81100436818795
 40
30.81100436818795
 10
258.6552440497799
 20
-449.9433321089418
 30
0.0
 10
258.4540126751313
 20
-449.9425109308735
 30
0.0
 10
258.0515103953431
 20
-449.940868413422
 30
0.0
 10
257.2521373839573
 20
-449.9235609111747
 30
0.0
 10
256.2575604587868
 20
-449.8815868353512
 30
0.0
 10
255.0854006085106
 20
-449.7983892751948
 30
0.0
 10
253.9323418741087
 20
-449.681514566313
 30
0.0
 10
252.8253405613374
 20
-449.5348645709676
 30
0.0
 10
251.7497229549375
 20
-449.355094112271
 30
0.0
 10
250.7409415779866
 20
-449.1499380132898
 30
0.0
 10
249.775219169841
 20
-448.9124553553647
 30
0.0
 10
248.8942482543261
 20
-448.6556878202877
 30
0.0
 10
248.0673370108294
 20
-448.3673052127901
 30
0.0
 10
247.3388650590412
 20
-448.0672722965579
 30
0.0
 10
246.6750734079158
 20
-447.7359850490105
 30
0.0
 10
246.1172529136224
 20
-447.4010991272321
 30
0.0
 10
245.6346735799295
 20
-447.0344397617591
 30
0.0
 10
245.2589424007971
 20
-446.6683332176125
 30
0.0
 10
244.9709717922544
 20
-446.2707719569513
 30
0.0
 10
244.8024764784993
 20
-445.8648341574445
 30
0.0
 10
244.7329314723981
 20
-445.4434394342602
 30
0.0
 10
244.8024764784993
 20
-445.0220447110748
 30
0.0
 10
244.9709717922539
 20
-444.6161069115678
 30
0.0
 10
245.2589424007972
 20
-444.2185456509067
 30
0.0
 10
245.6346735799301
 20
-443.8524391067613
 30
0.0
 10
246.1172529136224
 20
-443.4857797412876
 30
0.0
 10
246.6750734079154
 20
-443.1508938195077
 30
0.0
 10
247.3388650590411
 20
-442.8196065719615
 30
0.0
 10
248.0673370108296
 20
-442.5195736557308
 30
0.0
 10
248.8942482543262
 20
-442.2311910482337
 30
0.0
 10
249.7752191698409
 20
-441.9744235131564
 30
0.0
 10
250.7409415779866
 20
-441.7369408552317
 30
0.0
 10
251.7497229549376
 20
-441.5317847562504
 30
0.0
 10
252.8253405613373
 20
-441.3520142975538
 30
0.0
 10
253.9323418741086
 20
-441.2053643022082
 30
0.0
 10
255.0854006085103
 20
-441.0884895933264
 30
0.0
 10
256.2575604587861
 20
-441.0052920331702
 30
0.0
 10
257.2521373839579
 20
-440.9633179573465
 30
0.0
 10
258.0515103953478
 20
-440.9460104550994
 30
0.0
 10
258.4540126751399
 20
-440.9443679376479
 30
0.0
 10
258.6552440497908
 20
-440.9435467595795
 30
0.0
 11
258.6552440497799
 21
-449.9433321089418
 31
0.0
 11
258.0515699628742
 21
-449.939101306092
 31
0.0
 11
257.4478958759688
 21
-449.9264088975427
 31
0.0
 11
256.2578875882672
 21
-449.8759019587768
 31
0.0
 11
255.069799475829
 21
-449.7911556157345
 31
0.0
 11
253.9330338075678
 21
-449.6757098084521
 31
0.0
 11
252.8003659626382
 21
-449.5248130383744
 31
0.0
 11
251.7508801605451
 21
-449.348988285559
 31
0.0
 11
250.7082633507978
 21
-449.1355823415449
 31
0.0
 11
249.7770248639875
 21
-448.9059069434777
 31
0.0
 11
248.8565730872827
 21
-448.6354457493375
 31
0.0
 11
248.0701546770408
 21
-448.3601789804794
 31
0.0
 11
247.3005476723571
 21
-448.0396531795826
 31
0.0
 11
246.6795664116406
 21
-447.7281638199048
 31
0.0
 11
246.0857737808199
 21
-447.3658387002422
 31
0.0
 11
245.642762600706
 21
-447.0262723045932
 31
0.0
 11
245.2453711576938
 21
-446.6301838552865
 31
0.0
 11
244.9869540119227
 21
-446.263215638964
 31
0.0
 11
244.8140199195619
 21
-445.8446538152289
 31
0.0
 11
244.7552440497909
 21
-445.4434394342603
 31
0.0
 11
244.8140199195619
 21
-445.0422250532908
 31
0.0
 11
244.9869540119228
 21
-444.6236632295546
 31
0.0
 11
245.2453711576938
 21
-444.2566950132327
 31
0.0
 11
245.642762600706
 21
-443.8606065639271
 31
0.0
 11
246.0857737808199
 21
-443.5210401682774
 31
0.0
 11
246.6795664116406
 21
-443.1587150486138
 31
0.0
 11
247.3005476723572
 21
-442.8472256889366
 31
0.0
 11
248.0701546770408
 21
-442.5266998880413
 31
0.0
 11
248.8565730872827
 21
-442.2514331191838
 31
0.0
 11
249.7770248639874
 21
-441.9809719250435
 31
0.0
 11
250.7082633507978
 21
-441.7512965269764
 31
0.0
 11
251.7508801605451
 21
-441.5378905829623
 31
0.0
 11
252.8003659626382
 21
-441.3620658301469
 31
0.0
 11
253.9330338075677
 21
-441.2111690600692
 31
0.0
 11
255.0697994758289
 21
-441.0957232527867
 31
0.0
 11
256.2578875882667
 21
-441.0109769097444
 31
0.0
 11
257.4478958759672
 21
-440.9604699709787
 31
0.0
 11
258.0515699628784
 21
-440.9477775624293
 31
0.0
 11
258.6552440497908
 21
-440.9435467595795
 31
0.0
  0
SPLINE
  5
A0
330
46
100
AcDbEntity
  8
1
  6
Continuous
 62
     7
100
AcDbSpline
210
0.0
220
0.0
230
1.0
 70
     8
 71
     3
 72
    27
 73
    23
 74
    21
 42
0.0000000001
 43
0.0000000001
 44
0.00000001
 40
0.0
 40
0.0
 40
0.0
 40
0.0
 40
0.6036889123531213
 40
1.207496415154156
 40
2.398576041232222
 40
3.589682797813847
 40
4.732295557657195
 40
5.874970613023853
 40
6.939082821626743
 40
8.003315836012318
 40
8.962459155748272
 40
9.92182390951749
 40
10.75502599185103
 40
11.5887116224689
 40
12.28343699796175
 40
12.97904405712331
 40
13.53722345728061
 40
14.09829922636491
 40
14.54712557699435
 40
15.00000547342306
 40
15.40550218409227
 40
15.81099889476207
 40
15.81099889476207
 40
15.81099889476207
 40
15.81099889476207
 10
258.6552440497908
 20
-440.9435467595795
 30
0.0
 10
258.8564754244405
 20
-440.9443679376478
 30
0.0
 10
259.2589777042307
 20
-440.9460104550993
 30
0.0
 10
260.0583507156161
 20
-440.9633179573461
 30
0.0
 10
261.0529276408019
 20
-441.0052920331744
 30
0.0
 10
262.2250874910154
 20
-441.0884895933114
 30
0.0
 10
263.3781462256379
 20
-441.2053643022615
 30
0.0
 10
264.4851475376119
 20
-441.3520142973604
 30
0.0
 10
265.5607651467921
 20
-441.5317847569177
 30
0.0
 10
266.5695465138605
 20
-441.7369408528385
 30
0.0
 10
267.535268955427
 20
-441.9744235211132
 30
0.0
 10
268.416239754345
 20
-442.2311910200834
 30
0.0
 10
269.2431513788729
 20
-442.5195737455754
 30
0.0
 10
269.9716220285505
 20
-442.8196062585821
 30
0.0
 10
270.6354177774829
 20
-443.1508947751004
 30
0.0
 10
271.1932245503289
 20
-443.485776447748
 30
0.0
 10
271.6758456699965
 20
-443.8524487531147
 30
0.0
 10
272.051437854674
 20
-444.2185122547459
 30
0.0
 10
272.3398315649775
 20
-444.6162045376407
 30
0.0
 10
272.5068671774677
 20
-445.0216903103843
 30
0.0
 10
272.5813342838798
 20
-445.4446092639876
 30
0.0
 10
272.5247568813037
 20
-445.7113056314831
 30
0.0
 10
272.4964681800157
 20
-445.8446538152311
 30
0.0
 11
258.6552440497908
 21
-440.9435467595795
 31
0.0
 11
259.2589181366997
 21
-440.9477775624293
 31
0.0
 11
259.8625922236076
 21
-440.9604699709787
 31
0.0
 11
261.0526005113076
 21
-441.0109769097444
 31
0.0
 11
262.2406886237451
 21
-441.0957232527867
 31
0.0
 11
263.3774542920065
 21
-441.2111690600692
 31
0.0
 11
264.510122136936
 21
-441.3620658301469
 31
0.0
 11
265.5596079390292
 21
-441.5378905829623
 31
0.0
 11
266.6022247487765
 21
-441.7512965269764
 31
0.0
 11
267.5334632355869
 21
-441.9809719250435
 31
0.0
 11
268.4539150122916
 21
-442.2514331191838
 31
0.0
 11
269.2403334225335
 21
-442.5266998880419
 31
0.0
 11
270.0099404272171
 21
-442.8472256889387
 31
0.0
 11
270.6309216879337
 21
-443.1587150486167
 31
0.0
 11
271.2247143187544
 21
-443.5210401682791
 31
0.0
 11
271.6677254988683
 21
-443.8606065639281
 31
0.0
 11
272.0651169418805
 21
-444.2566950132348
 31
0.0
 11
272.3235340876515
 21
-444.6236632295573
 31
0.0
 11
272.4964681800124
 21
-445.0422250532926
 31
0.0
 11
272.5552440497842
 21
-445.4434394342613
 31
0.0
 11
272.4964681800157
 21
-445.8446538152311
 31
0.0
  0
SPLINE
  5
A1
330
46
100
AcDbEntity
  8
1
  6
Continuous
 62
     7
100
AcDbSpline
210
0.0
220
0.0
230
1.0
 70
     8
 71
     3
 72
    25
 73
    21
 74
    19
 42
0.0000000001
 43
0.0000000001
 44
0.00000001
 40
0.0
 40
0.0
 40
0.0
 40
0.0
 40
0.4528798964280722
 40
0.901706247057569
 40
1.462782016142109
 40
2.020961416300135
 40
2.716568475462292
 40
3.411293850954805
 40
4.24497948157211
 40
5.078181563905407
 40
6.037546317674733
 40
6.996689637410633
 40
8.060922651796195
 40
9.125034860399094
 40
10.26770991576574
 40
11.41032267560897
 40
12.60142943219089
 40
13.79250905826957
 40
14.39631656107635
 40
15.00000547343379
 40
15.00000547343379
 40
15.00000547343379
 40
15.00000547343379
 10
272.4964681800157
 20
-445.8446538152311
 30
0.0
 10
272.4455481101496
 20
-445.9875994027888
 30
0.0
 10
272.344163735482
 20
-446.2722111294445
 30
0.0
 10
272.0499558952947
 20
-446.6678409020004
 30
0.0
 10
271.6762737282269
 20
-447.0345819652184
 30
0.0
 10
271.1930783989772
 20
-447.4010505748962
 30
0.0
 10
270.6354601819027
 20
-447.7359991360107
 30
0.0
 10
269.9716081222069
 20
-448.0672676767908
 30
0.0
 10
269.2431553657186
 20
-448.3673065372441
 30
0.0
 10
268.4162385051832
 20
-448.6556874053088
 30
0.0
 10
267.5352693085003
 20
-448.9124554726579
 30
0.0
 10
266.5695464076764
 20
-449.1499379780146
 30
0.0
 10
265.5607651764081
 20
-449.3550941221097
 30
0.0
 10
264.4851475290226
 20
-449.534864568114
 30
0.0
 10
263.3781462280051
 20
-449.6815145670996
 30
0.0
 10
262.2250874903501
 20
-449.7983892749739
 30
0.0
 10
261.0529276409869
 20
-449.8815868354125
 30
0.0
 10
260.0583507155904
 20
-449.923560911167
 30
0.0
 10
259.2589777042289
 20
-449.9408684134235
 30
0.0
 10
258.8564754244325
 20
-449.9425109308738
 30
0.0
 10
258.6552440497799
 20
-449.9433321089418
 30
0.0
 11
272.4964681800157
 21
-445.8446538152311
 31
0.0
 11
272.3235340876524
 21
-446.2632156389647
 31
0.0
 11
272.0651169418805
 21
-446.6301838552866
 31
0.0
 11
271.6677254988683
 21
-447.0262723045937
 31
0.0
 11
271.2247143187544
 21
-447.3658387002439
 31
0.0
 11
270.6309216879337
 21
-447.7281638199074
 31
0.0
 11
270.0099404272171
 21
-448.0396531795847
 31
0.0
 11
269.2403334225335
 21
-448.36017898048
 31
0.0
 11
268.4539150122916
 21
-448.6354457493375
 31
0.0
 11
267.5334632355868
 21
-448.9059069434778
 31
0.0
 11
266.6022247487765
 21
-449.1355823415449
 31
0.0
 11
265.5596079390292
 21
-449.348988285559
 31
0.0
 11
264.510122136936
 21
-449.5248130383744
 31
0.0
 11
263.3774542920065
 21
-449.6757098084521
 31
0.0
 11
262.2406886237453
 21
-449.7911556157345
 31
0.0
 11
261.0526005113074
 21
-449.8759019587768
 31
0.0
 11
259.8625922236068
 21
-449.9264088975425
 31
0.0
 11
259.2589181366932
 21
-449.939101306092
 31
0.0
 11
258.6552440497799
 21
-449.9433321089418
 31
0.0
  0
ENDBLK
  5
48
330
46
100
AcDbEntity
  8
0
100
AcDbBlockEnd
  0
BLOCK
  5
AC
330
A2
100
AcDbEntity
  8
0
100
AcDbBlockBegin
  2
*D3
 70
     1
 71
     0
 10
0.0
 20
0.0
 30
0.0
  3
*D3
  1

  0
LINE
  5
A3
330
A2
100
AcDbEntity
  8
1
  6
Continuous
 62
     4
100
AcDbLine
 10
191.1552440497871
 20
-360.8189588957466
 30
0.0
 11
191.1552440497871
 21
-350.8189588957466
 31
0.0
  0
LINE
  5
A4
330
A2
100
AcDbEntity
  8
1
  6
Continuous
 62
     4
100
AcDbLine
 10
191.1552440497871
 20
-350.8189588957466
 30
0.0
 11
191.1552440497871
 21
-345.8189588957466
 31
0.0
  0
LINE
  5
A5
330
A2
100
AcDbEntity
  8
1
  6
Continuous
 62
     4
100
AcDbLine
 10
191.1552440497871
 20
-345.8189588957466
 30
0.0
 11
191.1552440497871
 21
-335.8189588957466
 31
0.0
  0
LINE
  5
A6
330
A2
100
AcDbEntity
  8
1
  6
Continuous
 62
     4
100
AcDbLine
 10
201.1552440497871
 20
-350.8189588957466
 30
0.0
 11
189.1552440497871
 21
-350.8189588957466
 31
0.0
  0
LINE
  5
A7
330
A2
100
AcDbEntity
  8
1
  6
Continuous
 62
     4
100
AcDbLine
 10
203.1552440497871
 20
-345.8189588957466
 30
0.0
 11
189.1552440497871
 21
-345.8189588957466
 31
0.0
  0
SOLID
  5
A8
330
A2
100
AcDbEntity
  8
1
 62
     4
100
AcDbTrace
 10
191.8135065377241
 20
-355.8189588957466
 30
0.0
 11
190.4969815618501
 21
-355.8189588957466
 31
0.0
 12
191.1552440497871
 22
-350.8189588957466
 32
0.0
 13
191.1552440497871
 23
-350.8189588957466
 33
0.0
  0
SOLID
  5
A9
330
A2
100
AcDbEntity
  8
1
 62
     4
100
AcDbTrace
 10
190.4969815618501
 20
-340.8189588957466
 30
0.0
 11
191.8135065377241
 21
-340.8189588957466
 31
0.0
 12
191.1552440497871
 22
-345.8189588957466
 32
0.0
 13
191.1552440497871
 23
-345.8189588957466
 33
0.0
  0
MTEXT
  5
AB
330
A2
100
AcDbEntity
  8
1
 62
     1
100
AcDbMText
 10
189.1552440497871
 20
-340.735682555869
 30
0.0
 40
5.0
 41
0.0
 71
     7
 72
     1
  1
5
  7
CONVERTER_11
 11
0.0
 21
1.0
 31
0.0
 73
     1
 44
0.60024009603842
  0
ENDBLK
  5
AD
330
A2
100
AcDbEntity
  8
0
100
AcDbBlockEnd
  0
BLOCK
  5
B7
330
B0
100
AcDbEntity
  8
0
100
AcDbBlockBegin
  2
*D4
 70
     1
 71
     0
 10
0.0
 20
0.0
 30
0.0
  3
*D4
  1

  0
LINE
  5
B1
330
B0
100
AcDbEntity
  8
1
  6
Continuous
 62
     4
100
AcDbLine
 10
201.1552440497871
 20
-363.37259689636
 30
0.0
 11
316.1552440497871
 21
-363.37259689636
 31
0.0
  0
LINE
  5
B2
330
B0
100
AcDbEntity
  8
1
  6
Continuous
 62
     4
100
AcDbLine
 10
201.1552440497871
 20
-350.8189588957466
 30
0.0
 11
201.1552440497871
 21
-365.37259689636
 31
0.0
  0
LINE
  5
B3
330
B0
100
AcDbEntity
  8
1
  6
Continuous
 62
     4
100
AcDbLine
 10
316.1552440497871
 20
-350.8189588957466
 30
0.0
 11
316.1552440497871
 21
-365.37259689636
 31
0.0
  0
SOLID
  5
B4
330
B0
100
AcDbEntity
  8
1
 62
     4
100
AcDbTrace
 10
206.1552440497871
 20
-362.714334408423
 30
0.0
 11
206.1552440497871
 21
-364.0308593842969
 31
0.0
 12
201.1552440497871
 22
-363.37259689636
 32
0.0
 13
201.1552440497871
 23
-363.37259689636
 33
0.0
  0
SOLID
  5
B5
330
B0
100
AcDbEntity
  8
1
 62
     4
100
AcDbTrace
 10
311.1552440497871
 20
-364.0308593842969
 30
0.0
 11
311.1552440497871
 21
-362.714334408423
 31
0.0
 12
316.1552440497871
 22
-363.37259689636
 32
0.0
 13
316.1552440497871
 23
-363.37259689636
 33
0.0
  0
MTEXT
  5
B6
330
B0
100
AcDbEntity
  8
1
 62
     1
100
AcDbMText
 10
260.930390911265
 20
-361.37259689636
 30
0.0
 40
5.0
 41
0.0
 71
     7
 72
     1
  1
\C1;115\C1;x115
  7
CONVERTER_11
 11
0.9999999999970619
 21
2.424068405545306E-6
 31
0.0
 73
     1
 44
0.60024009603842
  0
ENDBLK
  5
B8
330
B0
100
AcDbEntity
  8
0
100
AcDbBlockEnd
  0
ENDSEC
  0
SECTION
  2
ENTITIES
  0
INSERT
  5
49
330
1F
100
AcDbEntity
  8
0
100
AcDbBlockReference
  2
10890_Einlaufrost-Pr__1
 10
201.1552440497871
 20
-342.8189588957466
 30
0.0
  0
INSERT
  5
4A
330
1F
100
AcDbEntity
  8
0
100
AcDbBlockReference
  2
10890_Einlaufrost-Pr__2
 10
201.1552440497871
 20
-502.9434394342588
 30
0.0
  0
DIMENSION
  5
AF
330
1F
100
AcDbEntity
  8
1
100
AcDbDimension
  2
*D3
 10
191.1552440497871
 20
-350.8189588957466
 30
0.0
 11
186.6552440497871
 21
-339.235682555869
 31
0.0
 70
    32
  1
<>
 71
     5
 42
-1.0
 53
90.0
  3
ME10_DIM_10
100
AcDbAlignedDimension
 13
203.1552440497871
 23
-345.8189588957466
 33
0.0
 14
201.1552440497871
 24
-350.8189588957466
 34
0.0
 50
90.0
100
AcDbRotatedDimension
  0
DIMENSION
  5
BA
330
1F
100
AcDbEntity
  8
1
100
AcDbDimension
  2
*D4
 10
201.1552440497871
 20
-363.37259689636
 30
0.0
 11
273.430390911265
 21
-358.87259689636
 31
0.0
 70
    33
  1
<>
 71
     5
 42
-1.0
 53
0.00013888888889
  3
ME10_DIM_11
100
AcDbAlignedDimension
 13
316.1552440497871
 23
-350.8189588957466
 33
0.0
 14
201.1552440497871
 24
-350.8189588957466
 34
0.0
  0
ENDSEC
  0
SECTION
  2
OBJECTS
  0
DICTIONARY
  5
C
330
0
100
AcDbDictionary
281
     1
  3
ACAD_GROUP
350
D
  3
ACAD_LAYOUT
350
1A
  3
ACAD_MLINESTYLE
350
17
  3
ACAD_PLOTSETTINGS
350
19
  3
ACAD_PLOTSTYLENAME
350
E
  3
ACAD_TABLESTYLE
350
BB
  3
ACAD_VISUALSTYLE
350
2A
  0
DICTIONARY
  5
D
102
{ACAD_REACTORS
330
C
102
}
330
C
100
AcDbDictionary
281
     1
  0
DICTIONARY
  5
1A
102
{ACAD_REACTORS
330
C
102
}
330
C
100
AcDbDictionary
281
     1
  3
Layout1
350
1E
  3
Layout2
350
26
  3
Model
350
22
  0
DICTIONARY
  5
17
102
{ACAD_REACTORS
330
C
102
}
330
C
100
AcDbDictionary
281
     1
  3
Standard
350
18
  0
DICTIONARY
  5
19
102
{ACAD_REACTORS
330
C
102
}
330
C
100
AcDbDictionary
281
     1
  0
ACDBDICTIONARYWDFLT
  5
E
102
{ACAD_REACTORS
330
C
102
}
330
C
100
AcDbDictionary
281
     1
  3
Normal
350
F
100
AcDbDictionaryWithDefault
340
F
  0
DICTIONARY
  5
BB
102
{ACAD_REACTORS
330
C
102
}
330
C
100
AcDbDictionary
281
     1
  0
DICTIONARY
  5
2A
102
{ACAD_REACTORS
330
C
102
}
330
C
100
AcDbDictionary
281
     1
  3
2dWireframe
350
2F
  3
3D Hidden
350
31
  3
3dWireframe
350
30
  3
Basic
350
32
  3
Brighten
350
36
  3
ColorChange
350
3A
  3
Conceptual
350
34
  3
Dim
350
35
  3
Facepattern
350
39
  3
Flat
350
2B
  3
FlatWithEdges
350
2C
  3
Gouraud
350
2D
  3
GouraudWithEdges
350
2E
  3
Linepattern
350
38
  3
Realistic
350
33
  3
Thicken
350
37
  0
LAYOUT
  5
1E
102
{ACAD_REACTORS
330
1A
102
}
330
1A
100
AcDbPlotSettings
  1

  2
none_device
  4

  6

 40
0.0
 41
0.0
 42
0.0
 43
0.0
 44
0.0
 45
0.0
 46
0.0
 47
0.0
 48
0.0
 49
0.0
140
0.0
141
0.0
142
1.0
143
1.0
 70
   688
 72
     0
 73
     0
 74
     5
  7

 75
    16
147
1.0
148
0.0
149
0.0
100
AcDbLayout
  1
Layout1
 70
     1
 71
     1
 10
0.0
 20
0.0
 11
12.0
 21
9.0
 12
0.0
 22
0.0
 32
0.0
 14
1.00000000000000E+20
 24
1.00000000000000E+20
 34
1.00000000000000E+20
 15
-1.00000000000000E+20
 25
-1.00000000000000E+20
 35
-1.00000000000000E+20
146
0.0
 13
0.0
 23
0.0
 33
0.0
 16
1.0
 26
0.0
 36
0.0
 17
0.0
 27
1.0
 37
0.0
 76
     0
330
1B
  0
LAYOUT
  5
26
102
{ACAD_REACTORS
330
1A
102
}
330
1A
100
AcDbPlotSettings
  1

  2
none_device
  4

  6

 40
0.0
 41
0.0
 42
0.0
 43
0.0
 44
0.0
 45
0.0
 46
0.0
 47
0.0
 48
0.0
 49
0.0
140
0.0
141
0.0
142
1.0
143
1.0
 70
   688
 72
     0
 73
     0
 74
     5
  7

 75
    16
147
1.0
148
0.0
149
0.0
100
AcDbLayout
  1
Layout2
 70
     1
 71
     2
 10
0.0
 20
0.0
 11
0.0
 21
0.0
 12
0.0
 22
0.0
 32
0.0
 14
0.0
 24
0.0
 34
0.0
 15
0.0
 25
0.0
 35
0.0
146
0.0
 13
0.0
 23
0.0
 33
0.0
 16
1.0
 26
0.0
 36
0.0
 17
0.0
 27
1.0
 37
0.0
 76
     0
330
23
  0
LAYOUT
  5
22
102
{ACAD_REACTORS
330
1A
102
}
330
1A
100
AcDbPlotSettings
  1

  2
none_device
  4

  6

 40
0.0
 41
0.0
 42
0.0
 43
0.0
 44
0.0
 45
0.0
 46
0.0
 47
0.0
 48
0.0
 49
0.0
140
0.0
141
0.0
142
1.0
143
1.0
 70
  1712
 72
     0
 73
     0
 74
     0
  7

 75
     0
147
1.0
148
0.0
149
0.0
100
AcDbLayout
  1
Model
 70
     1
 71
     0
 10
0.0
 20
0.0
 11
12.0
 21
9.0
 12
0.0
 22
0.0
 32
0.0
 14
184.1552440497871
 24
-502.9434394342588
 34
0.0
 15
316.1552440497871
 25
-335.8189588957466
 35
0.0
146
0.0
 13
0.0
 23
0.0
 33
0.0
 16
1.0
 26
0.0
 36
0.0
 17
0.0
 27
1.0
 37
0.0
 76
     0
330
1F
331
29
  0
MLINESTYLE
  5
18
102
{ACAD_REACTORS
330
17
102
}
330
17
100
AcDbMlineStyle
  2
Standard
 70
     0
  3

 62
   256
 51
90.0
 52
90.0
 71
     2
 49
0.5
 62
   256
  6
BYLAYER
 49
-0.5
 62
   256
  6
BYLAYER
  0
ACDBPLACEHOLDER
  5
F
102
{ACAD_REACTORS
330
E
102
}
330
E
  0
VISUALSTYLE
  5
2F
102
{ACAD_REACTORS
330
2A
102
}
330
2A
100
AcDbVisualStyle
  2
2dWireframe
 70
     4
 71
     0
 72
     2
 73
     0
 90
        0
 40
-0.6
 41
-30.0
 62
     5
 63
     7
 74
     1
 91
        4
 64
     7
 65
   257
 75
     1
175
     1
 42
1.0
 92
        0
 66
   257
 43
1.0
 76
     1
 77
     6
 78
     2
 67
     7
 79
     5
170
     0
171
     0
290
     0
174
     0
 93
        1
 44
0.0
173
     0
291
     0
 45
0.0
1001
ACAD
1000
AcDbSavedByObjectVersion
1070
     0
  0
VISUALSTYLE
  5
31
102
{ACAD_REACTORS
330
2A
102
}
330
2A
100
AcDbVisualStyle
  2
3D Hidden
 70
     6
 71
     1
 72
     2
 73
     2
 90
        0
 40
-0.6
 41
-30.0
 62
     5
 63
     7
 74
     2
 91
        2
 64
     7
 65
   257
 75
     2
175
     1
 42
40.0
 92
        0
 66
   257
 43
1.0
 76
     1
 77
     6
 78
     2
 67
     7
 79
     3
170
     0
171
     0
290
     0
174
     0
 93
        1
 44
0.0
173
     0
291
     0
 45
0.0
1001
ACAD
1000
AcDbSavedByObjectVersion
1070
     0
  0
VISUALSTYLE
  5
30
102
{ACAD_REACTORS
330
2A
102
}
330
2A
100
AcDbVisualStyle
  2
3dWireframe
 70
     5
 71
     0
 72
     2
 73
     0
 90
        0
 40
-0.6
 41
-30.0
 62
     5
 63
     7
 74
     1
 91
        4
 64
     7
 65
   257
 75
     1
175
     1
 42
1.0
 92
        0
 66
   257
 43
1.0
 76
     1
 77
     6
 78
     2
 67
     7
 79
     5
170
     0
171
     0
290
     0
174
     0
 93
        1
 44
0.0
173
     0
291
     0
 45
0.0
1001
ACAD
1000
AcDbSavedByObjectVersion
1070
     0
  0
VISUALSTYLE
  5
32
102
{ACAD_REACTORS
330
2A
102
}
330
2A
100
AcDbVisualStyle
  2
Basic
 70
     7
 71
     1
 72
     0
 73
     1
 90
        0
 40
-0.6
 41
-30.0
 62
     5
 63
     7
 74
     0
 91
        4
 64
     7
 65
   257
 75
     1
175
     1
 42
1.0
 92
        8
 66
     7
 43
1.0
 76
     1
 77
     6
 78
     2
 67
     7
 79
     5
170
     0
171
     0
290
     0
174
     0
 93
        1
 44
0.0
173
     0
291
     1
 45
0.0
1001
ACAD
1000
AcDbSavedByObjectVersion
1070
     0
  0
VISUALSTYLE
  5
36
102
{ACAD_REACTORS
330
2A
102
}
330
2A
100
AcDbVisualStyle
  2
Brighten
 70
    12
 71
     2
 72
     2
 73
     0
 90
        0
 40
-0.6
 41
-30.0
 62
     5
 63
     7
 74
     1
 91
        4
 64
     7
 65
   257
 75
     1
175
     1
 42
1.0
 92
        8
 66
     7
 43
1.0
 76
     1
 77
     6
 78
     2
 67
     7
 79
     5
170
     0
171
     0
290
     0
174
     0
 93
        1
 44
50.0
173
     0
291
     1
 45
0.0
1001
ACAD
1000
AcDbSavedByObjectVersion
1070
     0
  0
VISUALSTYLE
  5
3A
102
{ACAD_REACTORS
330
2A
102
}
330
2A
100
AcDbVisualStyle
  2
ColorChange
 70
    16
 71
     2
 72
     2
 73
     3
 90
        0
 40
-0.6
 41
-30.0
 62
     5
 63
     8
 74
     1
 91
        4
 64
     7
 65
   257
 75
     1
175
     1
 42
1.0
 92
        8
 66
     8
 43
1.0
 76
     1
 77
     6
 78
     2
 67
     7
 79
     5
170
     0
171
     0
290
     0
174
     0
 93
        1
 44
0.0
173
     0
291
     1
 45
0.0
1001
ACAD
1000
AcDbSavedByObjectVersion
1070
     0
  0
VISUALSTYLE
  5
34
102
{ACAD_REACTORS
330
2A
102
}
330
2A
100
AcDbVisualStyle
  2
Conceptual
 70
     9
 71
     3
 72
     2
 73
     0
 90
        0
 40
-0.6
 41
-30.0
 62
     5
 63
     7
 74
     2
 91
        2
 64
     7
 65
   257
 75
     1
175
     1
 42
40.0
 92
        8
 66
     7
 43
1.0
 76
     1
 77
     6
 78
     2
 67
     7
 79
     3
170
     0
171
     0
290
     0
174
     0
 93
        1
 44
0.0
173
     0
291
     0
 45
0.0
1001
ACAD
1000
AcDbSavedByObjectVersion
1070
     0
  0
VISUALSTYLE
  5
35
102
{ACAD_REACTORS
330
2A
102
}
330
2A
100
AcDbVisualStyle
  2
Dim
 70
    11
 71
     2
 72
     2
 73
     0
 90
        0
 40
-0.6
 41
-30.0
 62
     5
 63
     7
 74
     1
 91
        4
 64
     7
 65
   257
 75
     1
175
     1
 42
1.0
 92
        8
 66
     7
 43
1.0
 76
     1
 77
     6
 78
     2
 67
     7
 79
     5
170
     0
171
     0
290
     0
174
     0
 93
        1
 44
-50.0
173
     0
291
     1
 45
0.0
1001
ACAD
1000
AcDbSavedByObjectVersion
1070
     0
  0
VISUALSTYLE
  5
39
102
{ACAD_REACTORS
330
2A
102
}
330
2A
100
AcDbVisualStyle
  2
Facepattern
 70
    15
 71
     2
 72
     2
 73
     0
 90
        0
 40
-0.6
 41
-30.0
 62
     5
 63
     7
 74
     1
 91
        4
 64
     7
 65
   257
 75
     1
175
     1
 42
1.0
 92
        8
 66
     7
 43
1.0
 76
     1
 77
     6
 78
     2
 67
     7
 79
     5
170
     0
171
     0
290
     0
174
     0
 93
        1
 44
0.0
173
     0
291
     1
 45
0.0
1001
ACAD
1000
AcDbSavedByObjectVersion
1070
     0
  0
VISUALSTYLE
  5
2B
102
{ACAD_REACTORS
330
2A
102
}
330
2A
100
AcDbVisualStyle
  2
Flat
 70
     0
 71
     2
 72
     1
 73
     1
 90
        2
 40
-0.6
 41
30.0
 62
     5
 63
     7
 74
     0
 91
        4
 64
     7
 65
   257
 75
     1
175
     1
 42
1.0
 92
        8
 66
     7
 43
1.0
 76
     1
 77
     6
 78
     2
 67
     7
 79
     5
170
     0
171
     0
290
     0
174
     0
 93
       13
 44
0.0
173
     0
291
     1
 45
0.0
1001
ACAD
1000
AcDbSavedByObjectVersion
1070
     0
  0
VISUALSTYLE
  5
2C
102
{ACAD_REACTORS
330
2A
102
}
330
2A
100
AcDbVisualStyle
  2
FlatWithEdges
 70
     1
 71
     2
 72
     1
 73
     1
 90
        2
 40
-0.6
 41
30.0
 62
     5
 63
     7
 74
     1
 91
        4
 64
     7
 65
   257
 75
     1
175
     1
 42
1.0
 92
        0
 66
   257
 43
1.0
 76
     1
 77
     6
 78
     2
 67
     7
 79
     5
170
     0
171
     0
290
     0
174
     0
 93
       13
 44
0.0
173
     0
291
     1
 45
0.0
1001
ACAD
1000
AcDbSavedByObjectVersion
1070
     0
  0
VISUALSTYLE
  5
2D
102
{ACAD_REACTORS
330
2A
102
}
330
2A
100
AcDbVisualStyle
  2
Gouraud
 70
     2
 71
     2
 72
     2
 73
     1
 90
        2
 40
-0.6
 41
30.0
 62
     5
 63
     7
 74
     0
 91
        4
 64
     7
 65
   257
 75
     1
175
     1
 42
1.0
 92
        0
 66
     7
 43
1.0
 76
     1
 77
     6
 78
     2
 67
     7
 79
     5
170
     0
171
     0
290
     0
174
     0
 93
       13
 44
0.0
173
     0
291
     1
 45
0.0
1001
ACAD
1000
AcDbSavedByObjectVersion
1070
     0
  0
VISUALSTYLE
  5
2E
102
{ACAD_REACTORS
330
2A
102
}
330
2A
100
AcDbVisualStyle
  2
GouraudWithEdges
 70
     3
 71
     2
 72
     2
 73
     1
 90
        2
 40
-0.6
 41
30.0
 62
     5
 63
     7
 74
     1
 91
        4
 64
     7
 65
   257
 75
     1
175
     1
 42
1.0
 92
        0
 66
   257
 43
1.0
 76
     1
 77
     6
 78
     2
 67
     7
 79
     5
170
     0
171
     0
290
     0
174
     0
 93
       13
 44
0.0
173
     0
291
     1
 45
0.0
1001
ACAD
1000
AcDbSavedByObjectVersion
1070
     0
  0
VISUALSTYLE
  5
38
102
{ACAD_REACTORS
330
2A
102
}
330
2A
100
AcDbVisualStyle
  2
Linepattern
 70
    14
 71
     2
 72
     2
 73
     0
 90
        0
 40
-0.6
 41
-30.0
 62
     5
 63
     7
 74
     1
 91
        4
 64
     7
 65
   257
 75
     7
175
     7
 42
1.0
 92
        8
 66
     7
 43
1.0
 76
     1
 77
     6
 78
     2
 67
     7
 79
     5
170
     0
171
     0
290
     0
174
     0
 93
        1
 44
0.0
173
     0
291
     1
 45
0.0
1001
ACAD
1000
AcDbSavedByObjectVersion
1070
     0
  0
VISUALSTYLE
  5
33
102
{ACAD_REACTORS
330
2A
102
}
330
2A
100
AcDbVisualStyle
  2
Realistic
 70
     8
 71
     2
 72
     2
 73
     0
 90
        0
 40
-0.6
 41
-30.0
 62
     5
 63
     7
 74
     1
 91
        0
 64
     7
 65
   257
 75
     1
175
     1
 42
1.0
 92
        8
 66
     8
 43
1.0
 76
     1
 77
     6
 78
     2
 67
     7
 79
     5
170
     0
171
     0
290
     0
174
     0
 93
       13
 44
0.0
173
     0
291
     0
 45
0.0
1001
ACAD
1000
AcDbSavedByObjectVersion
1070
     0
  0
VISUALSTYLE
  5
37
102
{ACAD_REACTORS
330
2A
102
}
330
2A
100
AcDbVisualStyle
  2
Thicken
 70
    13
 71
     2
 72
     2
 73
     0
 90
        0
 40
-0.6
 41
-30.0
 62
     5
 63
     7
 74
     1
 91
        4
 64
     7
 65
   257
 75
     1
175
     1
 42
1.0
 92
       12
 66
     7
 43
1.0
 76
     1
 77
     6
 78
     2
 67
     7
 79
     5
170
     0
171
     0
290
     0
174
     0
 93
        1
 44
0.0
173
     0
291
     1
 45
0.0
1001
ACAD
1000
AcDbSavedByObjectVersion
1070
     0
  0
ENDSEC
  0
EOF
