  0
SECTION
  2
HEADER
  9
$ACADVER
  1
AC1015
  9
$ACADMAINTVER
 70
     6
  9
$DWGCODEPAGE
  3
ANSI_1252
  9
$INSBASE
 10
0.0
 20
0.0
 30
0.0
  9
$EXTMIN
 10
-29.60000000000002
 20
361.161201835576
 30
0.0
  9
$EXTMAX
 10
109.6
 20
482.617411652612
 30
0.0
  9
$LIMMIN
 10
0.0
 20
0.0
  9
$LIMMAX
 10
12.0
 20
9.0
  9
$ORTHOMODE
 70
     0
  9
$REGENMODE
 70
     1
  9
$FILLMODE
 70
     1
  9
$QTEXTMODE
 70
     0
  9
$MIRRTEXT
 70
     1
  9
$LTSCALE
 40
1.0
  9
$ATTMODE
 70
     1
  9
$TEXTSIZE
 40
0.2
  9
$TRACEWID
 40
0.05
  9
$TEXTSTYLE
  7
Standard
  9
$CLAYER
  8
0
  9
$CELTYPE
  6
ByLayer
  9
$CECOLOR
 62
   256
  9
$CELTSCALE
 40
1.0
  9
$DISPSILH
 70
     0
  9
$DIMSCALE
 40
1.0
  9
$DIMASZ
 40
0.18
  9
$DIMEXO
 40
0.0625
  9
$DIMDLI
 40
0.38
  9
$DIMRND
 40
0.0
  9
$DIMDLE
 40
0.0
  9
$DIMEXE
 40
0.18
  9
$DIMTP
 40
0.0
  9
$DIMTM
 40
0.0
  9
$DIMTXT
 40
0.18
  9
$DIMCEN
 40
0.09
  9
$DIMTSZ
 40
0.0
  9
$DIMTOL
 70
     0
  9
$DIMLIM
 70
     0
  9
$DIMTIH
 70
     1
  9
$DIMTOH
 70
     1
  9
$DIMSE1
 70
     0
  9
$DIMSE2
 70
     0
  9
$DIMTAD
 70
     0
  9
$DIMZIN
 70
     0
  9
$DIMBLK
  1

  9
$DIMASO
 70
     1
  9
$DIMSHO
 70
     1
  9
$DIMPOST
  1

  9
$DIMAPOST
  1

  9
$DIMALT
 70
     0
  9
$DIMALTD
 70
     2
  9
$DIMALTF
 40
25.4
  9
$DIMLFAC
 40
1.0
  9
$DIMTOFL
 70
     0
  9
$DIMTVP
 40
0.0
  9
$DIMTIX
 70
     0
  9
$DIMSOXD
 70
     0
  9
$DIMSAH
 70
     0
  9
$DIMBLK1
  1

  9
$DIMBLK2
  1

  9
$DIMSTYLE
  2
Standard
  9
$DIMCLRD
 70
     0
  9
$DIMCLRE
 70
     0
  9
$DIMCLRT
 70
     0
  9
$DIMTFAC
 40
1.0
  9
$DIMGAP
 40
0.09
  9
$DIMJUST
 70
     0
  9
$DIMSD1
 70
     0
  9
$DIMSD2
 70
     0
  9
$DIMTOLJ
 70
     1
  9
$DIMTZIN
 70
     0
  9
$DIMALTZ
 70
     0
  9
$DIMALTTZ
 70
     0
  9
$DIMUPT
 70
     0
  9
$DIMDEC
 70
     4
  9
$DIMTDEC
 70
     4
  9
$DIMALTU
 70
     2
  9
$DIMALTTD
 70
     2
  9
$DIMTXSTY
  7
Standard
  9
$DIMAUNIT
 70
     0
  9
$DIMADEC
 70
     0
  9
$DIMALTRND
 40
0.0
  9
$DIMAZIN
 70
     0
  9
$DIMDSEP
 70
    46
  9
$DIMATFIT
 70
     3
  9
$DIMFRAC
 70
     0
  9
$DIMLDRBLK
  1

  9
$DIMLUNIT
 70
     2
  9
$DIMLWD
 70
    -2
  9
$DIMLWE
 70
    -2
  9
$DIMTMOVE
 70
     0
  9
$LUNITS
 70
     2
  9
$LUPREC
 70
     4
  9
$SKETCHINC
 40
0.1
  9
$FILLETRAD
 40
0.5
  9
$AUNITS
 70
     0
  9
$AUPREC
 70
     0
  9
$MENU
  1
.
  9
$ELEVATION
 40
0.0
  9
$PELEVATION
 40
0.0
  9
$THICKNESS
 40
0.0
  9
$LIMCHECK
 70
     0
  9
$CHAMFERA
 40
0.5
  9
$CHAMFERB
 40
0.5
  9
$CHAMFERC
 40
1.0
  9
$CHAMFERD
 40
0.0
  9
$SKPOLY
 70
     0
  9
$TDCREATE
 40
2454159.479921829
  9
$TDUCREATE
 40
2454159.438255162
  9
$TDUPDATE
 40
2454159.47992184
  9
$TDUUPDATE
 40
2454159.438255174
  9
$TDINDWG
 40
0.0000000116
  9
$TDUSRTIMER
 40
0.0000000116
  9
$USRTIMER
 70
     1
  9
$ANGBASE
 50
0.0
  9
$ANGDIR
 70
     0
  9
$PDMODE
 70
     0
  9
$PDSIZE
 40
0.0
  9
$PLINEWID
 40
0.0
  9
$SPLFRAME
 70
     0
  9
$SPLINETYPE
 70
     6
  9
$SPLINESEGS
 70
     8
  9
$HANDSEED
  5
F6
  9
$SURFTAB1
 70
     6
  9
$SURFTAB2
 70
     6
  9
$SURFTYPE
 70
     6
  9
$SURFU
 70
     6
  9
$SURFV
 70
     6
  9
$UCSBASE
  2

  9
$UCSNAME
  2

  9
$UCSORG
 10
0.0
 20
0.0
 30
0.0
  9
$UCSXDIR
 10
1.0
 20
0.0
 30
0.0
  9
$UCSYDIR
 10
0.0
 20
1.0
 30
0.0
  9
$UCSORTHOREF
  2

  9
$UCSORTHOVIEW
 70
     0
  9
$UCSORGTOP
 10
0.0
 20
0.0
 30
0.0
  9
$UCSORGBOTTOM
 10
0.0
 20
0.0
 30
0.0
  9
$UCSORGLEFT
 10
0.0
 20
0.0
 30
0.0
  9
$UCSORGRIGHT
 10
0.0
 20
0.0
 30
0.0
  9
$UCSORGFRONT
 10
0.0
 20
0.0
 30
0.0
  9
$UCSORGBACK
 10
0.0
 20
0.0
 30
0.0
  9
$PUCSBASE
  2

  9
$PUCSNAME
  2

  9
$PUCSORG
 10
0.0
 20
0.0
 30
0.0
  9
$PUCSXDIR
 10
1.0
 20
0.0
 30
0.0
  9
$PUCSYDIR
 10
0.0
 20
1.0
 30
0.0
  9
$PUCSORTHOREF
  2

  9
$PUCSORTHOVIEW
 70
     0
  9
$PUCSORGTOP
 10
0.0
 20
0.0
 30
0.0
  9
$PUCSORGBOTTOM
 10
0.0
 20
0.0
 30
0.0
  9
$PUCSORGLEFT
 10
0.0
 20
0.0
 30
0.0
  9
$PUCSORGRIGHT
 10
0.0
 20
0.0
 30
0.0
  9
$PUCSORGFRONT
 10
0.0
 20
0.0
 30
0.0
  9
$PUCSORGBACK
 10
0.0
 20
0.0
 30
0.0
  9
$USERI1
 70
     0
  9
$USERI2
 70
     0
  9
$USERI3
 70
     0
  9
$USERI4
 70
     0
  9
$USERI5
 70
     0
  9
$USERR1
 40
14.0
  9
$USERR2
 40
0.0
  9
$USERR3
 40
0.0
  9
$USERR4
 40
0.0
  9
$USERR5
 40
0.0
  9
$WORLDVIEW
 70
     1
  9
$SHADEDGE
 70
     3
  9
$SHADEDIF
 70
    70
  9
$TILEMODE
 70
     1
  9
$MAXACTVP
 70
    64
  9
$PINSBASE
 10
0.0
 20
0.0
 30
0.0
  9
$PLIMCHECK
 70
     0
  9
$PEXTMIN
 10
1.00000000000000E+20
 20
1.00000000000000E+20
 30
1.00000000000000E+20
  9
$PEXTMAX
 10
-1.00000000000000E+20
 20
-1.00000000000000E+20
 30
-1.00000000000000E+20
  9
$PLIMMIN
 10
0.0
 20
0.0
  9
$PLIMMAX
 10
12.0
 20
9.0
  9
$UNITMODE
 70
     0
  9
$VISRETAIN
 70
     1
  9
$PLINEGEN
 70
     0
  9
$PSLTSCALE
 70
     1
  9
$TREEDEPTH
 70
  3020
  9
$CMLSTYLE
  2
Standard
  9
$CMLJUST
 70
     0
  9
$CMLSCALE
 40
1.0
  9
$PROXYGRAPHICS
 70
     1
  9
$MEASUREMENT
 70
     1
  9
$CELWEIGHT
370
    -1
  9
$ENDCAPS
280
     0
  9
$JOINSTYLE
280
     0
  9
$LWDISPLAY
290
     0
  9
$INSUNITS
 70
     1
  9
$HYPERLINKBASE
  1

  9
$STYLESHEET
  1

  9
$XEDIT
290
     1
  9
$CEPSNTYPE
380
     0
  9
$PSTYLEMODE
290
     1
  9
$FINGERPRINTGUID
  2
{7062A9DD-8FBB-4F0A-A6F2-944839034DE6}
  9
$VERSIONGUID
  2
{FAEB1C32-E019-11D5-929B-00C0DF256EC4}
  9
$EXTNAMES
290
     1
  9
$PSVPSCALE
 40
0.0
  9
$OLESTARTUP
290
     0
  0
ENDSEC
  0
SECTION
  2
CLASSES
  0
CLASS
  1
ACDBDICTIONARYWDFLT
  2
AcDbDictionaryWithDefault
  3
ObjectDBX Classes
 90
        0
280
     0
281
     0
  0
CLASS
  1
ACDBPLACEHOLDER
  2
AcDbPlaceHolder
  3
ObjectDBX Classes
 90
        0
280
     0
281
     0
  0
CLASS
  1
LAYOUT
  2
AcDbLayout
  3
ObjectDBX Classes
 90
        0
280
     0
281
     0
  0
ENDSEC
  0
SECTION
  2
TABLES
  0
TABLE
  2
VPORT
  5
8
330
0
100
AcDbSymbolTable
 70
     1
  0
VPORT
  5
29
330
8
100
AcDbSymbolTableRecord
100
AcDbViewportTableRecord
  2
*Active
 70
     0
 10
0.0
 20
0.0
 11
1.0
 21
1.0
 12
39.99999999999999
 22
421.889306744094
 13
0.0
 23
0.0
 14
0.5
 24
0.5
 15
0.5
 25
0.5
 16
0.0
 26
0.0
 36
1.0
 17
0.0
 27
0.0
 37
0.0
 40
133.6018307987397
 41
1.60267857142857
 42
50.0
 43
0.0
 44
0.0
 50
0.0
 51
0.0
 71
     0
 72
   100
 73
     1
 74
     3
 75
     0
 76
     0
 77
     0
 78
     0
281
     0
 65
     1
110
0.0
120
0.0
130
0.0
111
1.0
121
0.0
131
0.0
112
0.0
122
1.0
132
0.0
 79
     0
146
0.0
  0
ENDTAB
  0
TABLE
  2
LTYPE
  5
5
330
0
100
AcDbSymbolTable
 70
     8
  0
LTYPE
  5
14
330
5
100
AcDbSymbolTableRecord
100
AcDbLinetypeTableRecord
  2
ByBlock
 70
     0
  3

 72
    65
 73
     0
 40
0.0
  0
LTYPE
  5
15
330
5
100
AcDbSymbolTableRecord
100
AcDbLinetypeTableRecord
  2
ByLayer
 70
     0
  3

 72
    65
 73
     0
 40
0.0
  0
LTYPE
  5
16
330
5
100
AcDbSymbolTableRecord
100
AcDbLinetypeTableRecord
  2
Continuous
 70
     0
  3
Solid line
 72
    65
 73
     0
 40
0.0
  0
LTYPE
  5
2A
330
5
100
AcDbSymbolTableRecord
100
AcDbLinetypeTableRecord
  2
DASHED
 70
     0
  3
Dashed
 72
    65
 73
     2
 40
15.0
 49
7.0
 74
     0
 49
-8.0
 74
     0
  0
LTYPE
  5
2B
330
5
100
AcDbSymbolTableRecord
100
AcDbLinetypeTableRecord
  2
DOTTED
 70
     0
  3
Dotted
 72
    65
 73
     2
 40
1.0
 49
0.0
 74
     0
 49
-1.0
 74
     0
  0
LTYPE
  5
2C
330
5
100
AcDbSymbolTableRecord
100
AcDbLinetypeTableRecord
  2
DOT_CENTER
 70
     0
  3
Dot_Center
 72
    65
 73
     4
 40
14.0
 49
12.0
 74
     0
 49
-1.0
 74
     0
 49
0.0
 74
     0
 49
-1.0
 74
     0
  0
LTYPE
  5
2D
330
5
100
AcDbSymbolTableRecord
100
AcDbLinetypeTableRecord
  2
LONG_DASHED
 70
     0
  3
Long_Dashed
 72
    65
 73
     2
 40
15.0
 49
10.0
 74
     0
 49
-5.0
 74
     0
  0
LTYPE
  5
2E
330
5
100
AcDbSymbolTableRecord
100
AcDbLinetypeTableRecord
  2
DASH_CENTER
 70
     0
  3
Dash_Center
 72
    65
 73
     4
 40
14.0
 49
11.0
 74
     0
 49
-1.0
 74
     0
 49
1.0
 74
     0
 49
-1.0
 74
     0
  0
LTYPE
  5
2F
330
5
100
AcDbSymbolTableRecord
100
AcDbLinetypeTableRecord
  2
PHANTOM
 70
     0
  3
Phantom
 72
    65
 73
     6
 40
13.0
 49
10.0
 74
     0
 49
-1.0
 74
     0
 49
0.0
 74
     0
 49
-1.0
 74
     0
 49
0.0
 74
     0
 49
-1.0
 74
     0
  0
LTYPE
  5
30
330
5
100
AcDbSymbolTableRecord
100
AcDbLinetypeTableRecord
  2
CENTER_DASH_DASH
 70
     0
  3
Center_Dash_Dash
 72
    65
 73
     6
 40
14.0
 49
9.0
 74
     0
 49
-1.0
 74
     0
 49
1.0
 74
     0
 49
-1.0
 74
     0
 49
1.0
 74
     0
 49
-1.0
 74
     0
  0
ENDTAB
  0
TABLE
  2
LAYER
  5
2
330
0
100
AcDbSymbolTable
 70
     2
  0
LAYER
  5
10
330
2
100
AcDbSymbolTableRecord
100
AcDbLayerTableRecord
  2
0
 70
     0
 62
     7
  6
Continuous
370
    -3
390
F
  0
LAYER
  5
31
330
2
100
AcDbSymbolTableRecord
100
AcDbLayerTableRecord
  2
1
 70
     0
 62
     7
  6
Continuous
370
    -3
390
F
  0
ENDTAB
  0
TABLE
  2
STYLE
  5
3
330
0
100
AcDbSymbolTable
 70
     2
  0
STYLE
  5
11
330
3
100
AcDbSymbolTableRecord
100
AcDbTextStyleTableRecord
  2
Standard
 70
     0
 40
0.0
 41
1.0
 50
0.0
 71
     0
 42
0.2
  3
txt
  4

  0
STYLE
  5
F0
330
3
100
AcDbSymbolTableRecord
100
AcDbTextStyleTableRecord
  2
CONVERTER_1
 70
     0
 40
0.0
 41
0.9
 50
0.0
 71
     0
 42
0.2
  3
txt.shx
  4

  0
ENDTAB
  0
TABLE
  2
VIEW
  5
6
330
0
100
AcDbSymbolTable
 70
     0
  0
ENDTAB
  0
TABLE
  2
UCS
  5
7
330
0
100
AcDbSymbolTable
 70
     0
  0
ENDTAB
  0
TABLE
  2
APPID
  5
9
330
0
100
AcDbSymbolTable
 70
     1
  0
APPID
  5
12
330
9
100
AcDbSymbolTableRecord
100
AcDbRegAppTableRecord
  2
ACAD
 70
     0
  0
ENDTAB
  0
TABLE
  2
DIMSTYLE
  5
A
330
0
100
AcDbSymbolTable
 70
     2
100
AcDbDimStyleTable
  0
DIMSTYLE
105
27
330
A
100
AcDbSymbolTableRecord
100
AcDbDimStyleTableRecord
  2
Standard
 70
     0
340
11
  0
DIMSTYLE
105
F4
102
{ACAD_REACTORS
330
F5
102
}
330
A
100
AcDbSymbolTableRecord
100
AcDbDimStyleTableRecord
  2
ME10_DIM_0
 70
     0
  3
Ø<>
 41
7.0
 42
0.0
 44
2.0
 73
     0
 74
     0
 77
     1
 78
     8
140
7.0
147
2.0
172
     1
173
     1
176
     4
177
     4
178
     1
271
     2
340
F0
  0
ENDTAB
  0
TABLE
  2
BLOCK_RECORD
  5
1
330
0
100
AcDbSymbolTable
 70
     5
  0
BLOCK_RECORD
  5
1F
330
1
100
AcDbSymbolTableRecord
100
AcDbBlockTableRecord
  2
*Model_Space
340
22
  0
BLOCK_RECORD
  5
1B
330
1
100
AcDbSymbolTableRecord
100
AcDbBlockTableRecord
  2
*Paper_Space
340
1E
  0
BLOCK_RECORD
  5
23
330
1
100
AcDbSymbolTableRecord
100
AcDbBlockTableRecord
  2
*Paper_Space0
340
26
  0
BLOCK_RECORD
  5
32
330
1
100
AcDbSymbolTableRecord
100
AcDbBlockTableRecord
  2
Prallpl_ttchen_Einsatz145_1
340
0
102
{BLKREFS
331
3B
102
}
  0
BLOCK_RECORD
  5
35
330
1
100
AcDbSymbolTableRecord
100
AcDbBlockTableRecord
  2
O-Ring4x125_1
340
0
102
{BLKREFS
331
3C
102
}
  0
BLOCK_RECORD
  5
38
330
1
100
AcDbSymbolTableRecord
100
AcDbBlockTableRecord
  2
Einsazt-GV
340
0
102
{BLKREFS
331
3D
102
}
  0
BLOCK_RECORD
  5
EA
330
1
100
AcDbSymbolTableRecord
100
AcDbBlockTableRecord
  2
*D04
340
0
  0
ENDTAB
  0
ENDSEC
  0
SECTION
  2
BLOCKS
  0
BLOCK
  5
20
330
1F
100
AcDbEntity
  8
0
100
AcDbBlockBegin
  2
*Model_Space
 70
     0
 71
     0
 10
0.0
 20
0.0
 30
0.0
  3
*Model_Space
  1

  0
ENDBLK
  5
21
330
1F
100
AcDbEntity
  8
0
100
AcDbBlockEnd
  0
BLOCK
  5
1C
330
1B
100
AcDbEntity
 67
     1
  8
0
100
AcDbBlockBegin
  2
*Paper_Space
 70
     0
 71
     0
 10
0.0
 20
0.0
 30
0.0
  3
*Paper_Space
  1

  0
ENDBLK
  5
1D
330
1B
100
AcDbEntity
 67
     1
  8
0
100
AcDbBlockEnd
  0
BLOCK
  5
24
330
23
100
AcDbEntity
  8
0
100
AcDbBlockBegin
  2
*Paper_Space0
 70
     0
 71
     0
 10
0.0
 20
0.0
 30
0.0
  3
*Paper_Space0
  1

  0
ENDBLK
  5
25
330
23
100
AcDbEntity
  8
0
100
AcDbBlockEnd
  0
BLOCK
  5
33
330
32
100
AcDbEntity
  8
0
100
AcDbBlockBegin
  2
Prallpl_ttchen_Einsatz145_1
 70
     0
 71
     0
 10
-245.8389460178744
 20
365.7373429930331
 30
0.0
  3
Prallpl_ttchen_Einsatz145_1
  1

  0
LINE
  5
3E
330
32
100
AcDbEntity
  8
0
  6
Continuous
 62
     7
100
AcDbLine
 10
50.82179545095568
 20
370.2722429930331
 30
0.0
 11
64.99999999999994
 21
367.7722429930331
 31
0.0
  0
LINE
  5
3F
330
32
100
AcDbEntity
  8
0
  6
Continuous
 62
     3
100
AcDbLine
 10
32.00000000000159
 20
366.2373429930331
 30
0.0
 11
11.00000000000159
 21
366.2373429930331
 31
0.0
  0
LINE
  5
40
330
32
100
AcDbEntity
  8
0
  6
Continuous
 62
     3
100
AcDbLine
 10
11.00000000000159
 20
365.7373429930331
 30
0.0
 11
11.00000000000159
 21
366.2373429930331
 31
0.0
  0
LINE
  5
41
330
32
100
AcDbEntity
  8
0
  6
Continuous
 62
     7
100
AcDbLine
 10
14.99999999999994
 20
367.7722429930331
 30
0.0
 11
11.00000000000159
 21
367.7722429930331
 31
0.0
  0
LINE
  5
42
330
32
100
AcDbEntity
  8
0
  6
Continuous
 62
     7
100
AcDbLine
 10
6.89999999999998
 20
367.7722429930331
 30
0.0
 11
9.09999999999997
 21
367.7722429930331
 31
0.0
  0
LINE
  5
43
330
32
100
AcDbEntity
  8
0
  6
Continuous
 62
     3
100
AcDbLine
 10
11.00000000000159
 20
367.2722429930331
 30
0.0
 11
5.00000000000159
 21
367.2722429930331
 31
0.0
  0
LINE
  5
44
330
32
100
AcDbEntity
  8
0
  6
Continuous
 62
     7
100
AcDbLine
 10
9.69999999999999
 20
367.7722429930331
 30
0.0
 11
10.69999999999999
 21
367.7722429930331
 31
0.0
  0
LINE
  5
45
330
32
100
AcDbEntity
  8
0
  6
Continuous
 62
     7
100
AcDbLine
 10
9.19378000000393
 20
367.7722429930331
 30
0.0
 11
9.69999999999999
 21
367.7722429930331
 31
0.0
  0
LINE
  5
46
330
32
100
AcDbEntity
  8
0
  6
Continuous
 62
     7
100
AcDbLine
 10
9.09999999999997
 20
367.7722429930331
 30
0.0
 11
9.19378000000393
 21
367.7722429930331
 31
0.0
  0
LINE
  5
47
330
32
100
AcDbEntity
  8
0
  6
Continuous
 62
     7
100
AcDbLine
 10
6.29999999999996
 20
367.7722429930331
 30
0.0
 11
6.75189999999998
 21
367.7722429930331
 31
0.0
  0
LINE
  5
48
330
32
100
AcDbEntity
  8
0
  6
Continuous
 62
     7
100
AcDbLine
 10
6.75189999999998
 20
367.7722429930331
 30
0.0
 11
6.89999999999998
 21
367.7722429930331
 31
0.0
  0
LINE
  5
49
330
32
100
AcDbEntity
  8
0
  6
Continuous
 62
     7
100
AcDbLine
 10
5.00000000000159
 20
367.2722429930331
 30
0.0
 11
5.00000000000159
 21
366.2373429930331
 31
0.0
  0
LINE
  5
4A
330
32
100
AcDbEntity
  8
0
  6
Continuous
 62
     7
100
AcDbLine
 10
6.29999999999996
 20
367.7722429930331
 30
0.0
 11
5.50000000000159
 21
367.7722429930331
 31
0.0
  0
LINE
  5
4B
330
32
100
AcDbEntity
  8
0
  6
Continuous
 62
     7
100
AcDbLine
 10
11.00000000000159
 20
367.7722429930331
 30
0.0
 11
10.69999999999999
 21
367.7722429930331
 31
0.0
  0
LINE
  5
4C
330
32
100
AcDbEntity
  8
0
  6
Continuous
 62
     3
100
AcDbLine
 10
11.00000000000159
 20
367.2722429930331
 30
0.0
 11
11.00000000000159
 21
367.7722429930331
 31
0.0
  0
LINE
  5
4D
330
32
100
AcDbEntity
  8
0
  6
Continuous
 62
     3
100
AcDbLine
 10
11.00000000000159
 20
367.2722429930331
 30
0.0
 11
11.00000000000159
 21
366.2373429930331
 31
0.0
  0
LINE
  5
4E
330
32
100
AcDbEntity
  8
0
  6
Continuous
 62
     7
100
AcDbLine
 10
11.00000000000159
 20
365.7373429930331
 30
0.0
 11
5.50000000000159
 21
365.7373429930331
 31
0.0
  0
LINE
  5
4F
330
32
100
AcDbEntity
  8
0
  6
Continuous
 62
     7
100
AcDbLine
 10
32.50000000000159
 20
365.7373429930331
 30
0.0
 11
11.00000000000159
 21
365.7373429930331
 31
0.0
  0
LINE
  5
50
330
32
100
AcDbEntity
  8
0
  6
Continuous
 62
     3
100
AcDbLine
 10
11.00000000000159
 20
366.2373429930331
 30
0.0
 11
5.00000000000159
 21
366.2373429930331
 31
0.0
  0
LINE
  5
51
330
32
100
AcDbEntity
  8
0
  6
Continuous
 62
     7
100
AcDbLine
 10
32.50000000000159
 20
367.7722429930331
 30
0.0
 11
14.99999999999994
 21
367.7722429930331
 31
0.0
  0
LINE
  5
52
330
32
100
AcDbEntity
  8
0
  6
Continuous
 62
     3
100
AcDbLine
 10
32.00000000000159
 20
367.2722429930331
 30
0.0
 11
11.00000000000159
 21
367.2722429930331
 31
0.0
  0
LINE
  5
53
330
32
100
AcDbEntity
  8
0
  6
Continuous
 62
     7
100
AcDbLine
 10
32.00000000000159
 20
366.2373429930331
 30
0.0
 11
32.00000000000159
 21
367.2722429930331
 31
0.0
  0
LINE
  5
54
330
32
100
AcDbEntity
  8
0
  6
Continuous
 62
     3
100
AcDbLine
 10
69.00000000000159
 20
367.7722429930331
 30
0.0
 11
69.00000000000159
 21
367.2722429930331
 31
0.0
  0
LINE
  5
55
330
32
100
AcDbEntity
  8
0
  6
Continuous
 62
     7
100
AcDbLine
 10
69.00000000000159
 20
365.7373429930331
 30
0.0
 11
74.50000000000159
 21
365.7373429930331
 31
0.0
  0
LINE
  5
56
330
32
100
AcDbEntity
  8
0
  6
Continuous
 62
     7
100
AcDbLine
 10
74.50000000000159
 20
367.7722429930331
 30
0.0
 11
73.69999999999999
 21
367.7722429930331
 31
0.0
  0
LINE
  5
57
330
32
100
AcDbEntity
  8
0
  6
Continuous
 62
     7
100
AcDbLine
 10
73.09999999999997
 20
367.7722429930331
 30
0.0
 11
70.89999999999998
 21
367.7722429930331
 31
0.0
  0
LINE
  5
58
330
32
100
AcDbEntity
  8
0
  6
Continuous
 62
     7
100
AcDbLine
 10
73.24809999999997
 20
367.7722429930331
 30
0.0
 11
73.09999999999997
 21
367.7722429930331
 31
0.0
  0
LINE
  5
59
330
32
100
AcDbEntity
  8
0
  6
Continuous
 62
     7
100
AcDbLine
 10
70.89999999999998
 20
367.7722429930331
 30
0.0
 11
70.80621999999602
 21
367.7722429930331
 31
0.0
  0
LINE
  5
5A
330
32
100
AcDbEntity
  8
0
  6
Continuous
 62
     7
100
AcDbLine
 10
70.80621999999602
 20
367.7722429930331
 30
0.0
 11
70.29999999999996
 21
367.7722429930331
 31
0.0
  0
LINE
  5
5B
330
32
100
AcDbEntity
  8
0
  6
Continuous
 62
     7
100
AcDbLine
 10
73.69999999999999
 20
367.7722429930331
 30
0.0
 11
73.24809999999997
 21
367.7722429930331
 31
0.0
  0
LINE
  5
5C
330
32
100
AcDbEntity
  8
0
  6
Continuous
 62
     7
100
AcDbLine
 10
69.29999999999996
 20
367.7722429930331
 30
0.0
 11
70.29999999999996
 21
367.7722429930331
 31
0.0
  0
LINE
  5
5D
330
32
100
AcDbEntity
  8
0
  6
Continuous
 62
     7
100
AcDbLine
 10
69.00000000000159
 20
367.7722429930331
 30
0.0
 11
69.29999999999996
 21
367.7722429930331
 31
0.0
  0
LINE
  5
5E
330
32
100
AcDbEntity
  8
0
  6
Continuous
 62
     3
100
AcDbLine
 10
69.00000000000159
 20
366.2373429930331
 30
0.0
 11
48.00000000000159
 21
366.2373429930331
 31
0.0
  0
LINE
  5
5F
330
32
100
AcDbEntity
  8
0
  6
Continuous
 62
     3
100
AcDbLine
 10
69.00000000000159
 20
367.2722429930331
 30
0.0
 11
48.00000000000159
 21
367.2722429930331
 31
0.0
  0
LINE
  5
60
330
32
100
AcDbEntity
  8
0
  6
Continuous
 62
     7
100
AcDbLine
 10
64.99999999999994
 20
367.7722429930331
 30
0.0
 11
47.50000000000159
 21
367.7722429930331
 31
0.0
  0
LINE
  5
61
330
32
100
AcDbEntity
  8
0
  6
Continuous
 62
     3
100
AcDbLine
 10
69.00000000000159
 20
367.2722429930331
 30
0.0
 11
75.00000000000159
 21
367.2722429930331
 31
0.0
  0
LINE
  5
62
330
32
100
AcDbEntity
  8
0
  6
Continuous
 62
     3
100
AcDbLine
 10
48.00000000000159
 20
367.2722429930331
 30
0.0
 11
42.00000000000159
 21
367.2722429930331
 31
0.0
  0
LINE
  5
63
330
32
100
AcDbEntity
  8
0
  6
Continuous
 62
     3
100
AcDbLine
 10
42.00000000000159
 20
367.2722429930331
 30
0.0
 11
42.00000000000159
 21
367.7722429930331
 31
0.0
  0
LINE
  5
64
330
32
100
AcDbEntity
  8
0
  6
Continuous
 62
     7
100
AcDbLine
 10
47.50000000000159
 20
367.7722429930331
 30
0.0
 11
42.00000000000159
 21
367.7722429930331
 31
0.0
  0
LINE
  5
65
330
32
100
AcDbEntity
  8
0
  6
Continuous
 62
     7
100
AcDbLine
 10
69.00000000000159
 20
367.7722429930331
 30
0.0
 11
64.99999999999994
 21
367.7722429930331
 31
0.0
  0
LINE
  5
66
330
32
100
AcDbEntity
  8
0
  6
Continuous
 62
     3
100
AcDbLine
 10
42.00000000000159
 20
367.2722429930331
 30
0.0
 11
42.00000000000159
 21
366.2373429930331
 31
0.0
  0
LINE
  5
67
330
32
100
AcDbEntity
  8
0
  6
Continuous
 62
     7
100
AcDbLine
 10
48.00000000000159
 20
367.2722429930331
 30
0.0
 11
48.00000000000159
 21
366.2373429930331
 31
0.0
  0
LINE
  5
68
330
32
100
AcDbEntity
  8
0
  6
Continuous
 62
     3
100
AcDbLine
 10
69.00000000000159
 20
366.2373429930331
 30
0.0
 11
69.00000000000159
 21
367.2722429930331
 31
0.0
  0
LINE
  5
69
330
32
100
AcDbEntity
  8
0
  6
Continuous
 62
     3
100
AcDbLine
 10
48.00000000000159
 20
366.2373429930331
 30
0.0
 11
42.00000000000159
 21
366.2373429930331
 31
0.0
  0
LINE
  5
6A
330
32
100
AcDbEntity
  8
0
  6
Continuous
 62
     7
100
AcDbLine
 10
75.00000000000165
 20
366.2373429930331
 30
0.0
 11
75.00000000000159
 21
367.2722429930331
 31
0.0
  0
LINE
  5
6B
330
32
100
AcDbEntity
  8
0
  6
Continuous
 62
     7
100
AcDbLine
 10
40.59999999999997
 20
370.2722429930331
 30
0.0
 11
50.82179545095568
 21
370.2722429930331
 31
0.0
  0
LINE
  5
6C
330
32
100
AcDbEntity
  8
0
  6
Continuous
 62
     7
100
AcDbLine
 10
39.39999999999998
 20
370.2722429930331
 30
0.0
 11
40.59999999999997
 21
370.2722429930331
 31
0.0
  0
LINE
  5
6D
330
32
100
AcDbEntity
  8
0
  6
Continuous
 62
     7
100
AcDbLine
 10
40.59999999999997
 20
367.7722429930331
 30
0.0
 11
40.59999999999997
 21
370.2722429930331
 31
0.0
  0
LINE
  5
6E
330
32
100
AcDbEntity
  8
0
  6
Continuous
 62
     7
100
AcDbLine
 10
42.00000000000159
 20
367.7722429930331
 30
0.0
 11
40.59999999999997
 21
367.7722429930331
 31
0.0
  0
LINE
  5
6F
330
32
100
AcDbEntity
  8
0
  6
Continuous
 62
     7
100
AcDbLine
 10
39.39999999999998
 20
367.7722429930331
 30
0.0
 11
39.39999999999998
 21
370.2722429930331
 31
0.0
  0
LINE
  5
70
330
32
100
AcDbEntity
  8
0
  6
Continuous
 62
     3
100
AcDbLine
 10
69.00000000000159
 20
366.2373429930331
 30
0.0
 11
69.00000000000159
 21
365.7373429930331
 31
0.0
  0
LINE
  5
71
330
32
100
AcDbEntity
  8
0
  6
Continuous
 62
     3
100
AcDbLine
 10
42.00000000000159
 20
365.7373429930331
 30
0.0
 11
42.00000000000159
 21
366.2373429930331
 31
0.0
  0
LINE
  5
72
330
32
100
AcDbEntity
  8
0
  6
Continuous
 62
     7
100
AcDbLine
 10
69.00000000000159
 20
365.7373429930331
 30
0.0
 11
47.50000000000159
 21
365.7373429930331
 31
0.0
  0
LINE
  5
73
330
32
100
AcDbEntity
  8
0
  6
Continuous
 62
     7
100
AcDbLine
 10
47.50000000000159
 20
365.7373429930331
 30
0.0
 11
42.00000000000159
 21
365.7373429930331
 31
0.0
  0
LINE
  5
74
330
32
100
AcDbEntity
  8
0
  6
Continuous
 62
     3
100
AcDbLine
 10
69.00000000000159
 20
366.2373429930331
 30
0.0
 11
75.00000000000165
 21
366.2373429930331
 31
0.0
  0
LINE
  5
75
330
32
100
AcDbEntity
  8
0
  6
Continuous
 62
     3
100
AcDbLine
 10
42.00000000000159
 20
366.2373429930331
 30
0.0
 11
38.00000000000159
 21
366.2373429930331
 31
0.0
  0
LINE
  5
76
330
32
100
AcDbEntity
  8
0
  6
Continuous
 62
     3
100
AcDbLine
 10
38.00000000000159
 20
366.2373429930331
 30
0.0
 11
38.00000000000159
 21
365.7373429930331
 31
0.0
  0
LINE
  5
77
330
32
100
AcDbEntity
  8
0
  6
Continuous
 62
     7
100
AcDbLine
 10
42.00000000000159
 20
365.7373429930331
 30
0.0
 11
38.00000000000159
 21
365.7373429930331
 31
0.0
  0
LINE
  5
78
330
32
100
AcDbEntity
  8
0
  6
Continuous
 62
     3
100
AcDbLine
 10
42.00000000000159
 20
367.2722429930331
 30
0.0
 11
38.00000000000159
 21
367.2722429930331
 31
0.0
  0
LINE
  5
79
330
32
100
AcDbEntity
  8
0
  6
Continuous
 62
     3
100
AcDbLine
 10
38.00000000000159
 20
366.2373429930331
 30
0.0
 11
38.00000000000159
 21
367.2722429930331
 31
0.0
  0
LINE
  5
7A
330
32
100
AcDbEntity
  8
0
  6
Continuous
 62
     7
100
AcDbLine
 10
39.39999999999998
 20
367.7722429930331
 30
0.0
 11
38.00000000000159
 21
367.7722429930331
 31
0.0
  0
LINE
  5
7B
330
32
100
AcDbEntity
  8
0
  6
Continuous
 62
     7
100
AcDbLine
 10
40.59999999999997
 20
367.7722429930331
 30
0.0
 11
39.39999999999998
 21
367.7722429930331
 31
0.0
  0
LINE
  5
7C
330
32
100
AcDbEntity
  8
0
  6
Continuous
 62
     3
100
AcDbLine
 10
38.00000000000159
 20
367.7722429930331
 30
0.0
 11
38.00000000000159
 21
367.2722429930331
 31
0.0
  0
LINE
  5
7D
330
32
100
AcDbEntity
  8
0
  6
Continuous
 62
     7
100
AcDbLine
 10
32.50000000000159
 20
365.7373429930331
 30
0.0
 11
38.00000000000159
 21
365.7373429930331
 31
0.0
  0
LINE
  5
7E
330
32
100
AcDbEntity
  8
0
  6
Continuous
 62
     3
100
AcDbLine
 10
32.00000000000159
 20
366.2373429930331
 30
0.0
 11
38.00000000000159
 21
366.2373429930331
 31
0.0
  0
LINE
  5
7F
330
32
100
AcDbEntity
  8
0
  6
Continuous
 62
     3
100
AcDbLine
 10
32.00000000000159
 20
367.2722429930331
 30
0.0
 11
38.00000000000159
 21
367.2722429930331
 31
0.0
  0
LINE
  5
80
330
32
100
AcDbEntity
  8
0
  6
Continuous
 62
     7
100
AcDbLine
 10
14.99999999999994
 20
367.7722429930331
 30
0.0
 11
29.17820454904427
 21
370.2722429930331
 31
0.0
  0
LINE
  5
81
330
32
100
AcDbEntity
  8
0
  6
Continuous
 62
     7
100
AcDbLine
 10
29.17820454904427
 20
370.2722429930331
 30
0.0
 11
39.39999999999998
 21
370.2722429930331
 31
0.0
  0
LINE
  5
82
330
32
100
AcDbEntity
  8
0
  6
Continuous
 62
     7
100
AcDbLine
 10
32.50000000000159
 20
367.7722429930331
 30
0.0
 11
38.00000000000159
 21
367.7722429930331
 31
0.0
  0
ARC
  5
83
330
32
100
AcDbEntity
  8
0
  6
Continuous
 62
     7
100
AcDbCircle
 10
32.50000000000159
 20
366.2373429930331
 30
0.0
 40
0.5
100
AcDbArc
 50
180.0
 51
-90.0
  0
ARC
  5
84
330
32
100
AcDbEntity
  8
0
  6
Continuous
 62
     7
100
AcDbCircle
 10
5.50000000000159
 20
367.2722429930331
 30
0.0
 40
0.5
100
AcDbArc
 50
90.0
 51
180.0
  0
ARC
  5
85
330
32
100
AcDbEntity
  8
0
  6
Continuous
 62
     7
100
AcDbCircle
 10
5.50000000000159
 20
366.2373429930331
 30
0.0
 40
0.5
100
AcDbArc
 50
180.0
 51
-90.0
  0
ARC
  5
86
330
32
100
AcDbEntity
  8
0
  6
Continuous
 62
     7
100
AcDbCircle
 10
32.50000000000159
 20
367.2722429930331
 30
0.0
 40
0.5
100
AcDbArc
 50
90.0
 51
180.0
  0
ARC
  5
87
330
32
100
AcDbEntity
  8
0
  6
Continuous
 62
     7
100
AcDbCircle
 10
74.50000000000159
 20
367.2722429930331
 30
0.0
 40
0.5
100
AcDbArc
 50
0.0
 51
90.0
  0
ARC
  5
88
330
32
100
AcDbEntity
  8
0
  6
Continuous
 62
     7
100
AcDbCircle
 10
47.50000000000159
 20
367.2722429930331
 30
0.0
 40
0.5
100
AcDbArc
 50
0.0
 51
90.0
  0
ARC
  5
89
330
32
100
AcDbEntity
  8
0
  6
Continuous
 62
     7
100
AcDbCircle
 10
47.50000000000159
 20
366.2373429930331
 30
0.0
 40
0.5
100
AcDbArc
 50
-90.0
 51
0.0
  0
ARC
  5
8A
330
32
100
AcDbEntity
  8
0
  6
Continuous
 62
     7
100
AcDbCircle
 10
74.50000000000159
 20
366.2373429930331
 30
0.0
 40
0.5
100
AcDbArc
 50
-90.0
 51
0.0
  0
ENDBLK
  5
34
330
32
100
AcDbEntity
  8
0
100
AcDbBlockEnd
  0
BLOCK
  5
36
330
35
100
AcDbEntity
  8
0
100
AcDbBlockBegin
  2
O-Ring4x125_1
 70
     0
 71
     0
 10
-278.7389460178761
 20
448.460603609301
 30
0.0
  3
O-Ring4x125_1
  1

  0
LINE
  5
8B
330
35
100
AcDbEntity
  8
0
  6
Continuous
 62
     7
100
AcDbLine
 10
-23.90000000000003
 20
452.460603609301
 30
0.0
 11
-25.90000000000003
 21
452.460603609301
 31
0.0
  0
LINE
  5
8C
330
35
100
AcDbEntity
  8
0
  6
Continuous
 62
     7
100
AcDbLine
 10
105.9
 20
452.460603609301
 30
0.0
 11
103.9
 21
452.460603609301
 31
0.0
  0
LINE
  5
8D
330
35
100
AcDbEntity
  8
0
  6
Continuous
 62
     7
100
AcDbLine
 10
105.9
 20
448.460603609301
 30
0.0
 11
-25.90000000000003
 21
448.460603609301
 31
0.0
  0
LINE
  5
8E
330
35
100
AcDbEntity
  8
0
  6
Continuous
 62
     7
100
AcDbLine
 10
103.9
 20
452.460603609301
 30
0.0
 11
-23.90000000000003
 21
452.460603609301
 31
0.0
  0
ARC
  5
8F
330
35
100
AcDbEntity
  8
0
  6
Continuous
 62
     7
100
AcDbCircle
 10
105.9
 20
450.460603609301
 30
0.0
 40
2.0
100
AcDbArc
 50
-90.0
 51
90.0
  0
ARC
  5
90
330
35
100
AcDbEntity
  8
0
  6
Continuous
 62
     7
100
AcDbCircle
 10
-25.90000000000003
 20
450.460603609301
 30
0.0
 40
2.0
100
AcDbArc
 50
90.0
 51
-90.0
  0
ENDBLK
  5
37
330
35
100
AcDbEntity
  8
0
100
AcDbBlockEnd
  0
BLOCK
  5
39
330
38
100
AcDbEntity
  8
0
100
AcDbBlockBegin
  2
Einsazt-GV
 70
     0
 71
     0
 10
-280.438946017876
 20
167.7722429930331
 30
0.0
  3
Einsazt-GV
  1

  0
LINE
  5
91
330
38
100
AcDbEntity
  8
1
  6
DOT_CENTER
 62
     2
100
AcDbLine
 10
40.0
 20
361.161201835576
 30
0.0
 11
40.0
 21
465.079087249116
 31
0.0
  0
LINE
  5
92
330
38
100
AcDbEntity
  8
0
  6
Continuous
 62
     7
100
AcDbLine
 10
-24.35642212862655
 20
444.81217475507
 30
0.0
 11
-27.00000000000003
 21
445.0434578499616
 31
0.0
  0
LINE
  5
93
330
38
100
AcDbEntity
  8
0
  6
Continuous
 62
     7
100
AcDbLine
 10
107.0
 20
445.0434578499614
 30
0.0
 11
-27.00000000000003
 21
445.0434578499616
 31
0.0
  0
LINE
  5
94
330
38
100
AcDbEntity
  8
0
  6
Continuous
 62
     7
100
AcDbLine
 10
106.9999999999999
 20
448.0010281361011
 30
0.0
 11
-27.00000000000003
 21
448.0010281361011
 31
0.0
  0
LINE
  5
95
330
38
100
AcDbEntity
  8
0
  6
Continuous
 62
     7
100
AcDbLine
 10
107.0
 20
445.0434578499614
 30
0.0
 11
106.9999999999999
 21
448.0010281361011
 31
0.0
  0
LINE
  5
96
330
38
100
AcDbEntity
  8
0
  6
Continuous
 62
     3
100
AcDbLine
 10
-23.90000000000006
 20
444.3140774060241
 30
0.0
 11
103.9
 21
444.3140774060241
 31
0.0
  0
LINE
  5
97
330
38
100
AcDbEntity
  8
0
  6
Continuous
 62
     3
100
AcDbLine
 10
-24.35642212862655
 20
444.81217475507
 30
0.0
 11
104.3564221286266
 21
444.81217475507
 31
0.0
  0
LINE
  5
98
330
38
100
AcDbEntity
  8
0
  6
Continuous
 62
     7
100
AcDbLine
 10
-27.00000000000003
 20
453.0434578499616
 30
0.0
 11
-27.00000000000003
 21
457.2722429930332
 31
0.0
  0
LINE
  5
99
330
38
100
AcDbEntity
  8
0
  6
Continuous
 62
     7
100
AcDbLine
 10
-23.90000000000003
 20
452.7722429930332
 30
0.0
 11
-27.00000000000003
 21
453.0434578499616
 31
0.0
  0
LINE
  5
9A
330
38
100
AcDbEntity
  8
0
  6
Continuous
 62
     7
100
AcDbLine
 10
-23.90000000000003
 20
448.2722429930332
 30
0.0
 11
-23.90000000000003
 21
448.460603609301
 31
0.0
  0
LINE
  5
9B
330
38
100
AcDbEntity
  8
0
  6
Continuous
 62
     7
100
AcDbLine
 10
6.89999999999998
 20
367.7722429930332
 30
0.0
 11
9.09999999999997
 21
367.7722429930332
 31
0.0
  0
LINE
  5
9C
330
38
100
AcDbEntity
  8
0
  6
Continuous
 62
     7
100
AcDbLine
 10
9.69999999999999
 20
367.7722429930332
 30
0.0
 11
10.69999999999999
 21
367.7722429930332
 31
0.0
  0
LINE
  5
9D
330
38
100
AcDbEntity
  8
0
  6
Continuous
 62
     7
100
AcDbLine
 10
9.19378000000393
 20
367.7722429930332
 30
0.0
 11
9.69999999999999
 21
367.7722429930332
 31
0.0
  0
LINE
  5
9E
330
38
100
AcDbEntity
  8
0
  6
Continuous
 62
     7
100
AcDbLine
 10
9.09999999999997
 20
367.7722429930332
 30
0.0
 11
9.19378000000393
 21
367.7722429930332
 31
0.0
  0
LINE
  5
9F
330
38
100
AcDbEntity
  8
0
  6
Continuous
 62
     7
100
AcDbLine
 10
6.29999999999996
 20
367.7722429930332
 30
0.0
 11
6.75189999999998
 21
367.7722429930332
 31
0.0
  0
LINE
  5
A0
330
38
100
AcDbEntity
  8
0
  6
Continuous
 62
     7
100
AcDbLine
 10
6.75189999999998
 20
367.7722429930332
 30
0.0
 11
6.89999999999998
 21
367.7722429930332
 31
0.0
  0
LINE
  5
A1
330
38
100
AcDbEntity
  8
0
  6
Continuous
 62
     7
100
AcDbLine
 10
6.29999999999996
 20
367.7722429930332
 30
0.0
 11
5.50000000000159
 21
367.7722429930332
 31
0.0
  0
LINE
  5
A2
330
38
100
AcDbEntity
  8
0
  6
Continuous
 62
     7
100
AcDbLine
 10
103.9
 20
448.2722429930331
 30
0.0
 11
-23.90000000000003
 21
448.2722429930332
 31
0.0
  0
LINE
  5
A3
330
38
100
AcDbEntity
  8
0
  6
Continuous
 62
     7
100
AcDbLine
 10
-23.90000000000006
 20
388.7722429930332
 30
0.0
 11
-23.90000000000006
 21
444.3140774060241
 31
0.0
  0
LINE
  5
A4
330
38
100
AcDbEntity
  8
0
  6
Continuous
 62
     3
100
AcDbLine
 10
-23.90000000000006
 20
388.7722429930332
 30
0.0
 11
103.9
 21
388.7722429930332
 31
0.0
  0
LINE
  5
A5
330
38
100
AcDbEntity
  8
0
  6
Continuous
 62
     7
100
AcDbLine
 10
103.9
 20
388.7722429930332
 30
0.0
 11
103.9
 21
444.3140774060241
 31
0.0
  0
LINE
  5
A6
330
38
100
AcDbEntity
  8
0
  6
Continuous
 62
     7
100
AcDbLine
 10
106.6
 20
459.7722429930332
 30
0.0
 11
109.2294095225513
 21
459.0676948348948
 31
0.0
  0
LINE
  5
A7
330
38
100
AcDbEntity
  8
0
  6
Continuous
 62
     7
100
AcDbLine
 10
106.9999999999999
 20
453.0434578499616
 30
0.0
 11
106.9999999999999
 21
457.2722429930332
 31
0.0
  0
LINE
  5
A8
330
38
100
AcDbEntity
  8
0
  6
Continuous
 62
     7
100
AcDbLine
 10
103.9
 20
452.7722429930332
 30
0.0
 11
106.9999999999999
 21
453.0434578499616
 31
0.0
  0
LINE
  5
A9
330
38
100
AcDbEntity
  8
0
  6
Continuous
 62
     7
100
AcDbLine
 10
103.9
 20
448.2722429930331
 30
0.0
 11
103.9
 21
448.460603609301
 31
0.0
  0
LINE
  5
AA
330
38
100
AcDbEntity
  8
0
  6
Continuous
 62
     7
100
AcDbLine
 10
74.50000000000159
 20
367.7722429930332
 30
0.0
 11
73.69999999999999
 21
367.7722429930332
 31
0.0
  0
LINE
  5
AB
330
38
100
AcDbEntity
  8
0
  6
Continuous
 62
     7
100
AcDbLine
 10
74.69999999999999
 20
367.7722429930332
 30
0.0
 11
74.50000000000159
 21
367.7722429930332
 31
0.0
  0
LINE
  5
AC
330
38
100
AcDbEntity
  8
0
  6
Continuous
 62
     7
100
AcDbLine
 10
73.09999999999997
 20
367.7722429930332
 30
0.0
 11
70.89999999999998
 21
367.7722429930332
 31
0.0
  0
LINE
  5
AD
330
38
100
AcDbEntity
  8
0
  6
Continuous
 62
     7
100
AcDbLine
 10
73.24809999999997
 20
367.7722429930332
 30
0.0
 11
73.09999999999997
 21
367.7722429930332
 31
0.0
  0
LINE
  5
AE
330
38
100
AcDbEntity
  8
0
  6
Continuous
 62
     7
100
AcDbLine
 10
70.89999999999998
 20
367.7722429930332
 30
0.0
 11
70.80621999999602
 21
367.7722429930332
 31
0.0
  0
LINE
  5
AF
330
38
100
AcDbEntity
  8
0
  6
Continuous
 62
     7
100
AcDbLine
 10
70.80621999999602
 20
367.7722429930332
 30
0.0
 11
70.29999999999996
 21
367.7722429930332
 31
0.0
  0
LINE
  5
B0
330
38
100
AcDbEntity
  8
0
  6
Continuous
 62
     7
100
AcDbLine
 10
73.69999999999999
 20
367.7722429930332
 30
0.0
 11
73.24809999999997
 21
367.7722429930332
 31
0.0
  0
LINE
  5
B1
330
38
100
AcDbEntity
  8
0
  6
Continuous
 62
     7
100
AcDbLine
 10
69.29999999999996
 20
367.7722429930332
 30
0.0
 11
70.29999999999996
 21
367.7722429930332
 31
0.0
  0
LINE
  5
B2
330
38
100
AcDbEntity
  8
0
  6
Continuous
 62
     7
100
AcDbLine
 10
104.3564221286266
 20
444.81217475507
 30
0.0
 11
107.0
 21
445.0434578499614
 31
0.0
  0
LINE
  5
B3
330
38
100
AcDbEntity
  8
0
  6
Continuous
 62
     7
100
AcDbLine
 10
103.9
 20
448.2722429930331
 30
0.0
 11
106.9999999999999
 21
448.0010281361011
 31
0.0
  0
LINE
  5
B4
330
38
100
AcDbEntity
  8
0
  6
Continuous
 62
     7
100
AcDbLine
 10
-26.60000000000002
 20
459.7722429930332
 30
0.0
 11
-29.22940952255127
 21
459.0676948348948
 31
0.0
  0
LINE
  5
B5
330
38
100
AcDbEntity
  8
0
  6
Continuous
 62
     3
100
AcDbLine
 10
-27.00000000000003
 20
457.2722429930332
 30
0.0
 11
106.9999999999999
 21
457.2722429930332
 31
0.0
  0
LINE
  5
B6
330
38
100
AcDbEntity
  8
0
  6
Continuous
 62
     3
100
AcDbLine
 10
109.2294095225513
 20
459.0676948348948
 30
0.0
 11
-29.22940952255127
 21
459.0676948348948
 31
0.0
  0
LINE
  5
B7
330
38
100
AcDbEntity
  8
0
  6
Continuous
 62
     7
100
AcDbLine
 10
107.4999999999999
 20
457.7722429930332
 30
0.0
 11
-27.50000000000003
 21
457.7722429930332
 31
0.0
  0
LINE
  5
B8
330
38
100
AcDbEntity
  8
0
  6
Continuous
 62
     7
100
AcDbLine
 10
106.6
 20
459.7722429930332
 30
0.0
 11
-26.60000000000002
 21
459.7722429930332
 31
0.0
  0
LINE
  5
B9
330
38
100
AcDbEntity
  8
0
  6
Continuous
 62
     7
100
AcDbLine
 10
109.6
 20
457.7722429930332
 30
0.0
 11
109.6
 21
458.5847319217503
 31
0.0
  0
LINE
  5
BA
330
38
100
AcDbEntity
  8
0
  6
Continuous
 62
     3
100
AcDbLine
 10
109.6
 20
458.5847319217503
 30
0.0
 11
-29.60000000000002
 21
458.5847319217503
 31
0.0
  0
LINE
  5
BB
330
38
100
AcDbEntity
  8
0
  6
Continuous
 62
     7
100
AcDbLine
 10
-29.60000000000002
 20
457.7722429930332
 30
0.0
 11
-29.60000000000002
 21
458.5847319217503
 31
0.0
  0
LINE
  5
BC
330
38
100
AcDbEntity
  8
0
  6
Continuous
 62
     7
100
AcDbLine
 10
-27.50000000000003
 20
457.7722429930332
 30
0.0
 11
-29.60000000000002
 21
457.7722429930332
 31
0.0
  0
LINE
  5
BD
330
38
100
AcDbEntity
  8
0
  6
Continuous
 62
     7
100
AcDbLine
 10
109.6
 20
457.7722429930332
 30
0.0
 11
107.4999999999999
 21
457.7722429930332
 31
0.0
  0
LINE
  5
BE
330
38
100
AcDbEntity
  8
0
  6
Continuous
 62
     7
100
AcDbLine
 10
106.9999999999999
 20
453.0434578499616
 30
0.0
 11
-27.00000000000003
 21
453.0434578499616
 31
0.0
  0
LINE
  5
BF
330
38
100
AcDbEntity
  8
0
  6
Continuous
 62
     7
100
AcDbLine
 10
103.9
 20
452.7722429930332
 30
0.0
 11
-23.90000000000003
 21
452.7722429930332
 31
0.0
  0
LINE
  5
C0
330
38
100
AcDbEntity
  8
0
  6
Continuous
 62
     7
100
AcDbLine
 10
80.19999999999999
 20
378.7722429930332
 30
0.0
 11
75.19999999999999
 21
373.7722429930332
 31
0.0
  0
LINE
  5
C1
330
38
100
AcDbEntity
  8
0
  6
Continuous
 62
     7
100
AcDbLine
 10
103.9
 20
452.460603609301
 30
0.0
 11
103.9
 21
452.7722429930332
 31
0.0
  0
LINE
  5
C2
330
38
100
AcDbEntity
  8
0
  6
Continuous
 62
     7
100
AcDbLine
 10
80.19999999999999
 20
378.7722429930332
 30
0.0
 11
93.90000000000003
 21
378.7722429930332
 31
0.0
  0
LINE
  5
C3
330
38
100
AcDbEntity
  8
0
  6
Continuous
 62
     3
100
AcDbLine
 10
73.69999999999999
 20
378.7722429930332
 30
0.0
 11
73.69999999999999
 21
368.2722429930332
 31
0.0
  0
LINE
  5
C4
330
38
100
AcDbEntity
  8
0
  6
Continuous
 62
     3
100
AcDbLine
 10
75.19999999999999
 20
368.2722429930332
 30
0.0
 11
73.69999999999999
 21
368.2722429930332
 31
0.0
  0
LINE
  5
C5
330
38
100
AcDbEntity
  8
0
  6
Continuous
 62
     7
100
AcDbLine
 10
75.19999999999999
 20
373.7722429930332
 30
0.0
 11
75.19999999999999
 21
368.2722429930332
 31
0.0
  0
LINE
  5
C6
330
38
100
AcDbEntity
  8
0
  6
Continuous
 62
     3
100
AcDbLine
 10
70.29999999999996
 20
368.2722429930332
 30
0.0
 11
70.29999999999996
 21
378.7722429930332
 31
0.0
  0
LINE
  5
C7
330
38
100
AcDbEntity
  8
0
  6
Continuous
 62
     7
100
AcDbLine
 10
75.19999999999999
 20
378.7722429930332
 30
0.0
 11
75.19999999999999
 21
373.7722429930332
 31
0.0
  0
LINE
  5
C8
330
38
100
AcDbEntity
  8
0
  6
Continuous
 62
     3
100
AcDbLine
 10
73.69999999999999
 20
368.2722429930332
 30
0.0
 11
70.29999999999996
 21
368.2722429930332
 31
0.0
  0
LINE
  5
C9
330
38
100
AcDbEntity
  8
0
  6
Continuous
 62
     3
100
AcDbLine
 10
73.69999999999999
 20
367.7722429930332
 30
0.0
 11
73.69999999999999
 21
368.2722429930332
 31
0.0
  0
LINE
  5
CA
330
38
100
AcDbEntity
  8
0
  6
Continuous
 62
     3
100
AcDbLine
 10
68.79999999999996
 20
368.2722429930332
 30
0.0
 11
70.29999999999996
 21
368.2722429930332
 31
0.0
  0
LINE
  5
CB
330
38
100
AcDbEntity
  8
0
  6
Continuous
 62
     3
100
AcDbLine
 10
70.29999999999996
 20
368.2722429930332
 30
0.0
 11
70.29999999999996
 21
367.7722429930332
 31
0.0
  0
LINE
  5
CC
330
38
100
AcDbEntity
  8
0
  6
Continuous
 62
     7
100
AcDbLine
 10
68.79999999999996
 20
368.2722429930332
 30
0.0
 11
68.79999999999996
 21
378.7722429930332
 31
0.0
  0
LINE
  5
CD
330
38
100
AcDbEntity
  8
0
  6
Continuous
 62
     7
100
AcDbLine
 10
-0.20000000000005
 20
378.7722429930332
 30
0.0
 11
4.79999999999996
 21
373.7722429930332
 31
0.0
  0
LINE
  5
CE
330
38
100
AcDbEntity
  8
0
  6
Continuous
 62
     7
100
AcDbLine
 10
-23.90000000000003
 20
448.2722429930332
 30
0.0
 11
-27.00000000000003
 21
448.0010281361011
 31
0.0
  0
LINE
  5
CF
330
38
100
AcDbEntity
  8
0
  6
Continuous
 62
     7
100
AcDbLine
 10
-27.00000000000003
 20
445.0434578499616
 30
0.0
 11
-27.00000000000003
 21
448.0010281361011
 31
0.0
  0
LINE
  5
D0
330
38
100
AcDbEntity
  8
0
  6
Continuous
 62
     7
100
AcDbLine
 10
-23.90000000000003
 20
452.460603609301
 30
0.0
 11
-23.90000000000003
 21
452.7722429930332
 31
0.0
  0
LINE
  5
D1
330
38
100
AcDbEntity
  8
0
  6
Continuous
 62
     7
100
AcDbLine
 10
-13.90000000000006
 20
378.7722429930332
 30
0.0
 11
-0.20000000000005
 21
378.7722429930332
 31
0.0
  0
LINE
  5
D2
330
38
100
AcDbEntity
  8
0
  6
Continuous
 62
     7
100
AcDbLine
 10
4.79999999999996
 20
378.7722429930332
 30
0.0
 11
4.79999999999996
 21
373.7722429930332
 31
0.0
  0
LINE
  5
D3
330
38
100
AcDbEntity
  8
0
  6
Continuous
 62
     7
100
AcDbLine
 10
-0.20000000000005
 20
378.7722429930332
 30
0.0
 11
80.19999999999999
 21
378.7722429930332
 31
0.0
  0
LINE
  5
D4
330
38
100
AcDbEntity
  8
0
  6
Continuous
 62
     3
100
AcDbLine
 10
6.29999999999996
 20
378.7722429930332
 30
0.0
 11
6.29999999999996
 21
368.2722429930332
 31
0.0
  0
LINE
  5
D5
330
38
100
AcDbEntity
  8
0
  6
Continuous
 62
     3
100
AcDbLine
 10
6.29999999999996
 20
368.2722429930332
 30
0.0
 11
9.69999999999999
 21
368.2722429930332
 31
0.0
  0
LINE
  5
D6
330
38
100
AcDbEntity
  8
0
  6
Continuous
 62
     3
100
AcDbLine
 10
6.29999999999996
 20
368.2722429930332
 30
0.0
 11
4.79999999999996
 21
368.2722429930332
 31
0.0
  0
LINE
  5
D7
330
38
100
AcDbEntity
  8
0
  6
Continuous
 62
     7
100
AcDbLine
 10
4.79999999999996
 20
373.7722429930332
 30
0.0
 11
4.79999999999996
 21
368.2722429930332
 31
0.0
  0
LINE
  5
D8
330
38
100
AcDbEntity
  8
0
  6
Continuous
 62
     3
100
AcDbLine
 10
9.69999999999999
 20
368.2722429930332
 30
0.0
 11
9.69999999999999
 21
378.7722429930332
 31
0.0
  0
LINE
  5
D9
330
38
100
AcDbEntity
  8
0
  6
Continuous
 62
     3
100
AcDbLine
 10
9.69999999999999
 20
368.2722429930332
 30
0.0
 11
11.19999999999999
 21
368.2722429930332
 31
0.0
  0
LINE
  5
DA
330
38
100
AcDbEntity
  8
0
  6
Continuous
 62
     7
100
AcDbLine
 10
11.19999999999999
 20
368.2722429930332
 30
0.0
 11
11.19999999999999
 21
378.7722429930332
 31
0.0
  0
LINE
  5
DB
330
38
100
AcDbEntity
  8
0
  6
Continuous
 62
     3
100
AcDbLine
 10
9.69999999999999
 20
368.2722429930332
 30
0.0
 11
9.69999999999999
 21
367.7722429930332
 31
0.0
  0
LINE
  5
DC
330
38
100
AcDbEntity
  8
0
  6
Continuous
 62
     3
100
AcDbLine
 10
6.29999999999996
 20
367.7722429930332
 30
0.0
 11
6.29999999999996
 21
368.2722429930332
 31
0.0
  0
LINE
  5
DD
330
38
100
AcDbEntity
  8
0
  6
Continuous
 62
     7
100
AcDbLine
 10
5.50000000000159
 20
367.7722429930332
 30
0.0
 11
5.29999999999996
 21
367.7722429930332
 31
0.0
  0
ARC
  5
DE
330
38
100
AcDbEntity
  8
0
  6
Continuous
 62
     7
100
AcDbCircle
 10
104.4
 20
444.3140774060241
 30
0.0
 40
0.4999999999999396
100
AcDbArc
 50
94.99999999995136
 51
180.0
  0
ARC
  5
DF
330
38
100
AcDbEntity
  8
0
  6
Continuous
 62
     7
100
AcDbCircle
 10
-24.40000000000006
 20
444.3140774060241
 30
0.0
 40
0.5
100
AcDbArc
 50
0.0
 51
85.00000000003648
  0
ARC
  5
E0
330
38
100
AcDbEntity
  8
0
  6
Continuous
 62
     7
100
AcDbCircle
 10
93.90000000000003
 20
388.7722429930332
 30
0.0
 40
10.0
100
AcDbArc
 50
-90.0
 51
0.0
  0
ARC
  5
E1
330
38
100
AcDbEntity
  8
0
  6
Continuous
 62
     7
100
AcDbCircle
 10
-27.50000000000003
 20
457.2722429930332
 30
0.0
 40
0.5
100
AcDbArc
 50
0.0
 51
90.0
  0
ARC
  5
E2
330
38
100
AcDbEntity
  8
0
  6
Continuous
 62
     7
100
AcDbCircle
 10
107.4999999999999
 20
457.2722429930332
 30
0.0
 40
0.5
100
AcDbArc
 50
90.0
 51
180.0
  0
ARC
  5
E3
330
38
100
AcDbEntity
  8
0
  6
Continuous
 62
     7
100
AcDbCircle
 10
-29.10000000000002
 20
458.5847319217503
 30
0.0
 40
0.4999999999999548
100
AcDbArc
 50
105.0000000000001
 51
180.0
  0
ARC
  5
E4
330
38
100
AcDbEntity
  8
0
  6
Continuous
 62
     7
100
AcDbCircle
 10
109.1
 20
458.5847319217503
 30
0.0
 40
0.5
100
AcDbArc
 50
0.0
 51
74.99999999999443
  0
ARC
  5
E5
330
38
100
AcDbEntity
  8
0
  6
Continuous
 62
     7
100
AcDbCircle
 10
74.69999999999999
 20
368.2722429930332
 30
0.0
 40
0.5
100
AcDbArc
 50
-90.0
 51
0.0
  0
ARC
  5
E6
330
38
100
AcDbEntity
  8
0
  6
Continuous
 62
     7
100
AcDbCircle
 10
69.29999999999996
 20
368.2722429930332
 30
0.0
 40
0.5
100
AcDbArc
 50
180.0
 51
-90.0
  0
ARC
  5
E7
330
38
100
AcDbEntity
  8
0
  6
Continuous
 62
     7
100
AcDbCircle
 10
-13.90000000000003
 20
388.7722429930331
 30
0.0
 40
10.00000000000003
100
AcDbArc
 50
179.9999999999994
 51
-90.00000000000019
  0
ARC
  5
E8
330
38
100
AcDbEntity
  8
0
  6
Continuous
 62
     7
100
AcDbCircle
 10
10.69999999999999
 20
368.2722429930332
 30
0.0
 40
0.5
100
AcDbArc
 50
-90.0
 51
0.0
  0
ARC
  5
E9
330
38
100
AcDbEntity
  8
0
  6
Continuous
 62
     7
100
AcDbCircle
 10
5.29999999999996
 20
368.2722429930332
 30
0.0
 40
0.5
100
AcDbArc
 50
180.0
 51
-90.0
  0
ENDBLK
  5
3A
330
38
100
AcDbEntity
  8
0
100
AcDbBlockEnd
  0
BLOCK
  5
F2
330
EA
100
AcDbEntity
  8
0
100
AcDbBlockBegin
  2
*D04
 70
     1
 71
     0
 10
0.0
 20
0.0
 30
0.0
  3
*D04
  1

  0
LINE
  5
EB
330
EA
100
AcDbEntity
  8
1
  6
Continuous
 62
     4
100
AcDbLine
 10
106.9999999999999
 20
473.617411652612
 30
0.0
 11
-27.00000000000004
 21
473.617411652612
 31
0.0
  0
LINE
  5
EC
330
EA
100
AcDbEntity
  8
1
  6
Continuous
 62
     4
100
AcDbLine
 10
106.9999999999999
 20
453.0434578499616
 30
0.0
 11
106.9999999999999
 21
475.617411652612
 31
0.0
  0
LINE
  5
ED
330
EA
100
AcDbEntity
  8
1
  6
Continuous
 62
     4
100
AcDbLine
 10
-27.00000000000004
 20
453.0434578499616
 30
0.0
 11
-27.00000000000004
 21
475.617411652612
 31
0.0
  0
SOLID
  5
EE
330
EA
100
AcDbEntity
  8
1
 62
     4
100
AcDbTrace
 10
99.99999999999994
 20
472.6958441695003
 30
0.0
 11
99.99999999999994
 21
474.5389791357238
 31
0.0
 12
106.9999999999999
 22
473.617411652612
 32
0.0
 13
106.9999999999999
 23
473.617411652612
 33
0.0
  0
SOLID
  5
EF
330
EA
100
AcDbEntity
  8
1
 62
     4
100
AcDbTrace
 10
-20.00000000000004
 20
474.5389791357238
 30
0.0
 11
-20.00000000000004
 21
472.6958441695003
 31
0.0
 12
-27.00000000000004
 22
473.617411652612
 32
0.0
 13
-27.00000000000004
 23
473.617411652612
 33
0.0
  0
MTEXT
  5
F1
330
EA
100
AcDbEntity
  8
1
 62
     1
100
AcDbMText
 10
29.40432034222217
 20
475.6173977384594
 30
0.0
 40
7.0
 41
0.0
 71
     7
 72
     1
  1
\C1;Ø\C1;134
  7
CONVERTER_1
 11
0.9999999999970621
 21
2.424068405545307E-6
 31
0.0
 73
     1
 44
0.60024009603842
  0
ENDBLK
  5
F3
330
EA
100
AcDbEntity
  8
0
100
AcDbBlockEnd
  0
ENDSEC
  0
SECTION
  2
ENTITIES
  0
INSERT
  5
3B
330
1F
100
AcDbEntity
  8
0
100
AcDbBlockReference
  2
Prallpl_ttchen_Einsatz145_1
 10
-245.8389460178744
 20
365.7373429930331
 30
0.0
  0
INSERT
  5
3C
330
1F
100
AcDbEntity
  8
0
100
AcDbBlockReference
  2
O-Ring4x125_1
 10
-278.7389460178761
 20
448.460603609301
 30
0.0
  0
INSERT
  5
3D
330
1F
100
AcDbEntity
  8
0
100
AcDbBlockReference
  2
Einsazt-GV
 10
-280.438946017876
 20
167.7722429930331
 30
0.0
  0
DIMENSION
  5
F5
330
1F
100
AcDbEntity
  8
1
100
AcDbDimension
  2
*D04
 10
106.9999999999999
 20
473.617411652612
 30
0.0
 11
38.2943203422053
 21
479.117411652612
 31
0.0
 70
    32
  1
<>
 71
     5
 42
-1.0
 53
0.00013888888889
  3
ME10_DIM_0
100
AcDbAlignedDimension
 13
-27.00000000000003
 23
453.0434578499616
 33
0.0
 14
106.9999999999999
 24
453.0434578499616
 34
0.0
100
AcDbRotatedDimension
  0
ENDSEC
  0
SECTION
  2
OBJECTS
  0
DICTIONARY
  5
C
330
0
100
AcDbDictionary
281
     1
  3
ACAD_GROUP
350
D
  3
ACAD_LAYOUT
350
1A
  3
ACAD_MLINESTYLE
350
17
  3
ACAD_PLOTSETTINGS
350
19
  3
ACAD_PLOTSTYLENAME
350
E
  0
DICTIONARY
  5
D
102
{ACAD_REACTORS
330
C
102
}
330
C
100
AcDbDictionary
281
     1
  0
DICTIONARY
  5
1A
102
{ACAD_REACTORS
330
C
102
}
330
C
100
AcDbDictionary
281
     1
  3
Layout1
350
1E
  3
Layout2
350
26
  3
Model
350
22
  0
DICTIONARY
  5
17
102
{ACAD_REACTORS
330
C
102
}
330
C
100
AcDbDictionary
281
     1
  3
Standard
350
18
  0
DICTIONARY
  5
19
102
{ACAD_REACTORS
330
C
102
}
330
C
100
AcDbDictionary
281
     1
  0
ACDBDICTIONARYWDFLT
  5
E
102
{ACAD_REACTORS
330
C
102
}
330
C
100
AcDbDictionary
281
     1
  3
Normal
350
F
100
AcDbDictionaryWithDefault
340
F
  0
LAYOUT
  5
1E
102
{ACAD_REACTORS
330
1A
102
}
330
1A
100
AcDbPlotSettings
  1

  2

  4

  6

 40
0.0
 41
0.0
 42
0.0
 43
0.0
 44
0.0
 45
0.0
 46
0.0
 47
0.0
 48
0.0
 49
0.0
140
0.0
141
0.0
142
1.0
143
1.0
 70
   688
 72
     0
 73
     0
 74
     5
  7

 75
    16
147
1.0
148
0.0
149
0.0
100
AcDbLayout
  1
Layout1
 70
     1
 71
     1
 10
0.0
 20
0.0
 11
0.0
 21
0.0
 12
0.0
 22
0.0
 32
0.0
 14
0.0
 24
0.0
 34
0.0
 15
0.0
 25
0.0
 35
0.0
146
0.0
 13
0.0
 23
0.0
 33
0.0
 16
1.0
 26
0.0
 36
0.0
 17
0.0
 27
1.0
 37
0.0
 76
     0
330
1B
  0
LAYOUT
  5
26
102
{ACAD_REACTORS
330
1A
102
}
330
1A
100
AcDbPlotSettings
  1

  2

  4

  6

 40
0.0
 41
0.0
 42
0.0
 43
0.0
 44
0.0
 45
0.0
 46
0.0
 47
0.0
 48
0.0
 49
0.0
140
0.0
141
0.0
142
1.0
143
1.0
 70
   688
 72
     0
 73
     0
 74
     5
  7

 75
    16
147
1.0
148
0.0
149
0.0
100
AcDbLayout
  1
Layout2
 70
     1
 71
     2
 10
0.0
 20
0.0
 11
0.0
 21
0.0
 12
0.0
 22
0.0
 32
0.0
 14
0.0
 24
0.0
 34
0.0
 15
0.0
 25
0.0
 35
0.0
146
0.0
 13
0.0
 23
0.0
 33
0.0
 16
1.0
 26
0.0
 36
0.0
 17
0.0
 27
1.0
 37
0.0
 76
     0
330
23
  0
LAYOUT
  5
22
102
{ACAD_REACTORS
330
1A
102
}
330
1A
100
AcDbPlotSettings
  1

  2

  4

  6

 40
0.0
 41
0.0
 42
0.0
 43
0.0
 44
0.0
 45
0.0
 46
0.0
 47
0.0
 48
0.0
 49
0.0
140
0.0
141
0.0
142
1.0
143
1.0
 70
  1712
 72
     0
 73
     0
 74
     0
  7

 75
     0
147
1.0
148
0.0
149
0.0
100
AcDbLayout
  1
Model
 70
     1
 71
     0
 10
0.0
 20
0.0
 11
0.0
 21
0.0
 12
0.0
 22
0.0
 32
0.0
 14
-29.60000000000002
 24
361.161201835576
 34
0.0
 15
109.6
 25
482.617411652612
 35
0.0
146
0.0
 13
0.0
 23
0.0
 33
0.0
 16
1.0
 26
0.0
 36
0.0
 17
0.0
 27
1.0
 37
0.0
 76
     0
330
1F
  0
MLINESTYLE
  5
18
102
{ACAD_REACTORS
330
17
102
}
330
17
100
AcDbMlineStyle
  2
Standard
 70
     0
  3

 62
   256
 51
90.0
 52
90.0
 71
     2
 49
0.5
 62
   256
  6
BYLAYER
 49
-0.5
 62
   256
  6
BYLAYER
  0
ACDBPLACEHOLDER
  5
F
102
{ACAD_REACTORS
330
E
102
}
330
E
  0
ENDSEC
  0
EOF
