  0
SECTION
  2
HEADER
  9
$ACADVER
  1
AC1015
  9
$ACADMAINTVER
 70
     6
  9
$DWGCODEPAGE
  3
ANSI_1252
  9
$INSBASE
 10
0.0
 20
0.0
 30
0.0
  9
$EXTMIN
 10
-1343.27994383989
 20
-398.08573208404
 30
0.0
  9
$EXTMAX
 10
-703.9999999999995
 20
-300.0000008911856
 30
0.0
  9
$LIMMIN
 10
0.0
 20
0.0
  9
$LIMMAX
 10
12.0
 20
9.0
  9
$ORTHOMODE
 70
     0
  9
$REGENMODE
 70
     1
  9
$FILLMODE
 70
     1
  9
$QTEXTMODE
 70
     0
  9
$MIRRTEXT
 70
     1
  9
$LTSCALE
 40
1.0
  9
$ATTMODE
 70
     1
  9
$TEXTSIZE
 40
0.2
  9
$TRACEWID
 40
0.05
  9
$TEXTSTYLE
  7
Standard
  9
$CLAYER
  8
0
  9
$CELTYPE
  6
ByLayer
  9
$CECOLOR
 62
   256
  9
$CELTSCALE
 40
1.0
  9
$DISPSILH
 70
     0
  9
$DIMSCALE
 40
1.0
  9
$DIMASZ
 40
0.18
  9
$DIMEXO
 40
0.0625
  9
$DIMDLI
 40
0.38
  9
$DIMRND
 40
0.0
  9
$DIMDLE
 40
0.0
  9
$DIMEXE
 40
0.18
  9
$DIMTP
 40
0.0
  9
$DIMTM
 40
0.0
  9
$DIMTXT
 40
0.18
  9
$DIMCEN
 40
0.09
  9
$DIMTSZ
 40
0.0
  9
$DIMTOL
 70
     0
  9
$DIMLIM
 70
     0
  9
$DIMTIH
 70
     1
  9
$DIMTOH
 70
     1
  9
$DIMSE1
 70
     0
  9
$DIMSE2
 70
     0
  9
$DIMTAD
 70
     0
  9
$DIMZIN
 70
     0
  9
$DIMBLK
  1

  9
$DIMASO
 70
     1
  9
$DIMSHO
 70
     1
  9
$DIMPOST
  1

  9
$DIMAPOST
  1

  9
$DIMALT
 70
     0
  9
$DIMALTD
 70
     2
  9
$DIMALTF
 40
25.4
  9
$DIMLFAC
 40
1.0
  9
$DIMTOFL
 70
     0
  9
$DIMTVP
 40
0.0
  9
$DIMTIX
 70
     0
  9
$DIMSOXD
 70
     0
  9
$DIMSAH
 70
     0
  9
$DIMBLK1
  1

  9
$DIMBLK2
  1

  9
$DIMSTYLE
  2
Standard
  9
$DIMCLRD
 70
     0
  9
$DIMCLRE
 70
     0
  9
$DIMCLRT
 70
     0
  9
$DIMTFAC
 40
1.0
  9
$DIMGAP
 40
0.09
  9
$DIMJUST
 70
     0
  9
$DIMSD1
 70
     0
  9
$DIMSD2
 70
     0
  9
$DIMTOLJ
 70
     1
  9
$DIMTZIN
 70
     0
  9
$DIMALTZ
 70
     0
  9
$DIMALTTZ
 70
     0
  9
$DIMUPT
 70
     0
  9
$DIMDEC
 70
     4
  9
$DIMTDEC
 70
     4
  9
$DIMALTU
 70
     2
  9
$DIMALTTD
 70
     2
  9
$DIMTXSTY
  7
Standard
  9
$DIMAUNIT
 70
     0
  9
$DIMADEC
 70
     0
  9
$DIMALTRND
 40
0.0
  9
$DIMAZIN
 70
     0
  9
$DIMDSEP
 70
    46
  9
$DIMATFIT
 70
     3
  9
$DIMFRAC
 70
     0
  9
$DIMLDRBLK
  1

  9
$DIMLUNIT
 70
     2
  9
$DIMLWD
 70
    -2
  9
$DIMLWE
 70
    -2
  9
$DIMTMOVE
 70
     0
  9
$LUNITS
 70
     2
  9
$LUPREC
 70
     4
  9
$SKETCHINC
 40
0.1
  9
$FILLETRAD
 40
0.5
  9
$AUNITS
 70
     0
  9
$AUPREC
 70
     0
  9
$MENU
  1
.
  9
$ELEVATION
 40
0.0
  9
$PELEVATION
 40
0.0
  9
$THICKNESS
 40
0.0
  9
$LIMCHECK
 70
     0
  9
$CHAMFERA
 40
0.5
  9
$CHAMFERB
 40
0.5
  9
$CHAMFERC
 40
1.0
  9
$CHAMFERD
 40
0.0
  9
$SKPOLY
 70
     0
  9
$TDCREATE
 40
2456583.410950046
  9
$TDUCREATE
 40
2456583.327616713
  9
$TDUPDATE
 40
2456583.41095022
  9
$TDUUPDATE
 40
2456583.327616887
  9
$TDINDWG
 40
0.0000000116
  9
$TDUSRTIMER
 40
0.0000000116
  9
$USRTIMER
 70
     1
  9
$ANGBASE
 50
0.0
  9
$ANGDIR
 70
     0
  9
$PDMODE
 70
     0
  9
$PDSIZE
 40
0.0
  9
$PLINEWID
 40
0.0
  9
$SPLFRAME
 70
     0
  9
$SPLINETYPE
 70
     6
  9
$SPLINESEGS
 70
     8
  9
$HANDSEED
  5
E8
  9
$SURFTAB1
 70
     6
  9
$SURFTAB2
 70
     6
  9
$SURFTYPE
 70
     6
  9
$SURFU
 70
     6
  9
$SURFV
 70
     6
  9
$UCSBASE
  2

  9
$UCSNAME
  2

  9
$UCSORG
 10
0.0
 20
0.0
 30
0.0
  9
$UCSXDIR
 10
1.0
 20
0.0
 30
0.0
  9
$UCSYDIR
 10
0.0
 20
1.0
 30
0.0
  9
$UCSORTHOREF
  2

  9
$UCSORTHOVIEW
 70
     0
  9
$UCSORGTOP
 10
0.0
 20
0.0
 30
0.0
  9
$UCSORGBOTTOM
 10
0.0
 20
0.0
 30
0.0
  9
$UCSORGLEFT
 10
0.0
 20
0.0
 30
0.0
  9
$UCSORGRIGHT
 10
0.0
 20
0.0
 30
0.0
  9
$UCSORGFRONT
 10
0.0
 20
0.0
 30
0.0
  9
$UCSORGBACK
 10
0.0
 20
0.0
 30
0.0
  9
$PUCSBASE
  2

  9
$PUCSNAME
  2

  9
$PUCSORG
 10
0.0
 20
0.0
 30
0.0
  9
$PUCSXDIR
 10
1.0
 20
0.0
 30
0.0
  9
$PUCSYDIR
 10
0.0
 20
1.0
 30
0.0
  9
$PUCSORTHOREF
  2

  9
$PUCSORTHOVIEW
 70
     0
  9
$PUCSORGTOP
 10
0.0
 20
0.0
 30
0.0
  9
$PUCSORGBOTTOM
 10
0.0
 20
0.0
 30
0.0
  9
$PUCSORGLEFT
 10
0.0
 20
0.0
 30
0.0
  9
$PUCSORGRIGHT
 10
0.0
 20
0.0
 30
0.0
  9
$PUCSORGFRONT
 10
0.0
 20
0.0
 30
0.0
  9
$PUCSORGBACK
 10
0.0
 20
0.0
 30
0.0
  9
$USERI1
 70
     0
  9
$USERI2
 70
     0
  9
$USERI3
 70
     0
  9
$USERI4
 70
     0
  9
$USERI5
 70
     0
  9
$USERR1
 40
18.1
  9
$USERR2
 40
0.0
  9
$USERR3
 40
0.0
  9
$USERR4
 40
0.0
  9
$USERR5
 40
0.0
  9
$WORLDVIEW
 70
     1
  9
$SHADEDGE
 70
     3
  9
$SHADEDIF
 70
    70
  9
$TILEMODE
 70
     1
  9
$MAXACTVP
 70
    64
  9
$PINSBASE
 10
0.0
 20
0.0
 30
0.0
  9
$PLIMCHECK
 70
     0
  9
$PEXTMIN
 10
1.00000000000000E+20
 20
1.00000000000000E+20
 30
1.00000000000000E+20
  9
$PEXTMAX
 10
-1.00000000000000E+20
 20
-1.00000000000000E+20
 30
-1.00000000000000E+20
  9
$PLIMMIN
 10
0.0
 20
0.0
  9
$PLIMMAX
 10
12.0
 20
9.0
  9
$UNITMODE
 70
     0
  9
$VISRETAIN
 70
     1
  9
$PLINEGEN
 70
     0
  9
$PSLTSCALE
 70
     1
  9
$TREEDEPTH
 70
  3020
  9
$CMLSTYLE
  2
Standard
  9
$CMLJUST
 70
     0
  9
$CMLSCALE
 40
1.0
  9
$PROXYGRAPHICS
 70
     1
  9
$MEASUREMENT
 70
     1
  9
$CELWEIGHT
370
    -1
  9
$ENDCAPS
280
     0
  9
$JOINSTYLE
280
     0
  9
$LWDISPLAY
290
     0
  9
$INSUNITS
 70
     1
  9
$HYPERLINKBASE
  1

  9
$STYLESHEET
  1

  9
$XEDIT
290
     1
  9
$CEPSNTYPE
380
     0
  9
$PSTYLEMODE
290
     1
  9
$FINGERPRINTGUID
  2
{BB7B1179-28C2-4687-BB2C-29181DEBBE59}
  9
$VERSIONGUID
  2
{FAEB1C32-E019-11D5-929B-00C0DF256EC4}
  9
$EXTNAMES
290
     1
  9
$PSVPSCALE
 40
0.0
  9
$OLESTARTUP
290
     0
  0
ENDSEC
  0
SECTION
  2
CLASSES
  0
CLASS
  1
ACDBDICTIONARYWDFLT
  2
AcDbDictionaryWithDefault
  3
ObjectDBX Classes
 90
        0
280
     0
281
     0
  0
CLASS
  1
VISUALSTYLE
  2
AcDbVisualStyle
  3
ObjectDBX Classes
 90
     4095
280
     0
281
     0
  0
CLASS
  1
MATERIAL
  2
AcDbMaterial
  3
ObjectDBX Classes
 90
     1153
280
     0
281
     0
  0
CLASS
  1
DICTIONARYVAR
  2
AcDbDictionaryVar
  3
ObjectDBX Classes
 90
        0
280
     0
281
     0
  0
CLASS
  1
ACDBPLACEHOLDER
  2
AcDbPlaceHolder
  3
ObjectDBX Classes
 90
        0
280
     0
281
     0
  0
CLASS
  1
LAYOUT
  2
AcDbLayout
  3
ObjectDBX Classes
 90
        0
280
     0
281
     0
  0
ENDSEC
  0
SECTION
  2
TABLES
  0
TABLE
  2
VPORT
  5
8
330
0
100
AcDbSymbolTable
 70
     1
  0
VPORT
  5
29
330
8
100
AcDbSymbolTableRecord
100
AcDbViewportTableRecord
  2
*Active
 70
     0
 10
0.0
 20
0.0
 11
1.0
 21
1.0
 12
-1023.639971919945
 22
-349.0428664876128
 13
0.0
 23
0.0
 14
0.5
 24
0.5
 15
0.5
 25
0.5
 16
0.0
 26
0.0
 36
1.0
 17
0.0
 27
0.0
 37
0.0
 40
438.7704127079361
 41
1.60267857142857
 42
50.0
 43
0.0
 44
0.0
 50
0.0
 51
0.0
 71
     0
 72
   100
 73
     1
 74
     3
 75
     0
 76
     0
 77
     0
 78
     0
281
     0
 65
     1
110
0.0
120
0.0
130
0.0
111
1.0
121
0.0
131
0.0
112
0.0
122
1.0
132
0.0
 79
     0
146
0.0
  0
ENDTAB
  0
TABLE
  2
LTYPE
  5
5
330
0
100
AcDbSymbolTable
 70
     8
  0
LTYPE
  5
14
330
5
100
AcDbSymbolTableRecord
100
AcDbLinetypeTableRecord
  2
ByBlock
 70
     0
  3

 72
    65
 73
     0
 40
0.0
  0
LTYPE
  5
15
330
5
100
AcDbSymbolTableRecord
100
AcDbLinetypeTableRecord
  2
ByLayer
 70
     0
  3

 72
    65
 73
     0
 40
0.0
  0
LTYPE
  5
16
330
5
100
AcDbSymbolTableRecord
100
AcDbLinetypeTableRecord
  2
Continuous
 70
     0
  3
Solid line
 72
    65
 73
     0
 40
0.0
  0
LTYPE
  5
3F
330
5
100
AcDbSymbolTableRecord
100
AcDbLinetypeTableRecord
  2
DASHED
 70
     0
  3
Dashed
 72
    65
 73
     2
 40
15.0
 49
7.0
 74
     0
 49
-8.0
 74
     0
  0
LTYPE
  5
40
330
5
100
AcDbSymbolTableRecord
100
AcDbLinetypeTableRecord
  2
DOTTED
 70
     0
  3
Dotted
 72
    65
 73
     2
 40
1.0
 49
0.0
 74
     0
 49
-1.0
 74
     0
  0
LTYPE
  5
41
330
5
100
AcDbSymbolTableRecord
100
AcDbLinetypeTableRecord
  2
DOT_CENTER
 70
     0
  3
Dot_Center
 72
    65
 73
     4
 40
14.0
 49
12.0
 74
     0
 49
-1.0
 74
     0
 49
0.0
 74
     0
 49
-1.0
 74
     0
  0
LTYPE
  5
42
330
5
100
AcDbSymbolTableRecord
100
AcDbLinetypeTableRecord
  2
LONG_DASHED
 70
     0
  3
Long_Dashed
 72
    65
 73
     2
 40
15.0
 49
10.0
 74
     0
 49
-5.0
 74
     0
  0
LTYPE
  5
43
330
5
100
AcDbSymbolTableRecord
100
AcDbLinetypeTableRecord
  2
DASH_CENTER
 70
     0
  3
Dash_Center
 72
    65
 73
     4
 40
14.0
 49
11.0
 74
     0
 49
-1.0
 74
     0
 49
1.0
 74
     0
 49
-1.0
 74
     0
  0
LTYPE
  5
44
330
5
100
AcDbSymbolTableRecord
100
AcDbLinetypeTableRecord
  2
PHANTOM
 70
     0
  3
Phantom
 72
    65
 73
     6
 40
13.0
 49
10.0
 74
     0
 49
-1.0
 74
     0
 49
0.0
 74
     0
 49
-1.0
 74
     0
 49
0.0
 74
     0
 49
-1.0
 74
     0
  0
LTYPE
  5
45
330
5
100
AcDbSymbolTableRecord
100
AcDbLinetypeTableRecord
  2
CENTER_DASH_DASH
 70
     0
  3
Center_Dash_Dash
 72
    65
 73
     6
 40
14.0
 49
9.0
 74
     0
 49
-1.0
 74
     0
 49
1.0
 74
     0
 49
-1.0
 74
     0
 49
1.0
 74
     0
 49
-1.0
 74
     0
  0
ENDTAB
  0
TABLE
  2
LAYER
  5
2
330
0
100
AcDbSymbolTable
 70
     2
  0
LAYER
  5
10
330
2
100
AcDbSymbolTableRecord
100
AcDbLayerTableRecord
  2
0
 70
     0
 62
     7
  6
Continuous
370
    -3
390
F
  0
LAYER
  5
46
330
2
100
AcDbSymbolTableRecord
100
AcDbLayerTableRecord
  2
1
 70
     0
 62
     7
  6
Continuous
370
    -3
390
F
  0
ENDTAB
  0
TABLE
  2
STYLE
  5
3
330
0
100
AcDbSymbolTable
 70
     2
  0
STYLE
  5
11
330
3
100
AcDbSymbolTableRecord
100
AcDbTextStyleTableRecord
  2
Standard
 70
     0
 40
0.0
 41
1.0
 50
0.0
 71
     0
 42
0.2
  3
txt
  4

  0
STYLE
  5
6B
330
3
100
AcDbSymbolTableRecord
100
AcDbTextStyleTableRecord
  2
CONVERTER_11
 70
     0
 40
0.0
 41
0.9
 50
0.0
 71
     0
 42
0.2
  3
txt.shx
  4

  0
ENDTAB
  0
TABLE
  2
VIEW
  5
6
330
0
100
AcDbSymbolTable
 70
     0
  0
ENDTAB
  0
TABLE
  2
UCS
  5
7
330
0
100
AcDbSymbolTable
 70
     0
  0
ENDTAB
  0
TABLE
  2
APPID
  5
9
330
0
100
AcDbSymbolTable
 70
     1
  0
APPID
  5
12
330
9
100
AcDbSymbolTableRecord
100
AcDbRegAppTableRecord
  2
ACAD
 70
     0
  0
ENDTAB
  0
TABLE
  2
DIMSTYLE
  5
A
330
0
100
AcDbSymbolTable
 70
     4
100
AcDbDimStyleTable
  0
DIMSTYLE
105
27
330
A
100
AcDbSymbolTableRecord
100
AcDbDimStyleTableRecord
  2
Standard
 70
     0
178
     0
340
11
  0
DIMSTYLE
105
78
102
{ACAD_REACTORS
330
79
102
}
330
A
100
AcDbSymbolTableRecord
100
AcDbDimStyleTableRecord
  2
ME10_DIM_10
 70
     0
 41
15.0
 42
0.0
 44
2.0
 73
     0
 74
     0
 77
     1
 78
     8
140
15.0
147
4.0
172
     1
173
     1
174
     1
175
     1
176
     4
177
     4
271
     2
178
     1
271
     2
340
6B
  0
DIMSTYLE
105
83
102
{ACAD_REACTORS
330
84
102
}
330
A
100
AcDbSymbolTableRecord
100
AcDbDimStyleTableRecord
  2
ME10_DIM_11
 70
     0
 41
15.0
 42
0.0
 44
2.0
 73
     0
 74
     0
 77
     1
 78
     8
140
15.0
147
4.0
172
     1
173
     1
174
     1
175
     1
176
     4
177
     4
271
     2
178
     1
271
     2
340
6B
  0
DIMSTYLE
105
BB
102
{ACAD_REACTORS
330
BC
102
}
330
A
100
AcDbSymbolTableRecord
100
AcDbDimStyleTableRecord
  2
ME10_DIM_12
 70
     0
 41
15.0
 42
0.0
 44
2.0
 73
     0
 74
     0
 77
     1
 78
     8
140
15.0
147
4.0
172
     1
173
     1
174
     1
175
     1
176
     4
177
     4
271
     2
178
     1
271
     2
340
6B
  0
ENDTAB
  0
TABLE
  2
BLOCK_RECORD
  5
1
330
0
100
AcDbSymbolTable
 70
    10
  0
BLOCK_RECORD
  5
1F
330
1
100
AcDbSymbolTableRecord
100
AcDbBlockTableRecord
  2
*Model_Space
340
22
  0
BLOCK_RECORD
  5
1B
330
1
100
AcDbSymbolTableRecord
100
AcDbBlockTableRecord
  2
*Paper_Space
340
1E
  0
BLOCK_RECORD
  5
23
330
1
100
AcDbSymbolTableRecord
100
AcDbBlockTableRecord
  2
*Paper_Space0
340
26
  0
BLOCK_RECORD
  5
47
330
1
100
AcDbSymbolTableRecord
100
AcDbBlockTableRecord
  2
531-Abdeckung-Standard-V06-13mm-25_5mm__1
340
0
102
{BLKREFS
331
4B
102
}
  0
BLOCK_RECORD
  5
4A
330
1
100
AcDbSymbolTableRecord
100
AcDbBlockTableRecord
  2
HL0531S-Zeichnung-WEB__2
340
0
102
{BLKREFS
331
4F
102
}
  0
BLOCK_RECORD
  5
4E
330
1
100
AcDbSymbolTableRecord
100
AcDbBlockTableRecord
  2
SA_Rechts3
340
0
102
{BLKREFS
331
5D
102
}
  0
BLOCK_RECORD
  5
52
330
1
100
AcDbSymbolTableRecord
100
AcDbBlockTableRecord
  2
531-Abdeckung-Standard-V06-13mm-25_5mm__3
340
0
102
{BLKREFS
331
56
102
}
  0
BLOCK_RECORD
  5
55
330
1
100
AcDbSymbolTableRecord
100
AcDbBlockTableRecord
  2
HL0531S-Zeichnung-WEB__4
340
0
102
{BLKREFS
331
5A
102
}
  0
BLOCK_RECORD
  5
59
330
1
100
AcDbSymbolTableRecord
100
AcDbBlockTableRecord
  2
Vordans3
340
0
102
{BLKREFS
331
5E
102
}
  0
BLOCK_RECORD
  5
6D
330
1
100
AcDbSymbolTableRecord
100
AcDbBlockTableRecord
  2
*D7
340
0
  0
BLOCK_RECORD
  5
7A
330
1
100
AcDbSymbolTableRecord
100
AcDbBlockTableRecord
  2
*D8
340
0
  0
BLOCK_RECORD
  5
B2
330
1
100
AcDbSymbolTableRecord
100
AcDbBlockTableRecord
  2
*D9
340
0
  0
ENDTAB
  0
ENDSEC
  0
SECTION
  2
BLOCKS
  0
BLOCK
  5
20
330
1F
100
AcDbEntity
  8
0
100
AcDbBlockBegin
  2
*Model_Space
 70
     0
 10
0.0
 20
0.0
 30
0.0
  3
*Model_Space
  1

  0
ENDBLK
  5
21
330
1F
100
AcDbEntity
  8
0
100
AcDbBlockEnd
  0
BLOCK
  5
1C
330
1B
100
AcDbEntity
 67
     1
  8
0
100
AcDbBlockBegin
  2
*Paper_Space
 70
     0
 10
0.0
 20
0.0
 30
0.0
  3
*Paper_Space
  1

  0
ENDBLK
  5
1D
330
1B
100
AcDbEntity
 67
     1
  8
0
100
AcDbBlockEnd
  0
BLOCK
  5
24
330
23
100
AcDbEntity
  8
0
100
AcDbBlockBegin
  2
*Paper_Space0
 70
     0
 10
0.0
 20
0.0
 30
0.0
  3
*Paper_Space0
  1

  0
ENDBLK
  5
25
330
23
100
AcDbEntity
  8
0
100
AcDbBlockEnd
  0
BLOCK
  5
48
330
47
100
AcDbEntity
  8
0
100
AcDbBlockBegin
  2
531-Abdeckung-Standard-V06-13mm-25_5mm__1
 70
     0
 10
-1292.499996575797
 20
-350.000000891185
 30
0.0
  3
531-Abdeckung-Standard-V06-13mm-25_5mm__1
  1

  0
LINE
  5
5F
330
47
100
AcDbEntity
  8
0
  6
Continuous
 62
     7
100
AcDbLine
 10
-1289.999996575797
 20
-348.5000008911849
 30
0.0
 11
-1266.999996575797
 21
-348.5000008911849
 31
0.0
  0
LINE
  5
60
330
47
100
AcDbEntity
  8
0
  6
Continuous
 62
     7
100
AcDbLine
 10
-1266.999996575797
 20
-350.000000891185
 30
0.0
 11
-1266.999996575797
 21
-348.5000008911849
 31
0.0
  0
LINE
  5
61
330
47
100
AcDbEntity
  8
0
  6
Continuous
 62
     7
100
AcDbLine
 10
-1289.999996575797
 20
-300.0000008911858
 30
0.0
 11
-1266.999996575797
 21
-300.0000008911858
 31
0.0
  0
LINE
  5
62
330
47
100
AcDbEntity
  8
0
  6
Continuous
 62
     7
100
AcDbLine
 10
-1266.999996575797
 20
-301.5000008911858
 30
0.0
 11
-1289.999996575797
 21
-301.5000008911858
 31
0.0
  0
LINE
  5
63
330
47
100
AcDbEntity
  8
0
  6
Continuous
 62
     7
100
AcDbLine
 10
-1290.999996575797
 20
-347.5000008911849
 30
0.0
 11
-1290.999996575797
 21
-302.5000008911858
 31
0.0
  0
LINE
  5
64
330
47
100
AcDbEntity
  8
0
  6
Continuous
 62
     7
100
AcDbLine
 10
-1292.499996575797
 20
-302.5000008911858
 30
0.0
 11
-1292.499996575797
 21
-347.500000891185
 31
0.0
  0
LINE
  5
65
330
47
100
AcDbEntity
  8
0
  6
Continuous
 62
     7
100
AcDbLine
 10
-1266.999996575797
 20
-301.5000008911858
 30
0.0
 11
-1266.999996575797
 21
-300.0000008911858
 31
0.0
  0
LINE
  5
66
330
47
100
AcDbEntity
  8
0
  6
Continuous
 62
     7
100
AcDbLine
 10
-1289.999996575797
 20
-350.000000891185
 30
0.0
 11
-1266.999996575797
 21
-350.000000891185
 31
0.0
  0
ARC
  5
67
330
47
100
AcDbEntity
  8
0
  6
Continuous
 62
     7
100
AcDbCircle
 10
-1289.999996575797
 20
-302.5000008911858
 30
0.0
 40
1.0
100
AcDbArc
 50
90.0
 51
180.0
  0
ARC
  5
68
330
47
100
AcDbEntity
  8
0
  6
Continuous
 62
     7
100
AcDbCircle
 10
-1289.999996575797
 20
-347.500000891185
 30
0.0
 40
1.0
100
AcDbArc
 50
179.9999999999967
 51
270.0
  0
ARC
  5
69
330
47
100
AcDbEntity
  8
0
  6
Continuous
 62
     7
100
AcDbCircle
 10
-1289.999996575797
 20
-347.500000891185
 30
0.0
 40
2.5
100
AcDbArc
 50
180.0
 51
270.0
  0
ARC
  5
6A
330
47
100
AcDbEntity
  8
0
  6
Continuous
 62
     7
100
AcDbCircle
 10
-1289.999996575797
 20
-302.5000008911858
 30
0.0
 40
2.5
100
AcDbArc
 50
90.0
 51
180.0
  0
ENDBLK
  5
49
330
47
100
AcDbEntity
  8
0
100
AcDbBlockEnd
  0
BLOCK
  5
4C
330
4A
100
AcDbEntity
  8
0
100
AcDbBlockBegin
  2
HL0531S-Zeichnung-WEB__2
 70
     0
 10
-1292.499996575797
 20
-350.000000891185
 30
0.0
  3
HL0531S-Zeichnung-WEB__2
  1

  0
INSERT
  5
4B
330
4A
100
AcDbEntity
  8
0
100
AcDbBlockReference
  2
531-Abdeckung-Standard-V06-13mm-25_5mm__1
 10
-1292.499996575797
 20
-350.000000891185
 30
0.0
  0
ENDBLK
  5
4D
330
4A
100
AcDbEntity
  8
0
100
AcDbBlockEnd
  0
BLOCK
  5
50
330
4E
100
AcDbEntity
  8
0
100
AcDbBlockBegin
  2
SA_Rechts3
 70
     0
 10
-1279.749998092636
 20
-324.9999999999204
 30
0.0
  3
SA_Rechts3
  1

  0
INSERT
  5
4F
330
4E
100
AcDbEntity
  8
0
100
AcDbBlockReference
  2
HL0531S-Zeichnung-WEB__2
 10
-1292.499996575797
 20
-350.000000891185
 30
0.0
  0
MTEXT
  5
6C
330
4E
100
AcDbEntity
  8
1
 62
     1
100
AcDbMText
 10
-1279.749998092631
 20
-354.99999999992
 30
0.0
 40
3.5
 41
0.0
 71
     2
 72
     1
  1
 
  7
CONVERTER_11
 73
     1
 44
1.32052821128451
  0
DIMENSION
  5
79
330
4E
100
AcDbEntity
  8
1
100
AcDbDimension
  2
*D7
 10
-1292.499996575797
 20
-396.08573208404
 30
0.0
 11
-1226.83390116154
 21
-383.83573208404
 31
0.0
 70
    32
  1
<>
 71
     5
 42
-1.0
 53
0.00013888888889
  3
ME10_DIM_10
100
AcDbAlignedDimension
 13
-1266.999996575797
 23
-350.000000891185
 33
0.0
 14
-1292.499996575797
 24
-347.500000891185
 34
0.0
100
AcDbRotatedDimension
  0
DIMENSION
  5
84
330
4E
100
AcDbEntity
  8
1
100
AcDbDimension
  2
*D8
 10
-1324.27994383989
 20
-350.000000891185
 30
0.0
 11
-1335.77994383989
 21
-324.281549708967
 31
0.0
 70
    32
  1
<>
 71
     5
 42
-1.0
 53
90.0
  3
ME10_DIM_11
100
AcDbAlignedDimension
 13
-1289.999996575797
 23
-300.0000008911858
 33
0.0
 14
-1289.999996575797
 24
-350.000000891185
 34
0.0
 50
90.0
100
AcDbRotatedDimension
  0
ENDBLK
  5
51
330
4E
100
AcDbEntity
  8
0
100
AcDbBlockEnd
  0
BLOCK
  5
53
330
52
100
AcDbEntity
  8
0
100
AcDbBlockBegin
  2
531-Abdeckung-Standard-V06-13mm-25_5mm__3
 70
     0
 10
-1184.0
 20
-350.0000008911848
 30
0.0
  3
531-Abdeckung-Standard-V06-13mm-25_5mm__3
  1

  0
LINE
  5
85
330
52
100
AcDbEntity
  8
0
  6
Continuous
 62
     7
100
AcDbLine
 10
-703.9999999999995
 20
-347.5000008911848
 30
0.0
 11
-703.9999999999995
 21
-350.0000008911848
 31
0.0
  0
LINE
  5
86
330
52
100
AcDbEntity
  8
0
  6
Continuous
 62
     7
100
AcDbLine
 10
-1184.0
 20
-300.0000008911856
 30
0.0
 11
-1184.0
 21
-302.5000008911856
 31
0.0
  0
LINE
  5
87
330
52
100
AcDbEntity
  8
0
  6
Continuous
 62
     7
100
AcDbLine
 10
-1184.0
 20
-300.0000008911856
 30
0.0
 11
-703.9999999999995
 21
-300.0000008911856
 31
0.0
  0
LINE
  5
88
330
52
100
AcDbEntity
  8
0
  6
Continuous
 62
     7
100
AcDbLine
 10
-703.9999999999995
 20
-300.0000008911856
 30
0.0
 11
-703.9999999999995
 21
-302.5000008911856
 31
0.0
  0
LINE
  5
89
330
52
100
AcDbEntity
  8
0
  6
Continuous
 62
     7
100
AcDbLine
 10
-1184.0
 20
-350.0000008911848
 30
0.0
 11
-703.9999999999995
 21
-350.0000008911848
 31
0.0
  0
LINE
  5
8A
330
52
100
AcDbEntity
  8
0
  6
Continuous
 62
     7
100
AcDbLine
 10
-1184.0
 20
-347.5000008911848
 30
0.0
 11
-1184.0
 21
-350.0000008911848
 31
0.0
  0
LINE
  5
8B
330
52
100
AcDbEntity
  8
0
  6
Continuous
 62
     7
100
AcDbLine
 10
-1184.0
 20
-347.5000008911848
 30
0.0
 11
-1184.0
 21
-302.5000008911856
 31
0.0
  0
LINE
  5
8C
330
52
100
AcDbEntity
  8
0
  6
Continuous
 62
     7
100
AcDbLine
 10
-703.9999999999995
 20
-302.5000008911856
 30
0.0
 11
-703.9999999999995
 21
-347.5000008911848
 31
0.0
  0
SPLINE
  5
8D
330
52
100
AcDbEntity
  8
0
  6
Continuous
 62
     7
100
AcDbSpline
210
0.0
220
0.0
230
1.0
 70
     8
 71
     3
 72
    15
 73
    11
 74
     9
 42
0.000000001
 43
0.0000000001
 44
0.00000001
 40
0.0
 40
0.0
 40
0.0
 40
0.0
 40
0.1344251017835302
 40
0.268961673683049
 40
0.4151747618377569
 40
0.5554080976618863
 40
0.6898011549360031
 40
0.8313152432076677
 40
0.991155815281283
 40
1.182154661703618
 40
1.182154661703618
 40
1.182154661703618
 40
1.182154661703618
 10
-723.2336146472409
 20
-334.6850168094895
 30
0.0
 10
-723.200614340979
 20
-334.6540235367595
 30
0.0
 10
-723.1345863554782
 20
-334.592011300691
 30
0.0
 10
-722.9995769685876
 20
-334.5472346018633
 30
0.0
 10
-722.8582876634327
 20
-334.5419606503095
 30
0.0
 10
-722.71903296962
 20
-334.5719484777071
 30
0.0
 10
-722.5986348285384
 20
-334.6462357709895
 30
0.0
 10
-722.5060566288662
 20
-334.7618827332035
 30
0.0
 10
-722.4524573104595
 20
-334.9202935009341
 30
0.0
 10
-722.4473883558779
 20
-335.0374988670605
 30
0.0
 10
-722.4446287973587
 20
-335.1013060927983
 30
0.0
 11
-723.2336146472409
 21
-334.6850168094895
 31
0.0
 11
-723.129259456502
 21
-334.6002813171194
 31
0.0
 11
-723.0027015402168
 21
-334.554639405436
 31
0.0
 11
-722.8566330283581
 21
-334.5481388198599
 31
0.0
 11
-722.7200776310406
 21
-334.580045124361
 31
0.0
 11
-722.6057266835047
 21
-334.6506521706732
 31
0.0
 11
-722.51683452483
 21
-334.7607631226009
 31
0.0
 11
-722.4627248667931
 21
-334.9111664268779
 31
0.0
 11
-722.4446287973587
 21
-335.1013060927983
 31
0.0
  0
SPLINE
  5
8E
330
52
100
AcDbEntity
  8
0
  6
Continuous
 62
     7
100
AcDbSpline
210
0.0
220
0.0
230
1.0
 70
     8
 71
     3
 72
    11
 73
     7
 74
     5
 42
0.000000001
 43
0.0000000001
 44
0.00000001
 40
0.0
 40
0.0
 40
0.0
 40
0.0
 40
0.1300490074413402
 40
0.245187829744959
 40
0.3518631567520808
 40
0.4438289714326945
 40
0.4438289714326945
 40
0.4438289714326945
 40
0.4438289714326945
 10
-723.3587215119688
 20
-335.1013060927983
 30
0.0
 10
-723.3574415777625
 20
-335.057888263922
 30
0.0
 10
-723.3550284401505
 20
-334.9760304835806
 30
0.0
 10
-723.3310640792387
 20
-334.8608137812536
 30
0.0
 10
-723.2931624556676
 20
-334.7619636820903
 30
0.0
 10
-723.2524592198099
 20
-334.7093675033248
 30
0.0
 10
-723.2336146472409
 20
-334.6850168094895
 30
0.0
 11
-723.3587215119688
 21
-335.1013060927983
 31
0.0
 11
-723.350862655041
 21
-334.9714947588681
 31
0.0
 11
-723.327338988222
 21
-334.858784573311
 31
0.0
 11
-723.2865668022228
 21
-334.760208435987
 31
0.0
 11
-723.2336146472409
 21
-334.6850168094895
 31
0.0
  0
SPLINE
  5
8F
330
52
100
AcDbEntity
  8
0
  6
Continuous
 62
     7
100
AcDbSpline
210
0.0
220
0.0
230
1.0
 70
    24
 71
     3
 72
    11
 73
     7
 74
     5
 42
0.000000001
 43
0.0000000001
 44
0.00000001
 40
0.0
 40
0.0
 40
0.0
 40
0.0
 40
0.8236272466274954
 40
1.647254493255161
 40
2.470881739882827
 40
3.29450898651038
 40
3.29450898651038
 40
3.29450898651038
 40
3.29450898651038
 10
-722.4446287973587
 20
-335.1013060927983
 30
0.0
 10
-722.4446287973586
 20
-335.3758485083408
 30
0.0
 10
-722.4446287973589
 20
-335.9249333394259
 30
0.0
 10
-722.444628797359
 20
-336.7485605860536
 30
0.0
 10
-722.4446287973592
 20
-337.572187832681
 30
0.0
 10
-722.444628797359
 20
-338.1212726637663
 30
0.0
 10
-722.4446287973587
 20
-338.3958150793087
 30
0.0
 11
-722.4446287973587
 21
-335.1013060927983
 31
0.0
 11
-722.4446287973587
 21
-335.9249333394258
 31
0.0
 11
-722.4446287973587
 21
-336.7485605860534
 31
0.0
 11
-722.4446287973587
 21
-337.572187832681
 31
0.0
 11
-722.4446287973587
 21
-338.3958150793087
 31
0.0
  0
SPLINE
  5
90
330
52
100
AcDbEntity
  8
0
  6
Continuous
 62
     7
100
AcDbSpline
210
0.0
220
0.0
230
1.0
 70
    24
 71
     3
 72
    11
 73
     7
 74
     5
 42
0.000000001
 43
0.0000000001
 44
0.00000001
 40
0.0
 40
0.0
 40
0.0
 40
0.0
 40
0.3243425094179884
 40
0.6486850188360336
 40
0.9730275282541925
 40
1.297370037672351
 40
1.297370037672351
 40
1.297370037672351
 40
1.297370037672351
 10
-727.2092704134964
 20
-335.1013060927983
 30
0.0
 10
-727.2092704134963
 20
-335.2094202626043
 30
0.0
 10
-727.2092704134965
 20
-335.4256486022164
 30
0.0
 10
-727.2092704134959
 20
-335.7499911116344
 30
0.0
 10
-727.209270413496
 20
-336.0743336210526
 30
0.0
 10
-727.2092704134964
 20
-336.2905619606646
 30
0.0
 10
-727.2092704134964
 20
-336.3986761304707
 30
0.0
 11
-727.2092704134964
 21
-335.1013060927983
 31
0.0
 11
-727.2092704134964
 21
-335.4256486022164
 31
0.0
 11
-727.2092704134964
 21
-335.7499911116345
 31
0.0
 11
-727.2092704134964
 21
-336.0743336210526
 31
0.0
 11
-727.2092704134964
 21
-336.3986761304707
 31
0.0
  0
SPLINE
  5
91
330
52
100
AcDbEntity
  8
0
  6
Continuous
 62
     7
100
AcDbSpline
210
0.0
220
0.0
230
1.0
 70
    24
 71
     3
 72
    11
 73
     7
 74
     5
 42
0.000000001
 43
0.0000000001
 44
0.00000001
 40
0.0
 40
0.0
 40
0.0
 40
0.0
 40
0.4932748675244056
 40
0.9865497350481292
 40
1.479824602571398
 40
1.97309947009478
 40
1.97309947009478
 40
1.97309947009478
 40
1.97309947009478
 10
-727.2092704134964
 20
-336.3986761304707
 30
0.0
 10
-727.0448454576546
 20
-336.3986761304705
 30
0.0
 10
-726.7159955459723
 20
-336.3986761304704
 30
0.0
 10
-726.2227206784482
 20
-336.3986761304703
 30
0.0
 10
-725.7294458109252
 20
-336.3986761304706
 30
0.0
 10
-725.4005958992426
 20
-336.3986761304707
 30
0.0
 10
-725.2361709434016
 20
-336.3986761304707
 30
0.0
 11
-727.2092704134964
 21
-336.3986761304707
 31
0.0
 11
-726.7159955459728
 21
-336.3986761304707
 31
0.0
 11
-726.2227206784492
 21
-336.3986761304707
 31
0.0
 11
-725.7294458109254
 21
-336.3986761304707
 31
0.0
 11
-725.2361709434016
 21
-336.3986761304707
 31
0.0
  0
SPLINE
  5
92
330
52
100
AcDbEntity
  8
0
  6
Continuous
 62
     7
100
AcDbSpline
210
0.0
220
0.0
230
1.0
 70
    24
 71
     3
 72
    11
 73
     7
 74
     5
 42
0.000000001
 43
0.0000000001
 44
0.00000001
 40
0.0
 40
0.0
 40
0.0
 40
0.0
 40
0.3243425094182157
 40
0.6486850188363178
 40
0.973027528254363
 40
1.297370037672351
 40
1.297370037672351
 40
1.297370037672351
 40
1.297370037672351
 10
-725.2361709434016
 20
-336.3986761304707
 30
0.0
 10
-725.2361709434016
 20
-336.2905619606646
 30
0.0
 10
-725.2361709434016
 20
-336.0743336210526
 30
0.0
 10
-725.2361709434015
 20
-335.7499911116344
 30
0.0
 10
-725.2361709434017
 20
-335.4256486022164
 30
0.0
 10
-725.2361709434016
 20
-335.2094202626043
 30
0.0
 10
-725.2361709434016
 20
-335.1013060927983
 30
0.0
 11
-725.2361709434016
 21
-336.3986761304707
 31
0.0
 11
-725.2361709434016
 21
-336.0743336210526
 31
0.0
 11
-725.2361709434016
 21
-335.7499911116345
 31
0.0
 11
-725.2361709434016
 21
-335.4256486022164
 31
0.0
 11
-725.2361709434016
 21
-335.1013060927983
 31
0.0
  0
SPLINE
  5
93
330
52
100
AcDbEntity
  8
0
  6
Continuous
 62
     7
100
AcDbSpline
210
0.0
220
0.0
230
1.0
 70
     8
 71
     3
 72
    11
 73
     7
 74
     5
 42
0.000000001
 43
0.0000000001
 44
0.00000001
 40
0.0
 40
0.0
 40
0.0
 40
0.0
 40
0.1343366360263416
 40
0.2451877626601031
 40
0.344767833898884
 40
0.443784508387505
 40
0.443784508387505
 40
0.443784508387505
 40
0.443784508387505
 10
-725.2361709434016
 20
-335.1013060927983
 30
0.0
 10
-725.2348157106434
 20
-335.0564499281531
 30
0.0
 10
-725.2323421607354
 20
-334.9745796147109
 30
0.0
 10
-725.2084662661907
 20
-334.8617820718302
 30
0.0
 10
-725.1717387357605
 20
-334.7641969153259
 30
0.0
 10
-725.1313071658171
 20
-334.7113602114308
 30
0.0
 10
-725.1111487247259
 20
-334.6850168094895
 30
0.0
 11
-725.2361709434016
 21
-335.1013060927983
 31
0.0
 11
-725.2277506674935
 21
-334.9672336104803
 31
0.0
 11
-725.2047990004114
 21
-334.8587845733108
 31
0.0
 11
-725.1674327621065
 21
-334.7664809692661
 31
0.0
 11
-725.1111487247259
 21
-334.6850168094895
 31
0.0
  0
SPLINE
  5
94
330
52
100
AcDbEntity
  8
0
  6
Continuous
 62
     7
100
AcDbSpline
210
0.0
220
0.0
230
1.0
 70
     8
 71
     3
 72
    15
 73
    11
 74
     9
 42
0.000000001
 43
0.0000000001
 44
0.00000001
 40
0.0
 40
0.0
 40
0.0
 40
0.0
 40
0.134527930009921
 40
0.2691302888876661
 40
0.4153143258634781
 40
0.5554003646297532
 40
0.6897232495683847
 40
0.8312167882035713
 40
0.9910921443651463
 40
1.182098195294444
 40
1.182098195294444
 40
1.182098195294444
 40
1.182098195294444
 10
-725.1111487247259
 20
-334.6850168094895
 30
0.0
 10
-725.078102031727
 20
-334.6540241467656
 30
0.0
 10
-725.0119903543956
 20
-334.5920216844605
 30
0.0
 10
-724.8769417694962
 20
-334.5472477274768
 30
0.0
 10
-724.735686068912
 20
-334.5419435696248
 30
0.0
 10
-724.5965217852873
 20
-334.5719645909093
 30
0.0
 10
-724.4762149449277
 20
-334.6462522560073
 30
0.0
 10
-724.3837057031399
 20
-334.7619119159351
 30
0.0
 10
-724.3299601570436
 20
-334.9202712410088
 30
0.0
 10
-724.3248564688033
 20
-335.0374944067016
 30
0.0
 10
-724.322078228792
 20
-335.1013060927983
 30
0.0
 11
-725.1111487247259
 21
-334.6850168094895
 31
0.0
 11
-725.0066611092064
 21
-334.6002813171194
 31
0.0
 11
-724.8800332607335
 21
-334.554639405436
 31
0.0
 11
-724.7339939642295
 21
-334.5481357784369
 31
0.0
 11
-724.5975905470126
 21
-334.5800451243609
 31
0.0
 11
-724.4833222102662
 21
-334.650652383084
 31
0.0
 11
-724.3944625065287
 21
-334.7607631226008
 31
0.0
 11
-724.3402501820891
 21
-334.9111664268779
 31
0.0
 11
-724.322078228792
 21
-335.1013060927983
 31
0.0
  0
SPLINE
  5
95
330
52
100
AcDbEntity
  8
0
  6
Continuous
 62
     7
100
AcDbSpline
210
0.0
220
0.0
230
1.0
 70
    24
 71
     3
 72
    11
 73
     7
 74
     5
 42
0.000000001
 43
0.0000000001
 44
0.00000001
 40
0.0
 40
0.0
 40
0.0
 40
0.0
 40
0.8915980263138863
 40
1.783196052627488
 40
2.674794078941261
 40
3.566392105255488
 40
3.566392105255488
 40
3.566392105255488
 40
3.566392105255488
 10
-724.322078228792
 20
-335.1013060927983
 30
0.0
 10
-724.322078228792
 20
-335.398505434903
 30
0.0
 10
-724.3220782287915
 20
-335.9929041191121
 30
0.0
 10
-724.3220782287917
 20
-336.8845021454258
 30
0.0
 10
-724.3220782287912
 20
-337.7761001717398
 30
0.0
 10
-724.3220782287917
 20
-338.3704988559489
 30
0.0
 10
-724.322078228792
 20
-338.6676981980538
 30
0.0
 11
-724.322078228792
 21
-335.1013060927983
 31
0.0
 11
-724.322078228792
 21
-335.9929041191122
 31
0.0
 11
-724.322078228792
 21
-336.884502145426
 31
0.0
 11
-724.3220782287917
 21
-337.7761001717398
 31
0.0
 11
-724.322078228792
 21
-338.6676981980538
 31
0.0
  0
SPLINE
  5
96
330
52
100
AcDbEntity
  8
0
  6
Continuous
 62
     7
100
AcDbSpline
210
0.0
220
0.0
230
1.0
 70
    24
 71
     3
 72
    11
 73
     7
 74
     5
 42
0.000000001
 43
0.0000000001
 44
0.00000001
 40
0.0
 40
0.0
 40
0.0
 40
0.0
 40
0.8715369120104128
 40
1.743073824020826
 40
2.614610736031352
 40
3.486147648041992
 40
3.486147648041992
 40
3.486147648041992
 40
3.486147648041992
 10
-723.3587215119688
 20
-338.5874537408403
 30
0.0
 10
-723.358721511969
 20
-338.2969414368369
 30
0.0
 10
-723.3587215119693
 20
-337.7159168288299
 30
0.0
 10
-723.3587215119694
 20
-336.8443799168194
 30
0.0
 10
-723.3587215119694
 20
-335.972843004809
 30
0.0
 10
-723.3587215119691
 20
-335.3918183968019
 30
0.0
 10
-723.3587215119688
 20
-335.1013060927983
 30
0.0
 11
-723.3587215119688
 21
-338.5874537408403
 31
0.0
 11
-723.3587215119688
 21
-337.7159168288298
 31
0.0
 11
-723.3587215119688
 21
-336.8443799168193
 31
0.0
 11
-723.3587215119688
 21
-335.9728430048088
 31
0.0
 11
-723.3587215119688
 21
-335.1013060927983
 31
0.0
  0
SPLINE
  5
97
330
52
100
AcDbEntity
  8
0
  6
Continuous
 62
     7
100
AcDbSpline
210
0.0
220
0.0
230
1.0
 70
    24
 71
     3
 72
    11
 73
     7
 74
     5
 42
0.000000001
 43
0.0000000001
 44
0.00000001
 40
0.0
 40
0.0
 40
0.0
 40
0.0
 40
0.8915980263140568
 40
1.783196052627773
 40
2.674794078941488
 40
3.566392105255488
 40
3.566392105255488
 40
3.566392105255488
 40
3.566392105255488
 10
-728.1232784820543
 20
-338.6676981980538
 30
0.0
 10
-728.1232784820543
 20
-338.3704988559491
 30
0.0
 10
-728.1232784820545
 20
-337.7761001717399
 30
0.0
 10
-728.1232784820547
 20
-336.8845021454261
 30
0.0
 10
-728.123278482055
 20
-335.9929041191122
 30
0.0
 10
-728.1232784820545
 20
-335.3985054349031
 30
0.0
 10
-728.1232784820543
 20
-335.1013060927983
 30
0.0
 11
-728.1232784820543
 21
-338.6676981980538
 31
0.0
 11
-728.1232784820542
 21
-337.7761001717398
 31
0.0
 11
-728.1232784820543
 21
-336.884502145426
 31
0.0
 11
-728.1232784820543
 21
-335.9929041191123
 31
0.0
 11
-728.1232784820543
 21
-335.1013060927983
 31
0.0
  0
SPLINE
  5
98
330
52
100
AcDbEntity
  8
0
  6
Continuous
 62
     7
100
AcDbSpline
210
0.0
220
0.0
230
1.0
 70
     8
 71
     3
 72
    11
 73
     7
 74
     5
 42
0.000000001
 43
0.0000000001
 44
0.00000001
 40
0.0
 40
0.0
 40
0.0
 40
0.0
 40
0.1255566221262168
 40
0.2450471512379374
 40
0.3478785635474379
 40
0.4424808278597519
 40
0.4424808278597519
 40
0.4424808278597519
 40
0.4424808278597519
 10
-728.1232784820543
 20
-335.1013060927983
 30
0.0
 10
-728.1221125275908
 20
-335.0593979111156
 30
0.0
 10
-728.1198369354898
 20
-334.9776062841676
 30
0.0
 10
-728.0971149104585
 20
-334.8634868592777
 30
0.0
 10
-728.0601023925157
 20
-334.7632852897805
 30
0.0
 10
-728.0204653117104
 20
-334.7103711362432
 30
0.0
 10
-728.0014728133513
 20
-334.6850168094895
 30
0.0
 11
-728.1232784820543
 21
-335.1013060927983
 31
0.0
 11
-728.1161760948455
 21
-334.975950513787
 31
0.0
 11
-728.0927212573137
 21
-334.8587845733107
 31
0.0
 11
-728.0546437600168
 21
-334.763262826547
 31
0.0
 11
-728.0014728133513
 21
-334.6850168094895
 31
0.0
  0
SPLINE
  5
99
330
52
100
AcDbEntity
  8
0
  6
Continuous
 62
     7
100
AcDbSpline
210
0.0
220
0.0
230
1.0
 70
     8
 71
     3
 72
    19
 73
    15
 74
    13
 42
0.000000001
 43
0.0000000001
 44
0.00000001
 40
0.0
 40
0.0
 40
0.0
 40
0.0
 40
0.0223577460828026
 40
0.0445113019734944
 40
0.0667373796725191
 40
0.0891711089100302
 40
0.1227956533605495
 40
0.1565691291751335
 40
0.1903426049898473
 40
0.2239671494406262
 40
0.2464008787487064
 40
0.2686269563813547
 40
0.2907805122721351
 40
0.3131382583549441
 40
0.3131382583549441
 40
0.3131382583549441
 40
0.3131382583549441
 10
-731.3999999999995
 20
-336.9000008911846
 30
0.0
 10
-731.4074680452923
 20
-336.9004858707424
 30
0.0
 10
-731.42233592976
 20
-336.9014514129821
 30
0.0
 10
-731.4435195032202
 20
-336.9091047362389
 30
0.0
 10
-731.4625688412686
 20
-336.9209253415131
 30
0.0
 10
-731.481261672914
 20
-336.9394431336513
 30
0.0
 10
-731.4961378822987
 20
-336.9661209039962
 30
0.0
 10
-731.5019353109548
 20
-337.0000008911836
 30
0.0
 10
-731.4961378823018
 20
-337.0338808783766
 30
0.0
 10
-731.4812616728934
 20
-337.0605586487286
 30
0.0
 10
-731.4625688412704
 20
-337.0790764408972
 30
0.0
 10
-731.4435195031942
 20
-337.0908970461306
 30
0.0
 10
-731.4223359297614
 20
-337.0985503693889
 30
0.0
 10
-731.4074680452928
 20
-337.0995159116275
 30
0.0
 10
-731.3999999999995
 20
-337.1000008911847
 30
0.0
 11
-731.3999999999995
 21
-336.9000008911846
 31
0.0
 11
-731.4222176305441
 21
-336.9025000836084
 31
0.0
 11
-731.4431392501441
 21
-336.9097847237608
 31
0.0
 11
-731.4619971567836
 21
-336.9215481394475
 31
0.0
 11
-731.4779325373142
 21
-336.9373385131349
 31
0.0
 11
-731.4942965200702
 21
-336.9667124837391
 31
0.0
 11
-731.4999999999995
 21
-337.0000008911845
 31
0.0
 11
-731.4942965200704
 21
-337.0332892986302
 31
0.0
 11
-731.4779325373142
 21
-337.0626632692345
 31
0.0
 11
-731.4619971567416
 21
-337.0784536429798
 31
0.0
 11
-731.4431392501442
 21
-337.0902170586085
 31
0.0
 11
-731.4222176305441
 21
-337.0975016987609
 31
0.0
 11
-731.3999999999995
 21
-337.1000008911847
 31
0.0
  0
SPLINE
  5
9A
330
52
100
AcDbEntity
  8
0
  6
Continuous
 62
     7
100
AcDbSpline
210
0.0
220
0.0
230
1.0
 70
    24
 71
     3
 72
    11
 73
     7
 74
     5
 42
0.000000001
 43
0.0000000001
 44
0.00000001
 40
0.0
 40
0.0
 40
0.0
 40
0.0
 40
0.4499999999995907
 40
0.8999999999995225
 40
1.349999999999454
 40
1.799999999999955
 40
1.799999999999955
 40
1.799999999999955
 40
1.799999999999955
 10
-729.5999999999996
 20
-336.9000008911846
 30
0.0
 10
-729.7499999999994
 20
-336.9000008911846
 30
0.0
 10
-730.049999999999
 20
-336.9000008911844
 30
0.0
 10
-730.4999999999993
 20
-336.9000008911844
 30
0.0
 10
-730.9499999999992
 20
-336.9000008911842
 30
0.0
 10
-731.2499999999992
 20
-336.9000008911845
 30
0.0
 10
-731.3999999999995
 20
-336.9000008911846
 30
0.0
 11
-729.5999999999996
 21
-336.9000008911846
 31
0.0
 11
-730.0499999999992
 21
-336.9000008911845
 31
0.0
 11
-730.4999999999993
 21
-336.9000008911846
 31
0.0
 11
-730.9499999999992
 21
-336.9000008911845
 31
0.0
 11
-731.3999999999995
 21
-336.9000008911846
 31
0.0
  0
SPLINE
  5
9B
330
52
100
AcDbEntity
  8
0
  6
Continuous
 62
     7
100
AcDbSpline
210
0.0
220
0.0
230
1.0
 70
    24
 71
     3
 72
    11
 73
     7
 74
     5
 42
0.000000001
 43
0.0000000001
 44
0.00000001
 40
0.0
 40
0.0
 40
0.0
 40
0.0
 40
0.4500000000002728
 40
0.900000000000432
 40
1.35000000000025
 40
1.799999999999955
 40
1.799999999999955
 40
1.799999999999955
 40
1.799999999999955
 10
-731.3999999999995
 20
-337.1000008911847
 30
0.0
 10
-731.2499999999993
 20
-337.1000008911848
 30
0.0
 10
-730.9499999999995
 20
-337.1000008911849
 30
0.0
 10
-730.4999999999991
 20
-337.100000891185
 30
0.0
 10
-730.0499999999995
 20
-337.1000008911849
 30
0.0
 10
-729.7499999999994
 20
-337.1000008911848
 30
0.0
 10
-729.5999999999996
 20
-337.1000008911847
 30
0.0
 11
-731.3999999999995
 21
-337.1000008911847
 31
0.0
 11
-730.9499999999995
 21
-337.1000008911847
 31
0.0
 11
-730.4999999999993
 21
-337.1000008911847
 31
0.0
 11
-730.0499999999994
 21
-337.1000008911847
 31
0.0
 11
-729.5999999999996
 21
-337.1000008911847
 31
0.0
  0
SPLINE
  5
9C
330
52
100
AcDbEntity
  8
0
  6
Continuous
 62
     7
100
AcDbSpline
210
0.0
220
0.0
230
1.0
 70
    24
 71
     3
 72
    11
 73
     7
 74
     5
 42
0.000000001
 43
0.0000000001
 44
0.00000001
 40
0.0
 40
0.0
 40
0.0
 40
0.0
 40
0.4499999999993634
 40
0.8999999999996362
 40
1.349999999999568
 40
1.800000000000068
 40
1.800000000000068
 40
1.800000000000068
 40
1.800000000000068
 10
-716.5999999999996
 20
-336.9000008911846
 30
0.0
 10
-716.7499999999992
 20
-336.9000008911845
 30
0.0
 10
-717.0499999999993
 20
-336.9000008911843
 30
0.0
 10
-717.4999999999991
 20
-336.9000008911842
 30
0.0
 10
-717.9499999999995
 20
-336.9000008911845
 30
0.0
 10
-718.2499999999994
 20
-336.9000008911846
 30
0.0
 10
-718.3999999999996
 20
-336.9000008911846
 30
0.0
 11
-716.5999999999996
 21
-336.9000008911846
 31
0.0
 11
-717.0499999999992
 21
-336.9000008911845
 31
0.0
 11
-717.4999999999993
 21
-336.9000008911846
 31
0.0
 11
-717.9499999999992
 21
-336.9000008911845
 31
0.0
 11
-718.3999999999996
 21
-336.9000008911846
 31
0.0
  0
SPLINE
  5
9D
330
52
100
AcDbEntity
  8
0
  6
Continuous
 62
     7
100
AcDbSpline
210
0.0
220
0.0
230
1.0
 70
    24
 71
     3
 72
    11
 73
     7
 74
     5
 42
0.000000001
 43
0.0000000001
 44
0.00000001
 40
0.0
 40
0.0
 40
0.0
 40
0.0
 40
0.4499999999999318
 40
0.9000000000002046
 40
1.350000000000023
 40
1.799999999999955
 40
1.799999999999955
 40
1.799999999999955
 40
1.799999999999955
 10
-718.3999999999995
 20
-337.1000008911847
 30
0.0
 10
-718.2499999999995
 20
-337.1000008911848
 30
0.0
 10
-717.9499999999995
 20
-337.1000008911849
 30
0.0
 10
-717.4999999999995
 20
-337.1000008911851
 30
0.0
 10
-717.0499999999995
 20
-337.1000008911849
 30
0.0
 10
-716.7499999999995
 20
-337.1000008911848
 30
0.0
 10
-716.5999999999996
 20
-337.1000008911847
 30
0.0
 11
-718.3999999999995
 21
-337.1000008911847
 31
0.0
 11
-717.9499999999995
 21
-337.1000008911847
 31
0.0
 11
-717.4999999999993
 21
-337.1000008911847
 31
0.0
 11
-717.0499999999994
 21
-337.1000008911847
 31
0.0
 11
-716.5999999999996
 21
-337.1000008911847
 31
0.0
  0
SPLINE
  5
9E
330
52
100
AcDbEntity
  8
0
  6
Continuous
 62
     7
100
AcDbSpline
210
0.0
220
0.0
230
1.0
 70
     8
 71
     3
 72
    19
 73
    15
 74
    13
 42
0.000000001
 43
0.0000000001
 44
0.00000001
 40
0.0
 40
0.0
 40
0.0
 40
0.0
 40
0.0223577460829347
 40
0.0445113019739859
 40
0.0667373796122642
 40
0.0891711089160658
 40
0.1227956533660602
 40
0.1565691291802328
 40
0.1903426049944423
 40
0.2239671494445913
 40
0.2464008787475777
 40
0.2686269563852177
 40
0.2907805122761429
 40
0.3131382583592844
 40
0.3131382583592844
 40
0.3131382583592844
 40
0.3131382583592844
 10
-729.5999999999996
 20
-337.1000008911847
 30
0.0
 10
-729.5925319547064
 20
-337.0995159116276
 30
0.0
 10
-729.5776640702376
 20
-337.0985503693893
 30
0.0
 10
-729.556480496803
 20
-337.0908970461285
 30
0.0
 10
-729.5374311587234
 20
-337.0790764408999
 30
0.0
 10
-729.5187383271062
 20
-337.0605586487249
 30
0.0
 10
-729.5038621176966
 20
-337.0338808783763
 30
0.0
 10
-729.498064689045
 20
-337.0000008911844
 30
0.0
 10
-729.5038621176978
 20
-336.9661209039941
 30
0.0
 10
-729.5187383271028
 20
-336.9394431336411
 30
0.0
 10
-729.5374311587302
 20
-336.920925341478
 30
0.0
 10
-729.5564804968018
 20
-336.909104736238
 30
0.0
 10
-729.5776640702378
 20
-336.9014514129806
 30
0.0
 10
-729.5925319547063
 20
-336.9004858707419
 30
0.0
 10
-729.5999999999996
 20
-336.9000008911846
 30
0.0
 11
-729.5999999999996
 21
-337.1000008911847
 31
0.0
 11
-729.5777823694549
 21
-337.0975016987608
 31
0.0
 11
-729.5568607498545
 21
-337.0902170586082
 31
0.0
 11
-729.538002843251
 21
-337.0784536429787
 31
0.0
 11
-729.5220674626842
 21
-337.0626632692336
 31
0.0
 11
-729.5057034799288
 21
-337.0332892986298
 31
0.0
 11
-729.4999999999995
 21
-337.0000008911847
 31
0.0
 11
-729.5057034799287
 21
-336.9667124837396
 31
0.0
 11
-729.5220674626842
 21
-336.9373385131356
 31
0.0
 11
-729.5380028432548
 21
-336.9215481393956
 31
0.0
 11
-729.5568607498544
 21
-336.9097847237609
 31
0.0
 11
-729.5777823694547
 21
-336.9025000836084
 31
0.0
 11
-729.5999999999996
 21
-336.9000008911846
 31
0.0
  0
SPLINE
  5
9F
330
52
100
AcDbEntity
  8
0
  6
Continuous
 62
     7
100
AcDbSpline
210
0.0
220
0.0
230
1.0
 70
     8
 71
     3
 72
    19
 73
    15
 74
    13
 42
0.000000001
 43
0.0000000001
 44
0.00000001
 40
0.0
 40
0.0
 40
0.0
 40
0.0
 40
0.022357746082451
 40
0.0445113019734835
 40
0.0667373796412933
 40
0.08917110891139
 40
0.1227956533620087
 40
0.1565691291766855
 40
0.1903426049913064
 40
0.22396714944203
 40
0.2464008787446556
 40
0.2686269563821451
 40
0.2907805122729256
 40
0.3131382583556216
 40
0.3131382583556216
 40
0.3131382583556216
 40
0.3131382583556216
 10
-718.3999999999996
 20
-336.9000008911846
 30
0.0
 10
-718.4074680452927
 20
-336.9004858707422
 30
0.0
 10
-718.4223359297603
 20
-336.9014514129814
 30
0.0
 10
-718.4435195032088
 20
-336.9091047362376
 30
0.0
 10
-718.4625688412666
 20
-336.9209253414975
 30
0.0
 10
-718.4812616729057
 20
-336.9394431336449
 30
0.0
 10
-718.4961378823
 20
-336.9661209039951
 30
0.0
 10
-718.5019353109547
 20
-337.0000008911841
 30
0.0
 10
-718.4961378823014
 20
-337.0338808783761
 30
0.0
 10
-718.4812616728957
 20
-337.0605586487286
 30
0.0
 10
-718.4625688412684
 20
-337.0790764408919
 30
0.0
 10
-718.4435195031969
 20
-337.0908970461314
 30
0.0
 10
-718.4223359297608
 20
-337.0985503693886
 30
0.0
 10
-718.4074680452924
 20
-337.0995159116273
 30
0.0
 10
-718.3999999999995
 20
-337.1000008911847
 30
0.0
 11
-718.3999999999996
 21
-336.9000008911846
 31
0.0
 11
-718.4222176305439
 21
-336.9025000836083
 31
0.0
 11
-718.4431392501442
 21
-336.9097847237608
 31
0.0
 11
-718.4619971567624
 21
-336.9215481394226
 31
0.0
 11
-718.4779325373144
 21
-336.9373385131348
 31
0.0
 11
-718.4942965200703
 21
-336.9667124837391
 31
0.0
 11
-718.4999999999995
 21
-337.0000008911846
 31
0.0
 11
-718.4942965200703
 21
-337.0332892986302
 31
0.0
 11
-718.4779325373142
 21
-337.0626632692345
 31
0.0
 11
-718.4619971567437
 21
-337.0784536429741
 31
0.0
 11
-718.4431392501441
 21
-337.0902170586085
 31
0.0
 11
-718.422217630544
 21
-337.0975016987609
 31
0.0
 11
-718.3999999999995
 21
-337.1000008911847
 31
0.0
  0
SPLINE
  5
A0
330
52
100
AcDbEntity
  8
0
  6
Continuous
 62
     7
100
AcDbSpline
210
0.0
220
0.0
230
1.0
 70
     8
 71
     3
 72
    19
 73
    15
 74
    13
 42
0.000000001
 43
0.0000000001
 44
0.00000001
 40
0.0
 40
0.0
 40
0.0
 40
0.0
 40
0.0223577460829283
 40
0.0445113019740869
 40
0.0667373796123652
 40
0.0891711089161261
 40
0.1227956533662198
 40
0.1565691291803924
 40
0.1903426049944899
 40
0.2239671494445283
 40
0.2464008786778415
 40
0.2686269563823997
 40
0.2907805122735209
 40
0.3131382583564493
 40
0.3131382583564493
 40
0.3131382583564493
 40
0.3131382583564493
 10
-716.5999999999996
 20
-337.1000008911847
 30
0.0
 10
-716.5925319547061
 20
-337.0995159116276
 30
0.0
 10
-716.5776640702376
 20
-337.0985503693893
 30
0.0
 10
-716.5564804968033
 20
-337.0908970461286
 30
0.0
 10
-716.5374311587235
 20
-337.0790764409002
 30
0.0
 10
-716.5187383271061
 20
-337.0605586487247
 30
0.0
 10
-716.503862117697
 20
-337.0338808783766
 30
0.0
 10
-716.4980646890446
 20
-337.0000008911837
 30
0.0
 10
-716.5038621176993
 20
-336.9661209039963
 30
0.0
 10
-716.5187383270854
 20
-336.9394431336548
 30
0.0
 10
-716.5374311587248
 20
-336.9209253415102
 30
0.0
 10
-716.5564804967776
 20
-336.9091047362407
 30
0.0
 10
-716.5776640702386
 20
-336.901451412982
 30
0.0
 10
-716.5925319547068
 20
-336.9004858707424
 30
0.0
 10
-716.5999999999996
 20
-336.9000008911846
 30
0.0
 11
-716.5999999999996
 21
-337.1000008911847
 31
0.0
 11
-716.5777823694549
 21
-337.0975016987608
 31
0.0
 11
-716.5568607498544
 21
-337.0902170586083
 31
0.0
 11
-716.5380028432509
 21
-337.0784536429788
 31
0.0
 11
-716.5220674626842
 21
-337.0626632692336
 31
0.0
 11
-716.5057034799288
 21
-337.0332892986297
 31
0.0
 11
-716.4999999999995
 21
-337.0000008911846
 31
0.0
 11
-716.5057034799287
 21
-336.9667124837396
 31
0.0
 11
-716.5220674626839
 21
-336.9373385131356
 31
0.0
 11
-716.5380028432089
 21
-336.9215481394484
 31
0.0
 11
-716.5568607498544
 21
-336.9097847237609
 31
0.0
 11
-716.5777823694549
 21
-336.9025000836085
 31
0.0
 11
-716.5999999999996
 21
-336.9000008911846
 31
0.0
  0
SPLINE
  5
A1
330
52
100
AcDbEntity
  8
0
  6
Continuous
 62
     7
100
AcDbSpline
210
0.0
220
0.0
230
1.0
 70
     8
 71
     3
 72
    11
 73
     7
 74
     5
 42
0.000000001
 43
0.0000000001
 44
0.00000001
 40
0.0
 40
0.0
 40
0.0
 40
0.0
 40
0.083934230620258
 40
0.1643404432671696
 40
0.2529082282975614
 40
0.3641652216849945
 40
0.3641652216849945
 40
0.3641652216849945
 40
0.3641652216849945
 10
-720.2499259633556
 20
-339.0458967580019
 30
0.0
 10
-720.2723474598974
 20
-339.0628644038772
 30
0.0
 10
-720.3162480154548
 20
-339.096086480471
 30
0.0
 10
-720.3959241919742
 20
-339.1261218893986
 30
0.0
 10
-720.4875048769663
 20
-339.1460290287687
 30
0.0
 10
-720.5542347567772
 20
-339.1481521468663
 30
0.0
 10
-720.5913881367733
 20
-339.1493342334394
 30
0.0
 11
-720.2499259633556
 21
-339.0458967580019
 31
0.0
 11
-720.3192441838047
 21
-339.0932247590453
 31
0.0
 11
-720.3938030900946
 21
-339.123326733989
 31
0.0
 11
-720.4803701415785
 21
-339.1420456669967
 31
0.0
 11
-720.5913881367733
 21
-339.1493342334394
 31
0.0
  0
SPLINE
  5
A2
330
52
100
AcDbEntity
  8
0
  6
Continuous
 62
     7
100
AcDbSpline
210
0.0
220
0.0
230
1.0
 70
     8
 71
     3
 72
    15
 73
    11
 74
     9
 42
0.000000001
 43
0.0000000001
 44
0.00000001
 40
0.0
 40
0.0
 40
0.0
 40
0.0
 40
0.0776666610669039
 40
0.1519627114158433
 40
0.226565274633158
 40
0.3049425065534739
 40
0.3849472281941104
 40
0.4597600084810614
 40
0.5330972969335837
 40
0.608860646915033
 40
0.608860646915033
 40
0.608860646915033
 40
0.608860646915033
 10
-720.2519574686013
 20
-338.5041620257578
 30
0.0
 10
-720.233573018238
 20
-338.5225305484735
 30
0.0
 10
-720.1976019842241
 20
-338.5584704385613
 30
0.0
 10
-720.1599671258415
 20
-338.6249874553265
 30
0.0
 10
-720.1374780560271
 20
-338.6978851860426
 30
0.0
 10
-720.1308921956115
 20
-338.7757422175047
 30
0.0
 10
-720.1373846067919
 20
-338.853671478003
 30
0.0
 10
-720.1595315470482
 20
-338.92696549921
 30
0.0
 10
-720.196552658485
 20
-338.9928476996903
 30
0.0
 10
-720.2319429096777
 20
-339.0280229593992
 30
0.0
 10
-720.2499259633556
 20
-339.0458967580019
 30
0.0
 11
-720.2519574686013
 21
-338.5041620257578
 31
0.0
 11
-720.1996065306823
 21
-338.5615335326309
 31
0.0
 11
-720.1625077532422
 21
-338.6259042099217
 31
0.0
 11
-720.14042306926
 21
-338.6971629596869
 31
0.0
 11
-720.1331144117153
 21
-338.7751986839835
 31
0.0
 11
-720.1403913269907
 21
-338.8548717803466
 31
0.0
 11
-720.1622538150865
 21
-338.9264188557262
 31
0.0
 11
-720.1987494894069
 21
-338.990030363739
 31
0.0
 11
-720.2499259633556
 21
-339.0458967580019
 31
0.0
  0
SPLINE
  5
A3
330
52
100
AcDbEntity
  8
0
  6
Continuous
 62
     7
100
AcDbSpline
210
0.0
220
0.0
230
1.0
 70
     8
 71
     3
 72
    11
 73
     7
 74
     5
 42
0.000000001
 43
0.0000000001
 44
0.00000001
 40
0.0
 40
0.0
 40
0.0
 40
0.0
 40
0.1053578510118642
 40
0.1977923184824039
 40
0.284216840439679
 40
0.3642824705128827
 40
0.3642824705128827
 40
0.3642824705128827
 40
0.3642824705128827
 10
-720.5913881367732
 20
-338.3958150793087
 30
0.0
 10
-720.5562088385235
 20
-338.3969444629494
 30
0.0
 10
-720.4901653992305
 20
-338.3990647123178
 30
0.0
 10
-720.3973115944161
 20
-338.4197399597569
 30
0.0
 10
-720.3163897632339
 20
-338.452540748296
 30
0.0
 10
-720.2728809753402
 20
-338.4873987154475
 30
0.0
 10
-720.2519574686013
 20
-338.5041620257578
 30
0.0
 11
-720.5913881367732
 21
-338.3958150793087
 31
0.0
 11
-720.4862544469789
 21
-338.4026841352372
 31
0.0
 11
-720.3960250489571
 21
-338.4227536853302
 31
0.0
 11
-720.3166994250712
 21
-338.457055927642
 31
0.0
 11
-720.2519574686013
 21
-338.5041620257578
 31
0.0
  0
SPLINE
  5
A4
330
52
100
AcDbEntity
  8
0
  6
Continuous
 62
     7
100
AcDbSpline
210
0.0
220
0.0
230
1.0
 70
     8
 71
     3
 72
    11
 73
     7
 74
     5
 42
0.000000001
 43
0.0000000001
 44
0.00000001
 40
0.0
 40
0.0
 40
0.0
 40
0.0
 40
0.1318564419895508
 40
0.2480234595148171
 40
0.3520229887710211
 40
0.4485931766003925
 40
0.4485931766003925
 40
0.4485931766003925
 40
0.4485931766003925
 10
-727.2092704134964
 20
-338.6676981980538
 30
0.0
 10
-727.2105724522005
 20
-338.7117219301632
 30
0.0
 10
-727.2130216160267
 20
-338.7945310672974
 30
0.0
 10
-727.2374502145556
 20
-338.9097408093739
 30
0.0
 10
-727.2764286433899
 20
-339.0092413795371
 30
0.0
 10
-727.31834369488
 20
-339.061751973782
 30
0.0
 10
-727.3385249347677
 20
-339.0870347392313
 30
0.0
 11
-727.2092704134964
 21
-338.6676981980538
 31
0.0
 11
-727.2173488210925
 21
-338.7993069377711
 31
0.0
 11
-727.2415840438142
 21
-338.9129178104461
 31
0.0
 11
-727.2819760817114
 21
-339.0087530123467
 31
0.0
 11
-727.3385249347677
 21
-339.0870347392313
 31
0.0
  0
SPLINE
  5
A5
330
52
100
AcDbEntity
  8
0
  6
Continuous
 62
     7
100
AcDbSpline
210
0.0
220
0.0
230
1.0
 70
     8
 71
     3
 72
    11
 73
     7
 74
     5
 42
0.000000001
 43
0.0000000001
 44
0.00000001
 40
0.0
 40
0.0
 40
0.0
 40
0.0
 40
0.1314301886563018
 40
0.2476520590038615
 40
0.3518740829464536
 40
0.4485183419988181
 40
0.4485183419988181
 40
0.4485183419988181
 40
0.4485183419988181
 10
-724.322078228792
 20
-338.6676981980538
 30
0.0
 10
-724.323393173054
 20
-338.7115796235528
 30
0.0
 10
-724.3258709183698
 20
-338.794264776302
 30
0.0
 10
-724.3503642864803
 20
-338.9094061216754
 30
0.0
 10
-724.3892846041495
 20
-339.0090462700766
 30
0.0
 10
-724.4311768314572
 20
-339.0617007227333
 30
0.0
 10
-724.4513327500631
 20
-339.0870347392313
 30
0.0
 11
-724.322078228792
 21
-338.6676981980538
 31
0.0
 11
-724.3301804423323
 21
-338.7988784114038
 31
0.0
 11
-724.3544553436487
 21
-338.9125369032126
 31
0.0
 11
-724.3948553170719
 21
-339.0086101720589
 31
0.0
 11
-724.4513327500631
 21
-339.0870347392313
 31
0.0
  0
SPLINE
  5
A6
330
52
100
AcDbEntity
  8
0
  6
Continuous
 62
     7
100
AcDbSpline
210
0.0
220
0.0
230
1.0
 70
     8
 71
     3
 72
    11
 73
     7
 74
     5
 42
0.000000001
 43
0.0000000001
 44
0.00000001
 40
0.0
 40
0.0
 40
0.0
 40
0.0
 40
0.0954691371819771
 40
0.1987850505060452
 40
0.3142195230444117
 40
0.4448942463326041
 40
0.4448942463326041
 40
0.4448942463326041
 40
0.4448942463326041
 10
-725.1132648760238
 20
-339.0860189866083
 30
0.0
 10
-725.1324979719094
 20
-339.0604813163272
 30
0.0
 10
-725.1725449531561
 20
-339.0073069814084
 30
0.0
 10
-725.2094182752937
 20
-338.9080114999517
 30
0.0
 10
-725.2326046155104
 20
-338.7934816320322
 30
0.0
 10
-725.2349340884919
 20
-338.7113219164239
 30
0.0
 10
-725.2361709434016
 20
-338.6676981980538
 30
0.0
 11
-725.1132648760238
 21
-339.0860189866083
 31
0.0
 11
-725.167107700667
 21
-339.007181769896
 31
0.0
 11
-725.2055079110961
 21
-338.9112672124338
 31
0.0
 11
-725.228513120889
 21
-338.7981483448367
 31
0.0
 11
-725.2361709434016
 21
-338.6676981980538
 31
0.0
  0
SPLINE
  5
A7
330
52
100
AcDbEntity
  8
0
  6
Continuous
 62
     7
100
AcDbSpline
210
0.0
220
0.0
230
1.0
 70
    24
 71
     3
 72
    11
 73
     7
 74
     5
 42
0.000000001
 43
0.0000000001
 44
0.00000001
 40
0.0
 40
0.0
 40
0.0
 40
0.0
 40
0.5518076124210438
 40
1.103615224842429
 40
1.655422837264268
 40
2.207230449686222
 40
2.207230449686222
 40
2.207230449686222
 40
2.207230449686222
 10
-720.5913881367733
 20
-339.1493342334394
 30
0.0
 10
-720.7753240075803
 20
-339.1493342334393
 30
0.0
 10
-721.1431957491945
 20
-339.1493342334393
 30
0.0
 10
-721.6950033616157
 20
-339.1493342334392
 30
0.0
 10
-722.2468109740378
 20
-339.1493342334393
 30
0.0
 10
-722.6146827156521
 20
-339.1493342334393
 30
0.0
 10
-722.7986185864595
 20
-339.1493342334394
 30
0.0
 11
-720.5913881367733
 21
-339.1493342334394
 31
0.0
 11
-721.1431957491945
 21
-339.1493342334394
 31
0.0
 11
-721.6950033616159
 21
-339.1493342334394
 31
0.0
 11
-722.2468109740377
 21
-339.1493342334394
 31
0.0
 11
-722.7986185864595
 21
-339.1493342334394
 31
0.0
  0
SPLINE
  5
A8
330
52
100
AcDbEntity
  8
0
  6
Continuous
 62
     7
100
AcDbSpline
210
0.0
220
0.0
230
1.0
 70
    24
 71
     3
 72
    11
 73
     7
 74
     5
 42
0.000000001
 43
0.0000000001
 44
0.00000001
 40
0.0
 40
0.0
 40
0.0
 40
0.0
 40
0.4633101651464813
 40
0.9266203302929625
 40
1.389930495439216
 40
1.853240660585584
 40
1.853240660585584
 40
1.853240660585584
 40
1.853240660585584
 10
-722.4446287973587
 20
-338.3958150793087
 30
0.0
 10
-722.2901920756433
 20
-338.3958150793087
 30
0.0
 10
-721.9813186322122
 20
-338.3958150793088
 30
0.0
 10
-721.5180084670659
 20
-338.3958150793085
 30
0.0
 10
-721.0546983019193
 20
-338.3958150793085
 30
0.0
 10
-720.7458248584885
 20
-338.3958150793086
 30
0.0
 10
-720.5913881367732
 20
-338.3958150793087
 30
0.0
 11
-722.4446287973587
 21
-338.3958150793087
 31
0.0
 11
-721.9813186322124
 21
-338.3958150793087
 31
0.0
 11
-721.5180084670661
 21
-338.3958150793087
 31
0.0
 11
-721.0546983019198
 21
-338.3958150793088
 31
0.0
 11
-720.5913881367732
 21
-338.3958150793087
 31
0.0
  0
SPLINE
  5
A9
330
52
100
AcDbEntity
  8
0
  6
Continuous
 62
     7
100
AcDbSpline
210
0.0
220
0.0
230
1.0
 70
    24
 71
     3
 72
    11
 73
     7
 74
     5
 42
0.000000001
 43
0.0000000001
 44
0.00000001
 40
0.0
 40
0.0
 40
0.0
 40
0.0
 40
0.3804840033495225
 40
0.7609680066989881
 40
1.141452010048511
 40
1.52193601339809
 40
1.52193601339809
 40
1.52193601339809
 40
1.52193601339809
 10
-725.2361709434016
 20
-338.6676981980538
 30
0.0
 10
-725.2361709434017
 20
-338.5408701969373
 30
0.0
 10
-725.2361709434017
 20
-338.2872141947043
 30
0.0
 10
-725.2361709434019
 20
-337.9067301913549
 30
0.0
 10
-725.2361709434015
 20
-337.5262461880054
 30
0.0
 10
-725.2361709434016
 20
-337.2725901857722
 30
0.0
 10
-725.2361709434016
 20
-337.1457621846557
 30
0.0
 11
-725.2361709434016
 21
-338.6676981980538
 31
0.0
 11
-725.2361709434016
 21
-338.2872141947042
 31
0.0
 11
-725.2361709434016
 21
-337.9067301913548
 31
0.0
 11
-725.2361709434016
 21
-337.5262461880053
 31
0.0
 11
-725.2361709434016
 21
-337.1457621846557
 31
0.0
  0
SPLINE
  5
AA
330
52
100
AcDbEntity
  8
0
  6
Continuous
 62
     7
100
AcDbSpline
210
0.0
220
0.0
230
1.0
 70
    24
 71
     3
 72
    11
 73
     7
 74
     5
 42
0.000000001
 43
0.0000000001
 44
0.00000001
 40
0.0
 40
0.0
 40
0.0
 40
0.0
 40
0.4932748675233825
 40
0.9865497350465375
 40
1.479824602570261
 40
1.97309947009478
 40
1.97309947009478
 40
1.97309947009478
 40
1.97309947009478
 10
-725.2361709434016
 20
-337.1457621846557
 30
0.0
 10
-725.4005958992426
 20
-337.1457621846557
 30
0.0
 10
-725.729445810925
 20
-337.1457621846557
 30
0.0
 10
-726.2227206784481
 20
-337.1457621846553
 30
0.0
 10
-726.7159955459722
 20
-337.1457621846554
 30
0.0
 10
-727.0448454576544
 20
-337.1457621846556
 30
0.0
 10
-727.2092704134964
 20
-337.1457621846557
 30
0.0
 11
-725.2361709434016
 21
-337.1457621846557
 31
0.0
 11
-725.7294458109254
 21
-337.1457621846557
 31
0.0
 11
-726.2227206784492
 21
-337.1457621846557
 31
0.0
 11
-726.7159955459728
 21
-337.1457621846557
 31
0.0
 11
-727.2092704134964
 21
-337.1457621846557
 31
0.0
  0
SPLINE
  5
AB
330
52
100
AcDbEntity
  8
0
  6
Continuous
 62
     7
100
AcDbSpline
210
0.0
220
0.0
230
1.0
 70
    24
 71
     3
 72
    11
 73
     7
 74
     5
 42
0.000000001
 43
0.0000000001
 44
0.00000001
 40
0.0
 40
0.0
 40
0.0
 40
0.0
 40
0.3804840033495793
 40
0.7609680066991018
 40
1.141452010048567
 40
1.52193601339809
 40
1.52193601339809
 40
1.52193601339809
 40
1.52193601339809
 10
-727.2092704134964
 20
-337.1457621846557
 30
0.0
 10
-727.2092704134963
 20
-337.2725901857723
 30
0.0
 10
-727.2092704134964
 20
-337.5262461880053
 30
0.0
 10
-727.2092704134968
 20
-337.9067301913549
 30
0.0
 10
-727.2092704134964
 20
-338.2872141947042
 30
0.0
 10
-727.2092704134965
 20
-338.5408701969373
 30
0.0
 10
-727.2092704134964
 20
-338.6676981980538
 30
0.0
 11
-727.2092704134964
 21
-337.1457621846557
 31
0.0
 11
-727.2092704134964
 21
-337.5262461880052
 31
0.0
 11
-727.2092704134964
 21
-337.9067301913548
 31
0.0
 11
-727.2092704134964
 21
-338.2872141947042
 31
0.0
 11
-727.2092704134964
 21
-338.6676981980538
 31
0.0
  0
SPLINE
  5
AC
330
52
100
AcDbEntity
  8
0
  6
Continuous
 62
     7
100
AcDbSpline
210
0.0
220
0.0
230
1.0
 70
     8
 71
     3
 72
    15
 73
    11
 74
     9
 42
0.000000001
 43
0.0000000001
 44
0.00000001
 40
0.0
 40
0.0
 40
0.0
 40
0.0
 40
0.0922614918276422
 40
0.1820679251300162
 40
0.2734921852398706
 40
0.3703455958719165
 40
0.4688642107886808
 40
0.5604532982258563
 40
0.6492957389280511
 40
0.7400409758638797
 40
0.7400409758638797
 40
0.7400409758638797
 40
0.7400409758638797
 10
-724.4513327500631
 20
-339.0870347392313
 30
0.0
 10
-724.4735738846205
 20
-339.1084453940522
 30
0.0
 10
-724.5174643313958
 20
-339.1506969599539
 30
0.0
 10
-724.5985979653344
 20
-339.1945665250022
 30
0.0
 10
-724.6880458366591
 20
-339.2210281357716
 30
0.0
 10
-724.783868227774
 20
-339.2288342785463
 30
0.0
 10
-724.8797618597243
 20
-339.2211289127304
 30
0.0
 10
-724.9695342263219
 20
-339.1947163260169
 30
0.0
 10
-725.0497455905886
 20
-339.1504919422521
 30
0.0
 10
-725.091942752755
 20
-339.1076612442706
 30
0.0
 10
-725.1132648760238
 20
-339.0860189866083
 30
0.0
 11
-724.4513327500631
 21
-339.0870347392313
 31
0.0
 11
-724.5206552213908
 21
-339.14791641207
 31
0.0
 11
-724.5992305642683
 21
-339.1914033212404
 31
0.0
 11
-724.6868524539439
 21
-339.2174954667427
 31
0.0
 11
-724.7833145656663
 21
-339.2261928485768
 31
0.0
 11
-724.8814471143194
 21
-339.217479595608
 31
0.0
 11
-724.969207876424
 21
-339.1912763521626
 31
0.0
 11
-725.0465095607391
 21
-339.1474878914321
 31
0.0
 11
-725.1132648760238
 21
-339.0860189866083
 31
0.0
  0
SPLINE
  5
AD
330
52
100
AcDbEntity
  8
0
  6
Continuous
 62
     7
100
AcDbSpline
210
0.0
220
0.0
230
1.0
 70
     8
 71
     3
 72
    15
 73
    11
 74
     9
 42
0.000000001
 43
0.0000000001
 44
0.00000001
 40
0.0
 40
0.0
 40
0.0
 40
0.0
 40
0.138949434232691
 40
0.2595432726862056
 40
0.3651546485878064
 40
0.4608620658980336
 40
0.5565021542866286
 40
0.66180946306967
 40
0.7817772465982427
 40
0.9197254109382855
 40
0.9197254109382855
 40
0.9197254109382855
 40
0.9197254109382855
 10
-722.7986185864595
 20
-339.1493342334394
 30
0.0
 10
-722.8449811333754
 20
-339.1479867948076
 30
0.0
 10
-722.9315816086381
 20
-339.1454699043656
 30
0.0
 10
-723.0515204498494
 20
-339.1209609902633
 30
0.0
 10
-723.1515785885967
 20
-339.0799973651357
 30
0.0
 10
-723.2318367644284
 20
-339.0198061928069
 30
0.0
 10
-723.2909197710007
 20
-338.9389003882923
 30
0.0
 10
-723.3310661334854
 20
-338.8389151583952
 30
0.0
 10
-723.3549638419556
 20
-338.7195326630837
 30
0.0
 10
-723.3574120681376
 20
-338.6334797493142
 30
0.0
 10
-723.3587215119688
 20
-338.5874537408403
 30
0.0
 11
-722.7986185864595
 21
-339.1493342334394
 31
0.0
 11
-722.9373190780866
 21
-339.1410204040282
 31
0.0
 11
-723.0553077388861
 21
-339.1160894965507
 31
0.0
 11
-723.1524099863758
 21
-339.0745573821416
 31
0.0
 11
-723.2284512380742
 21
-339.0164399319358
 31
0.0
 11
-723.2856230331686
 21
-338.9397691252263
 31
0.0
 11
-723.3263126548425
 21
-338.8426404258452
 31
0.0
 11
-723.3506391366057
 21
-338.7251649317354
 31
0.0
 11
-723.3587215119688
 21
-338.5874537408403
 31
0.0
  0
SPLINE
  5
AE
330
52
100
AcDbEntity
  8
0
  6
Continuous
 62
     7
100
AcDbSpline
210
0.0
220
0.0
230
1.0
 70
     8
 71
     3
 72
    15
 73
    11
 74
     9
 42
0.000000001
 43
0.0000000001
 44
0.00000001
 40
0.0
 40
0.0
 40
0.0
 40
0.0
 40
0.1368298213470656
 40
0.2727791106062151
 40
0.4191445853217239
 40
0.559183512849305
 40
0.6926555264651079
 40
0.83348037193137
 40
0.9924729913036406
 40
1.182426543573017
 40
1.182426543573017
 40
1.182426543573017
 40
1.182426543573017
 10
-727.3385249347677
 20
-339.0870347392313
 30
0.0
 10
-727.3725821585512
 20
-339.1180276836911
 30
0.0
 10
-727.4404774476618
 20
-339.1798141155398
 30
0.0
 10
-727.5766376206498
 20
-339.2248036921422
 30
0.0
 10
-727.7184041188075
 20
-339.2302021042728
 30
0.0
 10
-727.857420860992
 20
-339.1998216677891
 30
0.0
 10
-727.9759565523502
 20
-339.1232070973466
 30
0.0
 10
-728.0645108980698
 20
-339.0056260081964
 30
0.0
 10
-728.1158684228594
 20
-338.8477320872403
 30
0.0
 10
-728.1206665591849
 20
-338.7311572712352
 30
0.0
 10
-728.1232784820543
 20
-338.6676981980538
 30
0.0
 11
-727.3385249347677
 21
-339.0870347392313
 31
0.0
 11
-727.4459095283489
 21
-339.1718342121138
 31
0.0
 11
-727.5739613151912
 21
-339.2174954667427
 31
0.0
 11
-727.7201859557113
 21
-339.223914758123
 31
0.0
 11
-727.8563683188593
 21
-339.1912763521625
 31
0.0
 11
-727.9685462445552
 21
-339.1189514478812
 31
0.0
 11
-728.0542152392605
 21
-339.0071817700077
 31
0.0
 11
-728.1060215988691
 21
-338.8568662529449
 31
0.0
 11
-728.1232784820543
 21
-338.6676981980538
 31
0.0
  0
SPLINE
  5
AF
330
52
100
AcDbEntity
  8
0
  6
Continuous
 62
     7
100
AcDbSpline
210
0.0
220
0.0
230
1.0
 70
     8
 71
     3
 72
    15
 73
    11
 74
     9
 42
0.000000001
 43
0.0000000001
 44
0.00000001
 40
0.0
 40
0.0
 40
0.0
 40
0.0
 40
0.1336814425076459
 40
0.2698274798149239
 40
0.4185820878462562
 40
0.5587688893257412
 40
0.6931417054775098
 40
0.8346347865545968
 40
0.994479892393419
 40
1.185480854730915
 40
1.185480854730915
 40
1.185480854730915
 40
1.185480854730915
 10
-728.0014728133513
 20
-334.6850168094895
 30
0.0
 10
-727.9688231340355
 20
-334.6539594529955
 30
0.0
 10
-727.9029218272182
 20
-334.5912721665998
 30
0.0
 10
-727.766267360886
 20
-334.5473457634013
 30
0.0
 10
-727.6237395033704
 20
-334.5417463354178
 30
0.0
 10
-727.4836403729662
 20
-334.5719615674923
 30
0.0
 10
-727.3632771250652
 20
-334.6462328766225
 30
0.0
 10
-727.270739687191
 20
-334.7618977380029
 30
0.0
 10
-727.2171191323588
 20
-334.9202895099776
 30
0.0
 10
-727.212037080467
 20
-335.0374977856192
 30
0.0
 10
-727.2092704134964
 20
-335.1013060927983
 30
0.0
 11
-728.0014728133513
 21
-334.6850168094895
 31
0.0
 11
-727.8980773302907
 21
-334.6002813171193
 31
0.0
 11
-727.7698097952107
 21
-334.554639405436
 31
0.0
 11
-727.6211986178618
 21
-334.5481085573137
 31
0.0
 11
-727.4846980856653
 21
-334.5800451243609
 31
0.0
 11
-727.3703712900183
 21
-334.6506527574506
 31
0.0
 11
-727.2815118510206
 21
-334.7607631226009
 31
0.0
 11
-727.2273888017138
 21
-334.9111664268779
 31
0.0
 11
-727.2092704134964
 21
-335.1013060927983
 31
0.0
  0
SPLINE
  5
B0
330
52
100
AcDbEntity
  8
0
  6
Continuous
 62
     7
100
AcDbSpline
210
0.0
220
0.0
230
1.0
 70
    11
 71
     3
 72
    59
 73
    55
 74
    53
 42
0.000000001
 43
0.0000000001
 44
0.00000001
 40
0.0
 40
0.0
 40
0.0
 40
0.0
 40
1.985308460405717
 40
3.975923416605815
 40
5.963762292249042
 40
7.951341143445715
 40
9.939122918599596
 40
11.92656339645941
 40
13.91662165552258
 40
15.90469096237164
 40
16.28518185718377
 40
16.66511771287559
 40
17.04445281600829
 40
17.42338148286484
 40
18.18293111737361
 40
18.95720219218521
 40
19.69958477115166
 40
20.43696890375364
 40
20.88582820649859
 40
21.31532055963698
 40
21.89384199278704
 40
22.51733896103363
 40
23.36684145358907
 40
24.17832223007343
 40
24.97549635225414
 40
25.77237494622013
 40
27.37288885861962
 40
28.97831632830189
 40
30.5828068204392
 40
32.18569822805836
 40
32.98724950510093
 40
33.78891669253095
 40
34.59062255585002
 40
35.39224427180534
 40
36.99509341477469
 40
38.59887045239041
 40
40.20457864502917
 40
41.80711978523522
 40
42.20664934639206
 40
42.60553397616338
 40
43.00380139126289
 40
43.40190190073403
 40
44.20240840817397
 40
45.02697844782456
 40
45.80859535975558
 40
46.54873662674093
 40
46.77457942954341
 40
46.99700340571262
 40
47.22178984956459
 40
47.45312307596686
 40
48.08807009154447
 40
48.74732176138683
 40
50.16184687336859
 40
51.54450911377243
 40
51.54450911377243
 40
51.54450911377243
 40
51.54450911377243
 10
-715.8682720163544
 20
-339.8284280159309
 30
0.0
 10
-716.503718206751
 20
-340.0146272710904
 30
0.0
 10
-717.7763090600142
 20
-340.3875234713939
 30
0.0
 10
-719.7362277059738
 20
-340.7404831826967
 30
0.0
 10
-721.7154807160514
 20
-340.9473140996245
 30
0.0
 10
-723.7033278541319
 20
-341.0162899728017
 30
0.0
 10
-725.6915203440872
 20
-340.9804394141346
 30
0.0
 10
-727.6751369674157
 20
-340.8192700481475
 30
0.0
 10
-729.6407365938555
 20
-340.5047620490731
 30
0.0
 10
-731.0534930850642
 20
-340.1572912501451
 30
0.0
 10
-731.9307494195195
 20
-339.8930763196183
 30
0.0
 10
-732.2926573419254
 20
-339.7774256773062
 30
0.0
 10
-732.6516459894764
 20
-339.6544738614424
 30
0.0
 10
-733.1243981986966
 20
-339.4740938828892
 30
0.0
 10
-733.7043853512805
 20
-339.205823630234
 30
0.0
 10
-734.3444115056401
 20
-338.7922547927796
 30
0.0
 10
-734.9036130994668
 20
-338.2862182188454
 30
0.0
 10
-735.2959886222451
 20
-337.767997927141
 30
0.0
 10
-735.496757524874
 20
-337.2607158287574
 30
0.0
 10
-735.5130253431857
 20
-336.7638002425996
 30
0.0
 10
-735.3032463328752
 20
-336.2472101755275
 30
0.0
 10
-734.8898910566363
 20
-335.698791847571
 30
0.0
 10
-734.3213826945514
 20
-335.1838297122785
 30
0.0
 10
-733.6228447298554
 20
-334.7492455821634
 30
0.0
 10
-732.88792479291
 20
-334.424072356855
 30
0.0
 10
-731.879462295358
 20
-334.0807136458271
 30
0.0
 10
-730.5942950430671
 20
-333.7182399352807
 30
0.0
 10
-729.0239628672845
 20
-333.3879034294679
 30
0.0
 10
-727.4344724334323
 20
-333.1627296977348
 30
0.0
 10
-726.1017153937794
 20
-333.0555263086164
 30
0.0
 10
-725.033833752794
 20
-333.0115724424134
 30
0.0
 10
-724.2322377471116
 20
-332.9978556008549
 30
0.0
 10
-723.4305143661477
 20
-333.0013459753442
 30
0.0
 10
-722.3621065367541
 20
-333.0302474098715
 30
0.0
 10
-721.0280987896053
 20
-333.1160017589086
 30
0.0
 10
-719.4349391762453
 20
-333.3118692366327
 30
0.0
 10
-717.8580246144104
 20
-333.6117566389552
 30
0.0
 10
-716.6934277118773
 20
-333.9158306492926
 30
0.0
 10
-715.9283713299623
 20
-334.1508505967062
 30
0.0
 10
-715.5493271503904
 20
-334.2752003390902
 30
0.0
 10
-715.1741754646993
 20
-334.4096510986124
 30
0.0
 10
-714.6810715779959
 20
-334.6103673227954
 30
0.0
 10
-714.0775545405245
 20
-334.9160553552537
 30
0.0
 10
-713.4264401013227
 20
-335.392393307131
 30
0.0
 10
-712.8825610909396
 20
-335.9580143638627
 30
0.0
 10
-712.5835263033539
 20
-336.4750381616437
 30
0.0
 10
-712.5010297811946
 20
-336.8645431818724
 30
0.0
 10
-712.4962492945508
 20
-337.0903021393518
 30
0.0
 10
-712.5357163292717
 20
-337.3142679192861
 30
0.0
 10
-712.6553808761363
 20
-337.6590008610675
 30
0.0
 10
-712.9343207101981
 20
-338.0927593975749
 30
0.0
 10
-713.5619135860168
 20
-338.7451752927641
 30
0.0
 10
-714.5465353176628
 20
-339.3802721758525
 30
0.0
 10
-715.4310516374369
 20
-339.6801814939633
 30
0.0
 10
-715.8682720163544
 20
-339.8284280159309
 30
0.0
 11
-715.8682720163544
 21
-339.8284280159309
 31
0.0
 11
-717.7831000129408
 21
-340.3527213172777
 31
0.0
 11
-719.7402432613287
 21
-340.7162295134719
 31
0.0
 11
-721.7171561862328
 21
-340.9243609207984
 31
0.0
 11
-723.7033399071247
 21
-340.9988184022699
 31
0.0
 11
-725.6907339382063
 21
-340.9595583608821
 31
0.0
 11
-727.6712513550134
 21
-340.7938163481792
 31
0.0
 11
-729.6360545795822
 21
-340.4777781175137
 31
0.0
 11
-731.5662922054476
 21
-340.0017505168078
 31
0.0
 11
-731.9306129392284
 21
-339.8920066150298
 31
0.0
 11
-732.2924433476996
 21
-339.7761186952477
 31
0.0
 11
-732.6510281741184
 21
-339.6523768561735
 31
0.0
 11
-733.0048062856106
 21
-339.5166271511902
 31
0.0
 11
-733.6916315016997
 21
-339.1923020521291
 31
0.0
 11
-734.340297271737
 21
-338.76953921533
 31
0.0
 11
-734.8882269898678
 21
-338.2686351150238
 31
0.0
 11
-735.3183905062623
 21
-337.6697238457834
 31
0.0
 11
-735.4732231541043
 21
-337.2484145473374
 31
0.0
 11
-735.4857881571902
 21
-336.8191060309331
 31
0.0
 11
-735.2887290577906
 21
-336.2751807049555
 31
0.0
 11
-734.9229267074425
 21
-335.7702677320946
 31
0.0
 11
-734.2965774540035
 21
-335.196385254607
 31
0.0
 11
-733.6100433369402
 21
-334.7637515099991
 31
0.0
 11
-732.8837808152025
 21
-334.4350733531713
 31
0.0
 11
-732.1317279836449
 21
-334.1715737664384
 31
0.0
 11
-730.5915757505092
 21
-333.7361706393992
 31
0.0
 11
-729.0205902107941
 21
-333.4054112180234
 31
0.0
 11
-727.4321910969237
 21
-333.1787440727027
 31
0.0
 11
-725.834638983476
 21
-333.048022575783
 31
0.0
 11
-725.0337772385706
 21
-333.0147823087261
 31
0.0
 11
-724.232233331607
 21
-333.0007236924342
 31
0.0
 11
-723.430535796297
 21
-333.0043779014782
 31
0.0
 11
-722.6292148078356
 21
-333.0263335165793
 31
0.0
 11
-721.02981621905
 21
-333.1314502599008
 31
0.0
 11
-719.4382670150337
 21
-333.3291164383284
 31
0.0
 11
-717.86092558843
 21
-333.6296040828594
 31
0.0
 11
-716.3104233792162
 21
-334.0346732205867
 31
0.0
 11
-715.9285458113571
 21
-334.1521184993247
 31
0.0
 11
-715.5497060818734
 21
-334.276976047526
 31
0.0
 11
-715.1751338969569
 21
-334.412300148651
 31
0.0
 11
-714.8067190245954
 21
-334.5631460886339
 31
0.0
 11
-714.0956786435326
 21
-334.930885460525
 31
0.0
 11
-713.4312197906803
 21
-335.4191581139021
 31
0.0
 11
-712.8973110255178
 21
-335.9900052287476
 31
0.0
 11
-712.5531944464773
 21
-336.645285990062
 31
0.0
 11
-712.5078828169429
 21
-336.866536589758
 31
0.0
 11
-712.5034862039158
 21
-337.0889171082139
 31
0.0
 11
-712.5410420755088
 21
-337.3105440511443
 31
0.0
 11
-712.61563404806
 21
-337.5295214454763
 31
0.0
 11
-712.9450926254536
 21
-338.0723057101112
 31
0.0
 11
-713.3980655655968
 21
-338.55129243135
 31
0.0
 11
-714.578037491663
 21
-339.3313870041603
 31
0.0
 11
-715.8682720163544
 21
-339.8284280159309
 31
0.0
  0
ENDBLK
  5
54
330
52
100
AcDbEntity
  8
0
100
AcDbBlockEnd
  0
BLOCK
  5
57
330
55
100
AcDbEntity
  8
0
100
AcDbBlockBegin
  2
HL0531S-Zeichnung-WEB__4
 70
     0
 10
-1184.0
 20
-350.0000008911848
 30
0.0
  3
HL0531S-Zeichnung-WEB__4
  1

  0
INSERT
  5
56
330
55
100
AcDbEntity
  8
0
100
AcDbBlockReference
  2
531-Abdeckung-Standard-V06-13mm-25_5mm__3
 10
-1184.0
 20
-350.0000008911848
 30
0.0
  0
ENDBLK
  5
58
330
55
100
AcDbEntity
  8
0
100
AcDbBlockEnd
  0
BLOCK
  5
5B
330
59
100
AcDbEntity
  8
0
100
AcDbBlockBegin
  2
Vordans3
 70
     0
 10
-943.9999999999995
 20
-324.99999999992
 30
0.0
  3
Vordans3
  1

  0
INSERT
  5
5A
330
59
100
AcDbEntity
  8
0
100
AcDbBlockReference
  2
HL0531S-Zeichnung-WEB__4
 10
-1184.0
 20
-350.0000008911848
 30
0.0
  0
MTEXT
  5
B1
330
59
100
AcDbEntity
  8
1
 62
     1
100
AcDbMText
 10
-944.0
 20
-354.99999999992
 30
0.0
 40
3.5
 41
0.0
 71
     2
 72
     1
  1
 
  7
CONVERTER_11
 73
     1
 44
1.32052821128451
  0
DIMENSION
  5
BC
330
59
100
AcDbEntity
  8
1
100
AcDbDimension
  2
*D9
 10
-1184.0
 20
-396.08573208404
 30
0.0
 11
-945.849701729708
 21
-384.58573208404
 31
0.0
 70
    32
  1
<>
 71
     5
 42
-1.0
 53
0.00013888888889
  3
ME10_DIM_12
100
AcDbAlignedDimension
 13
-703.9999999999995
 23
-350.0000008911848
 33
0.0
 14
-1184.0
 24
-350.0000008911848
 34
0.0
100
AcDbRotatedDimension
  0
ENDBLK
  5
5C
330
59
100
AcDbEntity
  8
0
100
AcDbBlockEnd
  0
BLOCK
  5
76
330
6D
100
AcDbEntity
  8
0
100
AcDbBlockBegin
  2
*D7
 70
     1
 10
0.0
 20
0.0
 30
0.0
  3
*D7
  1

  0
LINE
  5
6E
330
6D
100
AcDbEntity
  8
1
  6
Continuous
 62
     4
100
AcDbLine
 10
-1322.499996575797
 20
-396.08573208404
 30
0.0
 11
-1292.499996575797
 21
-396.08573208404
 31
0.0
  0
LINE
  5
6F
330
6D
100
AcDbEntity
  8
1
  6
Continuous
 62
     4
100
AcDbLine
 10
-1292.499996575797
 20
-396.08573208404
 30
0.0
 11
-1266.999996575797
 21
-396.08573208404
 31
0.0
  0
LINE
  5
70
330
6D
100
AcDbEntity
  8
1
  6
Continuous
 62
     4
100
AcDbLine
 10
-1266.999996575797
 20
-396.08573208404
 30
0.0
 11
-1206.20890116154
 21
-396.08573208404
 31
0.0
  0
LINE
  5
71
330
6D
100
AcDbEntity
  8
1
  6
Continuous
 62
     4
100
AcDbLine
 10
-1292.499996575797
 20
-347.500000891185
 30
0.0
 11
-1292.499996575797
 21
-398.08573208404
 31
0.0
  0
LINE
  5
72
330
6D
100
AcDbEntity
  8
1
  6
Continuous
 62
     4
100
AcDbLine
 10
-1266.999996575797
 20
-350.000000891185
 30
0.0
 11
-1266.999996575797
 21
-398.08573208404
 31
0.0
  0
SOLID
  5
73
330
6D
100
AcDbEntity
  8
1
 62
     4
100
AcDbTrace
 10
-1307.499996575797
 20
-398.0605195478509
 30
0.0
 11
-1307.499996575797
 21
-394.1109446202291
 31
0.0
 12
-1292.499996575797
 22
-396.08573208404
 32
0.0
 13
-1292.499996575797
 23
-396.08573208404
 33
0.0
  0
SOLID
  5
74
330
6D
100
AcDbEntity
  8
1
 62
     4
100
AcDbTrace
 10
-1251.999996575797
 20
-394.1109446202291
 30
0.0
 11
-1251.999996575797
 21
-398.0605195478509
 31
0.0
 12
-1266.999996575797
 22
-396.08573208404
 32
0.0
 13
-1266.999996575797
 23
-396.08573208404
 33
0.0
  0
MTEXT
  5
75
330
6D
100
AcDbEntity
  8
1
 62
     1
100
AcDbMText
 10
-1247.45890116154
 20
-390.58573208404
 30
0.0
 40
15.0
 41
0.0
 71
     7
 72
     1
  1
25,5
  7
CONVERTER_11
 11
0.9999999999970619
 21
2.424068405545306E-6
 31
0.0
 73
     1
 44
0.60024009603842
  0
ENDBLK
  5
77
330
6D
100
AcDbEntity
  8
0
100
AcDbBlockEnd
  0
BLOCK
  5
81
330
7A
100
AcDbEntity
  8
0
100
AcDbBlockBegin
  2
*D8
 70
     1
 10
0.0
 20
0.0
 30
0.0
  3
*D8
  1

  0
LINE
  5
7B
330
7A
100
AcDbEntity
  8
1
  6
Continuous
 62
     4
100
AcDbLine
 10
-1324.27994383989
 20
-350.000000891185
 30
0.0
 11
-1324.27994383989
 21
-300.0000008911858
 31
0.0
  0
LINE
  5
7C
330
7A
100
AcDbEntity
  8
1
  6
Continuous
 62
     4
100
AcDbLine
 10
-1289.999996575797
 20
-350.000000891185
 30
0.0
 11
-1326.27994383989
 21
-350.000000891185
 31
0.0
  0
LINE
  5
7D
330
7A
100
AcDbEntity
  8
1
  6
Continuous
 62
     4
100
AcDbLine
 10
-1289.999996575797
 20
-300.0000008911858
 30
0.0
 11
-1326.27994383989
 21
-300.0000008911858
 31
0.0
  0
SOLID
  5
7E
330
7A
100
AcDbEntity
  8
1
 62
     4
100
AcDbTrace
 10
-1326.254731303701
 20
-335.000000891185
 30
0.0
 11
-1322.305156376079
 21
-335.000000891185
 31
0.0
 12
-1324.27994383989
 22
-350.000000891185
 32
0.0
 13
-1324.27994383989
 23
-350.000000891185
 33
0.0
  0
SOLID
  5
7F
330
7A
100
AcDbEntity
  8
1
 62
     4
100
AcDbTrace
 10
-1322.305156376079
 20
-315.0000008911858
 30
0.0
 11
-1326.254731303701
 21
-315.0000008911858
 31
0.0
 12
-1324.27994383989
 22
-300.0000008911858
 32
0.0
 13
-1324.27994383989
 23
-300.0000008911858
 33
0.0
  0
MTEXT
  5
80
330
7A
100
AcDbEntity
  8
1
 62
     1
100
AcDbMText
 10
-1328.27994383989
 20
-335.531549708967
 30
0.0
 40
15.0
 41
0.0
 71
     7
 72
     1
  1
50
  7
CONVERTER_11
 11
0.0
 21
1.0
 31
0.0
 73
     1
 44
0.60024009603842
  0
ENDBLK
  5
82
330
7A
100
AcDbEntity
  8
0
100
AcDbBlockEnd
  0
BLOCK
  5
B9
330
B2
100
AcDbEntity
  8
0
100
AcDbBlockBegin
  2
*D9
 70
     1
 10
0.0
 20
0.0
 30
0.0
  3
*D9
  1

  0
LINE
  5
B3
330
B2
100
AcDbEntity
  8
1
  6
Continuous
 62
     4
100
AcDbLine
 10
-1184.0
 20
-396.08573208404
 30
0.0
 11
-703.9999999999995
 21
-396.08573208404
 31
0.0
  0
LINE
  5
B4
330
B2
100
AcDbEntity
  8
1
  6
Continuous
 62
     4
100
AcDbLine
 10
-1184.0
 20
-350.0000008911848
 30
0.0
 11
-1184.0
 21
-398.08573208404
 31
0.0
  0
LINE
  5
B5
330
B2
100
AcDbEntity
  8
1
  6
Continuous
 62
     4
100
AcDbLine
 10
-703.9999999999995
 20
-350.0000008911848
 30
0.0
 11
-703.9999999999995
 21
-398.08573208404
 31
0.0
  0
SOLID
  5
B6
330
B2
100
AcDbEntity
  8
1
 62
     4
100
AcDbTrace
 10
-1169.0
 20
-394.1109446202291
 30
0.0
 11
-1169.0
 21
-398.0605195478509
 31
0.0
 12
-1184.0
 22
-396.08573208404
 32
0.0
 13
-1184.0
 23
-396.08573208404
 33
0.0
  0
SOLID
  5
B7
330
B2
100
AcDbEntity
  8
1
 62
     4
100
AcDbTrace
 10
-718.9999999999995
 20
-398.0605195478509
 30
0.0
 11
-718.9999999999995
 21
-394.1109446202291
 31
0.0
 12
-703.9999999999995
 22
-396.08573208404
 32
0.0
 13
-703.9999999999995
 23
-396.08573208404
 33
0.0
  0
MTEXT
  5
B8
330
B2
100
AcDbEntity
  8
1
 62
     1
100
AcDbMText
 10
-963.849701729708
 20
-392.08573208404
 30
0.0
 40
15.0
 41
0.0
 71
     7
 72
     1
  1
480
  7
CONVERTER_11
 11
0.9999999999970619
 21
2.424068405545306E-6
 31
0.0
 73
     1
 44
0.60024009603842
  0
ENDBLK
  5
BA
330
B2
100
AcDbEntity
  8
0
100
AcDbBlockEnd
  0
ENDSEC
  0
SECTION
  2
ENTITIES
  0
INSERT
  5
5D
330
1F
100
AcDbEntity
  8
0
100
AcDbBlockReference
  2
SA_Rechts3
 10
-1279.749998092636
 20
-324.9999999999204
 30
0.0
  0
INSERT
  5
5E
330
1F
100
AcDbEntity
  8
0
100
AcDbBlockReference
  2
Vordans3
 10
-943.9999999999995
 20
-324.99999999992
 30
0.0
  0
ENDSEC
  0
SECTION
  2
OBJECTS
  0
DICTIONARY
  5
C
330
0
100
AcDbDictionary
281
     1
  3
ACAD_GROUP
350
D
  3
ACAD_LAYOUT
350
1A
  3
ACAD_MATERIAL
350
3B
  3
ACAD_MLEADERSTYLE
350
BF
  3
ACAD_MLINESTYLE
350
17
  3
ACAD_PLOTSETTINGS
350
19
  3
ACAD_PLOTSTYLENAME
350
E
  3
ACAD_VISUALSTYLE
350
2A
  3
AcDbVariableDictionary
350
BD
  0
DICTIONARY
  5
D
102
{ACAD_REACTORS
330
C
102
}
330
C
100
AcDbDictionary
281
     1
  0
DICTIONARY
  5
1A
102
{ACAD_REACTORS
330
C
102
}
330
C
100
AcDbDictionary
281
     1
  3
Layout1
350
1E
  3
Layout2
350
26
  3
Model
350
22
  0
DICTIONARY
  5
3B
102
{ACAD_REACTORS
330
C
102
}
330
C
100
AcDbDictionary
281
     1
  3
ByBlock
350
3D
  3
ByLayer
350
3C
  3
Global
350
3E
  0
DICTIONARY
  5
BF
102
{ACAD_REACTORS
330
C
102
}
330
C
100
AcDbDictionary
281
     1
  0
DICTIONARY
  5
17
102
{ACAD_REACTORS
330
C
102
}
330
C
100
AcDbDictionary
281
     1
  3
Standard
350
18
  0
DICTIONARY
  5
19
102
{ACAD_REACTORS
330
C
102
}
330
C
100
AcDbDictionary
281
     1
  0
ACDBDICTIONARYWDFLT
  5
E
102
{ACAD_REACTORS
330
C
102
}
330
C
100
AcDbDictionary
281
     1
  3
Normal
350
F
100
AcDbDictionaryWithDefault
340
F
  0
DICTIONARY
  5
2A
102
{ACAD_REACTORS
330
C
102
}
330
C
100
AcDbDictionary
281
     1
  3
2dWireframe
350
2F
  3
3D Hidden
350
31
  3
3dWireframe
350
30
  3
Basic
350
32
  3
Brighten
350
36
  3
ColorChange
350
3A
  3
Conceptual
350
34
  3
Dim
350
35
  3
Facepattern
350
39
  3
Flat
350
2B
  3
FlatWithEdges
350
2C
  3
Gouraud
350
2D
  3
GouraudWithEdges
350
2E
  3
Linepattern
350
38
  3
Realistic
350
33
  3
Thicken
350
37
  0
DICTIONARY
  5
BD
102
{ACAD_REACTORS
330
C
102
}
330
C
100
AcDbDictionary
281
     1
  3
DIMASSOC
350
C0
  3
HIDETEXT
350
C1
  0
LAYOUT
  5
1E
102
{ACAD_REACTORS
330
1A
102
}
330
1A
100
AcDbPlotSettings
  1

  2
none_device
  4

  6

 40
0.0
 41
0.0
 42
0.0
 43
0.0
 44
0.0
 45
0.0
 46
0.0
 47
0.0
 48
0.0
 49
0.0
140
0.0
141
0.0
142
1.0
143
1.0
 70
   688
 72
     0
 73
     0
 74
     5
  7

 75
    16
147
1.0
148
0.0
149
0.0
100
AcDbLayout
  1
Layout1
 70
     1
 71
     1
 10
0.0
 20
0.0
 11
12.0
 21
9.0
 12
0.0
 22
0.0
 32
0.0
 14
1.00000000000000E+20
 24
1.00000000000000E+20
 34
1.00000000000000E+20
 15
-1.00000000000000E+20
 25
-1.00000000000000E+20
 35
-1.00000000000000E+20
146
0.0
 13
0.0
 23
0.0
 33
0.0
 16
1.0
 26
0.0
 36
0.0
 17
0.0
 27
1.0
 37
0.0
 76
     0
330
1B
  0
LAYOUT
  5
26
102
{ACAD_REACTORS
330
1A
102
}
330
1A
100
AcDbPlotSettings
  1

  2
none_device
  4

  6

 40
0.0
 41
0.0
 42
0.0
 43
0.0
 44
0.0
 45
0.0
 46
0.0
 47
0.0
 48
0.0
 49
0.0
140
0.0
141
0.0
142
1.0
143
1.0
 70
   688
 72
     0
 73
     0
 74
     5
  7

 75
    16
147
1.0
148
0.0
149
0.0
100
AcDbLayout
  1
Layout2
 70
     1
 71
     2
 10
0.0
 20
0.0
 11
0.0
 21
0.0
 12
0.0
 22
0.0
 32
0.0
 14
0.0
 24
0.0
 34
0.0
 15
0.0
 25
0.0
 35
0.0
146
0.0
 13
0.0
 23
0.0
 33
0.0
 16
1.0
 26
0.0
 36
0.0
 17
0.0
 27
1.0
 37
0.0
 76
     0
330
23
  0
LAYOUT
  5
22
102
{ACAD_REACTORS
330
1A
102
}
330
1A
100
AcDbPlotSettings
  1

  2
none_device
  4

  6

 40
0.0
 41
0.0
 42
0.0
 43
0.0
 44
0.0
 45
0.0
 46
0.0
 47
0.0
 48
0.0
 49
0.0
140
0.0
141
0.0
142
1.0
143
1.0
 70
  1712
 72
     0
 73
     0
 74
     0
  7

 75
     0
147
1.0
148
0.0
149
0.0
100
AcDbLayout
  1
Model
 70
     1
 71
     0
 10
0.0
 20
0.0
 11
12.0
 21
9.0
 12
0.0
 22
0.0
 32
0.0
 14
-1343.27994383989
 24
-398.08573208404
 34
0.0
 15
-703.9999999999995
 25
-300.0000008911856
 35
0.0
146
0.0
 13
0.0
 23
0.0
 33
0.0
 16
1.0
 26
0.0
 36
0.0
 17
0.0
 27
1.0
 37
0.0
 76
     0
330
1F
331
29
  0
MATERIAL
  5
3D
102
{ACAD_REACTORS
330
3B
102
}
102
{ACAD_XDICTIONARY
360
E4
102
}
330
3B
100
AcDbMaterial
  1
ByBlock
  0
MATERIAL
  5
3C
102
{ACAD_REACTORS
330
3B
102
}
102
{ACAD_XDICTIONARY
360
E2
102
}
330
3B
100
AcDbMaterial
  1
ByLayer
  0
MATERIAL
  5
3E
102
{ACAD_REACTORS
330
3B
102
}
102
{ACAD_XDICTIONARY
360
E6
102
}
330
3B
100
AcDbMaterial
  1
Global
  0
MLINESTYLE
  5
18
102
{ACAD_REACTORS
330
17
102
}
330
17
100
AcDbMlineStyle
  2
Standard
 70
     0
  3

 62
   256
 51
90.0
 52
90.0
 71
     2
 49
0.5
 62
   256
  6
BYLAYER
 49
-0.5
 62
   256
  6
BYLAYER
  0
ACDBPLACEHOLDER
  5
F
102
{ACAD_REACTORS
330
E
102
}
330
E
  0
VISUALSTYLE
  5
2F
102
{ACAD_REACTORS
330
2A
102
}
102
{ACAD_XDICTIONARY
360
CA
102
}
330
2A
100
AcDbVisualStyle
  2
2dWireframe
 70
     4
 71
     0
 72
     2
 73
     0
 90
        0
 40
-0.6
 41
-30.0
 62
     5
 63
     7
 74
     1
 91
        4
 64
     7
 65
   257
 75
     1
175
     1
 42
1.0
 92
        0
 66
   257
 43
1.0
 76
     1
 77
     6
 78
     2
 67
     7
 79
     5
170
     0
171
     0
290
     0
174
     0
 93
        1
 44
0.0
173
     0
291
     0
 45
0.0
1001
ACAD
1000
AcDbSavedByObjectVersion
1070
     0
  0
VISUALSTYLE
  5
31
102
{ACAD_REACTORS
330
2A
102
}
102
{ACAD_XDICTIONARY
360
CE
102
}
330
2A
100
AcDbVisualStyle
  2
3D Hidden
 70
     6
 71
     1
 72
     2
 73
     2
 90
        0
 40
-0.6
 41
-30.0
 62
     5
 63
     7
 74
     2
 91
        2
 64
     7
 65
   257
 75
     2
175
     1
 42
40.0
 92
        0
 66
   257
 43
1.0
 76
     1
 77
     6
 78
     2
 67
     7
 79
     3
170
     0
171
     0
290
     0
174
     0
 93
        1
 44
0.0
173
     0
291
     0
 45
0.0
1001
ACAD
1000
AcDbSavedByObjectVersion
1070
     0
  0
VISUALSTYLE
  5
30
102
{ACAD_REACTORS
330
2A
102
}
102
{ACAD_XDICTIONARY
360
CC
102
}
330
2A
100
AcDbVisualStyle
  2
3dWireframe
 70
     5
 71
     0
 72
     2
 73
     0
 90
        0
 40
-0.6
 41
-30.0
 62
     5
 63
     7
 74
     1
 91
        4
 64
     7
 65
   257
 75
     1
175
     1
 42
1.0
 92
        0
 66
   257
 43
1.0
 76
     1
 77
     6
 78
     2
 67
     7
 79
     5
170
     0
171
     0
290
     0
174
     0
 93
        1
 44
0.0
173
     0
291
     0
 45
0.0
1001
ACAD
1000
AcDbSavedByObjectVersion
1070
     0
  0
VISUALSTYLE
  5
32
102
{ACAD_REACTORS
330
2A
102
}
102
{ACAD_XDICTIONARY
360
D0
102
}
330
2A
100
AcDbVisualStyle
  2
Basic
 70
     7
 71
     1
 72
     0
 73
     1
 90
        0
 40
-0.6
 41
-30.0
 62
     5
 63
     7
 74
     0
 91
        4
 64
     7
 65
   257
 75
     1
175
     1
 42
1.0
 92
        8
 66
     7
 43
1.0
 76
     1
 77
     6
 78
     2
 67
     7
 79
     5
170
     0
171
     0
290
     0
174
     0
 93
        1
 44
0.0
173
     0
291
     1
 45
0.0
1001
ACAD
1000
AcDbSavedByObjectVersion
1070
     0
  0
VISUALSTYLE
  5
36
102
{ACAD_REACTORS
330
2A
102
}
102
{ACAD_XDICTIONARY
360
D8
102
}
330
2A
100
AcDbVisualStyle
  2
Brighten
 70
    12
 71
     2
 72
     2
 73
     0
 90
        0
 40
-0.6
 41
-30.0
 62
     5
 63
     7
 74
     1
 91
        4
 64
     7
 65
   257
 75
     1
175
     1
 42
1.0
 92
        8
 66
     7
 43
1.0
 76
     1
 77
     6
 78
     2
 67
     7
 79
     5
170
     0
171
     0
290
     0
174
     0
 93
        1
 44
50.0
173
     0
291
     1
 45
0.0
1001
ACAD
1000
AcDbSavedByObjectVersion
1070
     0
  0
VISUALSTYLE
  5
3A
102
{ACAD_REACTORS
330
2A
102
}
102
{ACAD_XDICTIONARY
360
E0
102
}
330
2A
100
AcDbVisualStyle
  2
ColorChange
 70
    16
 71
     2
 72
     2
 73
     3
 90
        0
 40
-0.6
 41
-30.0
 62
     5
 63
     8
 74
     1
 91
        4
 64
     7
 65
   257
 75
     1
175
     1
 42
1.0
 92
        8
 66
     8
 43
1.0
 76
     1
 77
     6
 78
     2
 67
     7
 79
     5
170
     0
171
     0
290
     0
174
     0
 93
        1
 44
0.0
173
     0
291
     1
 45
0.0
1001
ACAD
1000
AcDbSavedByObjectVersion
1070
     0
  0
VISUALSTYLE
  5
34
102
{ACAD_REACTORS
330
2A
102
}
102
{ACAD_XDICTIONARY
360
D4
102
}
330
2A
100
AcDbVisualStyle
  2
Conceptual
 70
     9
 71
     3
 72
     2
 73
     0
 90
        0
 40
-0.6
 41
-30.0
 62
     5
 63
     7
 74
     2
 91
        2
 64
     7
 65
   257
 75
     1
175
     1
 42
40.0
 92
        8
 66
     7
 43
1.0
 76
     1
 77
     6
 78
     2
 67
     7
 79
     3
170
     0
171
     0
290
     0
174
     0
 93
        1
 44
0.0
173
     0
291
     0
 45
0.0
1001
ACAD
1000
AcDbSavedByObjectVersion
1070
     0
  0
VISUALSTYLE
  5
35
102
{ACAD_REACTORS
330
2A
102
}
102
{ACAD_XDICTIONARY
360
D6
102
}
330
2A
100
AcDbVisualStyle
  2
Dim
 70
    11
 71
     2
 72
     2
 73
     0
 90
        0
 40
-0.6
 41
-30.0
 62
     5
 63
     7
 74
     1
 91
        4
 64
     7
 65
   257
 75
     1
175
     1
 42
1.0
 92
        8
 66
     7
 43
1.0
 76
     1
 77
     6
 78
     2
 67
     7
 79
     5
170
     0
171
     0
290
     0
174
     0
 93
        1
 44
-50.0
173
     0
291
     1
 45
0.0
1001
ACAD
1000
AcDbSavedByObjectVersion
1070
     0
  0
VISUALSTYLE
  5
39
102
{ACAD_REACTORS
330
2A
102
}
102
{ACAD_XDICTIONARY
360
DE
102
}
330
2A
100
AcDbVisualStyle
  2
Facepattern
 70
    15
 71
     2
 72
     2
 73
     0
 90
        0
 40
-0.6
 41
-30.0
 62
     5
 63
     7
 74
     1
 91
        4
 64
     7
 65
   257
 75
     1
175
     1
 42
1.0
 92
        8
 66
     7
 43
1.0
 76
     1
 77
     6
 78
     2
 67
     7
 79
     5
170
     0
171
     0
290
     0
174
     0
 93
        1
 44
0.0
173
     0
291
     1
 45
0.0
1001
ACAD
1000
AcDbSavedByObjectVersion
1070
     0
  0
VISUALSTYLE
  5
2B
102
{ACAD_REACTORS
330
2A
102
}
102
{ACAD_XDICTIONARY
360
C2
102
}
330
2A
100
AcDbVisualStyle
  2
Flat
 70
     0
 71
     2
 72
     1
 73
     1
 90
        2
 40
-0.6
 41
30.0
 62
     5
 63
     7
 74
     0
 91
        4
 64
     7
 65
   257
 75
     1
175
     1
 42
1.0
 92
        8
 66
     7
 43
1.0
 76
     1
 77
     6
 78
     2
 67
     7
 79
     5
170
     0
171
     0
290
     0
174
     0
 93
       13
 44
0.0
173
     0
291
     1
 45
0.0
1001
ACAD
1000
AcDbSavedByObjectVersion
1070
     0
  0
VISUALSTYLE
  5
2C
102
{ACAD_REACTORS
330
2A
102
}
102
{ACAD_XDICTIONARY
360
C4
102
}
330
2A
100
AcDbVisualStyle
  2
FlatWithEdges
 70
     1
 71
     2
 72
     1
 73
     1
 90
        2
 40
-0.6
 41
30.0
 62
     5
 63
     7
 74
     1
 91
        4
 64
     7
 65
   257
 75
     1
175
     1
 42
1.0
 92
        0
 66
   257
 43
1.0
 76
     1
 77
     6
 78
     2
 67
     7
 79
     5
170
     0
171
     0
290
     0
174
     0
 93
       13
 44
0.0
173
     0
291
     1
 45
0.0
1001
ACAD
1000
AcDbSavedByObjectVersion
1070
     0
  0
VISUALSTYLE
  5
2D
102
{ACAD_REACTORS
330
2A
102
}
102
{ACAD_XDICTIONARY
360
C6
102
}
330
2A
100
AcDbVisualStyle
  2
Gouraud
 70
     2
 71
     2
 72
     2
 73
     1
 90
        2
 40
-0.6
 41
30.0
 62
     5
 63
     7
 74
     0
 91
        4
 64
     7
 65
   257
 75
     1
175
     1
 42
1.0
 92
        0
 66
     7
 43
1.0
 76
     1
 77
     6
 78
     2
 67
     7
 79
     5
170
     0
171
     0
290
     0
174
     0
 93
       13
 44
0.0
173
     0
291
     1
 45
0.0
1001
ACAD
1000
AcDbSavedByObjectVersion
1070
     0
  0
VISUALSTYLE
  5
2E
102
{ACAD_REACTORS
330
2A
102
}
102
{ACAD_XDICTIONARY
360
C8
102
}
330
2A
100
AcDbVisualStyle
  2
GouraudWithEdges
 70
     3
 71
     2
 72
     2
 73
     1
 90
        2
 40
-0.6
 41
30.0
 62
     5
 63
     7
 74
     1
 91
        4
 64
     7
 65
   257
 75
     1
175
     1
 42
1.0
 92
        0
 66
   257
 43
1.0
 76
     1
 77
     6
 78
     2
 67
     7
 79
     5
170
     0
171
     0
290
     0
174
     0
 93
       13
 44
0.0
173
     0
291
     1
 45
0.0
1001
ACAD
1000
AcDbSavedByObjectVersion
1070
     0
  0
VISUALSTYLE
  5
38
102
{ACAD_REACTORS
330
2A
102
}
102
{ACAD_XDICTIONARY
360
DC
102
}
330
2A
100
AcDbVisualStyle
  2
Linepattern
 70
    14
 71
     2
 72
     2
 73
     0
 90
        0
 40
-0.6
 41
-30.0
 62
     5
 63
     7
 74
     1
 91
        4
 64
     7
 65
   257
 75
     7
175
     7
 42
1.0
 92
        8
 66
     7
 43
1.0
 76
     1
 77
     6
 78
     2
 67
     7
 79
     5
170
     0
171
     0
290
     0
174
     0
 93
        1
 44
0.0
173
     0
291
     1
 45
0.0
1001
ACAD
1000
AcDbSavedByObjectVersion
1070
     0
  0
VISUALSTYLE
  5
33
102
{ACAD_REACTORS
330
2A
102
}
102
{ACAD_XDICTIONARY
360
D2
102
}
330
2A
100
AcDbVisualStyle
  2
Realistic
 70
     8
 71
     2
 72
     2
 73
     0
 90
        0
 40
-0.6
 41
-30.0
 62
     5
 63
     7
 74
     1
 91
        0
 64
     7
 65
   257
 75
     1
175
     1
 42
1.0
 92
        8
 66
     8
 43
1.0
 76
     1
 77
     6
 78
     2
 67
     7
 79
     5
170
     0
171
     0
290
     0
174
     0
 93
       13
 44
0.0
173
     0
291
     0
 45
0.0
1001
ACAD
1000
AcDbSavedByObjectVersion
1070
     0
  0
VISUALSTYLE
  5
37
102
{ACAD_REACTORS
330
2A
102
}
102
{ACAD_XDICTIONARY
360
DA
102
}
330
2A
100
AcDbVisualStyle
  2
Thicken
 70
    13
 71
     2
 72
     2
 73
     0
 90
        0
 40
-0.6
 41
-30.0
 62
     5
 63
     7
 74
     1
 91
        4
 64
     7
 65
   257
 75
     1
175
     1
 42
1.0
 92
       12
 66
     7
 43
1.0
 76
     1
 77
     6
 78
     2
 67
     7
 79
     5
170
     0
171
     0
290
     0
174
     0
 93
        1
 44
0.0
173
     0
291
     1
 45
0.0
1001
ACAD
1000
AcDbSavedByObjectVersion
1070
     0
  0
DICTIONARYVAR
  5
C0
102
{ACAD_REACTORS
330
BD
102
}
330
BD
100
DictionaryVariables
280
     0
  1
2
  0
DICTIONARYVAR
  5
C1
102
{ACAD_REACTORS
330
BD
102
}
330
BD
100
DictionaryVariables
280
     0
  1
1
  0
DICTIONARY
  5
E4
330
3D
100
AcDbDictionary
280
     1
281
     1
  3
ACAD_XREC_ROUNDTRIP
360
E5
  0
DICTIONARY
  5
E2
330
3C
100
AcDbDictionary
280
     1
281
     1
  3
ACAD_XREC_ROUNDTRIP
360
E3
  0
DICTIONARY
  5
E6
330
3E
100
AcDbDictionary
280
     1
281
     1
  3
ACAD_XREC_ROUNDTRIP
360
E7
  0
DICTIONARY
  5
CA
330
2F
100
AcDbDictionary
280
     1
281
     1
  3
ACAD_XREC_ROUNDTRIP
360
CB
  0
DICTIONARY
  5
CE
330
31
100
AcDbDictionary
280
     1
281
     1
  3
ACAD_XREC_ROUNDTRIP
360
CF
  0
DICTIONARY
  5
CC
330
30
100
AcDbDictionary
280
     1
281
     1
  3
ACAD_XREC_ROUNDTRIP
360
CD
  0
DICTIONARY
  5
D0
330
32
100
AcDbDictionary
280
     1
281
     1
  3
ACAD_XREC_ROUNDTRIP
360
D1
  0
DICTIONARY
  5
D8
330
36
100
AcDbDictionary
280
     1
281
     1
  3
ACAD_XREC_ROUNDTRIP
360
D9
  0
DICTIONARY
  5
E0
330
3A
100
AcDbDictionary
280
     1
281
     1
  3
ACAD_XREC_ROUNDTRIP
360
E1
  0
DICTIONARY
  5
D4
330
34
100
AcDbDictionary
280
     1
281
     1
  3
ACAD_XREC_ROUNDTRIP
360
D5
  0
DICTIONARY
  5
D6
330
35
100
AcDbDictionary
280
     1
281
     1
  3
ACAD_XREC_ROUNDTRIP
360
D7
  0
DICTIONARY
  5
DE
330
39
100
AcDbDictionary
280
     1
281
     1
  3
ACAD_XREC_ROUNDTRIP
360
DF
  0
DICTIONARY
  5
C2
330
2B
100
AcDbDictionary
280
     1
281
     1
  3
ACAD_XREC_ROUNDTRIP
360
C3
  0
DICTIONARY
  5
C4
330
2C
100
AcDbDictionary
280
     1
281
     1
  3
ACAD_XREC_ROUNDTRIP
360
C5
  0
DICTIONARY
  5
C6
330
2D
100
AcDbDictionary
280
     1
281
     1
  3
ACAD_XREC_ROUNDTRIP
360
C7
  0
DICTIONARY
  5
C8
330
2E
100
AcDbDictionary
280
     1
281
     1
  3
ACAD_XREC_ROUNDTRIP
360
C9
  0
DICTIONARY
  5
DC
330
38
100
AcDbDictionary
280
     1
281
     1
  3
ACAD_XREC_ROUNDTRIP
360
DD
  0
DICTIONARY
  5
D2
330
33
100
AcDbDictionary
280
     1
281
     1
  3
ACAD_XREC_ROUNDTRIP
360
D3
  0
DICTIONARY
  5
DA
330
37
100
AcDbDictionary
280
     1
281
     1
  3
ACAD_XREC_ROUNDTRIP
360
DB
  0
XRECORD
  5
E5
102
{ACAD_REACTORS
330
E4
102
}
330
E4
100
AcDbXrecord
280
     1
102
MATERIAL
148
0.0
149
0.0
149
0.0
 93
        0
 94
      127
282
     0
 72
     1
 77
     1
171
     1
175
     1
179
     1
273
     0
  0
XRECORD
  5
E3
102
{ACAD_REACTORS
330
E2
102
}
330
E2
100
AcDbXrecord
280
     1
102
MATERIAL
148
0.0
149
0.0
149
0.0
 93
        0
 94
      127
282
     0
 72
     1
 77
     1
171
     1
175
     1
179
     1
273
     0
  0
XRECORD
  5
E7
102
{ACAD_REACTORS
330
E6
102
}
330
E6
100
AcDbXrecord
280
     1
102
MATERIAL
148
0.0
149
0.0
149
0.0
 93
        0
 94
      127
282
     0
 72
     1
 77
     1
171
     1
175
     1
179
     1
273
     0
  0
XRECORD
  5
CB
102
{ACAD_REACTORS
330
CA
102
}
330
CA
100
AcDbXrecord
280
     1
102
RTVSPropertyOp0
 70
     1
102
RTVSPropertyOp1
 70
     1
102
RTVSPropertyOp2
 70
     1
102
RTVSPropertyOp3
 70
     1
102
RTVSPropertyOp4
 70
     1
102
RTVSPropertyOp5
 70
     1
102
RTVSPropertyOp6
 70
     1
102
RTVSPropertyOp7
 70
     1
102
RTVSPropertyOp8
 70
     1
102
RTVSPropertyOp9
 70
     1
102
RTVSPropertyOp10
 70
     1
102
RTVSPropertyOp11
 70
     1
102
RTVSPropertyOp12
 70
     1
102
RTVSPropertyOp13
 70
     1
102
RTVSPropertyOp14
 70
     1
102
RTVSPropertyOp15
 70
     1
102
RTVSPropertyOp16
 70
     1
102
RTVSPropertyOp17
 70
     1
102
RTVSPropertyOp18
 70
     1
102
RTVSPropertyOp19
 70
     1
102
RTVSPropertyOp20
 70
     1
102
RTVSPropertyOp21
 70
     1
102
RTVSPropertyOp22
 70
     1
102
RTVSPropertyOp23
 70
     1
102
RTVSPropertyOp24
 70
     1
102
RTVSPropertyOp25
 70
     1
102
RTVSPropertyOp26
 70
     1
102
RTVSPropertyOp27
 70
     1
102
RTVSPropertyOp28
 70
     1
102
RTVSPropertyOp29
 70
     1
102
RTVSPropertyOp30
 70
     1
102
RTVSPropertyOp31
 70
     1
102
RTVSPropertyOp32
 70
     1
  0
XRECORD
  5
CF
102
{ACAD_REACTORS
330
CE
102
}
330
CE
100
AcDbXrecord
280
     1
102
RTVSPropertyOp0
 70
     1
102
RTVSPropertyOp1
 70
     1
102
RTVSPropertyOp2
 70
     1
102
RTVSPropertyOp3
 70
     1
102
RTVSPropertyOp4
 70
     1
102
RTVSPropertyOp5
 70
     1
102
RTVSPropertyOp6
 70
     1
102
RTVSPropertyOp7
 70
     1
102
RTVSPropertyOp8
 70
     1
102
RTVSPropertyOp9
 70
     1
102
RTVSPropertyOp10
 70
     1
102
RTVSPropertyOp11
 70
     1
102
RTVSPropertyOp12
 70
     1
102
RTVSPropertyOp13
 70
     1
102
RTVSPropertyOp14
 70
     1
102
RTVSPropertyOp15
 70
     1
102
RTVSPropertyOp16
 70
     1
102
RTVSPropertyOp17
 70
     1
102
RTVSPropertyOp18
 70
     1
102
RTVSPropertyOp19
 70
     1
102
RTVSPropertyOp20
 70
     1
102
RTVSPropertyOp21
 70
     1
102
RTVSPropertyOp22
 70
     1
102
RTVSPropertyOp23
 70
     1
102
RTVSPropertyOp24
 70
     1
102
RTVSPropertyOp25
 70
     1
102
RTVSPropertyOp26
 70
     1
102
RTVSPropertyOp27
 70
     1
102
RTVSPropertyOp28
 70
     1
102
RTVSPropertyOp29
 70
     1
102
RTVSPropertyOp30
 70
     1
102
RTVSPropertyOp31
 70
     1
102
RTVSPropertyOp32
 70
     1
  0
XRECORD
  5
CD
102
{ACAD_REACTORS
330
CC
102
}
330
CC
100
AcDbXrecord
280
     1
102
RTVSPropertyOp0
 70
     1
102
RTVSPropertyOp1
 70
     1
102
RTVSPropertyOp2
 70
     1
102
RTVSPropertyOp3
 70
     1
102
RTVSPropertyOp4
 70
     1
102
RTVSPropertyOp5
 70
     1
102
RTVSPropertyOp6
 70
     1
102
RTVSPropertyOp7
 70
     1
102
RTVSPropertyOp8
 70
     1
102
RTVSPropertyOp9
 70
     1
102
RTVSPropertyOp10
 70
     1
102
RTVSPropertyOp11
 70
     1
102
RTVSPropertyOp12
 70
     1
102
RTVSPropertyOp13
 70
     1
102
RTVSPropertyOp14
 70
     1
102
RTVSPropertyOp15
 70
     1
102
RTVSPropertyOp16
 70
     1
102
RTVSPropertyOp17
 70
     1
102
RTVSPropertyOp18
 70
     1
102
RTVSPropertyOp19
 70
     1
102
RTVSPropertyOp20
 70
     1
102
RTVSPropertyOp21
 70
     1
102
RTVSPropertyOp22
 70
     1
102
RTVSPropertyOp23
 70
     1
102
RTVSPropertyOp24
 70
     1
102
RTVSPropertyOp25
 70
     1
102
RTVSPropertyOp26
 70
     1
102
RTVSPropertyOp27
 70
     1
102
RTVSPropertyOp28
 70
     1
102
RTVSPropertyOp29
 70
     1
102
RTVSPropertyOp30
 70
     1
102
RTVSPropertyOp31
 70
     1
102
RTVSPropertyOp32
 70
     1
  0
XRECORD
  5
D1
102
{ACAD_REACTORS
330
D0
102
}
330
D0
100
AcDbXrecord
280
     1
102
RTVSPropertyOp0
 70
     1
102
RTVSPropertyOp1
 70
     1
102
RTVSPropertyOp2
 70
     1
102
RTVSPropertyOp3
 70
     1
102
RTVSPropertyOp4
 70
     1
102
RTVSPropertyOp5
 70
     1
102
RTVSPropertyOp6
 70
     1
102
RTVSPropertyOp7
 70
     1
102
RTVSPropertyOp8
 70
     1
102
RTVSPropertyOp9
 70
     1
102
RTVSPropertyOp10
 70
     1
102
RTVSPropertyOp11
 70
     1
102
RTVSPropertyOp12
 70
     1
102
RTVSPropertyOp13
 70
     1
102
RTVSPropertyOp14
 70
     1
102
RTVSPropertyOp15
 70
     1
102
RTVSPropertyOp16
 70
     1
102
RTVSPropertyOp17
 70
     1
102
RTVSPropertyOp18
 70
     1
102
RTVSPropertyOp19
 70
     1
102
RTVSPropertyOp20
 70
     1
102
RTVSPropertyOp21
 70
     1
102
RTVSPropertyOp22
 70
     1
102
RTVSPropertyOp23
 70
     1
102
RTVSPropertyOp24
 70
     1
102
RTVSPropertyOp25
 70
     1
102
RTVSPropertyOp26
 70
     1
102
RTVSPropertyOp27
 70
     1
102
RTVSPropertyOp28
 70
     1
102
RTVSPropertyOp29
 70
     1
102
RTVSPropertyOp30
 70
     1
102
RTVSPropertyOp31
 70
     1
102
RTVSPropertyOp32
 70
     1
  0
XRECORD
  5
D9
102
{ACAD_REACTORS
330
D8
102
}
330
D8
100
AcDbXrecord
280
     1
102
RTVSPropertyOp0
 70
     1
102
RTVSPropertyOp1
 70
     1
102
RTVSPropertyOp2
 70
     1
102
RTVSPropertyOp3
 70
     1
102
RTVSPropertyOp4
 70
     1
102
RTVSPropertyOp5
 70
     1
102
RTVSPropertyOp6
 70
     1
102
RTVSPropertyOp7
 70
     1
102
RTVSPropertyOp8
 70
     1
102
RTVSPropertyOp9
 70
     1
102
RTVSPropertyOp10
 70
     1
102
RTVSPropertyOp11
 70
     1
102
RTVSPropertyOp12
 70
     1
102
RTVSPropertyOp13
 70
     1
102
RTVSPropertyOp14
 70
     1
102
RTVSPropertyOp15
 70
     1
102
RTVSPropertyOp16
 70
     1
102
RTVSPropertyOp17
 70
     1
102
RTVSPropertyOp18
 70
     1
102
RTVSPropertyOp19
 70
     1
102
RTVSPropertyOp20
 70
     1
102
RTVSPropertyOp21
 70
     1
102
RTVSPropertyOp22
 70
     1
102
RTVSPropertyOp23
 70
     1
102
RTVSPropertyOp24
 70
     1
102
RTVSPropertyOp25
 70
     1
102
RTVSPropertyOp26
 70
     1
102
RTVSPropertyOp27
 70
     1
102
RTVSPropertyOp28
 70
     1
102
RTVSPropertyOp29
 70
     1
102
RTVSPropertyOp30
 70
     1
102
RTVSPropertyOp31
 70
     1
102
RTVSPropertyOp32
 70
     1
  0
XRECORD
  5
E1
102
{ACAD_REACTORS
330
E0
102
}
330
E0
100
AcDbXrecord
280
     1
102
RTVSPropertyOp0
 70
     1
102
RTVSPropertyOp1
 70
     1
102
RTVSPropertyOp2
 70
     1
102
RTVSPropertyOp3
 70
     1
102
RTVSPropertyOp4
 70
     1
102
RTVSPropertyOp5
 70
     1
102
RTVSPropertyOp6
 70
     1
102
RTVSPropertyOp7
 70
     1
102
RTVSPropertyOp8
 70
     1
102
RTVSPropertyOp9
 70
     1
102
RTVSPropertyOp10
 70
     1
102
RTVSPropertyOp11
 70
     1
102
RTVSPropertyOp12
 70
     1
102
RTVSPropertyOp13
 70
     1
102
RTVSPropertyOp14
 70
     1
102
RTVSPropertyOp15
 70
     1
102
RTVSPropertyOp16
 70
     1
102
RTVSPropertyOp17
 70
     1
102
RTVSPropertyOp18
 70
     1
102
RTVSPropertyOp19
 70
     1
102
RTVSPropertyOp20
 70
     1
102
RTVSPropertyOp21
 70
     1
102
RTVSPropertyOp22
 70
     1
102
RTVSPropertyOp23
 70
     1
102
RTVSPropertyOp24
 70
     1
102
RTVSPropertyOp25
 70
     1
102
RTVSPropertyOp26
 70
     1
102
RTVSPropertyOp27
 70
     1
102
RTVSPropertyOp28
 70
     1
102
RTVSPropertyOp29
 70
     1
102
RTVSPropertyOp30
 70
     1
102
RTVSPropertyOp31
 70
     1
102
RTVSPropertyOp32
 70
     1
  0
XRECORD
  5
D5
102
{ACAD_REACTORS
330
D4
102
}
330
D4
100
AcDbXrecord
280
     1
102
RTVSPropertyOp0
 70
     1
102
RTVSPropertyOp1
 70
     1
102
RTVSPropertyOp2
 70
     1
102
RTVSPropertyOp3
 70
     1
102
RTVSPropertyOp4
 70
     1
102
RTVSPropertyOp5
 70
     1
102
RTVSPropertyOp6
 70
     1
102
RTVSPropertyOp7
 70
     1
102
RTVSPropertyOp8
 70
     1
102
RTVSPropertyOp9
 70
     1
102
RTVSPropertyOp10
 70
     1
102
RTVSPropertyOp11
 70
     1
102
RTVSPropertyOp12
 70
     1
102
RTVSPropertyOp13
 70
     1
102
RTVSPropertyOp14
 70
     1
102
RTVSPropertyOp15
 70
     1
102
RTVSPropertyOp16
 70
     1
102
RTVSPropertyOp17
 70
     1
102
RTVSPropertyOp18
 70
     1
102
RTVSPropertyOp19
 70
     1
102
RTVSPropertyOp20
 70
     1
102
RTVSPropertyOp21
 70
     1
102
RTVSPropertyOp22
 70
     1
102
RTVSPropertyOp23
 70
     1
102
RTVSPropertyOp24
 70
     1
102
RTVSPropertyOp25
 70
     1
102
RTVSPropertyOp26
 70
     1
102
RTVSPropertyOp27
 70
     1
102
RTVSPropertyOp28
 70
     1
102
RTVSPropertyOp29
 70
     1
102
RTVSPropertyOp30
 70
     1
102
RTVSPropertyOp31
 70
     1
102
RTVSPropertyOp32
 70
     1
  0
XRECORD
  5
D7
102
{ACAD_REACTORS
330
D6
102
}
330
D6
100
AcDbXrecord
280
     1
102
RTVSPropertyOp0
 70
     1
102
RTVSPropertyOp1
 70
     1
102
RTVSPropertyOp2
 70
     1
102
RTVSPropertyOp3
 70
     1
102
RTVSPropertyOp4
 70
     1
102
RTVSPropertyOp5
 70
     1
102
RTVSPropertyOp6
 70
     1
102
RTVSPropertyOp7
 70
     1
102
RTVSPropertyOp8
 70
     1
102
RTVSPropertyOp9
 70
     1
102
RTVSPropertyOp10
 70
     1
102
RTVSPropertyOp11
 70
     1
102
RTVSPropertyOp12
 70
     1
102
RTVSPropertyOp13
 70
     1
102
RTVSPropertyOp14
 70
     1
102
RTVSPropertyOp15
 70
     1
102
RTVSPropertyOp16
 70
     1
102
RTVSPropertyOp17
 70
     1
102
RTVSPropertyOp18
 70
     1
102
RTVSPropertyOp19
 70
     1
102
RTVSPropertyOp20
 70
     1
102
RTVSPropertyOp21
 70
     1
102
RTVSPropertyOp22
 70
     1
102
RTVSPropertyOp23
 70
     1
102
RTVSPropertyOp24
 70
     1
102
RTVSPropertyOp25
 70
     1
102
RTVSPropertyOp26
 70
     1
102
RTVSPropertyOp27
 70
     1
102
RTVSPropertyOp28
 70
     1
102
RTVSPropertyOp29
 70
     1
102
RTVSPropertyOp30
 70
     1
102
RTVSPropertyOp31
 70
     1
102
RTVSPropertyOp32
 70
     1
  0
XRECORD
  5
DF
102
{ACAD_REACTORS
330
DE
102
}
330
DE
100
AcDbXrecord
280
     1
102
RTVSPropertyOp0
 70
     1
102
RTVSPropertyOp1
 70
     1
102
RTVSPropertyOp2
 70
     1
102
RTVSPropertyOp3
 70
     1
102
RTVSPropertyOp4
 70
     1
102
RTVSPropertyOp5
 70
     1
102
RTVSPropertyOp6
 70
     1
102
RTVSPropertyOp7
 70
     1
102
RTVSPropertyOp8
 70
     1
102
RTVSPropertyOp9
 70
     1
102
RTVSPropertyOp10
 70
     1
102
RTVSPropertyOp11
 70
     1
102
RTVSPropertyOp12
 70
     1
102
RTVSPropertyOp13
 70
     1
102
RTVSPropertyOp14
 70
     1
102
RTVSPropertyOp15
 70
     1
102
RTVSPropertyOp16
 70
     1
102
RTVSPropertyOp17
 70
     1
102
RTVSPropertyOp18
 70
     1
102
RTVSPropertyOp19
 70
     1
102
RTVSPropertyOp20
 70
     1
102
RTVSPropertyOp21
 70
     1
102
RTVSPropertyOp22
 70
     1
102
RTVSPropertyOp23
 70
     1
102
RTVSPropertyOp24
 70
     1
102
RTVSPropertyOp25
 70
     1
102
RTVSPropertyOp26
 70
     1
102
RTVSPropertyOp27
 70
     1
102
RTVSPropertyOp28
 70
     1
102
RTVSPropertyOp29
 70
     1
102
RTVSPropertyOp30
 70
     1
102
RTVSPropertyOp31
 70
     1
102
RTVSPropertyOp32
 70
     1
  0
XRECORD
  5
C3
102
{ACAD_REACTORS
330
C2
102
}
330
C2
100
AcDbXrecord
280
     1
102
RTVSPropertyOp0
 70
     1
102
RTVSPropertyOp1
 70
     1
102
RTVSPropertyOp2
 70
     1
102
RTVSPropertyOp3
 70
     1
102
RTVSPropertyOp4
 70
     1
102
RTVSPropertyOp5
 70
     1
102
RTVSPropertyOp6
 70
     1
102
RTVSPropertyOp7
 70
     1
102
RTVSPropertyOp8
 70
     1
102
RTVSPropertyOp9
 70
     1
102
RTVSPropertyOp10
 70
     1
102
RTVSPropertyOp11
 70
     1
102
RTVSPropertyOp12
 70
     1
102
RTVSPropertyOp13
 70
     1
102
RTVSPropertyOp14
 70
     1
102
RTVSPropertyOp15
 70
     1
102
RTVSPropertyOp16
 70
     1
102
RTVSPropertyOp17
 70
     1
102
RTVSPropertyOp18
 70
     1
102
RTVSPropertyOp19
 70
     1
102
RTVSPropertyOp20
 70
     1
102
RTVSPropertyOp21
 70
     1
102
RTVSPropertyOp22
 70
     1
102
RTVSPropertyOp23
 70
     1
102
RTVSPropertyOp24
 70
     1
102
RTVSPropertyOp25
 70
     1
102
RTVSPropertyOp26
 70
     1
102
RTVSPropertyOp27
 70
     1
102
RTVSPropertyOp28
 70
     1
102
RTVSPropertyOp29
 70
     1
102
RTVSPropertyOp30
 70
     1
102
RTVSPropertyOp31
 70
     1
102
RTVSPropertyOp32
 70
     1
  0
XRECORD
  5
C5
102
{ACAD_REACTORS
330
C4
102
}
330
C4
100
AcDbXrecord
280
     1
102
RTVSPropertyOp0
 70
     1
102
RTVSPropertyOp1
 70
     1
102
RTVSPropertyOp2
 70
     1
102
RTVSPropertyOp3
 70
     1
102
RTVSPropertyOp4
 70
     1
102
RTVSPropertyOp5
 70
     1
102
RTVSPropertyOp6
 70
     1
102
RTVSPropertyOp7
 70
     1
102
RTVSPropertyOp8
 70
     1
102
RTVSPropertyOp9
 70
     1
102
RTVSPropertyOp10
 70
     1
102
RTVSPropertyOp11
 70
     1
102
RTVSPropertyOp12
 70
     1
102
RTVSPropertyOp13
 70
     1
102
RTVSPropertyOp14
 70
     1
102
RTVSPropertyOp15
 70
     1
102
RTVSPropertyOp16
 70
     1
102
RTVSPropertyOp17
 70
     1
102
RTVSPropertyOp18
 70
     1
102
RTVSPropertyOp19
 70
     1
102
RTVSPropertyOp20
 70
     1
102
RTVSPropertyOp21
 70
     1
102
RTVSPropertyOp22
 70
     1
102
RTVSPropertyOp23
 70
     1
102
RTVSPropertyOp24
 70
     1
102
RTVSPropertyOp25
 70
     1
102
RTVSPropertyOp26
 70
     1
102
RTVSPropertyOp27
 70
     1
102
RTVSPropertyOp28
 70
     1
102
RTVSPropertyOp29
 70
     1
102
RTVSPropertyOp30
 70
     1
102
RTVSPropertyOp31
 70
     1
102
RTVSPropertyOp32
 70
     1
  0
XRECORD
  5
C7
102
{ACAD_REACTORS
330
C6
102
}
330
C6
100
AcDbXrecord
280
     1
102
RTVSPropertyOp0
 70
     1
102
RTVSPropertyOp1
 70
     1
102
RTVSPropertyOp2
 70
     1
102
RTVSPropertyOp3
 70
     1
102
RTVSPropertyOp4
 70
     1
102
RTVSPropertyOp5
 70
     1
102
RTVSPropertyOp6
 70
     1
102
RTVSPropertyOp7
 70
     1
102
RTVSPropertyOp8
 70
     1
102
RTVSPropertyOp9
 70
     1
102
RTVSPropertyOp10
 70
     1
102
RTVSPropertyOp11
 70
     1
102
RTVSPropertyOp12
 70
     1
102
RTVSPropertyOp13
 70
     1
102
RTVSPropertyOp14
 70
     1
102
RTVSPropertyOp15
 70
     1
102
RTVSPropertyOp16
 70
     1
102
RTVSPropertyOp17
 70
     1
102
RTVSPropertyOp18
 70
     1
102
RTVSPropertyOp19
 70
     1
102
RTVSPropertyOp20
 70
     1
102
RTVSPropertyOp21
 70
     1
102
RTVSPropertyOp22
 70
     1
102
RTVSPropertyOp23
 70
     1
102
RTVSPropertyOp24
 70
     1
102
RTVSPropertyOp25
 70
     1
102
RTVSPropertyOp26
 70
     1
102
RTVSPropertyOp27
 70
     1
102
RTVSPropertyOp28
 70
     1
102
RTVSPropertyOp29
 70
     1
102
RTVSPropertyOp30
 70
     1
102
RTVSPropertyOp31
 70
     1
102
RTVSPropertyOp32
 70
     1
  0
XRECORD
  5
C9
102
{ACAD_REACTORS
330
C8
102
}
330
C8
100
AcDbXrecord
280
     1
102
RTVSPropertyOp0
 70
     1
102
RTVSPropertyOp1
 70
     1
102
RTVSPropertyOp2
 70
     1
102
RTVSPropertyOp3
 70
     1
102
RTVSPropertyOp4
 70
     1
102
RTVSPropertyOp5
 70
     1
102
RTVSPropertyOp6
 70
     1
102
RTVSPropertyOp7
 70
     1
102
RTVSPropertyOp8
 70
     1
102
RTVSPropertyOp9
 70
     1
102
RTVSPropertyOp10
 70
     1
102
RTVSPropertyOp11
 70
     1
102
RTVSPropertyOp12
 70
     1
102
RTVSPropertyOp13
 70
     1
102
RTVSPropertyOp14
 70
     1
102
RTVSPropertyOp15
 70
     1
102
RTVSPropertyOp16
 70
     1
102
RTVSPropertyOp17
 70
     1
102
RTVSPropertyOp18
 70
     1
102
RTVSPropertyOp19
 70
     1
102
RTVSPropertyOp20
 70
     1
102
RTVSPropertyOp21
 70
     1
102
RTVSPropertyOp22
 70
     1
102
RTVSPropertyOp23
 70
     1
102
RTVSPropertyOp24
 70
     1
102
RTVSPropertyOp25
 70
     1
102
RTVSPropertyOp26
 70
     1
102
RTVSPropertyOp27
 70
     1
102
RTVSPropertyOp28
 70
     1
102
RTVSPropertyOp29
 70
     1
102
RTVSPropertyOp30
 70
     1
102
RTVSPropertyOp31
 70
     1
102
RTVSPropertyOp32
 70
     1
  0
XRECORD
  5
DD
102
{ACAD_REACTORS
330
DC
102
}
330
DC
100
AcDbXrecord
280
     1
102
RTVSPropertyOp0
 70
     1
102
RTVSPropertyOp1
 70
     1
102
RTVSPropertyOp2
 70
     1
102
RTVSPropertyOp3
 70
     1
102
RTVSPropertyOp4
 70
     1
102
RTVSPropertyOp5
 70
     1
102
RTVSPropertyOp6
 70
     1
102
RTVSPropertyOp7
 70
     1
102
RTVSPropertyOp8
 70
     1
102
RTVSPropertyOp9
 70
     1
102
RTVSPropertyOp10
 70
     1
102
RTVSPropertyOp11
 70
     1
102
RTVSPropertyOp12
 70
     1
102
RTVSPropertyOp13
 70
     1
102
RTVSPropertyOp14
 70
     1
102
RTVSPropertyOp15
 70
     1
102
RTVSPropertyOp16
 70
     1
102
RTVSPropertyOp17
 70
     1
102
RTVSPropertyOp18
 70
     1
102
RTVSPropertyOp19
 70
     1
102
RTVSPropertyOp20
 70
     1
102
RTVSPropertyOp21
 70
     1
102
RTVSPropertyOp22
 70
     1
102
RTVSPropertyOp23
 70
     1
102
RTVSPropertyOp24
 70
     1
102
RTVSPropertyOp25
 70
     1
102
RTVSPropertyOp26
 70
     1
102
RTVSPropertyOp27
 70
     1
102
RTVSPropertyOp28
 70
     1
102
RTVSPropertyOp29
 70
     1
102
RTVSPropertyOp30
 70
     1
102
RTVSPropertyOp31
 70
     1
102
RTVSPropertyOp32
 70
     1
  0
XRECORD
  5
D3
102
{ACAD_REACTORS
330
D2
102
}
330
D2
100
AcDbXrecord
280
     1
102
RTVSPropertyOp0
 70
     1
102
RTVSPropertyOp1
 70
     1
102
RTVSPropertyOp2
 70
     1
102
RTVSPropertyOp3
 70
     1
102
RTVSPropertyOp4
 70
     1
102
RTVSPropertyOp5
 70
     1
102
RTVSPropertyOp6
 70
     1
102
RTVSPropertyOp7
 70
     1
102
RTVSPropertyOp8
 70
     1
102
RTVSPropertyOp9
 70
     1
102
RTVSPropertyOp10
 70
     1
102
RTVSPropertyOp11
 70
     1
102
RTVSPropertyOp12
 70
     1
102
RTVSPropertyOp13
 70
     1
102
RTVSPropertyOp14
 70
     1
102
RTVSPropertyOp15
 70
     1
102
RTVSPropertyOp16
 70
     1
102
RTVSPropertyOp17
 70
     1
102
RTVSPropertyOp18
 70
     1
102
RTVSPropertyOp19
 70
     1
102
RTVSPropertyOp20
 70
     1
102
RTVSPropertyOp21
 70
     1
102
RTVSPropertyOp22
 70
     1
102
RTVSPropertyOp23
 70
     1
102
RTVSPropertyOp24
 70
     1
102
RTVSPropertyOp25
 70
     1
102
RTVSPropertyOp26
 70
     1
102
RTVSPropertyOp27
 70
     1
102
RTVSPropertyOp28
 70
     1
102
RTVSPropertyOp29
 70
     1
102
RTVSPropertyOp30
 70
     1
102
RTVSPropertyOp31
 70
     1
102
RTVSPropertyOp32
 70
     1
  0
XRECORD
  5
DB
102
{ACAD_REACTORS
330
DA
102
}
330
DA
100
AcDbXrecord
280
     1
102
RTVSPropertyOp0
 70
     1
102
RTVSPropertyOp1
 70
     1
102
RTVSPropertyOp2
 70
     1
102
RTVSPropertyOp3
 70
     1
102
RTVSPropertyOp4
 70
     1
102
RTVSPropertyOp5
 70
     1
102
RTVSPropertyOp6
 70
     1
102
RTVSPropertyOp7
 70
     1
102
RTVSPropertyOp8
 70
     1
102
RTVSPropertyOp9
 70
     1
102
RTVSPropertyOp10
 70
     1
102
RTVSPropertyOp11
 70
     1
102
RTVSPropertyOp12
 70
     1
102
RTVSPropertyOp13
 70
     1
102
RTVSPropertyOp14
 70
     1
102
RTVSPropertyOp15
 70
     1
102
RTVSPropertyOp16
 70
     1
102
RTVSPropertyOp17
 70
     1
102
RTVSPropertyOp18
 70
     1
102
RTVSPropertyOp19
 70
     1
102
RTVSPropertyOp20
 70
     1
102
RTVSPropertyOp21
 70
     1
102
RTVSPropertyOp22
 70
     1
102
RTVSPropertyOp23
 70
     1
102
RTVSPropertyOp24
 70
     1
102
RTVSPropertyOp25
 70
     1
102
RTVSPropertyOp26
 70
     1
102
RTVSPropertyOp27
 70
     1
102
RTVSPropertyOp28
 70
     1
102
RTVSPropertyOp29
 70
     1
102
RTVSPropertyOp30
 70
     1
102
RTVSPropertyOp31
 70
     1
102
RTVSPropertyOp32
 70
     1
  0
ENDSEC
  0
EOF
