  0
SECTION
  2
HEADER
  9
$ACADVER
  1
AC1014
  9
$ACADMAINTVER
 70
             0
  9
$DWGCODEPAGE
  3
ANSI_1252
  9
$INSBASE
 10
0.0
 20
0.0
 30
0.0
  9
$EXTMIN
 10
-62.49999999999988
 20
-270.52008983571039
 30
0.0
  9
$EXTMAX
 10
74.4999999999999
 20
-110.838829533213
 30
0.0
  9
$LIMMIN
 10
0.0
 20
0.0
  9
$LIMMAX
 10
0.0
 20
0.0
  9
$ORTHOMODE
 70
             0
  9
$REGENMODE
 70
             1
  9
$FILLMODE
 70
             1
  9
$QTEXTMODE
 70
             0
  9
$MIRRTEXT
 70
             1
  9
$DRAGMODE
 70
             2
  9
$LTSCALE
 40
1.0
  9
$OSMODE
 70
             0
  9
$ATTMODE
 70
             1
  9
$TEXTSIZE
 40
0.2
  9
$TRACEWID
 40
0.05
  9
$TEXTSTYLE
  7
STANDARD
  9
$CLAYER
  8
0
  9
$CELTYPE
  6
CONTINUOUS
  9
$CECOLOR
 62
           256
  9
$CELTSCALE
 40
1.0
  9
$DELOBJ
 70
             1
  9
$DISPSILH
 70
             0
  9
$DIMSCALE
 40
1.0
  9
$DIMASZ
 40
0.18
  9
$DIMEXO
 40
0.0625
  9
$DIMDLI
 40
0.38
  9
$DIMRND
 40
0.0
  9
$DIMDLE
 40
0.0
  9
$DIMEXE
 40
0.18
  9
$DIMTP
 40
0.0
  9
$DIMTM
 40
0.0
  9
$DIMTXT
 40
0.18
  9
$DIMCEN
 40
0.09
  9
$DIMTSZ
 40
0.0
  9
$DIMTOL
 70
             0
  9
$DIMLIM
 70
             0
  9
$DIMTIH
 70
             1
  9
$DIMTOH
 70
             1
  9
$DIMSE1
 70
             0
  9
$DIMSE2
 70
             0
  9
$DIMTAD
 70
             0
  9
$DIMZIN
 70
             0
  9
$DIMBLK
  1

  9
$DIMASO
 70
             1
  9
$DIMSHO
 70
             1
  9
$DIMPOST
  1

  9
$DIMAPOST
  1

  9
$DIMALT
 70
             0
  9
$DIMALTD
 70
             2
  9
$DIMALTF
 40
25.4
  9
$DIMLFAC
 40
1.0
  9
$DIMTOFL
 70
             0
  9
$DIMTVP
 40
0.0
  9
$DIMTIX
 70
             0
  9
$DIMSOXD
 70
             0
  9
$DIMSAH
 70
             0
  9
$DIMBLK1
  1

  9
$DIMBLK2
  1

  9
$DIMSTYLE
  2
STANDARD
  9
$DIMCLRD
 70
             0
  9
$DIMCLRE
 70
             0
  9
$DIMCLRT
 70
             0
  9
$DIMTFAC
 40
1.0
  9
$DIMGAP
 40
0.09
  9
$DIMJUST
 70
             0
  9
$DIMSD1
 70
             0
  9
$DIMSD2
 70
             0
  9
$DIMTOLJ
 70
             1
  9
$DIMTZIN
 70
             0
  9
$DIMALTZ
 70
             0
  9
$DIMALTTZ
 70
             0
  9
$DIMFIT
 70
             3
  9
$DIMUPT
 70
             0
  9
$DIMUNIT
 70
             2
  9
$DIMDEC
 70
             4
  9
$DIMTDEC
 70
             4
  9
$DIMALTU
 70
             2
  9
$DIMALTTD
 70
             2
  9
$DIMTXSTY
  7
STANDARD
  9
$DIMAUNIT
 70
             0
  9
$LUNITS
 70
             2
  9
$LUPREC
 70
             4
  9
$SKETCHINC
 40
0.1
  9
$FILLETRAD
 40
0.0
  9
$AUNITS
 70
             0
  9
$AUPREC
 70
             0
  9
$MENU
  1
acad
  9
$ELEVATION
 40
0.0
  9
$PELEVATION
 40
0.0
  9
$THICKNESS
 40
0.0
  9
$LIMCHECK
 70
             0
  9
$BLIPMODE
 70
             1
  9
$CHAMFERA
 40
0.0
  9
$CHAMFERB
 40
0.0
  9
$CHAMFERC
 40
0.0
  9
$CHAMFERD
 40
0.0
  9
$SKPOLY
 70
             0
  9
$TDCREATE
 40
0.000000000
  9
$TDUPDATE
 40
0.000000000
  9
$TDINDWG
 40
0.0000000000
  9
$TDUSRTIMER
 40
0.0000000000
  9
$USRTIMER
 70
             1
  9
$ANGBASE
 50
0.0
  9
$ANGDIR
 70
             0
  9
$PDMODE
 70
             0
  9
$PDSIZE
 40
0.0
  9
$PLINEWID
 40
0.0
  9
$COORDS
 70
             0
  9
$SPLFRAME
 70
             0
  9
$SPLINETYPE
 70
             6
  9
$SPLINESEGS
 70
             8
  9
$ATTDIA
 70
             0
  9
$ATTREQ
 70
             1
  9
$HANDLING
 70
             1
  9
$HANDSEED
  5
20C
  9
$SURFTAB1
 70
             6
  9
$SURFTAB2
 70
             6
  9
$SURFTYPE
 70
             6
  9
$SURFU
 70
             6
  9
$SURFV
 70
             6
  9
$UCSNAME
  2

  9
$UCSORG
 10
0.0
 20
0.0
 30
0.0
  9
$UCSXDIR
 10
1.0
 20
0.0
 30
0.0
  9
$UCSYDIR
 10
0.0
 20
1.0
 30
0.0
  9
$PUCSNAME
  2

  9
$PUCSORG
 10
0.0
 20
0.0
 30
0.0
  9
$PUCSXDIR
 10
1.0
 20
0.0
 30
0.0
  9
$PUCSYDIR
 10
0.0
 20
1.0
 30
0.0
  9
$USERI1
 70
             0
  9
$USERI2
 70
             0
  9
$USERI3
 70
             0
  9
$USERI4
 70
             0
  9
$USERI5
 70
             0
  9
$USERR1
 40
12.01
  9
$USERR2
 40
0.0
  9
$USERR3
 40
0.0
  9
$USERR4
 40
0.0
  9
$USERR5
 40
0.0
  9
$WORLDVIEW
 70
             1
  9
$SHADEDGE
 70
             3
  9
$SHADEDIF
 70
            70
  9
$TILEMODE
 70
             1
  9
$MAXACTVP
 70
            16
  9
$PINSBASE
 10
0.0
 20
0.0
 30
0.0
  9
$PLIMCHECK
 70
             0
  9
$PEXTMIN
 10
1.00000000000000E+20
 20
1.00000000000000E+20
 30
1.00000000000000E+20
  9
$PEXTMAX
 10
-1.00000000000000E+20
 20
-1.00000000000000E+20
 30
-1.00000000000000E+20
  9
$PLIMMIN
 10
0.0
 20
0.0
  9
$PLIMMAX
 10
12.0
 20
9.0
  9
$UNITMODE
 70
             0
  9
$VISRETAIN
 70
             0
  9
$PLINEGEN
 70
             1
  9
$PSLTSCALE
 70
             0
  9
$TREEDEPTH
 70
          3020
  9
$PICKSTYLE
 70
             1
  9
$CMLSTYLE
  2
STANDARD
  9
$CMLJUST
 70
             0
  9
$CMLSCALE
 40
1.0
  9
$PROXYGRAPHICS
 70
             0
  9
$MEASUREMENT
 70
             1
  0
ENDSEC
  0
SECTION
  2
CLASSES
  0
CLASS
  1
LWPOLYLINE
  2
AcDbPolyline
  3
"AutoCAD"
 90
        0
280
             0
281
             1
  0
CLASS
  1
IMAGE
  2
AcDbRasterImage
  3
ISM
 90
      127
280
             0
281
             1
  0
CLASS
  1
OLE2FRAME
  2
AcDbOle2Frame
  3
""
 90
        0
280
             0
281
             1
  0
CLASS
  1
HATCH
  2
AcDbHatch
  3
"ACAD_SEDONA"
 90
        0
280
             0
281
             1
  0
CLASS
  1
DICTIONARYVAR
  2
AcDbDictionaryVar
  3
"AutoCAD"
 90
        0
280
             0
281
             0
  0
CLASS
  1
RASTERVARIABLES
  2
AcDbRasterVariables
  3
ISM
 90
        0
280
             0
281
             0
  0
CLASS
  1
IMAGEDEF
  2
AcDbRasterImageDef
  3
ISM
 90
        0
280
             0
281
             0
  0
CLASS
  1
IMAGEDEF_REACTOR
  2
AcDbRasterImageDefReactor
  3
ISM
 90
        1
280
             0
281
             0
  0
CLASS
  1
IDBUFFER
  2
AcDbIdBuffer
  3
"Acad"
 90
        0
280
             0
281
             0
  0
CLASS
  1
SPATIAL_FILTER
  2
AcDbSpatialFilter
  3
"Acad"
 90
        0
280
             0
281
             0
  0
CLASS
  1
XRECORD
  2
AcDbXrecord
  3
"<Built In>"
 90
        0
280
             0
281
             0
  0
CLASS
  1
SORTENTSTABLE
  2
AcDbSortentsTable
  3
"AutoCAD"
 90
        0
280
             0
281
             0
  0
CLASS
  1
LAYER_INDEX
  2
AcDbLayerIndex
  3
"Acad"
 90
        0
280
             0
281
             0
  0
CLASS
  1
SPATIAL_INDEX
  2
AcDbSpatialIndex
  3
"Acad"
 90
        0
280
             0
281
             0
  0
CLASS
  1
OBJECT_PTR
  2
CAseDLPNTableRecord
  3
"ASE-LPNTableRecord"
 90
        1
280
             0
281
             0
  0
CLASS
  1
LAYOUT
  2
AcDbLayout
  3
"AutoCAD 2000"
 90
        0
280
             0
281
             0
  0
CLASS
  1
PLOTSETTINGS
  2
AcDbPlotSettings
  3
"AutoCAD 2000"
 90
        0
280
             0
281
             0
  0
CLASS
  1
ACDBDICTIONARYWDFLT
  2
AcDbDictionaryWithDefault
  3
"AutoCAD 2000"
 90
        0
280
             0
281
             0
  0
CLASS
  1
ACDBPLACEHOLDER
  2
AcDbPlaceHolder
  3
"AutoCAD 2000"
 90
        0
280
             0
281
             0
  0
ENDSEC
  0
SECTION
  2
TABLES
  0
TABLE
  2
VPORT
  5
7
100
AcDbSymbolTable
 70
             1
  0
VPORT
  5
15
100
AcDbSymbolTableRecord
100
AcDbViewportTableRecord
  2
*ACTIVE
 70
             0
 10
0.0
 20
0.0
 11
1.0
 21
1.0
 12
6.00000000000001
 22
-190.6794596844617
 13
0.0
 23
0.0
 14
1.0
 24
1.0
 15
0.0
 25
0.0
 16
0.0
 26
0.0
 36
1.0
 17
0.0
 27
0.0
 37
0.0
 40
175.64938633274713
 41
1.60267857142857
 42
50.0
 43
0.0
 44
0.0
 50
0.0
 51
0.0
 71
             0
 72
           100
 73
             1
 74
             1
 75
             0
 76
             0
 77
             0
 78
             0
  0
ENDTAB
  0
TABLE
  2
LTYPE
  5
4
100
AcDbSymbolTable
 70
            10
  0
LTYPE
  5
11
100
AcDbSymbolTableRecord
100
AcDbLinetypeTableRecord
  2
BYBLOCK
 70
            64
  3

 72
            65
 73
             0
 40
0.0
  0
LTYPE
  5
12
100
AcDbSymbolTableRecord
100
AcDbLinetypeTableRecord
  2
BYLAYER
 70
            64
  3

 72
            65
 73
             0
 40
0.0
  0
LTYPE
  5
13
100
AcDbSymbolTableRecord
100
AcDbLinetypeTableRecord
  2
CONTINUOUS
 70
            64
  3
Solid line
 72
            65
 73
             0
 40
0.0
  0
LTYPE
  5
1D
100
AcDbSymbolTableRecord
100
AcDbLinetypeTableRecord
  2
DASHED
 70
            64
  3
Dashed
 72
            65
 73
             2
 40
15.0
 49
7.0
 74
             0
 49
-8.0
 74
             0
  0
LTYPE
  5
1E
100
AcDbSymbolTableRecord
100
AcDbLinetypeTableRecord
  2
DOTTED
 70
            64
  3
Dotted
 72
            65
 73
             2
 40
1.0
 49
0.0
 74
             0
 49
-1.0
 74
             0
  0
LTYPE
  5
1F
100
AcDbSymbolTableRecord
100
AcDbLinetypeTableRecord
  2
DOT_CENTER
 70
            64
  3
Dot_Center
 72
            65
 73
             4
 40
14.0
 49
12.0
 74
             0
 49
-1.0
 74
             0
 49
0.0
 74
             0
 49
-1.0
 74
             0
  0
LTYPE
  5
20
100
AcDbSymbolTableRecord
100
AcDbLinetypeTableRecord
  2
LONG_DASHED
 70
            64
  3
Long_Dashed
 72
            65
 73
             2
 40
15.0
 49
10.0
 74
             0
 49
-5.0
 74
             0
  0
LTYPE
  5
21
100
AcDbSymbolTableRecord
100
AcDbLinetypeTableRecord
  2
DASH_CENTER
 70
            64
  3
Dash_Center
 72
            65
 73
             4
 40
14.0
 49
11.0
 74
             0
 49
-1.0
 74
             0
 49
1.0
 74
             0
 49
-1.0
 74
             0
  0
LTYPE
  5
22
100
AcDbSymbolTableRecord
100
AcDbLinetypeTableRecord
  2
PHANTOM
 70
            64
  3
Phantom
 72
            65
 73
             6
 40
13.0
 49
10.0
 74
             0
 49
-1.0
 74
             0
 49
0.0
 74
             0
 49
-1.0
 74
             0
 49
0.0
 74
             0
 49
-1.0
 74
             0
  0
LTYPE
  5
23
100
AcDbSymbolTableRecord
100
AcDbLinetypeTableRecord
  2
CENTER_DASH_DASH
 70
            64
  3
Center_Dash_Dash
 72
            65
 73
             6
 40
14.0
 49
9.0
 74
             0
 49
-1.0
 74
             0
 49
1.0
 74
             0
 49
-1.0
 74
             0
 49
1.0
 74
             0
 49
-1.0
 74
             0
  0
ENDTAB
  0
TABLE
  2
LAYER
  5
2
100
AcDbSymbolTable
 70
             2
  0
LAYER
  5
14
100
AcDbSymbolTableRecord
100
AcDbLayerTableRecord
  2
0
 70
             0
 62
             7
  6
CONTINUOUS
  0
LAYER
  5
24
100
AcDbSymbolTableRecord
100
AcDbLayerTableRecord
  2
1
 70
             0
 62
             7
  6
CONTINUOUS
  0
ENDTAB
  0
TABLE
  2
STYLE
  5
3
100
AcDbSymbolTable
 70
             2
  0
STYLE
  5
17
100
AcDbSymbolTableRecord
100
AcDbTextStyleTableRecord
  2
STANDARD
 70
             0
 40
0.0
 41
1.0
 50
0.0
 71
             0
 42
0.0
  3
txt
  4

  0
STYLE
  5
1FB
100
AcDbSymbolTableRecord
100
AcDbTextStyleTableRecord
  2
CONVERTER_1
 70
             0
 40
0.0
 41
0.9
 50
0.0
 71
             0
 42
0.0
  3
txt.shx
  4

  0
ENDTAB
  0
TABLE
  2
VIEW
  5
5
100
AcDbSymbolTable
 70
             0
  0
ENDTAB
  0
TABLE
  2
UCS
  5
6
100
AcDbSymbolTable
 70
             0
  0
ENDTAB
  0
TABLE
  2
APPID
  5
8
100
AcDbSymbolTable
 70
             1
  0
APPID
  5
16
100
AcDbSymbolTableRecord
100
AcDbRegAppTableRecord
  2
ACAD
 70
             0
  0
ENDTAB
  0
TABLE
  2
DIMSTYLE
  5
9
100
AcDbSymbolTable
 70
             3
  0
DIMSTYLE
105
18
100
AcDbSymbolTableRecord
100
AcDbDimStyleTableRecord
  2
STANDARD
 70
             0
  3

  4

  5

  6

  7

 40
1.0
 41
0.18
 42
0.0625
 43
0.38
 44
0.18
 45
0.0
 46
0.0
 47
0.0
 48
0.0
 71
             0
 72
             0
 73
             1
 74
             1
 75
             0
 76
             0
 77
             0
 78
             0
140
0.18
141
0.09
142
0.0
143
25.4
144
1.0
145
0.0
146
1.0
147
0.09
170
             0
171
             2
172
             0
173
             0
174
             0
175
             0
176
             0
177
             0
178
             0
270
             2
271
             4
272
             4
273
             2
274
             2
275
             0
280
             0
281
             0
282
             0
283
             1
284
             0
285
             0
286
             0
287
             3
288
             0
340
17
  0
DIMSTYLE
105
1FE
100
AcDbSymbolTableRecord
100
AcDbDimStyleTableRecord
  2
ME10_DIM_0
 70
             0
  3

  4

  5

  6

  7

 40
1.0
 41
3.5
 42
0.0
 43
0.38
 44
2.0
 45
0.0
 46
0.0
 47
0.0
 48
0.0
 71
             0
 72
             0
 73
             0
 74
             0
 75
             0
 76
             0
 77
             1
 78
             8
140
3.5
141
0.09
142
0.0
143
25.4
144
1.0
145
0.0
146
1.0
147
0.625
170
             0
171
             2
172
             1
173
             1
174
             0
175
             0
176
             4
177
             4
178
             1
270
             2
271
             2
272
             4
273
             2
274
             2
275
             0
280
             0
281
             0
282
             0
283
             1
284
             0
285
             0
286
             0
287
             3
288
             0
340
1FB
  0
DIMSTYLE
105
209
100
AcDbSymbolTableRecord
100
AcDbDimStyleTableRecord
  2
ME10_DIM_1
 70
             0
  3
Ø<>
  4

  5

  6

  7

 40
1.0
 41
3.5
 42
0.0
 43
0.38
 44
2.0
 45
0.0
 46
0.0
 47
0.0
 48
0.0
 71
             0
 72
             0
 73
             0
 74
             0
 75
             0
 76
             0
 77
             1
 78
             8
140
3.5
141
0.09
142
0.0
143
25.4
144
1.0
145
0.0
146
1.0
147
0.625
170
             0
171
             2
172
             1
173
             1
174
             0
175
             0
176
             4
177
             4
178
             1
270
             2
271
             2
272
             4
273
             2
274
             2
275
             0
280
             0
281
             0
282
             0
283
             1
284
             0
285
             0
286
             0
287
             3
288
             0
340
1FB
  0
ENDTAB
  0
TABLE
  2
BLOCK_RECORD
  5
1
100
AcDbSymbolTable
 70
             5
  0
BLOCK_RECORD
  5
A
100
AcDbSymbolTableRecord
100
AcDbBlockTableRecord
  2
*MODEL_SPACE
  0
BLOCK_RECORD
  5
B
100
AcDbSymbolTableRecord
100
AcDbBlockTableRecord
  2
*PAPER_SPACE
  0
BLOCK_RECORD
  5
25
100
AcDbSymbolTableRecord
100
AcDbBlockTableRecord
  2
HL_600_GRIFF
  0
BLOCK_RECORD
  5
27
100
AcDbSymbolTableRecord
100
AcDbBlockTableRecord
  2
HL600_660_LAUBFANGKORB__1
  0
BLOCK_RECORD
  5
29
100
AcDbSymbolTableRecord
100
AcDbBlockTableRecord
  2
HL600_660_LAUBFANGKORB__2
  0
BLOCK_RECORD
  5
1F4
100
AcDbSymbolTableRecord
100
AcDbBlockTableRecord
  2
*D3
  0
BLOCK_RECORD
  5
200
100
AcDbSymbolTableRecord
100
AcDbBlockTableRecord
  2
*D4
  0
ENDTAB
  0
ENDSEC
  0
SECTION
  2
BLOCKS
  0
BLOCK
  5
D
100
AcDbEntity
  8
0
100
AcDbBlockBegin
  2
*MODEL_SPACE
 70
             0
 10
0.0
 20
0.0
 30
0.0
  3
*MODEL_SPACE
  1

  0
ENDBLK
  5
E
100
AcDbEntity
  8
0
100
AcDbBlockEnd
  0
BLOCK
  5
F
100
AcDbEntity
 67
             1
  8
0
100
AcDbBlockBegin
  2
*PAPER_SPACE
 70
             0
 10
0.0
 20
0.0
 30
0.0
  3
*PAPER_SPACE
  1

  0
ENDBLK
  5
10
100
AcDbEntity
 67
             1
  8
0
100
AcDbBlockEnd
  0
BLOCK
  5
26
100
AcDbEntity
  8
0
100
AcDbBlockBegin
  2
HL_600_GRIFF
 70
             0
 10
0.35355339059254
 20
-136.0000000000002
 30
0.0
  3
HL_600_GRIFF
  1

  0
HATCH
  5
46
100
AcDbEntity
  8
0
  6
CONTINUOUS
 62
             3
100
AcDbHatch
 10
0.0
 20
0.0
 30
0.0
210
0.0
220
0.0
230
1.0
  2
USER
 70
             0
 71
             1
 91
        1
 92
        1
 93
        8
 72
             2
 10
-41.917955578570677
 20
-123.7328414739484
 40
0.9999999999999646
 50
-75.0000000000032
 51
14.99999999999923
 73
             0
 72
             1
 10
-40.952029752281639
 20
-123.9916605190509
 11
-41.469667842486729
 21
-125.9235121716291
 72
             2
 10
-42.435593668775759
 20
-125.6646931265265
 40
1.0000000000000249
 50
15.00000000000484
 51
104.99999999999956
 73
             0
 72
             1
 10
-42.694412713878279
 20
-126.6306189528156
 11
-55.092447275534539
 21
-123.3085756042867
 72
             2
 10
-54.833628230432019
 20
-122.34264977799759
 40
0.9999999999999646
 50
104.99999999999936
 51
-165.00000000000077
 73
             0
 72
             1
 10
-55.799554056721057
 20
-122.08383073289509
 11
-55.281915966516038
 21
-120.15197908031691
 72
             2
 10
-54.315990140226937
 20
-120.4107981254195
 40
1.0000000000000331
 50
-164.99999999999622
 51
-75.00000000000183
 73
             0
 72
             1
 10
-54.057171095124438
 20
-119.4448722991304
 11
-41.659136533468207
 21
-122.7669156476593
 97
        8
330
42
330
35
330
43
330
34
330
45
330
37
330
44
330
36
 75
             1
 76
             0
 52
45.0
 41
1.0
 77
             0
 78
             1
 53
45.0
 43
0.0
 44
0.0
 45
-0.7071067811865475
 46
0.7071067811865476
 79
             0
 98
        1
 10
0.0
 20
0.0
  0
ARC
  5
45
102
{ACAD_REACTORS
330
46
102
}
100
AcDbEntity
  8
0
  6
CONTINUOUS
 62
             7
100
AcDbCircle
 10
-54.83362823043202
 20
-122.34264977799759
 40
0.99999999999996
100
AcDbArc
 50
165.00000000000077
 51
-104.99999999999936
  0
ARC
  5
44
102
{ACAD_REACTORS
330
46
102
}
100
AcDbEntity
  8
0
  6
CONTINUOUS
 62
             7
100
AcDbCircle
 10
-54.31599014022694
 20
-120.4107981254195
 40
1.00000000000003
100
AcDbArc
 50
75.00000000000183
 51
164.99999999999622
  0
ARC
  5
43
102
{ACAD_REACTORS
330
46
102
}
100
AcDbEntity
  8
0
  6
CONTINUOUS
 62
             7
100
AcDbCircle
 10
-42.43559366877576
 20
-125.6646931265265
 40
1.00000000000002
100
AcDbArc
 50
-104.99999999999956
 51
-15.00000000000484
  0
ARC
  5
42
102
{ACAD_REACTORS
330
46
102
}
100
AcDbEntity
  8
0
  6
CONTINUOUS
 62
             7
100
AcDbCircle
 10
-41.91795557857068
 20
-123.7328414739484
 40
0.99999999999996
100
AcDbArc
 50
-14.99999999999923
 51
75.0000000000032
  0
ARC
  5
41
100
AcDbEntity
  8
0
  6
DASHED
 62
             7
100
AcDbCircle
 10
1.19006969433042
 20
-137.35415439394291
 40
0.99999999999991
100
AcDbArc
 50
-105.00000000000087
 51
-14.99999999999761
  0
ARC
  5
40
100
AcDbEntity
  8
0
  6
DASHED
 62
             7
100
AcDbCircle
 10
1.70770778453607
 20
-135.42230274136469
 40
0.99999999999942
100
AcDbArc
 50
-15.00000000000844
 51
75.00000000003378
  0
ARC
  5
3F
100
AcDbEntity
  8
0
  6
CONTINUOUS
 62
             7
100
AcDbCircle
 10
0.0
 20
-136.00000000000011
 40
3.49999999999994
100
AcDbArc
 50
-38.70404447092349
 51
75.00000000001037
  0
ARC
  5
3E
100
AcDbEntity
  8
0
  6
CONTINUOUS
 62
             7
100
AcDbCircle
 10
0.0
 20
-136.00000000000011
 40
3.4999999999999
100
AcDbArc
 50
75.00000000001037
 51
-160.15009542095936
  0
ARC
  5
3D
100
AcDbEntity
  8
0
  6
CONTINUOUS
 62
             7
100
AcDbCircle
 10
0.0
 20
-136.00000000000011
 40
3.50000000000055
100
AcDbArc
 50
-160.15009542095936
 51
-98.13010235415936
  0
ARC
  5
3C
100
AcDbEntity
  8
0
  6
CONTINUOUS
 62
             7
100
AcDbCircle
 10
0.0
 20
-136.00000000000011
 40
3.49999999999993
100
AcDbArc
 50
-98.13010235415936
 51
-38.70404447092349
  0
LINE
  5
3B
100
AcDbEntity
  8
1
  6
PHANTOM
 62
             2
100
AcDbLine
 10
0.0
 20
-132.1500000000002
 11
0.0
 21
-139.84999999999999
  0
LINE
  5
3A
100
AcDbEntity
  8
1
  6
PHANTOM
 62
             2
100
AcDbLine
 10
3.84999999999992
 20
-136.00000000000011
 11
-3.84999999999991
 21
-136.00000000000011
  0
LINE
  5
39
100
AcDbEntity
  8
0
  6
CONTINUOUS
 62
             7
100
AcDbLine
 10
-20.26297444645461
 20
-128.50000000000011
 11
-40.69321070717913
 21
-123.0257346927619
  0
LINE
  5
38
100
AcDbEntity
  8
0
  6
CONTINUOUS
 62
             7
100
AcDbLine
 10
-35.71778766707936
 20
-128.50000000000011
 11
-41.72848688758921
 21
-126.88943799791809
  0
LINE
  5
37
102
{ACAD_REACTORS
330
46
102
}
100
AcDbEntity
  8
0
  6
CONTINUOUS
 62
             7
100
AcDbLine
 10
-55.79955405672106
 20
-122.08383073289509
 11
-55.28191596651604
 21
-120.15197908031691
  0
LINE
  5
36
102
{ACAD_REACTORS
330
46
102
}
100
AcDbEntity
  8
0
  6
CONTINUOUS
 62
             7
100
AcDbLine
 10
-54.05717109512444
 20
-119.4448722991304
 11
-41.65913653346821
 21
-122.7669156476593
  0
LINE
  5
35
102
{ACAD_REACTORS
330
46
102
}
100
AcDbEntity
  8
0
  6
CONTINUOUS
 62
             7
100
AcDbLine
 10
-40.95202975228164
 20
-123.9916605190509
 11
-41.46966784248673
 21
-125.9235121716291
  0
LINE
  5
34
102
{ACAD_REACTORS
330
46
102
}
100
AcDbEntity
  8
0
  6
CONTINUOUS
 62
             7
100
AcDbLine
 10
-42.69441271387828
 20
-126.6306189528156
 11
-55.09244727553454
 21
-123.3085756042867
  0
LINE
  5
33
100
AcDbEntity
  8
0
  6
DASHED
 62
             7
100
AcDbLine
 10
-13.99819196476141
 20
-134.31974812836671
 11
-12.96291578435133
 21
-130.45604482321039
  0
LINE
  5
32
100
AcDbEntity
  8
0
  6
DASHED
 62
             7
100
AcDbLine
 10
2.15599552061952
 20
-137.61297343904539
 11
2.67363361082454
 21
-135.6811217864672
  0
LINE
  5
31
100
AcDbEntity
  8
0
  6
DASHED
 62
             7
100
AcDbLine
 10
0.93125064922791
 20
-138.32008022023189
 11
-35.71778766707936
 21
-128.50000000000011
  0
LINE
  5
30
100
AcDbEntity
  8
0
  6
DASHED
 62
             7
100
AcDbLine
 10
1.96652682963796
 20
-134.45637691507571
 11
-20.26297444645461
 21
-128.50000000000011
  0
ENDBLK
  5
47
100
AcDbEntity
  8
0
100
AcDbBlockEnd
  0
BLOCK
  5
28
100
AcDbEntity
  8
0
100
AcDbBlockBegin
  2
HL600_660_LAUBFANGKORB__1
 70
             0
 10
136.34774647497531
 20
-183.02807968674571
 30
0.0
  3
HL600_660_LAUBFANGKORB__1
  1

  0
SPLINE
  5
1E6
100
AcDbEntity
  8
0
  6
CONTINUOUS
 62
             7
100
AcDbSpline
210
0.0
220
0.0
230
1.0
 70
             0
 71
             3
 72
            12
 73
             8
 74
             7
 42
0.00000000001
 43
0.00000000001
 44
0.00000000001
 40
0.0
 40
0.0
 40
0.0
 40
0.0
 40
1.0
 40
1.0
 40
2.0
 40
2.0
 40
3.0
 40
3.0
 40
3.0
 40
3.0
 10
-14.088810493605591
 20
-200.07358251827301
 30
0.0
 10
-13.9411880326166
 20
-200.07358251827301
 30
0.0
 10
-13.77761896988687
 20
-200.0609029403559
 30
0.0
 10
-13.44799877011269
 20
-200.01246452622809
 30
0.0
 10
-13.28710641285719
 20
-199.97746378406629
 30
0.0
 10
-13.0020870180303
 20
-199.89219266506271
 30
0.0
 10
-12.882420727386769
 20
-199.84325683909361
 30
0.0
 10
-12.796356359433901
 20
-199.792420288583
 30
0.0
 11
-14.088810493605591
 21
-200.07358251827301
 31
0.0
 11
-13.857255046389472
 21
-200.06421532843146
 31
0.0
 11
-13.61280886999978
 21
-200.03668373329199
 31
0.0
 11
-13.370340141794145
 21
-199.99266211109244
 31
0.0
 11
-13.144596715443745
 21
-199.93482822456451
 31
0.0
 11
-12.949309538891107
 21
-199.86669962820207
 31
0.0
 11
-12.796356359433901
 21
-199.792420288583
 31
0.0
  0
SPLINE
  5
1E5
100
AcDbEntity
  8
0
  6
CONTINUOUS
 62
             7
100
AcDbSpline
210
0.0
220
0.0
230
1.0
 70
             0
 71
             6
 72
            14
 73
             7
 74
             3
 42
0.00000000001
 43
0.00000000001
 44
0.00000000001
 40
0.0
 40
0.0
 40
0.0
 40
0.0
 40
0.0
 40
0.0
 40
0.0
 40
0.481098767929377
 40
0.481098767929377
 40
0.481098767929377
 40
0.481098767929377
 40
0.481098767929377
 40
0.481098767929377
 40
0.481098767929377
 10
-21.33265648054558
 20
-202.00000000000011
 30
0.0
 10
-21.416769706539188
 20
-202.00000000000011
 30
0.0
 10
-21.490484377857399
 20
-201.9915100419465
 30
0.0
 10
-21.55165992629
 20
-201.97452969554641
 30
0.0
 10
-21.598591868030301
 20
-201.94942035263321
 30
0.0
 10
-21.630208223977888
 20
-201.91690134015329
 30
0.0
 10
-21.646104124284879
 20
-201.87796446470631
 30
0.0
 11
-21.33265648054558
 21
-202.00000000000011
 31
0.0
 11
-21.541093287532007
 21
-201.96849878648831
 31
0.0
 11
-21.646104124284879
 21
-201.87796446470631
 31
0.0
  0
SPLINE
  5
1E4
100
AcDbEntity
  8
0
  6
CONTINUOUS
 62
             7
100
AcDbSpline
210
0.0
220
0.0
230
1.0
 70
             0
 71
             6
 72
            15
 73
             8
 74
             5
 42
0.00000000001
 43
0.00000000001
 44
0.00000000001
 40
0.0
 40
0.0
 40
0.0
 40
0.0
 40
0.0
 40
0.0
 40
0.0
 40
0.5
 40
0.9368387146240472
 40
0.9368387146240472
 40
0.9368387146240472
 40
0.9368387146240472
 40
0.9368387146240472
 40
0.9368387146240472
 40
0.9368387146240472
 10
-4.7890107922991909
 20
-202.00000000000011
 30
0.0
 10
-4.9111162214483919
 20
-202.00000000000011
 30
0.0
 10
-5.1352454468956781
 20
-201.98281807222961
 30
0.0
 10
-5.3388683338549718
 20
-201.93344105845699
 30
0.0
 10
-5.5005883737530858
 20
-201.8546424409634
 30
0.0
 10
-5.6044605917584791
 20
-201.75434018002451
 30
0.0
 10
-5.6446704619835906
 20
-201.64311425836351
 30
0.0
 10
-5.6494771606084804
 20
-201.58999094273949
 30
0.0
 11
-4.7890107922991909
 21
-202.00000000000011
 31
0.0
 11
-5.137775324561237
 21
-201.96600393031946
 31
0.0
 11
-5.4206906717818617
 21
-201.8686386597148
 31
0.0
 11
-5.5834786863806141
 21
-201.74190363136861
 31
0.0
 11
-5.6494771606084804
 21
-201.58999094273949
 31
0.0
  0
SPLINE
  5
1E3
100
AcDbEntity
  8
0
  6
CONTINUOUS
 62
             7
100
AcDbSpline
210
0.0
220
0.0
230
1.0
 70
             0
 71
             3
 72
            11
 73
             7
 74
             5
 42
0.00000000001
 43
0.00000000001
 44
0.00000000001
 40
0.3194664195291206
 40
0.3194664195291206
 40
0.3194664195291206
 40
0.3194664195291206
 40
0.4624352904611664
 40
0.4624352904611664
 40
0.4624352904611664
 40
0.6039031913104281
 40
0.6039031913104281
 40
0.6039031913104281
 40
0.6039031913104281
 10
48.524093042018229
 20
-148.50000000000011
 30
0.0
 10
48.499910837292227
 20
-148.54015514489939
 30
0.0
 10
48.475978349389422
 20
-148.5815168091053
 30
0.0
 10
48.45249517689534
 20
-148.62374298709611
 30
0.0
 10
48.43267031684384
 20
-148.65939098437551
 30
0.0
 10
48.410041748857921
 20
-148.7012722156706
 30
0.0
 10
48.385752545682131
 20
-148.74847184800271
 30
0.0
 11
48.524093042018229
 21
-148.50000000000011
 31
0.0
 11
48.488031972369811
 21
-148.56109485613879
 31
0.0
 11
48.45249517689534
 21
-148.62374298709611
 31
0.0
 11
48.420797989960349
 21
-148.68177555440468
 31
0.0
 11
48.385752545682131
 21
-148.74847184800271
 31
0.0
  0
SPLINE
  5
1E2
100
AcDbEntity
  8
0
  6
CONTINUOUS
 62
             7
100
AcDbSpline
210
0.0
220
0.0
230
1.0
 70
             0
 71
             3
 72
            11
 73
             7
 74
             5
 42
0.00000000001
 43
0.00000000001
 44
0.00000000001
 40
0.0648168609079113
 40
0.0648168609079113
 40
0.0648168609079113
 40
0.0648168609079113
 40
0.2010754382779627
 40
0.2010754382779627
 40
0.2010754382779627
 40
0.3397555824607683
 40
0.3397555824607683
 40
0.3397555824607683
 40
0.3397555824607683
 10
37.900125436025611
 20
-148.74847184800271
 30
0.0
 10
37.919411135558512
 20
-148.7012491166557
 30
0.0
 10
37.938154126465129
 20
-148.6593654846092
 30
0.0
 10
37.95495127665744
 20
-148.6237429870929
 30
0.0
 10
37.972178022045519
 20
-148.58720942706779
 30
0.0
 10
37.993031559407918
 20
-148.54522939470121
 30
0.0
 10
38.017530215024131
 20
-148.50000000000011
 30
0.0
 11
37.900125436025611
 21
-148.74847184800271
 31
0.0
 11
37.928471562344242
 21
-148.68175732986128
 31
0.0
 11
37.95495127665744
 21
-148.6237429870929
 31
0.0
 11
37.983513779505238
 21
-148.56513243155001
 31
0.0
 11
38.017530215024131
 21
-148.50000000000011
 31
0.0
  0
SPLINE
  5
1E1
100
AcDbEntity
  8
0
  6
CONTINUOUS
 62
             7
100
AcDbSpline
210
0.0
220
0.0
230
1.0
 70
             0
 71
             3
 72
            11
 73
             7
 74
             5
 42
0.00000000001
 43
0.00000000001
 44
0.00000000001
 40
0.3194664195290858
 40
0.3194664195290858
 40
0.3194664195290858
 40
0.3194664195290858
 40
0.4462931077262255
 40
0.4462931077262255
 40
0.4462931077262255
 40
0.5721478224000196
 40
0.5721478224000196
 40
0.5721478224000196
 40
0.5721478224000196
 10
7.2328765014117131
 20
-148.50000000000011
 30
0.0
 10
7.2205486542841051
 20
-148.5452268978143
 30
0.0
 10
7.2116842573434257
 20
-148.58720945010731
 30
0.0
 10
7.2052299461399274
 20
-148.62374298709611
 30
0.0
 10
7.1970989186128271
 20
-148.66976729326171
 30
0.0
 10
7.1919487331346126
 20
-148.71192297801451
 30
0.0
 10
7.1886460605679234
 20
-148.74847184800271
 30
0.0
 11
7.2328765014117131
 21
-148.50000000000011
 31
0.0
 11
7.2168506478042795
 21
-148.56513150385763
 31
0.0
 11
7.2052299461399274
 21
-148.62374298709611
 31
0.0
 11
7.195127370243771
 21
-148.68966070611594
 31
0.0
 11
7.1886460605679234
 21
-148.74847184800271
 31
0.0
  0
SPLINE
  5
1E0
100
AcDbEntity
  8
0
  6
CONTINUOUS
 62
             7
100
AcDbSpline
210
0.0
220
0.0
230
1.0
 70
             0
 71
             3
 72
            11
 73
             7
 74
             5
 42
0.00000000001
 43
0.00000000001
 44
0.00000000001
 40
0.1454039534370854
 40
0.1454039534370854
 40
0.1454039534370854
 40
0.1454039534370854
 40
0.2350559017622282
 40
0.2350559017622282
 40
0.2350559017622282
 40
0.3241564701820077
 40
0.3241564701820077
 40
0.3241564701820077
 40
0.3241564701820077
 10
10.03562836464193
 20
-148.67858788306521
 30
0.0
 10
10.03693445350982
 20
-148.64835837957
 30
0.0
 10
10.037284901934809
 20
-148.61843804914309
 30
0.0
 10
10.03667646901261
 20
-148.5889534549822
 30
0.0
 10
10.03599566609013
 20
-148.55596181837211
 30
0.0
 10
10.03417063957464
 20
-148.52624406544089
 30
0.0
 10
10.03179799042371
 20
-148.50000000000011
 30
0.0
 11
10.03562836464193
 21
-148.67858788306521
 31
0.0
 11
10.036870362498554
 21
-148.63349132802335
 31
0.0
 11
10.03667646901261
 21
-148.5889534549822
 31
0.0
 11
10.03487167205383
 21
-148.54194638830268
 31
0.0
 11
10.03179799042371
 21
-148.50000000000011
 31
0.0
  0
SPLINE
  5
1DF
100
AcDbEntity
  8
0
  6
CONTINUOUS
 62
             7
100
AcDbSpline
210
0.0
220
0.0
230
1.0
 70
             0
 71
             3
 72
            11
 73
             7
 74
             5
 42
0.00000000001
 43
0.00000000001
 44
0.00000000001
 40
0.0648168609078946
 40
0.0648168609078946
 40
0.0648168609078946
 40
0.0648168609078946
 40
0.1950942602653358
 40
0.1950942602653358
 40
0.1950942602653358
 40
0.3276411418378916
 40
0.3276411418378916
 40
0.3276411418378916
 40
0.3276411418378916
 10
23.70456998298792
 20
-148.7484718480091
 30
0.0
 10
23.714154829915831
 20
-148.71191840532211
 30
0.0
 10
23.726429301340399
 20
-148.66976400375589
 30
0.0
 10
23.7421122977631
 20
-148.6237429870931
 30
0.0
 10
23.756498362307809
 20
-148.58152775613331
 30
0.0
 10
23.7723536139091
 20
-148.54016438199051
 30
0.0
 10
23.789546646874928
 20
-148.50000000000011
 30
0.0
 11
23.70456998298792
 21
-148.7484718480091
 31
0.0
 11
23.721054334314964
 21
-148.68965775779202
 31
0.0
 11
23.7421122977631
 21
-148.6237429870931
 31
0.0
 11
23.764776859161096
 21
-148.56110242518307
 31
0.0
 11
23.789546646874928
 21
-148.50000000000011
 31
0.0
  0
SPLINE
  5
1DE
100
AcDbEntity
  8
0
  6
CONTINUOUS
 62
             7
100
AcDbSpline
210
0.0
220
0.0
230
1.0
 70
             0
 71
             3
 72
            11
 73
             7
 74
             5
 42
0.00000000001
 43
0.00000000001
 44
0.00000000001
 40
0.5229873058109431
 40
0.5229873058109431
 40
0.5229873058109431
 40
0.5229873058109431
 40
0.5903746155741261
 40
0.5903746155741261
 40
0.5903746155741261
 40
0.6584475891340271
 40
0.6584475891340271
 40
0.6584475891340271
 40
0.6584475891340271
 10
39.790028309311921
 20
-157.3362116040559
 30
0.0
 10
39.78932904151393
 20
-157.35881828162491
 30
0.0
 10
39.787268007135921
 20
-157.3811574348149
 30
0.0
 10
39.783924628674917
 20
-157.4032919018467
 30
0.0
 10
39.780535644376513
 20
-157.42572829727629
 30
0.0
 10
39.775836659698122
 20
-157.4479042945116
 30
0.0
 10
39.769928861741121
 20
-157.46988292738641
 30
0.0
 11
39.790028309311921
 21
-157.3362116040559
 31
0.0
 11
39.787968010492051
 21
-157.36992883190274
 31
0.0
 11
39.783924628674917
 21
-157.4032919018467
 31
0.0
 11
39.777871300329991
 21
-157.4367590755746
 31
0.0
 11
39.769928861741121
 21
-157.46988292738641
 31
0.0
  0
SPLINE
  5
1DD
100
AcDbEntity
  8
0
  6
CONTINUOUS
 62
             7
100
AcDbSpline
210
0.0
220
0.0
230
1.0
 70
             0
 71
             3
 72
            11
 73
             7
 74
             5
 42
0.00000000001
 43
0.00000000001
 44
0.00000000001
 40
0.848540143295214
 40
0.848540143295214
 40
0.848540143295214
 40
0.848540143295214
 40
0.9620910201216238
 40
0.9620910201216238
 40
0.9620910201216238
 40
1.075843792145369
 40
1.075843792145369
 40
1.075843792145369
 40
1.075843792145369
 10
39.769928861741121
 20
-157.46988292738641
 30
0.0
 10
39.75737471762163
 20
-157.50530970891739
 30
0.0
 10
39.744302592537721
 20
-157.5408335223801
 30
0.0
 10
39.730714410445941
 20
-157.57644542656971
 30
0.0
 10
39.717286295880008
 20
-157.61163782582781
 30
0.0
 10
39.703357710806507
 20
-157.64690707980651
 30
0.0
 10
39.688931290341522
 20
-157.6822444487604
 30
0.0
 11
39.769928861741121
 21
-157.46988292738641
 31
0.0
 11
39.750709400333136
 21
-157.52309475598105
 31
0.0
 11
39.730714410445941
 21
-157.57644542656971
 31
0.0
 11
39.710197215105879
 21
-157.62929057402914
 31
0.0
 11
39.688931290341522
 21
-157.6822444487604
 31
0.0
  0
SPLINE
  5
1DC
100
AcDbEntity
  8
0
  6
CONTINUOUS
 62
             7
100
AcDbSpline
210
0.0
220
0.0
230
1.0
 70
             0
 71
             3
 72
            11
 73
             7
 74
             5
 42
0.00000000001
 43
0.00000000001
 44
0.00000000001
 40
1.0026455558408489
 40
1.0026455558408489
 40
1.0026455558408489
 40
1.0026455558408489
 40
1.4537387184793371
 40
1.4537387184793371
 40
1.4537387184793371
 40
1.902889534102999
 40
1.902889534102999
 40
1.902889534102999
 40
1.902889534102999
 10
49.418838915562311
 20
-158.30253295497511
 30
0.0
 10
49.488758856518508
 20
-158.16661375919969
 30
0.0
 10
49.551807930635633
 20
-158.02994642613561
 30
0.0
 10
49.607785778185821
 20
-157.89303573446401
 30
0.0
 10
49.665594776602212
 20
-157.7516464116442
 30
0.0
 10
49.715694507998428
 20
-157.61040806844551
 30
0.0
 10
49.757994707614422
 20
-157.4698829273861
 30
0.0
 11
49.418838915562311
 21
-158.30253295497511
 31
0.0
 11
49.518540631901324
 21
-158.09815615568064
 31
0.0
 11
49.607785778185821
 21
-157.89303573446401
 31
0.0
 11
49.688706042450278
 21
-157.68113526276491
 31
0.0
 11
49.757994707614422
 21
-157.4698829273861
 31
0.0
  0
SPLINE
  5
1DB
100
AcDbEntity
  8
0
  6
CONTINUOUS
 62
             7
100
AcDbSpline
210
0.0
220
0.0
230
1.0
 70
             0
 71
             3
 72
            11
 73
             7
 74
             5
 42
0.00000000001
 43
0.00000000001
 44
0.00000000001
 40
0.917467243098006
 40
0.917467243098006
 40
0.917467243098006
 40
0.917467243098006
 40
0.9636985617616052
 40
0.9636985617616052
 40
0.9636985617616052
 40
1.009959624078191
 40
1.009959624078191
 40
1.009959624078191
 40
1.009959624078191
 10
49.757994707614422
 20
-157.4698829273861
 30
0.0
 10
49.75860788513414
 20
-157.45456616696239
 30
0.0
 10
49.759146521753721
 20
-157.4391651837087
 30
0.0
 10
49.759609194177941
 20
-157.42367995651421
 30
0.0
 10
49.760071500047907
 20
-157.40820699755929
 30
0.0
 10
49.760453759903932
 20
-157.39279057008341
 30
0.0
 10
49.760758747299327
 20
-157.3774333241463
 30
0.0
 11
49.757994707614422
 21
-157.4698829273861
 31
0.0
 11
49.75885839030699
 21
-157.44684461698918
 31
0.0
 11
49.759609194177941
 21
-157.42367995651421
 31
0.0
 11
49.760242965166604
 21
-157.40051324794857
 31
0.0
 11
49.760758747299327
 21
-157.3774333241463
 31
0.0
  0
SPLINE
  5
1DA
100
AcDbEntity
  8
0
  6
CONTINUOUS
 62
             7
100
AcDbSpline
210
0.0
220
0.0
230
1.0
 70
             0
 71
             3
 72
            11
 73
             7
 74
             5
 42
0.00000000001
 43
0.00000000001
 44
0.00000000001
 40
0.431527475156342
 40
0.431527475156342
 40
0.431527475156342
 40
0.431527475156342
 40
0.4996004495430718
 40
0.4996004495430718
 40
0.4996004495430718
 40
0.5669877584794075
 40
0.5669877584794075
 40
0.5669877584794075
 40
0.5669877584794075
 10
-39.769928861740979
 20
-157.46988292738641
 30
0.0
 10
-39.775836659770192
 20
-157.44790429424319
 30
0.0
 10
-39.780535644490691
 20
-157.42572829673679
 30
0.0
 10
-39.783924628798282
 20
-157.40329190102881
 30
0.0
 10
-39.787268007150892
 20
-157.38115743450061
 30
0.0
 10
-39.789329041515167
 20
-157.3588182815802
 30
0.0
 10
-39.790028309311779
 20
-157.3362116040559
 30
0.0
 11
-39.769928861740979
 21
-157.46988292738641
 31
0.0
 11
-39.777871300415235
 21
-157.43675907516939
 31
0.0
 11
-39.783924628798282
 21
-157.40329190102881
 31
0.0
 11
-39.787968010513517
 21
-157.36992883166587
 31
0.0
 11
-39.790028309311779
 21
-157.3362116040559
 31
0.0
  0
SPLINE
  5
1D9
100
AcDbEntity
  8
0
  6
CONTINUOUS
 62
             7
100
AcDbSpline
210
0.0
220
0.0
230
1.0
 70
             0
 71
             3
 72
            11
 73
             7
 74
             5
 42
0.00000000001
 43
0.00000000001
 44
0.00000000001
 40
0.2921375850610031
 40
0.2921375850610031
 40
0.2921375850610031
 40
0.2921375850610031
 40
0.3560792169119362
 40
0.3560792169119362
 40
0.3560792169119362
 40
0.4210772699262715
 40
0.4210772699262715
 40
0.4210772699262715
 40
0.4210772699262715
 10
-25.97903562900629
 20
-157.16906588932471
 30
0.0
 10
-25.978200849357471
 20
-157.19048340937289
 30
0.0
 10
-25.97617527728838
 20
-157.2116805090271
 30
0.0
 10
-25.973011552722479
 20
-157.23269858373271
 30
0.0
 10
-25.96978268142928
 20
-157.25414945805599
 30
0.0
 10
-25.965378422624291
 20
-157.2753466229087
 30
0.0
 10
-25.959877877814879
 20
-157.29633213490621
 30
0.0
 11
-25.97903562900629
 21
-157.16906588932471
 31
0.0
 11
-25.976896945208289
 21
-157.20103202853218
 31
0.0
 11
-25.973011552722479
 21
-157.23269858373271
 31
0.0
 11
-25.967296592837258
 21
-157.2646898701916
 31
0.0
 11
-25.959877877814879
 21
-157.29633213490621
 31
0.0
  0
SPLINE
  5
1D8
100
AcDbEntity
  8
0
  6
CONTINUOUS
 62
             7
100
AcDbSpline
210
0.0
220
0.0
230
1.0
 70
             0
 71
             3
 72
            11
 73
             7
 74
             5
 42
0.00000000001
 43
0.00000000001
 44
0.00000000001
 40
0.0602480964960602
 40
0.0602480964960602
 40
0.0602480964960602
 40
0.0602480964960602
 40
0.0741340326605019
 40
0.0741340326605019
 40
0.0741340326605019
 40
0.0880344230798399
 40
0.0880344230798399
 40
0.0880344230798399
 40
0.0880344230798399
 10
-9.6761102198750812
 20
-156.9996564419981
 30
0.0
 10
-9.6759100201659827
 20
-157.004290076015
 30
0.0
 10
-9.6756557710786772
 20
-157.0089115539507
 30
0.0
 10
-9.6753481394056813
 20
-157.0135212111675
 30
0.0
 10
-9.6750397471607776
 20
-157.01814226505061
 30
0.0
 10
-9.6746770488499827
 20
-157.02276131720899
 30
0.0
 10
-9.6742600177684857
 20
-157.02737870776539
 30
0.0
 11
-9.6761102198750812
 21
-156.9996564419981
 31
0.0
 11
-9.6757694666268428
 21
-157.00659781788283
 31
0.0
 11
-9.6753481394056813
 21
-157.0135212111675
 31
0.0
 11
-9.6748448181508042
 21
-157.02045133321394
 31
0.0
 11
-9.6742600177684857
 21
-157.02737870776539
 31
0.0
  0
SPLINE
  5
1D7
100
AcDbEntity
  8
0
  6
CONTINUOUS
 62
             7
100
AcDbSpline
210
0.0
220
0.0
230
1.0
 70
             0
 71
             3
 72
            11
 73
             7
 74
             5
 42
0.00000000001
 43
0.00000000001
 44
0.00000000001
 40
0.8485401432952138
 40
0.8485401432952138
 40
0.8485401432952138
 40
0.8485401432952138
 40
1.2976909589177761
 40
1.2976909589177761
 40
1.2976909589177761
 40
1.7487841215572451
 40
1.7487841215572451
 40
1.7487841215572451
 40
1.7487841215572451
 10
-49.75799470761438
 20
-157.4698829273861
 30
0.0
 10
-49.715694508057069
 20
-157.61040806825031
 30
0.0
 10
-49.665594776682092
 20
-157.75164641144841
 30
0.0
 10
-49.607785778186091
 20
-157.89303573446301
 30
0.0
 10
-49.547029538003059
 20
-158.04163342499331
 30
0.0
 10
-49.482539005665259
 20
-158.17870468940109
 30
0.0
 10
-49.418838915562183
 20
-158.30253295497511
 30
0.0
 11
-49.75799470761438
 21
-157.4698829273861
 31
0.0
 11
-49.688706042502233
 21
-157.68113526261811
 31
0.0
 11
-49.607785778186091
 21
-157.89303573446301
 31
0.0
 11
-49.514416290594141
 21
-158.10707287907763
 31
0.0
 11
-49.418838915562183
 21
-158.30253295497511
 31
0.0
  0
SPLINE
  5
1D6
100
AcDbEntity
  8
0
  6
CONTINUOUS
 62
             7
100
AcDbSpline
210
0.0
220
0.0
230
1.0
 70
             0
 71
             3
 72
            11
 73
             7
 74
             5
 42
0.00000000001
 43
0.00000000001
 44
0.00000000001
 40
0.8485401432952139
 40
0.8485401432952139
 40
0.8485401432952139
 40
0.8485401432952139
 40
0.9620910201216238
 40
0.9620910201216238
 40
0.9620910201216238
 40
1.075843792145373
 40
1.075843792145373
 40
1.075843792145373
 40
1.075843792145373
 10
-39.769928861740979
 20
-157.46988292738641
 30
0.0
 10
-39.757374715894791
 20
-157.50530971379001
 30
0.0
 10
-39.744302590672781
 20
-157.54083352726749
 30
0.0
 10
-39.730714410445792
 20
-157.57644542656971
 30
0.0
 10
-39.717286291204367
 20
-157.61163783808129
 30
0.0
 10
-39.70335770578739
 20
-157.64690709210041
 30
0.0
 10
-39.688931290341387
 20
-157.6822444487604
 30
0.0
 11
-39.769928861740979
 21
-157.46988292738641
 31
0.0
 11
-39.750709398986181
 21
-157.52309475964108
 31
0.0
 11
-39.730714410445792
 21
-157.57644542656971
 31
0.0
 11
-39.710197211470309
 21
-157.62929058323436
 31
0.0
 11
-39.688931290341387
 21
-157.6822444487604
 31
0.0
  0
SPLINE
  5
1D5
100
AcDbEntity
  8
0
  6
CONTINUOUS
 62
             7
100
AcDbSpline
210
0.0
220
0.0
230
1.0
 70
             0
 71
             3
 72
            11
 73
             7
 74
             5
 42
0.00000000001
 43
0.00000000001
 44
0.00000000001
 40
2.435038463853672
 40
2.435038463853672
 40
2.435038463853672
 40
2.435038463853672
 40
2.5923145675745012
 40
2.5923145675745012
 40
2.5923145675745012
 40
2.7493452110083698
 40
2.7493452110083698
 40
2.7493452110083698
 40
2.7493452110083698
 10
54.331830821955528
 20
-158.87235575039051
 30
0.0
 10
54.305906414256022
 20
-158.91781785563771
 30
0.0
 10
54.279261927919222
 20
-158.96297379631631
 30
0.0
 10
54.251907816303721
 20
-159.00780585905531
 30
0.0
 10
54.224687323587609
 20
-159.05241892689671
 30
0.0
 10
54.196769619890922
 20
-159.09670226142941
 30
0.0
 10
54.168165857973129
 20
-159.14063879557389
 30
0.0
 11
54.331830821955528
 21
-158.87235575039051
 31
0.0
 11
54.292405458098123
 21
-158.94031707066347
 31
0.0
 11
54.251907816303721
 21
-159.00780585905531
 31
0.0
 11
54.210555563089059
 21
-159.07447602745094
 31
0.0
 11
54.168165857973129
 21
-159.14063879557389
 31
0.0
  0
SPLINE
  5
1D4
100
AcDbEntity
  8
0
  6
CONTINUOUS
 62
             7
100
AcDbSpline
210
0.0
220
0.0
230
1.0
 70
             0
 71
             3
 72
            11
 73
             7
 74
             5
 42
0.00000000001
 43
0.00000000001
 44
0.00000000001
 40
0.8485401432952138
 40
0.8485401432952138
 40
0.8485401432952138
 40
0.8485401432952138
 40
1.6055757830575219
 40
1.6055757830575219
 40
1.6055757830575219
 40
2.3580807514503621
 40
2.3580807514503621
 40
2.3580807514503621
 40
2.3580807514503621
 10
54.875401347171909
 20
-157.46988292738621
 30
0.0
 10
54.829968531239508
 20
-157.67810300116679
 30
0.0
 10
54.761467651181121
 20
-157.92345679365749
 30
0.0
 10
54.656036128703427
 20
-158.19383051231631
 30
0.0
 10
54.578513399999323
 20
-158.3926335642663
 30
0.0
 10
54.473925042197131
 20
-158.6231734944046
 30
0.0
 10
54.331830821955528
 20
-158.87235575039051
 30
0.0
 11
54.875401347171909
 21
-157.46988292738621
 31
0.0
 11
54.78821825289215
 21
-157.8085491030219
 31
0.0
 11
54.656036128703427
 21
-158.19383051231631
 31
0.0
 11
54.518147784656037
 21
-158.51420092983994
 31
0.0
 11
54.331830821955528
 21
-158.87235575039051
 31
0.0
  0
SPLINE
  5
1D3
100
AcDbEntity
  8
0
  6
CONTINUOUS
 62
             7
100
AcDbSpline
210
0.0
220
0.0
230
1.0
 70
             0
 71
             3
 72
            11
 73
             7
 74
             5
 42
0.00000000001
 43
0.00000000001
 44
0.00000000001
 40
0.2571635624269083
 40
0.2571635624269083
 40
0.2571635624269083
 40
0.2571635624269083
 40
0.5483668240255611
 40
0.5483668240255611
 40
0.5483668240255611
 40
0.8397665888002207
 40
0.8397665888002207
 40
0.8397665888002207
 40
0.8397665888002207
 10
54.914184343087108
 20
-156.88890455170679
 30
0.0
 10
54.91351510697411
 20
-156.98670146330571
 30
0.0
 10
54.909958613779523
 20
-157.08373300691409
 30
0.0
 10
54.903568795051832
 20
-157.17988200446831
 30
0.0
 10
54.89731681847222
 20
-157.27395686112371
 30
0.0
 10
54.888114081824121
 20
-157.3707720827631
 30
0.0
 10
54.875401347171909
 20
-157.46988292738621
 30
0.0
 11
54.914184343087108
 21
-156.88890455170679
 31
0.0
 11
54.911021787549984
 21
-157.03501124585429
 31
0.0
 11
54.903568795051832
 21
-157.17988200446831
 31
0.0
 11
54.8919078553891
 21
-157.32299397043937
 31
0.0
 11
54.875401347171909
 21
-157.46988292738621
 31
0.0
  0
SPLINE
  5
1D2
100
AcDbEntity
  8
0
  6
CONTINUOUS
 62
             7
100
AcDbSpline
210
0.0
220
0.0
230
1.0
 70
             0
 71
             3
 72
            11
 73
             7
 74
             5
 42
0.00000000001
 43
0.00000000001
 44
0.00000000001
 40
0.0
 40
0.0
 40
0.0
 40
0.0
 40
0.124161288624281
 40
0.124161288624281
 40
0.124161288624281
 40
0.2483297270374922
 40
0.2483297270374922
 40
0.2483297270374922
 40
0.2483297270374922
 10
54.909715719088616
 20
-156.64063879557389
 30
0.0
 10
54.911506960715521
 20
-156.68261468348351
 30
0.0
 10
54.912750356193932
 20
-156.72398685898131
 30
0.0
 10
54.913485866574412
 20
-156.76474048150359
 30
0.0
 10
54.914246073239532
 20
-156.8068624913208
 30
0.0
 10
54.914462503051723
 20
-156.84825643821679
 30
0.0
 10
54.914184343087108
 20
-156.88890455170679
 30
0.0
 11
54.909715719088616
 21
-156.64063879557389
 31
0.0
 11
54.91199669204893
 21
-156.70314798805899
 31
0.0
 11
54.913485866574412
 21
-156.76474048150359
 31
0.0
 11
54.914224492316912
 21
-156.82737522772788
 31
0.0
 11
54.914184343087108
 21
-156.88890455170679
 31
0.0
  0
SPLINE
  5
1D1
100
AcDbEntity
  8
0
  6
CONTINUOUS
 62
             7
100
AcDbSpline
210
0.0
220
0.0
230
1.0
 70
             0
 71
             3
 72
            38
 73
            34
 74
            23
 42
0.00000000001
 43
0.00000000001
 44
0.00000000001
 40
0.0
 40
0.0
 40
0.0
 40
0.0
 40
0.2597143021337329
 40
0.2597143021337329
 40
0.2597143021337329
 40
0.5145688885843092
 40
0.5145688885843092
 40
0.5145688885843092
 40
1.0295328137856261
 40
1.0295328137856261
 40
1.0295328137856261
 40
1.457068080005828
 40
1.457068080005828
 40
1.457068080005828
 40
1.8895575506398989
 40
1.8895575506398989
 40
1.8895575506398989
 40
2.225818134609804
 40
2.225818134609804
 40
2.225818134609804
 40
2.567859588362706
 40
2.567859588362706
 40
2.567859588362706
 40
2.9161241183539128
 40
2.9161241183539128
 40
2.9161241183539128
 40
3.2682708088828769
 40
3.2682708088828769
 40
3.2682708088828769
 40
3.601966358335166
 40
3.601966358335166
 40
3.601966358335166
 40
3.9522267127472448
 40
3.9522267127472448
 40
3.9522267127472448
 40
3.9522267127472448
 10
15.9313775168267
 20
-270.50000000000023
 30
0.0
 10
16.016478289058231
 20
-270.50000000000023
 30
0.0
 10
16.10304326081112
 20
-270.49417331060693
 30
0.0
 10
16.190308470804609
 20
-270.48197260713943
 30
0.0
 10
16.283989063571919
 20
-270.46887495765122
 30
0.0
 10
16.36755025396964
 20
-270.44995996637391
 30
0.0
 10
16.439587693919218
 20
-270.42966594083379
 30
0.0
 10
16.57941597522353
 20
-270.3902742201675
 30
0.0
 10
16.74085967328762
 20
-270.32736666524488
 30
0.0
 10
16.911043659018819
 20
-270.22534589771192
 30
0.0
 10
17.032414957381601
 20
-270.15258703639921
 30
0.0
 10
17.146622494555601
 20
-270.06689238181127
 30
0.0
 10
17.25323662454861
 20
-269.96992076170648
 30
0.0
 10
17.341700181921031
 20
-269.88945812059887
 30
0.0
 10
17.442449978260811
 20
-269.78530544956573
 30
0.0
 10
17.54585276187942
 20
-269.65200022517752
 30
0.0
 10
17.60514056196601
 20
-269.57556733606731
 30
0.0
 10
17.66995766069002
 20
-269.48354649134421
 30
0.0
 10
17.73562183456713
 20
-269.37458057364779
 30
0.0
 10
17.800002254551519
 20
-269.26774497165849
 30
0.0
 10
17.85281967544373
 20
-269.16515944919541
 30
0.0
 10
17.89582521652272
 20
-269.07251682509622
 30
0.0
 10
17.94387693869891
 20
-268.96900370740917
 30
0.0
 10
17.987443331290219
 20
-268.86117657244688
 30
0.0
 10
18.026069478374929
 20
-268.74964366564637
 30
0.0
 10
18.068435086796111
 20
-268.62731307323099
 30
0.0
 10
18.100475124260299
 20
-268.51318044635087
 30
0.0
 10
18.124939867759419
 20
-268.41176858483891
 30
0.0
 10
18.15330307447633
 20
-268.29419671690943
 30
0.0
 10
18.17379207836473
 20
-268.1841547323429
 30
0.0
 10
18.188768102421701
 20
-268.08431631870673
 30
0.0
 10
18.20738678676171
 20
-267.96019392804891
 30
0.0
 10
18.21873152596832
 20
-267.84352747831468
 30
0.0
 10
18.22535739933252
 20
-267.73605727091302
 30
0.0
 11
15.9313775168267
 21
-270.50000000000023
 31
0.0
 11
16.060031329654919
 21
-270.49556156737015
 31
0.0
 11
16.190308470804609
 21
-270.48197260713943
 31
0.0
 11
16.323064264668563
 21
-270.4585179150061
 31
0.0
 11
16.439587693919218
 21
-270.42966594083379
 31
0.0
 11
16.663932287308938
 21
-270.35099181184785
 31
0.0
 11
16.911043659018819
 21
-270.22534589771192
 31
0.0
 11
17.087674079922376
 21
-270.10671311425619
 31
0.0
 11
17.25323662454861
 21
-269.96992076170648
 31
0.0
 11
17.393942483371692
 21
-269.8307764621722
 31
0.0
 11
17.54585276187942
 21
-269.65200022517752
 31
0.0
 11
17.638346158051831
 21
-269.52549028513249
 31
0.0
 11
17.73562183456713
 21
-269.37458057364779
 31
0.0
 11
17.82373910513445
 21
-269.21822633266322
 31
0.0
 11
17.89582521652272
 21
-269.07251682509622
 31
0.0
 11
17.964481938108129
 21
-268.91408766628888
 31
0.0
 11
18.026069478374929
 21
-268.74964366564637
 31
0.0
 11
18.082217497412948
 21
-268.57286160115387
 31
0.0
 11
18.124939867759419
 21
-268.41176858483891
 31
0.0
 11
18.161874178588036
 21
-268.24139240641284
 31
0.0
 11
18.188768102421701
 21
-268.08431631870673
 31
0.0
 11
18.211560054993036
 21
-267.90394222608876
 31
0.0
 11
18.22535739933252
 21
-267.73605727091302
 31
0.0
  0
SPLINE
  5
1D0
100
AcDbEntity
  8
0
  6
CONTINUOUS
 62
             7
100
AcDbSpline
210
0.0
220
0.0
230
1.0
 70
             0
 71
             6
 72
            15
 73
             8
 74
            11
 42
0.00000000001
 43
0.00000000001
 44
0.00000000001
 40
0.0
 40
0.0
 40
0.0
 40
0.0
 40
0.0
 40
0.0
 40
0.0
 40
0.5
 40
1.0
 40
1.0
 40
1.0
 40
1.0
 40
1.0
 40
1.0
 40
1.0
 10
21.974509137619219
 20
-270.50000000000023
 30
0.0
 10
21.96537925859591
 20
-270.50000000000023
 30
0.0
 10
21.94711966247451
 20
-270.45927398299659
 30
0.0
 10
21.92997437652912
 20
-270.33708998678293
 30
0.0
 10
21.916180777321109
 20
-270.14176990459742
 30
0.0
 10
21.907487390993829
 20
-269.89807321093338
 30
0.0
 10
21.90449444485952
 20
-269.6378590426956
 30
0.0
 10
21.904425093170911
 20
-269.50759612349401
 30
0.0
 11
21.974509137619219
 21
-270.50000000000023
 31
0.0
 11
21.963597858826315
 21
-270.48780691308775
 31
0.0
 11
21.952952645428887
 21
-270.45152487922235
 31
0.0
 11
21.942833116256605
 21
-270.39203879225778
 31
0.0
 11
21.933486056971741
 21
-270.31079925567838
 31
0.0
 11
21.925139390915607
 21
-270.20978731019221
 31
0.0
 11
21.917996662932207
 21
-270.0914663845457
 31
0.0
 11
21.912232066223169
 21
-269.95872189513256
 31
0.0
 11
21.907986171467179
 21
-269.81479074916604
 31
0.0
 11
21.905362517437453
 21
-269.66318300618946
 31
0.0
 11
21.904425093170911
 21
-269.50759612349401
 31
0.0
  0
SPLINE
  5
1CF
100
AcDbEntity
  8
0
  6
CONTINUOUS
 62
             7
100
AcDbSpline
210
0.0
220
0.0
230
1.0
 70
             0
 71
             6
 72
            15
 73
             8
 74
             5
 42
0.00000000001
 43
0.00000000001
 44
0.00000000001
 40
0.0
 40
0.0
 40
0.0
 40
0.0
 40
0.0
 40
0.0
 40
0.0
 40
0.5
 40
1.0
 40
1.0
 40
1.0
 40
1.0
 40
1.0
 40
1.0
 40
1.0
 10
15.587163770604599
 20
-270.50000000000023
 30
0.0
 10
15.50339699813243
 20
-270.50000000000023
 30
0.0
 10
15.335864938864921
 20
-270.45927398299659
 30
0.0
 10
15.178556691571711
 20
-270.33708998678293
 30
0.0
 10
15.05200021882343
 20
-270.14176990459742
 30
0.0
 10
14.97223827311312
 20
-269.89807321093338
 30
0.0
 10
14.9447779489347
 20
-269.6378590426956
 30
0.0
 10
14.944141646186321
 20
-269.50759612349412
 30
0.0
 11
15.587163770604599
 21
-270.50000000000023
 31
0.0
 11
15.342211386324989
 21
-270.42460458755369
 31
0.0
 11
15.134195628465898
 21
-270.20978731019221
 31
0.0
 11
14.994483253030287
 21
-269.88794070874314
 31
0.0
 11
14.944141646186321
 21
-269.50759612349412
 31
0.0
  0
SPLINE
  5
1CE
100
AcDbEntity
  8
0
  6
CONTINUOUS
 62
             7
100
AcDbSpline
210
0.0
220
0.0
230
1.0
 70
             0
 71
             6
 72
            15
 73
             8
 74
             5
 42
0.00000000001
 43
0.00000000001
 44
0.00000000001
 40
0.0
 40
0.0
 40
0.0
 40
0.0
 40
0.0
 40
0.0
 40
0.0
 40
0.5
 40
1.0
 40
1.0
 40
1.0
 40
1.0
 40
1.0
 40
1.0
 40
1.0
 10
3.2460516314301091
 20
-270.50000000000023
 30
0.0
 10
3.1196440254654219
 20
-270.50000000000023
 30
0.0
 10
2.8668310554868159
 20
-270.45927398299659
 30
0.0
 10
2.6294462506012088
 20
-270.33708998678293
 30
0.0
 10
2.4384671754062062
 20
-270.14176990459742
 30
0.0
 10
2.3181030225652282
 20
-269.89807321093338
 30
0.0
 10
2.2766642308369032
 20
-269.6378590426956
 30
0.0
 10
2.2757040230514209
 20
-269.50759612349401
 30
0.0
 11
3.2460516314301091
 21
-270.50000000000023
 31
0.0
 11
2.8764081133825208
 21
-270.42460458755369
 31
0.0
 11
2.5625035283323965
 21
-270.20978731019221
 31
0.0
 11
2.3516716390134351
 21
-269.88794070874314
 31
0.0
 11
2.2757040230514209
 21
-269.50759612349401
 31
0.0
  0
SPLINE
  5
1CD
100
AcDbEntity
  8
0
  6
CONTINUOUS
 62
             7
100
AcDbSpline
210
0.0
220
0.0
230
1.0
 70
             0
 71
             3
 72
            32
 73
            28
 74
            19
 42
0.00000000001
 43
0.00000000001
 44
0.00000000001
 40
0.0
 40
0.0
 40
0.0
 40
0.0
 40
0.7467725652340529
 40
0.7467725652340529
 40
0.7467725652340529
 40
1.472372745357218
 40
1.472372745357218
 40
1.472372745357218
 40
2.1989577366916611
 40
2.1989577366916611
 40
2.1989577366916611
 40
2.5630723458813258
 40
2.5630723458813258
 40
2.5630723458813258
 40
2.9275840442629462
 40
2.9275840442629462
 40
2.9275840442629462
 40
3.2926523712172409
 40
3.2926523712172409
 40
3.2926523712172409
 40
3.658153064091791
 40
3.658153064091791
 40
3.658153064091791
 40
4.0352991996865342
 40
4.0352991996865342
 40
4.0352991996865342
 40
4.4126503925300886
 40
4.4126503925300886
 40
4.4126503925300886
 40
4.4126503925300886
 10
22.050660144344629
 20
-270.50000000000023
 30
0.0
 10
22.29399862644344
 20
-270.50000000000023
 30
0.0
 10
22.54284600656192
 20
-270.46946446537629
 30
0.0
 10
22.789795861790719
 20
-270.40478680023352
 30
0.0
 10
23.02455988930512
 20
-270.34330067729121
 30
0.0
 10
23.250275803843529
 20
-270.25287931279792
 30
0.0
 10
23.462196157292919
 20
-270.13582038609258
 30
0.0
 10
23.67463314257671
 20
-270.01847608628822
 30
0.0
 10
23.87162886610432
 20
-269.87523535138189
 30
0.0
 10
24.048948357101128
 20
-269.70962389594729
 30
0.0
 10
24.13767259665503
 20
-269.62675793258251
 30
0.0
 10
24.221245781034099
 20
-269.53850105953359
 30
0.0
 10
24.299210088446308
 20
-269.44538111376153
 30
0.0
 10
24.36854887414373
 20
-269.36256342220042
 30
0.0
 10
24.44251890319882
 20
-269.2650695298405
 30
0.0
 10
24.515616252252819
 20
-269.15227107735092
 30
0.0
 10
24.58154045038652
 20
-269.0505417037507
 30
0.0
 10
24.64150978056183
 20
-268.94445730564632
 30
0.0
 10
24.695039241018801
 20
-268.83453112738681
 30
0.0
 10
24.747759693797729
 20
-268.72626629825112
 30
0.0
 10
24.79455680320882
 20
-268.61361089547148
 30
0.0
 10
24.834719546503809
 20
-268.49695630320332
 30
0.0
 10
24.87350208157082
 20
-268.38431059117812
 30
0.0
 10
24.9077621149961
 20
-268.26310299393162
 30
0.0
 10
24.934979858130632
 20
-268.13357039751259
 30
0.0
 10
24.963087830452711
 20
-267.99980109059561
 30
0.0
 10
24.980047305469331
 20
-267.87446915767742
 30
0.0
 10
24.989820418446531
 20
-267.76040206643211
 30
0.0
 11
22.050660144344629
 21
-270.50000000000023
 31
0.0
 11
22.41887373814393
 21
-270.4766475245454
 31
0.0
 11
22.789795861790719
 21
-270.40478680023352
 31
0.0
 11
23.134562387316201
 21
-270.29114339457419
 31
0.0
 11
23.462196157292919
 21
-270.13582038609258
 31
0.0
 11
23.768741317554642
 21
-269.94082232438126
 31
0.0
 11
24.048948357101128
 21
-269.70962389594729
 31
0.0
 11
24.178114197326853
 21
-269.58134774825714
 31
0.0
 11
24.299210088446308
 21
-269.44538111376153
 31
0.0
 11
24.406003709090847
 21
-269.3100688809044
 31
0.0
 11
24.515616252252819
 21
-269.15227107735092
 31
0.0
 11
24.609975773264583
 21
-268.9964749041161
 31
0.0
 11
24.695039241018801
 21
-268.83453112738681
 31
0.0
 11
24.769588534817789
 21
-268.66888987646979
 31
0.0
 11
24.834719546503809
 21
-268.49695630320332
 31
0.0
 11
24.889186499291903
 21
-268.32159593200561
 31
0.0
 11
24.934979858130632
 21
-268.13357039751259
 31
0.0
 11
24.96927571054291
 21
-267.9395979010954
 31
0.0
 11
24.989820418446531
 21
-267.76040206643211
 31
0.0
  0
SPLINE
  5
1CC
100
AcDbEntity
  8
0
  6
CONTINUOUS
 62
             7
100
AcDbSpline
210
0.0
220
0.0
230
1.0
 70
             0
 71
             3
 72
            41
 73
            37
 74
            25
 42
0.00000000001
 43
0.00000000001
 44
0.00000000001
 40
0.0
 40
0.0
 40
0.0
 40
0.0
 40
0.3140900625477539
 40
0.3140900625477539
 40
0.3140900625477539
 40
0.550880000503462
 40
0.550880000503462
 40
0.550880000503462
 40
0.7861549664007799
 40
0.7861549664007799
 40
0.7861549664007799
 40
0.9740569903415942
 40
0.9740569903415942
 40
0.9740569903415942
 40
1.1509386763945411
 40
1.1509386763945411
 40
1.1509386763945411
 40
1.4068544405889609
 40
1.4068544405889609
 40
1.4068544405889609
 40
1.5629915070162459
 40
1.5629915070162459
 40
1.5629915070162459
 40
1.726747087801646
 40
1.726747087801646
 40
1.726747087801646
 40
2.1392425791876182
 40
2.1392425791876182
 40
2.1392425791876182
 40
2.6236520356591519
 40
2.6236520356591519
 40
2.6236520356591519
 40
3.0090993769610459
 40
3.0090993769610459
 40
3.0090993769610459
 40
3.39979937763799
 40
3.39979937763799
 40
3.39979937763799
 40
3.39979937763799
 10
3.7268501654868129
 20
-270.50000000000023
 30
0.0
 10
3.8345080192386312
 20
-270.50000000000023
 30
0.0
 10
3.9386614112025069
 20
-270.48286670595849
 30
0.0
 10
4.036210934096804
 20
-270.45150038330053
 30
0.0
 10
4.126254427153814
 20
-270.42254756864099
 30
0.0
 10
4.1983907317128093
 20
-270.38542462262433
 30
0.0
 10
4.2512707708472171
 20
-270.3533802337422
 30
0.0
 10
4.31791988219641
 20
-270.31299202530522
 30
0.0
 10
4.3802224489304287
 20
-270.26475193751372
 30
0.0
 10
4.4367569417419226
 20
-270.20928103899172
 30
0.0
 10
4.4800036859372234
 20
-270.16684790411477
 30
0.0
 10
4.5208855484945083
 20
-270.11919189082079
 30
0.0
 10
4.5581680775003157
 20
-270.06612683136092
 30
0.0
 10
4.5959038070138307
 20
-270.01241672145699
 30
0.0
 10
4.6248795092921036
 20
-269.96038741366539
 30
0.0
 10
4.6473244491579102
 20
-269.91353370478492
 30
0.0
 10
4.6865604048097147
 20
-269.83162882757222
 30
0.0
 10
4.7129983622058127
 20
-269.75061814226069
 30
0.0
 10
4.732603877155416
 20
-269.6725900704181
 30
0.0
 10
4.7441098309206247
 20
-269.62679747637952
 30
0.0
 10
4.7546138358080192
 20
-269.57663650284019
 30
0.0
 10
4.7644696026613111
 20
-269.51976691505217
 30
0.0
 10
4.7723087782362121
 20
-269.47453342990821
 30
0.0
 10
4.7803657958499217
 20
-269.42143149780878
 30
0.0
 10
4.788515748302931
 20
-269.35779625485651
 30
0.0
 10
4.7994137265240262
 20
-269.27270428704662
 30
0.0
 10
4.8139637533617234
 20
-269.14165208495427
 30
0.0
 10
4.828759925957204
 20
-268.9473014177014
 30
0.0
 10
4.8400053335399242
 20
-268.79959075447891
 30
0.0
 10
4.8497716880551174
 20
-268.63655869031328
 30
0.0
 10
4.857794870742314
 20
-268.4637757172211
 30
0.0
 10
4.8625428368915236
 20
-268.36152605653228
 30
0.0
 10
4.867793272333703
 20
-268.2319044367855
 30
0.0
 10
4.8722853452167136
 20
-268.07860434771271
 30
0.0
 10
4.8759777901792107
 20
-267.9525930036429
 30
0.0
 10
4.8788253451642207
 20
-267.82192372938982
 30
0.0
 10
4.8806743482380206
 20
-267.68799644614489
 30
0.0
 11
3.7268501654868129
 21
-270.50000000000023
 31
0.0
 11
3.8853211738633786
 21
-270.48751256264711
 31
0.0
 11
4.036210934096804
 21
-270.45150038330053
 31
0.0
 11
4.1576771476929864
 21
-270.40359964885482
 31
0.0
 11
4.2512707708472171
 21
-270.3533802337422
 31
0.0
 11
4.347806838246207
 21
-270.28698664514883
 31
0.0
 11
4.4367569417419226
 21
-270.20928103899172
 31
0.0
 11
4.4996990903171783
 21
-270.14169090689489
 31
0.0
 11
4.5581680775003157
 21
-270.06612683136092
 31
0.0
 11
4.6084803094470042
 21
-269.98725911768912
 31
0.0
 11
4.6473244491579102
 21
-269.91353370478492
 31
0.0
 11
4.6973255784199885
 21
-269.79160808558771
 31
0.0
 11
4.732603877155416
 21
-269.6725900704181
 31
0.0
 11
4.7491555600003315
 21
-269.60033236539113
 31
0.0
 11
4.7644696026613111
 21
-269.51976691505217
 31
0.0
 11
4.776376134152831
 21
-269.44568224413246
 31
0.0
 11
4.788515748302931
 21
-269.35779625485651
 31
0.0
 11
4.8071760142396727
 21
-269.19352084857007
 31
0.0
 11
4.828759925957204
 21
-268.9473014177014
 31
0.0
 11
4.8444857326855804
 21
-268.71494068366235
 31
0.0
 11
4.857794870742314
 21
-268.4637757172211
 31
0.0
 11
4.8651360679543387
 21
-268.29033394311091
 31
0.0
 11
4.8722853452167136
 21
-268.07860434771271
 31
0.0
 11
4.8771711374356288
 21
-267.88626887411948
 31
0.0
 11
4.8806743482380206
 21
-267.68799644614489
 31
0.0
  0
SPLINE
  5
1CB
100
AcDbEntity
  8
0
  6
CONTINUOUS
 62
             7
100
AcDbSpline
210
0.0
220
0.0
230
1.0
 70
             0
 71
             3
 72
            26
 73
            22
 74
            15
 42
0.00000000001
 43
0.00000000001
 44
0.00000000001
 40
0.0
 40
0.0
 40
0.0
 40
0.0
 40
0.1312668367759151
 40
0.1312668367759151
 40
0.1312668367759151
 40
0.3244056868330871
 40
0.3244056868330871
 40
0.3244056868330871
 40
0.5394591214702957
 40
0.5394591214702957
 40
0.5394591214702957
 40
0.7991546950454185
 40
0.7991546950454185
 40
0.7991546950454185
 40
0.9924657250241826
 40
0.9924657250241826
 40
0.9924657250241826
 40
1.143060423642088
 40
1.143060423642088
 40
1.143060423642088
 40
1.2999424193240241
 40
1.2999424193240241
 40
1.2999424193240241
 40
1.2999424193240241
 10
2.4715575644833079
 20
-270.50000000000011
 30
0.0
 10
2.4215874766040062
 20
-270.50000000000011
 30
0.0
 10
2.3776105632731261
 20
-270.49342868417881
 30
0.0
 10
2.3413584272276222
 20
-270.48504950726038
 30
0.0
 10
2.2798553198650242
 20
-270.47083391960609
 30
0.0
 10
2.2198629904006029
 20
-270.44662133844281
 30
0.0
 10
2.1627656702452249
 20
-270.41300539293348
 30
0.0
 10
2.117708932640912
 20
-270.38647831894809
 30
0.0
 10
2.0580314556239081
 20
-270.3444452843554
 30
0.0
 10
1.9957217140149099
 20
-270.27841451011159
 30
0.0
 10
1.9384591207836239
 20
-270.21773229143071
 30
0.0
 10
1.888100971036127
 20
-270.14644447976718
 30
0.0
 10
1.84628654274633
 20
-270.06675825866739
 30
0.0
 10
1.8118821180177109
 20
-270.00119336377668
 30
0.0
 10
1.7881979384499149
 20
-269.93935434127928
 30
0.0
 10
1.7718376516431289
 20
-269.8885508515537
 30
0.0
 10
1.7546222460291041
 20
-269.83509196708752
 30
0.0
 10
1.7428486795697069
 20
-269.78555948365448
 30
0.0
 10
1.734654148792405
 20
-269.74269182081838
 30
0.0
 10
1.724891323748327
 20
-269.69162001406181
 30
0.0
 10
1.7182224931341099
 20
-269.63961489675518
 30
0.0
 10
1.7147144756330051
 20
-269.58715574274783
 30
0.0
 11
2.4715575644833079
 21
-270.50000000000011
 31
0.0
 11
2.4013137639177908
 21
-270.49566694497469
 31
0.0
 11
2.3413584272276222
 21
-270.48504950726038
 31
0.0
 11
2.2504098785337159
 21
-270.45630258429259
 31
0.0
 11
2.1627656702452249
 21
-270.41300539293348
 31
0.0
 11
2.0857135686318244
 21
-270.36052383911942
 31
0.0
 11
1.9957217140149099
 21
-270.27841451011159
 31
0.0
 11
1.9152110665275617
 21
-270.17971288529662
 31
0.0
 11
1.84628654274633
 21
-270.06675825866739
 31
0.0
 11
1.8022955454740419
 21
-269.97211902817361
 31
0.0
 11
1.7718376516431289
 21
-269.8885508515537
 31
0.0
 11
1.7498630721539956
 21
-269.81164962807469
 31
0.0
 11
1.734654148792405
 21
-269.74269182081838
 31
0.0
 11
1.7223387593840902
 21
-269.66544403700215
 31
0.0
 11
1.7147144756330051
 21
-269.58715574274783
 31
0.0
  0
SPLINE
  5
1CA
100
AcDbEntity
  8
0
  6
CONTINUOUS
 62
             7
100
AcDbSpline
210
0.0
220
0.0
230
1.0
 70
             0
 71
             3
 72
            11
 73
             7
 74
             5
 42
0.00000000001
 43
0.00000000001
 44
0.00000000001
 40
127.2848313144622
 40
127.2848313144622
 40
127.2848313144622
 40
127.2848313144622
 40
158.2876988855665
 40
158.2876988855665
 40
158.2876988855665
 40
189.2906737191112
 40
189.2906737191112
 40
189.2906737191112
 40
189.2906737191112
 10
1.7539333357116249
 20
-266.50000000000881
 30
0.0
 10
1.8870882994304199
 20
-256.80891766402573
 30
0.0
 10
2.0287199690846229
 20
-246.49611837590359
 30
0.0
 10
2.1796735927232218
 20
-235.5000557604308
 30
0.0
 10
2.3136885784276191
 20
-225.73787093375111
 30
0.0
 10
2.4552765585260121
 20
-215.42071684293609
 30
0.0
 10
2.60510439960763
 20
-204.49999999993611
 30
0.0
 11
1.7539333357116249
 21
-266.50000000000881
 31
0.0
 11
1.960128966747497
 21
-251.48939548502844
 31
0.0
 11
2.1796735927232218
 21
-235.5000557604308
 31
0.0
 11
2.3864591753989681
 21
-220.43447738630354
 31
0.0
 11
2.60510439960763
 21
-204.49999999993611
 31
0.0
  0
SPLINE
  5
1C9
100
AcDbEntity
  8
0
  6
CONTINUOUS
 62
             7
100
AcDbSpline
210
0.0
220
0.0
230
1.0
 70
             0
 71
             6
 72
            14
 73
             7
 74
             5
 42
0.00000000001
 43
0.00000000001
 44
0.00000000001
 40
0.0
 40
0.0
 40
0.0
 40
0.0
 40
0.0
 40
0.0
 40
0.0
 40
1.0
 40
1.0
 40
1.0
 40
1.0
 40
1.0
 40
1.0
 40
1.0
 10
2.2757040230514209
 20
-269.50759612349401
 30
0.0
 10
2.395391861545225
 20
-269.50759612349412
 30
0.0
 10
2.5105154987769289
 20
-269.3398619816557
 30
0.0
 10
2.6120636797685139
 20
-269.03890987861269
 30
0.0
 10
2.6910251495431261
 20
-268.63925599506968
 30
0.0
 10
2.7383886531225161
 20
-268.17541651163401
 30
0.0
 10
2.7451429355293189
 20
-267.68190760898938
 30
0.0
 11
2.2757040230514209
 21
-269.50759612349401
 31
0.0
 11
2.4481408249283318
 21
-269.36113167197198
 31
0.0
 11
2.5951236463555984
 21
-268.9648835432248
 31
0.0
 11
2.6997563842502803
 21
-268.38356957598779
 31
0.0
 11
2.7451429355293189
 21
-267.68190760898938
 31
0.0
  0
SPLINE
  5
1C8
100
AcDbEntity
  8
0
  6
CONTINUOUS
 62
             7
100
AcDbSpline
210
0.0
220
0.0
230
1.0
 70
             0
 71
             3
 72
            11
 73
             7
 74
             5
 42
0.00000000001
 43
0.00000000001
 44
0.00000000001
 40
341346.99645656277
 40
341346.99645656277
 40
341346.99645656277
 40
341346.99645656277
 40
341348.50314562052
 40
341348.50314562052
 40
341348.50314562052
 40
341350.00983450213
 40
341350.00983450213
 40
341350.00983450213
 40
341350.00983450213
 10
13.34580696291321
 20
-266.49999999999301
 30
0.0
 10
13.31471029410031
 20
-267.00128376414381
 30
0.0
 10
13.28361635081481
 20
-267.50251461807932
 30
0.0
 10
13.25251856530933
 20
-268.00379825489279
 30
0.0
 10
13.22142151684881
 20
-268.50507001083997
 30
0.0
 10
13.19032497192593
 20
-269.00632449742233
 30
0.0
 10
13.159226784547119
 20
-269.50759612349401
 30
0.0
 11
13.34580696291321
 21
-266.49999999999301
 31
0.0
 11
13.299163182872789
 21
-267.25189917516536
 31
0.0
 11
13.25251856530933
 21
-268.00379825489279
 31
0.0
 11
13.205873102024384
 21
-268.75569723786765
 31
0.0
 11
13.159226784547119
 21
-269.50759612349401
 31
0.0
  0
SPLINE
  5
1C7
100
AcDbEntity
  8
0
  6
CONTINUOUS
 62
             7
100
AcDbSpline
210
0.0
220
0.0
230
1.0
 70
             0
 71
             6
 72
            14
 73
             7
 74
             3
 42
0.00000000001
 43
0.00000000001
 44
0.00000000001
 40
0.0
 40
0.0
 40
0.0
 40
0.0
 40
0.0
 40
0.0
 40
0.0
 40
1.0
 40
1.0
 40
1.0
 40
1.0
 40
1.0
 40
1.0
 40
1.0
 10
21.904425093170911
 20
-269.50759612349401
 30
0.0
 10
22.398600920064219
 20
-269.50759612349412
 30
0.0
 10
22.878947459506019
 20
-269.3398619816557
 30
0.0
 10
23.307226258607109
 20
-269.03890987861269
 30
0.0
 10
23.645198864489409
 20
-268.63925599506968
 30
0.0
 10
23.85462682425953
 20
-268.17541651163401
 30
0.0
 10
23.897271685036319
 20
-267.68190760898938
 30
0.0
 11
21.904425093170911
 21
-269.50759612349401
 31
0.0
 11
23.239496613690985
 21
-268.9648835432248
 31
0.0
 11
23.897271685036319
 21
-267.68190760898938
 31
0.0
  0
SPLINE
  5
1C6
100
AcDbEntity
  8
0
  6
CONTINUOUS
 62
             7
100
AcDbSpline
210
0.0
220
0.0
230
1.0
 70
             0
 71
             3
 72
            11
 73
             7
 74
             5
 42
0.00000000001
 43
0.00000000001
 44
0.00000000001
 40
396019.3429375955
 40
396019.3429375955
 40
396019.3429375955
 40
396019.3429375955
 40
396020.85236875538
 40
396020.85236875538
 40
396020.85236875538
 40
396022.36179991101
 40
396022.36179991101
 40
396022.36179991101
 40
396022.36179991101
 10
19.840035937572232
 20
-266.50000000000063
 30
0.0
 10
19.79660977859362
 20
-267.00126419392831
 30
0.0
 10
19.753182358158821
 20
-267.50253457776557
 30
0.0
 10
19.7097547615096
 20
-268.00379845865967
 30
0.0
 10
19.666327031141929
 20
-268.50506388300278
 30
0.0
 10
19.62289841009661
 20
-269.0063310511714
 30
0.0
 10
19.5794692162481
 20
-269.50759612349401
 30
0.0
 11
19.840035937572232
 21
-266.50000000000063
 31
0.0
 11
19.774895888664879
 21
-267.25189934674671
 31
0.0
 11
19.7097547615096
 21
-268.00379845865967
 31
0.0
 11
19.644612537684161
 21
-268.75569742308443
 31
0.0
 11
19.5794692162481
 21
-269.50759612349401
 31
0.0
  0
SPLINE
  5
1C5
100
AcDbEntity
  8
0
  6
CONTINUOUS
 62
             7
100
AcDbSpline
210
0.0
220
0.0
230
1.0
 70
             0
 71
             6
 72
            15
 73
             8
 74
            21
 42
0.00000000001
 43
0.00000000001
 44
0.00000000001
 40
0.0
 40
0.0
 40
0.0
 40
0.0
 40
0.0
 40
0.0
 40
0.0
 40
0.5
 40
0.5281267947504319
 40
0.5281267947504319
 40
0.5281267947504319
 40
0.5281267947504319
 40
0.5281267947504319
 40
0.5281267947504319
 40
0.5281267947504319
 10
17.93168151715011
 20
-267.76146722824308
 30
0.0
 10
18.01909935273892
 20
-267.76146722824308
 30
0.0
 10
18.097788187416199
 20
-267.75977884409031
 30
0.0
 10
18.159381835091128
 20
-267.75630700420101
 30
0.0
 10
18.20173964481711
 20
-267.75113831924438
 30
0.0
 10
18.223746316900112
 20
-267.74444996500807
 30
0.0
 10
18.225330913979729
 20
-267.73648504612783
 30
0.0
 10
18.22535739933252
 20
-267.73605727091302
 30
0.0
 11
17.93168151715011
 21
-267.76146722824308
 31
0.0
 11
17.960214501375777
 21
-267.76139323546647
 31
0.0
 11
17.987502960440978
 21
-267.76117138204472
 31
0.0
 11
18.013500576349337
 21
-267.76080204407134
 31
0.0
 11
18.038163212925344
 21
-267.76028584852673
 31
0.0
 11
18.061448994438745
 21
-267.7596236720168
 31
0.0
 11
18.08331837951178
 21
-267.75881663913179
 31
0.0
 11
18.103734230309431
 21
-267.75786612042776
 31
0.0
 11
18.122661877012558
 21
-267.75677373002605
 31
0.0
 11
18.14006917757397
 21
-267.75554132283611
 31
0.0
 11
18.155926572757455
 21
-267.7541709913973
 31
0.0
 11
18.170207136459723
 21
-267.75266506234232
 31
0.0
 11
18.182886621315259
 21
-267.75102609248046
 31
0.0
 11
18.193943499584151
 21
-267.74925686450263
 31
0.0
 11
18.203358999322841
 21
-267.74736038230657
 31
0.0
 11
18.211117135837757
 21
-267.74533986594241
 31
0.0
 11
18.217204738421977
 21
-267.74319874618004
 31
0.0
 11
18.221611472374718
 21
-267.74094065869571
 31
0.0
 11
18.224329856303818
 21
-267.73856943788076
 31
0.0
 11
18.225060771799864
 21
-267.73732706807749
 31
0.0
 11
18.22535739933252
 21
-267.73605727091302
 31
0.0
  0
SPLINE
  5
1C4
100
AcDbEntity
  8
0
  6
CONTINUOUS
 62
             7
100
AcDbSpline
210
0.0
220
0.0
230
1.0
 70
             0
 71
             3
 72
            11
 73
             7
 74
             5
 42
0.00000000001
 43
0.00000000001
 44
0.00000000001
 40
0.052348231371132
 40
0.052348231371132
 40
0.052348231371132
 40
0.052348231371132
 40
0.092206794599276
 40
0.092206794599276
 40
0.092206794599276
 40
0.1321473380810921
 40
0.1321473380810921
 40
0.1321473380810921
 40
0.1321473380810921
 10
19.573304878926219
 20
-269.5871557427497
 30
0.0
 10
19.57420828139632
 20
-269.57392742527958
 30
0.0
 10
19.575174264129711
 20
-269.56067439244129
 30
0.0
 10
19.576202575128729
 20
-269.54740275386439
 30
0.0
 10
19.577229926187609
 20
-269.5341435045147
 30
0.0
 10
19.57831895425031
 20
-269.52087258829692
 30
0.0
 10
19.5794692162481
 20
-269.50759612349401
 30
0.0
 11
19.573304878926219
 21
-269.5871557427497
 31
0.0
 11
19.574706886329128
 21
-269.5672954937221
 31
0.0
 11
19.576202575128729
 21
-269.54740275386439
 31
0.0
 11
19.577789804086326
 21
-269.52750589447413
 31
0.0
 11
19.5794692162481
 21
-269.50759612349401
 31
0.0
  0
SPLINE
  5
1C3
100
AcDbEntity
  8
0
  6
CONTINUOUS
 62
             7
100
AcDbSpline
210
0.0
220
0.0
230
1.0
 70
             0
 71
             3
 72
            26
 73
            22
 74
            15
 42
0.00000000001
 43
0.00000000001
 44
0.00000000001
 40
0.0
 40
0.0
 40
0.0
 40
0.0
 40
0.1415581764804372
 40
0.1415581764804372
 40
0.1415581764804372
 40
0.3456406338259088
 40
0.3456406338259088
 40
0.3456406338259088
 40
0.5674077271494264
 40
0.5674077271494264
 40
0.5674077271494264
 40
0.6943858036530095
 40
0.6943858036530095
 40
0.6943858036530095
 40
0.8306079886197323
 40
0.8306079886197323
 40
0.8306079886197323
 40
1.024765109886334
 40
1.024765109886334
 40
1.024765109886334
 40
1.3323799991919569
 40
1.3323799991919569
 40
1.3323799991919569
 40
1.3323799991919569
 10
18.776721870558699
 20
-270.50000000000011
 30
0.0
 10
18.82391503682803
 20
-270.50000000000011
 30
0.0
 10
18.87094405626662
 20
-270.49502585010578
 30
0.0
 10
18.917287995203228
 20
-270.48504950726038
 30
0.0
 10
18.99649101888642
 20
-270.46799967211939
 30
0.0
 10
19.060636193334521
 20
-270.43915778378431
 30
0.0
 10
19.107632998840309
 20
-270.41300539293343
 30
0.0
 10
19.156129414526632
 20
-270.38601851150111
 30
0.0
 10
19.21862718654182
 20
-270.3439455580214
 30
0.0
 10
19.283178507651829
 20
-270.2784145101117
 30
0.0
 10
19.315770821696908
 20
-270.24532752666272
 30
0.0
 10
19.343006439284618
 20
-270.21222725175261
 30
0.0
 10
19.365431973205919
 20
-270.18178519505329
 30
0.0
 10
19.388459913061929
 20
-270.1505253885656
 30
0.0
 10
19.413563131193829
 20
-270.11236655390383
 30
0.0
 10
19.438253639120209
 20
-270.06675825866739
 30
0.0
 10
19.462805526254819
 20
-270.02140602369559
 30
0.0
 10
19.490584518668928
 20
-269.96197897395581
 30
0.0
 10
19.51483941730061
 20
-269.8885508515537
 30
0.0
 10
19.546576294568521
 20
-269.79247214415159
 30
0.0
 10
19.566232202986921
 20
-269.6907193289432
 30
0.0
 10
19.573304878926219
 20
-269.5871557427497
 30
0.0
 11
18.776721870558699
 21
-270.50000000000011
 31
0.0
 11
18.847323393130733
 21
-270.49626588219729
 31
0.0
 11
18.917287995203228
 21
-270.48504950726038
 31
0.0
 11
19.024537828838294
 21
-270.45244090848809
 31
0.0
 11
19.107632998840309
 21
-270.41300539293343
 31
0.0
 11
19.189385163712188
 21
-270.36016401395159
 31
0.0
 11
19.283178507651829
 21
-270.2784145101117
 31
0.0
 11
19.328117782975291
 21
-270.22910800505139
 31
0.0
 11
19.365431973205919
 21
-270.18178519505329
 31
0.0
 11
19.401219343136678
 21
-270.12965241014115
 31
0.0
 11
19.438253639120209
 21
-270.06675825866739
 31
0.0
 11
19.47665789889901
 21
-269.98818301289691
 31
0.0
 11
19.51483941730061
 21
-269.8885508515537
 31
0.0
 11
19.55332122361164
 21
-269.74066012669846
 31
0.0
 11
19.573304878926219
 21
-269.5871557427497
 31
0.0
  0
SPLINE
  5
1C2
100
AcDbEntity
  8
0
  6
CONTINUOUS
 62
             7
100
AcDbSpline
210
0.0
220
0.0
230
1.0
 70
             0
 71
             3
 72
            11
 73
             7
 74
             5
 42
0.00000000001
 43
0.00000000001
 44
0.00000000001
 40
0.0523482313711599
 40
0.0523482313711599
 40
0.0523482313711599
 40
0.0523482313711599
 40
0.0921076148865
 40
0.0921076148865
 40
0.0921076148865
 40
0.1319589470212027
 40
0.1319589470212027
 40
0.1319589470212027
 40
0.1319589470212027
 10
13.156719514289311
 20
-269.5871557427497
 30
0.0
 10
13.15673113981723
 20
-269.57392443320941
 30
0.0
 10
13.156946067909701
 20
-269.56067094347043
 30
0.0
 10
13.15736430237372
 20
-269.54740275386439
 30
0.0
 10
13.15778229597891
 20
-269.53414220533278
 30
0.0
 10
13.15840324016521
 20
-269.52087083390171
 30
0.0
 10
13.159226784547119
 20
-269.50759612349401
 30
0.0
 11
13.156719514289311
 21
-269.5871557427497
 31
0.0
 11
13.156889429980478
 21
-269.56729307833172
 31
0.0
 11
13.15736430237372
 21
-269.54740275386439
 31
0.0
 11
13.158143461919149
 21
-269.52750474938273
 31
0.0
 11
13.159226784547119
 21
-269.50759612349401
 31
0.0
  0
SPLINE
  5
1C1
100
AcDbEntity
  8
0
  6
CONTINUOUS
 62
             7
100
AcDbSpline
210
0.0
220
0.0
230
1.0
 70
             0
 71
             6
 72
            14
 73
             7
 74
             3
 42
0.00000000001
 43
0.00000000001
 44
0.00000000001
 40
0.0
 40
0.0
 40
0.0
 40
0.0
 40
0.0
 40
0.0
 40
0.0
 40
1.0
 40
1.0
 40
1.0
 40
1.0
 40
1.0
 40
1.0
 40
1.0
 10
14.944141646186321
 20
-269.50759612349412
 30
0.0
 10
15.32353025585423
 20
-269.50759612349412
 30
0.0
 10
15.691551064325211
 20
-269.3398619816557
 30
0.0
 10
16.0190021461793
 20
-269.03890987861269
 30
0.0
 10
16.276681576003309
 20
-268.63925599506968
 30
0.0
 10
16.435387428374099
 20
-268.17541651163401
 30
0.0
 10
16.465917777876719
 20
-267.68190760898938
 30
0.0
 11
14.944141646186321
 21
-269.50759612349412
 31
0.0
 11
15.966673407155419
 21
-268.9648835432248
 31
0.0
 11
16.465917777876719
 21
-267.68190760898938
 31
0.0
  0
SPLINE
  5
1C0
100
AcDbEntity
  8
0
  6
CONTINUOUS
 62
             7
100
AcDbSpline
210
0.0
220
0.0
230
1.0
 70
             0
 71
             3
 72
            23
 73
            19
 74
            21
 42
0.00000000001
 43
0.00000000001
 44
0.00000000001
 40
0.0
 40
0.0
 40
0.0
 40
0.0
 40
0.0165172945856548
 40
0.0165172945856548
 40
0.0165172945856548
 40
0.0889526032427961
 40
0.0889526032427961
 40
0.0889526032427961
 40
0.2236505630791092
 40
0.2236505630791092
 40
0.2236505630791092
 40
0.4353369448879244
 40
0.4353369448879244
 40
0.4353369448879244
 40
0.6135493892825394
 40
0.6135493892825394
 40
0.6135493892825394
 40
0.9149458014243734
 40
0.9149458014243734
 40
0.9149458014243734
 40
0.9149458014243734
 10
13.13215889331142
 20
-270.50000000000011
 30
0.0
 10
13.134754028702901
 20
-270.50000000000011
 30
0.0
 10
13.13686734468844
 20
-270.4936676047065
 30
0.0
 10
13.138566043878431
 20
-270.48504950726078
 30
0.0
 10
13.141625570019221
 20
-270.46952745687321
 30
0.0
 10
13.1439828178857
 20
-270.44333213777799
 30
0.0
 10
13.14582933175533
 20
-270.41300539293371
 30
0.0
 10
13.14801460271463
 20
-270.37711497483838
 30
0.0
 10
13.14972595032442
 20
-270.33147156956642
 30
0.0
 10
13.15108358020772
 20
-270.27841451011159
 30
0.0
 10
13.15259330148943
 20
-270.21941361981862
 30
0.0
 10
13.15372531941102
 20
-270.1489129589724
 30
0.0
 10
13.1545692673063
 20
-270.06675825866739
 30
0.0
 10
13.155097573771121
 20
-270.01532989499731
 30
0.0
 10
13.155541405479831
 20
-269.95656947546792
 30
0.0
 10
13.15588993615013
 20
-269.88855085155348
 30
0.0
 10
13.15613089573282
 20
-269.84152560923872
 30
0.0
 10
13.15658436959842
 20
-269.74096703398749
 30
0.0
 10
13.156719514289311
 20
-269.5871557427497
 30
0.0
 11
13.13215889331142
 21
-270.50000000000011
 31
0.0
 11
13.135698632170485
 21
-270.49575654017258
 31
0.0
 11
13.138566043878431
 21
-270.48504950726078
 31
0.0
 11
13.141398571493617
 21
-270.46621199111723
 31
0.0
 11
13.143805478987582
 21
-270.44171270538163
 31
0.0
 11
13.14582933175533
 21
-270.41300539293371
 31
0.0
 11
13.147861080324907
 21
-270.37395062107555
 31
0.0
 11
13.149603592355476
 21
-270.32891370954269
 31
0.0
 11
13.15108358020772
 21
-270.27841451011159
 31
0.0
 11
13.152470720122494
 21
-270.21557464930436
 31
0.0
 11
13.15362597631581
 21
-270.14503399281591
 31
0.0
 11
13.1545692673063
 21
-270.06675825866739
 31
0.0
 11
13.155069014545665
 21
-270.01281453754325
 31
0.0
 11
13.155510039440449
 21
-269.95355474617389
 31
0.0
 11
13.15588993615013
 21
-269.88855085155348
 31
0.0
 11
13.156025667856451
 21
-269.86057841847065
 31
0.0
 11
13.156182072958321
 21
-269.82369155814695
 31
0.0
 11
13.156344405804145
 21
-269.77789806549771
 31
0.0
 11
13.156497920742314
 21
-269.72320573543823
 31
0.0
 11
13.156627872121241
 21
-269.65962236288385
 31
0.0
 11
13.156719514289311
 21
-269.5871557427497
 31
0.0
  0
SPLINE
  5
1BF
100
AcDbEntity
  8
0
  6
CONTINUOUS
 62
             7
100
AcDbSpline
210
0.0
220
0.0
230
1.0
 70
             0
 71
             3
 72
            11
 73
             7
 74
             7
 42
0.00000000001
 43
0.00000000001
 44
0.00000000001
 40
0.0
 40
0.0
 40
0.0
 40
0.0
 40
0.0092228549823674
 40
0.0092228549823674
 40
0.0092228549823674
 40
0.0124926823215667
 40
0.0124926823215667
 40
0.0124926823215667
 40
0.0124926823215667
 10
24.977462993818708
 20
-267.76146722824308
 30
0.0
 10
24.98154402342573
 20
-267.76146722824319
 30
0.0
 10
24.9846186445547
 20
-267.76137825537961
 30
0.0
 10
24.986680383041719
 20
-267.76120056361191
 30
0.0
 10
24.98874235088363
 20
-267.76102285207708
 30
0.0
 10
24.989789794568029
 20
-267.76075652392183
 30
0.0
 10
24.989820418446531
 20
-267.76040206643211
 30
0.0
 11
24.977462993818708
 21
-267.76146722824308
 31
0.0
 11
24.981208314149196
 21
-267.76143758002786
 31
0.0
 11
24.984281256791231
 21
-267.76134867300567
 31
0.0
 11
24.986680383041719
 21
-267.76120056361191
 31
0.0
 11
24.988404091140445
 21
-267.76099333125126
 31
0.0
 11
24.989450939656749
 21
-267.76072712942943
 31
0.0
 11
24.989820418446531
 21
-267.76040206643211
 31
0.0
  0
SPLINE
  5
1BE
100
AcDbEntity
  8
0
  6
CONTINUOUS
 62
             7
100
AcDbSpline
210
0.0
220
0.0
230
1.0
 70
             0
 71
             3
 72
            11
 73
             7
 74
             5
 42
0.00000000001
 43
0.00000000001
 44
0.00000000001
 40
21.087563715283761
 40
21.087563715283761
 40
21.087563715283761
 40
21.087563715283761
 40
45.135192437890723
 40
45.135192437890723
 40
45.135192437890723
 40
69.18548102374622
 40
69.18548102374622
 40
69.18548102374622
 40
69.18548102374622
 10
2.8577973837056199
 20
-196.6510124504149
 30
0.0
 10
3.4398089962715268
 20
-190.22016376413461
 30
0.0
 10
4.1466289820060114
 20
-182.40487083473781
 30
0.0
 10
5.0238385603449309
 20
-172.70113327645001
 30
0.0
 10
5.6447720871068192
 20
-165.83233460663919
 30
0.0
 10
6.3587872278258182
 20
-157.9320653612113
 30
0.0
 10
7.1886460605679234
 20
-148.74847184800271
 30
0.0
 11
2.8577973837056203
 21
-196.6510124504149
 31
0.0
 11
3.8301187348603962
 21
-185.90340619043525
 31
0.0
 11
5.0238385603449309
 21
-172.70113327645001
 31
0.0
 11
6.0278953207138466
 21
-161.59285062850054
 31
0.0
 11
7.1886460605679234
 21
-148.74847184800271
 31
0.0
  0
SPLINE
  5
1BD
100
AcDbEntity
  8
0
  6
CONTINUOUS
 62
             7
100
AcDbSpline
210
0.0
220
0.0
230
1.0
 70
             0
 71
             3
 72
            12
 73
             8
 74
             7
 42
0.00000000001
 43
0.00000000001
 44
0.00000000001
 40
0.0
 40
0.0
 40
0.0
 40
0.0
 40
1.0
 40
1.0
 40
2.0
 40
2.0
 40
3.0
 40
3.0
 40
3.0
 40
3.0
 10
3.674294906973703
 20
-199.79242028858229
 30
0.0
 10
3.71377952744982
 20
-199.84325683909299
 30
0.0
 10
3.792602898131523
 20
-199.8921926650622
 30
0.0
 10
4.0147540175698033
 20
-199.977463784066
 30
0.0
 10
4.1546049505675207
 20
-200.01246452622789
 30
0.0
 10
4.466711158378903
 20
-200.06090294035579
 30
0.0
 10
4.6340817592620214
 20
-200.07358251827301
 30
0.0
 10
4.797722517854428
 20
-200.07358251827301
 30
0.0
 11
3.674294906973703
 21
-199.79242028858229
 31
0.0
 11
3.7621400801960494
 21
-199.8666996282015
 31
0.0
 11
3.9036784578506634
 21
-199.93482822456411
 31
0.0
 11
4.0903016770919809
 21
-199.99266211109222
 31
0.0
 11
4.3106580544732118
 21
-200.03668373329185
 31
0.0
 11
4.5513449156563013
 21
-200.0642153284314
 31
0.0
 11
4.797722517854428
 21
-200.07358251827301
 31
0.0
  0
SPLINE
  5
1BC
100
AcDbEntity
  8
0
  6
CONTINUOUS
 62
             7
100
AcDbSpline
210
0.0
220
0.0
230
1.0
 70
             0
 71
             6
 72
            15
 73
             8
 74
             5
 42
0.00000000001
 43
0.00000000001
 44
0.00000000001
 40
0.0
 40
0.0
 40
0.0
 40
0.0
 40
0.0
 40
0.0
 40
0.0
 40
0.5
 40
1.0
 40
1.0
 40
1.0
 40
1.0
 40
1.0
 40
1.0
 40
1.0
 10
26.768181021418311
 20
-202.00000000000011
 30
0.0
 10
26.7120553160496
 20
-202.00000000000011
 30
0.0
 10
26.57150058018863
 20
-201.98165967364261
 30
0.0
 10
26.38050572947051
 20
-201.9266367624617
 30
0.0
 10
26.156657695466929
 20
-201.83830437958639
 30
0.0
 10
25.925428953127721
 20
-201.72671418528481
 30
0.0
 10
25.711460045728099
 20
-201.6051563957561
 30
0.0
 10
25.611536166937618
 20
-201.54357787137391
 30
0.0
 11
26.768181021418311
 21
-202.00000000000011
 31
0.0
 11
26.551172517626224
 21
-201.96600393031952
 31
0.0
 11
26.258743664929181
 21
-201.86863865971483
 31
0.0
 11
25.930660173986958
 21
-201.72114435771508
 31
0.0
 11
25.611536166937618
 21
-201.54357787137391
 31
0.0
  0
SPLINE
  5
1BB
100
AcDbEntity
  8
0
  6
CONTINUOUS
 62
             7
100
AcDbSpline
210
0.0
220
0.0
230
1.0
 70
             0
 71
             3
 72
            11
 73
             7
 74
             5
 42
0.00000000001
 43
0.00000000001
 44
0.00000000001
 40
0.719916534970355
 40
0.719916534970355
 40
0.719916534970355
 40
0.719916534970355
 40
0.7723673503296978
 40
0.7723673503296978
 40
0.7723673503296978
 40
0.8504307343549094
 40
0.8504307343549094
 40
0.8504307343549094
 40
0.8504307343549094
 10
26.961749304734919
 20
-201.95745484471939
 30
0.0
 10
26.955943468865922
 20
-201.968734648165
 30
0.0
 10
26.944450573577519
 20
-201.9808364034738
 30
0.0
 10
26.921199877757129
 20
-201.98924811267949
 30
0.0
 10
26.905281762076019
 20
-201.9950070181869
 30
0.0
 10
26.88119740413612
 20
-202.00000000000011
 30
0.0
 10
26.844150725659208
 20
-202.00000000000011
 30
0.0
 11
26.961749304734919
 21
-201.95745484471939
 31
0.0
 11
26.948016413727789
 21
-201.97442701403935
 31
0.0
 11
26.921199877757129
 21
-201.98924811267949
 31
0.0
 11
26.890598512756586
 21
-201.99678364590505
 31
0.0
 11
26.844150725659208
 21
-202.00000000000011
 31
0.0
  0
SPLINE
  5
1BA
100
AcDbEntity
  8
0
  6
CONTINUOUS
 62
             7
100
AcDbSpline
210
0.0
220
0.0
230
1.0
 70
             0
 71
             3
 72
            20
 73
            16
 74
            11
 42
0.00000000001
 43
0.00000000001
 44
0.00000000001
 40
1.6580627893946089
 40
1.6580627893946089
 40
1.6580627893946089
 40
1.6580627893946089
 40
1.9154432065703659
 40
1.9154432065703659
 40
1.9154432065703659
 40
2.3644984802187352
 40
2.3644984802187352
 40
2.3644984802187352
 40
2.537814453855765
 40
2.537814453855765
 40
2.537814453855765
 40
2.662599971304954
 40
2.662599971304954
 40
2.662599971304954
 40
2.7330647908048582
 40
2.7330647908048582
 40
2.7330647908048582
 40
2.7330647908048582
 10
29.763706352106709
 20
-199.79242028858241
 30
0.0
 10
29.82645200346952
 20
-199.8121703689406
 30
0.0
 10
29.91136614878252
 20
-199.83859180207861
 30
0.0
 10
30.009656225080629
 20
-199.8682673320948
 30
0.0
 10
30.16720865647881
 20
-199.9158352258554
 30
0.0
 10
30.31538531345613
 20
-199.95855636759029
 30
0.0
 10
30.441127040546728
 20
-199.99266215405339
 30
0.0
 10
30.51674358002921
 20
-200.01317214392179
 30
0.0
 10
30.571363227759129
 20
-200.0270721856233
 30
0.0
 10
30.608859410593031
 20
-200.03628853290471
 30
0.0
 10
30.646726936757329
 20
-200.04559615425271
 30
0.0
 10
30.692061241186028
 20
-200.05625441688611
 30
0.0
 10
30.730565464220529
 20
-200.063804463151
 30
0.0
 10
30.756180734230099
 20
-200.06882719724149
 30
0.0
 10
30.784422208013819
 20
-200.0735825182731
 30
0.0
 10
30.800299494218621
 20
-200.07358251827301
 30
0.0
 11
29.763706352106709
 21
-199.79242028858241
 31
0.0
 11
29.873352129242932
 21
-199.82662176671687
 31
0.0
 11
30.009656225080629
 21
-199.8682673320948
 31
0.0
 11
30.237320646929021
 21
-199.93551303331066
 31
0.0
 11
30.441127040546728
 21
-199.99266215405339
 31
0.0
 11
30.539288359313097
 21
-200.01871045944918
 31
0.0
 11
30.608859410593031
 21
-200.03628853290471
 31
0.0
 11
30.669473676080454
 21
-200.05070558868402
 31
0.0
 11
30.730565464220529
 21
-200.063804463151
 31
0.0
 11
30.769084223146365
 21
-200.07057701599598
 31
0.0
 11
30.800299494218621
 21
-200.07358251827301
 31
0.0
  0
SPLINE
  5
1B9
100
AcDbEntity
  8
0
  6
CONTINUOUS
 62
             7
100
AcDbSpline
210
0.0
220
0.0
230
1.0
 70
             0
 71
             3
 72
            11
 73
             7
 74
             5
 42
0.00000000001
 43
0.00000000001
 44
0.00000000001
 40
3.1415926535897918
 40
3.1415926535897918
 40
3.1415926535897918
 40
3.1415926535897918
 40
3.1500483603255671
 40
3.1500483603255671
 40
3.1500483603255671
 40
3.1545709310766048
 40
3.1545709310766048
 40
3.1545709310766048
 40
3.1545709310766048
 10
30.826476870284932
 20
-200.07358251827301
 30
0.0
 10
30.830031211511031
 20
-200.07358251827301
 30
0.0
 10
30.832837425042619
 20
-200.07334400921479
 30
0.0
 10
30.834890566591209
 20
-200.07286738810939
 30
0.0
 10
30.836943650260221
 20
-200.0723907804402
 30
0.0
 10
30.838242516890212
 20
-200.07167634980121
 30
0.0
 10
30.838784835063318
 20
-200.07072531839691
 30
0.0
 11
30.826476870284932
 21
-200.07358251827301
 31
0.0
 11
30.831246668317139
 21
-200.07340368610573
 31
0.0
 11
30.834890566591209
 21
-200.07286738810939
 31
0.0
 11
30.837404237888226
 21
-200.07197426215382
 31
0.0
 11
30.838784835063318
 21
-200.07072531839691
 31
0.0
  0
SPLINE
  5
1B8
100
AcDbEntity
  8
0
  6
CONTINUOUS
 62
             7
100
AcDbSpline
210
0.0
220
0.0
230
1.0
 70
             0
 71
             3
 72
            11
 73
             7
 74
             5
 42
0.00000000001
 43
0.00000000001
 44
0.00000000001
 40
21.087563715562329
 40
21.087563715562329
 40
21.087563715562329
 40
21.087563715562329
 40
46.960056906179197
 40
46.960056906179197
 40
46.960056906179197
 40
66.580947415211497
 40
66.580947415211497
 40
66.580947415211497
 40
66.580947415211497
 10
18.329483652047831
 20
-196.6510124504149
 30
0.0
 10
20.958801004179719
 20
-190.22014286123201
 30
0.0
 10
24.152550713966129
 20
-182.4048396929802
 30
0.0
 10
28.11667876344492
 20
-172.70113327645001
 30
0.0
 10
30.244574247729879
 20
-167.49230227835051
 30
0.0
 10
32.614486451469482
 20
-161.69029145717479
 30
0.0
 10
35.271279543683029
 20
-155.18526019687101
 30
0.0
 11
18.329483652047831
 21
-196.6510124504149
 31
0.0
 11
22.722527196241284
 21
-185.90338667368763
 31
0.0
 11
28.11667876344492
 21
-172.70113327645001
 31
0.0
 11
31.495642550590752
 21
-164.42927183498711
 31
0.0
 11
35.271279543683029
 21
-155.18526019687101
 31
0.0
  0
SPLINE
  5
1B7
100
AcDbEntity
  8
0
  6
CONTINUOUS
 62
             7
100
AcDbSpline
210
0.0
220
0.0
230
1.0
 70
             0
 71
             3
 72
            11
 73
             7
 74
             5
 42
0.00000000001
 43
0.00000000001
 44
0.00000000001
 40
4.8370480380888123
 40
4.8370480380888123
 40
4.8370480380888123
 40
4.8370480380888123
 40
5.9451837050754293
 40
5.9451837050754293
 40
5.9451837050754293
 40
7.0530712298571157
 40
7.0530712298571157
 40
7.0530712298571157
 40
7.0530712298571157
 10
18.40175569838323
 20
-198.86585680889891
 30
0.0
 10
18.389741157395019
 20
-198.49698471515919
 30
0.0
 10
18.377705491718221
 20
-198.12780190185609
 30
0.0
 10
18.36564867673351
 20
-197.758309546177
 30
0.0
 10
18.353618313019719
 20
-197.38962781439929
 30
0.0
 10
18.34156331473341
 20
-197.02052824699101
 30
0.0
 10
18.329483652047831
 20
-196.6510124504149
 30
0.0
 11
18.40175569838323
 21
-198.86585680889891
 31
0.0
 11
18.383718040307063
 21
-198.31231577576523
 31
0.0
 11
18.36564867673351
 21
-197.758309546177
 31
0.0
 11
18.347584651505091
 21
-197.20497377259534
 31
0.0
 11
18.329483652047831
 21
-196.6510124504149
 31
0.0
  0
SPLINE
  5
1B6
100
AcDbEntity
  8
0
  6
CONTINUOUS
 62
             7
100
AcDbSpline
210
0.0
220
0.0
230
1.0
 70
             0
 71
             3
 72
            12
 73
             8
 74
             7
 42
0.00000000001
 43
0.00000000001
 44
0.00000000001
 40
0.0
 40
0.0
 40
0.0
 40
0.0
 40
1.0
 40
1.0
 40
2.0
 40
2.0
 40
3.0
 40
3.0
 40
3.0
 40
3.0
 10
20.665821293973529
 20
-199.79242028858241
 30
0.0
 10
20.790040829421919
 20
-199.8432568390931
 30
0.0
 10
20.93883626973502
 20
-199.89219266506231
 30
0.0
 10
21.258824255738212
 20
-199.97746378406609
 30
0.0
 10
21.425008772320819
 20
-200.01246452622789
 30
0.0
 10
21.73987744230573
 20
-200.06090294035579
 30
0.0
 10
21.88363368736993
 20
-200.07358251827301
 30
0.0
 10
22.000787535728019
 20
-200.07358251827301
 30
0.0
 11
20.665821293973529
 21
-199.79242028858241
 31
0.0
 11
20.86891035677262
 21
-199.86669962820159
 31
0.0
 11
21.098830262736616
 21
-199.9348282245642
 31
0.0
 11
21.341596556778374
 21
-199.99266211109227
 31
0.0
 11
21.582443107313274
 21
-200.03668373329185
 31
0.0
 11
21.806720504008535
 21
-200.0642153284314
 31
0.0
 11
22.000787535728019
 21
-200.07358251827301
 31
0.0
  0
SPLINE
  5
1B5
100
AcDbEntity
  8
0
  6
CONTINUOUS
 62
             7
100
AcDbSpline
210
0.0
220
0.0
230
1.0
 70
             0
 71
             3
 72
            10
 73
             6
 74
             5
 42
0.00000000001
 43
0.00000000001
 44
0.00000000001
 40
0.0
 40
0.0
 40
0.0
 40
0.0
 40
1.0
 40
1.0
 40
2.0
 40
2.0
 40
2.0
 40
2.0
 10
22.119113124180419
 20
-200.07358251827301
 30
0.0
 10
22.2034500837959
 20
-200.07358251827301
 30
0.0
 10
22.2723687559056
 20
-200.06701058801821
 30
0.0
 10
22.372854713378509
 20
-200.04134410485841
 30
0.0
 10
22.403612139672699
 20
-200.02245640905741
 30
0.0
 10
22.41343027946672
 20
-199.99840697633891
 30
0.0
 11
22.119113124180419
 21
-200.07358251827301
 31
0.0
 11
22.23364767224087
 21
-200.06869239794815
 31
0.0
 11
22.322611734642052
 21
-200.05417734643831
 31
0.0
 11
22.3831803216578
 21
-200.03049823306557
 31
0.0
 11
22.41343027946672
 21
-199.99840697633891
 31
0.0
  0
SPLINE
  5
1B4
100
AcDbEntity
  8
0
  6
CONTINUOUS
 62
             7
100
AcDbSpline
210
0.0
220
0.0
230
1.0
 70
             0
 71
             3
 72
            11
 73
             7
 74
             5
 42
0.00000000001
 43
0.00000000001
 44
0.00000000001
 40
103.95620140795241
 40
103.95620140795241
 40
103.95620140795241
 40
103.95620140795241
 40
107.957102413516
 40
107.957102413516
 40
107.957102413516
 40
111.95800189956149
 40
111.95800189956149
 40
111.95800189956149
 40
111.95800189956149
 10
48.354355915007808
 20
-140.50000000023101
 30
0.0
 10
48.382805055008227
 20
-141.8318143894073
 30
0.0
 10
48.411189573518818
 20
-143.1650429562126
 30
0.0
 10
48.43951389149494
 20
-144.49999461956699
 30
0.0
 10
48.46777218758443
 20
-145.83183460950801
 30
0.0
 10
48.49596366858291
 20
-147.16506471049649
 30
0.0
 10
48.524093042018229
 20
-148.50000000000011
 30
0.0
 11
48.354355915007808
 21
-140.50000000023101
 31
0.0
 11
48.396981711510485
 21
-142.49882083208223
 31
0.0
 11
48.43951389149494
 21
-144.49999461956699
 31
0.0
 11
48.481851812751898
 21
-146.4988365724476
 31
0.0
 11
48.524093042018229
 21
-148.50000000000011
 31
0.0
  0
SPLINE
  5
1B3
100
AcDbEntity
  8
0
  6
CONTINUOUS
 62
             7
100
AcDbSpline
210
0.0
220
0.0
230
1.0
 70
             0
 71
             3
 72
            11
 73
             7
 74
             5
 42
0.00000000001
 43
0.00000000001
 44
0.00000000001
 40
199.90551304085079
 40
199.90551304085079
 40
199.90551304085079
 40
199.90551304085079
 40
203.9087071594341
 40
203.9087071594341
 40
203.9087071594341
 40
207.91190632076211
 40
207.91190632076211
 40
207.91190632076211
 40
207.91190632076211
 10
23.789546646874928
 20
-148.50000000000011
 30
0.0
 10
23.736215309377119
 20
-147.1629252774469
 30
0.0
 10
23.68297190164412
 20
-145.82978841661381
 30
0.0
 10
23.629796537767628
 20
-144.49999461956699
 30
0.0
 10
23.5763329677747
 20
-143.16299344906699
 30
0.0
 10
23.522957345141609
 20
-141.82985092473959
 30
0.0
 10
23.46965110011212
 20
-140.50000000023101
 30
0.0
 11
23.789546646874928
 21
-148.50000000000011
 31
0.0
 11
23.709613102213282
 21
-146.49726696271864
 31
0.0
 11
23.629796537767628
 21
-144.49999461956699
 31
0.0
 11
23.549664822078583
 21
-142.49731596765221
 31
0.0
 11
23.46965110011212
 21
-140.50000000023101
 31
0.0
  0
SPLINE
  5
1B2
100
AcDbEntity
  8
0
  6
CONTINUOUS
 62
             7
100
AcDbSpline
210
0.0
220
0.0
230
1.0
 70
             0
 71
             3
 72
            11
 73
             7
 74
             5
 42
0.00000000001
 43
0.00000000001
 44
0.00000000001
 40
199.9055130408517
 40
199.9055130408517
 40
199.9055130408517
 40
199.9055130408517
 40
203.907580362434
 40
203.907580362434
 40
203.907580362434
 40
207.90965339903309
 40
207.90965339903309
 40
207.90965339903309
 40
207.90965339903309
 10
38.017530215024131
 20
-148.50000000000011
 30
0.0
 10
37.974724391174227
 20
-147.16430781349021
 30
0.0
 10
37.931911116128433
 20
-145.83112508303691
 30
0.0
 10
37.889078721635208
 20
-144.49999461956699
 30
0.0
 10
37.846099108455533
 20
-143.16428894425391
 30
0.0
 10
37.803114876659222
 20
-141.83110441133559
 30
0.0
 10
37.760115084911412
 20
-140.50000000023101
 30
0.0
 11
38.017530215024131
 21
-148.50000000000011
 31
0.0
 11
37.953314432320909
 21
-146.49828666364354
 31
0.0
 11
37.889078721635208
 21
-144.49999461956699
 31
0.0
 11
37.824604470236366
 21
-142.49827183582082
 31
0.0
 11
37.760115084911412
 21
-140.50000000023101
 31
0.0
  0
SPLINE
  5
1B1
100
AcDbEntity
  8
0
  6
CONTINUOUS
 62
             7
100
AcDbSpline
210
0.0
220
0.0
230
1.0
 70
             0
 71
             3
 72
            11
 73
             7
 74
             5
 42
0.00000000001
 43
0.00000000001
 44
0.00000000001
 40
21.789690390636199
 40
21.789690390636199
 40
21.789690390636199
 40
21.789690390636199
 40
48.025992870829761
 40
48.025992870829761
 40
48.025992870829761
 40
67.653380748650065
 40
67.653380748650065
 40
67.653380748650065
 40
67.653380748650065
 10
23.98643960376473
 20
-196.1453367711685
 30
0.0
 10
27.249335854731729
 20
-189.81145885563811
 30
0.0
 10
31.193312768386029
 20
-182.15191677465191
 30
0.0
 10
36.058100080264218
 20
-172.70113327645001
 30
0.0
 10
38.634176591625938
 20
-167.6966099904601
 30
0.0
 10
41.491764962477909
 20
-162.14452553511271
 30
0.0
 10
44.681002408841927
 20
-155.94746285413561
 30
0.0
 11
23.98643960376473
 21
-196.1453367711685
 31
0.0
 11
29.421560694172772
 21
-185.59207461731103
 31
0.0
 11
36.058100080264218
 21
-172.70113327645001
 31
0.0
 11
40.139615893927221
 21
-164.77150033841301
 31
0.0
 11
44.681002408841927
 21
-155.94746285413561
 31
0.0
  0
SPLINE
  5
1B0
100
AcDbEntity
  8
0
  6
CONTINUOUS
 62
             7
100
AcDbSpline
210
0.0
220
0.0
230
1.0
 70
             0
 71
             3
 72
            11
 73
             7
 74
             5
 42
0.00000000001
 43
0.00000000001
 44
0.00000000001
 40
21.087568552327941
 40
21.087568552327941
 40
21.087568552327941
 40
21.087568552327941
 40
45.848177098262532
 40
45.848177098262532
 40
45.848177098262532
 40
65.635919713174914
 40
65.635919713174914
 40
65.635919713174914
 40
65.635919713174914
 10
11.138812821707321
 20
-196.65101245041541
 30
0.0
 10
12.827108031129431
 20
-190.22014793925959
 30
0.0
 10
14.87775870807312
 20
-182.40484726299269
 30
0.0
 10
17.42300102883863
 20
-172.70113327645331
 30
0.0
 10
18.862694931679819
 20
-167.21231292038831
 30
0.0
 10
20.47491865526974
 20
-161.06483238239699
 30
0.0
 10
22.293376368208211
 20
-154.13017164120831
 30
0.0
 11
11.138812821707321
 21
-196.65101245041541
 31
0.0
 11
13.959551758519197
 21
-185.90339141670313
 31
0.0
 11
17.42300102883863
 21
-172.70113327645331
 31
0.0
 11
19.716152269736938
 21
-163.95784260325217
 31
0.0
 11
22.293376368208211
 21
-154.13017164120831
 31
0.0
  0
SPLINE
  5
1AF
100
AcDbEntity
  8
0
  6
CONTINUOUS
 62
             7
100
AcDbSpline
210
0.0
220
0.0
230
1.0
 70
             0
 71
             3
 72
            11
 73
             7
 74
             5
 42
0.00000000001
 43
0.00000000001
 44
0.00000000001
 40
115.1107385114786
 40
115.1107385114786
 40
115.1107385114786
 40
115.1107385114786
 40
117.1126609809466
 40
117.1126609809466
 40
117.1126609809466
 40
119.1145827937053
 40
119.1145827937053
 40
119.1145827937053
 40
119.1145827937053
 10
7.0574654664215224
 20
-144.4999999999693
 30
0.0
 10
7.0868489864589073
 20
-145.16957827488409
 30
0.0
 10
7.1160897401791239
 20
-145.8361335705184
 30
0.0
 10
7.1452021989552224
 20
-146.49999895979161
 30
0.0
 10
7.1741956952316217
 20
-147.16115159001171
 30
0.0
 10
7.2034238212410218
 20
-147.82788834385619
 30
0.0
 10
7.2328765014117131
 20
-148.50000000000011
 30
0.0
 11
7.0574654664215224
 21
-144.4999999999693
 31
0.0
 11
7.1014354806613538
 21
-145.50214181199604
 31
0.0
 11
7.1452021989552224
 21
-146.49999895979161
 31
0.0
 11
7.1888671562231075
 21
-147.49588984517442
 31
0.0
 11
7.2328765014117131
 21
-148.50000000000011
 31
0.0
  0
SPLINE
  5
1AE
100
AcDbEntity
  8
0
  6
CONTINUOUS
 62
             7
100
AcDbSpline
210
0.0
220
0.0
230
1.0
 70
             0
 71
             3
 72
            11
 73
             7
 74
             5
 42
0.00000000001
 43
0.00000000001
 44
0.00000000001
 40
199.9254266785575
 40
199.9254266785575
 40
199.9254266785575
 40
199.9254266785575
 40
203.92555429441541
 40
203.92555429441541
 40
203.92555429441541
 40
207.92567381309681
 40
207.92567381309681
 40
207.92567381309681
 40
207.92567381309681
 10
10.03179799042371
 20
-148.50000000000011
 30
0.0
 10
10.09009860151162
 20
-147.1587116676352
 30
0.0
 10
10.14799859850541
 20
-145.8269529127536
 30
0.0
 10
10.20554110981911
 20
-144.50364737900981
 30
0.0
 10
10.26384653384261
 20
-143.16279713636141
 30
0.0
 10
10.32176891347153
 20
-141.83099408458659
 30
0.0
 10
10.379344965740099
 20
-140.5073055038394
 30
0.0
 11
10.03179799042371
 21
-148.50000000000011
 31
0.0
 11
10.118953837536738
 21
-146.49508014002203
 31
0.0
 11
10.20554110981911
 21
-144.50364737900981
 31
0.0
 11
10.292716552187704
 21
-142.49904081821165
 31
0.0
 11
10.379344965740099
 21
-140.5073055038394
 31
0.0
  0
SPLINE
  5
1AD
100
AcDbEntity
  8
0
  6
CONTINUOUS
 62
             7
100
AcDbSpline
210
0.0
220
0.0
230
1.0
 70
             0
 71
             3
 72
            12
 73
             8
 74
             7
 42
0.00000000001
 43
0.00000000001
 44
0.00000000001
 40
0.0
 40
0.0
 40
0.0
 40
0.0
 40
1.0
 40
1.0
 40
2.0
 40
2.0
 40
3.0
 40
3.0
 40
3.0
 40
3.0
 10
4.9629999656429256
 20
-200.07358251827301
 30
0.0
 10
5.1162179871285254
 20
-200.07358251827301
 30
0.0
 10
5.2618217868516162
 20
-200.06246617172781
 30
0.0
 10
5.5147649608706253
 20
-200.01975950309611
 30
0.0
 10
5.6186393507723302
 20
-199.9887542054561
 30
0.0
 10
5.7647597657465077
 20
-199.91234503267839
 30
0.0
 10
5.8050041358641273
 20
-199.8679878613795
 30
0.0
 10
5.8092491370581207
 20
-199.8209869799293
 30
0.0
 11
4.9629999656429256
 21
-200.07358251827301
 31
0.0
 11
5.1856765826805589
 21
-200.06535517821089
 31
0.0
 11
5.3882933738611207
 21
-200.04111283741196
 31
0.0
 11
5.5600257333811758
 21
-200.00215044776698
 31
0.0
 11
5.691699558259419
 21
-199.95054961906726
 31
0.0
 11
5.7762800500186806
 21
-199.88906691014628
 31
0.0
 11
5.8092491370581207
 21
-199.8209869799293
 31
0.0
  0
SPLINE
  5
1AC
100
AcDbEntity
  8
0
  6
CONTINUOUS
 62
             7
100
AcDbSpline
210
0.0
220
0.0
230
1.0
 70
             0
 71
             3
 72
             8
 73
             4
 74
             3
 42
0.00000000001
 43
0.00000000001
 44
0.00000000001
 40
2244.5984917267419
 40
2244.5984917267419
 40
2244.5984917267419
 40
2244.5984917267419
 40
2245.8989071698179
 40
2245.8989071698179
 40
2245.8989071698179
 40
2245.8989071698179
 10
26.825246128866329
 20
-202.1971784185607
 30
0.0
 10
26.82592284168652
 20
-202.6304266002775
 30
0.0
 10
26.826600550413229
 20
-203.064701612237
 30
0.0
 10
26.827279241098928
 20
-203.5000000002818
 30
0.0
 11
26.825246128866329
 21
-202.1971784185607
 31
0.0
 11
26.826261943283061
 21
-202.84782038204801
 31
0.0
 11
26.827279241098928
 21
-203.5000000002818
 31
0.0
  0
SPLINE
  5
1AB
100
AcDbEntity
  8
0
  6
CONTINUOUS
 62
             7
100
AcDbSpline
210
0.0
220
0.0
230
1.0
 70
             0
 71
             3
 72
            26
 73
            22
 74
            15
 42
0.00000000001
 43
0.00000000001
 44
0.00000000001
 40
0.0
 40
0.0
 40
0.0
 40
0.0
 40
0.1408809825916748
 40
0.1408809825916748
 40
0.1408809825916748
 40
0.8081281761090204
 40
0.8081281761090204
 40
0.8081281761090204
 40
1.4799282641745379
 40
1.4799282641745379
 40
1.4799282641745379
 40
2.1622411223712081
 40
2.1622411223712081
 40
2.1622411223712081
 40
2.499706540668162
 40
2.499706540668162
 40
2.499706540668162
 40
2.846796688228872
 40
2.846796688228872
 40
2.846796688228872
 40
2.9951244029439028
 40
2.9951244029439028
 40
2.9951244029439028
 40
2.9951244029439028
 10
24.5689668930805
 20
-203.50000000000011
 30
0.0
 10
24.6143533795188
 20
-203.50000000000011
 30
0.0
 10
24.661346816290919
 20
-203.49876154181419
 30
0.0
 10
24.70977813816144
 20
-203.49603485381181
 30
0.0
 10
24.899668987501201
 20
-203.485343981032
 30
0.0
 10
25.122906717439129
 20
-203.4511437208586
 30
0.0
 10
25.36370489131761
 20
-203.3709671064691
 30
0.0
 10
25.610743696026429
 20
-203.28871259986161
 30
0.0
 10
25.812661862001029
 20
-203.1792451984536
 30
0.0
 10
25.966931256577819
 20
-203.0784509999034
 30
0.0
 10
26.153180842524709
 20
-202.95676206868461
 30
0.0
 10
26.328396744050419
 20
-202.80952611165381
 30
0.0
 10
26.4869973313705
 20
-202.6387254824115
 30
0.0
 10
26.570885728913719
 20
-202.54838413293359
 30
0.0
 10
26.642012402293201
 20
-202.4601900968693
 30
0.0
 10
26.7018619571333
 20
-202.37868327062199
 30
0.0
 10
26.775639630323329
 20
-202.2782082711723
 30
0.0
 10
26.838005886541229
 20
-202.18009744429881
 30
0.0
 10
26.89093449410171
 20
-202.08777583533339
 30
0.0
 10
26.916224121170028
 20
-202.04366398035171
 30
0.0
 10
26.939770796339619
 20
-202.00015554455351
 30
0.0
 10
26.961749304734919
 20
-201.95745484471939
 30
0.0
 11
24.5689668930805
 21
-203.50000000000011
 31
0.0
 11
24.638230702333885
 21
-203.49903993490685
 31
0.0
 11
24.70977813816144
 21
-203.49603485381181
 31
0.0
 11
25.017651268037508
 21
-203.45955813324409
 31
0.0
 11
25.36370489131761
 21
-203.3709671064691
 31
0.0
 11
25.700106602747223
 21
-203.23166143766477
 31
0.0
 11
25.966931256577819
 21
-203.0784509999034
 31
0.0
 11
26.237332668459214
 21
-202.87700512791628
 31
0.0
 11
26.4869973313705
 21
-202.6387254824115
 31
0.0
 11
26.603444210265572
 21
-202.50539143030528
 31
0.0
 11
26.7018619571333
 21
-202.37868327062199
 31
0.0
 11
26.804216625228587
 21
-202.23017203154609
 31
0.0
 11
26.89093449410171
 21
-202.08777583533339
 31
0.0
 11
26.927583568920699
 21
-202.02208615684609
 31
0.0
 11
26.961749304734919
 21
-201.95745484471939
 31
0.0
  0
SPLINE
  5
1AA
100
AcDbEntity
  8
0
  6
CONTINUOUS
 62
             7
100
AcDbSpline
210
0.0
220
0.0
230
1.0
 70
             0
 71
             6
 72
            14
 73
             7
 74
             3
 42
0.00000000001
 43
0.00000000001
 44
0.00000000001
 40
0.0
 40
0.0
 40
0.0
 40
0.0
 40
0.0
 40
0.0
 40
0.0
 40
1.0
 40
1.0
 40
1.0
 40
1.0
 40
1.0
 40
1.0
 40
1.0
 10
24.028548575092412
 20
-202.54357787137391
 30
0.0
 10
24.35100770773872
 20
-202.54357787137391
 30
0.0
 10
24.669824437452409
 20
-202.46463123125051
 30
0.0
 10
24.970142206227429
 20
-202.31594793108039
 30
0.0
 10
25.23710445607183
 20
-202.10673795099629
 30
0.0
 10
25.45585462897392
 20
-201.84621127105561
 30
0.0
 10
25.611536166937618
 20
-201.54357787137391
 30
0.0
 11
24.028548575092412
 21
-202.54357787137391
 31
0.0
 11
24.945125567026846
 21
-202.27055292113491
 31
0.0
 11
25.611536166937618
 21
-201.54357787137391
 31
0.0
  0
SPLINE
  5
1A9
100
AcDbEntity
  8
0
  6
CONTINUOUS
 62
             7
100
AcDbSpline
210
0.0
220
0.0
230
1.0
 70
             0
 71
             3
 72
            23
 73
            19
 74
            13
 42
0.00000000001
 43
0.00000000001
 44
0.00000000001
 40
0.0005041889517146
 40
0.0005041889517146
 40
0.0005041889517146
 40
0.0005041889517146
 40
0.1474424365540371
 40
0.1474424365540371
 40
0.1474424365540371
 40
0.2949040998892272
 40
0.2949040998892272
 40
0.2949040998892272
 40
0.7875034927041058
 40
0.7875034927041058
 40
0.7875034927041058
 40
1.279609770064849
 40
1.279609770064849
 40
1.279609770064849
 40
1.4267435772749359
 40
1.4267435772749359
 40
1.4267435772749359
 40
1.5734077056304401
 40
1.5734077056304401
 40
1.5734077056304401
 40
1.5734077056304401
 10
26.827279241098928
 20
-203.5000000002818
 30
0.0
 10
26.827365167237019
 20
-203.55511128614751
 30
0.0
 10
26.8228561651195
 20
-203.60439363861701
 30
0.0
 10
26.816653477193199
 20
-203.64645273932339
 30
0.0
 10
26.809477800918501
 20
-203.6951094659965
 30
0.0
 10
26.798697155793409
 20
-203.7431689477969
 30
0.0
 10
26.784399028019219
 20
-203.7902395340696
 30
0.0
 10
26.73636277435142
 20
-203.948378743495
 30
0.0
 10
26.64959973640703
 20
-204.09217806801649
 30
0.0
 10
26.531844372046329
 20
-204.20876685834619
 30
0.0
 10
26.414598488646629
 20
-204.3248512150202
 30
0.0
 10
26.270267457776018
 20
-204.41035633644711
 30
0.0
 10
26.11163319468233
 20
-204.45770504991671
 30
0.0
 10
26.05881476137861
 20
-204.4734701489289
 30
0.0
 10
26.01023915231583
 20
-204.483264856993
 30
0.0
 10
25.96805551806511
 20
-204.48941023547641
 30
0.0
 10
25.92601142410302
 20
-204.4955352855101
 30
0.0
 10
25.876829483030608
 20
-204.50000000000011
 30
0.0
 10
25.821870355493811
 20
-204.50000000000011
 30
0.0
 11
26.827279241098928
 21
-203.5000000002818
 31
0.0
 11
26.824324589420208
 21
-203.57812093923735
 31
0.0
 11
26.816653477193199
 21
-203.64645273932339
 31
0.0
 11
26.803197171918519
 21
-203.71894093934665
 31
0.0
 11
26.784399028019219
 21
-203.7902395340696
 31
0.0
 11
26.684266366542612
 21
-204.01508460336879
 31
0.0
 11
26.531844372046329
 21
-204.20876685834619
 31
0.0
 11
26.337259425749576
 21
-204.35901182033311
 31
0.0
 11
26.11163319468233
 21
-204.45770504991671
 31
0.0
 11
26.035856306728846
 21
-204.47716503789488
 31
0.0
 11
25.96805551806511
 21
-204.48941023547641
 31
0.0
 11
25.89980607436997
 21
-204.49700201150085
 31
0.0
 11
25.821870355493811
 21
-204.50000000000011
 31
0.0
  0
SPLINE
  5
1A8
100
AcDbEntity
  8
0
  6
CONTINUOUS
 62
             7
100
AcDbSpline
210
0.0
220
0.0
230
1.0
 70
             0
 71
             3
 72
            11
 73
             7
 74
             5
 42
0.00000000001
 43
0.00000000001
 44
0.00000000001
 40
127.2848313144617
 40
127.2848313144617
 40
127.2848313144617
 40
127.2848313144617
 40
158.40082009404941
 40
158.40082009404941
 40
158.40082009404941
 40
189.51681004815339
 40
189.51681004815339
 40
189.51681004815339
 40
189.51681004815339
 10
19.840035937572232
 20
-266.50000000000063
 30
0.0
 10
20.679606348011021
 20
-256.80891529604912
 30
0.0
 10
21.5727668858984
 20
-246.4961156932242
 30
0.0
 10
22.52484779920491
 20
-235.50005576046311
 30
0.0
 10
23.370103438851
 20
-225.73777448567819
 30
0.0
 10
24.263214761404299
 20
-215.4206090369606
 30
0.0
 10
25.20838531549111
 20
-204.5000000000006
 30
0.0
 11
19.840035937572232
 21
-266.50000000000063
 31
0.0
 11
21.140250429813175
 21
-251.48939359103545
 31
0.0
 11
22.52484779920491
 21
-235.50005576046311
 31
0.0
 11
23.829148464432734
 21
-220.43440079104744
 31
0.0
 11
25.20838531549111
 21
-204.5000000000006
 31
0.0
  0
SPLINE
  5
1A7
100
AcDbEntity
  8
0
  6
CONTINUOUS
 62
             7
100
AcDbSpline
210
0.0
220
0.0
230
1.0
 70
             0
 71
             3
 72
            32
 73
            28
 74
            51
 42
0.00000000001
 43
0.00000000001
 44
0.00000000001
 40
0.0
 40
0.0
 40
0.0
 40
0.0
 40
0.1550355127460765
 40
0.1550355127460765
 40
0.1550355127460765
 40
0.5380415340972079
 40
0.5380415340972079
 40
0.5380415340972079
 40
0.8826556304774015
 40
0.8826556304774015
 40
0.8826556304774015
 40
1.274925287309298
 40
1.274925287309298
 40
1.274925287309298
 40
1.5968609003485079
 40
1.5968609003485079
 40
1.5968609003485079
 40
1.9355803111951411
 40
1.9355803111951411
 40
1.9355803111951411
 40
2.2636937989922692
 40
2.2636937989922692
 40
2.2636937989922692
 40
2.6087282091738202
 40
2.6087282091738202
 40
2.6087282091738202
 40
2.6104690203919749
 40
2.6104690203919749
 40
2.6104690203919749
 40
2.6104690203919749
 10
12.63142423819912
 20
-203.50000000000011
 30
0.0
 10
12.67805665370631
 20
-203.50000000000011
 30
0.0
 10
12.72995553809433
 20
-203.4975340326659
 30
0.0
 10
12.78612561469653
 20
-203.49090347352629
 30
0.0
 10
12.90928921851242
 20
-203.4763647082556
 30
0.0
 10
13.03349576141623
 20
-203.44410049876399
 30
0.0
 10
13.15515981455551
 20
-203.39213153188859
 30
0.0
 10
13.27483419139711
 20
-203.34101245796791
 30
0.0
 10
13.37393083029721
 20
-203.27857598979821
 30
0.0
 10
13.452732399276501
 20
-203.21955113959689
 30
0.0
 10
13.56262404029443
 20
-203.13723884894739
 30
0.0
 10
13.65640133963152
 20
-203.04405565952601
 30
0.0
 10
13.73616281787822
 20
-202.949288145656
 30
0.0
 10
13.79639365744382
 20
-202.87772569408901
 30
0.0
 10
13.86004346370602
 20
-202.7917013137137
 30
0.0
 10
13.924019632995231
 20
-202.6881106129656
 30
0.0
 10
13.981978663448221
 20
-202.59426290926589
 30
0.0
 10
14.035071310657401
 20
-202.49431030833779
 30
0.0
 10
14.0834341956035
 20
-202.38942487669129
 30
0.0
 10
14.13184884470661
 20
-202.28442718321531
 30
0.0
 10
14.172318571412401
 20
-202.18143755921321
 30
0.0
 10
14.20611807078601
 20
-202.08520859648249
 30
0.0
 10
14.24665784985423
 20
-201.96978970089631
 30
0.0
 10
14.279636013167501
 20
-201.85830518356809
 30
0.0
 10
14.30668748628932
 20
-201.7552304401633
 30
0.0
 10
14.30683477489681
 20
-201.7546692235762
 30
0.0
 10
14.30698197245753
 20
-201.7541079337071
 30
0.0
 10
14.30712907869902
 20
-201.7535465706375
 30
0.0
 11
12.63142423819912
 21
-203.50000000000011
 31
0.0
 11
12.667370461546753
 21
-203.49951109011761
 31
0.0
 11
12.705198303537193
 21
-203.49793819644051
 31
0.0
 11
12.744814456982958
 21
-203.49512207292489
 31
0.0
 11
12.78612561469653
 21
-203.49090347352629
 31
0.0
 11
12.832353851106507
 21
-203.48461669050593
 31
0.0
 11
12.878637846311614
 21
-203.47664495201369
 31
0.0
 11
12.92493558356748
 21
-203.46696506297349
 31
0.0
 11
12.97120504612975
 21
-203.45555382830918
 31
0.0
 11
13.01740421725405
 21
-203.44238805294472
 31
0.0
 11
13.063491080196023
 21
-203.42744454180388
 31
0.0
 11
13.109423618211299
 21
-203.41070009981055
 31
0.0
 11
13.15515981455551
 21
-203.39213153188859
 31
0.0
 11
13.19907367649108
 21
-203.37246014391494
 31
0.0
 11
13.241061688010504
 21
-203.35190035584228
 31
0.0
 11
13.281127161629644
 21
-203.33062477328266
 31
0.0
 11
13.319273409864371
 21
-203.30880600184796
 31
0.0
 11
13.355503745230553
 21
-203.28661664715014
 31
0.0
 11
13.389821480244059
 21
-203.26422931480107
 31
0.0
 11
13.422229927420751
 21
-203.24181661041266
 31
0.0
 11
13.452732399276501
 21
-203.21955113959689
 31
0.0
 11
13.49884834264364
 21
-203.18363595293403
 31
0.0
 11
13.543027810130157
 21
-203.14655208317353
 31
0.0
 11
13.585307510551049
 21
-203.1084619776797
 31
0.0
 11
13.625724152721311
 21
-203.06952808381681
 31
0.0
 11
13.664314445455927
 21
-203.02991284894904
 31
0.0
 11
13.7011150975699
 21
-202.98977872044071
 31
0.0
 11
13.73616281787822
 21
-202.949288145656
 31
0.0
 11
13.762176342989306
 21
-202.9177240486388
 31
0.0
 11
13.788554419060272
 21
-202.88433479897051
 31
0.0
 11
13.815242948067748
 21
-202.84906609242552
 31
0.0
 11
13.842187831988353
 21
-202.81186362477808
 31
0.0
 11
13.869334972798722
 21
-202.77267309180274
 31
0.0
 11
13.89663027247547
 21
-202.73144018927377
 31
0.0
 11
13.924019632995231
 21
-202.6881106129656
 31
0.0
 11
13.966578593679582
 21
-202.61659848049973
 31
0.0
 11
14.007325468864449
 21
-202.5429068928085
 31
0.0
 11
14.046273066766771
 21
-202.4671457311272
 31
0.0
 11
14.0834341956035
 21
-202.38942487669129
 31
0.0
 11
14.111539791938208
 21
-202.32670524967696
 31
0.0
 11
14.137799792260687
 21
-202.26469568374262
 31
0.0
 11
14.162275381934064
 21
-202.20362430329459
 31
0.0
 11
14.185027746321465
 21
-202.14371923273916
 31
0.0
 11
14.20611807078601
 21
-202.08520859648249
 31
0.0
 11
14.229547623740856
 21
-202.01646518768706
 31
0.0
 11
14.251240865341563
 21
-201.94888084866548
 31
0.0
 11
14.271276272015175
 21
-201.88267039840969
 31
0.0
 11
14.289732320188747
 21
-201.8180486559117
 31
0.0
 11
14.30668748628932
 21
-201.7552304401633
 31
0.0
 11
14.306908350881416
 21
-201.75438856033131
 31
0.0
 11
14.30712907869902
 21
-201.7535465706375
 31
0.0
  0
SPLINE
  5
1A6
100
AcDbEntity
  8
0
  6
CONTINUOUS
 62
             7
100
AcDbSpline
210
0.0
220
0.0
230
1.0
 70
             0
 71
             3
 72
            23
 73
            19
 74
            13
 42
0.00000000001
 43
0.00000000001
 44
0.00000000001
 40
0.0114464876879331
 40
0.0114464876879331
 40
0.0114464876879331
 40
0.0114464876879331
 40
0.1417884871693528
 40
0.1417884871693528
 40
0.1417884871693528
 40
0.2848796921251774
 40
0.2848796921251774
 40
0.2848796921251774
 40
0.4596944187538861
 40
0.4596944187538861
 40
0.4596944187538861
 40
0.6651257752558003
 40
0.6651257752558003
 40
0.6651257752558003
 40
0.8936698541453215
 40
0.8936698541453215
 40
0.8936698541453215
 40
1.1618838682400869
 40
1.1618838682400869
 40
1.1618838682400869
 40
1.1618838682400869
 10
24.332341962566801
 20
-203.50000000000011
 30
0.0
 10
24.290589599920111
 20
-203.5
 30
0.0
 10
24.24885469889302
 20
-203.48771298266541
 30
0.0
 10
24.208309600170111
 20
-203.46390411835779
 30
0.0
 10
24.18029479445261
 20
-203.447453283881
 30
0.0
 10
24.14247904934463
 20
-203.41943007079249
 30
0.0
 10
24.100875623504219
 20
-203.37015234654291
 30
0.0
 10
24.075044657912208
 20
-203.33955652002541
 30
0.0
 10
24.04097770665922
 20
-203.29275588556391
 30
0.0
 10
24.0058806591679
 20
-203.22373914217559
 30
0.0
 10
23.977004696960311
 20
-203.16695587930241
 30
0.0
 10
23.951409412709729
 20
-203.102949303787
 30
0.0
 10
23.929833671683721
 20
-203.03310057249391
 30
0.0
 10
23.90375954065922
 20
-202.9486888728247
 30
0.0
 10
23.888063909090111
 20
-202.87035597095539
 30
0.0
 10
23.878416267208429
 20
-202.81055712261039
 30
0.0
 10
23.861340679538021
 20
-202.70471773822811
 30
0.0
 10
23.85589650370332
 20
-202.61151818852369
 30
0.0
 10
23.854428137039129
 20
-202.5435778713744
 30
0.0
 11
24.332341962566801
 21
-203.50000000000011
 31
0.0
 11
24.269873057397039
 21
-203.49088038329427
 31
0.0
 11
24.208309600170111
 21
-203.46390411835779
 31
0.0
 11
24.159688344383255
 21
-203.42933831611512
 31
0.0
 11
24.100875623504219
 21
-203.37015234654291
 31
0.0
 11
24.0568529220483
 21
-203.31135358818582
 31
0.0
 11
24.0058806591679
 21
-203.22373914217559
 31
0.0
 11
23.965119582482718
 21
-203.13331940799222
 31
0.0
 11
23.929833671683721
 21
-203.03310057249391
 31
0.0
 11
23.897965036017517
 21
-202.91259902830555
 31
0.0
 11
23.878416267208429
 21
-202.81055712261039
 31
0.0
 11
23.860569494246445
 21
-202.66285534678005
 31
0.0
 11
23.854428137039129
 21
-202.5435778713744
 31
0.0
  0
SPLINE
  5
1A5
100
AcDbEntity
  8
0
  6
CONTINUOUS
 62
             7
100
AcDbSpline
210
0.0
220
0.0
230
1.0
 70
             0
 71
             3
 72
            11
 73
             7
 74
             5
 42
0.00000000001
 43
0.00000000001
 44
0.00000000001
 40
4.8311496646327399
 40
4.8311496646327399
 40
4.8311496646327399
 40
4.8311496646327399
 40
7.7806555491813114
 40
7.7806555491813114
 40
7.7806555491813114
 40
10.728444521800011
 40
10.728444521800011
 40
10.728444521800011
 40
10.728444521800011
 10
11.37494681696902
 20
-202.5435778713744
 30
0.0
 10
11.33565090346131
 20
-201.56030526538089
 30
0.0
 10
11.296336978126419
 20
-200.57792038590739
 30
0.0
 10
11.257005549664211
 20
-199.596430977506
 30
0.0
 10
11.21766940274901
 20
-198.61482382327239
 30
0.0
 10
11.17827175352002
 20
-197.63301448959899
 30
0.0
 10
11.138812821707321
 20
-196.65101245041541
 30
0.0
 11
11.37494681696902
 21
-202.5435778713744
 31
0.0
 11
11.315989501424552
 21
-201.06933572534317
 31
0.0
 11
11.257005549664211
 21
-199.596430977506
 31
0.0
 11
11.197955230022327
 21
-198.12386979581694
 31
0.0
 11
11.138812821707321
 21
-196.65101245041541
 31
0.0
  0
SPLINE
  5
1A4
100
AcDbEntity
  8
0
  6
CONTINUOUS
 62
             7
100
AcDbSpline
210
0.0
220
0.0
230
1.0
 70
             0
 71
             3
 72
            11
 73
             7
 74
             5
 42
0.00000000001
 43
0.00000000001
 44
0.00000000001
 40
4.8311496646327399
 40
4.8311496646327399
 40
4.8311496646327399
 40
4.8311496646327399
 40
7.7789909529588961
 40
7.7789909529588961
 40
7.7789909529588961
 40
10.59943487274931
 40
10.59943487274931
 40
10.59943487274931
 40
10.59943487274931
 10
23.854428137039129
 20
-202.5435778713744
 30
0.0
 10
23.833175197111309
 20
-201.56021893641321
 30
0.0
 10
23.811848375165109
 20
-200.57783404937319
 30
0.0
 10
23.79044824254423
 20
-199.596430977506
 30
0.0
 10
23.769953091867229
 20
-198.6565300811358
 30
0.0
 10
23.749370551464409
 20
-197.7166057192762
 30
0.0
 10
23.728700633049939
 20
-196.77666573625001
 30
0.0
 11
23.854428137039129
 21
-202.5435778713744
 31
0.0
 11
23.82249338705158
 21
-201.06927097577997
 31
0.0
 11
23.79044824254423
 21
-199.596430977506
 31
0.0
 11
23.759639975698633
 21
-198.18656301437397
 31
0.0
 11
23.728700633049939
 21
-196.77666573625001
 31
0.0
  0
SPLINE
  5
1A3
100
AcDbEntity
  8
0
  6
CONTINUOUS
 62
             7
100
AcDbSpline
210
0.0
220
0.0
230
1.0
 70
             0
 71
             6
 72
            15
 73
             8
 74
             7
 42
0.00000000001
 43
0.00000000001
 44
0.00000000001
 40
0.0
 40
0.0
 40
0.0
 40
0.0
 40
0.0
 40
0.0
 40
0.0
 40
0.5
 40
1.0
 40
1.0
 40
1.0
 40
1.0
 40
1.0
 40
1.0
 40
1.0
 10
23.897271685036319
 20
-267.68190760898938
 30
0.0
 10
24.020135143473709
 20
-267.69264145304902
 30
0.0
 10
24.26843120370452
 20
-267.71383037190009
 30
0.0
 10
24.5083602770525
 20
-267.73328182448938
 30
0.0
 10
24.712345922029819
 20
-267.74867917328459
 30
0.0
 10
24.857175876554422
 20
-267.75827029873119
 30
0.0
 10
24.931946017696109
 20
-267.76146722824308
 30
0.0
 10
24.951285617752529
 20
-267.76146722824308
 30
0.0
 11
23.897271685036319
 21
-267.68190760898938
 31
0.0
 11
24.142633829485781
 21
-267.70292620716305
 31
0.0
 11
24.377334970511189
 21
-267.72220435074149
 31
0.0
 11
24.587099329790242
 21
-267.73856943788087
 31
0.0
 11
24.759168338283565
 21
-267.75102609247818
 31
0.0
 11
24.883075960208259
 21
-267.75881663913577
 31
0.0
 11
24.951285617752529
 21
-267.76146722824308
 31
0.0
  0
SPLINE
  5
1A2
100
AcDbEntity
  8
0
  6
CONTINUOUS
 62
             7
100
AcDbSpline
210
0.0
220
0.0
230
1.0
 70
             0
 71
             3
 72
            11
 73
             7
 74
             5
 42
0.00000000001
 43
0.00000000001
 44
0.00000000001
 40
127.2848313144614
 40
127.2848313144614
 40
127.2848313144614
 40
127.2848313144614
 40
158.3792218856089
 40
158.3792218856089
 40
158.3792218856089
 40
189.4736393036807
 40
189.4736393036807
 40
189.4736393036807
 40
189.4736393036807
 10
18.756045522101719
 20
-266.50000000000063
 30
0.0
 10
19.513321650989809
 20
-256.8089148877217
 30
0.0
 10
20.318949004739618
 20
-246.49611523032871
 30
0.0
 10
21.177735434521718
 20
-235.5000557604632
 30
0.0
 10
21.940165752544718
 20
-225.73775767578391
 30
0.0
 10
22.745770949310209
 20
-215.42059024663899
 30
0.0
 10
23.59834225229233
 20
-204.50000000000071
 30
0.0
 11
18.756045522101719
 21
-266.50000000000063
 31
0.0
 11
19.928824115476463
 21
-251.48939326432691
 31
0.0
 11
21.177735434521718
 21
-235.5000557604632
 31
0.0
 11
22.354235974047352
 21
-220.43438744096662
 31
0.0
 11
23.59834225229233
 21
-204.50000000000071
 31
0.0
  0
SPLINE
  5
1A1
100
AcDbEntity
  8
0
  6
CONTINUOUS
 62
             7
100
AcDbSpline
210
0.0
220
0.0
230
1.0
 70
             0
 71
             3
 72
            11
 73
             7
 74
             5
 42
0.00000000001
 43
0.00000000001
 44
0.00000000001
 40
2241.2647583093271
 40
2241.2647583093271
 40
2241.2647583093271
 40
2241.2647583093271
 40
2243.5818672976002
 40
2243.5818672976002
 40
2243.5818672976002
 40
2245.8989761717521
 40
2245.8989761717521
 40
2245.8989761717521
 40
2245.8989761717521
 10
18.40175569838323
 20
-198.86585680889891
 30
0.0
 10
18.406235813891819
 20
-199.65451374735491
 30
0.0
 10
18.410622789483231
 20
-200.42704716383099
 30
0.0
 10
18.414913812516399
 20
-201.1829284365279
 30
0.0
 10
18.419277483649019
 20
-201.9516069693301
 30
0.0
 10
18.423660615800319
 20
-202.72397248043501
 30
0.0
 10
18.428063025323219
 20
-203.5000000002828
 30
0.0
 11
18.40175569838323
 21
-198.86585680889891
 31
0.0
 11
18.408405665128097
 21
-200.0366834973733
 31
0.0
 11
18.414913812516399
 21
-201.1829284365279
 31
0.0
 11
18.421473892023453
 21
-202.33870834826325
 31
0.0
 11
18.428063025323219
 21
-203.5000000002828
 31
0.0
  0
SPLINE
  5
1A0
100
AcDbEntity
  8
0
  6
CONTINUOUS
 62
             7
100
AcDbSpline
210
0.0
220
0.0
230
1.0
 70
             0
 71
             6
 72
            15
 73
             8
 74
             5
 42
0.00000000001
 43
0.00000000001
 44
0.00000000001
 40
0.0
 40
0.0
 40
0.0
 40
0.0
 40
0.0
 40
0.0
 40
0.0
 40
0.5
 40
1.0
 40
1.0
 40
1.0
 40
1.0
 40
1.0
 40
1.0
 40
1.0
 10
16.465917777876719
 20
-267.68190760898938
 30
0.0
 10
16.560290543180919
 20
-267.69264145304902
 30
0.0
 10
16.772621327470329
 20
-267.71383037190009
 30
0.0
 10
17.021751347559508
 20
-267.73328182448938
 30
0.0
 10
17.28252402971972
 20
-267.74867917328459
 30
0.0
 10
17.525265110122721
 20
-267.75827029873119
 30
0.0
 10
17.725938093108919
 20
-267.76146722824308
 30
0.0
 10
17.813355928697732
 20
-267.76146722824308
 30
0.0
 11
16.465917777876719
 21
-267.68190760898938
 31
0.0
 11
16.786310372037878
 21
-267.7128594869975
 31
0.0
 11
17.150575456157728
 21
-267.73856943788087
 31
0.0
 11
17.509178763001465
 21
-267.75554132283713
 31
0.0
 11
17.813355928697732
 21
-267.76146722824308
 31
0.0
  0
SPLINE
  5
19F
100
AcDbEntity
  8
0
  6
CONTINUOUS
 62
             7
100
AcDbSpline
210
0.0
220
0.0
230
1.0
 70
             0
 71
             3
 72
            11
 73
             7
 74
             5
 42
0.00000000001
 43
0.00000000001
 44
0.00000000001
 40
127.2848313144615
 40
127.2848313144615
 40
127.2848313144615
 40
127.2848313144615
 40
158.34432693581871
 40
158.34432693581871
 40
158.34432693581871
 40
189.4038732939083
 40
189.4038732939083
 40
189.4038732939083
 40
189.4038732939083
 10
13.34580696291321
 20
-266.49999999999301
 30
0.0
 10
13.94698429869554
 20
-256.80891573567698
 30
0.0
 10
14.58652105331042
 20
-246.4961161910569
 30
0.0
 10
15.26823389601021
 20
-235.50005576046311
 30
0.0
 10
15.873456063210311
 20
-225.73779354737039
 30
0.0
 10
16.51293535757031
 20
-215.42063034374041
 30
0.0
 10
17.1896819896761
 20
-204.5000000000006
 30
0.0
 11
13.34580696291321
 21
-266.49999999999301
 31
0.0
 11
14.276819614367664
 21
-251.48939394258224
 31
0.0
 11
15.26823389601021
 21
-235.50005576046311
 31
0.0
 11
16.202136268503519
 21
-220.43441592922454
 31
0.0
 11
17.1896819896761
 21
-204.5000000000006
 31
0.0
  0
SPLINE
  5
19E
100
AcDbEntity
  8
0
  6
CONTINUOUS
 62
             7
100
AcDbSpline
210
0.0
220
0.0
230
1.0
 70
             0
 71
             3
 72
            26
 73
            22
 74
            15
 42
0.00000000001
 43
0.00000000001
 44
0.00000000001
 40
0.0005041889526498
 40
0.0005041889526498
 40
0.0005041889526498
 40
0.0005041889526498
 40
0.1472084511245015
 40
0.1472084511245015
 40
0.1472084511245015
 40
0.2930658864204412
 40
0.2930658864204412
 40
0.2930658864204412
 40
0.7562006216653399
 40
0.7562006216653399
 40
0.7562006216653399
 40
0.9684915756332208
 40
0.9684915756332208
 40
0.9684915756332208
 40
1.167522263538165
 40
1.167522263538165
 40
1.167522263538165
 40
1.282203552691596
 40
1.282203552691596
 40
1.282203552691596
 40
1.3950084972540631
 40
1.3950084972540631
 40
1.3950084972540631
 40
1.3950084972540631
 10
18.428063025323219
 20
-203.5000000002828
 30
0.0
 10
18.428341091101409
 20
-203.54901559129721
 30
0.0
 10
18.425833662724219
 20
-203.59796520938369
 30
0.0
 10
18.42056094118033
 20
-203.6464527393241
 30
0.0
 10
18.414609442443609
 20
-203.701182250599
 30
0.0
 10
18.40577562714731
 20
-203.7494331811566
 30
0.0
 10
18.396442152408142
 20
-203.79023953407
 30
0.0
 10
18.360276201005799
 20
-203.94835862879111
 30
0.0
 10
18.29431697459103
 20
-204.09216323570951
 30
0.0
 10
18.204424259375511
 20
-204.20876685834651
 30
0.0
 10
18.169984351724828
 20
-204.25344031142589
 30
0.0
 10
18.120855998667832
 20
-204.308631353838
 30
0.0
 10
18.055343684240519
 20
-204.3592953107389
 30
0.0
 10
18.01360589069731
 20
-204.39157323881551
 30
0.0
 10
17.95574739355791
 20
-204.42934703165
 30
0.0
 10
17.882934035596929
 20
-204.4577050499168
 30
0.0
 10
17.842452425268512
 20
-204.4734710889694
 30
0.0
 10
17.805203385035728
 20
-204.48326539526681
 30
0.0
 10
17.772848511221721
 20
-204.48941023547641
 30
0.0
 10
17.731154258969418
 20
-204.49732881118231
 30
0.0
 10
17.69330423091893
 20
-204.50000000000011
 30
0.0
 10
17.660666654874401
 20
-204.50000000000011
 30
0.0
 11
18.428063025323219
 21
-203.5000000002828
 31
0.0
 11
18.426393528497556
 21
-203.57342439270622
 31
0.0
 11
18.42056094118033
 21
-203.6464527393241
 31
0.0
 11
18.409769787795156
 21
-203.72356732108261
 31
0.0
 11
18.396442152408142
 21
-203.79023953407
 31
0.0
 11
18.320580742321766
 21
-204.01507149823979
 31
0.0
 11
18.204424259375511
 21
-204.20876685834651
 31
0.0
 11
18.141536124349248
 21
-204.2817846456096
 31
0.0
 11
18.055343684240519
 21
-204.3592953107389
 31
0.0
 11
17.980792196575386
 21
-204.40997014650651
 31
0.0
 11
17.882934035596929
 21
-204.4577050499168
 31
0.0
 11
17.82484374721642
 21
-204.47716559226274
 31
0.0
 11
17.772848511221721
 21
-204.48941023547641
 31
0.0
 11
17.713361329470143
 21
-204.49767458362794
 31
0.0
 11
17.660666654874401
 21
-204.50000000000011
 31
0.0
  0
SPLINE
  5
19D
100
AcDbEntity
  8
0
  6
CONTINUOUS
 62
             7
100
AcDbSpline
210
0.0
220
0.0
230
1.0
 70
             0
 71
             3
 72
            23
 73
            19
 74
            13
 42
0.00000000001
 43
0.00000000001
 44
0.00000000001
 40
0.0114464876879384
 40
0.0114464876879384
 40
0.0114464876879384
 40
0.0114464876879384
 40
0.1324714916837808
 40
0.1324714916837808
 40
0.1324714916837808
 40
0.2544843029482938
 40
0.2544843029482938
 40
0.2544843029482938
 40
0.4802425439814972
 40
0.4802425439814972
 40
0.4802425439814972
 40
0.7121069223983522
 40
0.7121069223983522
 40
0.7121069223983522
 40
1.192130185920492
 40
1.192130185920492
 40
1.192130185920492
 40
1.4633091325079219
 40
1.4633091325079219
 40
1.4633091325079219
 40
1.4633091325079219
 10
12.280650450184419
 20
-203.50000000000011
 30
0.0
 10
12.24033310045613
 20
-203.50000000000011
 30
0.0
 10
12.20004113979922
 20
-203.4969693735631
 30
0.0
 10
12.16004941076671
 20
-203.49094570809439
 30
0.0
 10
12.11993903019783
 20
-203.4849041710014
 30
0.0
 10
12.080216769722311
 20
-203.47586477759589
 30
0.0
 10
12.04115618999651
 20
-203.46390411835779
 30
0.0
 10
11.969759100410929
 20
-203.44204176339221
 30
0.0
 10
11.9009487185279
 20
-203.41053455365241
 30
0.0
 10
11.83631454820102
 20
-203.37015234654291
 30
0.0
 10
11.77146622734301
 20
-203.32963634223211
 30
0.0
 10
11.71125448371383
 20
-203.28045674695511
 30
0.0
 10
11.65710973637403
 20
-203.22373914217559
 30
0.0
 10
11.548342708886221
 20
-203.10980370833991
 30
0.0
 10
11.46641533612021
 20
-202.96793132149949
 30
0.0
 10
11.419355882809541
 20
-202.81055712261039
 30
0.0
 10
11.3935369716508
 20
-202.72421463084839
 30
0.0
 10
11.37857698426232
 20
-202.63441286504289
 30
0.0
 10
11.37494681696902
 20
-202.5435778713744
 30
0.0
 11
12.280650450184419
 21
-203.50000000000011
 31
0.0
 11
12.220227822714648
 21
-203.49773172859801
 31
0.0
 11
12.16004941076671
 21
-203.49094570809439
 31
0.0
 11
12.100209125065453
 21
-203.47964458403044
 31
0.0
 11
12.04115618999651
 21
-203.46390411835779
 31
0.0
 11
11.936199274376749
 21
-203.42397317700429
 31
0.0
 11
11.83631454820102
 21
-203.37015234654291
 31
0.0
 11
11.742698302218198
 21
-203.30302134453501
 31
0.0
 11
11.65710973637403
 21
-203.22373914217559
 31
0.0
 11
11.515092469275359
 21
-203.03343766928802
 31
0.0
 11
11.419355882809541
 21
-202.81055712261039
 31
0.0
 11
11.388830570939739
 21
-202.67875218520734
 31
0.0
 11
11.37494681696902
 21
-202.5435778713744
 31
0.0
  0
SPLINE
  5
19C
100
AcDbEntity
  8
0
  6
CONTINUOUS
 62
             7
100
AcDbSpline
210
0.0
220
0.0
230
1.0
 70
             0
 71
             6
 72
            14
 73
             7
 74
             3
 42
0.00000000001
 43
0.00000000001
 44
0.00000000001
 40
0.0
 40
0.0
 40
0.0
 40
0.0
 40
0.0
 40
0.0
 40
0.0
 40
1.0
 40
1.0
 40
1.0
 40
1.0
 40
1.0
 40
1.0
 40
1.0
 10
11.47307017177153
 20
-202.54357787137391
 30
0.0
 10
11.654787908274731
 20
-202.54357787137391
 30
0.0
 10
11.83225948967152
 20
-202.46463123125051
 30
0.0
 10
11.99736859042372
 20
-202.31594793108039
 30
0.0
 10
12.141998884999911
 20
-202.10673795099629
 30
0.0
 10
12.25803404785921
 20
-201.84621127105561
 30
0.0
 10
12.33735775346814
 20
-201.54357787137391
 30
0.0
 11
11.47307017177153
 21
-202.54357787137391
 31
0.0
 11
11.982009485790456
 21
-202.27055292113491
 31
0.0
 11
12.33735775346814
 21
-201.54357787137391
 31
0.0
  0
SPLINE
  5
19B
100
AcDbEntity
  8
0
  6
CONTINUOUS
 62
             7
100
AcDbSpline
210
0.0
220
0.0
230
1.0
 70
             0
 71
             6
 72
            15
 73
             8
 74
             5
 42
0.00000000001
 43
0.00000000001
 44
0.00000000001
 40
0.0
 40
0.0
 40
0.0
 40
0.0
 40
0.0
 40
0.0
 40
0.0
 40
0.5
 40
1.0
 40
1.0
 40
1.0
 40
1.0
 40
1.0
 40
1.0
 40
1.0
 10
13.583874246115411
 20
-202.00000000000011
 30
0.0
 10
13.473721347129921
 20
-202.00000000000011
 30
0.0
 10
13.23899533690091
 20
-201.98165967364261
 30
0.0
 10
12.98753574196321
 20
-201.9266367624617
 30
0.0
 10
12.74629465126962
 20
-201.83830437958639
 30
0.0
 10
12.54272375843011
 20
-201.72671418528481
 30
0.0
 10
12.39537953625433
 20
-201.6051563957561
 30
0.0
 10
12.33735775346814
 20
-201.54357787137391
 30
0.0
 11
13.583874246115411
 21
-202.00000000000011
 31
0.0
 11
13.234207279915706
 21
-201.96600393031952
 31
0.0
 11
12.87862500913649
 21
-201.86863865971483
 31
0.0
 11
12.565480948543492
 21
-201.72114435771508
 31
0.0
 11
12.33735775346814
 21
-201.54357787137391
 31
0.0
  0
SPLINE
  5
19A
100
AcDbEntity
  8
0
  6
CONTINUOUS
 62
             7
100
AcDbSpline
210
0.0
220
0.0
230
1.0
 70
             0
 71
             6
 72
            15
 73
             8
 74
             6
 42
0.00000000001
 43
0.00000000001
 44
0.00000000001
 40
0.2996517197814802
 40
0.2996517197814802
 40
0.2996517197814802
 40
0.2996517197814802
 40
0.2996517197814802
 40
0.2996517197814802
 40
0.2996517197814802
 40
0.5
 40
1.0
 40
1.0
 40
1.0
 40
1.0
 40
1.0
 40
1.0
 40
1.0
 10
14.30712907869902
 20
-201.7535465706375
 30
0.0
 10
14.30153358193872
 20
-201.77489436941289
 30
0.0
 10
14.27201632195222
 20
-201.84690892818799
 30
0.0
 10
14.207993623165811
 20
-201.90864778605541
 30
0.0
 10
14.111416926656601
 20
-201.95631841080461
 30
0.0
 10
13.98731571001543
 20
-201.98715538396749
 30
0.0
 10
13.843126084744309
 20
-202.00000000000011
 30
0.0
 10
13.73297318575872
 20
-202.00000000000011
 30
0.0
 11
14.30712907869902
 21
-201.7535465706375
 31
0.0
 11
14.279742107847035
 21
-201.81455979323499
 31
0.0
 11
14.231634485726074
 21
-201.86863865971463
 31
0.0
 11
14.108744340510494
 21
-201.94010070114433
 31
0.0
 11
13.939084001339051
 21
-201.98479395030793
 31
0.0
 11
13.73297318575872
 21
-202.00000000000011
 31
0.0
  0
SPLINE
  5
199
100
AcDbEntity
  8
0
  6
CONTINUOUS
 62
             7
100
AcDbSpline
210
0.0
220
0.0
230
1.0
 70
             0
 71
             3
 72
            11
 73
             7
 74
             5
 42
0.00000000001
 43
0.00000000001
 44
0.00000000001
 40
127.284831314461
 40
127.284831314461
 40
127.284831314461
 40
127.284831314461
 40
158.30934653027319
 40
158.30934653027319
 40
158.30934653027319
 40
189.3339462354505
 40
189.3339462354505
 40
189.3339462354505
 40
189.3339462354505
 10
7.9384032599034278
 20
-266.50000000000063
 30
0.0
 10
8.3244645832403172
 20
-256.80891641537602
 30
0.0
 10
8.7351491259288174
 20
-246.49611696147969
 30
0.0
 10
9.1729078082039202
 20
-235.50005576044791
 30
0.0
 10
9.5615476228923093
 20
-225.7378114909329
 30
0.0
 10
9.9721789713786144
 20
-215.42065040009061
 30
0.0
 10
10.40673506259953
 20
-204.49999999997021
 30
0.0
 11
7.9384032599034278
 21
-266.50000000000063
 31
0.0
 11
8.5362690244518422
 21
-251.48939448637688
 31
0.0
 11
9.1729078082039202
 21
-235.50005576044791
 31
0.0
 11
9.7726028317020273
 21
-220.43443017918608
 31
0.0
 11
10.40673506259953
 21
-204.49999999997021
 31
0.0
  0
SPLINE
  5
198
100
AcDbEntity
  8
0
  6
CONTINUOUS
 62
             7
100
AcDbSpline
210
0.0
220
0.0
230
1.0
 70
             0
 71
             3
 72
            11
 73
             7
 74
             5
 42
0.00000000001
 43
0.00000000001
 44
0.00000000001
 40
127.2848313144621
 40
127.2848313144621
 40
127.2848313144621
 40
127.2848313144621
 40
158.3093091474785
 40
158.3093091474785
 40
158.3093091474785
 40
189.33387940553271
 40
189.33387940553271
 40
189.33387940553271
 40
189.33387940553271
 10
10.507883211728711
 20
-266.50000000000063
 30
0.0
 10
10.89361132997303
 20
-256.80891366548377
 30
0.0
 10
11.30398323444863
 20
-246.49611384580129
 30
0.0
 10
11.741447938604811
 20
-235.50005576044779
 30
0.0
 10
12.12983080010234
 20
-225.7377127329797
 30
0.0
 10
12.540216106578731
 20
-215.42054000957179
 30
0.0
 10
12.97453452687183
 20
-204.49999999997021
 30
0.0
 11
10.507883211728711
 21
-266.50000000000063
 31
0.0
 11
11.105264355449814
 21
-251.48939228678796
 31
0.0
 11
11.741447938604811
 21
-235.50005576044779
 31
0.0
 11
12.340765398189982
 21
-220.43435174850904
 31
0.0
 11
12.97453452687183
 21
-204.49999999997021
 31
0.0
  0
SPLINE
  5
197
100
AcDbEntity
  8
0
  6
CONTINUOUS
 62
             7
100
AcDbSpline
210
0.0
220
0.0
230
1.0
 70
             0
 71
             3
 72
            11
 73
             7
 74
             5
 42
0.00000000001
 43
0.00000000001
 44
0.00000000001
 40
2241.264758309328
 40
2241.264758309328
 40
2241.264758309328
 40
2241.264758309328
 40
2243.581897237395
 40
2243.581897237395
 40
2243.581897237395
 40
2245.8990360804692
 40
2245.8990360804692
 40
2245.8990360804692
 40
2245.8990360804692
 10
2.9546353908425291
 20
-198.8658568088986
 30
0.0
 10
2.9605225970651108
 20
-199.63821249673089
 30
0.0
 10
2.9664093699142069
 20
-200.4105727446788
 30
0.0
 10
2.9722956400325158
 20
-201.1829284365279
 30
0.0
 10
2.9781819103451168
 20
-201.9552841538576
 30
0.0
 10
2.9840677462443099
 20
-202.72764427923931
 30
0.0
 10
2.989953080699312
 20
-203.50000000028271
 30
0.0
 11
2.9546353908425291
 21
-198.8658568088986
 31
0.0
 11
2.9634658664766249
 21
-200.02439262120694
 31
0.0
 11
2.9722956400325158
 21
-201.1829284365279
 31
0.0
 11
2.9811247113125119
 21
-202.3414642170124
 31
0.0
 11
2.989953080699312
 21
-203.50000000028271
 31
0.0
  0
SPLINE
  5
196
100
AcDbEntity
  8
0
  6
CONTINUOUS
 62
             7
100
AcDbSpline
210
0.0
220
0.0
230
1.0
 70
             0
 71
             3
 72
            11
 73
             7
 74
             5
 42
0.00000000001
 43
0.00000000001
 44
0.00000000001
 40
4.8370480380888123
 40
4.8370480380888123
 40
4.8370480380888123
 40
4.8370480380888123
 40
5.9456529698385516
 40
5.9456529698385516
 40
5.9456529698385516
 40
7.0540083743229838
 40
7.0540083743229838
 40
7.0540083743229838
 40
7.0540083743229838
 10
2.9546353908425291
 20
-198.8658568088986
 30
0.0
 10
2.938512390238603
 20
-198.49694405414149
 30
0.0
 10
2.9223742426315229
 20
-198.12776128660951
 30
0.0
 10
2.9062209765387239
 20
-197.75830954617689
 30
0.0
 10
2.8901032630279282
 20
-197.38967095172021
 30
0.0
 10
2.8739620482683139
 20
-197.0205713190457
 30
0.0
 10
2.8577973837056199
 20
-196.6510124504149
 30
0.0
 11
2.9546353908425291
 21
-198.8658568088986
 31
0.0
 11
2.9304395332489541
 21
-198.31228529716606
 31
0.0
 11
2.9062209765387239
 21
-197.75830954617689
 31
0.0
 11
2.8820267867666334
 21
-197.20500610111119
 31
0.0
 11
2.8577973837056199
 21
-196.6510124504149
 31
0.0
  0
SPLINE
  5
195
100
AcDbEntity
  8
0
  6
CONTINUOUS
 62
             7
100
AcDbSpline
210
0.0
220
0.0
230
1.0
 70
             0
 71
             3
 72
            26
 73
            22
 74
            15
 42
0.00000000001
 43
0.00000000001
 44
0.00000000001
 40
0.0005041889526355
 40
0.0005041889526355
 40
0.0005041889526355
 40
0.0005041889526355
 40
0.2909108349744554
 40
0.2909108349744554
 40
0.2909108349744554
 40
0.5168995354489219
 40
0.5168995354489219
 40
0.5168995354489219
 40
0.7138924827469242
 40
0.7138924827469242
 40
0.7138924827469242
 40
0.8714417031241379
 40
0.8714417031241379
 40
0.8714417031241379
 40
0.9838832013672452
 40
0.9838832013672452
 40
0.9838832013672452
 40
1.03094564146719
 40
1.03094564146719
 40
1.03094564146719
 40
1.0681782837935649
 40
1.0681782837935649
 40
1.0681782837935649
 40
1.0681782837935649
 10
2.989953080699312
 20
-203.50000000028271
 30
0.0
 10
2.9907023766694212
 20
-203.5983330753248
 30
0.0
 10
2.9879114745520239
 20
-203.6961329080207
 30
0.0
 10
2.98166964664853
 20
-203.79023953407
 30
0.0
 10
2.9764459913980121
 20
-203.8689954015608
 30
0.0
 10
2.968849036310421
 20
-203.9445064868226
 30
0.0
 10
2.9590500314340069
 20
-204.01505729615579
 30
0.0
 10
2.9472037670090039
 20
-204.1003479510029
 30
0.0
 10
2.9341119376601088
 20
-204.16420031589359
 30
0.0
 10
2.9235328252467272
 20
-204.20876685834659
 30
0.0
 10
2.9097774317700131
 20
-204.26671409469139
 30
0.0
 10
2.8942765950967302
 20
-204.31727272234801
 30
0.0
 10
2.877379169214922
 20
-204.3592953107389
 30
0.0
 10
2.8605617113758259
 20
-204.40111902480641
 30
0.0
 10
2.84248806799113
 20
-204.43417086770759
 30
0.0
 10
2.8235618934863029
 20
-204.4577050499168
 30
0.0
 10
2.8122781438031299
 20
-204.4717360851364
 30
0.0
 10
2.8007325614578109
 20
-204.48233275655301
 30
0.0
 10
2.7890174499948199
 20
-204.48941023547641
 30
0.0
 10
2.7759048442930272
 20
-204.49733198601021
 30
0.0
 10
2.7639788584309062
 20
-204.50000000000011
 30
0.0
 10
2.7536885560750228
 20
-204.50000000000011
 30
0.0
 11
2.989953080699312
 21
-203.50000000028271
 31
0.0
 11
2.9884330351265223
 21
-203.64670468554866
 31
0.0
 11
2.98166964664853
 21
-203.79023953407
 31
0.0
 11
2.9720755951509794
 21
-203.905725311922
 31
0.0
 11
2.9590500314340069
 21
-204.01505729615579
 31
0.0
 11
2.9408162463360088
 21
-204.12718361939895
 31
0.0
 11
2.9235328252467272
 21
-204.20876685834659
 31
0.0
 11
2.9016342593827349
 21
-204.29000282752546
 31
0.0
 11
2.877379169214922
 21
-204.3592953107389
 31
0.0
 11
2.8512613001002611
 21
-204.41535875477464
 31
0.0
 11
2.8235618934863029
 21
-204.4577050499168
 31
0.0
 11
2.8064514324079934
 21
-204.47616522630767
 31
0.0
 11
2.7890174499948199
 21
-204.48941023547641
 31
0.0
 11
2.7702946392802055
 21
-204.49767577418845
 31
0.0
 11
2.7536885560750228
 21
-204.50000000000011
 31
0.0
  0
SPLINE
  5
194
100
AcDbEntity
  8
0
  6
CONTINUOUS
 62
             7
100
AcDbSpline
210
0.0
220
0.0
230
1.0
 70
             0
 71
             6
 72
            15
 73
             8
 74
             5
 42
0.00000000001
 43
0.00000000001
 44
0.00000000001
 40
0.0
 40
0.0
 40
0.0
 40
0.0
 40
0.0
 40
0.0
 40
0.0
 40
0.5
 40
1.0
 40
1.0
 40
1.0
 40
1.0
 40
1.0
 40
1.0
 40
1.0
 10
-3.1587707917313961
 20
-202.54357787137391
 30
0.0
 10
-3.1641673354219759
 20
-202.67072402616611
 30
0.0
 10
-3.212748783491886
 20
-202.92332041504579
 30
0.0
 10
-3.3362831607195709
 20
-203.15771540708531
 30
0.0
 10
-3.5261407090682981
 20
-203.34450666753361
 30
0.0
 10
-3.759384686522278
 20
-203.46112789357551
 30
0.0
 10
-4.0070563597087947
 20
-203.50000000000011
 30
0.0
 10
-4.1308931493549856
 20
-203.50000000000011
 30
0.0
 11
-3.1587707917313961
 21
-202.54357787137391
 31
0.0
 11
-3.2445675889767531
 21
-202.91267867244409
 31
0.0
 11
-3.4580040544712589
 21
-203.22234957235818
 31
0.0
 11
-3.7683431666232372
 21
-203.42799503047979
 31
0.0
 11
-4.1308931493549856
 21
-203.50000000000011
 31
0.0
  0
SPLINE
  5
193
100
AcDbEntity
  8
0
  6
CONTINUOUS
 62
             7
100
AcDbSpline
210
0.0
220
0.0
230
1.0
 70
             0
 71
             3
 72
            11
 73
             7
 74
             5
 42
0.00000000001
 43
0.00000000001
 44
0.00000000001
 40
127.28483131446271
 40
127.28483131446271
 40
127.28483131446271
 40
127.28483131446271
 40
158.2876988855499
 40
158.2876988855499
 40
158.2876988855499
 40
189.2906737190776
 40
189.2906737190776
 40
189.2906737190776
 40
189.2906737190776
 10
-1.753933335710169
 20
-266.50000000000063
 30
0.0
 10
-1.8870882962306981
 20
-256.80891789690151
 30
0.0
 10
-2.0287199654556751
 20
-246.49611864024149
 30
0.0
 10
-2.179673592722875
 20
-235.50005576044791
 30
0.0
 10
-2.3136885876723712
 20
-225.73787026032161
 30
0.0
 10
-2.4552765688467808
 20
-215.42071609066511
 30
0.0
 10
-2.6051043996070828
 20
-204.49999999997021
 30
0.0
 11
-1.753933335710169
 21
-266.50000000000063
 31
0.0
 11
-1.9601289641865203
 21
-251.48939567148474
 31
0.0
 11
-2.179673592722875
 21
-235.50005576044791
 31
0.0
 11
-2.3864591827359263
 21
-220.43447685167231
 31
0.0
 11
-2.6051043996070828
 21
-204.49999999997021
 31
0.0
  0
SPLINE
  5
192
100
AcDbEntity
  8
0
  6
CONTINUOUS
 62
             7
100
AcDbSpline
210
0.0
220
0.0
230
1.0
 70
             0
 71
             3
 72
            11
 73
             7
 74
             5
 42
0.00000000001
 43
0.00000000001
 44
0.00000000001
 40
4.8311496646327399
 40
4.8311496646327399
 40
4.8311496646327399
 40
4.8311496646327399
 40
7.7811051689571817
 40
7.7811051689571817
 40
7.7811051689571817
 40
10.72933686598231
 40
10.72933686598231
 40
10.72933686598231
 40
10.72933686598231
 10
-3.115256111745591
 20
-202.543577871374
 30
0.0
 10
-3.0723987007591771
 20
-201.56159807143149
 30
0.0
 10
-3.0294999174288901
 20
-200.5792123995777
 30
0.0
 10
-2.9865601048358852
 20
-199.5964309775058
 30
0.0
 10
-2.9436351561684799
 20
-198.61398975230671
 30
0.0
 10
-2.900714119064471
 20
-197.6321809802734
 30
0.0
 10
-2.8577973837042769
 20
-196.65101245042911
 30
0.0
 11
-3.115256111745591
 21
-202.543577871374
 31
0.0
 11
-3.0509390088932098
 21
-201.07030503273842
 31
0.0
 11
-2.9865601048358852
 21
-199.5964309775058
 31
0.0
 11
-2.9221756642798766
 21
-198.1232444532094
 31
0.0
 11
-2.8577973837042769
 21
-196.65101245042911
 31
0.0
  0
SPLINE
  5
191
100
AcDbEntity
  8
0
  6
CONTINUOUS
 62
             7
100
AcDbSpline
210
0.0
220
0.0
230
1.0
 70
             0
 71
             3
 72
            26
 73
            22
 74
            15
 42
0.00000000001
 43
0.00000000001
 44
0.00000000001
 40
0.2801018446745474
 40
0.2801018446745474
 40
0.2801018446745474
 40
0.2801018446745474
 40
0.4173072225701313
 40
0.4173072225701313
 40
0.4173072225701313
 40
0.5548708961455608
 40
0.5548708961455608
 40
0.5548708961455608
 40
0.7999657972964112
 40
0.7999657972964112
 40
0.7999657972964112
 40
1.0448912393015941
 40
1.0448912393015941
 40
1.0448912393015941
 40
1.5315251590278669
 40
1.5315251590278669
 40
1.5315251590278669
 40
1.66703218973024
 40
1.66703218973024
 40
1.66703218973024
 40
1.802259875990617
 40
1.802259875990617
 40
1.802259875990617
 40
1.802259875990617
 10
-3.115256111745591
 20
-202.543577871374
 30
0.0
 10
-3.117251586099993
 20
-202.5892996138281
 30
0.0
 10
-3.122384926842269
 20
-202.6348261522821
 30
0.0
 10
-3.130617773580977
 20
-202.67983927009439
 30
0.0
 10
-3.139829323344796
 20
-202.73020345005639
 30
0.0
 10
-3.1519918749861771
 20
-202.7748456568967
 30
0.0
 10
-3.1645895685136871
 20
-202.8130583060246
 30
0.0
 10
-3.1843204283596802
 20
-202.87290802555029
 30
0.0
 10
-3.2162518818858779
 20
-202.9507911674263
 30
0.0
 10
-3.26899410241688
 20
-203.03429652984261
 30
0.0
 10
-3.3025973152694772
 20
-203.08749960774401
 30
0.0
 10
-3.3524211185810739
 20
-203.15530807652311
 30
0.0
 10
-3.4237738588086839
 20
-203.2235261090355
 30
0.0
 10
-3.542063091734772
 20
-203.336618594508
 30
0.0
 10
-3.6861559104837882
 20
-203.4189195444186
 30
0.0
 10
-3.843192934344497
 20
-203.4630725928061
 30
0.0
 10
-3.8867176844922788
 20
-203.47531015533801
 30
0.0
 10
-3.9310119671420951
 20
-203.48455333877831
 30
0.0
 10
-3.9757660747906951
 20
-203.4907315050753
 30
0.0
 10
-4.0150034489368762
 20
-203.49614810335581
 30
0.0
 10
-4.0603238666190826
 20
-203.50000000000011
 30
0.0
 10
-4.1105960508128838
 20
-203.50000000000011
 30
0.0
 11
-3.115256111745591
 21
-202.543577871374
 31
0.0
 11
-3.1205979280191691
 21
-202.61197430497489
 31
0.0
 11
-3.130617773580977
 21
-202.67983927009439
 31
0.0
 11
-3.1463338671359478
 21
-202.7510056121223
 31
0.0
 11
-3.1645895685136871
 21
-202.8130583060246
 31
0.0
 11
-3.2044125752084045
 21
-202.91480655184958
 31
0.0
 11
-3.26899410241688
 21
-203.03429652984261
 31
0.0
 11
-3.3322279078471513
 21
-203.12328071145987
 31
0.0
 11
-3.4237738588086839
 21
-203.2235261090355
 31
0.0
 11
-3.6189529749761076
 21
-203.36915163982766
 31
0.0
 11
-3.843192934344497
 21
-203.4630725928061
 31
0.0
 11
-3.9090184955047893
 21
-203.47917432252879
 31
0.0
 11
-3.9757660747906951
 21
-203.4907315050753
 31
0.0
 11
-4.0390430090339322
 21
-203.4973969768929
 31
0.0
 11
-4.1105960508128838
 21
-203.50000000000011
 31
0.0
  0
SPLINE
  5
190
100
AcDbEntity
  8
0
  6
CONTINUOUS
 62
             7
100
AcDbSpline
210
0.0
220
0.0
230
1.0
 70
             0
 71
             6
 72
            14
 73
             7
 74
             4
 42
0.00000000001
 43
0.00000000001
 44
0.00000000001
 40
0.0
 40
0.0
 40
0.0
 40
0.0
 40
0.0
 40
0.0
 40
0.0
 40
1.0
 40
1.0
 40
1.0
 40
1.0
 40
1.0
 40
1.0
 40
1.0
 10
-3.1587707917313961
 20
-202.54357787137391
 30
0.0
 10
-3.2393570004641932
 20
-202.54357787137391
 30
0.0
 10
-3.3160138026216801
 20
-202.46463123124951
 30
0.0
 10
-3.385380589234896
 20
-202.315947931083
 30
0.0
 10
-3.4440967513375789
 20
-202.1067379509943
 30
0.0
 10
-3.488801679959888
 20
-201.84621127105569
 30
0.0
 10
-3.5161347661346811
 20
-201.54357787137391
 30
0.0
 11
-3.1587707917313961
 21
-202.54357787137391
 31
0.0
 11
-3.3109048582614933
 21
-202.41882234530672
 31
0.0
 11
-3.4350048630152576
 21
-202.07184459701699
 31
0.0
 11
-3.5161347661346811
 21
-201.54357787137391
 31
0.0
  0
SPLINE
  5
18F
100
AcDbEntity
  8
0
  6
CONTINUOUS
 62
             7
100
AcDbSpline
210
0.0
220
0.0
230
1.0
 70
             0
 71
             3
 72
            11
 73
             7
 74
             5
 42
0.00000000001
 43
0.00000000001
 44
0.00000000001
 40
21.08756855207891
 40
21.08756855207891
 40
21.08756855207891
 40
21.08756855207891
 40
45.135197274682668
 40
45.135197274682668
 40
45.135197274682668
 40
67.542615552631304
 40
67.542615552631304
 40
67.542615552631304
 40
67.542615552631304
 10
-2.8577973837042769
 20
-196.65101245042911
 30
0.0
 10
-3.4398089962064908
 20
-190.22016376485249
 30
0.0
 10
-4.1466289819055904
 20
-182.4048708358475
 30
0.0
 10
-5.0238385603444691
 20
-172.70113327645331
 30
0.0
 10
-5.6023562501861726
 20
-166.30154078034639
 30
0.0
 10
-6.2616731183857688
 20
-159.0065837597503
 30
0.0
 10
-7.020198003197291
 20
-150.6125754569087
 30
0.0
 11
-2.8577973837042769
 21
-196.65101245042911
 31
0.0
 11
-3.8301187347981234
 21
-185.9034061911228
 31
0.0
 11
-5.0238385603444691
 21
-172.70113327645331
 31
0.0
 11
-5.9545155836571979
 21
-162.40476029420651
 31
0.0
 11
-7.020198003197291
 21
-150.6125754569087
 31
0.0
  0
SPLINE
  5
18E
100
AcDbEntity
  8
0
  6
CONTINUOUS
 62
             7
100
AcDbSpline
210
0.0
220
0.0
230
1.0
 70
             0
 71
             3
 72
            11
 73
             7
 74
             5
 42
0.00000000001
 43
0.00000000001
 44
0.00000000001
 40
0.0523482313711321
 40
0.0523482313711321
 40
0.0523482313711321
 40
0.0523482313711321
 40
0.0921464689730125
 40
0.0921464689730125
 40
0.0921464689730125
 40
0.1319559155919494
 40
0.1319559155919494
 40
0.1319559155919494
 40
0.1319559155919494
 10
1.7147144756330051
 20
-269.58715574274783
 30
0.0
 10
1.713829628751431
 20
-269.57392367678699
 30
0.0
 10
1.7132113718621189
 20
-269.56067008230229
 30
0.0
 10
1.7128600684765189
 20
-269.54740275386439
 30
0.0
 10
1.7125089497832029
 20
-269.53414240052177
 30
0.0
 10
1.712424572750112
 20
-269.52087092590722
 30
0.0
 10
1.7126069868187159
 20
-269.50759612350788
 30
0.0
 11
1.7147144756330051
 21
-269.58715574274783
 31
0.0
 11
1.7135871932437718
 21
-269.56729247173502
 31
0.0
 11
1.7128600684765189
 21
-269.54740275386439
 31
0.0
 11
1.7125334528618974
 21
-269.52750485708236
 31
0.0
 11
1.7126069868187159
 21
-269.50759612350788
 31
0.0
  0
SPLINE
  5
18D
100
AcDbEntity
  8
0
  6
CONTINUOUS
 62
             7
100
AcDbSpline
210
0.0
220
0.0
230
1.0
 70
             0
 71
             3
 72
            11
 73
             7
 74
             5
 42
0.00000000001
 43
0.00000000001
 44
0.00000000001
 40
199.9055130408521
 40
199.9055130408521
 40
199.9055130408521
 40
199.9055130408521
 40
203.90564986541301
 40
203.90564986541301
 40
203.90564986541301
 40
207.9057807461412
 40
207.9057807461412
 40
207.9057807461412
 40
207.9057807461412
 10
54.280779554820931
 20
-148.4999999999981
 30
0.0
 10
54.27004428546423
 20
-147.1636221043029
 30
0.0
 10
54.25923493767003
 20
-145.83033666701431
 30
0.0
 10
54.248351943716422
 20
-144.49999461956699
 30
0.0
 10
54.237422031392619
 20
-143.1639172495625
 30
0.0
 10
54.226416429090833
 20
-141.83063665607389
 30
0.0
 10
54.215335483535007
 20
-140.50000000023101
 30
0.0
 11
54.280779554820931
 21
-148.4999999999981
 31
0.0
 11
54.264621145992521
 21
-146.49773386668957
 31
0.0
 11
54.248351943716422
 21
-144.49999461956699
 31
0.0
 11
54.231900351087724
 21
-142.49795704208839
 31
0.0
 11
54.215335483535007
 21
-140.50000000023101
 31
0.0
  0
SPLINE
  5
18C
100
AcDbEntity
  8
0
  6
CONTINUOUS
 62
             7
100
AcDbSpline
210
0.0
220
0.0
230
1.0
 70
             0
 71
             3
 72
            11
 73
             7
 74
             5
 42
0.00000000001
 43
0.00000000001
 44
0.00000000001
 40
0.0648168609079155
 40
0.0648168609079155
 40
0.0648168609079155
 40
0.0648168609079155
 40
0.2088989840328087
 40
0.2088989840328087
 40
0.2088989840328087
 40
0.3528806655354881
 40
0.3528806655354881
 40
0.3528806655354881
 40
0.3528806655354881
 10
54.135045072794341
 20
-148.74847184798941
 30
0.0
 10
54.159040118070131
 20
-148.7064077255809
 30
0.0
 10
54.183143248371131
 20
-148.66472636272391
 30
0.0
 10
54.207171260837541
 20
-148.6237429870929
 30
0.0
 10
54.228598174921508
 20
-148.58719617450319
 30
0.0
 10
54.253466813024211
 20
-148.54523206439549
 30
0.0
 10
54.280779554820931
 20
-148.4999999999981
 30
0.0
 11
54.135045072794341
 21
-148.74847184798941
 31
0.0
 11
54.17109580411946
 21
-148.68570213749959
 31
0.0
 11
54.207171260837541
 21
-148.6237429870929
 31
0.0
 11
54.241768222436953
 21
-148.56512846297338
 31
0.0
 11
54.280779554820931
 21
-148.4999999999981
 31
0.0
  0
SPLINE
  5
18B
100
AcDbEntity
  8
0
  6
CONTINUOUS
 62
             7
100
AcDbSpline
210
0.0
220
0.0
230
1.0
 70
             0
 71
             3
 72
            11
 73
             7
 74
             5
 42
0.00000000001
 43
0.00000000001
 44
0.00000000001
 40
0.0
 40
0.0
 40
0.0
 40
0.0
 40
0.0087732981756046
 40
0.0087732981756046
 40
0.0087732981756046
 40
0.0146801249121738
 40
0.0146801249121738
 40
0.0146801249121738
 40
0.0146801249121738
 10
-29.727952463549169
 20
-202.00000000000011
 30
0.0
 10
-29.731507238086099
 20
-202.00000000000011
 30
0.0
 10
-29.734398071198399
 20
-201.99961272791421
 30
0.0
 10
-29.736620362761901
 20
-201.99883910372259
 30
0.0
 10
-29.73884301260988
 20
-201.99806535480491
 30
0.0
 10
-29.740395733554291
 20
-201.99690553709451
 30
0.0
 10
-29.741276034894579
 20
-201.9953617907687
 30
0.0
 11
-29.727952463549169
 21
-202.00000000000011
 31
0.0
 11
-29.732786094270562
 21
-201.99970966093318
 31
0.0
 11
-29.736620362761901
 21
-201.99883910372259
 31
0.0
 11
-29.739451579518626
 21
-201.99738919627367
 31
0.0
 11
-29.741276034894579
 21
-201.9953617907687
 31
0.0
  0
SPLINE
  5
18A
100
AcDbEntity
  8
0
  6
CONTINUOUS
 62
             7
100
AcDbSpline
210
0.0
220
0.0
230
1.0
 70
             0
 71
             3
 72
             8
 73
             4
 74
             3
 42
0.00000000001
 43
0.00000000001
 44
0.00000000001
 40
0.0
 40
0.0
 40
0.0
 40
0.0
 40
0.0000037025880664
 40
0.0000037025880664
 40
0.0000037025880664
 40
0.0000037025880664
 10
-29.741277876003888
 20
-201.99535856562329
 30
0.0
 10
-29.741277263457871
 20
-201.9953596413315
 30
0.0
 10
-29.741276650911381
 20
-201.9953607170392
 30
0.0
 10
-29.741276034894579
 20
-201.9953617907687
 30
0.0
 11
-29.741277876003888
 21
-201.99535856562329
 31
0.0
 11
-29.741276956750777
 21
-201.99536017893803
 31
0.0
 11
-29.741276034894579
 21
-201.9953617907687
 31
0.0
  0
SPLINE
  5
189
100
AcDbEntity
  8
0
  6
CONTINUOUS
 62
             7
100
AcDbSpline
210
0.0
220
0.0
230
1.0
 70
             0
 71
             3
 72
            23
 73
            19
 74
            13
 42
0.00000000001
 43
0.00000000001
 44
0.00000000001
 40
0.0005041889331463
 40
0.0005041889331463
 40
0.0005041889331463
 40
0.0005041889331463
 40
0.2917344881962038
 40
0.2917344881962038
 40
0.2917344881962038
 40
0.5225982897224621
 40
0.5225982897224621
 40
0.5225982897224621
 40
0.7322962387139662
 40
0.7322962387139662
 40
0.7322962387139662
 40
1.0687972142276929
 40
1.0687972142276929
 40
1.0687972142276929
 40
1.151334614558343
 40
1.151334614558343
 40
1.151334614558343
 40
1.229782669088592
 40
1.229782669088592
 40
1.229782669088592
 40
1.229782669088592
 10
-11.260117426804589
 20
-203.50000000052651
 30
0.0
 10
-11.26080463407178
 20
-203.59833350632869
 30
0.0
 10
-11.253736120107989
 20
-203.69613332051779
 30
0.0
 10
-11.239138491126599
 20
-203.79023953406031
 30
0.0
 10
-11.22692188129278
 20
-203.86899608385701
 30
0.0
 10
-11.209534062839881
 20
-203.94450709798801
 30
0.0
 10
-11.18736737692919
 20
-204.01505729614721
 30
0.0
 10
-11.160581560245991
 20
-204.1003088616032
 30
0.0
 10
-11.131270092721881
 20
-204.16416041907561
 30
0.0
 10
-11.10762437490729
 20
-204.20876685833969
 30
0.0
 10
-11.04611277737558
 20
-204.32480534618921
 30
0.0
 10
-10.970016658135
 20
-204.41033760067199
 30
0.0
 10
-10.886049132891999
 20
-204.4577050499141
 30
0.0
 10
-10.86117603732399
 20
-204.47173636843161
 30
0.0
 10
-10.835762803184
 20
-204.48233289973481
 30
0.0
 10
-10.810012659037289
 20
-204.4894102354757
 30
0.0
 10
-10.78772494088739
 20
-204.49553593571829
 30
0.0
 10
-10.761639811980791
 20
-204.50000000000011
 30
0.0
 10
-10.73246166824728
 20
-204.50000000000011
 30
0.0
 11
-11.260117426804589
 21
-203.50000000052651
 31
0.0
 11
-11.255359772558812
 21
-203.64670500189078
 31
0.0
 11
-11.239138491126599
 21
-203.79023953406031
 31
0.0
 11
-11.216984212556723
 21
-203.90572579696783
 31
0.0
 11
-11.18736737692919
 21
-204.01505729614721
 31
0.0
 11
-11.146318338842512
 21
-204.12715399956542
 31
0.0
 11
-11.10762437490729
 21
-204.20876685833969
 31
0.0
 11
-11.005257726791378
 21
-204.35898759360467
 31
0.0
 11
-10.886049132891999
 21
-204.4577050499141
 31
0.0
 11
-10.848359789181657
 21
-204.47616538623612
 31
0.0
 11
-10.810012659037289
 21
-204.4894102354757
 31
0.0
 11
-10.773821073236139
 21
-204.49700225532888
 31
0.0
 11
-10.73246166824728
 21
-204.50000000000011
 31
0.0
  0
SPLINE
  5
188
100
AcDbEntity
  8
0
  6
CONTINUOUS
 62
             7
100
AcDbSpline
210
0.0
220
0.0
230
1.0
 70
             0
 71
             3
 72
            11
 73
             7
 74
             5
 42
0.00000000001
 43
0.00000000001
 44
0.00000000001
 40
127.2848313144605
 40
127.2848313144605
 40
127.2848313144605
 40
127.2848313144605
 40
158.30934653027271
 40
158.30934653027271
 40
158.30934653027271
 40
189.3339462354499
 40
189.3339462354499
 40
189.3339462354499
 40
189.3339462354499
 10
-7.9384032599033922
 20
-266.50000000000011
 30
0.0
 10
-8.3244645952307756
 20
-256.80891611438273
 30
0.0
 10
-8.7351491394681737
 20
-246.49611662138059
 30
0.0
 10
-9.1729078082037709
 20
-235.50005576044791
 30
0.0
 10
-9.5615475943081911
 20
-225.7378122089346
 30
0.0
 10
-9.9721789394404787
 20
-215.4206512027109
 30
0.0
 10
-10.406735062599379
 20
-204.49999999997041
 30
0.0
 11
-7.9384032599033922
 21
-266.50000000000011
 31
0.0
 11
-8.5362690340255014
 21
-251.48939424596725
 31
0.0
 11
-9.1729078082037709
 21
-235.50005576044791
 31
0.0
 11
-9.7726028090061448
 21
-220.43443074941933
 31
0.0
 11
-10.406735062599379
 21
-204.49999999997041
 31
0.0
  0
SPLINE
  5
187
100
AcDbEntity
  8
0
  6
CONTINUOUS
 62
             7
100
AcDbSpline
210
0.0
220
0.0
230
1.0
 70
             0
 71
             3
 72
            35
 73
            31
 74
            21
 42
0.00000000001
 43
0.00000000001
 44
0.00000000001
 40
0.0
 40
0.0
 40
0.0
 40
0.0
 40
0.2472169765481243
 40
0.2472169765481243
 40
0.2472169765481243
 40
0.7096743267284449
 40
0.7096743267284449
 40
0.7096743267284449
 40
0.9111993573992085
 40
0.9111993573992085
 40
0.9111993573992085
 40
1.105142947267602
 40
1.105142947267602
 40
1.105142947267602
 40
1.3664838684270839
 40
1.3664838684270839
 40
1.3664838684270839
 40
1.5246680129625281
 40
1.5246680129625281
 40
1.5246680129625281
 40
1.7272697220691591
 40
1.7272697220691591
 40
1.7272697220691591
 40
1.9741248984003199
 40
1.9741248984003199
 40
1.9741248984003199
 40
2.221481156782553
 40
2.221481156782553
 40
2.221481156782553
 40
2.508460731975632
 40
2.508460731975632
 40
2.508460731975632
 40
2.508460731975632
 10
-5.6494771606084804
 20
-201.58999094273949
 30
0.0
 10
-5.6426613828645849
 20
-201.665318468046
 30
0.0
 10
-5.6345764375284908
 20
-201.74873381648661
 30
0.0
 10
-5.6251594390159854
 20
-201.83600669482939
 30
0.0
 10
-5.6080491697122703
 20
-201.9945776502544
 30
0.0
 10
-5.5880257471743811
 20
-202.1521118928087
 30
0.0
 10
-5.5650890811860698
 20
-202.2945079030014
 30
0.0
 10
-5.5522936833944776
 20
-202.37394462651071
 30
0.0
 10
-5.5401546204403731
 20
-202.43897428059731
 30
0.0
 10
-5.5289939336762721
 20
-202.49276134568851
 30
0.0
 10
-5.5138188269306703
 20
-202.565895237136
 30
0.0
 10
-5.4985477065828796
 20
-202.62742469982129
 30
0.0
 10
-5.4829456357011814
 20
-202.68112112209619
 30
0.0
 10
-5.4586346135511938
 20
-202.76479045812229
 30
0.0
 10
-5.4287768640047851
 20
-202.84579388482541
 30
0.0
 10
-5.3888066786977866
 20
-202.92461176791639
 30
0.0
 10
-5.3670367210327719
 20
-202.9675403149061
 30
0.0
 10
-5.3404311275334884
 20
-203.0134338010453
 30
0.0
 10
-5.3076016905933701
 20
-203.06024508828881
 30
0.0
 10
-5.2748905133249728
 20
-203.10688774981159
 30
0.0
 10
-5.2318630613696904
 20
-203.16034460715051
 30
0.0
 10
-5.1760704634963837
 20
-203.21403500906621
 30
0.0
 10
-5.115818259265378
 20
-203.27201698489759
 30
0.0
 10
-5.0496633281962851
 20
-203.321621659616
 30
0.0
 10
-4.9793559402026766
 20
-203.36243018561731
 30
0.0
 10
-4.9241018880133787
 20
-203.3945013020361
 30
0.0
 10
-4.8478156714050691
 20
-203.43187193299269
 30
0.0
 10
-4.7523929516851773
 20
-203.45962951978541
 30
0.0
 10
-4.6630617946999813
 20
-203.4856151273072
 30
0.0
 10
-4.5678479795491818
 20
-203.50000000000011
 30
0.0
 10
-4.4689936629411839
 20
-203.50000000000011
 30
0.0
 11
-5.6494771606084804
 21
-201.58999094273949
 31
0.0
 11
-5.6382937576004615
 21
-201.70851931139583
 31
0.0
 11
-5.6251594390159854
 21
-201.83600669482939
 31
0.0
 11
-5.597309158857751
 21
-202.07132290337751
 31
0.0
 11
-5.5650890811860698
 21
-202.2945079030014
 31
0.0
 11
-5.5464284907958614
 21
-202.40325324625172
 31
0.0
 11
-5.5289939336762721
 21
-202.49276134568851
 31
0.0
 11
-5.5061298962397638
 21
-202.59423028483209
 31
0.0
 11
-5.4829456357011814
 21
-202.68112112209619
 31
0.0
 11
-5.4417483433833631
 21
-202.80468573985695
 31
0.0
 11
-5.3888066786977866
 21
-202.92461176791639
 31
0.0
 11
-5.3523514893737429
 21
-202.99097240050742
 31
0.0
 11
-5.3076016905933701
 21
-203.06024508828881
 31
0.0
 11
-5.2504916097717187
 21
-203.13449714603016
 31
0.0
 11
-5.1760704634963837
 21
-203.21403500906621
 31
0.0
 11
-5.0814838957605062
 21
-203.29467264102803
 31
0.0
 11
-4.9793559402026766
 21
-203.36243018561731
 31
0.0
 11
-4.8809376962678996
 21
-203.41264742631111
 31
0.0
 11
-4.7523929516851773
 21
-203.45962951978541
 31
0.0
 11
-4.6142644921717304
 21
-203.48955936271344
 31
0.0
 11
-4.4689936629411839
 21
-203.50000000000011
 31
0.0
  0
SPLINE
  5
186
100
AcDbEntity
  8
0
  6
CONTINUOUS
 62
             7
100
AcDbSpline
210
0.0
220
0.0
230
1.0
 70
             0
 71
             3
 72
            11
 73
             7
 74
             5
 42
0.00000000001
 43
0.00000000001
 44
0.00000000001
 40
127.2848313144607
 40
127.2848313144607
 40
127.2848313144607
 40
127.2848313144607
 40
158.28768459662521
 40
158.28768459662521
 40
158.28768459662521
 40
189.29064817451041
 40
189.29064817451041
 40
189.29064817451041
 40
189.29064817451041
 10
-4.6022238037542964
 20
-266.50000000000063
 30
0.0
 10
-4.735009439802579
 20
-256.80890640276368
 30
0.0
 10
-4.8762945517340741
 20
-246.4961056162434
 30
0.0
 10
-5.0269222606925981
 20
-235.50005576044791
 30
0.0
 10
-5.1606541543421791
 20
-225.73742589606599
 30
0.0
 10
-5.3019696000531811
 20
-215.42021938350749
 30
0.0
 10
-5.4515320328483741
 20
-204.49999999997041
 30
0.0
 11
-4.6022238037542964
 21
-266.50000000000063
 31
0.0
 11
-4.8078822548821076
 21
-251.48938647718373
 31
0.0
 11
-5.0269222606925981
 21
-235.50005576044791
 31
0.0
 11
-5.2332906945908819
 21
-220.43412394989235
 31
0.0
 11
-5.4515320328483741
 21
-204.49999999997041
 31
0.0
  0
SPLINE
  5
185
100
AcDbEntity
  8
0
  6
CONTINUOUS
 62
             7
100
AcDbSpline
210
0.0
220
0.0
230
1.0
 70
             0
 71
             3
 72
            11
 73
             7
 74
             5
 42
0.00000000001
 43
0.00000000001
 44
0.00000000001
 40
0.7638919029026614
 40
0.7638919029026614
 40
0.7638919029026614
 40
0.7638919029026614
 40
0.8101529652219484
 40
0.8101529652219484
 40
0.8101529652219484
 40
0.8563842838827964
 40
0.8563842838827964
 40
0.8563842838827964
 40
0.8563842838827964
 10
-49.760758747299171
 20
-157.3774333241463
 30
0.0
 10
-49.760448658856582
 20
-157.3930474267213
 30
0.0
 10
-49.760063845212969
 20
-157.40846319795091
 30
0.0
 10
-49.759609194177777
 20
-157.42367995651691
 30
0.0
 10
-49.759150730409992
 20
-157.43902432378849
 30
0.0
 10
-49.758613488266079
 20
-157.4544262045072
 30
0.0
 10
-49.75799470761438
 20
-157.4698829273861
 30
0.0
 11
-49.760758747299171
 21
-157.3774333241463
 31
0.0
 11
-49.760238181710697
 21
-157.40070564433498
 31
0.0
 11
-49.759609194177777
 21
-157.42367995651691
 31
0.0
 11
-49.758862069727535
 21
-157.44673930859875
 31
0.0
 11
-49.75799470761438
 21
-157.4698829273861
 31
0.0
  0
SPLINE
  5
184
100
AcDbEntity
  8
0
  6
CONTINUOUS
 62
             7
100
AcDbSpline
210
0.0
220
0.0
230
1.0
 70
             0
 71
             3
 72
            11
 73
             7
 74
             5
 42
0.00000000001
 43
0.00000000001
 44
0.00000000001
 40
4.8370480380888132
 40
4.8370480380888132
 40
4.8370480380888132
 40
4.8370480380888132
 40
5.9454863346407691
 40
5.9454863346407691
 40
5.9454863346407691
 40
7.0536760821608322
 40
7.0536760821608322
 40
7.0536760821608322
 40
7.0536760821608322
 10
-11.227719238189399
 20
-198.86585680889891
 30
0.0
 10
-11.212926184483679
 20
-198.4969546174417
 30
0.0
 10
-11.198114333790389
 20
-198.1277718388564
 30
0.0
 10
-11.18328368966789
 20
-197.75830954617729
 30
0.0
 10
-11.168455694216989
 20
-197.38891323743519
 30
0.0
 10
-11.15363205404228
 20
-197.0198140297706
 30
0.0
 10
-11.13881282170348
 20
-196.65101245042911
 30
0.0
 11
-11.227719238189399
 21
-198.86585680889891
 31
0.0
 11
-11.205515560334938
 21
-198.31229321549631
 31
0.0
 11
-11.18328368966789
 21
-197.75830954617729
 31
0.0
 11
-11.161044969518649
 21
-197.20443797477796
 31
0.0
 11
-11.13881282170348
 21
-196.65101245042911
 31
0.0
  0
SPLINE
  5
183
100
AcDbEntity
  8
0
  6
CONTINUOUS
 62
             7
100
AcDbSpline
210
0.0
220
0.0
230
1.0
 70
             0
 71
             3
 72
            29
 73
            25
 74
            17
 42
0.00000000001
 43
0.00000000001
 44
0.00000000001
 40
0.0000037025880664
 40
0.0000037025880664
 40
0.0000037025880664
 40
0.0000037025880664
 40
0.1073740453362324
 40
0.1073740453362324
 40
0.1073740453362324
 40
0.4719830537220171
 40
0.4719830537220171
 40
0.4719830537220171
 40
0.836066107350864
 40
0.836066107350864
 40
0.836066107350864
 40
1.198891274723459
 40
1.198891274723459
 40
1.198891274723459
 40
1.5613841428514099
 40
1.5613841428514099
 40
1.5613841428514099
 40
1.923489292406299
 40
1.923489292406299
 40
1.923489292406299
 40
2.2852115652707439
 40
2.2852115652707439
 40
2.2852115652707439
 40
2.6058905553890321
 40
2.6058905553890321
 40
2.6058905553890321
 40
2.6058905553890321
 10
-29.741276034894579
 20
-201.9953617907687
 30
0.0
 10
-29.723512951349392
 20
-202.026555934367
 30
0.0
 10
-29.705271360518282
 20
-202.0573433348728
 30
0.0
 10
-29.686546627372589
 20
-202.08773179654651
 30
0.0
 10
-29.628510261042489
 20
-202.18191930139179
 30
0.0
 10
-29.559424704020788
 20
-202.2826743287516
 30
0.0
 10
-29.47711318468799
 20
-202.385987688813
 30
0.0
 10
-29.409558810694481
 20
-202.47077860775931
 30
0.0
 10
-29.32890036347408
 20
-202.56255914905299
 30
0.0
 10
-29.23339821353628
 20
-202.6562385931835
 30
0.0
 10
-29.156908397977588
 20
-202.73126856274811
 30
0.0
 10
-29.06593675123338
 20
-202.8123823216192
 30
0.0
 10
-28.95947051720918
 20
-202.8938994148497
 30
0.0
 10
-28.853101056369891
 20
-202.97534241258111
 30
0.0
 10
-28.751184664560778
 20
-203.0419363237373
 30
0.0
 10
-28.658850021106471
 20
-203.0961495812054
 30
0.0
 10
-28.543458795065881
 20
-203.16390025433159
 30
0.0
 10
-28.434296624556598
 20
-203.21744370732191
 30
0.0
 10
-28.336071540022569
 20
-203.2598877413873
 30
0.0
 10
-28.2139101041864
 20
-203.3126749104562
 30
0.0
 10
-28.09920346495969
 20
-203.3523821463354
 30
0.0
 10
-27.995967244471469
 20
-203.38255522366759
 30
0.0
 10
-27.883366633319291
 20
-203.41546525206539
 30
0.0
 10
-27.777299756572891
 20
-203.43911129949191
 30
0.0
 10
-27.68008753452667
 20
-203.45613589282431
 30
0.0
 11
-29.741276034894579
 21
-201.9953617907687
 31
0.0
 11
-29.714271949733767
 21
-202.04184892437928
 31
0.0
 11
-29.686546627372589
 21
-202.08773179654651
 31
0.0
 11
-29.590933088406302
 21
-202.2334375469737
 31
0.0
 11
-29.47711318468799
 21
-202.385987688813
 31
0.0
 11
-29.365736115091245
 21
-202.51777994405415
 31
0.0
 11
-29.23339821353628
 21
-202.6562385931835
 31
0.0
 11
-29.107675522297296
 21
-202.77263633264189
 31
0.0
 11
-28.95947051720918
 21
-202.8938994148497
 31
0.0
 11
-28.803897212638457
 21
-203.00523565062628
 31
0.0
 11
-28.658850021106471
 21
-203.0961495812054
 31
0.0
 11
-28.491023477499564
 21
-203.18750865094415
 31
0.0
 11
-28.336071540022569
 21
-203.2598877413873
 31
0.0
 11
-28.15892243649154
 21
-203.32970176692871
 31
0.0
 11
-27.995967244471469
 21
-203.38255522366759
 31
0.0
 11
-27.832256743584335
 21
-203.42530259639548
 31
0.0
 11
-27.68008753452667
 21
-203.45613589282431
 31
0.0
  0
SPLINE
  5
182
100
AcDbEntity
  8
0
  6
CONTINUOUS
 62
             7
100
AcDbSpline
210
0.0
220
0.0
230
1.0
 70
             0
 71
             3
 72
            11
 73
             7
 74
             5
 42
0.00000000001
 43
0.00000000001
 44
0.00000000001
 40
2241.2647621048
 40
2241.2647621048
 40
2241.2647621048
 40
2241.2647621048
 40
2243.581890378734
 40
2243.581890378734
 40
2243.581890378734
 40
2245.8990185460389
 40
2245.8990185460389
 40
2245.8990185460389
 40
2245.8990185460389
 10
-11.227719238189399
 20
-198.86585680889891
 30
0.0
 10
-11.233120977836681
 20
-199.63821249673069
 30
0.0
 10
-11.238521723135189
 20
-200.4105727446595
 30
0.0
 10
-11.243921410613099
 20
-201.1829284365086
 30
0.0
 10
-11.24932109826918
 20
-201.95528415383791
 30
0.0
 10
-11.25471979077437
 20
-202.7276442792006
 30
0.0
 10
-11.260117426804589
 20
-203.50000000052651
 30
0.0
 11
-11.227719238189399
 21
-198.86585680889891
 31
0.0
 11
-11.235821093964763
 21
-200.02439262119725
 31
0.0
 11
-11.243921410613099
 21
-201.1829284365086
 31
0.0
 11
-11.252020188068542
 21
-202.34146421701882
 31
0.0
 11
-11.260117426804589
 21
-203.50000000052651
 31
0.0
  0
SPLINE
  5
181
100
AcDbEntity
  8
0
  6
CONTINUOUS
 62
             7
100
AcDbSpline
210
0.0
220
0.0
230
1.0
 70
             0
 71
             6
 72
            14
 73
             7
 74
             3
 42
0.00000000001
 43
0.00000000001
 44
0.00000000001
 40
0.1641412989605972
 40
0.1641412989605972
 40
0.1641412989605972
 40
0.1641412989605972
 40
0.1641412989605972
 40
0.1641412989605972
 40
0.1641412989605972
 40
1.0
 40
1.0
 40
1.0
 40
1.0
 40
1.0
 40
1.0
 40
1.0
 10
-27.68011443866197
 20
-203.45579075991469
 30
0.0
 10
-28.10410420419927
 20
-203.3809328598779
 30
0.0
 10
-28.515151587914801
 20
-203.23058684244211
 30
0.0
 10
-28.896939424865071
 20
-203.00762121869261
 30
0.0
 10
-29.233967553104382
 20
-202.7197295407376
 30
0.0
 10
-29.513725921918478
 20
-202.3790199951338
 30
0.0
 10
-29.727952463549169
 20
-202.00000000000011
 30
0.0
 11
-27.68011443866197
 21
-203.45579075991469
 31
0.0
 11
-28.863915988617293
 21
-202.95972934393023
 31
0.0
 11
-29.727952463549169
 21
-202.00000000000011
 31
0.0
  0
SPLINE
  5
180
100
AcDbEntity
  8
0
  6
CONTINUOUS
 62
             7
100
AcDbSpline
210
0.0
220
0.0
230
1.0
 70
             0
 71
             6
 72
            15
 73
             8
 74
             7
 42
0.00000000001
 43
0.00000000001
 44
0.00000000001
 40
0.0
 40
0.0
 40
0.0
 40
0.0
 40
0.0
 40
0.0
 40
0.0
 40
0.5
 40
1.0
 40
1.0
 40
1.0
 40
1.0
 40
1.0
 40
1.0
 40
1.0
 10
-28.765122523324099
 20
-201.54357787137391
 30
0.0
 10
-28.872152087123279
 20
-201.6051563957561
 30
0.0
 10
-29.089191581028381
 20
-201.72671418529899
 30
0.0
 10
-29.300427089569091
 20
-201.83830437955399
 30
0.0
 10
-29.48169952963508
 20
-201.92663676249339
 30
0.0
 10
-29.612381256544982
 20
-201.98165967362911
 30
0.0
 10
-29.68243548742657
 20
-202.00000000000011
 30
0.0
 10
-29.701775087482901
 20
-202.00000000000011
 30
0.0
 11
-28.765122523324099
 21
-201.54357787137391
 31
0.0
 11
-28.979479347862259
 21
-201.66415855552157
 31
0.0
 11
-29.185742578619479
 21
-201.77475450116455
 31
0.0
 11
-29.371366186076827
 21
-201.86863865971469
 31
0.0
 11
-29.525059917702976
 21
-201.94010070114436
 31
0.0
 11
-29.637475413022074
 21
-201.9847939503079
 31
0.0
 11
-29.701775087482901
 21
-202.00000000000011
 31
0.0
  0
SPLINE
  5
17F
100
AcDbEntity
  8
0
  6
CONTINUOUS
 62
             7
100
AcDbSpline
210
0.0
220
0.0
230
1.0
 70
             0
 71
             6
 72
            14
 73
             7
 74
             3
 42
0.00000000001
 43
0.00000000001
 44
0.00000000001
 40
0.3546691631293887
 40
0.3546691631293887
 40
0.3546691631293887
 40
0.3546691631293887
 40
0.3546691631293887
 40
0.3546691631293887
 40
0.3546691631293887
 40
1.0
 40
1.0
 40
1.0
 40
1.0
 40
1.0
 40
1.0
 40
1.0
 10
-27.762195466402179
 20
-202.40283501305319
 30
0.0
 10
-27.970641257781971
 20
-202.31996521493099
 30
0.0
 10
-28.168368816790579
 20
-202.20965929300311
 30
0.0
 10
-28.35102943313878
 20
-202.07439242247699
 30
0.0
 10
-28.514274396537271
 20
-201.9166397785599
 30
0.0
 10
-28.653754996695
 20
-201.73887653645559
 30
0.0
 10
-28.765122523324099
 20
-201.54357787137391
 30
0.0
 11
-27.762195466402179
 21
-202.40283501305319
 31
0.0
 11
-28.336467693426268
 21
-202.05752809243333
 31
0.0
 11
-28.765122523324099
 21
-201.54357787137391
 31
0.0
  0
SPLINE
  5
17E
100
AcDbEntity
  8
0
  6
CONTINUOUS
 62
             7
100
AcDbSpline
210
0.0
220
0.0
230
1.0
 70
             0
 71
             3
 72
            12
 73
             8
 74
             7
 42
0.00000000001
 43
0.00000000001
 44
0.00000000001
 40
0.0
 40
0.0
 40
0.0
 40
0.0
 40
1.0
 40
1.0
 40
2.0
 40
2.0
 40
3.0
 40
3.0
 40
3.0
 40
3.0
 10
-27.759174205352871
 20
-200.07358251827301
 30
0.0
 10
-27.683956804561969
 20
-200.07358251827301
 30
0.0
 10
-27.574085240039171
 20
-200.06090294035579
 30
0.0
 10
-27.304789639081179
 20
-200.01246452622789
 30
0.0
 10
-27.149580261530389
 20
-199.97746378406609
 30
0.0
 10
-26.82594633790848
 20
-199.89219266506231
 30
0.0
 10
-26.662586882342481
 20
-199.8432568390931
 30
0.0
 10
-26.51237165301637
 20
-199.79242028858241
 30
0.0
 11
-27.759174205352871
 21
-200.07358251827301
 31
0.0
 11
-27.621592222339558
 21
-200.0642153284314
 31
0.0
 11
-27.439437439560173
 21
-200.03668373329185
 31
0.0
 11
-27.223788805139289
 21
-199.99266211109224
 31
0.0
 11
-26.987763299719433
 21
-199.9348282245642
 31
0.0
 11
-26.745716826686085
 21
-199.86669962820162
 31
0.0
 11
-26.51237165301637
 21
-199.79242028858241
 31
0.0
  0
SPLINE
  5
17D
100
AcDbEntity
  8
0
  6
CONTINUOUS
 62
             7
100
AcDbSpline
210
0.0
220
0.0
230
1.0
 70
             0
 71
             3
 72
             8
 73
             4
 74
             3
 42
0.00000000001
 43
0.00000000001
 44
0.00000000001
 40
0.0
 40
0.0
 40
0.0
 40
0.0
 40
1.0
 40
1.0
 40
1.0
 40
1.0
 10
-27.94434176589488
 20
-200.0473677238318
 30
0.0
 10
-27.935449205153681
 20
-200.06465420445241
 30
0.0
 10
-27.898258269638891
 20
-200.07358251827301
 30
0.0
 10
-27.8351439095938
 20
-200.07358251827301
 30
0.0
 11
-27.94434176589488
 21
-200.0473677238318
 31
0.0
 11
-27.910076012483302
 21
-200.06695755128513
 31
0.0
 11
-27.8351439095938
 21
-200.07358251827301
 31
0.0
  0
SPLINE
  5
17C
100
AcDbEntity
  8
0
  6
CONTINUOUS
 62
             7
100
AcDbSpline
210
0.0
220
0.0
230
1.0
 70
             0
 71
             3
 72
            11
 73
             7
 74
             5
 42
0.00000000001
 43
0.00000000001
 44
0.00000000001
 40
21.087568552488619
 40
21.087568552488619
 40
21.087568552488619
 40
21.087568552488619
 40
45.848177098423243
 40
45.848177098423243
 40
45.848177098423243
 40
65.635919717583505
 40
65.635919717583505
 40
65.635919717583505
 40
65.635919717583505
 10
-11.13881282170348
 20
-196.65101245042911
 30
0.0
 10
-12.82710803284329
 20
-190.22014793273121
 30
0.0
 10
-14.87775871058707
 20
-182.40484725340741
 30
0.0
 10
-17.423001028838488
 20
-172.70113327645331
 30
0.0
 10
-18.862694930365681
 20
-167.21231292539801
 30
0.0
 10
-20.474918653692701
 20
-161.06483238841079
 30
0.0
 10
-22.293376368208101
 20
-154.13017164120831
 30
0.0
 11
-11.13881282170348
 21
-196.65101245042911
 31
0.0
 11
-13.95955176010413
 21
-185.90339141066229
 31
0.0
 11
-17.423001028838488
 21
-172.70113327645331
 31
0.0
 11
-19.716152268652714
 21
-163.957842607386
 31
0.0
 11
-22.293376368208101
 21
-154.13017164120831
 31
0.0
  0
SPLINE
  5
17B
100
AcDbEntity
  8
0
  6
CONTINUOUS
 62
             7
100
AcDbSpline
210
0.0
220
0.0
230
1.0
 70
             0
 71
             3
 72
            11
 73
             7
 74
             5
 42
0.00000000001
 43
0.00000000001
 44
0.00000000001
 40
0.431527475156342
 40
0.431527475156342
 40
0.431527475156342
 40
0.431527475156342
 40
0.527456433441175
 40
0.527456433441175
 40
0.527456433441175
 40
0.6194755246267742
 40
0.6194755246267742
 40
0.6194755246267742
 40
0.6194755246267742
 10
-25.888905285492591
 20
-157.46988292738641
 30
0.0
 10
-25.90451834974229
 20
-157.44145426415679
 30
0.0
 10
-25.918478986482
 20
-157.4126899171012
 30
0.0
 10
-25.930490852653179
 20
-157.3834781659595
 30
0.0
 10
-25.942258470853378
 20
-157.35486040336571
 30
0.0
 10
-25.95214135218848
 20
-157.32584829321061
 30
0.0
 10
-25.959877877814879
 20
-157.29633213490621
 30
0.0
 11
-25.888905285492591
 21
-157.46988292738641
 31
0.0
 11
-25.911048518352331
 21
-157.42697420463998
 31
0.0
 11
-25.930490852653179
 21
-157.3834781659595
 31
0.0
 11
-25.946696024949208
 21
-157.34024204882434
 31
0.0
 11
-25.959877877814879
 21
-157.29633213490621
 31
0.0
  0
SPLINE
  5
17A
100
AcDbEntity
  8
0
  6
CONTINUOUS
 62
             7
100
AcDbSpline
210
0.0
220
0.0
230
1.0
 70
             0
 71
             3
 72
            10
 73
             6
 74
             5
 42
0.00000000001
 43
0.00000000001
 44
0.00000000001
 40
0.0
 40
0.0
 40
0.0
 40
0.0
 40
1.0
 40
1.0
 40
2.0
 40
2.0
 40
2.0
 40
2.0
 10
-14.787260444095381
 20
-199.9217638561295
 30
0.0
 10
-14.7751431365011
 20
-199.96799344114561
 30
0.0
 10
-14.718083675393389
 20
-200.0063195876991
 30
0.0
 10
-14.525380125392079
 20
-200.05957514666571
 30
0.0
 10
-14.393072411892179
 20
-200.07358251827301
 30
0.0
 10
-14.237909433248889
 20
-200.07358251827301
 30
0.0
 11
-14.787260444095381
 21
-199.9217638561295
 31
0.0
 11
-14.736084097521449
 21
-199.98470628873073
 31
0.0
 11
-14.621731900392735
 21
-200.0329473671824
 31
0.0
 11
-14.451874868186799
 21
-200.06325036003395
 31
0.0
 11
-14.237909433248889
 21
-200.07358251827301
 31
0.0
  0
SPLINE
  5
179
100
AcDbEntity
  8
0
  6
CONTINUOUS
 62
             7
100
AcDbSpline
210
0.0
220
0.0
230
1.0
 70
             0
 71
             3
 72
            11
 73
             7
 74
             5
 42
0.00000000001
 43
0.00000000001
 44
0.00000000001
 40
4.8370480380888132
 40
4.8370480380888132
 40
4.8370480380888132
 40
4.8370480380888132
 40
5.9448606194247713
 40
5.9448606194247713
 40
5.9448606194247713
 40
6.926518780221552
 40
6.926518780221552
 40
6.926518780221552
 40
6.926518780221552
 10
-23.774500098247589
 20
-198.86585680889891
 30
0.0
 10
-23.766414553758491
 20
-198.4958692778132
 30
0.0
 10
-23.75833311884378
 20
-198.1266860918642
 30
0.0
 10
-23.750256010321579
 20
-197.7583095461772
 30
0.0
 10
-23.7430687703432
 20
-197.43051766013571
 30
0.0
 10
-23.735883599716178
 20
-197.10330261169159
 30
0.0
 10
-23.72870063304978
 20
-196.77666573625001
 30
0.0
 11
-23.774500098247589
 21
-198.86585680889891
 31
0.0
 11
-23.762374890796995
 21
-198.31147905801356
 31
0.0
 11
-23.750256010321579
 21
-197.7583095461772
 31
0.0
 11
-23.739476719193686
 21
-197.26705451223864
 31
0.0
 11
-23.72870063304978
 21
-196.77666573625001
 31
0.0
  0
SPLINE
  5
178
100
AcDbEntity
  8
0
  6
CONTINUOUS
 62
             7
100
AcDbSpline
210
0.0
220
0.0
230
1.0
 70
             0
 71
             6
 72
            14
 73
             7
 74
             3
 42
0.00000000001
 43
0.00000000001
 44
0.00000000001
 40
0.0
 40
0.0
 40
0.0
 40
0.0
 40
0.0
 40
0.0
 40
0.0
 40
1.0
 40
1.0
 40
1.0
 40
1.0
 40
1.0
 40
1.0
 40
1.0
 10
-18.664305505818181
 20
-202.54357787137391
 30
0.0
 10
-18.929366971940791
 20
-202.54357787137391
 30
0.0
 10
-19.190281177673
 20
-202.46463123124951
 30
0.0
 10
-19.43497056339908
 20
-202.315947931083
 30
0.0
 10
-19.651357569517501
 20
-202.1067379509943
 30
0.0
 10
-19.827364636408479
 20
-201.84621127105569
 30
0.0
 10
-19.950914204465871
 20
-201.54357787137391
 30
0.0
 11
-18.664305505818181
 21
-202.54357787137391
 31
0.0
 11
-19.413743778690918
 21
-202.27055292113502
 31
0.0
 11
-19.950914204465871
 21
-201.54357787137391
 31
0.0
  0
SPLINE
  5
177
100
AcDbEntity
  8
0
  6
CONTINUOUS
 62
             7
100
AcDbSpline
210
0.0
220
0.0
230
1.0
 70
             0
 71
             6
 72
            15
 73
             8
 74
             5
 42
0.00000000001
 43
0.00000000001
 44
0.00000000001
 40
0.0
 40
0.0
 40
0.0
 40
0.0
 40
0.0
 40
0.0
 40
0.0
 40
0.5
 40
1.0
 40
1.0
 40
1.0
 40
1.0
 40
1.0
 40
1.0
 40
1.0
 10
-19.950914204465871
 20
-201.54357787137391
 30
0.0
 10
-20.033951152780901
 20
-201.6051563957561
 30
0.0
 10
-20.223904706220079
 20
-201.72671418529899
 30
0.0
 10
-20.45249240195707
 20
-201.83830437955399
 30
0.0
 10
-20.697004224739601
 20
-201.92663676249339
 30
0.0
 10
-20.929616292500778
 20
-201.98165967362911
 30
0.0
 10
-21.126913056504382
 20
-202.00000000000011
 30
0.0
 10
-21.214330892093191
 20
-202.00000000000011
 30
0.0
 11
-19.950914204465871
 21
-201.54357787137391
 31
0.0
 11
-20.23861908464302
 21
-201.72114435771559
 31
0.0
 11
-20.575732358433008
 21
-201.86863865971469
 31
0.0
 11
-20.916411967043498
 21
-201.96600393031906
 31
0.0
 11
-21.214330892093191
 21
-202.00000000000011
 31
0.0
  0
SPLINE
  5
176
100
AcDbEntity
  8
0
  6
CONTINUOUS
 62
             7
100
AcDbSpline
210
0.0
220
0.0
230
1.0
 70
             0
 71
             3
 72
            32
 73
            28
 74
            19
 42
0.00000000001
 43
0.00000000001
 44
0.00000000001
 40
0.0000073855220117
 40
0.0000073855220117
 40
0.0000073855220117
 40
0.0000073855220117
 40
0.120335470508236
 40
0.120335470508236
 40
0.120335470508236
 40
0.4633050515229304
 40
0.4633050515229304
 40
0.4633050515229304
 40
0.7792423157602757
 40
0.7792423157602757
 40
0.7792423157602757
 40
1.1104128822263331
 40
1.1104128822263331
 40
1.1104128822263331
 40
1.43318589410638
 40
1.43318589410638
 40
1.43318589410638
 40
2.0248313433287342
 40
2.0248313433287342
 40
2.0248313433287342
 40
2.4166175931445908
 40
2.4166175931445908
 40
2.4166175931445908
 40
2.6105440374289302
 40
2.6105440374289302
 40
2.6105440374289302
 40
2.8079437692817661
 40
2.8079437692817661
 40
2.8079437692817661
 40
2.8079437692817661
 10
-21.646104124284879
 20
-201.87796446470631
 30
0.0
 10
-21.631338732530271
 20
-201.91413791756119
 30
0.0
 10
-21.615598923514
 20
-201.9510586455724
 30
0.0
 10
-21.598783109320689
 20
-201.98859262412461
 30
0.0
 10
-21.555807615867071
 20
-202.08451668887861
 30
0.0
 10
-21.504423517879282
 20
-202.18752949568929
 30
0.0
 10
-21.442622850250981
 20
-202.29381412618679
 30
0.0
 10
-21.39457134065719
 20
-202.3764529897787
 30
0.0
 10
-21.337370827684399
 20
-202.46597455891811
 30
0.0
 10
-21.269686038366281
 20
-202.55808241616839
 30
0.0
 10
-21.211440036377571
 20
-202.637345637501
 30
0.0
 10
-21.141212333664189
 20
-202.7242643507158
 30
0.0
 10
-21.057980208035989
 20
-202.8125472367104
 30
0.0
 10
-20.983270601426
 20
-202.89179043317179
 30
0.0
 10
-20.904478924766298
 20
-202.96534830582291
 30
0.0
 10
-20.822042309560089
 20
-203.03255710056411
 30
0.0
 10
-20.690825702390971
 20
-203.1395351708768
 30
0.0
 10
-20.523010236323589
 20
-203.25274151840711
 30
0.0
 10
-20.3188625078526
 20
-203.34108869072551
 30
0.0
 10
-20.214780697725189
 20
-203.38613123752921
 30
0.0
 10
-20.08990287150618
 20
-203.4296279511623
 30
0.0
 10
-19.945998815500669
 20
-203.4597317279397
 30
0.0
 10
-19.8796700418103
 20
-203.47360726871679
 30
0.0
 10
-19.815638020478389
 20
-203.4833105943049
 30
0.0
 10
-19.75446726087787
 20
-203.48970974852949
 30
0.0
 10
-19.687367452530879
 20
-203.4967291484005
 30
0.0
 10
-19.621538418818769
 20
-203.50000000000011
 30
0.0
 10
-19.557403000714292
 20
-203.50000000000011
 30
0.0
 11
-21.646104124284879
 21
-201.87796446470631
 31
0.0
 11
-21.623212525217298
 21
-201.93276834727897
 31
0.0
 11
-21.598783109320689
 21
-201.98859262412461
 31
0.0
 11
-21.527762420101343
 21
-202.13731816300188
 31
0.0
 11
-21.442622850250981
 21
-202.29381412618679
 31
0.0
 11
-21.36351692420525
 21
-202.42239739855566
 31
0.0
 11
-21.269686038366281
 21
-202.55808241616839
 31
0.0
 11
-21.173202919565945
 21
-202.68193245219115
 31
0.0
 11
-21.057980208035989
 21
-202.8125472367104
 31
0.0
 11
-20.94290888702162
 21
-202.92706506928235
 31
0.0
 11
-20.822042309560089
 21
-203.03255710056411
 31
0.0
 11
-20.597801579194545
 21
-203.19380948239265
 31
0.0
 11
-20.3188625078526
 21
-203.34108869072551
 31
0.0
 11
-20.147364003880924
 21
-203.40601224809248
 31
0.0
 11
-19.945998815500669
 21
-203.4597317279397
 31
0.0
 11
-19.848298782905577
 21
-203.47752438319179
 31
0.0
 11
-19.75446726087787
 21
-203.48970974852949
 31
0.0
 11
-19.654823484455139
 21
-203.4974871492164
 31
0.0
 11
-19.557403000714292
 21
-203.50000000000011
 31
0.0
  0
SPLINE
  5
175
100
AcDbEntity
  8
0
  6
CONTINUOUS
 62
             7
100
AcDbSpline
210
0.0
220
0.0
230
1.0
 70
             0
 71
             6
 72
            15
 73
             8
 74
             5
 42
0.00000000001
 43
0.00000000001
 44
0.00000000001
 40
0.0
 40
0.0
 40
0.0
 40
0.0
 40
0.0
 40
0.0
 40
0.0
 40
0.5
 40
1.0
 40
1.0
 40
1.0
 40
1.0
 40
1.0
 40
1.0
 40
1.0
 10
-18.664305505818181
 20
-202.54357787137391
 30
0.0
 10
-18.667919648340899
 20
-202.67072402616611
 30
0.0
 10
-18.700455339210379
 20
-202.92332041504579
 30
0.0
 10
-18.78318807916289
 20
-203.15771540708531
 30
0.0
 10
-18.910338395746781
 20
-203.34450666753361
 30
0.0
 10
-19.066545224686202
 20
-203.46112789357551
 30
0.0
 10
-19.232414487878991
 20
-203.50000000000011
 30
0.0
 10
-19.315349757749569
 20
-203.50000000000011
 30
0.0
 11
-18.664305505818181
 21
-202.54357787137391
 31
0.0
 11
-18.721764848505426
 21
-202.91267867244409
 31
0.0
 11
-18.864706303274986
 21
-203.22234957235818
 31
0.0
 11
-19.07254484698484
 21
-203.42799503047979
 31
0.0
 11
-19.315349757749569
 21
-203.50000000000011
 31
0.0
  0
SPLINE
  5
174
100
AcDbEntity
  8
0
  6
CONTINUOUS
 62
             7
100
AcDbSpline
210
0.0
220
0.0
230
1.0
 70
             0
 71
             3
 72
            17
 73
            13
 74
             9
 42
0.00000000001
 43
0.00000000001
 44
0.00000000001
 40
0.2801018446743433
 40
0.2801018446743433
 40
0.2801018446743433
 40
0.2801018446743433
 40
0.5524153981274484
 40
0.5524153981274484
 40
0.5524153981274484
 40
1.007662250726673
 40
1.007662250726673
 40
1.007662250726673
 40
1.400147833645579
 40
1.400147833645579
 40
1.400147833645579
 40
1.5977688468797271
 40
1.5977688468797271
 40
1.5977688468797271
 40
1.5977688468797271
 10
-18.521178473832489
 20
-202.5435778713742
 30
0.0
 10
-18.523383322411281
 20
-202.61168561448341
 30
0.0
 10
-18.531597352940679
 20
-202.70597464247669
 30
0.0
 10
-18.557745054021382
 20
-202.8130583060246
 30
0.0
 10
-18.5959500193315
 20
-202.96952053719721
 30
0.0
 10
-18.661970737924982
 20
-203.1103456311744
 30
0.0
 10
-18.748979780086991
 20
-203.2235261090355
 30
0.0
 10
-18.835763944174801
 20
-203.3364140677829
 30
0.0
 10
-18.941162717045181
 20
-203.41884960790051
 30
0.0
 10
-19.055312797750279
 20
-203.4630725928061
 30
0.0
 10
-19.118352412173181
 20
-203.48749482623651
 30
0.0
 10
-19.183388200278181
 20
-203.50000000000011
 30
0.0
 10
-19.24858921916347
 20
-203.50000000000011
 30
0.0
 11
-18.521178473832489
 21
-202.5435778713742
 31
0.0
 11
-18.53048319423872
 21
-202.6637021185349
 31
0.0
 11
-18.557745054021382
 21
-202.8130583060246
 31
0.0
 11
-18.635060888234726
 21
-203.03452286502187
 31
0.0
 11
-18.748979780086991
 21
-203.2235261090355
 31
0.0
 11
-18.891884070187153
 21
-203.36904871611148
 31
0.0
 11
-19.055312797750279
 21
-203.4630725928061
 31
0.0
 11
-19.151140481783479
 21
-203.49069463393954
 31
0.0
 11
-19.24858921916347
 21
-203.50000000000011
 31
0.0
  0
SPLINE
  5
173
100
AcDbEntity
  8
0
  6
CONTINUOUS
 62
             7
100
AcDbSpline
210
0.0
220
0.0
230
1.0
 70
             0
 71
             3
 72
            29
 73
            25
 74
            17
 42
0.00000000001
 43
0.00000000001
 44
0.00000000001
 40
0.000504188670057
 40
0.000504188670057
 40
0.000504188670057
 40
0.000504188670057
 40
0.1473536674809439
 40
0.1473536674809439
 40
0.1473536674809439
 40
0.2942518155367122
 40
0.2942518155367122
 40
0.2942518155367122
 40
0.5377848946577692
 40
0.5377848946577692
 40
0.5377848946577692
 40
0.7779457256783029
 40
0.7779457256783029
 40
0.7779457256783029
 40
1.0137670176958791
 40
1.0137670176958791
 40
1.0137670176958791
 40
1.2452606314158761
 40
1.2452606314158761
 40
1.2452606314158761
 40
1.3824399144403849
 40
1.3824399144403849
 40
1.3824399144403849
 40
1.5187867888359601
 40
1.5187867888359601
 40
1.5187867888359601
 40
1.5187867888359601
 10
-23.79214141905538
 20
-203.50000000026321
 30
0.0
 10
-23.79230309356879
 20
-203.54252170778989
 30
0.0
 10
-23.789954136739681
 20
-203.59193934064419
 30
0.0
 10
-23.782611045371791
 20
-203.6464527391102
 30
0.0
 10
-23.775239048732288
 20
-203.70118072357491
 30
0.0
 10
-23.764397847744078
 20
-203.74943150225249
 30
0.0
 10
-23.752973880303081
 20
-203.79023953392951
 30
0.0
 10
-23.730926013586579
 20
-203.86899764034271
 30
0.0
 10
-23.699854113773089
 20
-203.9445084921488
 30
0.0
 10
-23.660460408617499
 20
-204.01505729603181
 30
0.0
 10
-23.621056518177479
 20
-204.08562434038311
 30
0.0
 10
-23.573627929285578
 20
-204.1506869824691
 30
0.0
 10
-23.51924825975038
 20
-204.2087668582472
 30
0.0
 10
-23.47745076202068
 20
-204.2534084218448
 30
0.0
 10
-23.41780983499299
 20
-204.30861268571891
 30
0.0
 10
-23.338320864373991
 20
-204.35929531066759
 30
0.0
 10
-23.27271802076098
 20
-204.40112406115361
 30
0.0
 10
-23.202525113530779
 20
-204.43417370240181
 30
0.0
 10
-23.12931275729667
 20
-204.45770504987749
 30
0.0
 10
-23.085657239989079
 20
-204.47173646752111
 30
0.0
 10
-23.0410855388713
 20
-204.4823329497176
 30
0.0
 10
-22.995954120476281
 20
-204.48941023546649
 30
0.0
 10
-22.945458614398689
 20
-204.49732869090749
 30
0.0
 10
-22.899632074282181
 20
-204.50000000000011
 30
0.0
 10
-22.860122540222189
 20
-204.50000000000011
 30
0.0
 11
-23.79214141905538
 21
-203.50000000026321
 31
0.0
 11
-23.790190519419074
 21
-203.56872948558444
 31
0.0
 11
-23.782611045371791
 21
-203.6464527391102
 31
0.0
 11
-23.769311951888
 21
-203.72356611881526
 31
0.0
 11
-23.752973880303081
 21
-203.79023953392951
 31
0.0
 11
-23.713221833874947
 21
-203.90572690342947
 31
0.0
 11
-23.660460408617499
 21
-204.01505729603181
 31
0.0
 11
-23.595470251344629
 21
-204.11659476535445
 31
0.0
 11
-23.51924825975038
 21
-204.2087668582472
 31
0.0
 11
-23.442918864395672
 21
-204.28176568645074
 31
0.0
 11
-23.338320864373991
 21
-204.35929531066759
 31
0.0
 11
-23.236670378068244
 21
-204.4153617064014
 31
0.0
 11
-23.12931275729667
 21
-204.45770504987749
 31
0.0
 11
-23.063186901794264
 21
-204.47616544213253
 31
0.0
 11
-22.995954120476281
 21
-204.48941023546649
 31
0.0
 11
-22.923918590842636
 21
-204.49767453852365
 31
0.0
 11
-22.860122540222189
 21
-204.50000000000011
 31
0.0
  0
SPLINE
  5
172
100
AcDbEntity
  8
0
  6
CONTINUOUS
 62
             7
100
AcDbSpline
210
0.0
220
0.0
230
1.0
 70
             0
 71
             3
 72
            11
 73
             7
 74
             5
 42
0.00000000001
 43
0.00000000001
 44
0.00000000001
 40
2241.2647621048
 40
2241.2647621048
 40
2241.2647621048
 40
2241.2647621048
 40
2243.5818505420411
 40
2243.5818505420411
 40
2243.5818505420411
 40
2245.8989388746718
 40
2245.8989388746718
 40
2245.8989388746718
 40
2245.8989388746718
 10
-23.774500098247589
 20
-198.86585680889891
 30
0.0
 10
-23.777505113225889
 20
-199.65427159022309
 30
0.0
 10
-23.780447705358391
 20
-200.42679980548121
 30
0.0
 10
-23.783326146200579
 20
-201.1829284363767
 30
0.0
 10
-23.786291133271281
 20
-201.96179162561481
 30
0.0
 10
-23.789229635329971
 20
-202.73417726634679
 30
0.0
 10
-23.79214141905538
 20
-203.50000000026321
 30
0.0
 11
-23.774500098247589
 21
-198.86585680889891
 31
0.0
 11
-23.778960587525127
 21
-200.03649992904855
 31
0.0
 11
-23.783326146200579
 21
-201.1829284363767
 31
0.0
 11
-23.787753733882465
 21
-202.34635438906582
 31
0.0
 11
-23.79214141905538
 21
-203.50000000026321
 31
0.0
  0
SPLINE
  5
171
100
AcDbEntity
  8
0
  6
CONTINUOUS
 62
             7
100
AcDbSpline
210
0.0
220
0.0
230
1.0
 70
             0
 71
             3
 72
            11
 73
             7
 74
             5
 42
0.00000000001
 43
0.00000000001
 44
0.00000000001
 40
127.2848313144631
 40
127.2848313144631
 40
127.2848313144631
 40
127.2848313144631
 40
158.3443269358354
 40
158.3443269358354
 40
158.3443269358354
 40
189.40387329394011
 40
189.40387329394011
 40
189.40387329394011
 40
189.40387329394011
 10
-13.345806962909281
 20
-266.50000000000051
 30
0.0
 10
-13.946984286006201
 20
-256.80891594022933
 30
0.0
 10
-14.586521038889799
 20
-246.49611642366111
 30
0.0
 10
-15.268233896010999
 20
-235.50005576044779
 30
0.0
 10
-15.873456077070189
 20
-225.7377933238094
 30
0.0
 10
-16.51293537320959
 20
-215.42063009136879
 30
0.0
 10
-17.18968198967789
 20
-204.49999999997021
 30
0.0
 11
-13.345806962909281
 21
-266.50000000000051
 31
0.0
 11
-14.276819604201034
 21
-251.48939410651494
 31
0.0
 11
-15.268233896010999
 21
-235.50005576044779
 31
0.0
 11
-16.202136279566027
 21
-220.43441575074397
 31
0.0
 11
-17.18968198967789
 21
-204.49999999997021
 31
0.0
  0
SPLINE
  5
170
100
AcDbEntity
  8
0
  6
CONTINUOUS
 62
             7
100
AcDbSpline
210
0.0
220
0.0
230
1.0
 70
             0
 71
             3
 72
            11
 73
             7
 74
             5
 42
0.00000000001
 43
0.00000000001
 44
0.00000000001
 40
127.2848313144604
 40
127.2848313144604
 40
127.2848313144604
 40
127.2848313144604
 40
158.3442807801911
 40
158.3442807801911
 40
158.3442807801911
 40
189.4037907806003
 40
189.4037907806003
 40
189.4037907806003
 40
189.4037907806003
 10
-15.384957798211669
 20
-266.50000000000051
 30
0.0
 10
-15.985870667656799
 20
-256.80891487128622
 30
0.0
 10
-16.625159306709371
 20
-246.49611521272001
 30
0.0
 10
-17.306638884807999
 20
-235.50005576044779
 30
0.0
 10
-17.911657131580871
 20
-225.7377432495046
 30
0.0
 10
-18.550941165765771
 20
-215.42057412067089
 30
0.0
 10
-19.227499182507071
 20
-204.49999999997021
 30
0.0
 11
-15.384957798211669
 21
-266.50000000000051
 31
0.0
 11
-16.315585825764774
 21
-251.4893932515584
 31
0.0
 11
-17.306638884807999
 21
-235.50005576044779
 31
0.0
 11
-18.240241619919374
 21
-220.43437598386808
 31
0.0
 11
-19.227499182507071
 21
-204.49999999997021
 31
0.0
  0
SPLINE
  5
16F
100
AcDbEntity
  8
0
  6
CONTINUOUS
 62
             7
100
AcDbSpline
210
0.0
220
0.0
230
1.0
 70
             0
 71
             3
 72
            11
 73
             7
 74
             5
 42
0.00000000001
 43
0.00000000001
 44
0.00000000001
 40
4.8311496646327416
 40
4.8311496646327416
 40
4.8311496646327416
 40
4.8311496646327416
 40
7.7798480463189739
 40
7.7798480463189739
 40
7.7798480463189739
 40
10.726832357778621
 40
10.726832357778621
 40
10.726832357778621
 40
10.726832357778621
 10
-18.521178473832489
 20
-202.5435778713742
 30
0.0
 10
-18.489346840893379
 20
-201.5602991556359
 30
0.0
 10
-18.45746612125598
 20
-200.57791427589959
 30
0.0
 10
-18.425536859121589
 20
-199.5964309775058
 30
0.0
 10
-18.393618328278279
 20
-198.61527755153659
 30
0.0
 10
-18.361600619998288
 20
-197.63346761532571
 30
0.0
 10
-18.32948365204598
 20
-196.6510124504189
 30
0.0
 11
-18.521178473832489
 21
-202.5435778713742
 31
0.0
 11
-18.473394277425271
 21
-201.06933114293579
 31
0.0
 11
-18.425536859121589
 21
-199.5964309775058
 31
0.0
 11
-18.377584669499662
 21
-198.12420986606395
 31
0.0
 11
-18.32948365204598
 21
-196.6510124504189
 31
0.0
  0
SPLINE
  5
16E
100
AcDbEntity
  8
0
  6
CONTINUOUS
 62
             7
100
AcDbSpline
210
0.0
220
0.0
230
1.0
 70
             0
 71
             3
 72
            11
 73
             7
 74
             5
 42
0.00000000001
 43
0.00000000001
 44
0.00000000001
 40
21.08339246979612
 40
21.08339246979612
 40
21.08339246979612
 40
21.08339246979612
 40
46.955885660417927
 40
46.955885660417927
 40
46.955885660417927
 40
66.576776169014536
 40
66.576776169014536
 40
66.576776169014536
 40
66.576776169014536
 10
-18.32948365204598
 20
-196.6510124504189
 30
0.0
 10
-20.958801004943179
 20
-190.22014285936419
 30
0.0
 10
-24.152550715038188
 20
-182.40483969035569
 30
0.0
 10
-28.116678763450778
 20
-172.70113327643531
 30
0.0
 10
-30.244574247733912
 20
-167.49230227834011
 30
0.0
 10
-32.614486451616422
 20
-161.69029145681461
 30
0.0
 10
-35.271279543682873
 20
-155.18526019687101
 30
0.0
 11
-18.32948365204598
 21
-196.6510124504189
 31
0.0
 11
-22.722527196930102
 21
-185.90338667200174
 31
0.0
 11
-28.116678763450778
 21
-172.70113327643531
 31
0.0
 11
-31.495642550648085
 21
-164.4292718348463
 31
0.0
 11
-35.271279543682873
 21
-155.18526019687101
 31
0.0
  0
SPLINE
  5
16D
100
AcDbEntity
  8
0
  6
CONTINUOUS
 62
             7
100
AcDbSpline
210
0.0
220
0.0
230
1.0
 70
             0
 71
             6
 72
            15
 73
             8
 74
             5
 42
0.00000000001
 43
0.00000000001
 44
0.00000000001
 40
0.0
 40
0.0
 40
0.0
 40
0.0
 40
0.0
 40
0.0
 40
0.0
 40
0.5
 40
1.0
 40
1.0
 40
1.0
 40
1.0
 40
1.0
 40
1.0
 40
1.0
 10
-3.5161347661346811
 20
-201.54357787137391
 30
0.0
 10
-3.5434618070313739
 20
-201.6051563957561
 30
0.0
 10
-3.6337736188746961
 20
-201.72671418529899
 30
0.0
 10
-3.7924007714464918
 20
-201.83830437955399
 30
0.0
 10
-4.0067567712935919
 20
-201.92663676249339
 30
0.0
 10
-4.2524492762147723
 20
-201.98165967362911
 30
0.0
 10
-4.5016279153613787
 20
-202.00000000000011
 30
0.0
 10
-4.6237333445105797
 20
-202.00000000000011
 30
0.0
 11
-3.5161347661346811
 21
-201.54357787137391
 31
0.0
 11
-3.6623459883466229
 21
-201.72114435771559
 31
0.0
 11
-3.9208681132887793
 21
-201.86863865971469
 31
0.0
 11
-4.2565461760851822
 21
-201.96600393031906
 31
0.0
 11
-4.6237333445105797
 21
-202.00000000000011
 31
0.0
  0
SPLINE
  5
16C
100
AcDbEntity
  8
0
  6
CONTINUOUS
 62
             7
100
AcDbSpline
210
0.0
220
0.0
230
1.0
 70
             0
 71
             3
 72
            11
 73
             7
 74
             5
 42
0.00000000001
 43
0.00000000001
 44
0.00000000001
 40
21.785519143688131
 40
21.785519143688131
 40
21.785519143688131
 40
21.785519143688131
 40
48.021821623993119
 40
48.021821623993119
 40
48.021821623993119
 40
67.649209500452642
 40
67.649209500452642
 40
67.649209500452642
 40
67.649209500452642
 10
-23.98643960376458
 20
-196.1453367711685
 30
0.0
 10
-27.249335855161171
 20
-189.81145885480419
 30
0.0
 10
-31.193312768989781
 20
-182.1519167734788
 30
0.0
 10
-36.058100080271792
 20
-172.7011332764352
 30
0.0
 10
-38.634176592055432
 20
-167.69660998962561
 30
0.0
 10
-41.491764963057022
 20
-162.14452553398721
 30
0.0
 10
-44.681002408841771
 20
-155.94746285413549
 30
0.0
 11
-23.98643960376458
 21
-196.1453367711685
 31
0.0
 11
-29.421560694561148
 21
-185.59207461655657
 31
0.0
 11
-36.058100080271792
 21
-172.7011332764352
 31
0.0
 11
-40.139615894306367
 21
-164.77150033767614
 31
0.0
 11
-44.681002408841771
 21
-155.94746285413549
 31
0.0
  0
SPLINE
  5
16B
100
AcDbEntity
  8
0
  6
CONTINUOUS
 62
             7
100
AcDbSpline
210
0.0
220
0.0
230
1.0
 70
             0
 71
             3
 72
            11
 73
             7
 74
             5
 42
0.00000000001
 43
0.00000000001
 44
0.00000000001
 40
0.0602480964960602
 40
0.0602480964960602
 40
0.0602480964960602
 40
0.0602480964960602
 40
0.0741340326605019
 40
0.0741340326605019
 40
0.0741340326605019
 40
0.0880344230798399
 40
0.0880344230798399
 40
0.0880344230798399
 40
0.0880344230798399
 10
9.676110219875234
 20
-156.9996564419979
 30
0.0
 10
9.6759100201659951
 20
-157.004290076015
 30
0.0
 10
9.6756557710786844
 20
-157.0089115539507
 30
0.0
 10
9.6753481394056848
 20
-157.0135212111675
 30
0.0
 10
9.6750397471607847
 20
-157.01814226505061
 30
0.0
 10
9.6746770488499951
 20
-157.02276131720899
 30
0.0
 10
9.6742600177686047
 20
-157.02737870776531
 30
0.0
 11
9.676110219875234
 21
-156.9996564419979
 31
0.0
 11
9.6757694666268694
 21
-157.00659781788281
 31
0.0
 11
9.6753481394056848
 21
-157.0135212111675
 31
0.0
 11
9.6748448181508273
 21
-157.02045133321394
 31
0.0
 11
9.6742600177686047
 21
-157.02737870776531
 31
0.0
  0
SPLINE
  5
16A
100
AcDbEntity
  8
0
  6
CONTINUOUS
 62
             7
100
AcDbSpline
210
0.0
220
0.0
230
1.0
 70
             0
 71
             3
 72
            11
 73
             7
 74
             5
 42
0.00000000001
 43
0.00000000001
 44
0.00000000001
 40
127.28483131446021
 40
127.28483131446021
 40
127.28483131446021
 40
127.28483131446021
 40
158.37925918436611
 40
158.37925918436611
 40
158.37925918436611
 40
189.4737059834286
 40
189.4737059834286
 40
189.4737059834286
 40
189.4737059834286
 10
-17.44683009468088
 20
-266.50000000000063
 30
0.0
 10
-18.204276002720171
 20
-256.80891556734679
 30
0.0
 10
-19.010062653893389
 20
-246.49611600109489
 30
0.0
 10
-19.868998870035799
 20
-235.50005576044779
 30
0.0
 10
-20.6315601479875
 20
-225.73778285594631
 30
0.0
 10
-21.437290713693891
 20
-215.42061839201611
 30
0.0
 10
-22.28998307604968
 20
-204.4999999999701
 30
0.0
 11
-17.44683009468088
 21
-266.50000000000063
 31
0.0
 11
-18.61985561681967
 21
-251.48939380822168
 31
0.0
 11
-19.868998870035799
 21
-235.50005576044779
 31
0.0
 11
-21.045691816391205
 21
-220.43440743803814
 31
0.0
 11
-22.28998307604968
 21
-204.4999999999701
 31
0.0
  0
ARC
  5
169
100
AcDbEntity
  8
0
  6
CONTINUOUS
 62
             7
100
AcDbCircle
 10
61.49999999999989
 20
-130.50000000000011
 40
1.0
100
AcDbArc
 50
-90.0
 51
0.0
  0
ARC
  5
168
100
AcDbEntity
  8
0
  6
CONTINUOUS
 62
             7
100
AcDbCircle
 10
-61.49999999999988
 20
-130.50000000000011
 40
1.0
100
AcDbArc
 50
180.0
 51
-90.0
  0
ARC
  5
167
100
AcDbEntity
  8
0
  6
CONTINUOUS
 62
             7
100
AcDbCircle
 10
-57.41633117401738
 20
-132.5000000000002
 40
1.00000000000007
100
AcDbArc
 50
5.0000000000027
 51
90.00000000000041
  0
ARC
  5
166
100
AcDbEntity
  8
0
  6
CONTINUOUS
 62
             7
100
AcDbCircle
 10
57.41633117401739
 20
-132.5000000000002
 40
1.0
100
AcDbArc
 50
90.0
 51
174.99999999999733
  0
ARC
  5
165
100
AcDbEntity
  8
0
  6
DASHED
 62
             7
100
AcDbCircle
 10
0.0
 20
-136.00000000000011
 40
3.00000000000008
100
AcDbArc
 50
-55.15009542095239
 51
-124.84990457904586
  0
ARC
  5
164
100
AcDbEntity
  8
0
  6
DASHED
 62
             7
100
AcDbCircle
 10
2.0
 20
-138.87228132326911
 40
0.4999999999999
100
AcDbArc
 50
124.84990457904107
 51
179.99999999995441
  0
ARC
  5
163
100
AcDbEntity
  8
0
  6
DASHED
 62
             7
100
AcDbCircle
 10
-2.0
 20
-138.87228132326911
 40
0.5
100
AcDbArc
 50
-0.00000022989395
 51
55.15009542094823
  0
ARC
  5
162
100
AcDbEntity
  8
0
  6
CONTINUOUS
 62
             7
100
AcDbCircle
 10
6.5
 20
-139.50000000000011
 40
5.0
100
AcDbArc
 50
179.99999997318898
 51
-90.0
  0
ARC
  5
161
100
AcDbEntity
  8
0
  6
CONTINUOUS
 62
             7
100
AcDbCircle
 10
-6.5
 20
-139.50000000000011
 40
5.0
100
AcDbArc
 50
-90.0
 51
0.0000000000013
  0
ARC
  5
160
100
AcDbEntity
  8
0
  6
CONTINUOUS
 62
             7
100
AcDbCircle
 10
10.5
 20
-141.50000000000011
 40
1.0
100
AcDbArc
 50
90.0
 51
96.92990796310059
  0
ARC
  5
15F
100
AcDbEntity
  8
0
  6
CONTINUOUS
 62
             7
100
AcDbCircle
 10
10.5
 20
-141.50000000000011
 40
1.00000000000001
100
AcDbArc
 50
96.92990796310059
 51
122.69061938886033
  0
ARC
  5
15E
100
AcDbEntity
  8
0
  6
CONTINUOUS
 62
             7
100
AcDbCircle
 10
8.5
 20
-143.50000000000011
 40
1.0
100
AcDbArc
 50
-90.0
 51
-0.00000000003908
  0
ARC
  5
15D
100
AcDbEntity
  8
0
  6
CONTINUOUS
 62
             7
100
AcDbCircle
 10
10.5
 20
-141.50000000000011
 40
0.99999999999998
100
AcDbArc
 50
122.69061938886033
 51
180.0
  0
ARC
  5
15C
100
AcDbEntity
  8
0
  6
CONTINUOUS
 62
             7
100
AcDbCircle
 10
-10.49999999999989
 20
-141.50000000000011
 40
1.00000000000001
100
AcDbArc
 50
83.07009203689951
 51
90.0
  0
ARC
  5
15B
100
AcDbEntity
  8
0
  6
CONTINUOUS
 62
             7
100
AcDbCircle
 10
-8.49999999999988
 20
-143.50000000000011
 40
1.0
100
AcDbArc
 50
180.0
 51
-90.00000000000651
  0
ARC
  5
15A
100
AcDbEntity
  8
0
  6
CONTINUOUS
 62
             7
100
AcDbCircle
 10
-10.49999999999989
 20
-141.50000000000011
 40
1.00000000000001
100
AcDbArc
 50
0.0
 51
57.30938061113915
  0
ARC
  5
159
100
AcDbEntity
  8
0
  6
CONTINUOUS
 62
             7
100
AcDbCircle
 10
-10.49999999999989
 20
-141.50000000000011
 40
0.99999999999998
100
AcDbArc
 50
57.30938061113915
 51
83.07009203689951
  0
ARC
  5
158
100
AcDbEntity
  8
1
  6
CONTINUOUS
 62
             7
100
AcDbCircle
 10
-39.51151432810277
 20
-155.48664770966801
 40
1.9999999999985
100
AcDbArc
 50
-97.42378571128953
 51
-47.25262139498339
  0
ARC
  5
157
100
AcDbEntity
  8
1
  6
CONTINUOUS
 62
             7
100
AcDbCircle
 10
-25.29440080914571
 20
-155.41029388739429
 40
2.00000000000059
100
AcDbArc
 50
-109.43507792351754
 51
-50.58167041299813
  0
ARC
  5
156
100
AcDbEntity
  8
1
  6
CONTINUOUS
 62
             7
100
AcDbCircle
 10
-49.77771671314564
 20
-155.37750521859019
 40
1.99999999999972
100
AcDbArc
 50
-89.51418424267899
 51
-52.08514660980201
  0
ARC
  5
155
100
AcDbEntity
  8
1
  6
CONTINUOUS
 62
             7
100
AcDbCircle
 10
-8.80266711783866
 20
-155.40170752285019
 40
2.00000000000007
100
AcDbArc
 50
-115.31306833911323
 51
-50.97066555995271
  0
ARC
  5
154
100
AcDbEntity
  8
1
  6
CONTINUOUS
 62
             7
100
AcDbCircle
 10
8.80266711783867
 20
-155.40170752285019
 40
2.00000000000002
100
AcDbArc
 50
-129.02933444004415
 51
-64.68693166088673
  0
ARC
  5
153
100
AcDbEntity
  8
1
  6
CONTINUOUS
 62
             7
100
AcDbCircle
 10
-54.78929820762591
 20
-156.1539277173801
 40
0.99999999999808
100
AcDbArc
 50
-95.56538970751831
 51
-53.26659943681588
  0
ARC
  5
152
100
AcDbEntity
  8
1
  6
CONTINUOUS
 62
             7
100
AcDbCircle
 10
-50.49861259537158
 20
-156.69219687137459
 40
4.41140442526471
100
AcDbArc
 50
-174.05354603754779
 51
-148.77720227596586
  0
ARC
  5
151
100
AcDbEntity
  8
1
  6
CONTINUOUS
 62
             7
100
AcDbCircle
 10
-50.49861259537158
 20
-156.69219687137459
 40
4.41140442526474
100
AcDbArc
 50
179.33034310279896
 51
-174.05354603754779
  0
ARC
  5
150
100
AcDbEntity
  8
1
  6
CONTINUOUS
 62
             7
100
AcDbCircle
 10
-22.24830646075321
 20
-267.5141934613398
 40
1.9938870582191
100
AcDbArc
 50
-175.17491208672905
 51
-91.26297992893962
  0
ARC
  5
14F
100
AcDbEntity
  8
1
  6
CONTINUOUS
 62
             7
100
AcDbCircle
 10
-22.04561678044016
 20
-267.54816055926233
 40
2.9518437491532
100
AcDbArc
 50
-175.87679903923978
 51
-90.09789258219932
  0
ARC
  5
14E
100
AcDbEntity
  8
1
  6
CONTINUOUS
 62
             7
100
AcDbCircle
 10
-19.92848322926303
 20
-267.76072761447722
 40
2.73956231478531
100
AcDbArc
 50
179.81806840893157
 51
-90.83357924726779
  0
ARC
  5
14D
100
AcDbEntity
  8
1
  6
CONTINUOUS
 62
             7
100
AcDbCircle
 10
-20.28149877022879
 20
-269.73119432044427
 40
0.93615580368713
100
AcDbArc
 50
-55.20880340786921
 51
13.81851145050845
  0
ARC
  5
14C
100
AcDbEntity
  8
1
  6
CONTINUOUS
 62
             7
100
AcDbCircle
 10
-19.27812190754028
 20
-267.56426076523201
 40
1.94562273698261
100
AcDbArc
 50
-176.53335565533328
 51
-92.77856083324555
  0
ARC
  5
14B
100
AcDbEntity
  8
1
  6
CONTINUOUS
 62
             7
100
AcDbCircle
 10
-16.438899835146
 20
-269.75994313422689
 40
0.81300555116636
100
AcDbArc
 50
161.91739686525594
 51
-114.4569177984153
  0
ARC
  5
14A
100
AcDbEntity
  8
1
  6
CONTINUOUS
 62
             7
100
AcDbCircle
 10
-22.31959885335061
 20
-289.76623668032192
 40
22.16724701582436
100
AcDbArc
 50
94.95725753972593
 51
96.91853402830633
  0
ARC
  5
149
100
AcDbEntity
  8
1
  6
CONTINUOUS
 62
             7
100
AcDbCircle
 10
-22.6154811520643
 20
-253.85457892067521
 40
13.8975491164364
100
AcDbArc
 50
-90.21665213465552
 51
-84.23786682391567
  0
ARC
  5
148
100
AcDbEntity
  8
1
  6
CONTINUOUS
 62
             7
100
AcDbCircle
 10
-21.08545629380681
 20
-269.73941811747301
 40
1.22886259326307
100
AcDbArc
 50
169.12612908909821
 51
-141.76184435023802
  0
ARC
  5
147
100
AcDbEntity
  8
1
  6
CONTINUOUS
 62
             7
100
AcDbCircle
 10
-11.23595112564666
 20
-259.12229088046962
 40
8.63468349445004
100
AcDbArc
 50
-95.71878096636284
 51
-82.43944969601617
  0
ARC
  5
146
100
AcDbEntity
  8
1
  6
CONTINUOUS
 62
             7
100
AcDbCircle
 10
-10.28910034240769
 20
-269.02066313409608
 40
1.48004696255987
100
AcDbArc
 50
-157.49567747909273
 51
-91.77490854905169
  0
ARC
  5
145
100
AcDbEntity
  8
1
  6
CONTINUOUS
 62
             7
100
AcDbCircle
 10
-10.05300064762516
 20
-269.51158775151413
 40
0.99999999999586
100
AcDbArc
 50
-81.2691307287792
 51
0.22870404626321
  0
ARC
  5
144
100
AcDbEntity
  8
1
  6
CONTINUOUS
 62
             7
100
AcDbCircle
 10
-7.73080572580735
 20
-267.67696521858562
 40
4.36571340432091
100
AcDbArc
 50
-179.51395868192859
 51
-154.05273387860251
  0
ARC
  5
143
100
AcDbEntity
  8
1
  6
CONTINUOUS
 62
             7
100
AcDbCircle
 10
16.65347471191883
 20
-268.23310899216432
 40
15.00000000000002
100
AcDbArc
 50
173.3651930287931
 51
-174.82087228482317
  0
ARC
  5
142
100
AcDbEntity
  8
1
  6
CONTINUOUS
 62
             7
100
AcDbCircle
 10
3.90700845695189
 20
-262.62442929371213
 40
4.00000000000251
100
AcDbArc
 50
-106.63509742969775
 51
-75.67148309950201
  0
ARC
  5
141
100
AcDbEntity
  8
1
  6
CONTINUOUS
 62
             7
100
AcDbCircle
 10
-9.79626728600587
 20
-269.29060186440142
 40
1.99999999999804
100
AcDbArc
 50
-37.20719013074415
 51
-8.52708584564911
  0
ARC
  5
140
100
AcDbEntity
  8
1
  6
CONTINUOUS
 62
             7
100
AcDbCircle
 10
-8.10096883640772
 20
-267.74872709440291
 40
2.00000000000265
100
AcDbArc
 50
178.08540645387623
 51
-118.425775682839
  0
LINE
  5
13F
100
AcDbEntity
  8
1
  6
PHANTOM
 62
             2
100
AcDbLine
 10
0.00000000000001
 20
-128.50000000000011
 11
0.00000000000001
 21
-270.5
  0
LINE
  5
13E
100
AcDbEntity
  8
0
  6
CONTINUOUS
 62
             7
100
AcDbLine
 10
-55.8062000746102
 20
-132.41284425725249
 11
56.00509769432849
 21
-132.41284425725249
  0
LINE
  5
13D
100
AcDbEntity
  8
0
  6
CONTINUOUS
 62
             7
100
AcDbLine
 10
62.0069300725203
 20
-130.50000000000011
 11
-61.49999999999988
 21
-130.50000000000011
  0
LINE
  5
13C
100
AcDbEntity
  8
0
  6
DASHED
 62
             7
100
AcDbLine
 10
1.5
 20
-139.1622776601684
 11
1.5
 21
-139.49999999766041
  0
LINE
  5
13B
100
AcDbEntity
  8
0
  6
DASHED
 62
             7
100
AcDbLine
 10
-1.5
 20
-139.1622776601684
 11
-1.5
 21
-138.87228132527531
  0
LINE
  5
13A
100
AcDbEntity
  8
0
  6
CONTINUOUS
 62
             7
100
AcDbLine
 10
-62.49999999999988
 20
-128.50000000000011
 11
62.4999999999999
 21
-128.50000000000011
  0
LINE
  5
139
100
AcDbEntity
  8
0
  6
CONTINUOUS
 62
             7
100
AcDbLine
 10
-62.49999999999988
 20
-128.50000000000011
 11
-62.49999999999988
 21
-130.50000000000011
  0
LINE
  5
138
100
AcDbEntity
  8
0
  6
CONTINUOUS
 62
             7
100
AcDbLine
 10
-57.41633117401739
 20
-131.5000000000002
 11
-61.49999999999988
 21
-131.50000000000011
  0
LINE
  5
137
100
AcDbEntity
  8
0
  6
CONTINUOUS
 62
             7
100
AcDbLine
 10
57.41633117401739
 20
-131.5000000000002
 11
-57.41633117401739
 21
-131.5000000000002
  0
LINE
  5
136
100
AcDbEntity
  8
0
  6
CONTINUOUS
 62
             7
100
AcDbLine
 10
-56.42013647592557
 20
-132.41284425725249
 11
-55.71260202826658
 21
-140.50000000000011
  0
LINE
  5
135
100
AcDbEntity
  8
0
  6
CONTINUOUS
 62
             7
100
AcDbLine
 10
62.4999999999999
 20
-128.50000000000011
 11
62.50000000000001
 21
-130.50000000000011
  0
LINE
  5
134
100
AcDbEntity
  8
0
  6
CONTINUOUS
 62
             7
100
AcDbLine
 10
56.42013647592557
 20
-132.41284425725249
 11
55.7126020282666
 21
-140.50000000000011
  0
LINE
  5
133
100
AcDbEntity
  8
0
  6
DASHED
 62
             7
100
AcDbLine
 10
1.5
 20
-138.87228132326871
 11
1.5
 21
-139.1622776601684
  0
LINE
  5
132
100
AcDbEntity
  8
0
  6
DASHED
 62
             7
100
AcDbLine
 10
-1.5
 20
-139.5
 11
-1.5
 21
-139.1622776601684
  0
LINE
  5
131
100
AcDbEntity
  8
0
  6
CONTINUOUS
 62
             7
100
AcDbLine
 10
55.02016806560952
 20
-140.50000000000011
 11
55.02633560225162
 21
-140.50000000000011
  0
LINE
  5
130
100
AcDbEntity
  8
0
  6
CONTINUOUS
 62
             7
100
AcDbLine
 10
54.91418434308711
 20
-156.88890455170679
 11
55.02633560225162
 21
-140.50000000000011
  0
LINE
  5
12F
100
AcDbEntity
  8
0
  6
CONTINUOUS
 62
             7
100
AcDbLine
 10
54.90971571908862
 20
-156.64063879557389
 11
55.02016806560952
 21
-140.50000000000011
  0
LINE
  5
12E
100
AcDbEntity
  8
0
  6
CONTINUOUS
 62
             7
100
AcDbLine
 10
55.02633560225162
 20
-140.50000000000011
 11
55.7126020282666
 21
-140.50000000000011
  0
LINE
  5
12D
100
AcDbEntity
  8
0
  6
CONTINUOUS
 62
             7
100
AcDbLine
 10
48.54873722902964
 20
-156.95535483994851
 11
48.38575254568213
 21
-148.74847184800271
  0
LINE
  5
12C
100
AcDbEntity
  8
0
  6
CONTINUOUS
 62
             7
100
AcDbLine
 10
38.15398003186682
 20
-156.95535483994851
 11
37.90012543602561
 21
-148.74847184800271
  0
LINE
  5
12B
100
AcDbEntity
  8
0
  6
CONTINUOUS
 62
             7
100
AcDbLine
 10
9.67611021987523
 20
-156.9996564419979
 11
10.03562836464193
 21
-148.67858788306521
  0
LINE
  5
12A
100
AcDbEntity
  8
0
  6
CONTINUOUS
 62
             7
100
AcDbLine
 10
24.02444543477472
 20
-156.95535483994851
 11
23.70456998298792
 21
-148.7484718480091
  0
LINE
  5
129
100
AcDbEntity
  8
0
  6
CONTINUOUS
 62
             7
100
AcDbLine
 10
7.54323073037273
 20
-156.95535483994851
 11
7.18864606056792
 21
-148.74847184800271
  0
LINE
  5
128
100
AcDbEntity
  8
0
  6
CONTINUOUS
 62
             7
100
AcDbLine
 10
-7.54323073037258
 20
-156.95535483994851
 11
-7.18864606056718
 21
-148.74847184800919
  0
LINE
  5
127
100
AcDbEntity
  8
0
  6
CONTINUOUS
 62
             7
100
AcDbLine
 10
-9.67611021987508
 20
-156.9996564419981
 11
-10.03562836464178
 21
-148.67858788306521
  0
LINE
  5
126
100
AcDbEntity
  8
0
  6
CONTINUOUS
 62
             7
100
AcDbLine
 10
-38.1539800318667
 20
-156.95535483994851
 11
-37.90012543602548
 21
-148.74847184800271
  0
LINE
  5
125
100
AcDbEntity
  8
0
  6
CONTINUOUS
 62
             7
100
AcDbLine
 10
-48.54873722902948
 20
-156.95535483994851
 11
-48.38575254568197
 21
-148.74847184800271
  0
LINE
  5
124
100
AcDbEntity
  8
0
  6
CONTINUOUS
 62
             7
100
AcDbLine
 10
-24.02444543477449
 20
-156.95535483994851
 11
-23.70456998298777
 21
-148.7484718480091
  0
LINE
  5
123
100
AcDbEntity
  8
0
  6
CONTINUOUS
 62
             7
100
AcDbLine
 10
49.82577815603083
 20
-154.10346506713239
 11
51.00127442521711
 21
-140.50000000000011
  0
LINE
  5
122
100
AcDbEntity
  8
0
  6
CONTINUOUS
 62
             7
100
AcDbLine
 10
44.68100240884193
 20
-155.94746285413561
 11
45.88517801719573
 21
-140.50000000000011
  0
LINE
  5
121
100
AcDbEntity
  8
0
  6
CONTINUOUS
 62
             7
100
AcDbLine
 10
-44.68100240884177
 20
-155.94746285413549
 11
-45.88517801719559
 21
-140.50000000000011
  0
LINE
  5
120
100
AcDbEntity
  8
0
  6
CONTINUOUS
 62
             7
100
AcDbLine
 10
-35.27127954368287
 20
-155.18526019687101
 11
-36.17976594371347
 21
-140.50000000000011
  0
LINE
  5
11F
100
AcDbEntity
  8
0
  6
CONTINUOUS
 62
             7
100
AcDbLine
 10
35.27127954368303
 20
-155.18526019687101
 11
36.17976594371363
 21
-140.50000000000011
  0
LINE
  5
11E
100
AcDbEntity
  8
0
  6
CONTINUOUS
 62
             7
100
AcDbLine
 10
7.02019800319741
 20
-150.61257545690819
 11
7.09282643038691
 21
-145.3059013731025
  0
LINE
  5
11D
100
AcDbEntity
  8
0
  6
CONTINUOUS
 62
             7
100
AcDbLine
 10
-38.32473390727397
 20
-140.50000000000011
 11
-37.76011508491137
 21
-140.50000000023101
  0
LINE
  5
11C
100
AcDbEntity
  8
0
  6
CONTINUOUS
 62
             7
100
AcDbLine
 10
-40.16411880443257
 20
-140.50000000000011
 11
-38.32473390727397
 21
-140.50000000000011
  0
LINE
  5
11B
100
AcDbEntity
  8
0
  6
CONTINUOUS
 62
             7
100
AcDbLine
 10
-40.31080455247228
 20
-140.50000000000011
 11
-40.16411880443257
 21
-140.50000000000011
  0
LINE
  5
11A
100
AcDbEntity
  8
0
  6
CONTINUOUS
 62
             7
100
AcDbLine
 10
-26.35535282796289
 20
-140.50000000000011
 11
-24.03759264312669
 21
-140.50000000000011
  0
LINE
  5
119
100
AcDbEntity
  8
0
  6
CONTINUOUS
 62
             7
100
AcDbLine
 10
-48.86038319245488
 20
-140.50000000000011
 11
-48.35435591500768
 21
-140.50000000023101
  0
LINE
  5
118
100
AcDbEntity
  8
0
  6
CONTINUOUS
 62
             7
100
AcDbLine
 10
-37.76011508491137
 20
-140.50000000023101
 11
-26.62873722555658
 21
-140.50000000000011
  0
LINE
  5
117
100
AcDbEntity
  8
0
  6
CONTINUOUS
 62
             7
100
AcDbLine
 10
-23.46965110011198
 20
-140.50000000023101
 11
-10.49999999999989
 21
-140.50000000000011
  0
LINE
  5
116
100
AcDbEntity
  8
0
  6
CONTINUOUS
 62
             7
100
AcDbLine
 10
-48.35435591500768
 20
-140.50000000023101
 11
-40.31080455247228
 21
-140.50000000000011
  0
LINE
  5
115
100
AcDbEntity
  8
0
  6
CONTINUOUS
 62
             7
100
AcDbLine
 10
-24.03759264312669
 20
-140.50000000000011
 11
-23.46965110011198
 21
-140.50000000023101
  0
LINE
  5
114
100
AcDbEntity
  8
0
  6
CONTINUOUS
 62
             7
100
AcDbLine
 10
-26.62873722555658
 20
-140.50000000000011
 11
-26.35535282796289
 21
-140.50000000000011
  0
LINE
  5
113
100
AcDbEntity
  8
0
  6
CONTINUOUS
 62
             7
100
AcDbLine
 10
-7.01727827380549
 20
-150.64488583825241
 11
-7.09093801834927
 21
-145.26285744362801
  0
LINE
  5
112
100
AcDbEntity
  8
0
  6
CONTINUOUS
 62
             7
100
AcDbLine
 10
-7.02019800319729
 20
-150.6125754569087
 11
-7.09282643038679
 21
-145.30590137310429
  0
LINE
  5
111
100
AcDbEntity
  8
0
  6
CONTINUOUS
 62
             7
100
AcDbLine
 10
10.5
 20
-140.50000000000011
 11
23.46965110011212
 21
-140.50000000023101
  0
LINE
  5
110
100
AcDbEntity
  8
0
  6
CONTINUOUS
 62
             7
100
AcDbLine
 10
26.62873722555671
 20
-140.50000000000011
 11
37.76011508491141
 21
-140.50000000023101
  0
LINE
  5
10F
100
AcDbEntity
  8
0
  6
CONTINUOUS
 62
             7
100
AcDbLine
 10
38.32473390727413
 20
-140.50000000000011
 11
40.16411880443273
 21
-140.50000000000011
  0
LINE
  5
10E
100
AcDbEntity
  8
0
  6
CONTINUOUS
 62
             7
100
AcDbLine
 10
40.31080455247233
 20
-140.50000000000011
 11
48.35435591500781
 21
-140.50000000023101
  0
LINE
  5
10D
100
AcDbEntity
  8
0
  6
CONTINUOUS
 62
             7
100
AcDbLine
 10
40.16411880443273
 20
-140.50000000000011
 11
40.31080455247233
 21
-140.50000000000011
  0
LINE
  5
10C
100
AcDbEntity
  8
0
  6
CONTINUOUS
 62
             7
100
AcDbLine
 10
24.0375926431268
 20
-140.50000000000011
 11
26.355352827963
 21
-140.50000000000011
  0
LINE
  5
10B
100
AcDbEntity
  8
0
  6
CONTINUOUS
 62
             7
100
AcDbLine
 10
50.04134099245403
 20
-140.50000000000011
 11
50.09593632068443
 21
-140.50000000000011
  0
LINE
  5
10A
100
AcDbEntity
  8
0
  6
CONTINUOUS
 62
             7
100
AcDbLine
 10
50.09593632068443
 20
-140.50000000000011
 11
54.21533548353501
 21
-140.50000000023101
  0
LINE
  5
109
100
AcDbEntity
  8
0
  6
CONTINUOUS
 62
             7
100
AcDbLine
 10
48.35435591500781
 20
-140.50000000023101
 11
48.86038319245501
 21
-140.50000000000011
  0
LINE
  5
108
100
AcDbEntity
  8
0
  6
CONTINUOUS
 62
             7
100
AcDbLine
 10
23.46965110011212
 20
-140.50000000023101
 11
24.0375926431268
 21
-140.50000000000011
  0
LINE
  5
107
100
AcDbEntity
  8
0
  6
CONTINUOUS
 62
             7
100
AcDbLine
 10
26.355352827963
 20
-140.50000000000011
 11
26.62873722555671
 21
-140.50000000000011
  0
LINE
  5
106
100
AcDbEntity
  8
0
  6
CONTINUOUS
 62
             7
100
AcDbLine
 10
37.76011508491141
 20
-140.50000000023101
 11
38.32473390727413
 21
-140.50000000000011
  0
LINE
  5
105
100
AcDbEntity
  8
0
  6
CONTINUOUS
 62
             7
100
AcDbLine
 10
48.86038319245501
 20
-140.50000000000011
 11
50.04134099245403
 21
-140.50000000000011
  0
LINE
  5
104
100
AcDbEntity
  8
0
  6
CONTINUOUS
 62
             7
100
AcDbLine
 10
22.29337636820821
 20
-154.13017164120831
 11
22.83475345652071
 21
-140.50000000000011
  0
LINE
  5
103
100
AcDbEntity
  8
0
  6
CONTINUOUS
 62
             7
100
AcDbLine
 10
54.61323774045094
 20
-140.50000000000011
 11
55.02016806560952
 21
-140.50000000000011
  0
LINE
  5
102
100
AcDbEntity
  8
0
  6
CONTINUOUS
 62
             7
100
AcDbLine
 10
54.21533548353501
 20
-140.50000000023101
 11
54.61323774045094
 21
-140.50000000000011
  0
LINE
  5
101
100
AcDbEntity
  8
0
  6
CONTINUOUS
 62
             7
100
AcDbLine
 10
25.9790356290064
 20
-157.16906588932471
 11
26.62873722555671
 21
-140.50000000000011
  0
LINE
  5
100
100
AcDbEntity
  8
0
  6
CONTINUOUS
 62
             7
100
AcDbLine
 10
30.83902563884692
 20
-200.0703030349996
 11
54.33183082195553
 21
-158.87235575039051
  0
LINE
  5
FF
100
AcDbEntity
  8
0
  6
CONTINUOUS
 62
             7
100
AcDbLine
 10
22.05066014434463
 20
-270.50000000000023
 11
21.97450913761922
 21
-270.50000000000023
  0
LINE
  5
FE
100
AcDbEntity
  8
0
  6
CONTINUOUS
 62
             7
100
AcDbLine
 10
2.60510439960763
 20
-204.49999999993611
 11
2.75368855607502
 21
-204.50000000000011
  0
LINE
  5
FD
100
AcDbEntity
  8
0
  6
CONTINUOUS
 62
             7
100
AcDbLine
 10
18.75604552210172
 20
-266.50000000000063
 11
19.84003593757223
 21
-266.50000000000063
  0
LINE
  5
FC
100
AcDbEntity
  8
0
  6
CONTINUOUS
 62
             7
100
AcDbLine
 10
18.30182463281892
 20
-266.50000000000011
 11
18.75604552210172
 21
-266.50000000000063
  0
LINE
  5
FB
100
AcDbEntity
  8
0
  6
CONTINUOUS
 62
             7
100
AcDbLine
 10
4.75186219342712
 20
-269.58715574274783
 11
13.15671951428931
 21
-269.5871557427497
  0
LINE
  5
FA
100
AcDbEntity
  8
0
  6
CONTINUOUS
 62
             7
100
AcDbLine
 10
17.5946269408214
 20
-269.58715574274783
 11
19.57330487892622
 21
-269.5871557427497
  0
LINE
  5
F9
100
AcDbEntity
  8
0
  6
CONTINUOUS
 62
             7
100
AcDbLine
 10
3.24605163143011
 20
-270.50000000000023
 11
3.72685016548681
 21
-270.50000000000023
  0
LINE
  5
F8
100
AcDbEntity
  8
0
  6
CONTINUOUS
 62
             7
100
AcDbLine
 10
3.72685016548681
 20
-270.50000000000023
 11
13.13215889331142
 21
-270.50000000000011
  0
LINE
  5
F7
100
AcDbEntity
  8
0
  6
CONTINUOUS
 62
             7
100
AcDbLine
 10
19.5794692162481
 20
-269.50759612349401
 11
21.90442509317091
 21
-269.50759612349401
  0
LINE
  5
F6
100
AcDbEntity
  8
0
  6
CONTINUOUS
 62
             7
100
AcDbLine
 10
15.9313775168267
 20
-270.50000000000023
 11
18.7767218705587
 21
-270.50000000000011
  0
LINE
  5
F5
100
AcDbEntity
  8
0
  6
CONTINUOUS
 62
             7
100
AcDbLine
 10
18.7767218705587
 20
-270.50000000000011
 11
21.97450913761922
 21
-270.50000000000023
  0
LINE
  5
F4
100
AcDbEntity
  8
0
  6
CONTINUOUS
 62
             7
100
AcDbLine
 10
13.15922678454712
 20
-269.50759612349401
 11
14.94414164618632
 21
-269.50759612349412
  0
LINE
  5
F3
100
AcDbEntity
  8
0
  6
CONTINUOUS
 62
             7
100
AcDbLine
 10
13.13215889331142
 20
-270.50000000000011
 11
15.5871637706046
 21
-270.50000000000023
  0
LINE
  5
F2
100
AcDbEntity
  8
0
  6
CONTINUOUS
 62
             7
100
AcDbLine
 10
15.5871637706046
 20
-270.50000000000023
 11
15.9313775168267
 21
-270.50000000000023
  0
LINE
  5
F1
100
AcDbEntity
  8
0
  6
CONTINUOUS
 62
             7
100
AcDbLine
 10
2.47155756448331
 20
-270.50000000000011
 11
3.24605163143011
 21
-270.50000000000023
  0
LINE
  5
F0
100
AcDbEntity
  8
0
  6
CONTINUOUS
 62
             7
100
AcDbLine
 10
3.6742949069737
 20
-199.79242028858229
 11
2.7619070596974
 21
-266.45701886083589
  0
LINE
  5
EF
100
AcDbEntity
  8
0
  6
CONTINUOUS
 62
             7
100
AcDbLine
 10
3.6742949069737
 20
-199.79242028858229
 11
7.54323073037273
 21
-156.95535483994851
  0
LINE
  5
EE
100
AcDbEntity
  8
0
  6
CONTINUOUS
 62
             7
100
AcDbLine
 10
26.76818102141831
 20
-202.00000000000011
 11
26.84415072565921
 21
-202.00000000000011
  0
LINE
  5
ED
100
AcDbEntity
  8
0
  6
CONTINUOUS
 62
             7
100
AcDbLine
 10
26.96174930473492
 20
-201.95745484471939
 11
26.96175464880322
 21
-201.95744445916341
  0
LINE
  5
EC
100
AcDbEntity
  8
0
  6
CONTINUOUS
 62
             7
100
AcDbLine
 10
12.33735775346814
 20
-201.54357787137391
 11
24.02444543477472
 21
-156.95535483994851
  0
LINE
  5
EB
100
AcDbEntity
  8
0
  6
CONTINUOUS
 62
             7
100
AcDbLine
 10
25.61153616693762
 20
-201.54357787137391
 11
48.54873722902964
 21
-156.95535483994851
  0
LINE
  5
EA
100
AcDbEntity
  8
0
  6
CONTINUOUS
 62
             7
100
AcDbLine
 10
4.96299996564293
 20
-200.07358251827301
 11
4.79772251785443
 21
-200.07358251827301
  0
LINE
  5
E9
100
AcDbEntity
  8
0
  6
CONTINUOUS
 62
             7
100
AcDbLine
 10
30.82647687028493
 20
-200.07358251827301
 11
30.80029949421862
 21
-200.07358251827301
  0
LINE
  5
E8
100
AcDbEntity
  8
0
  6
CONTINUOUS
 62
             7
100
AcDbLine
 10
22.11911312418042
 20
-200.07358251827301
 11
22.00078753572802
 21
-200.07358251827301
  0
LINE
  5
E7
100
AcDbEntity
  8
0
  6
CONTINUOUS
 62
             7
100
AcDbLine
 10
22.41343027946672
 20
-199.99840697633891
 11
39.68893129034152
 21
-157.6822444487604
  0
LINE
  5
E6
100
AcDbEntity
  8
0
  6
CONTINUOUS
 62
             7
100
AcDbLine
 10
20.66582129397353
 20
-199.79242028858241
 11
38.15398003186682
 21
-156.95535483994851
  0
LINE
  5
E5
100
AcDbEntity
  8
0
  6
CONTINUOUS
 62
             7
100
AcDbLine
 10
29.76370635210671
 20
-199.79242028858241
 11
28.31075684471171
 21
-199.335083901053
  0
LINE
  5
E4
100
AcDbEntity
  8
0
  6
CONTINUOUS
 62
             7
100
AcDbLine
 10
26.96175464880322
 20
-201.95744445916341
 11
49.41883891556231
 21
-158.30253295497511
  0
LINE
  5
E3
100
AcDbEntity
  8
0
  6
CONTINUOUS
 62
             7
100
AcDbLine
 10
49.76075874729933
 20
-157.3774333241463
 11
49.78053050860232
 21
-156.38185184827461
  0
LINE
  5
E2
100
AcDbEntity
  8
0
  6
CONTINUOUS
 62
             7
100
AcDbLine
 10
49.78053050860232
 20
-156.38185184827461
 11
50.09593632068443
 21
-140.50000000000011
  0
LINE
  5
E1
100
AcDbEntity
  8
0
  6
CONTINUOUS
 62
             7
100
AcDbLine
 10
39.79002830931192
 20
-157.3362116040559
 11
40.31080455247233
 21
-140.50000000000011
  0
LINE
  5
E0
100
AcDbEntity
  8
0
  6
CONTINUOUS
 62
             7
100
AcDbLine
 10
20.66582129397353
 20
-199.79242028858241
 11
18.40175569838323
 21
-198.86585680889891
  0
LINE
  5
DF
100
AcDbEntity
  8
0
  6
CONTINUOUS
 62
             7
100
AcDbLine
 10
15.64456212295812
 20
-196.6510124504149
 11
18.32948365204783
 21
-196.6510124504149
  0
LINE
  5
DE
100
AcDbEntity
  8
0
  6
CONTINUOUS
 62
             7
100
AcDbLine
 10
7.01727827380552
 20
-150.64488583825221
 11
7.09093801834942
 21
-145.26285744362551
  0
LINE
  5
DD
100
AcDbEntity
  8
0
  6
CONTINUOUS
 62
             7
100
AcDbLine
 10
7.05746546642152
 20
-144.4999999999693
 11
7.57030739711192
 21
-144.50000000000011
  0
LINE
  5
DC
100
AcDbEntity
  8
0
  6
CONTINUOUS
 62
             7
100
AcDbLine
 10
7.57030739711192
 20
-144.50000000000011
 11
8.5
 21
-144.50000000000011
  0
LINE
  5
DB
100
AcDbEntity
  8
0
  6
CONTINUOUS
 62
             7
100
AcDbLine
 10
9.5
 20
-143.5000000000008
 11
9.5
 21
-141.50000000000011
  0
LINE
  5
DA
100
AcDbEntity
  8
0
  6
CONTINUOUS
 62
             7
100
AcDbLine
 10
6.5
 20
-144.50000000000011
 11
7.05746546642152
 21
-144.4999999999693
  0
LINE
  5
D9
100
AcDbEntity
  8
0
  6
CONTINUOUS
 62
             7
100
AcDbLine
 10
5.80924913705812
 20
-199.8209869799293
 11
5.80956682276792
 21
-199.81746954667
  0
LINE
  5
D8
100
AcDbEntity
  8
0
  6
CONTINUOUS
 62
             7
100
AcDbLine
 10
5.80956682276792
 20
-199.81746954667
 11
6.09555324981773
 21
-196.6510124504149
  0
LINE
  5
D7
100
AcDbEntity
  8
0
  6
CONTINUOUS
 62
             7
100
AcDbLine
 10
6.09555324981773
 20
-196.6510124504149
 11
9.6742600177686
 21
-157.02737870776531
  0
LINE
  5
D6
100
AcDbEntity
  8
0
  6
CONTINUOUS
 62
             7
100
AcDbLine
 10
6.09555324981773
 20
-196.6510124504149
 11
11.13881282170732
 21
-196.65101245041541
  0
LINE
  5
D5
100
AcDbEntity
  8
0
  6
CONTINUOUS
 62
             7
100
AcDbLine
 10
29.76370635210671
 20
-199.79242028858241
 11
23.89727168503632
 21
-267.68190760898938
  0
LINE
  5
D4
100
AcDbEntity
  8
0
  6
CONTINUOUS
 62
             7
100
AcDbLine
 10
24.5689668930805
 20
-203.50000000000011
 11
26.82727924109893
 21
-203.5000000002818
  0
LINE
  5
D3
100
AcDbEntity
  8
0
  6
CONTINUOUS
 62
             7
100
AcDbLine
 10
25.20838531549111
 20
-204.5000000000006
 11
25.82187035549381
 21
-204.50000000000011
  0
LINE
  5
D2
100
AcDbEntity
  8
0
  6
CONTINUOUS
 62
             7
100
AcDbLine
 10
23.59834225229233
 20
-204.50000000000071
 11
25.20838531549111
 21
-204.5000000000006
  0
LINE
  5
D1
100
AcDbEntity
  8
0
  6
CONTINUOUS
 62
             7
100
AcDbLine
 10
22.28998307604923
 20
-204.49999999997789
 11
23.59834225229233
 21
-204.50000000000071
  0
LINE
  5
D0
100
AcDbEntity
  8
0
  6
CONTINUOUS
 62
             7
100
AcDbLine
 10
30.83902563884692
 20
-200.0703030349996
 11
24.98982041844653
 21
-267.76040206643211
  0
LINE
  5
CF
100
AcDbEntity
  8
0
  6
CONTINUOUS
 62
             7
100
AcDbLine
 10
30.83878483506332
 20
-200.07072531839691
 11
30.83902563884692
 21
-200.0703030349996
  0
LINE
  5
CE
100
AcDbEntity
  8
0
  6
CONTINUOUS
 62
             7
100
AcDbLine
 10
24.97746299381871
 20
-267.76146722824308
 11
24.95128561775253
 21
-267.76146722824308
  0
LINE
  5
CD
100
AcDbEntity
  8
0
  6
CONTINUOUS
 62
             7
100
AcDbLine
 10
5.80956682276792
 20
-199.81746954667
 11
4.89693355542272
 21
-266.50000000000011
  0
LINE
  5
CC
100
AcDbEntity
  8
0
  6
CONTINUOUS
 62
             7
100
AcDbLine
 10
4.89693355542272
 20
-266.50000000000011
 11
7.93840325990343
 21
-266.50000000000063
  0
LINE
  5
CB
100
AcDbEntity
  8
0
  6
CONTINUOUS
 62
             7
100
AcDbLine
 10
24.3323419625668
 20
-203.50000000000011
 11
24.41355914468833
 21
-203.50000000000011
  0
LINE
  5
CA
100
AcDbEntity
  8
0
  6
CONTINUOUS
 62
             7
100
AcDbLine
 10
24.41355914468833
 20
-203.50000000000011
 11
24.5689668930805
 21
-203.50000000000011
  0
LINE
  5
C9
100
AcDbEntity
  8
0
  6
CONTINUOUS
 62
             7
100
AcDbLine
 10
22.19924574995503
 20
-203.50000000000011
 11
24.3323419625668
 21
-203.50000000000011
  0
LINE
  5
C8
100
AcDbEntity
  8
0
  6
CONTINUOUS
 62
             7
100
AcDbLine
 10
23.85442813703913
 20
-202.5435778713744
 11
24.02854857509241
 21
-202.54357787137391
  0
LINE
  5
C7
100
AcDbEntity
  8
0
  6
CONTINUOUS
 62
             7
100
AcDbLine
 10
14.30712907869902
 20
-201.7535465706375
 11
25.9598778778151
 21
-157.29633213490621
  0
LINE
  5
C6
100
AcDbEntity
  8
0
  6
CONTINUOUS
 62
             7
100
AcDbLine
 10
12.63142423819912
 20
-203.50000000000011
 11
18.42806302532322
 21
-203.5000000002828
  0
LINE
  5
C5
100
AcDbEntity
  8
0
  6
CONTINUOUS
 62
             7
100
AcDbLine
 10
22.4163030153845
 20
-199.9913702391745
 11
18.22535739933252
 21
-267.73605727091302
  0
LINE
  5
C4
100
AcDbEntity
  8
0
  6
CONTINUOUS
 62
             7
100
AcDbLine
 10
22.13738192269893
 20
-204.50000000000011
 11
22.28998307604923
 21
-204.49999999997789
  0
LINE
  5
C3
100
AcDbEntity
  8
0
  6
CONTINUOUS
 62
             7
100
AcDbLine
 10
5.74548057651993
 20
-204.50000000000011
 11
10.40673506259953
 21
-204.49999999997021
  0
LINE
  5
C2
100
AcDbEntity
  8
0
  6
CONTINUOUS
 62
             7
100
AcDbLine
 10
12.97453452687183
 20
-204.49999999997021
 11
17.1896819896761
 21
-204.5000000000006
  0
LINE
  5
C1
100
AcDbEntity
  8
0
  6
CONTINUOUS
 62
             7
100
AcDbLine
 10
17.1896819896761
 20
-204.5000000000006
 11
17.6606666548744
 21
-204.50000000000011
  0
LINE
  5
C0
100
AcDbEntity
  8
0
  6
CONTINUOUS
 62
             7
100
AcDbLine
 10
10.40673506259953
 20
-204.49999999997021
 11
12.97453452687183
 21
-204.49999999997021
  0
LINE
  5
BF
100
AcDbEntity
  8
0
  6
CONTINUOUS
 62
             7
100
AcDbLine
 10
5.75916681879571
 20
-203.50000000000011
 11
12.28065045018442
 21
-203.50000000000011
  0
LINE
  5
BE
100
AcDbEntity
  8
0
  6
CONTINUOUS
 62
             7
100
AcDbLine
 10
20.66582129397353
 20
-199.79242028858241
 11
16.46591777787672
 21
-267.68190760898938
  0
LINE
  5
BD
100
AcDbEntity
  8
0
  6
CONTINUOUS
 62
             7
100
AcDbLine
 10
17.93168151715011
 20
-267.76146722824308
 11
17.81335592869773
 21
-267.76146722824308
  0
LINE
  5
BC
100
AcDbEntity
  8
0
  6
CONTINUOUS
 62
             7
100
AcDbLine
 10
12.28065045018442
 20
-203.50000000000011
 11
12.32641935856763
 21
-203.50000000000011
  0
LINE
  5
BB
100
AcDbEntity
  8
0
  6
CONTINUOUS
 62
             7
100
AcDbLine
 10
11.37494681696902
 20
-202.5435778713744
 11
11.47307017177153
 21
-202.54357787137391
  0
LINE
  5
BA
100
AcDbEntity
  8
0
  6
CONTINUOUS
 62
             7
100
AcDbLine
 10
12.32641935856763
 20
-203.50000000000011
 11
12.63142423819912
 21
-203.50000000000011
  0
LINE
  5
B9
100
AcDbEntity
  8
0
  6
CONTINUOUS
 62
             7
100
AcDbLine
 10
13.58387424611541
 20
-202.00000000000011
 11
13.73297318575872
 21
-202.00000000000011
  0
LINE
  5
B8
100
AcDbEntity
  8
0
  6
CONTINUOUS
 62
             7
100
AcDbLine
 10
14.53370678731861
 20
-204.50000000000011
 11
12.07112741862651
 21
-266.50000000000011
  0
LINE
  5
B7
100
AcDbEntity
  8
0
  6
CONTINUOUS
 62
             7
100
AcDbLine
 10
7.93840325990343
 20
-266.50000000000063
 11
10.50788321172871
 21
-266.50000000000063
  0
LINE
  5
B6
100
AcDbEntity
  8
0
  6
CONTINUOUS
 62
             7
100
AcDbLine
 10
10.50788321172871
 20
-266.50000000000063
 11
13.34580696291321
 21
-266.49999999999301
  0
LINE
  5
B5
100
AcDbEntity
  8
0
  6
CONTINUOUS
 62
             7
100
AcDbLine
 10
3.6742949069737
 20
-199.79242028858229
 11
2.95463539084253
 21
-198.8658568088986
  0
LINE
  5
B4
100
AcDbEntity
  8
0
  6
CONTINUOUS
 62
             7
100
AcDbLine
 10
54.19120576727273
 20
-156.95535483994851
 11
54.13504507279434
 21
-148.74847184798941
  0
LINE
  5
B3
100
AcDbEntity
  8
0
  6
CONTINUOUS
 62
             7
100
AcDbLine
 10
1.71260698681872
 20
-269.50759612350788
 11
2.27570402305142
 21
-269.50759612349401
  0
LINE
  5
B2
100
AcDbEntity
  8
0
  6
CONTINUOUS
 62
             7
100
AcDbLine
 10
-4.6022238037543
 20
-266.50000000000063
 11
-1.75393333571017
 21
-266.50000000000063
  0
LINE
  5
B1
100
AcDbEntity
  8
0
  6
CONTINUOUS
 62
             7
100
AcDbLine
 10
-1.75393333571017
 20
-266.50000000000063
 11
1.75393333571162
 21
-266.50000000000881
  0
LINE
  5
B0
100
AcDbEntity
  8
0
  6
CONTINUOUS
 62
             7
100
AcDbLine
 10
-5.45153203284837
 20
-204.49999999997041
 11
-2.60510439960708
 21
-204.49999999997021
  0
LINE
  5
AF
100
AcDbEntity
  8
0
  6
CONTINUOUS
 62
             7
100
AcDbLine
 10
-4.11059605081288
 20
-203.50000000000011
 11
2.98995308069931
 21
-203.50000000028271
  0
LINE
  5
AE
100
AcDbEntity
  8
0
  6
CONTINUOUS
 62
             7
100
AcDbLine
 10
-3.11525611174559
 20
-202.543577871374
 11
-3.1587707917314
 21
-202.54357787137391
  0
LINE
  5
AD
100
AcDbEntity
  8
0
  6
CONTINUOUS
 62
             7
100
AcDbLine
 10
-2.60510439960708
 20
-204.49999999997021
 11
2.60510439960763
 21
-204.49999999993611
  0
LINE
  5
AC
100
AcDbEntity
  8
0
  6
CONTINUOUS
 62
             7
100
AcDbLine
 10
29.76370635210671
 20
-199.79242028858241
 11
54.19120576727273
 21
-156.95535483994851
  0
LINE
  5
AB
100
AcDbEntity
  8
0
  6
CONTINUOUS
 62
             7
100
AcDbLine
 10
54.14198848190683
 20
-159.14063879557389
 11
54.16816585797313
 21
-159.14063879557389
  0
LINE
  5
AA
100
AcDbEntity
  8
0
  6
CONTINUOUS
 62
             7
100
AcDbLine
 10
-7.81837553031499
 20
-269.58715574274783
 11
1.71471447563301
 21
-269.58715574274783
  0
LINE
  5
A9
100
AcDbEntity
  8
0
  6
CONTINUOUS
 62
             7
100
AcDbLine
 10
2.85779738370562
 20
-196.6510124504149
 11
-2.85779738370428
 21
-196.65101245042911
  0
LINE
  5
A8
100
AcDbEntity
  8
0
  6
CONTINUOUS
 62
             7
100
AcDbLine
 10
-8.20335920654787
 20
-270.50000000000011
 11
2.47155756448331
 21
-270.50000000000011
  0
LINE
  5
A7
100
AcDbEntity
  8
0
  6
CONTINUOUS
 62
             7
100
AcDbLine
 10
-16.7754913704662
 20
-270.50000000000011
 11
-10.33494190171367
 21
-270.50000000000023
  0
LINE
  5
A6
100
AcDbEntity
  8
0
  6
CONTINUOUS
 62
             7
100
AcDbLine
 10
-50.09593632068427
 20
-140.50000000000011
 11
-50.04134099245388
 21
-140.50000000000011
  0
LINE
  5
A5
100
AcDbEntity
  8
0
  6
CONTINUOUS
 62
             7
100
AcDbLine
 10
-54.21533548353499
 20
-140.50000000023101
 11
-50.09593632068427
 21
-140.50000000000011
  0
LINE
  5
A4
100
AcDbEntity
  8
0
  6
CONTINUOUS
 62
             7
100
AcDbLine
 10
-54.61323774045079
 20
-140.50000000000011
 11
-54.21533548353499
 21
-140.50000000023101
  0
LINE
  5
A3
100
AcDbEntity
  8
0
  6
CONTINUOUS
 62
             7
100
AcDbLine
 10
-50.04134099245388
 20
-140.50000000000011
 11
-48.86038319245488
 21
-140.50000000000011
  0
LINE
  5
A2
100
AcDbEntity
  8
0
  6
CONTINUOUS
 62
             7
100
AcDbLine
 10
-55.02016806560939
 20
-140.50000000000011
 11
-54.61323774045079
 21
-140.50000000000011
  0
LINE
  5
A1
100
AcDbEntity
  8
0
  6
CONTINUOUS
 62
             7
100
AcDbLine
 10
-49.82577815603067
 20
-154.10346506713219
 11
-51.00127442521698
 21
-140.50000000000011
  0
LINE
  5
A0
100
AcDbEntity
  8
0
  6
CONTINUOUS
 62
             7
100
AcDbLine
 10
-54.90971571908849
 20
-156.64063879557389
 11
-55.02016806560939
 21
-140.50000000000011
  0
LINE
  5
9F
100
AcDbEntity
  8
0
  6
CONTINUOUS
 62
             7
100
AcDbLine
 10
-49.78053050860219
 20
-156.38185184827461
 11
-50.09593632068427
 21
-140.50000000000011
  0
LINE
  5
9E
100
AcDbEntity
  8
0
  6
CONTINUOUS
 62
             7
100
AcDbLine
 10
-39.79002830931178
 20
-157.3362116040559
 11
-40.31080455247228
 21
-140.50000000000011
  0
LINE
  5
9D
100
AcDbEntity
  8
0
  6
CONTINUOUS
 62
             7
100
AcDbLine
 10
-25.97903562900629
 20
-157.16906588932471
 11
-26.62873722555658
 21
-140.50000000000011
  0
LINE
  5
9C
100
AcDbEntity
  8
0
  6
CONTINUOUS
 62
             7
100
AcDbLine
 10
-30.83902563884677
 20
-200.0703030349996
 11
-54.27106069813456
 21
-158.97892473345291
  0
LINE
  5
9B
100
AcDbEntity
  8
0
  6
CONTINUOUS
 62
             7
100
AcDbLine
 10
-54.19120576727249
 20
-156.95535483994851
 11
-54.13504507279048
 21
-148.7484718479958
  0
LINE
  5
9A
100
AcDbEntity
  8
0
  6
CONTINUOUS
 62
             7
100
AcDbLine
 10
-28.7651225233241
 20
-201.54357787137391
 11
-54.19120576727249
 21
-156.95535483994851
  0
LINE
  5
99
100
AcDbEntity
  8
0
  6
CONTINUOUS
 62
             7
100
AcDbLine
 10
-49.76075874729917
 20
-157.3774333241463
 11
-49.78053050860219
 21
-156.38185184827461
  0
LINE
  5
98
100
AcDbEntity
  8
0
  6
CONTINUOUS
 62
             7
100
AcDbLine
 10
-19.74734007109549
 20
-270.50000000000011
 11
-19.9683389001583
 21
-270.50000000000023
  0
LINE
  5
97
100
AcDbEntity
  8
0
  6
CONTINUOUS
 62
             7
100
AcDbLine
 10
-4.11059605081288
 20
-203.50000000000011
 11
-4.13089314935499
 21
-203.50000000000011
  0
LINE
  5
96
100
AcDbEntity
  8
0
  6
CONTINUOUS
 62
             7
100
AcDbLine
 10
-5.74548057651978
 20
-204.50000000000011
 11
-4.89693355542257
 21
-266.50000000000011
  0
LINE
  5
95
100
AcDbEntity
  8
0
  6
CONTINUOUS
 62
             7
100
AcDbLine
 10
-5.7430030548351
 20
-204.50000000000011
 11
-4.89445603373778
 21
-266.50000000000011
  0
LINE
  5
94
100
AcDbEntity
  8
0
  6
CONTINUOUS
 62
             7
100
AcDbLine
 10
-10.73246166824728
 20
-204.50000000000011
 11
-10.40673506259938
 21
-204.49999999997041
  0
LINE
  5
93
100
AcDbEntity
  8
0
  6
CONTINUOUS
 62
             7
100
AcDbLine
 10
-19.9683389001583
 20
-270.50000000000023
 11
-22.05066014434448
 21
-270.50000000000011
  0
LINE
  5
92
100
AcDbEntity
  8
0
  6
CONTINUOUS
 62
             7
100
AcDbLine
 10
-8.20335920654787
 20
-270.50000000000011
 11
-9.90120727809079
 21
-270.50000000000011
  0
LINE
  5
91
100
AcDbEntity
  8
0
  6
CONTINUOUS
 62
             7
100
AcDbLine
 10
-16.7754913704662
 20
-270.50000000000011
 11
-19.74734007109549
 21
-270.50000000000011
  0
LINE
  5
90
100
AcDbEntity
  8
0
  6
CONTINUOUS
 62
             7
100
AcDbLine
 10
-10.33494190171367
 20
-270.50000000000023
 11
-9.90120727809079
 21
-270.50000000000011
  0
LINE
  5
8F
100
AcDbEntity
  8
0
  6
CONTINUOUS
 62
             7
100
AcDbLine
 10
-10.40673506259938
 20
-204.49999999997041
 11
-5.45153203284837
 21
-204.49999999997041
  0
LINE
  5
8E
100
AcDbEntity
  8
0
  6
CONTINUOUS
 62
             7
100
AcDbLine
 10
-3.51613476613468
 20
-201.54357787137391
 11
-7.54323073037258
 21
-156.95535483994851
  0
LINE
  5
8D
100
AcDbEntity
  8
0
  6
CONTINUOUS
 62
             7
100
AcDbLine
 10
-11.26011742680459
 20
-203.50000000052651
 11
-4.46899366294118
 21
-203.50000000000011
  0
LINE
  5
8C
100
AcDbEntity
  8
0
  6
CONTINUOUS
 62
             7
100
AcDbLine
 10
-7.93840325990339
 20
-266.50000000000011
 11
-4.6022238037543
 21
-266.50000000000063
  0
LINE
  5
8B
100
AcDbEntity
  8
0
  6
CONTINUOUS
 62
             7
100
AcDbLine
 10
-7.05746546642137
 20
-144.4999999999693
 11
-6.5
 21
-144.50000000000011
  0
LINE
  5
8A
100
AcDbEntity
  8
0
  6
CONTINUOUS
 62
             7
100
AcDbLine
 10
-5.6494807322415
 20
-201.58995134794901
 11
-5.64947716060848
 21
-201.58999094273949
  0
LINE
  5
89
100
AcDbEntity
  8
0
  6
CONTINUOUS
 62
             7
100
AcDbLine
 10
-4.78901079229919
 20
-202.00000000000011
 11
-4.62373334451058
 21
-202.00000000000011
  0
LINE
  5
88
100
AcDbEntity
  8
0
  6
CONTINUOUS
 62
             7
100
AcDbLine
 10
-5.6494807322415
 20
-201.58995134794901
 11
-6.09555324981758
 21
-196.6510124504149
  0
LINE
  5
87
100
AcDbEntity
  8
0
  6
CONTINUOUS
 62
             7
100
AcDbLine
 10
-17.21175105782828
 20
-269.50759612349401
 11
-19.3724379718783
 21
-269.50759612349401
  0
LINE
  5
86
100
AcDbEntity
  8
0
  6
CONTINUOUS
 62
             7
100
AcDbLine
 10
-7.81858570787039
 20
-269.50759612349401
 11
-9.05300861420809
 21
-269.50759612349412
  0
LINE
  5
85
100
AcDbEntity
  8
0
  6
CONTINUOUS
 62
             7
100
AcDbLine
 10
-21.98392196590068
 20
-269.50759612349401
 11
-22.29225446923999
 21
-269.50759612349401
  0
LINE
  5
84
100
AcDbEntity
  8
0
  6
CONTINUOUS
 62
             7
100
AcDbLine
 10
-27.9460735652003
 20
-200.0440012340207
 11
-22.6680317331543
 21
-267.75202868241888
  0
LINE
  5
83
100
AcDbEntity
  8
0
  6
CONTINUOUS
 62
             7
100
AcDbLine
 10
-27.94434176589488
 20
-200.0473677238318
 11
-27.9460735652003
 21
-200.0440012340207
  0
LINE
  5
82
100
AcDbEntity
  8
0
  6
CONTINUOUS
 62
             7
100
AcDbLine
 10
-27.9460735652003
 20
-200.0440012340207
 11
-49.41883891556218
 21
-158.30253295497511
  0
LINE
  5
81
100
AcDbEntity
  8
0
  6
CONTINUOUS
 62
             7
100
AcDbLine
 10
-21.64610412428488
 20
-201.87796446470631
 11
-23.98643960376458
 21
-196.1453367711685
  0
LINE
  5
80
100
AcDbEntity
  8
0
  6
CONTINUOUS
 62
             7
100
AcDbLine
 10
-6.09555324981758
 20
-196.6510124504149
 11
-9.67426001776849
 21
-157.02737870776539
  0
LINE
  5
7F
100
AcDbEntity
  8
0
  6
CONTINUOUS
 62
             7
100
AcDbLine
 10
-6.09555324981758
 20
-196.6510124504149
 11
-11.13881282170348
 21
-196.65101245042911
  0
LINE
  5
7E
100
AcDbEntity
  8
0
  6
CONTINUOUS
 62
             7
100
AcDbLine
 10
-23.98643960376458
 20
-196.1453367711685
 11
-39.68893129034139
 21
-157.6822444487604
  0
LINE
  5
7D
100
AcDbEntity
  8
0
  6
CONTINUOUS
 62
             7
100
AcDbLine
 10
-26.51237165301637
 20
-199.79242028858241
 11
-48.54873722902948
 21
-156.95535483994851
  0
LINE
  5
7C
100
AcDbEntity
  8
0
  6
CONTINUOUS
 62
             7
100
AcDbLine
 10
-8.5
 20
-144.50000000000011
 11
-7.57030739711169
 21
-144.50000000000011
  0
LINE
  5
7B
100
AcDbEntity
  8
0
  6
CONTINUOUS
 62
             7
100
AcDbLine
 10
-7.57030739711169
 20
-144.50000000000011
 11
-7.05746546642137
 21
-144.4999999999693
  0
LINE
  5
7A
100
AcDbEntity
  8
0
  6
CONTINUOUS
 62
             7
100
AcDbLine
 10
-9.49999999999988
 20
-141.50000000000011
 11
-9.49999999999988
 21
-143.50000000000011
  0
LINE
  5
79
100
AcDbEntity
  8
0
  6
CONTINUOUS
 62
             7
100
AcDbLine
 10
-30.83902563884677
 20
-200.0703030349996
 11
-24.98982041844639
 21
-267.76040206643211
  0
LINE
  5
78
100
AcDbEntity
  8
0
  6
CONTINUOUS
 62
             7
100
AcDbLine
 10
-29.72795246354917
 20
-202.00000000000011
 11
-29.7017750874829
 21
-202.00000000000011
  0
LINE
  5
77
100
AcDbEntity
  8
0
  6
CONTINUOUS
 62
             7
100
AcDbLine
 10
-29.94155120539918
 20
-201.6441510327281
 11
-24.2351274304462
 21
-267.68190760898938
  0
LINE
  5
76
100
AcDbEntity
  8
0
  6
CONTINUOUS
 62
             7
100
AcDbLine
 10
-27.75917420535287
 20
-200.07358251827301
 11
-27.8351439095938
 21
-200.07358251827301
  0
LINE
  5
75
100
AcDbEntity
  8
0
  6
CONTINUOUS
 62
             7
100
AcDbLine
 10
-29.74127603489458
 20
-201.9953617907687
 11
-29.74127787600389
 21
-201.99535856562329
  0
LINE
  5
74
100
AcDbEntity
  8
0
  6
CONTINUOUS
 62
             7
100
AcDbLine
 10
-29.74127787600389
 20
-201.99535856562329
 11
-30.83902563884677
 21
-200.0703030349996
  0
LINE
  5
73
100
AcDbEntity
  8
0
  6
CONTINUOUS
 62
             7
100
AcDbLine
 10
-26.51237165301637
 20
-199.79242028858241
 11
-21.2201844850124
 21
-267.68190760898938
  0
LINE
  5
72
100
AcDbEntity
  8
0
  6
CONTINUOUS
 62
             7
100
AcDbLine
 10
-12.7963563594339
 20
-199.792420288583
 11
-24.02444543477449
 21
-156.95535483994851
  0
LINE
  5
71
100
AcDbEntity
  8
0
  6
CONTINUOUS
 62
             7
100
AcDbLine
 10
-14.78931462118189
 20
-199.91392682191031
 11
-12.09636204909938
 21
-267.71399921421391
  0
LINE
  5
70
100
AcDbEntity
  8
0
  6
CONTINUOUS
 62
             7
100
AcDbLine
 10
-14.08881049360559
 20
-200.07358251827301
 11
-14.23790943324889
 21
-200.07358251827301
  0
LINE
  5
6F
100
AcDbEntity
  8
0
  6
CONTINUOUS
 62
             7
100
AcDbLine
 10
-13.34580696290928
 20
-266.50000000000051
 11
-12.14458091068858
 21
-266.50000000000011
  0
LINE
  5
6E
100
AcDbEntity
  8
0
  6
CONTINUOUS
 62
             7
100
AcDbLine
 10
-12.7963563594339
 20
-199.792420288583
 11
-10.09985231384698
 21
-267.68190760898938
  0
LINE
  5
6D
100
AcDbEntity
  8
0
  6
CONTINUOUS
 62
             7
100
AcDbLine
 10
-22.86012254022219
 20
-204.50000000000011
 11
-22.28998307604968
 21
-204.4999999999701
  0
LINE
  5
6C
100
AcDbEntity
  8
0
  6
CONTINUOUS
 62
             7
100
AcDbLine
 10
-14.78726044409538
 20
-199.9217638561295
 11
-15.64456212295798
 21
-196.6510124504149
  0
LINE
  5
6B
100
AcDbEntity
  8
0
  6
CONTINUOUS
 62
             7
100
AcDbLine
 10
-15.64456212295798
 20
-196.6510124504149
 11
-25.95987787781488
 21
-157.29633213490621
  0
LINE
  5
6A
100
AcDbEntity
  8
0
  6
CONTINUOUS
 62
             7
100
AcDbLine
 10
-15.64456212295798
 20
-196.6510124504149
 11
-18.32948365204598
 21
-196.6510124504189
  0
LINE
  5
69
100
AcDbEntity
  8
0
  6
CONTINUOUS
 62
             7
100
AcDbLine
 10
-17.18968198967789
 20
-204.49999999997021
 11
-14.60716027938068
 21
-204.50000000000011
  0
LINE
  5
68
100
AcDbEntity
  8
0
  6
CONTINUOUS
 62
             7
100
AcDbLine
 10
-21.33265648054558
 20
-202.00000000000011
 11
-21.21433089209319
 21
-202.00000000000011
  0
LINE
  5
67
100
AcDbEntity
  8
0
  6
CONTINUOUS
 62
             7
100
AcDbLine
 10
-18.52117847383249
 20
-202.5435778713742
 11
-18.66430550581818
 21
-202.54357787137391
  0
LINE
  5
66
100
AcDbEntity
  8
0
  6
CONTINUOUS
 62
             7
100
AcDbLine
 10
-19.24858921916347
 20
-203.50000000000011
 11
-19.31534975774957
 21
-203.50000000000011
  0
LINE
  5
65
100
AcDbEntity
  8
0
  6
CONTINUOUS
 62
             7
100
AcDbLine
 10
-19.55740300071429
 20
-203.50000000000011
 11
-19.31534975774957
 21
-203.50000000000011
  0
LINE
  5
64
100
AcDbEntity
  8
0
  6
CONTINUOUS
 62
             7
100
AcDbLine
 10
-23.79214141905538
 20
-203.50000000026321
 11
-19.55740300071429
 21
-203.50000000000011
  0
LINE
  5
63
100
AcDbEntity
  8
0
  6
CONTINUOUS
 62
             7
100
AcDbLine
 10
-19.24858921916347
 20
-203.50000000000011
 11
-14.64687930145638
 21
-203.50000000000011
  0
LINE
  5
62
100
AcDbEntity
  8
0
  6
CONTINUOUS
 62
             7
100
AcDbLine
 10
-17.44683009468088
 20
-266.50000000000063
 11
-15.38495779821167
 21
-266.50000000000051
  0
LINE
  5
61
100
AcDbEntity
  8
0
  6
CONTINUOUS
 62
             7
100
AcDbLine
 10
-15.38495779821167
 20
-266.50000000000051
 11
-13.34580696290928
 21
-266.50000000000051
  0
LINE
  5
60
100
AcDbEntity
  8
0
  6
CONTINUOUS
 62
             7
100
AcDbLine
 10
-22.28998307604968
 20
-204.4999999999701
 11
-19.22749918250707
 21
-204.49999999997021
  0
LINE
  5
5F
100
AcDbEntity
  8
0
  6
CONTINUOUS
 62
             7
100
AcDbLine
 10
-19.22749918250707
 20
-204.49999999997021
 11
-17.18968198967789
 21
-204.49999999997021
  0
LINE
  5
5E
100
AcDbEntity
  8
0
  6
CONTINUOUS
 62
             7
100
AcDbLine
 10
-11.2277192381894
 20
-198.86585680889891
 11
-12.7963563594339
 21
-199.792420288583
  0
LINE
  5
5D
100
AcDbEntity
  8
0
  6
CONTINUOUS
 62
             7
100
AcDbLine
 10
-19.95091420446587
 20
-201.54357787137391
 11
-38.1539800318667
 21
-156.95535483994851
  0
LINE
  5
5C
100
AcDbEntity
  8
0
  6
CONTINUOUS
 62
             7
100
AcDbLine
 10
-23.77450009824759
 20
-198.86585680889891
 11
-26.51237165301637
 21
-199.79242028858241
  0
LINE
  5
5B
100
AcDbEntity
  8
0
  6
CONTINUOUS
 62
             7
100
AcDbLine
 10
-17.20719212390279
 20
-269.58715574274783
 11
-11.65644270470239
 21
-269.58715574274783
  0
LINE
  5
5A
100
AcDbEntity
  8
0
  6
CONTINUOUS
 62
             7
100
AcDbLine
 10
-4.46899366294118
 20
-203.50000000000011
 11
-4.13089314935499
 21
-203.50000000000011
  0
LINE
  5
59
100
AcDbEntity
  8
0
  6
CONTINUOUS
 62
             7
100
AcDbLine
 10
61.49999999999989
 20
-131.50000000000011
 11
57.41633117401739
 21
-131.5000000000002
  0
LINE
  5
58
100
AcDbEntity
  8
0
  6
CONTINUOUS
 62
             7
100
AcDbLine
 10
-55.71260202826658
 20
-140.50000000000011
 11
-55.02016806560939
 21
-140.50000000000011
  0
LINE
  5
57
100
AcDbEntity
  8
0
  6
CONTINUOUS
 62
             7
100
AcDbLine
 10
-22.2933763682081
 20
-154.13017164120831
 11
-22.83475345652058
 21
-140.50000000000011
  0
LINE
  5
56
100
AcDbEntity
  8
1
  6
CONTINUOUS
 62
             7
100
AcDbLine
 10
-54.21533548353499
 20
-140.50000000023101
 11
-54.28077955482327
 21
-148.50000000000011
  0
LINE
  5
55
100
AcDbEntity
  8
1
  6
CONTINUOUS
 62
             7
100
AcDbLine
 10
-54.28077955482327
 20
-148.50000000000011
 11
-54.13504507279048
 21
-148.7484718479958
  0
LINE
  5
54
100
AcDbEntity
  8
1
  6
CONTINUOUS
 62
             7
100
AcDbLine
 10
-48.52409304201807
 20
-148.5000000000002
 11
-48.38575254568197
 21
-148.74847184800271
  0
LINE
  5
53
100
AcDbEntity
  8
1
  6
CONTINUOUS
 62
             7
100
AcDbLine
 10
-48.52409304201807
 20
-148.5000000000002
 11
-48.35435591500768
 21
-140.50000000023101
  0
LINE
  5
52
100
AcDbEntity
  8
1
  6
CONTINUOUS
 62
             7
100
AcDbLine
 10
-37.76011508491137
 20
-140.50000000023101
 11
-38.01753021502397
 21
-148.50000000000011
  0
LINE
  5
51
100
AcDbEntity
  8
1
  6
CONTINUOUS
 62
             7
100
AcDbLine
 10
-38.01753021502397
 20
-148.50000000000011
 11
-37.90012543602548
 21
-148.74847184800271
  0
LINE
  5
50
100
AcDbEntity
  8
1
  6
CONTINUOUS
 62
             7
100
AcDbLine
 10
-23.46965110011198
 20
-140.50000000023101
 11
-23.7895466468747
 21
-148.50000000000011
  0
LINE
  5
4F
100
AcDbEntity
  8
1
  6
CONTINUOUS
 62
             7
100
AcDbLine
 10
-23.7895466468747
 20
-148.50000000000011
 11
-23.70456998298777
 21
-148.7484718480091
  0
LINE
  5
4E
100
AcDbEntity
  8
1
  6
CONTINUOUS
 62
             7
100
AcDbLine
 10
-10.37934496573999
 20
-140.5073055038394
 11
-10.0317979904236
 21
-148.50000000000011
  0
LINE
  5
4D
100
AcDbEntity
  8
1
  6
CONTINUOUS
 62
             7
100
AcDbLine
 10
-10.0317979904236
 20
-148.50000000000011
 11
-10.03562836464178
 21
-148.67858788306521
  0
LINE
  5
4C
100
AcDbEntity
  8
1
  6
CONTINUOUS
 62
             7
100
AcDbLine
 10
-7.23287650141148
 20
-148.50000000000011
 11
-7.09093801834927
 21
-145.26285744362801
  0
LINE
  5
4B
100
AcDbEntity
  8
1
  6
CONTINUOUS
 62
             7
100
AcDbLine
 10
-17.44683009468088
 20
-266.50000000000063
 11
-17.21175105782828
 21
-269.50759612349401
  0
LINE
  5
4A
100
AcDbEntity
  8
1
  6
CONTINUOUS
 62
             7
100
AcDbLine
 10
-7.93840325990339
 20
-266.50000000000011
 11
-7.81837553031499
 21
-269.58715574274783
  0
LINE
  5
49
100
AcDbEntity
  8
0
  6
CONTINUOUS
 62
             7
100
AcDbLine
 10
2.7619070596974
 20
-266.45701886083589
 11
2.74514293552932
 21
-267.68190760898938
  0
LINE
  5
48
100
AcDbEntity
  8
0
  6
CONTINUOUS
 62
             7
100
AcDbLine
 10
4.89693355542272
 20
-266.50000000000011
 11
4.88067434823802
 21
-267.68799644614489
  0
ENDBLK
  5
1E7
100
AcDbEntity
  8
0
100
AcDbBlockEnd
  0
BLOCK
  5
2A
100
AcDbEntity
  8
0
100
AcDbBlockBegin
  2
HL600_660_LAUBFANGKORB__2
 70
             0
 10
-4.30815711981268
 20
-184.02391217177859
 30
0.0
  3
HL600_660_LAUBFANGKORB__2
  1

  0
POINT
  5
1F1
100
AcDbEntity
  8
1
 62
             3
 60
             1
100
AcDbPoint
 10
-178.80988362665451
 20
-157.95118732498301
  0
POINT
  5
1F0
100
AcDbEntity
  8
1
 62
             3
 60
             1
100
AcDbPoint
 10
-180.4258324565271
 20
-158.46571541242159
  0
POINT
  5
1EF
100
AcDbEntity
  8
1
 62
             3
 60
             1
100
AcDbPoint
 10
-164.6803490295606
 20
-157.95118732498301
  0
POINT
  5
1EE
100
AcDbEntity
  8
1
 62
             3
 60
             1
100
AcDbPoint
 10
-166.615781472603
 20
-158.29216461993931
  0
POINT
  5
1ED
100
AcDbEntity
  8
1
 62
             3
 60
             1
100
AcDbPoint
 10
-189.20464082381659
 20
-157.95118732498301
  0
POINT
  5
1EC
100
AcDbEntity
  8
1
 62
             3
 60
             1
100
AcDbPoint
 10
-190.41666234208611
 20
-158.3732658091794
  0
POINT
  5
1EB
100
AcDbEntity
  8
1
 62
             3
 60
             1
100
AcDbPoint
 10
-194.84710936205741
 20
-157.95118732498301
  0
POINT
  5
1EA
100
AcDbEntity
  8
1
 62
             3
 60
             1
100
AcDbPoint
 10
-195.56153685302709
 20
-158.14297022853859
  0
POINT
  5
1E9
100
AcDbEntity
  8
1
 62
             3
 60
             1
100
AcDbPoint
 10
-148.1991343251575
 20
-157.95118732498301
  0
POINT
  5
1E8
100
AcDbEntity
  8
1
 62
             3
 60
             1
100
AcDbPoint
 10
-150.31369883348819
 20
-158.20551011187129
  0
ENDBLK
  5
1F2
100
AcDbEntity
  8
0
100
AcDbBlockEnd
  0
BLOCK
  5
1F5
100
AcDbEntity
  8
0
100
AcDbBlockBegin
  2
*D3
 70
             1
 10
0.0
 20
0.0
 30
0.0
  3
*D3
  1

  0
LINE
  5
1F6
100
AcDbEntity
  8
0
  6
CONTINUOUS
 62
             4
100
AcDbLine
 10
72.4999999999999
 20
-128.50000000000011
 11
72.4999999999999
 21
-270.50000000000011
  0
LINE
  5
1F7
100
AcDbEntity
  8
0
  6
CONTINUOUS
 62
             4
100
AcDbLine
 10
13.13215889331142
 20
-270.50000000000011
 11
74.4999999999999
 21
-270.50000000000011
  0
LINE
  5
1F8
100
AcDbEntity
  8
0
  6
CONTINUOUS
 62
             4
100
AcDbLine
 10
62.4999999999999
 20
-128.50000000000011
 11
74.4999999999999
 21
-128.50000000000011
  0
SOLID
  5
1F9
100
AcDbEntity
  8
0
 62
             4
100
AcDbTrace
 10
72.96078374155579
 20
-132.00000000000011
 11
72.03921625844401
 21
-132.00000000000011
 12
72.4999999999999
 22
-128.50000000000011
 13
72.4999999999999
 23
-128.50000000000011
  0
SOLID
  5
1FA
100
AcDbEntity
  8
0
 62
             4
100
AcDbTrace
 10
72.03921625844401
 20
-267.00000000000011
 11
72.96078374155579
 21
-267.00000000000011
 12
72.4999999999999
 22
-270.50000000000011
 13
72.4999999999999
 23
-270.50000000000011
  0
MTEXT
  5
1FC
100
AcDbEntity
  8
0
 62
             1
100
AcDbMText
 10
70.4999999999999
 20
-208.73654286581601
 30
0.0
 40
3.5
 41
0.0
 71
             7
 72
             1
  1
142
  7
CONVERTER_1
 11
0.0
 21
1.0
 31
0.0
  0
ENDBLK
  5
1FD
100
AcDbEntity
  8
0
100
AcDbBlockEnd
  0
BLOCK
  5
201
100
AcDbEntity
  8
0
100
AcDbBlockBegin
  2
*D4
 70
             1
 10
0.0
 20
0.0
 30
0.0
  3
*D4
  1

  0
LINE
  5
202
100
AcDbEntity
  8
0
  6
CONTINUOUS
 62
             4
100
AcDbLine
 10
-62.49999999999989
 20
-116.338829533213
 11
62.4999999999999
 21
-116.338829533213
  0
LINE
  5
203
100
AcDbEntity
  8
0
  6
CONTINUOUS
 62
             4
100
AcDbLine
 10
62.4999999999999
 20
-128.50000000000011
 11
62.4999999999999
 21
-114.338829533213
  0
LINE
  5
204
100
AcDbEntity
  8
0
  6
CONTINUOUS
 62
             4
100
AcDbLine
 10
-62.49999999999989
 20
-128.50000000000011
 11
-62.49999999999989
 21
-114.338829533213
  0
SOLID
  5
205
100
AcDbEntity
  8
0
 62
             4
100
AcDbTrace
 10
-58.99999999999989
 20
-115.87804579165712
 11
-58.99999999999989
 21
-116.79961327476889
 12
-62.49999999999989
 22
-116.338829533213
 13
-62.49999999999989
 23
-116.338829533213
  0
SOLID
  5
206
100
AcDbEntity
  8
0
 62
             4
100
AcDbTrace
 10
58.9999999999999
 20
-116.79961327476889
 11
58.9999999999999
 21
-115.87804579165712
 12
62.4999999999999
 22
-116.338829533213
 13
62.4999999999999
 23
-116.338829533213
  0
MTEXT
  5
207
100
AcDbEntity
  8
0
 62
             1
100
AcDbMText
 10
-3.06502469333352
 20
-114.33883649028932
 30
0.0
 40
3.5
 41
0.0
 71
             7
 72
             1
  1
\C1;Ø\C1;125
  7
CONVERTER_1
 11
0.99999999999706
 21
0.00000242406841
 31
0.0
  0
ENDBLK
  5
208
100
AcDbEntity
  8
0
100
AcDbBlockEnd
  0
ENDSEC
  0
SECTION
  2
ENTITIES
  0
DIMENSION
  5
20A
100
AcDbEntity
  8
1
100
AcDbDimension
  2
*D4
 10
-62.49999999999989
 20
-116.338829533213
 11
1.37997530665805
 21
-112.588829533213
 31
0.0
 53
180.0
  1
<>
  3
ME10_DIM_1
100
AcDbAlignedDimension
 13
62.4999999999999
 23
-128.50000000000011
 14
-62.49999999999988
 24
-128.50000000000011
 50
180.0
100
AcDbRotatedDimension
  0
DIMENSION
  5
1FF
100
AcDbEntity
  8
1
100
AcDbDimension
  2
*D3
 10
72.4999999999999
 20
-128.50000000000011
 11
68.7499999999999
 21
-205.06154286581599
 31
0.0
 53
90.0
  1
<>
  3
ME10_DIM_0
100
AcDbAlignedDimension
 13
13.13215889331142
 23
-270.50000000000011
 14
62.4999999999999
 24
-128.50000000000011
 50
90.0
100
AcDbRotatedDimension
  0
INSERT
  5
2D
100
AcDbEntity
  8
1
100
AcDbBlockReference
  2
HL_600_GRIFF
 10
0.35355339059254
 20
-136.0000000000002
  0
INSERT
  5
2E
100
AcDbEntity
  8
0
100
AcDbBlockReference
  2
HL600_660_LAUBFANGKORB__1
 10
136.34774647497531
 20
-183.02807968674571
  0
INSERT
  5
2F
100
AcDbEntity
  8
0
100
AcDbBlockReference
  2
HL600_660_LAUBFANGKORB__2
 10
-4.30815711981268
 20
-184.02391217177859
  0
ENDSEC
  0
SECTION
  2
OBJECTS
  0
DICTIONARY
  5
19
100
AcDbDictionary
  3
ACAD_GROUP
350
1A
  3
ACAD_MLINESTYLE
350
1B
  0
DICTIONARY
  5
1A
102
{ACAD_REACTORS
330
19
102
}
100
AcDbDictionary
  0
DICTIONARY
  5
1B
102
{ACAD_REACTORS
330
19
102
}
100
AcDbDictionary
  3
STANDARD
350
1C
  0
MLINESTYLE
  5
1C
102
{ACAD_REACTORS
330
1B
102
}
100
AcDbMlineStyle
  2
STANDARD
 70
             0
  3

 62
             0
 51
90.0
 52
90.0
 71
             2
 49
0.5
 62
           256
  6
BYLAYER
 49
-0.5
 62
           256
  6
BYLAYER
  0
ENDSEC
  0
EOF
