  0
SECTION
  2
HEADER
  9
$ACADVER
  1
AC1014
  9
$ACADMAINTVER
 70
             0
  9
$DWGCODEPAGE
  3
ANSI_1252
  9
$INSBASE
 10
0.0
 20
0.0
 30
0.0
  9
$EXTMIN
 10
-78.00519702361791
 20
-39.5963327730862
 30
0.0
  9
$EXTMAX
 10
75.8547146565204
 20
56.3386430348041
 30
0.0
  9
$LIMMIN
 10
0.0
 20
0.0
  9
$LIMMAX
 10
0.0
 20
0.0
  9
$ORTHOMODE
 70
             0
  9
$REGENMODE
 70
             1
  9
$FILLMODE
 70
             1
  9
$QTEXTMODE
 70
             0
  9
$MIRRTEXT
 70
             1
  9
$DRAGMODE
 70
             2
  9
$LTSCALE
 40
1.0
  9
$OSMODE
 70
             0
  9
$ATTMODE
 70
             1
  9
$TEXTSIZE
 40
0.2
  9
$TRACEWID
 40
0.05
  9
$TEXTSTYLE
  7
STANDARD
  9
$CLAYER
  8
0
  9
$CELTYPE
  6
CONTINUOUS
  9
$CECOLOR
 62
           256
  9
$CELTSCALE
 40
1.0
  9
$DELOBJ
 70
             1
  9
$DISPSILH
 70
             0
  9
$DIMSCALE
 40
1.0
  9
$DIMASZ
 40
0.18
  9
$DIMEXO
 40
0.0625
  9
$DIMDLI
 40
0.38
  9
$DIMRND
 40
0.0
  9
$DIMDLE
 40
0.0
  9
$DIMEXE
 40
0.18
  9
$DIMTP
 40
0.0
  9
$DIMTM
 40
0.0
  9
$DIMTXT
 40
0.18
  9
$DIMCEN
 40
0.09
  9
$DIMTSZ
 40
0.0
  9
$DIMTOL
 70
             0
  9
$DIMLIM
 70
             0
  9
$DIMTIH
 70
             1
  9
$DIMTOH
 70
             1
  9
$DIMSE1
 70
             0
  9
$DIMSE2
 70
             0
  9
$DIMTAD
 70
             0
  9
$DIMZIN
 70
             0
  9
$DIMBLK
  1

  9
$DIMASO
 70
             1
  9
$DIMSHO
 70
             1
  9
$DIMPOST
  1

  9
$DIMAPOST
  1

  9
$DIMALT
 70
             0
  9
$DIMALTD
 70
             2
  9
$DIMALTF
 40
25.4
  9
$DIMLFAC
 40
1.0
  9
$DIMTOFL
 70
             0
  9
$DIMTVP
 40
0.0
  9
$DIMTIX
 70
             0
  9
$DIMSOXD
 70
             0
  9
$DIMSAH
 70
             0
  9
$DIMBLK1
  1

  9
$DIMBLK2
  1

  9
$DIMSTYLE
  2
STANDARD
  9
$DIMCLRD
 70
             0
  9
$DIMCLRE
 70
             0
  9
$DIMCLRT
 70
             0
  9
$DIMTFAC
 40
1.0
  9
$DIMGAP
 40
0.09
  9
$DIMJUST
 70
             0
  9
$DIMSD1
 70
             0
  9
$DIMSD2
 70
             0
  9
$DIMTOLJ
 70
             1
  9
$DIMTZIN
 70
             0
  9
$DIMALTZ
 70
             0
  9
$DIMALTTZ
 70
             0
  9
$DIMFIT
 70
             3
  9
$DIMUPT
 70
             0
  9
$DIMUNIT
 70
             2
  9
$DIMDEC
 70
             4
  9
$DIMTDEC
 70
             4
  9
$DIMALTU
 70
             2
  9
$DIMALTTD
 70
             2
  9
$DIMTXSTY
  7
STANDARD
  9
$DIMAUNIT
 70
             0
  9
$LUNITS
 70
             2
  9
$LUPREC
 70
             4
  9
$SKETCHINC
 40
0.1
  9
$FILLETRAD
 40
0.0
  9
$AUNITS
 70
             0
  9
$AUPREC
 70
             0
  9
$MENU
  1
acad
  9
$ELEVATION
 40
0.0
  9
$PELEVATION
 40
0.0
  9
$THICKNESS
 40
0.0
  9
$LIMCHECK
 70
             0
  9
$BLIPMODE
 70
             1
  9
$CHAMFERA
 40
0.0
  9
$CHAMFERB
 40
0.0
  9
$CHAMFERC
 40
0.0
  9
$CHAMFERD
 40
0.0
  9
$SKPOLY
 70
             0
  9
$TDCREATE
 40
0.000000000
  9
$TDUPDATE
 40
0.000000000
  9
$TDINDWG
 40
0.0000000000
  9
$TDUSRTIMER
 40
0.0000000000
  9
$USRTIMER
 70
             1
  9
$ANGBASE
 50
0.0
  9
$ANGDIR
 70
             0
  9
$PDMODE
 70
             0
  9
$PDSIZE
 40
0.0
  9
$PLINEWID
 40
0.0
  9
$COORDS
 70
             0
  9
$SPLFRAME
 70
             0
  9
$SPLINETYPE
 70
             6
  9
$SPLINESEGS
 70
             8
  9
$ATTDIA
 70
             0
  9
$ATTREQ
 70
             1
  9
$HANDLING
 70
             1
  9
$HANDSEED
  5
13F
  9
$SURFTAB1
 70
             6
  9
$SURFTAB2
 70
             6
  9
$SURFTYPE
 70
             6
  9
$SURFU
 70
             6
  9
$SURFV
 70
             6
  9
$UCSNAME
  2

  9
$UCSORG
 10
0.0
 20
0.0
 30
0.0
  9
$UCSXDIR
 10
1.0
 20
0.0
 30
0.0
  9
$UCSYDIR
 10
0.0
 20
1.0
 30
0.0
  9
$PUCSNAME
  2

  9
$PUCSORG
 10
0.0
 20
0.0
 30
0.0
  9
$PUCSXDIR
 10
1.0
 20
0.0
 30
0.0
  9
$PUCSYDIR
 10
0.0
 20
1.0
 30
0.0
  9
$USERI1
 70
             0
  9
$USERI2
 70
             0
  9
$USERI3
 70
             0
  9
$USERI4
 70
             0
  9
$USERI5
 70
             0
  9
$USERR1
 40
12.01
  9
$USERR2
 40
0.0
  9
$USERR3
 40
0.0
  9
$USERR4
 40
0.0
  9
$USERR5
 40
0.0
  9
$WORLDVIEW
 70
             1
  9
$SHADEDGE
 70
             3
  9
$SHADEDIF
 70
            70
  9
$TILEMODE
 70
             1
  9
$MAXACTVP
 70
            16
  9
$PINSBASE
 10
0.0
 20
0.0
 30
0.0
  9
$PLIMCHECK
 70
             0
  9
$PEXTMIN
 10
1.00000000000000E+20
 20
1.00000000000000E+20
 30
1.00000000000000E+20
  9
$PEXTMAX
 10
-1.00000000000000E+20
 20
-1.00000000000000E+20
 30
-1.00000000000000E+20
  9
$PLIMMIN
 10
0.0
 20
0.0
  9
$PLIMMAX
 10
12.0
 20
9.0
  9
$UNITMODE
 70
             0
  9
$VISRETAIN
 70
             0
  9
$PLINEGEN
 70
             1
  9
$PSLTSCALE
 70
             0
  9
$TREEDEPTH
 70
          3020
  9
$PICKSTYLE
 70
             1
  9
$CMLSTYLE
  2
STANDARD
  9
$CMLJUST
 70
             0
  9
$CMLSCALE
 40
1.0
  9
$PROXYGRAPHICS
 70
             0
  9
$MEASUREMENT
 70
             1
  0
ENDSEC
  0
SECTION
  2
CLASSES
  0
CLASS
  1
LWPOLYLINE
  2
AcDbPolyline
  3
"AutoCAD"
 90
        0
280
             0
281
             1
  0
CLASS
  1
IMAGE
  2
AcDbRasterImage
  3
ISM
 90
      127
280
             0
281
             1
  0
CLASS
  1
OLE2FRAME
  2
AcDbOle2Frame
  3
""
 90
        0
280
             0
281
             1
  0
CLASS
  1
HATCH
  2
AcDbHatch
  3
"ACAD_SEDONA"
 90
        0
280
             0
281
             1
  0
CLASS
  1
DICTIONARYVAR
  2
AcDbDictionaryVar
  3
"AutoCAD"
 90
        0
280
             0
281
             0
  0
CLASS
  1
RASTERVARIABLES
  2
AcDbRasterVariables
  3
ISM
 90
        0
280
             0
281
             0
  0
CLASS
  1
IMAGEDEF
  2
AcDbRasterImageDef
  3
ISM
 90
        0
280
             0
281
             0
  0
CLASS
  1
IMAGEDEF_REACTOR
  2
AcDbRasterImageDefReactor
  3
ISM
 90
        1
280
             0
281
             0
  0
CLASS
  1
IDBUFFER
  2
AcDbIdBuffer
  3
"Acad"
 90
        0
280
             0
281
             0
  0
CLASS
  1
SPATIAL_FILTER
  2
AcDbSpatialFilter
  3
"Acad"
 90
        0
280
             0
281
             0
  0
CLASS
  1
XRECORD
  2
AcDbXrecord
  3
"<Built In>"
 90
        0
280
             0
281
             0
  0
CLASS
  1
SORTENTSTABLE
  2
AcDbSortentsTable
  3
"AutoCAD"
 90
        0
280
             0
281
             0
  0
CLASS
  1
LAYER_INDEX
  2
AcDbLayerIndex
  3
"Acad"
 90
        0
280
             0
281
             0
  0
CLASS
  1
SPATIAL_INDEX
  2
AcDbSpatialIndex
  3
"Acad"
 90
        0
280
             0
281
             0
  0
CLASS
  1
OBJECT_PTR
  2
CAseDLPNTableRecord
  3
"ASE-LPNTableRecord"
 90
        1
280
             0
281
             0
  0
CLASS
  1
LAYOUT
  2
AcDbLayout
  3
"AutoCAD 2000"
 90
        0
280
             0
281
             0
  0
CLASS
  1
PLOTSETTINGS
  2
AcDbPlotSettings
  3
"AutoCAD 2000"
 90
        0
280
             0
281
             0
  0
CLASS
  1
ACDBDICTIONARYWDFLT
  2
AcDbDictionaryWithDefault
  3
"AutoCAD 2000"
 90
        0
280
             0
281
             0
  0
CLASS
  1
ACDBPLACEHOLDER
  2
AcDbPlaceHolder
  3
"AutoCAD 2000"
 90
        0
280
             0
281
             0
  0
ENDSEC
  0
SECTION
  2
TABLES
  0
TABLE
  2
VPORT
  5
7
100
AcDbSymbolTable
 70
             1
  0
VPORT
  5
15
100
AcDbSymbolTableRecord
100
AcDbViewportTableRecord
  2
*ACTIVE
 70
             0
 10
0.0
 20
0.0
 11
1.0
 21
1.0
 12
-1.07524118354876
 22
8.37115513085895
 13
0.0
 23
0.0
 14
1.0
 24
1.0
 15
0.0
 25
0.0
 16
0.0
 26
0.0
 36
1.0
 17
0.0
 27
0.0
 37
0.0
 40
105.60190038436239
 41
1.60267857142857
 42
50.0
 43
0.0
 44
0.0
 50
0.0
 51
0.0
 71
             0
 72
           100
 73
             1
 74
             1
 75
             0
 76
             0
 77
             0
 78
             0
  0
ENDTAB
  0
TABLE
  2
LTYPE
  5
4
100
AcDbSymbolTable
 70
            10
  0
LTYPE
  5
11
100
AcDbSymbolTableRecord
100
AcDbLinetypeTableRecord
  2
BYBLOCK
 70
            64
  3

 72
            65
 73
             0
 40
0.0
  0
LTYPE
  5
12
100
AcDbSymbolTableRecord
100
AcDbLinetypeTableRecord
  2
BYLAYER
 70
            64
  3

 72
            65
 73
             0
 40
0.0
  0
LTYPE
  5
13
100
AcDbSymbolTableRecord
100
AcDbLinetypeTableRecord
  2
CONTINUOUS
 70
            64
  3
Solid line
 72
            65
 73
             0
 40
0.0
  0
LTYPE
  5
1D
100
AcDbSymbolTableRecord
100
AcDbLinetypeTableRecord
  2
DASHED
 70
            64
  3
Dashed
 72
            65
 73
             2
 40
15.0
 49
7.0
 74
             0
 49
-8.0
 74
             0
  0
LTYPE
  5
1E
100
AcDbSymbolTableRecord
100
AcDbLinetypeTableRecord
  2
DOTTED
 70
            64
  3
Dotted
 72
            65
 73
             2
 40
1.0
 49
0.0
 74
             0
 49
-1.0
 74
             0
  0
LTYPE
  5
1F
100
AcDbSymbolTableRecord
100
AcDbLinetypeTableRecord
  2
DOT_CENTER
 70
            64
  3
Dot_Center
 72
            65
 73
             4
 40
14.0
 49
12.0
 74
             0
 49
-1.0
 74
             0
 49
0.0
 74
             0
 49
-1.0
 74
             0
  0
LTYPE
  5
20
100
AcDbSymbolTableRecord
100
AcDbLinetypeTableRecord
  2
LONG_DASHED
 70
            64
  3
Long_Dashed
 72
            65
 73
             2
 40
15.0
 49
10.0
 74
             0
 49
-5.0
 74
             0
  0
LTYPE
  5
21
100
AcDbSymbolTableRecord
100
AcDbLinetypeTableRecord
  2
DASH_CENTER
 70
            64
  3
Dash_Center
 72
            65
 73
             4
 40
14.0
 49
11.0
 74
             0
 49
-1.0
 74
             0
 49
1.0
 74
             0
 49
-1.0
 74
             0
  0
LTYPE
  5
22
100
AcDbSymbolTableRecord
100
AcDbLinetypeTableRecord
  2
PHANTOM
 70
            64
  3
Phantom
 72
            65
 73
             6
 40
13.0
 49
10.0
 74
             0
 49
-1.0
 74
             0
 49
0.0
 74
             0
 49
-1.0
 74
             0
 49
0.0
 74
             0
 49
-1.0
 74
             0
  0
LTYPE
  5
23
100
AcDbSymbolTableRecord
100
AcDbLinetypeTableRecord
  2
CENTER_DASH_DASH
 70
            64
  3
Center_Dash_Dash
 72
            65
 73
             6
 40
14.0
 49
9.0
 74
             0
 49
-1.0
 74
             0
 49
1.0
 74
             0
 49
-1.0
 74
             0
 49
1.0
 74
             0
 49
-1.0
 74
             0
  0
ENDTAB
  0
TABLE
  2
LAYER
  5
2
100
AcDbSymbolTable
 70
             2
  0
LAYER
  5
14
100
AcDbSymbolTableRecord
100
AcDbLayerTableRecord
  2
0
 70
             0
 62
             7
  6
CONTINUOUS
  0
LAYER
  5
24
100
AcDbSymbolTableRecord
100
AcDbLayerTableRecord
  2
1
 70
             0
 62
             7
  6
CONTINUOUS
  0
ENDTAB
  0
TABLE
  2
STYLE
  5
3
100
AcDbSymbolTable
 70
             2
  0
STYLE
  5
17
100
AcDbSymbolTableRecord
100
AcDbTextStyleTableRecord
  2
STANDARD
 70
             0
 40
0.0
 41
1.0
 50
0.0
 71
             0
 42
0.0
  3
txt
  4

  0
STYLE
  5
102
100
AcDbSymbolTableRecord
100
AcDbTextStyleTableRecord
  2
CONVERTER_1
 70
             0
 40
0.0
 41
0.9
 50
0.0
 71
             0
 42
0.0
  3
txt.shx
  4

  0
ENDTAB
  0
TABLE
  2
VIEW
  5
5
100
AcDbSymbolTable
 70
             0
  0
ENDTAB
  0
TABLE
  2
UCS
  5
6
100
AcDbSymbolTable
 70
             0
  0
ENDTAB
  0
TABLE
  2
APPID
  5
8
100
AcDbSymbolTable
 70
             1
  0
APPID
  5
16
100
AcDbSymbolTableRecord
100
AcDbRegAppTableRecord
  2
ACAD
 70
             0
  0
ENDTAB
  0
TABLE
  2
DIMSTYLE
  5
9
100
AcDbSymbolTable
 70
             7
  0
DIMSTYLE
105
18
100
AcDbSymbolTableRecord
100
AcDbDimStyleTableRecord
  2
STANDARD
 70
             0
  3

  4

  5

  6

  7

 40
1.0
 41
0.18
 42
0.0625
 43
0.38
 44
0.18
 45
0.0
 46
0.0
 47
0.0
 48
0.0
 71
             0
 72
             0
 73
             1
 74
             1
 75
             0
 76
             0
 77
             0
 78
             0
140
0.18
141
0.09
142
0.0
143
25.4
144
1.0
145
0.0
146
1.0
147
0.09
170
             0
171
             2
172
             0
173
             0
174
             0
175
             0
176
             0
177
             0
178
             0
270
             2
271
             4
272
             4
273
             2
274
             2
275
             0
280
             0
281
             0
282
             0
283
             1
284
             0
285
             0
286
             0
287
             3
288
             0
340
17
  0
DIMSTYLE
105
105
100
AcDbSymbolTableRecord
100
AcDbDimStyleTableRecord
  2
ME10_DIM_0
 70
             0
  3

  4

  5

  6

  7

 40
1.0
 41
7.0
 42
0.0
 43
0.38
 44
2.0
 45
0.0
 46
0.0
 47
0.0
 48
0.0
 71
             0
 72
             0
 73
             0
 74
             0
 75
             0
 76
             0
 77
             1
 78
             8
140
7.0
141
0.09
142
0.0
143
25.4
144
1.0
145
0.0
146
1.0
147
0.625
170
             0
171
             2
172
             1
173
             1
174
             0
175
             0
176
             4
177
             4
178
             1
270
             2
271
             2
272
             4
273
             2
274
             2
275
             0
280
             0
281
             0
282
             0
283
             1
284
             0
285
             0
286
             0
287
             3
288
             0
340
102
  0
DIMSTYLE
105
110
100
AcDbSymbolTableRecord
100
AcDbDimStyleTableRecord
  2
ME10_DIM_1
 70
             0
  3

  4

  5

  6

  7

 40
1.0
 41
7.0
 42
0.0
 43
0.38
 44
2.0
 45
0.0
 46
0.0
 47
0.0
 48
0.0
 71
             0
 72
             0
 73
             0
 74
             0
 75
             0
 76
             0
 77
             1
 78
             8
140
7.0
141
0.09
142
0.0
143
25.4
144
1.0
145
0.0
146
1.0
147
0.625
170
             0
171
             2
172
             1
173
             1
174
             0
175
             0
176
             4
177
             4
178
             1
270
             2
271
             2
272
             4
273
             2
274
             2
275
             0
280
             0
281
             0
282
             0
283
             1
284
             0
285
             0
286
             0
287
             3
288
             0
340
102
  0
DIMSTYLE
105
11B
100
AcDbSymbolTableRecord
100
AcDbDimStyleTableRecord
  2
ME10_DIM_2
 70
             0
  3

  4

  5

  6

  7

 40
1.0
 41
7.0
 42
0.0
 43
0.38
 44
2.0
 45
0.0
 46
0.0
 47
0.0
 48
0.0
 71
             0
 72
             0
 73
             0
 74
             0
 75
             0
 76
             0
 77
             1
 78
             8
140
7.0
141
0.09
142
0.0
143
25.4
144
1.0
145
0.0
146
1.0
147
0.625
170
             0
171
             2
172
             1
173
             1
174
             0
175
             0
176
             4
177
             4
178
             1
270
             2
271
             2
272
             4
273
             2
274
             2
275
             0
280
             0
281
             0
282
             0
283
             1
284
             0
285
             0
286
             0
287
             3
288
             0
340
102
  0
DIMSTYLE
105
126
100
AcDbSymbolTableRecord
100
AcDbDimStyleTableRecord
  2
ME10_DIM_3
 70
             0
  3
DN<>
  4

  5

  6

  7

 40
1.0
 41
7.0
 42
0.0
 43
0.38
 44
2.0
 45
0.0
 46
0.0
 47
0.0
 48
0.0
 71
             0
 72
             0
 73
             0
 74
             0
 75
             0
 76
             0
 77
             1
 78
             8
140
7.0
141
0.09
142
0.0
143
25.4
144
1.0
145
0.0
146
1.0
147
0.625
170
             0
171
             2
172
             1
173
             1
174
             0
175
             0
176
             4
177
             4
178
             1
270
             2
271
             2
272
             4
273
             2
274
             2
275
             0
280
             0
281
             0
282
             0
283
             1
284
             0
285
             0
286
             0
287
             3
288
             0
340
102
  0
DIMSTYLE
105
131
100
AcDbSymbolTableRecord
100
AcDbDimStyleTableRecord
  2
ME10_DIM_4
 70
             0
  3
DN<>
  4

  5

  6

  7

 40
1.0
 41
7.0
 42
0.0
 43
0.38
 44
2.0
 45
0.0
 46
0.0
 47
0.0
 48
0.0
 71
             0
 72
             0
 73
             0
 74
             0
 75
             0
 76
             0
 77
             1
 78
             8
140
7.0
141
0.09
142
0.0
143
25.4
144
1.0
145
0.0
146
1.0
147
0.625
170
             0
171
             2
172
             1
173
             1
174
             0
175
             0
176
             4
177
             4
178
             1
270
             2
271
             2
272
             4
273
             2
274
             2
275
             0
280
             0
281
             0
282
             0
283
             1
284
             0
285
             0
286
             0
287
             3
288
             0
340
102
  0
DIMSTYLE
105
13C
100
AcDbSymbolTableRecord
100
AcDbDimStyleTableRecord
  2
ME10_DIM_5
 70
             0
  3

  4

  5

  6

  7

 40
1.0
 41
7.0
 42
0.0
 43
0.38
 44
2.0
 45
0.0
 46
0.0
 47
0.0
 48
0.0
 71
             0
 72
             0
 73
             0
 74
             0
 75
             0
 76
             0
 77
             1
 78
             8
140
7.0
141
0.09
142
0.0
143
25.4
144
1.0
145
0.0
146
1.0
147
0.625
170
             0
171
             2
172
             1
173
             1
174
             0
175
             0
176
             4
177
             4
178
             1
270
             2
271
             2
272
             4
273
             2
274
             2
275
             0
280
             0
281
             0
282
             0
283
             1
284
             0
285
             0
286
             0
287
             3
288
             0
340
102
  0
ENDTAB
  0
TABLE
  2
BLOCK_RECORD
  5
1
100
AcDbSymbolTable
 70
            10
  0
BLOCK_RECORD
  5
A
100
AcDbSymbolTableRecord
100
AcDbBlockTableRecord
  2
*MODEL_SPACE
  0
BLOCK_RECORD
  5
B
100
AcDbSymbolTableRecord
100
AcDbBlockTableRecord
  2
*PAPER_SPACE
  0
BLOCK_RECORD
  5
25
100
AcDbSymbolTableRecord
100
AcDbBlockTableRecord
  2
HL902_T-ST_CK_DN30__1
  0
BLOCK_RECORD
  5
27
100
AcDbSymbolTableRecord
100
AcDbBlockTableRecord
  2
HL902_T-ST_CK_DN30__2
  0
BLOCK_RECORD
  5
29
100
AcDbSymbolTableRecord
100
AcDbBlockTableRecord
  2
MUTTER5_4__3
  0
BLOCK_RECORD
  5
2B
100
AcDbSymbolTableRecord
100
AcDbBlockTableRecord
  2
MUTTER5_4__4
  0
BLOCK_RECORD
  5
FB
100
AcDbSymbolTableRecord
100
AcDbBlockTableRecord
  2
*D4
  0
BLOCK_RECORD
  5
107
100
AcDbSymbolTableRecord
100
AcDbBlockTableRecord
  2
*D5
  0
BLOCK_RECORD
  5
112
100
AcDbSymbolTableRecord
100
AcDbBlockTableRecord
  2
*D6
  0
BLOCK_RECORD
  5
11D
100
AcDbSymbolTableRecord
100
AcDbBlockTableRecord
  2
*D7
  0
BLOCK_RECORD
  5
128
100
AcDbSymbolTableRecord
100
AcDbBlockTableRecord
  2
*D8
  0
BLOCK_RECORD
  5
133
100
AcDbSymbolTableRecord
100
AcDbBlockTableRecord
  2
*D9
  0
ENDTAB
  0
ENDSEC
  0
SECTION
  2
BLOCKS
  0
BLOCK
  5
D
100
AcDbEntity
  8
0
100
AcDbBlockBegin
  2
*MODEL_SPACE
 70
             0
 10
0.0
 20
0.0
 30
0.0
  3
*MODEL_SPACE
  1

  0
ENDBLK
  5
E
100
AcDbEntity
  8
0
100
AcDbBlockEnd
  0
BLOCK
  5
F
100
AcDbEntity
 67
             1
  8
0
100
AcDbBlockBegin
  2
*PAPER_SPACE
 70
             0
 10
0.0
 20
0.0
 30
0.0
  3
*PAPER_SPACE
  1

  0
ENDBLK
  5
10
100
AcDbEntity
 67
             1
  8
0
100
AcDbBlockEnd
  0
BLOCK
  5
26
100
AcDbEntity
  8
0
100
AcDbBlockBegin
  2
HL902_T-ST_CK_DN30__1
 70
             0
 10
-25275.67641275598
 20
-31564.671866441149
 30
0.0
  3
HL902_T-ST_CK_DN30__1
  1

  0
XLINE
  5
3E
100
AcDbEntity
  8
1
  6
DOT_CENTER
 62
             3
 60
             1
100
AcDbXline
 10
-25264.51974978303
 20
-31604.928188116879
 30
0.0
 11
0.0
 21
1.0
 31
0.0
  0
XLINE
  5
3D
100
AcDbEntity
  8
1
  6
DOT_CENTER
 62
             3
 60
             1
100
AcDbXline
 10
-25219.51974978303
 20
-31578.788521548569
 30
0.0
 11
0.0
 21
1.0
 31
0.0
  0
XLINE
  5
3C
100
AcDbEntity
  8
1
  6
DOT_CENTER
 62
             3
 60
             1
100
AcDbXline
 10
-25174.51974978303
 20
-31604.928188116879
 30
0.0
 11
0.0
 21
1.0
 31
0.0
  0
POINT
  5
3B
100
AcDbEntity
  8
1
 62
             3
 60
             1
100
AcDbPoint
 10
-25264.51974978303
 20
-31604.928188116879
  0
POINT
  5
3A
100
AcDbEntity
  8
1
 62
             3
 60
             1
100
AcDbPoint
 10
-25266.51974978303
 20
-31604.928188116879
  0
POINT
  5
39
100
AcDbEntity
  8
1
 62
             3
 60
             1
100
AcDbPoint
 10
-25264.51974978303
 20
-31572.928188116879
  0
POINT
  5
38
100
AcDbEntity
  8
1
 62
             3
 60
             1
100
AcDbPoint
 10
-25266.51974978303
 20
-31572.928188116879
  0
POINT
  5
37
100
AcDbEntity
  8
1
 62
             3
 60
             1
100
AcDbPoint
 10
-25219.51974978303
 20
-31578.788521548569
  0
POINT
  5
36
100
AcDbEntity
  8
1
 62
             3
 60
             1
100
AcDbPoint
 10
-25174.51974978303
 20
-31604.928188116879
  0
POINT
  5
35
100
AcDbEntity
  8
1
 62
             3
 60
             1
100
AcDbPoint
 10
-25172.51974978303
 20
-31604.928188116879
  0
POINT
  5
34
100
AcDbEntity
  8
1
 62
             3
 60
             1
100
AcDbPoint
 10
-25174.51974978303
 20
-31572.928188116879
  0
POINT
  5
33
100
AcDbEntity
  8
1
 62
             3
 60
             1
100
AcDbPoint
 10
-25172.51974978303
 20
-31572.928188116879
  0
ENDBLK
  5
3F
100
AcDbEntity
  8
0
100
AcDbBlockEnd
  0
BLOCK
  5
28
100
AcDbEntity
  8
0
100
AcDbBlockBegin
  2
HL902_T-ST_CK_DN30__2
 70
             0
 10
-25272.998713951882
 20
-31715.913376708631
 30
0.0
  3
HL902_T-ST_CK_DN30__2
  1

  0
XLINE
  5
77
100
AcDbEntity
  8
1
  6
DOT_CENTER
 62
             3
 60
             1
100
AcDbXline
 10
-25193.342050978928
 20
-31658.369698384369
 30
0.0
 11
-1.0
 21
0.0
 31
0.0
  0
ARC
  5
76
100
AcDbEntity
  8
1
  6
CONTINUOUS
 62
             7
100
AcDbCircle
 10
-25216.842050978921
 20
-31605.46825904915
 40
22.00000000304369
100
AcDbArc
 50
-131.40395454386481
 51
-48.59604545614943
  0
LINE
  5
75
100
AcDbEntity
  8
1
  6
PHANTOM
 62
             2
100
AcDbLine
 10
-25216.842050978921
 20
-31629.344956385401
 11
-25216.842050978921
 21
-31601.9322338561
  0
LINE
  5
74
100
AcDbEntity
  8
1
  6
CONTINUOUS
 62
             7
100
AcDbLine
 10
-25241.342050978928
 20
-31619.219698384361
 11
-25241.342050978928
 21
-31661.119698384358
  0
LINE
  5
73
100
AcDbEntity
  8
1
  6
CONTINUOUS
 62
             7
100
AcDbLine
 10
-25192.342050978928
 20
-31661.119698384358
 11
-25192.342050978928
 21
-31619.219698384361
  0
LINE
  5
72
100
AcDbEntity
  8
1
  6
CONTINUOUS
 62
             7
100
AcDbLine
 10
-25193.342050978928
 20
-31621.969698384361
 11
-25193.342050978928
 21
-31658.369698384369
  0
LINE
  5
71
100
AcDbEntity
  8
1
  6
CONTINUOUS
 62
             7
100
AcDbLine
 10
-25240.342050978928
 20
-31621.969698384361
 11
-25240.342050978928
 21
-31658.369698384369
  0
LINE
  5
70
100
AcDbEntity
  8
1
  6
PHANTOM
 62
             2
100
AcDbLine
 10
-25169.85205870225
 20
-31640.169698384361
 11
-25263.255268678498
 21
-31640.169698384361
  0
LINE
  5
6F
100
AcDbEntity
  8
1
  6
CONTINUOUS
 62
             7
100
AcDbLine
 10
-25240.342050978928
 20
-31658.369698384369
 11
-25240.342050978928
 21
-31660.119698384358
  0
LINE
  5
6E
100
AcDbEntity
  8
1
  6
CONTINUOUS
 62
             7
100
AcDbLine
 10
-25204.169241892741
 20
-31658.369698384369
 11
-25240.342050978928
 21
-31658.369698384369
  0
LINE
  5
6D
100
AcDbEntity
  8
1
  6
CONTINUOUS
 62
             2
100
AcDbLine
 10
-25240.70193990344
 20
-31659.64469838436
 11
-25243.34205097891
 21
-31659.64469838436
  0
LINE
  5
6C
100
AcDbEntity
  8
1
  6
CONTINUOUS
 62
             2
100
AcDbLine
 10
-25193.006212805241
 20
-31659.64469838436
 11
-25190.342050978928
 21
-31659.64469838436
  0
LINE
  5
6B
100
AcDbEntity
  8
1
  6
CONTINUOUS
 62
             2
100
AcDbLine
 10
-25192.911810670339
 20
-31620.694698384359
 11
-25190.342050978928
 21
-31620.694698384359
  0
LINE
  5
6A
100
AcDbEntity
  8
1
  6
CONTINUOUS
 62
             7
100
AcDbLine
 10
-25240.342050978928
 20
-31621.969698384361
 11
-25240.342050978928
 21
-31620.219698384361
  0
LINE
  5
69
100
AcDbEntity
  8
1
  6
CONTINUOUS
 62
             7
100
AcDbLine
 10
-25192.342050978928
 20
-31661.119698384358
 11
-25193.342050978928
 21
-31660.119698384358
  0
LINE
  5
68
100
AcDbEntity
  8
1
  6
CONTINUOUS
 62
             7
100
AcDbLine
 10
-25192.342050978928
 20
-31619.219698384361
 11
-25193.342050978928
 21
-31620.219698384361
  0
LINE
  5
67
100
AcDbEntity
  8
1
  6
CONTINUOUS
 62
             7
100
AcDbLine
 10
-25193.342050978928
 20
-31660.119698384358
 11
-25193.342050978928
 21
-31658.369698384369
  0
LINE
  5
66
100
AcDbEntity
  8
1
  6
CONTINUOUS
 62
             7
100
AcDbLine
 10
-25193.342050978928
 20
-31620.219698384361
 11
-25193.342050978928
 21
-31621.969698384361
  0
LINE
  5
65
100
AcDbEntity
  8
1
  6
CONTINUOUS
 62
             7
100
AcDbLine
 10
-25192.342050978928
 20
-31661.119698384358
 11
-25190.342050978928
 21
-31661.119698384358
  0
LINE
  5
64
100
AcDbEntity
  8
1
  6
CONTINUOUS
 62
             7
100
AcDbLine
 10
-25190.342050978928
 20
-31619.219698384361
 11
-25192.342050978928
 21
-31619.219698384361
  0
LINE
  5
63
100
AcDbEntity
  8
1
  6
CONTINUOUS
 62
             7
100
AcDbLine
 10
-25240.342050978928
 20
-31660.119698384358
 11
-25241.342050978928
 21
-31661.119698384358
  0
LINE
  5
62
100
AcDbEntity
  8
1
  6
CONTINUOUS
 62
             7
100
AcDbLine
 10
-25240.342050978928
 20
-31620.219698384361
 11
-25241.342050978928
 21
-31619.219698384361
  0
LINE
  5
61
100
AcDbEntity
  8
1
  6
CONTINUOUS
 62
             7
100
AcDbLine
 10
-25243.34205097891
 20
-31661.119698384358
 11
-25241.342050978928
 21
-31661.119698384358
  0
LINE
  5
60
100
AcDbEntity
  8
1
  6
CONTINUOUS
 62
             7
100
AcDbLine
 10
-25202.292050978918
 20
-31621.969698384361
 11
-25193.342050978928
 21
-31621.969698384361
  0
LINE
  5
5F
100
AcDbEntity
  8
1
  6
CONTINUOUS
 62
             7
100
AcDbLine
 10
-25193.342050978928
 20
-31658.369698384369
 11
-25204.169241892741
 21
-31658.369698384369
  0
LINE
  5
5E
100
AcDbEntity
  8
1
  6
CONTINUOUS
 62
             7
100
AcDbLine
 10
-25202.292050978918
 20
-31616.169698384361
 11
-25202.292050978918
 21
-31621.969698384361
  0
LINE
  5
5D
100
AcDbEntity
  8
1
  6
CONTINUOUS
 62
             7
100
AcDbLine
 10
-25240.342050978928
 20
-31621.969698384361
 11
-25231.392050978931
 21
-31621.969698384361
  0
LINE
  5
5C
100
AcDbEntity
  8
1
  6
CONTINUOUS
 62
             7
100
AcDbLine
 10
-25231.392050978931
 20
-31621.969698384361
 11
-25231.392050978931
 21
-31616.16969838435
  0
LINE
  5
5B
100
AcDbEntity
  8
1
  6
CONTINUOUS
 62
             2
100
AcDbLine
 10
-25240.76109448804
 20
-31620.694698384359
 11
-25243.34205097891
 21
-31620.694698384359
  0
LINE
  5
5A
100
AcDbEntity
  8
1
  6
CONTINUOUS
 62
             7
100
AcDbLine
 10
-25241.342050978928
 20
-31619.219698384361
 11
-25243.34205097891
 21
-31619.219698384361
  0
LINE
  5
59
100
AcDbEntity
  8
1
  6
DOT_CENTER
 62
             2
100
AcDbLine
 10
-25169.842050978928
 20
-31624.169698384361
 11
-25171.842050978928
 21
-31624.169698384361
  0
LINE
  5
58
100
AcDbEntity
  8
1
  6
DOT_CENTER
 62
             2
100
AcDbLine
 10
-25169.842050978928
 20
-31656.169698384361
 11
-25171.842050978928
 21
-31656.169698384361
  0
LINE
  5
57
100
AcDbEntity
  8
1
  6
DOT_CENTER
 62
             2
100
AcDbLine
 10
-25261.842050978928
 20
-31656.169698384361
 11
-25263.842050978928
 21
-31656.169698384361
  0
LINE
  5
56
100
AcDbEntity
  8
1
  6
DOT_CENTER
 62
             2
100
AcDbLine
 10
-25261.842050978928
 20
-31624.169698384361
 11
-25263.842050978928
 21
-31624.169698384361
  0
LINE
  5
55
100
AcDbEntity
  8
1
  6
CONTINUOUS
 62
             7
100
AcDbLine
 10
-25233.342050978921
 20
-31604.169698384361
 11
-25233.342050978921
 21
-31615.16969838435
  0
LINE
  5
54
100
AcDbEntity
  8
1
  6
CONTINUOUS
 62
             7
100
AcDbLine
 10
-25200.342050978921
 20
-31615.169698384361
 11
-25200.342050978921
 21
-31615.16969838435
  0
LINE
  5
53
100
AcDbEntity
  8
1
  6
CONTINUOUS
 62
             7
100
AcDbLine
 10
-25230.342050978928
 20
-31603.169698384361
 11
-25232.342050978921
 21
-31603.169698384361
  0
LINE
  5
52
100
AcDbEntity
  8
1
  6
CONTINUOUS
 62
             2
100
AcDbLine
 10
-25231.842050978921
 20
-31603.516108545879
 11
-25231.842050978921
 21
-31615.869698384351
  0
LINE
  5
51
100
AcDbEntity
  8
1
  6
CONTINUOUS
 62
             2
100
AcDbLine
 10
-25201.842050978921
 20
-31603.516108545879
 11
-25201.842050978921
 21
-31615.869698384358
  0
LINE
  5
50
100
AcDbEntity
  8
1
  6
CONTINUOUS
 62
             7
100
AcDbLine
 10
-25202.292050978911
 20
-31616.169698384361
 11
-25201.342050978921
 21
-31616.169698384361
  0
LINE
  5
4F
100
AcDbEntity
  8
1
  6
CONTINUOUS
 62
             7
100
AcDbLine
 10
-25230.342050978928
 20
-31603.169698384361
 11
-25201.342050978921
 21
-31603.169698384361
  0
LINE
  5
4E
100
AcDbEntity
  8
1
  6
CONTINUOUS
 62
             7
100
AcDbLine
 10
-25232.342050978921
 20
-31616.16969838435
 11
-25233.342050978921
 21
-31615.16969838435
  0
LINE
  5
4D
100
AcDbEntity
  8
1
  6
CONTINUOUS
 62
             7
100
AcDbLine
 10
-25232.342050978921
 20
-31603.169698384361
 11
-25233.342050978921
 21
-31604.169698384361
  0
LINE
  5
4C
100
AcDbEntity
  8
1
  6
CONTINUOUS
 62
             7
100
AcDbLine
 10
-25201.342050978921
 20
-31603.169698384361
 11
-25200.342050978921
 21
-31604.169698384361
  0
LINE
  5
4B
100
AcDbEntity
  8
1
  6
CONTINUOUS
 62
             7
100
AcDbLine
 10
-25201.342050978921
 20
-31616.169698384361
 11
-25200.342050978921
 21
-31615.169698384361
  0
LINE
  5
4A
100
AcDbEntity
  8
1
  6
CONTINUOUS
 62
             7
100
AcDbLine
 10
-25233.342050978921
 20
-31615.16969838435
 11
-25200.342050978921
 21
-31615.16969838435
  0
LINE
  5
49
100
AcDbEntity
  8
1
  6
CONTINUOUS
 62
             7
100
AcDbLine
 10
-25200.342050978921
 20
-31615.16969838435
 11
-25200.342050978921
 21
-31604.169698384361
  0
LINE
  5
48
100
AcDbEntity
  8
1
  6
CONTINUOUS
 62
             7
100
AcDbLine
 10
-25200.342050978921
 20
-31604.169698384361
 11
-25233.342050978921
 21
-31604.169698384361
  0
LINE
  5
47
100
AcDbEntity
  8
1
  6
CONTINUOUS
 62
             7
100
AcDbLine
 10
-25232.342050978921
 20
-31616.16969838435
 11
-25202.292050978918
 21
-31616.16969838435
  0
POINT
  5
46
100
AcDbEntity
  8
1
 62
             3
 60
             1
100
AcDbPoint
 10
-25193.342050978928
 20
-31658.369698384369
  0
POINT
  5
45
100
AcDbEntity
  8
1
 62
             3
 60
             1
100
AcDbPoint
 10
-25204.169241892741
 20
-31658.369698384369
  0
POINT
  5
44
100
AcDbEntity
  8
1
 62
             3
 60
             1
100
AcDbPoint
 10
-25231.392050978931
 20
-31621.969698384361
  0
POINT
  5
43
100
AcDbEntity
  8
1
 62
             3
 60
             1
100
AcDbPoint
 10
-25202.292050978918
 20
-31621.969698384361
  0
POINT
  5
42
100
AcDbEntity
  8
1
 62
             3
 60
             1
100
AcDbPoint
 10
-25240.342050978928
 20
-31658.369698384369
  0
POINT
  5
41
100
AcDbEntity
  8
1
 62
             3
 60
             1
100
AcDbPoint
 10
-25171.842050978928
 20
-31656.169698384361
  0
POINT
  5
40
100
AcDbEntity
  8
1
 62
             3
 60
             1
100
AcDbPoint
 10
-25169.842050978928
 20
-31656.169698384361
  0
ENDBLK
  5
78
100
AcDbEntity
  8
0
100
AcDbBlockEnd
  0
BLOCK
  5
2A
100
AcDbEntity
  8
0
100
AcDbBlockBegin
  2
MUTTER5_4__3
 70
             0
 10
-11465.719598084581
 20
-16247.623432243059
 30
0.0
  3
MUTTER5_4__3
  1

  0
SPLINE
  5
B9
100
AcDbEntity
  8
0
  6
CONTINUOUS
 62
             7
100
AcDbSpline
210
0.0
220
0.0
230
1.0
 70
             0
 71
             3
 72
            11
 73
             7
 74
             5
 42
0.00000000001
 43
0.00000000001
 44
0.00000000001
 40
7.4292443040805676
 40
7.4292443040805676
 40
7.4292443040805676
 40
7.4292443040805676
 40
8.1547390643825217
 40
8.1547390643825217
 40
8.1547390643825217
 40
8.8927845343378031
 40
8.8927845343378031
 40
8.8927845343378031
 40
8.8927845343378031
 10
-11518.60132753472
 20
-16342.493985273501
 30
0.0
 10
-11518.73807994352
 20
-16342.685320961389
 30
0.0
 10
-11518.882779500331
 20
-16342.878956045721
 30
0.0
 10
-11519.035628537849
 20
-16343.075077985321
 30
0.0
 10
-11519.182761981639
 20
-16343.26386619647
 30
0.0
 10
-11519.337487369119
 20
-16343.45501080022
 30
0.0
 10
-11519.499999999971
 20
-16343.648685811881
 30
0.0
 11
-11518.60132753472
 21
-16342.493985273501
 31
0.0
 11
-11518.812441800515
 21
-16342.782736785019
 31
0.0
 11
-11519.035628537849
 21
-16343.075077985321
 31
0.0
 11
-11519.26204707376
 21
-16343.360049348405
 31
0.0
 11
-11519.499999999971
 21
-16343.648685811881
 31
0.0
  0
SPLINE
  5
B8
100
AcDbEntity
  8
0
  6
CONTINUOUS
 62
             7
100
AcDbSpline
210
0.0
220
0.0
230
1.0
 70
             0
 71
             3
 72
            11
 73
             7
 74
             5
 42
0.00000000001
 43
0.00000000001
 44
0.00000000001
 40
16.544103075996631
 40
16.544103075996631
 40
16.544103075996631
 40
16.544103075996631
 40
16.78337342754136
 40
16.78337342754136
 40
16.78337342754136
 40
17.022646357460239
 40
17.022646357460239
 40
17.022646357460239
 40
17.022646357460239
 10
-11518.23593410279
 20
-16333.78473786504
 30
0.0
 10
-11518.29683065746
 20
-16333.83624207578
 30
0.0
 10
-11518.357728385859
 20
-16333.887745538679
 30
0.0
 10
-11518.41862732992
 20
-16333.939248336799
 30
0.0
 10
-11518.479526233399
 20
-16333.99075110062
 30
0.0
 10
-11518.540426307
 20
-16334.04225316114
 30
0.0
 10
-11518.60132753472
 20
-16334.09375455076
 30
0.0
 11
-11518.23593410279
 21
-16333.78473786504
 31
0.0
 11
-11518.327279820331
 21
-16333.86199363065
 31
0.0
 11
-11518.41862732992
 21
-16333.939248336799
 31
0.0
 11
-11518.50997656073
 21
-16334.016501959104
 31
0.0
 11
-11518.60132753472
 21
-16334.09375455076
 31
0.0
  0
SPLINE
  5
B7
100
AcDbEntity
  8
0
  6
CONTINUOUS
 62
             7
100
AcDbSpline
210
0.0
220
0.0
230
1.0
 70
             0
 71
             3
 72
            11
 73
             7
 74
             5
 42
0.00000000001
 43
0.00000000001
 44
0.00000000001
 40
7.4292475485577913
 40
7.4292475485577913
 40
7.4292475485577913
 40
7.4292475485577913
 40
8.5254673708729989
 40
8.5254673708729989
 40
8.5254673708729989
 40
9.6221801374286908
 40
9.6221801374286908
 40
9.6221801374286908
 40
9.6221801374286908
 10
-11518.60132753472
 20
-16316.642230737611
 30
0.0
 10
-11518.738703766619
 20
-16316.975145631081
 30
0.0
 10
-11518.88347487992
 20
-16317.310565092819
 30
0.0
 10
-11519.03562853889
 20
-16317.648712840661
 30
0.0
 10
-11519.18278750812
 20
-16317.97576034222
 30
0.0
 10
-11519.3375154323
 20
-16318.306833704661
 30
0.0
 10
-11519.499999999971
 20
-16318.642230737611
 30
0.0
 11
-11518.60132753472
 21
-16316.642230737611
 31
0.0
 11
-11518.812936501652
 21
-16317.143509468748
 31
0.0
 11
-11519.03562853889
 21
-16317.648712840661
 31
0.0
 11
-11519.262067170013
 21
-16318.142340714865
 31
0.0
 11
-11519.499999999971
 21
-16318.642230737611
 31
0.0
  0
SPLINE
  5
B6
100
AcDbEntity
  8
0
  6
CONTINUOUS
 62
             7
100
AcDbSpline
210
0.0
220
0.0
230
1.0
 70
             0
 71
             3
 72
            11
 73
             7
 74
             5
 42
0.00000000001
 43
0.00000000001
 44
0.00000000001
 40
7.4292443040805587
 40
7.4292443040805587
 40
7.4292443040805587
 40
7.4292443040805587
 40
8.6329431573185218
 40
8.6329431573185218
 40
8.6329431573185218
 40
9.8344608636349164
 40
9.8344608636349164
 40
9.8344608636349164
 40
9.8344608636349164
 10
-11518.60132753472
 20
-16334.09375455076
 30
0.0
 10
-11518.738695589091
 20
-16334.465050762419
 30
0.0
 10
-11518.883465743471
 20
-16334.839162016149
 30
0.0
 10
-11519.035628537849
 20
-16335.21633946638
 30
0.0
 10
-11519.182791579849
 20
-16335.581123651429
 30
0.0
 10
-11519.33751990959
 20
-16335.950388220341
 30
0.0
 10
-11519.499999999971
 20
-16336.32446469406
 30
0.0
 11
-11518.60132753472
 21
-16334.09375455076
 31
0.0
 11
-11518.812930008782
 21
-16334.652841544106
 31
0.0
 11
-11519.035628537849
 21
-16335.21633946638
 31
0.0
 11
-11519.262070375768
 21
-16335.766917471969
 31
0.0
 11
-11519.499999999971
 21
-16336.32446469406
 31
0.0
  0
SPLINE
  5
B5
100
AcDbEntity
  8
0
  6
CONTINUOUS
 62
             7
100
AcDbSpline
210
0.0
220
0.0
230
1.0
 70
             0
 71
             3
 72
            11
 73
             7
 74
             5
 42
0.00000000001
 43
0.00000000001
 44
0.00000000001
 40
9.9896760892753171
 40
9.9896760892753171
 40
9.9896760892753171
 40
9.9896760892753171
 40
11.08638885583103
 40
11.08638885583103
 40
11.08638885583103
 40
12.18260867814622
 40
12.18260867814622
 40
12.18260867814622
 40
12.18260867814622
 10
-11519.499999999971
 20
-16318.642230737611
 30
0.0
 10
-11519.33820284695
 20
-16318.976208824581
 30
0.0
 10
-11519.18341140908
 20
-16319.307314569531
 30
0.0
 10
-11519.03562853889
 20
-16319.635748634561
 30
0.0
 10
-11518.88281030156
 20
-16319.975373347679
 30
0.0
 10
-11518.73810763475
 20
-16320.310760498471
 30
0.0
 10
-11518.60132753472
 20
-16320.642230737611
 30
0.0
 11
-11519.499999999971
 21
-16318.642230737611
 31
0.0
 11
-11519.262558913368
 21
-16319.141068694311
 31
0.0
 11
-11519.03562853889
 21
-16319.635748634561
 31
0.0
 11
-11518.812463735319
 21
-16320.142047613826
 31
0.0
 11
-11518.60132753472
 21
-16320.642230737611
 31
0.0
  0
SPLINE
  5
B4
100
AcDbEntity
  8
0
  6
CONTINUOUS
 62
             7
100
AcDbSpline
210
0.0
220
0.0
230
1.0
 70
             0
 71
             3
 72
            11
 73
             7
 74
             5
 42
0.00000000001
 43
0.00000000001
 44
0.00000000001
 40
59.678971581479558
 40
59.678971581479558
 40
59.678971581479558
 40
59.678971581479558
 40
59.918244570805712
 40
59.918244570805712
 40
59.918244570805712
 40
60.15751486293599
 40
60.15751486293599
 40
60.15751486293599
 40
60.15751486293599
 10
-11518.60132753472
 20
-16303.190706924461
 30
0.0
 10
-11518.540426293939
 20
-16303.24220832514
 30
0.0
 10
-11518.47952620111
 20
-16303.29371040192
 30
0.0
 10
-11518.41862728456
 20
-16303.345213176781
 30
0.0
 10
-11518.35772837211
 20
-16303.396715948171
 30
0.0
 10
-11518.296830625841
 20
-16303.448219426171
 30
0.0
 10
-11518.23593410279
 20
-16303.499723610181
 30
0.0
 11
-11518.60132753472
 21
-16303.190706924461
 31
0.0
 11
-11518.509976538051
 21
-16303.2679595353
 31
0.0
 11
-11518.41862728456
 21
-16303.345213176781
 31
0.0
 11
-11518.32727979765
 21
-16303.422467863747
 31
0.0
 11
-11518.23593410279
 21
-16303.499723610181
 31
0.0
  0
SPLINE
  5
B3
100
AcDbEntity
  8
0
  6
CONTINUOUS
 62
             7
100
AcDbSpline
210
0.0
220
0.0
230
1.0
 70
             0
 71
             3
 72
            11
 73
             7
 74
             5
 42
0.00000000001
 43
0.00000000001
 44
0.00000000001
 40
7.335245079725242
 40
7.335245079725242
 40
7.335245079725242
 40
7.335245079725242
 40
8.5384783562244735
 40
8.5384783562244735
 40
8.5384783562244735
 40
9.740461646099984
 40
9.740461646099984
 40
9.740461646099984
 40
9.740461646099984
 10
-11519.499999999971
 20
-16300.959996781159
 30
0.0
 10
-11519.33729121388
 20
-16301.33459977898
 30
0.0
 10
-11519.18234853092
 20
-16301.70439457089
 30
0.0
 10
-11519.034986713739
 20
-16302.069713037439
 30
0.0
 10
-11518.882414454039
 20
-16302.44794849231
 30
0.0
 10
-11518.73792451698
 20
-16302.821494866639
 30
0.0
 10
-11518.60132753472
 20
-16303.190706924461
 30
0.0
 11
-11519.499999999971
 21
-16300.959996781159
 31
0.0
 11
-11519.261738243515
 21
-16301.518336608526
 31
0.0
 11
-11519.034986713739
 21
-16302.069713037439
 31
0.0
 11
-11518.81216639519
 21
-16302.633593754845
 31
0.0
 11
-11518.60132753472
 21
-16303.190706924461
 31
0.0
  0
SPLINE
  5
B2
100
AcDbEntity
  8
0
  6
CONTINUOUS
 62
             7
100
AcDbSpline
210
0.0
220
0.0
230
1.0
 70
             0
 71
             3
 72
            11
 73
             7
 74
             5
 42
0.00000000001
 43
0.00000000001
 44
0.00000000001
 40
16.544103075996741
 40
16.544103075996741
 40
16.544103075996741
 40
16.544103075996741
 40
16.828925454014261
 40
16.828925454014261
 40
16.828925454014261
 40
17.113747688312689
 40
17.113747688312689
 40
17.113747688312689
 40
17.113747688312689
 10
-11518.23593410279
 20
-16342.056969685549
 30
0.0
 10
-11518.29668171254
 20
-16342.129629486941
 30
0.0
 10
-11518.35758018434
 20
-16342.202467283631
 30
0.0
 10
-11518.41862732992
 20
-16342.275480490251
 30
0.0
 10
-11518.479102888879
 20
-16342.3478100716
 30
0.0
 10
-11518.54000115348
 20
-16342.420642853451
 30
0.0
 10
-11518.60132753472
 20
-16342.493985273501
 30
0.0
 11
-11518.23593410279
 21
-16342.056969685549
 31
0.0
 11
-11518.327168390419
 21
-16342.166092560939
 31
0.0
 11
-11518.41862732992
 21
-16342.275480490251
 31
0.0
 11
-11518.509658373965
 21
-16342.384353067362
 31
0.0
 11
-11518.60132753472
 21
-16342.493985273501
 31
0.0
  0
SPLINE
  5
B1
100
AcDbEntity
  8
0
  6
CONTINUOUS
 62
             7
100
AcDbSpline
210
0.0
220
0.0
230
1.0
 70
             0
 71
             3
 72
            11
 73
             7
 74
             5
 42
0.00000000001
 43
0.00000000001
 44
0.00000000001
 40
59.678971581479523
 40
59.678971581479523
 40
59.678971581479523
 40
59.678971581479523
 40
59.918244570805683
 40
59.918244570805683
 40
59.918244570805683
 40
60.15751486293594
 40
60.15751486293594
 40
60.15751486293594
 40
60.15751486293594
 10
-11518.60132753472
 20
-16336.922181675511
 30
0.0
 10
-11518.54042630056
 20
-16336.870680280461
 30
0.0
 10
-11518.47952619446
 20
-16336.819178192431
 30
0.0
 10
-11518.41862728456
 20
-16336.767675423191
 30
0.0
 10
-11518.357728365831
 20
-16336.716172646489
 30
0.0
 10
-11518.29683063212
 20
-16336.66466917911
 30
0.0
 10
-11518.23593410279
 20
-16336.613164989791
 30
0.0
 11
-11518.60132753472
 21
-16336.922181675511
 31
0.0
 11
-11518.509976538044
 21
-16336.844929064671
 31
0.0
 11
-11518.41862728456
 21
-16336.767675423191
 31
0.0
 11
-11518.32727979765
 21
-16336.690420736222
 31
0.0
 11
-11518.23593410279
 21
-16336.613164989791
 31
0.0
  0
SPLINE
  5
B0
100
AcDbEntity
  8
0
  6
CONTINUOUS
 62
             7
100
AcDbSpline
210
0.0
220
0.0
230
1.0
 70
             0
 71
             3
 72
            11
 73
             7
 74
             5
 42
0.00000000001
 43
0.00000000001
 44
0.00000000001
 40
59.678971581479523
 40
59.678971581479523
 40
59.678971581479523
 40
59.678971581479523
 40
59.963793886494678
 40
59.963793886494678
 40
59.963793886494678
 40
60.248616193786887
 40
60.248616193786887
 40
60.248616193786887
 40
60.248616193786887
 10
-11518.60132753472
 20
-16294.790476201721
 30
0.0
 10
-11518.540042835841
 20
-16294.86376877234
 30
0.0
 10
-11518.47914425803
 20
-16294.93660192555
 30
0.0
 10
-11518.41862728456
 20
-16295.008981039229
 30
0.0
 10
-11518.35710700663
 20
-16295.082560118501
 30
0.0
 10
-11518.29621213449
 20
-16295.15539364741
 30
0.0
 10
-11518.23593410279
 20
-16295.22749178967
 30
0.0
 11
-11518.60132753472
 21
-16294.790476201721
 31
0.0
 11
-11518.509689512612
 21
-16294.900071166827
 31
0.0
 11
-11518.41862728456
 21
-16295.008981039229
 31
0.0
 11
-11518.32681485134
 21
-16295.118791765828
 31
0.0
 11
-11518.23593410279
 21
-16295.22749178967
 31
0.0
  0
SPLINE
  5
AF
100
AcDbEntity
  8
0
  6
CONTINUOUS
 62
             7
100
AcDbSpline
210
0.0
220
0.0
230
1.0
 70
             0
 71
             3
 72
            11
 73
             7
 74
             5
 42
0.00000000001
 43
0.00000000001
 44
0.00000000001
 40
7.3352450797252491
 40
7.3352450797252491
 40
7.3352450797252491
 40
7.3352450797252491
 40
7.8872182202022483
 40
7.8872182202022483
 40
7.8872182202022483
 40
8.4147696075433238
 40
8.4147696075433238
 40
8.4147696075433238
 40
8.4147696075433238
 10
-11519.499999999971
 20
-16336.32446469406
 30
0.0
 10
-11519.338080007879
 20
-16336.42435266012
 30
0.0
 10
-11519.183064066679
 20
-16336.52345017777
 30
0.0
 10
-11519.034986713739
 20
-16336.621812268761
 30
0.0
 10
-11518.88234011422
 20
-16336.723209534521
 30
0.0
 10
-11518.73785766778
 20
-16336.823300018181
 30
0.0
 10
-11518.60132753472
 20
-16336.922181675511
 30
0.0
 11
-11519.499999999971
 21
-16336.32446469406
 31
0.0
 11
-11519.262302367173
 21
-16336.473710684561
 31
0.0
 11
-11519.034986713739
 21
-16336.621812268761
 31
0.0
 11
-11518.812113449309
 21
-16336.772940325296
 31
0.0
 11
-11518.60132753472
 21
-16336.922181675511
 31
0.0
  0
SPLINE
  5
AE
100
AcDbEntity
  8
0
  6
CONTINUOUS
 62
             7
100
AcDbSpline
210
0.0
220
0.0
230
1.0
 70
             0
 71
             3
 72
            11
 73
             7
 74
             5
 42
0.00000000001
 43
0.00000000001
 44
0.00000000001
 40
59.678971581479807
 40
59.678971581479807
 40
59.678971581479807
 40
59.678971581479807
 40
59.918244570805939
 40
59.918244570805939
 40
59.918244570805939
 40
60.157514862936189
 40
60.157514862936189
 40
60.157514862936189
 40
60.157514862936189
 10
-11518.60132753472
 20
-16300.36227979971
 30
0.0
 10
-11518.54042630056
 20
-16300.41378119476
 30
0.0
 10
-11518.47952619446
 20
-16300.465283282791
 30
0.0
 10
-11518.41862728456
 20
-16300.516786052031
 30
0.0
 10
-11518.357728365831
 20
-16300.56828882873
 30
0.0
 10
-11518.29683063212
 20
-16300.619792296109
 30
0.0
 10
-11518.23593410279
 20
-16300.671296485431
 30
0.0
 11
-11518.60132753472
 21
-16300.36227979971
 31
0.0
 11
-11518.509976538044
 21
-16300.43953241055
 31
0.0
 11
-11518.41862728456
 21
-16300.516786052031
 31
0.0
 11
-11518.32727979765
 21
-16300.594040738997
 31
0.0
 11
-11518.23593410279
 21
-16300.671296485431
 31
0.0
  0
SPLINE
  5
AD
100
AcDbEntity
  8
0
  6
CONTINUOUS
 62
             7
100
AcDbSpline
210
0.0
220
0.0
230
1.0
 70
             0
 71
             3
 72
            11
 73
             7
 74
             5
 42
0.00000000001
 43
0.00000000001
 44
0.00000000001
 40
7.4292443040805693
 40
7.4292443040805693
 40
7.4292443040805693
 40
7.4292443040805693
 40
7.9575661615617088
 40
7.9575661615617088
 40
7.9575661615617088
 40
8.5087688221209703
 40
8.5087688221209703
 40
8.5087688221209703
 40
8.5087688221209703
 10
-11518.60132753472
 20
-16300.36227979971
 30
0.0
 10
-11518.738824434949
 20
-16300.46186163608
 30
0.0
 10
-11518.883609758261
 20
-16300.562106780701
 30
0.0
 10
-11519.035628537849
 20
-16300.663075521279
 30
0.0
 10
-11519.183518613439
 20
-16300.761302034591
 30
0.0
 10
-11519.33832126105
 20
-16300.86025764346
 30
0.0
 10
-11519.499999999971
 20
-16300.959996781159
 30
0.0
 11
-11518.60132753472
 21
-16300.36227979971
 31
0.0
 11
-11518.813032331525
 21
-16300.512157571417
 31
0.0
 11
-11519.035628537849
 21
-16300.663075521279
 31
0.0
 11
-11519.262643520162
 21
-16300.810968917074
 31
0.0
 11
-11519.499999999971
 21
-16300.959996781159
 31
0.0
  0
SPLINE
  5
AC
100
AcDbEntity
  8
0
  6
CONTINUOUS
 62
             7
100
AcDbSpline
210
0.0
220
0.0
230
1.0
 70
             0
 71
             3
 72
            11
 73
             7
 74
             5
 42
0.00000000001
 43
0.00000000001
 44
0.00000000001
 40
7.3352450797252473
 40
7.3352450797252473
 40
7.3352450797252473
 40
7.3352450797252473
 40
8.074334640859405
 40
8.074334640859405
 40
8.074334640859405
 40
8.7987853208697473
 40
8.7987853208697473
 40
8.7987853208697473
 40
8.7987853208697473
 10
-11519.499999999971
 20
-16293.635775663341
 30
0.0
 10
-11519.33801262421
 20
-16293.82882470034
 30
0.0
 10
-11519.183003077849
 20
-16294.020264363109
 30
0.0
 10
-11519.034986713739
 20
-16294.210207066901
 30
0.0
 10
-11518.88312149744
 20
-16294.405088828589
 30
0.0
 10
-11518.73855870132
 20
-16294.598470664911
 30
0.0
 10
-11518.60132753472
 20
-16294.790476201721
 30
0.0
 11
-11519.499999999971
 21
-16293.635775663341
 31
0.0
 11
-11519.262254227486
 21
-16293.924156240071
 31
0.0
 11
-11519.034986713739
 21
-16294.210207066901
 31
0.0
 11
-11518.812669355591
 21
-16294.501420218639
 31
0.0
 11
-11518.60132753472
 21
-16294.790476201721
 31
0.0
  0
LINE
  5
AB
100
AcDbEntity
  8
1
  6
DOT_CENTER
 62
             2
100
AcDbLine
 10
-11514.0
 20
-16297.69223073761
 11
-11516.0
 21
-16297.69223073761
  0
LINE
  5
AA
100
AcDbEntity
  8
1
  6
DOT_CENTER
 62
             2
100
AcDbLine
 10
-11516.0
 20
-16339.592230737609
 11
-11514.0
 21
-16339.592230737609
  0
LINE
  5
A9
100
AcDbEntity
  8
0
  6
CONTINUOUS
 62
             7
100
AcDbLine
 10
-11518.60132753472
 20
-16334.09375455076
 11
-11532.5
 21
-16334.09375455076
  0
LINE
  5
A8
100
AcDbEntity
  8
0
  6
CONTINUOUS
 62
             7
100
AcDbLine
 10
-11532.5
 20
-16342.056969685549
 11
-11518.23593410279
 21
-16342.056969685549
  0
LINE
  5
A7
100
AcDbEntity
  8
0
  6
CONTINUOUS
 62
             7
100
AcDbLine
 10
-11532.5
 20
-16333.78473786504
 11
-11518.23593410279
 21
-16333.78473786504
  0
LINE
  5
A6
100
AcDbEntity
  8
0
  6
CONTINUOUS
 62
             7
100
AcDbLine
 10
-11532.5
 20
-16303.499723610181
 11
-11518.23593410279
 21
-16303.499723610181
  0
LINE
  5
A5
100
AcDbEntity
  8
0
  6
CONTINUOUS
 62
             7
100
AcDbLine
 10
-11518.23593410279
 20
-16333.78473786504
 11
-11518.23593410277
 21
-16320.642230737611
  0
LINE
  5
A4
100
AcDbEntity
  8
0
  6
CONTINUOUS
 62
             7
100
AcDbLine
 10
-11518.60132753472
 20
-16303.190706924461
 11
-11532.5
 21
-16303.190706924461
  0
LINE
  5
A3
100
AcDbEntity
  8
0
  6
CONTINUOUS
 62
             7
100
AcDbLine
 10
-11519.499999999971
 20
-16300.959996781159
 11
-11532.5
 21
-16300.959996781159
  0
LINE
  5
A2
100
AcDbEntity
  8
0
  6
CONTINUOUS
 62
             7
100
AcDbLine
 10
-11532.5
 20
-16300.959996781159
 11
-11532.5
 21
-16303.190706924461
  0
LINE
  5
A1
100
AcDbEntity
  8
0
  6
CONTINUOUS
 62
             7
100
AcDbLine
 10
-11532.5
 20
-16303.499723610181
 11
-11532.5
 21
-16316.642230737611
  0
LINE
  5
A0
100
AcDbEntity
  8
0
  6
CONTINUOUS
 62
             7
100
AcDbLine
 10
-11532.5
 20
-16303.190706924461
 11
-11532.5
 21
-16303.499723610181
  0
LINE
  5
9F
100
AcDbEntity
  8
0
  6
CONTINUOUS
 62
             7
100
AcDbLine
 10
-11532.5
 20
-16318.642230737611
 11
-11532.5
 21
-16320.642230737611
  0
LINE
  5
9E
100
AcDbEntity
  8
0
  6
CONTINUOUS
 62
             7
100
AcDbLine
 10
-11518.60132753472
 20
-16316.642230737611
 11
-11532.5
 21
-16316.642230737611
  0
LINE
  5
9D
100
AcDbEntity
  8
0
  6
CONTINUOUS
 62
             7
100
AcDbLine
 10
-11532.5
 20
-16316.642230737611
 11
-11532.5
 21
-16318.642230737611
  0
LINE
  5
9C
100
AcDbEntity
  8
0
  6
CONTINUOUS
 62
             7
100
AcDbLine
 10
-11518.60132753472
 20
-16320.642230737611
 11
-11532.5
 21
-16320.642230737611
  0
LINE
  5
9B
100
AcDbEntity
  8
0
  6
CONTINUOUS
 62
             7
100
AcDbLine
 10
-11532.5
 20
-16320.642230737611
 11
-11532.5
 21
-16333.78473786504
  0
LINE
  5
9A
100
AcDbEntity
  8
0
  6
CONTINUOUS
 62
             7
100
AcDbLine
 10
-11532.5
 20
-16334.09375455076
 11
-11532.5
 21
-16336.32446469406
  0
LINE
  5
99
100
AcDbEntity
  8
0
  6
CONTINUOUS
 62
             7
100
AcDbLine
 10
-11532.5
 20
-16333.78473786504
 11
-11532.5
 21
-16334.09375455076
  0
LINE
  5
98
100
AcDbEntity
  8
0
  6
CONTINUOUS
 62
             7
100
AcDbLine
 10
-11518.23593410277
 20
-16316.642230737611
 11
-11518.23593410279
 21
-16303.499723610181
  0
LINE
  5
97
100
AcDbEntity
  8
0
  6
CONTINUOUS
 62
             7
100
AcDbLine
 10
-11518.60132753472
 20
-16316.642230737611
 11
-11518.23593410277
 21
-16316.642230737611
  0
LINE
  5
96
100
AcDbEntity
  8
0
  6
CONTINUOUS
 62
             7
100
AcDbLine
 10
-11518.23593410277
 20
-16320.642230737611
 11
-11518.60132753472
 21
-16320.642230737611
  0
LINE
  5
95
100
AcDbEntity
  8
0
  6
CONTINUOUS
 62
             7
100
AcDbLine
 10
-11519.499999999971
 20
-16336.32446469406
 11
-11532.5
 21
-16336.32446469406
  0
LINE
  5
94
100
AcDbEntity
  8
0
  6
CONTINUOUS
 62
             7
100
AcDbLine
 10
-11519.499999999971
 20
-16318.642230737611
 11
-11532.5
 21
-16318.642230737611
  0
LINE
  5
93
100
AcDbEntity
  8
0
  6
CONTINUOUS
 62
             7
100
AcDbLine
 10
-11532.5
 20
-16295.22749178967
 11
-11518.23593410279
 21
-16295.22749178967
  0
LINE
  5
92
100
AcDbEntity
  8
0
  6
CONTINUOUS
 62
             7
100
AcDbLine
 10
-11518.23593410279
 20
-16342.056969685549
 11
-11518.23593410279
 21
-16336.613164989791
  0
LINE
  5
91
100
AcDbEntity
  8
0
  6
CONTINUOUS
 62
             7
100
AcDbLine
 10
-11518.23593410279
 20
-16300.671296485431
 11
-11518.23593410279
 21
-16295.22749178967
  0
LINE
  5
90
100
AcDbEntity
  8
0
  6
CONTINUOUS
 62
             7
100
AcDbLine
 10
-11519.499999999971
 20
-16293.635775663341
 11
-11532.5
 21
-16293.635775663341
  0
LINE
  5
8F
100
AcDbEntity
  8
0
  6
CONTINUOUS
 62
             7
100
AcDbLine
 10
-11532.5
 20
-16294.790476201721
 11
-11532.5
 21
-16295.22749178967
  0
LINE
  5
8E
100
AcDbEntity
  8
0
  6
CONTINUOUS
 62
             7
100
AcDbLine
 10
-11532.5
 20
-16295.22749178967
 11
-11532.5
 21
-16300.36227979971
  0
LINE
  5
8D
100
AcDbEntity
  8
0
  6
CONTINUOUS
 62
             7
100
AcDbLine
 10
-11532.5
 20
-16300.36227979971
 11
-11532.5
 21
-16300.959996781159
  0
LINE
  5
8C
100
AcDbEntity
  8
0
  6
CONTINUOUS
 62
             7
100
AcDbLine
 10
-11532.5
 20
-16293.635775663341
 11
-11532.5
 21
-16294.790476201721
  0
LINE
  5
8B
100
AcDbEntity
  8
0
  6
CONTINUOUS
 62
             7
100
AcDbLine
 10
-11532.5
 20
-16336.32446469406
 11
-11532.5
 21
-16336.922181675511
  0
LINE
  5
8A
100
AcDbEntity
  8
0
  6
CONTINUOUS
 62
             7
100
AcDbLine
 10
-11518.60132753472
 20
-16336.922181675511
 11
-11532.5
 21
-16336.922181675511
  0
LINE
  5
89
100
AcDbEntity
  8
0
  6
CONTINUOUS
 62
             7
100
AcDbLine
 10
-11518.60132753472
 20
-16294.790476201721
 11
-11532.5
 21
-16294.790476201721
  0
LINE
  5
88
100
AcDbEntity
  8
0
  6
CONTINUOUS
 62
             7
100
AcDbLine
 10
-11518.60132753472
 20
-16300.36227979971
 11
-11532.5
 21
-16300.36227979971
  0
LINE
  5
87
100
AcDbEntity
  8
0
  6
CONTINUOUS
 62
             7
100
AcDbLine
 10
-11532.5
 20
-16293.635775663341
 11
-11535.0
 21
-16293.635775663341
  0
LINE
  5
86
100
AcDbEntity
  8
0
  6
CONTINUOUS
 62
             7
100
AcDbLine
 10
-11535.0
 20
-16293.635775663341
 11
-11535.0
 21
-16343.648685811881
  0
LINE
  5
85
100
AcDbEntity
  8
0
  6
CONTINUOUS
 62
             7
100
AcDbLine
 10
-11532.5
 20
-16343.648685811881
 11
-11535.0
 21
-16343.648685811881
  0
LINE
  5
84
100
AcDbEntity
  8
0
  6
CONTINUOUS
 62
             7
100
AcDbLine
 10
-11532.5
 20
-16342.056969685549
 11
-11532.5
 21
-16342.493985273501
  0
LINE
  5
83
100
AcDbEntity
  8
0
  6
CONTINUOUS
 62
             7
100
AcDbLine
 10
-11532.5
 20
-16342.493985273501
 11
-11532.5
 21
-16343.648685811881
  0
LINE
  5
82
100
AcDbEntity
  8
0
  6
CONTINUOUS
 62
             7
100
AcDbLine
 10
-11518.60132753472
 20
-16342.493985273501
 11
-11532.5
 21
-16342.493985273501
  0
LINE
  5
81
100
AcDbEntity
  8
0
  6
CONTINUOUS
 62
             7
100
AcDbLine
 10
-11519.499999999971
 20
-16343.648685811881
 11
-11532.5
 21
-16343.648685811881
  0
LINE
  5
80
100
AcDbEntity
  8
0
  6
CONTINUOUS
 62
             7
100
AcDbLine
 10
-11532.5
 20
-16336.922181675511
 11
-11532.5
 21
-16342.056969685549
  0
LINE
  5
7F
100
AcDbEntity
  8
0
  6
CONTINUOUS
 62
             7
100
AcDbLine
 10
-11519.499999999971
 20
-16293.635775663341
 11
-11517.5
 21
-16296.019282848531
  0
LINE
  5
7E
100
AcDbEntity
  8
0
  6
CONTINUOUS
 62
             7
100
AcDbLine
 10
-11517.5
 20
-16341.265178626691
 11
-11517.5
 21
-16296.019282848531
  0
LINE
  5
7D
100
AcDbEntity
  8
0
  6
CONTINUOUS
 62
             7
100
AcDbLine
 10
-11519.499999999971
 20
-16343.648685811881
 11
-11517.5
 21
-16341.265178626691
  0
LINE
  5
7C
100
AcDbEntity
  8
1
  6
PHANTOM
 62
             2
100
AcDbLine
 10
-11519.499999999971
 20
-16318.642230737611
 11
-11532.5
 21
-16318.642230737611
  0
POINT
  5
7B
100
AcDbEntity
  8
1
 62
             3
 60
             1
100
AcDbPoint
 10
-11514.0
 20
-16339.592230737609
  0
POINT
  5
7A
100
AcDbEntity
  8
1
 62
             3
 60
             1
100
AcDbPoint
 10
-11516.0
 20
-16339.592230737609
  0
POINT
  5
79
100
AcDbEntity
  8
1
 62
             3
 60
             1
100
AcDbPoint
 10
-11535.802284326999
 20
-16339.592230737609
  0
ENDBLK
  5
BA
100
AcDbEntity
  8
0
100
AcDbBlockEnd
  0
BLOCK
  5
2C
100
AcDbEntity
  8
0
100
AcDbBlockBegin
  2
MUTTER5_4__4
 70
             0
 10
-11657.28040191541
 20
-16247.623432243059
 30
0.0
  3
MUTTER5_4__4
  1

  0
SPLINE
  5
F8
100
AcDbEntity
  8
0
  6
CONTINUOUS
 62
             7
100
AcDbSpline
210
0.0
220
0.0
230
1.0
 70
             0
 71
             3
 72
            11
 73
             7
 74
             5
 42
0.00000000001
 43
0.00000000001
 44
0.00000000001
 40
7.3352450797252473
 40
7.3352450797252473
 40
7.3352450797252473
 40
7.3352450797252473
 40
8.074334640859405
 40
8.074334640859405
 40
8.074334640859405
 40
8.7987853208697473
 40
8.7987853208697473
 40
8.7987853208697473
 40
8.7987853208697473
 10
-11603.50000000002
 20
-16293.635775663341
 30
0.0
 10
-11603.66198737577
 20
-16293.82882470034
 30
0.0
 10
-11603.816996922131
 20
-16294.020264363109
 30
0.0
 10
-11603.965013286241
 20
-16294.210207066901
 30
0.0
 10
-11604.11687850254
 20
-16294.405088828589
 30
0.0
 10
-11604.26144129867
 20
-16294.598470664911
 30
0.0
 10
-11604.39867246526
 20
-16294.790476201721
 30
0.0
 11
-11603.50000000002
 21
-16293.635775663341
 31
0.0
 11
-11603.737745772494
 21
-16293.924156240071
 31
0.0
 11
-11603.965013286241
 21
-16294.210207066901
 31
0.0
 11
-11604.187330644392
 21
-16294.501420218639
 31
0.0
 11
-11604.39867246526
 21
-16294.790476201721
 31
0.0
  0
SPLINE
  5
F7
100
AcDbEntity
  8
0
  6
CONTINUOUS
 62
             7
100
AcDbSpline
210
0.0
220
0.0
230
1.0
 70
             0
 71
             3
 72
            11
 73
             7
 74
             5
 42
0.00000000001
 43
0.00000000001
 44
0.00000000001
 40
7.4292443040805693
 40
7.4292443040805693
 40
7.4292443040805693
 40
7.4292443040805693
 40
7.9575661615617088
 40
7.9575661615617088
 40
7.9575661615617088
 40
8.5087688221209703
 40
8.5087688221209703
 40
8.5087688221209703
 40
8.5087688221209703
 10
-11604.39867246526
 20
-16300.36227979971
 30
0.0
 10
-11604.26117556504
 20
-16300.46186163608
 30
0.0
 10
-11604.11639024173
 20
-16300.562106780701
 30
0.0
 10
-11603.964371462131
 20
-16300.663075521279
 30
0.0
 10
-11603.816481386541
 20
-16300.761302034591
 30
0.0
 10
-11603.661678738939
 20
-16300.86025764346
 30
0.0
 10
-11603.50000000002
 20
-16300.959996781159
 30
0.0
 11
-11604.39867246526
 21
-16300.36227979971
 31
0.0
 11
-11604.186967668462
 21
-16300.512157571417
 31
0.0
 11
-11603.964371462131
 21
-16300.663075521279
 31
0.0
 11
-11603.737356479824
 21
-16300.810968917074
 31
0.0
 11
-11603.50000000002
 21
-16300.959996781159
 31
0.0
  0
SPLINE
  5
F6
100
AcDbEntity
  8
0
  6
CONTINUOUS
 62
             7
100
AcDbSpline
210
0.0
220
0.0
230
1.0
 70
             0
 71
             3
 72
            11
 73
             7
 74
             5
 42
0.00000000001
 43
0.00000000001
 44
0.00000000001
 40
59.678971581479807
 40
59.678971581479807
 40
59.678971581479807
 40
59.678971581479807
 40
59.918244570805939
 40
59.918244570805939
 40
59.918244570805939
 40
60.157514862936189
 40
60.157514862936189
 40
60.157514862936189
 40
60.157514862936189
 10
-11604.39867246526
 20
-16300.36227979971
 30
0.0
 10
-11604.45957369942
 20
-16300.41378119476
 30
0.0
 10
-11604.520473805531
 20
-16300.465283282791
 30
0.0
 10
-11604.58137271542
 20
-16300.516786052031
 30
0.0
 10
-11604.64227163416
 20
-16300.56828882873
 30
0.0
 10
-11604.703169367869
 20
-16300.619792296109
 30
0.0
 10
-11604.76406589719
 20
-16300.671296485431
 30
0.0
 11
-11604.39867246526
 21
-16300.36227979971
 31
0.0
 11
-11604.490023461942
 21
-16300.43953241055
 31
0.0
 11
-11604.58137271542
 21
-16300.516786052031
 31
0.0
 11
-11604.672720202339
 21
-16300.594040738997
 31
0.0
 11
-11604.76406589719
 21
-16300.671296485431
 31
0.0
  0
SPLINE
  5
F5
100
AcDbEntity
  8
0
  6
CONTINUOUS
 62
             7
100
AcDbSpline
210
0.0
220
0.0
230
1.0
 70
             0
 71
             3
 72
            11
 73
             7
 74
             5
 42
0.00000000001
 43
0.00000000001
 44
0.00000000001
 40
7.3352450797252491
 40
7.3352450797252491
 40
7.3352450797252491
 40
7.3352450797252491
 40
7.8872182202022483
 40
7.8872182202022483
 40
7.8872182202022483
 40
8.4147696075433238
 40
8.4147696075433238
 40
8.4147696075433238
 40
8.4147696075433238
 10
-11603.50000000002
 20
-16336.32446469406
 30
0.0
 10
-11603.661919992101
 20
-16336.42435266012
 30
0.0
 10
-11603.816935933301
 20
-16336.52345017777
 30
0.0
 10
-11603.965013286241
 20
-16336.621812268761
 30
0.0
 10
-11604.11765988576
 20
-16336.723209534521
 30
0.0
 10
-11604.262142332211
 20
-16336.823300018181
 30
0.0
 10
-11604.39867246526
 20
-16336.922181675511
 30
0.0
 11
-11603.50000000002
 21
-16336.32446469406
 31
0.0
 11
-11603.737697632809
 21
-16336.473710684561
 31
0.0
 11
-11603.965013286241
 21
-16336.621812268761
 31
0.0
 11
-11604.187886550677
 21
-16336.772940325296
 31
0.0
 11
-11604.39867246526
 21
-16336.922181675511
 31
0.0
  0
SPLINE
  5
F4
100
AcDbEntity
  8
0
  6
CONTINUOUS
 62
             7
100
AcDbSpline
210
0.0
220
0.0
230
1.0
 70
             0
 71
             3
 72
            11
 73
             7
 74
             5
 42
0.00000000001
 43
0.00000000001
 44
0.00000000001
 40
59.678971581479523
 40
59.678971581479523
 40
59.678971581479523
 40
59.678971581479523
 40
59.963793886494678
 40
59.963793886494678
 40
59.963793886494678
 40
60.248616193786887
 40
60.248616193786887
 40
60.248616193786887
 40
60.248616193786887
 10
-11604.39867246526
 20
-16294.790476201721
 30
0.0
 10
-11604.45995716415
 20
-16294.86376877234
 30
0.0
 10
-11604.52085574195
 20
-16294.93660192555
 30
0.0
 10
-11604.58137271542
 20
-16295.008981039229
 30
0.0
 10
-11604.64289299335
 20
-16295.082560118501
 30
0.0
 10
-11604.703787865499
 20
-16295.15539364741
 30
0.0
 10
-11604.76406589719
 20
-16295.22749178967
 30
0.0
 11
-11604.39867246526
 21
-16294.790476201721
 31
0.0
 11
-11604.490310487372
 21
-16294.900071166827
 31
0.0
 11
-11604.58137271542
 21
-16295.008981039229
 31
0.0
 11
-11604.673185148646
 21
-16295.118791765828
 31
0.0
 11
-11604.76406589719
 21
-16295.22749178967
 31
0.0
  0
SPLINE
  5
F3
100
AcDbEntity
  8
0
  6
CONTINUOUS
 62
             7
100
AcDbSpline
210
0.0
220
0.0
230
1.0
 70
             0
 71
             3
 72
            11
 73
             7
 74
             5
 42
0.00000000001
 43
0.00000000001
 44
0.00000000001
 40
59.678971581479523
 40
59.678971581479523
 40
59.678971581479523
 40
59.678971581479523
 40
59.918244570805683
 40
59.918244570805683
 40
59.918244570805683
 40
60.15751486293594
 40
60.15751486293594
 40
60.15751486293594
 40
60.15751486293594
 10
-11604.39867246526
 20
-16336.922181675511
 30
0.0
 10
-11604.45957369942
 20
-16336.870680280461
 30
0.0
 10
-11604.520473805531
 20
-16336.819178192431
 30
0.0
 10
-11604.58137271542
 20
-16336.767675423191
 30
0.0
 10
-11604.64227163416
 20
-16336.716172646489
 30
0.0
 10
-11604.703169367869
 20
-16336.66466917911
 30
0.0
 10
-11604.76406589719
 20
-16336.613164989791
 30
0.0
 11
-11604.39867246526
 21
-16336.922181675511
 31
0.0
 11
-11604.490023461942
 21
-16336.844929064671
 31
0.0
 11
-11604.58137271542
 21
-16336.767675423191
 31
0.0
 11
-11604.672720202338
 21
-16336.690420736222
 31
0.0
 11
-11604.76406589719
 21
-16336.613164989791
 31
0.0
  0
SPLINE
  5
F2
100
AcDbEntity
  8
0
  6
CONTINUOUS
 62
             7
100
AcDbSpline
210
0.0
220
0.0
230
1.0
 70
             0
 71
             3
 72
            11
 73
             7
 74
             5
 42
0.00000000001
 43
0.00000000001
 44
0.00000000001
 40
16.544103075996741
 40
16.544103075996741
 40
16.544103075996741
 40
16.544103075996741
 40
16.828925454014261
 40
16.828925454014261
 40
16.828925454014261
 40
17.113747688312689
 40
17.113747688312689
 40
17.113747688312689
 40
17.113747688312689
 10
-11604.76406589719
 20
-16342.056969685549
 30
0.0
 10
-11604.70331828744
 20
-16342.129629486941
 30
0.0
 10
-11604.642419815649
 20
-16342.202467283631
 30
0.0
 10
-11604.581372670071
 20
-16342.275480490251
 30
0.0
 10
-11604.52089711111
 20
-16342.3478100716
 30
0.0
 10
-11604.459998846511
 20
-16342.420642853451
 30
0.0
 10
-11604.39867246526
 20
-16342.493985273501
 30
0.0
 11
-11604.76406589719
 21
-16342.056969685549
 31
0.0
 11
-11604.672831609565
 21
-16342.166092560939
 31
0.0
 11
-11604.581372670071
 21
-16342.275480490251
 31
0.0
 11
-11604.490341626024
 21
-16342.384353067362
 31
0.0
 11
-11604.39867246526
 21
-16342.493985273501
 31
0.0
  0
SPLINE
  5
F1
100
AcDbEntity
  8
0
  6
CONTINUOUS
 62
             7
100
AcDbSpline
210
0.0
220
0.0
230
1.0
 70
             0
 71
             3
 72
            11
 73
             7
 74
             5
 42
0.00000000001
 43
0.00000000001
 44
0.00000000001
 40
7.335245079725242
 40
7.335245079725242
 40
7.335245079725242
 40
7.335245079725242
 40
8.5384783562244735
 40
8.5384783562244735
 40
8.5384783562244735
 40
9.740461646099984
 40
9.740461646099984
 40
9.740461646099984
 40
9.740461646099984
 10
-11603.50000000002
 20
-16300.959996781159
 30
0.0
 10
-11603.662708786111
 20
-16301.33459977898
 30
0.0
 10
-11603.81765146906
 20
-16301.70439457089
 30
0.0
 10
-11603.965013286241
 20
-16302.069713037439
 30
0.0
 10
-11604.117585545941
 20
-16302.44794849231
 30
0.0
 10
-11604.26207548301
 20
-16302.821494866639
 30
0.0
 10
-11604.39867246526
 20
-16303.190706924461
 30
0.0
 11
-11603.50000000002
 21
-16300.959996781159
 31
0.0
 11
-11603.738261756473
 21
-16301.518336608526
 31
0.0
 11
-11603.965013286241
 21
-16302.069713037439
 31
0.0
 11
-11604.187833604794
 21
-16302.633593754845
 31
0.0
 11
-11604.39867246526
 21
-16303.190706924461
 31
0.0
  0
SPLINE
  5
F0
100
AcDbEntity
  8
0
  6
CONTINUOUS
 62
             7
100
AcDbSpline
210
0.0
220
0.0
230
1.0
 70
             0
 71
             3
 72
            11
 73
             7
 74
             5
 42
0.00000000001
 43
0.00000000001
 44
0.00000000001
 40
59.678971581479558
 40
59.678971581479558
 40
59.678971581479558
 40
59.678971581479558
 40
59.918244570805712
 40
59.918244570805712
 40
59.918244570805712
 40
60.15751486293599
 40
60.15751486293599
 40
60.15751486293599
 40
60.15751486293599
 10
-11604.39867246526
 20
-16303.190706924461
 30
0.0
 10
-11604.459573706041
 20
-16303.24220832514
 30
0.0
 10
-11604.520473798881
 20
-16303.29371040192
 30
0.0
 10
-11604.58137271542
 20
-16303.345213176781
 30
0.0
 10
-11604.642271627879
 20
-16303.396715948171
 30
0.0
 10
-11604.70316937415
 20
-16303.448219426171
 30
0.0
 10
-11604.76406589719
 20
-16303.499723610181
 30
0.0
 11
-11604.39867246526
 21
-16303.190706924461
 31
0.0
 11
-11604.490023461927
 21
-16303.2679595353
 31
0.0
 11
-11604.58137271542
 21
-16303.345213176781
 31
0.0
 11
-11604.672720202339
 21
-16303.422467863747
 31
0.0
 11
-11604.76406589719
 21
-16303.499723610181
 31
0.0
  0
SPLINE
  5
EF
100
AcDbEntity
  8
0
  6
CONTINUOUS
 62
             7
100
AcDbSpline
210
0.0
220
0.0
230
1.0
 70
             0
 71
             3
 72
            11
 73
             7
 74
             5
 42
0.00000000001
 43
0.00000000001
 44
0.00000000001
 40
9.9896760892753171
 40
9.9896760892753171
 40
9.9896760892753171
 40
9.9896760892753171
 40
11.08638885583103
 40
11.08638885583103
 40
11.08638885583103
 40
12.18260867814622
 40
12.18260867814622
 40
12.18260867814622
 40
12.18260867814622
 10
-11603.50000000002
 20
-16318.642230737611
 30
0.0
 10
-11603.66179715304
 20
-16318.976208824581
 30
0.0
 10
-11603.8165885909
 20
-16319.307314569531
 30
0.0
 10
-11603.96437146109
 20
-16319.635748634561
 30
0.0
 10
-11604.11718969842
 20
-16319.975373347679
 30
0.0
 10
-11604.26189236523
 20
-16320.310760498471
 30
0.0
 10
-11604.39867246526
 20
-16320.642230737611
 30
0.0
 11
-11603.50000000002
 21
-16318.642230737611
 31
0.0
 11
-11603.737441086618
 21
-16319.141068694311
 31
0.0
 11
-11603.96437146109
 21
-16319.635748634561
 31
0.0
 11
-11604.187536264664
 21
-16320.142047613826
 31
0.0
 11
-11604.39867246526
 21
-16320.642230737611
 31
0.0
  0
SPLINE
  5
EE
100
AcDbEntity
  8
0
  6
CONTINUOUS
 62
             7
100
AcDbSpline
210
0.0
220
0.0
230
1.0
 70
             0
 71
             3
 72
            11
 73
             7
 74
             5
 42
0.00000000001
 43
0.00000000001
 44
0.00000000001
 40
7.4292443040805587
 40
7.4292443040805587
 40
7.4292443040805587
 40
7.4292443040805587
 40
8.6329431573185218
 40
8.6329431573185218
 40
8.6329431573185218
 40
9.8344608636349164
 40
9.8344608636349164
 40
9.8344608636349164
 40
9.8344608636349164
 10
-11604.39867246526
 20
-16334.09375455076
 30
0.0
 10
-11604.2613044109
 20
-16334.465050762419
 30
0.0
 10
-11604.11653425652
 20
-16334.839162016149
 30
0.0
 10
-11603.964371462131
 20
-16335.21633946638
 30
0.0
 10
-11603.81720842014
 20
-16335.581123651429
 30
0.0
 10
-11603.662480090399
 20
-16335.950388220341
 30
0.0
 10
-11603.50000000002
 20
-16336.32446469406
 30
0.0
 11
-11604.39867246526
 21
-16334.09375455076
 31
0.0
 11
-11604.187069991205
 21
-16334.652841544106
 31
0.0
 11
-11603.964371462131
 21
-16335.21633946638
 31
0.0
 11
-11603.737929624222
 21
-16335.766917471969
 31
0.0
 11
-11603.50000000002
 21
-16336.32446469406
 31
0.0
  0
SPLINE
  5
ED
100
AcDbEntity
  8
0
  6
CONTINUOUS
 62
             7
100
AcDbSpline
210
0.0
220
0.0
230
1.0
 70
             0
 71
             3
 72
            11
 73
             7
 74
             5
 42
0.00000000001
 43
0.00000000001
 44
0.00000000001
 40
7.4292475485577913
 40
7.4292475485577913
 40
7.4292475485577913
 40
7.4292475485577913
 40
8.5254673708729989
 40
8.5254673708729989
 40
8.5254673708729989
 40
9.6221801374286908
 40
9.6221801374286908
 40
9.6221801374286908
 40
9.6221801374286908
 10
-11604.39867246526
 20
-16316.642230737611
 30
0.0
 10
-11604.26129623337
 20
-16316.975145631081
 30
0.0
 10
-11604.116525120069
 20
-16317.310565092819
 30
0.0
 10
-11603.96437146109
 20
-16317.648712840661
 30
0.0
 10
-11603.81721249186
 20
-16317.97576034222
 30
0.0
 10
-11603.662484567691
 20
-16318.306833704661
 30
0.0
 10
-11603.50000000002
 20
-16318.642230737611
 30
0.0
 11
-11604.39867246526
 21
-16316.642230737611
 31
0.0
 11
-11604.187063498333
 21
-16317.143509468748
 31
0.0
 11
-11603.96437146109
 21
-16317.648712840661
 31
0.0
 11
-11603.737932829972
 21
-16318.142340714865
 31
0.0
 11
-11603.50000000002
 21
-16318.642230737611
 31
0.0
  0
SPLINE
  5
EC
100
AcDbEntity
  8
0
  6
CONTINUOUS
 62
             7
100
AcDbSpline
210
0.0
220
0.0
230
1.0
 70
             0
 71
             3
 72
            11
 73
             7
 74
             5
 42
0.00000000001
 43
0.00000000001
 44
0.00000000001
 40
16.544103075996631
 40
16.544103075996631
 40
16.544103075996631
 40
16.544103075996631
 40
16.78337342754136
 40
16.78337342754136
 40
16.78337342754136
 40
17.022646357460239
 40
17.022646357460239
 40
17.022646357460239
 40
17.022646357460239
 10
-11604.76406589719
 20
-16333.78473786504
 30
0.0
 10
-11604.70316934252
 20
-16333.83624207578
 30
0.0
 10
-11604.642271614121
 20
-16333.887745538679
 30
0.0
 10
-11604.581372670071
 20
-16333.939248336799
 30
0.0
 10
-11604.520473766581
 20
-16333.99075110062
 30
0.0
 10
-11604.45957369298
 20
-16334.04225316114
 30
0.0
 10
-11604.39867246526
 20
-16334.09375455076
 30
0.0
 11
-11604.76406589719
 21
-16333.78473786504
 31
0.0
 11
-11604.672720179648
 21
-16333.86199363065
 31
0.0
 11
-11604.581372670071
 21
-16333.939248336799
 31
0.0
 11
-11604.490023439253
 21
-16334.016501959104
 31
0.0
 11
-11604.39867246526
 21
-16334.09375455076
 31
0.0
  0
SPLINE
  5
EB
100
AcDbEntity
  8
0
  6
CONTINUOUS
 62
             7
100
AcDbSpline
210
0.0
220
0.0
230
1.0
 70
             0
 71
             3
 72
            11
 73
             7
 74
             5
 42
0.00000000001
 43
0.00000000001
 44
0.00000000001
 40
7.4292443040805676
 40
7.4292443040805676
 40
7.4292443040805676
 40
7.4292443040805676
 40
8.1547390643825217
 40
8.1547390643825217
 40
8.1547390643825217
 40
8.8927845343378031
 40
8.8927845343378031
 40
8.8927845343378031
 40
8.8927845343378031
 10
-11604.39867246526
 20
-16342.493985273501
 30
0.0
 10
-11604.26192005647
 20
-16342.685320961389
 30
0.0
 10
-11604.11722049966
 20
-16342.878956045721
 30
0.0
 10
-11603.964371462131
 20
-16343.075077985321
 30
0.0
 10
-11603.81723801835
 20
-16343.26386619647
 30
0.0
 10
-11603.66251263087
 20
-16343.45501080022
 30
0.0
 10
-11603.50000000002
 20
-16343.648685811881
 30
0.0
 11
-11604.39867246526
 21
-16342.493985273501
 31
0.0
 11
-11604.187558199474
 21
-16342.782736785019
 31
0.0
 11
-11603.964371462131
 21
-16343.075077985321
 31
0.0
 11
-11603.737952926223
 21
-16343.360049348405
 31
0.0
 11
-11603.50000000002
 21
-16343.648685811881
 31
0.0
  0
LINE
  5
EA
100
AcDbEntity
  8
1
  6
PHANTOM
 62
             2
100
AcDbLine
 10
-11590.499999999991
 20
-16318.642230737611
 11
-11603.50000000002
 21
-16318.642230737611
  0
LINE
  5
E9
100
AcDbEntity
  8
0
  6
CONTINUOUS
 62
             7
100
AcDbLine
 10
-11605.499999999991
 20
-16341.265178626691
 11
-11603.50000000002
 21
-16343.648685811881
  0
LINE
  5
E8
100
AcDbEntity
  8
0
  6
CONTINUOUS
 62
             7
100
AcDbLine
 10
-11605.499999999991
 20
-16296.019282848531
 11
-11605.499999999991
 21
-16341.265178626691
  0
LINE
  5
E7
100
AcDbEntity
  8
0
  6
CONTINUOUS
 62
             7
100
AcDbLine
 10
-11605.499999999991
 20
-16296.019282848531
 11
-11603.50000000002
 21
-16293.635775663341
  0
LINE
  5
E6
100
AcDbEntity
  8
0
  6
CONTINUOUS
 62
             7
100
AcDbLine
 10
-11590.499999999991
 20
-16342.056969685549
 11
-11590.499999999991
 21
-16336.922181675511
  0
LINE
  5
E5
100
AcDbEntity
  8
0
  6
CONTINUOUS
 62
             7
100
AcDbLine
 10
-11590.499999999991
 20
-16343.648685811881
 11
-11603.50000000002
 21
-16343.648685811881
  0
LINE
  5
E4
100
AcDbEntity
  8
0
  6
CONTINUOUS
 62
             7
100
AcDbLine
 10
-11590.499999999991
 20
-16342.493985273501
 11
-11604.39867246526
 21
-16342.493985273501
  0
LINE
  5
E3
100
AcDbEntity
  8
0
  6
CONTINUOUS
 62
             7
100
AcDbLine
 10
-11590.499999999991
 20
-16343.648685811881
 11
-11590.499999999991
 21
-16342.493985273501
  0
LINE
  5
E2
100
AcDbEntity
  8
0
  6
CONTINUOUS
 62
             7
100
AcDbLine
 10
-11590.499999999991
 20
-16342.493985273501
 11
-11590.499999999991
 21
-16342.056969685549
  0
LINE
  5
E1
100
AcDbEntity
  8
0
  6
CONTINUOUS
 62
             7
100
AcDbLine
 10
-11587.999999999991
 20
-16343.648685811881
 11
-11590.499999999991
 21
-16343.648685811881
  0
LINE
  5
E0
100
AcDbEntity
  8
0
  6
CONTINUOUS
 62
             7
100
AcDbLine
 10
-11587.999999999991
 20
-16343.648685811881
 11
-11587.999999999991
 21
-16293.635775663341
  0
LINE
  5
DF
100
AcDbEntity
  8
0
  6
CONTINUOUS
 62
             7
100
AcDbLine
 10
-11587.999999999991
 20
-16293.635775663341
 11
-11590.499999999991
 21
-16293.635775663341
  0
LINE
  5
DE
100
AcDbEntity
  8
0
  6
CONTINUOUS
 62
             7
100
AcDbLine
 10
-11590.499999999991
 20
-16300.36227979971
 11
-11604.39867246526
 21
-16300.36227979971
  0
LINE
  5
DD
100
AcDbEntity
  8
0
  6
CONTINUOUS
 62
             7
100
AcDbLine
 10
-11590.499999999991
 20
-16294.790476201721
 11
-11604.39867246526
 21
-16294.790476201721
  0
LINE
  5
DC
100
AcDbEntity
  8
0
  6
CONTINUOUS
 62
             7
100
AcDbLine
 10
-11590.499999999991
 20
-16336.922181675511
 11
-11604.39867246526
 21
-16336.922181675511
  0
LINE
  5
DB
100
AcDbEntity
  8
0
  6
CONTINUOUS
 62
             7
100
AcDbLine
 10
-11590.499999999991
 20
-16336.922181675511
 11
-11590.499999999991
 21
-16336.32446469406
  0
LINE
  5
DA
100
AcDbEntity
  8
0
  6
CONTINUOUS
 62
             7
100
AcDbLine
 10
-11590.499999999991
 20
-16294.790476201721
 11
-11590.499999999991
 21
-16293.635775663341
  0
LINE
  5
D9
100
AcDbEntity
  8
0
  6
CONTINUOUS
 62
             7
100
AcDbLine
 10
-11590.499999999991
 20
-16300.959996781159
 11
-11590.499999999991
 21
-16300.36227979971
  0
LINE
  5
D8
100
AcDbEntity
  8
0
  6
CONTINUOUS
 62
             7
100
AcDbLine
 10
-11590.499999999991
 20
-16300.36227979971
 11
-11590.499999999991
 21
-16295.22749178967
  0
LINE
  5
D7
100
AcDbEntity
  8
0
  6
CONTINUOUS
 62
             7
100
AcDbLine
 10
-11590.499999999991
 20
-16295.22749178967
 11
-11590.499999999991
 21
-16294.790476201721
  0
LINE
  5
D6
100
AcDbEntity
  8
0
  6
CONTINUOUS
 62
             7
100
AcDbLine
 10
-11590.499999999991
 20
-16293.635775663341
 11
-11603.50000000002
 21
-16293.635775663341
  0
LINE
  5
D5
100
AcDbEntity
  8
0
  6
CONTINUOUS
 62
             7
100
AcDbLine
 10
-11604.76406589719
 20
-16295.22749178967
 11
-11604.76406589719
 21
-16300.671296485431
  0
LINE
  5
D4
100
AcDbEntity
  8
0
  6
CONTINUOUS
 62
             7
100
AcDbLine
 10
-11604.76406589719
 20
-16336.613164989791
 11
-11604.76406589719
 21
-16342.056969685549
  0
LINE
  5
D3
100
AcDbEntity
  8
0
  6
CONTINUOUS
 62
             7
100
AcDbLine
 10
-11604.76406589719
 20
-16295.22749178967
 11
-11590.499999999991
 21
-16295.22749178967
  0
LINE
  5
D2
100
AcDbEntity
  8
0
  6
CONTINUOUS
 62
             7
100
AcDbLine
 10
-11590.499999999991
 20
-16318.642230737611
 11
-11603.50000000002
 21
-16318.642230737611
  0
LINE
  5
D1
100
AcDbEntity
  8
0
  6
CONTINUOUS
 62
             7
100
AcDbLine
 10
-11590.499999999991
 20
-16336.32446469406
 11
-11603.50000000002
 21
-16336.32446469406
  0
LINE
  5
D0
100
AcDbEntity
  8
0
  6
CONTINUOUS
 62
             7
100
AcDbLine
 10
-11604.39867246526
 20
-16320.642230737611
 11
-11604.76406589722
 21
-16320.642230737611
  0
LINE
  5
CF
100
AcDbEntity
  8
0
  6
CONTINUOUS
 62
             7
100
AcDbLine
 10
-11604.76406589722
 20
-16316.642230737611
 11
-11604.39867246526
 21
-16316.642230737611
  0
LINE
  5
CE
100
AcDbEntity
  8
0
  6
CONTINUOUS
 62
             7
100
AcDbLine
 10
-11604.76406589719
 20
-16303.499723610181
 11
-11604.76406589722
 21
-16316.642230737611
  0
LINE
  5
CD
100
AcDbEntity
  8
0
  6
CONTINUOUS
 62
             7
100
AcDbLine
 10
-11590.499999999991
 20
-16334.09375455076
 11
-11590.499999999991
 21
-16333.78473786504
  0
LINE
  5
CC
100
AcDbEntity
  8
0
  6
CONTINUOUS
 62
             7
100
AcDbLine
 10
-11590.499999999991
 20
-16336.32446469406
 11
-11590.499999999991
 21
-16334.09375455076
  0
LINE
  5
CB
100
AcDbEntity
  8
0
  6
CONTINUOUS
 62
             7
100
AcDbLine
 10
-11590.499999999991
 20
-16333.78473786504
 11
-11590.499999999991
 21
-16320.642230737611
  0
LINE
  5
CA
100
AcDbEntity
  8
0
  6
CONTINUOUS
 62
             7
100
AcDbLine
 10
-11590.499999999991
 20
-16320.642230737611
 11
-11604.39867246526
 21
-16320.642230737611
  0
LINE
  5
C9
100
AcDbEntity
  8
0
  6
CONTINUOUS
 62
             7
100
AcDbLine
 10
-11590.499999999991
 20
-16318.642230737611
 11
-11590.499999999991
 21
-16316.642230737611
  0
LINE
  5
C8
100
AcDbEntity
  8
0
  6
CONTINUOUS
 62
             7
100
AcDbLine
 10
-11590.499999999991
 20
-16316.642230737611
 11
-11604.39867246526
 21
-16316.642230737611
  0
LINE
  5
C7
100
AcDbEntity
  8
0
  6
CONTINUOUS
 62
             7
100
AcDbLine
 10
-11590.499999999991
 20
-16320.642230737611
 11
-11590.499999999991
 21
-16318.642230737611
  0
LINE
  5
C6
100
AcDbEntity
  8
0
  6
CONTINUOUS
 62
             7
100
AcDbLine
 10
-11590.499999999991
 20
-16303.499723610181
 11
-11590.499999999991
 21
-16303.190706924461
  0
LINE
  5
C5
100
AcDbEntity
  8
0
  6
CONTINUOUS
 62
             7
100
AcDbLine
 10
-11590.499999999991
 20
-16316.642230737611
 11
-11590.499999999991
 21
-16303.499723610181
  0
LINE
  5
C4
100
AcDbEntity
  8
0
  6
CONTINUOUS
 62
             7
100
AcDbLine
 10
-11590.499999999991
 20
-16303.190706924461
 11
-11590.499999999991
 21
-16300.959996781159
  0
LINE
  5
C3
100
AcDbEntity
  8
0
  6
CONTINUOUS
 62
             7
100
AcDbLine
 10
-11590.499999999991
 20
-16300.959996781159
 11
-11603.50000000002
 21
-16300.959996781159
  0
LINE
  5
C2
100
AcDbEntity
  8
0
  6
CONTINUOUS
 62
             7
100
AcDbLine
 10
-11590.499999999991
 20
-16303.190706924461
 11
-11604.39867246526
 21
-16303.190706924461
  0
LINE
  5
C1
100
AcDbEntity
  8
0
  6
CONTINUOUS
 62
             7
100
AcDbLine
 10
-11604.76406589722
 20
-16320.642230737611
 11
-11604.76406589719
 21
-16333.78473786504
  0
LINE
  5
C0
100
AcDbEntity
  8
0
  6
CONTINUOUS
 62
             7
100
AcDbLine
 10
-11604.76406589719
 20
-16303.499723610181
 11
-11590.499999999991
 21
-16303.499723610181
  0
LINE
  5
BF
100
AcDbEntity
  8
0
  6
CONTINUOUS
 62
             7
100
AcDbLine
 10
-11604.76406589719
 20
-16333.78473786504
 11
-11590.499999999991
 21
-16333.78473786504
  0
LINE
  5
BE
100
AcDbEntity
  8
0
  6
CONTINUOUS
 62
             7
100
AcDbLine
 10
-11604.76406589719
 20
-16342.056969685549
 11
-11590.499999999991
 21
-16342.056969685549
  0
LINE
  5
BD
100
AcDbEntity
  8
0
  6
CONTINUOUS
 62
             7
100
AcDbLine
 10
-11590.499999999991
 20
-16334.09375455076
 11
-11604.39867246526
 21
-16334.09375455076
  0
LINE
  5
BC
100
AcDbEntity
  8
1
  6
DOT_CENTER
 62
             2
100
AcDbLine
 10
-11608.999999999991
 20
-16339.592230737609
 11
-11606.999999999991
 21
-16339.592230737609
  0
LINE
  5
BB
100
AcDbEntity
  8
1
  6
DOT_CENTER
 62
             2
100
AcDbLine
 10
-11606.999999999991
 20
-16297.69223073761
 11
-11608.999999999991
 21
-16297.69223073761
  0
ENDBLK
  5
F9
100
AcDbEntity
  8
0
100
AcDbBlockEnd
  0
BLOCK
  5
FC
100
AcDbEntity
  8
0
100
AcDbBlockBegin
  2
*D4
 70
             1
 10
0.0
 20
0.0
 30
0.0
  3
*D4
  1

  0
LINE
  5
FD
100
AcDbEntity
  8
0
  6
CONTINUOUS
 62
             4
100
AcDbLine
 10
-16.49999999999273
 20
47.3386430348041
 11
16.50000000000727
 21
47.3386430348041
  0
LINE
  5
FE
100
AcDbEntity
  8
0
  6
CONTINUOUS
 62
             4
100
AcDbLine
 10
16.50000000000727
 20
36.0
 11
16.50000000000727
 21
49.3386430348041
  0
LINE
  5
FF
100
AcDbEntity
  8
0
  6
CONTINUOUS
 62
             4
100
AcDbLine
 10
-16.49999999999273
 20
36.0
 11
-16.49999999999273
 21
49.3386430348041
  0
SOLID
  5
100
100
AcDbEntity
  8
0
 62
             4
100
AcDbTrace
 10
-9.49999999999273
 20
48.26021051791587
 11
-9.49999999999273
 21
46.41707555169233
 12
-16.49999999999273
 22
47.3386430348041
 13
-16.49999999999273
 23
47.3386430348041
  0
SOLID
  5
101
100
AcDbEntity
  8
0
 62
             4
100
AcDbTrace
 10
9.50000000000727
 20
46.41707555169233
 11
9.50000000000727
 21
48.26021051791587
 12
16.50000000000727
 22
47.3386430348041
 13
16.50000000000727
 23
47.3386430348041
  0
MTEXT
  5
103
100
AcDbEntity
  8
0
 62
             1
100
AcDbMText
 10
-2.99478806272244
 20
49.3386430348041
 30
0.0
 40
7.0
 41
0.0
 71
             7
 72
             1
  1
1"
  7
CONVERTER_1
 11
0.99999999999706
 21
0.00000242406841
 31
0.0
  0
ENDBLK
  5
104
100
AcDbEntity
  8
0
100
AcDbBlockEnd
  0
BLOCK
  5
108
100
AcDbEntity
  8
0
100
AcDbBlockBegin
  2
*D5
 70
             1
 10
0.0
 20
0.0
 30
0.0
  3
*D5
  1

  0
LINE
  5
109
100
AcDbEntity
  8
0
  6
CONTINUOUS
 62
             4
100
AcDbLine
 10
73.8547146565204
 20
20.95000000000073
 11
73.8547146565204
 21
-20.94999999999891
  0
LINE
  5
10A
100
AcDbEntity
  8
0
  6
CONTINUOUS
 62
             4
100
AcDbLine
 10
47.5
 20
-20.94999999999891
 11
75.8547146565204
 21
-20.94999999999891
  0
LINE
  5
10B
100
AcDbEntity
  8
0
  6
CONTINUOUS
 62
             4
100
AcDbLine
 10
47.5
 20
20.95000000000073
 11
75.8547146565204
 21
20.95000000000073
  0
SOLID
  5
10C
100
AcDbEntity
  8
0
 62
             4
100
AcDbTrace
 10
74.77628213963217
 20
13.95000000000073
 11
72.93314717340863
 21
13.95000000000073
 12
73.8547146565204
 22
20.95000000000073
 13
73.8547146565204
 23
20.95000000000073
  0
SOLID
  5
10D
100
AcDbEntity
  8
0
 62
             4
100
AcDbTrace
 10
72.93314717340863
 20
-13.94999999999891
 11
74.77628213963217
 21
-13.94999999999891
 12
73.8547146565204
 22
-20.94999999999891
 13
73.8547146565204
 23
-20.94999999999891
  0
MTEXT
  5
10E
100
AcDbEntity
  8
0
 62
             1
100
AcDbMText
 10
71.8547146565204
 20
-7.98419884084276
 30
0.0
 40
7.0
 41
0.0
 71
             7
 72
             1
  1
5/4"
  7
CONVERTER_1
 11
0.0
 21
1.0
 31
0.0
  0
ENDBLK
  5
10F
100
AcDbEntity
  8
0
100
AcDbBlockEnd
  0
BLOCK
  5
113
100
AcDbEntity
  8
0
100
AcDbBlockBegin
  2
*D6
 70
             1
 10
0.0
 20
0.0
 30
0.0
  3
*D6
  1

  0
LINE
  5
114
100
AcDbEntity
  8
0
  6
CONTINUOUS
 62
             4
100
AcDbLine
 10
-69.00519702361791
 20
-20.94999999999891
 11
-69.00519702361791
 21
20.95000000000073
  0
LINE
  5
115
100
AcDbEntity
  8
0
  6
CONTINUOUS
 62
             4
100
AcDbLine
 10
-47.49999999999091
 20
20.95000000000073
 11
-71.00519702361791
 21
20.95000000000073
  0
LINE
  5
116
100
AcDbEntity
  8
0
  6
CONTINUOUS
 62
             4
100
AcDbLine
 10
-47.49999999999091
 20
-20.94999999999891
 11
-71.00519702361791
 21
-20.94999999999891
  0
SOLID
  5
117
100
AcDbEntity
  8
0
 62
             4
100
AcDbTrace
 10
-68.08362954050614
 20
13.95000000000073
 11
-69.92676450672968
 21
13.95000000000073
 12
-69.00519702361791
 22
20.95000000000073
 13
-69.00519702361791
 23
20.95000000000073
  0
SOLID
  5
118
100
AcDbEntity
  8
0
 62
             4
100
AcDbTrace
 10
-69.92676450672968
 20
-13.94999999999891
 11
-68.08362954050614
 21
-13.94999999999891
 12
-69.00519702361791
 22
-20.94999999999891
 13
-69.00519702361791
 23
-20.94999999999891
  0
MTEXT
  5
119
100
AcDbEntity
  8
0
 62
             1
100
AcDbMText
 10
-71.00519702361791
 20
-9.7826779339219
 30
0.0
 40
7.0
 41
0.0
 71
             7
 72
             1
  1
5/4"
  7
CONVERTER_1
 11
0.0
 21
1.0
 31
0.0
  0
ENDBLK
  5
11A
100
AcDbEntity
  8
0
100
AcDbBlockEnd
  0
BLOCK
  5
11E
100
AcDbEntity
  8
0
100
AcDbBlockBegin
  2
*D7
 70
             1
 10
0.0
 20
0.0
 30
0.0
  3
*D7
  1

  0
LINE
  5
11F
100
AcDbEntity
  8
0
  6
CONTINUOUS
 62
             4
100
AcDbLine
 10
-57.0
 20
-16.0
 11
-57.0
 21
16.0
  0
LINE
  5
120
100
AcDbEntity
  8
0
  6
CONTINUOUS
 62
             4
100
AcDbLine
 10
-47.0
 20
16.0
 11
-59.0
 21
16.0
  0
LINE
  5
121
100
AcDbEntity
  8
0
  6
CONTINUOUS
 62
             4
100
AcDbLine
 10
-47.0
 20
-16.0
 11
-59.0
 21
-16.0
  0
SOLID
  5
122
100
AcDbEntity
  8
0
 62
             4
100
AcDbTrace
 10
-56.07843251688824
 20
9.0
 11
-57.92156748311177
 21
9.0
 12
-57.0
 22
16.0
 13
-57.0
 23
16.0
  0
SOLID
  5
123
100
AcDbEntity
  8
0
 62
             4
100
AcDbTrace
 10
-57.92156748311177
 20
-9.0
 11
-56.07843251688823
 21
-9.0
 12
-57.0
 22
-16.0
 13
-57.0
 23
-16.0
  0
MTEXT
  5
124
100
AcDbEntity
  8
0
 62
             1
100
AcDbMText
 10
-59.0
 20
-8.77949991805
 30
0.0
 40
7.0
 41
0.0
 71
             7
 72
             1
  1
\C1;DN\C1;32
  7
CONVERTER_1
 11
0.0
 21
1.0
 31
0.0
  0
ENDBLK
  5
125
100
AcDbEntity
  8
0
100
AcDbBlockEnd
  0
BLOCK
  5
129
100
AcDbEntity
  8
0
100
AcDbBlockBegin
  2
*D8
 70
             1
 10
0.0
 20
0.0
 30
0.0
  3
*D8
  1

  0
LINE
  5
12A
100
AcDbEntity
  8
0
  6
CONTINUOUS
 62
             4
100
AcDbLine
 10
60.4947187669232
 20
16.0
 11
60.4947187669232
 21
-16.0
  0
LINE
  5
12B
100
AcDbEntity
  8
0
  6
CONTINUOUS
 62
             4
100
AcDbLine
 10
47.0
 20
-16.0
 11
62.4947187669232
 21
-16.0
  0
LINE
  5
12C
100
AcDbEntity
  8
0
  6
CONTINUOUS
 62
             4
100
AcDbLine
 10
47.0
 20
16.0
 11
62.4947187669232
 21
16.0
  0
SOLID
  5
12D
100
AcDbEntity
  8
0
 62
             4
100
AcDbTrace
 10
61.41628625003497
 20
9.0
 11
59.57315128381143
 21
9.0
 12
60.4947187669232
 22
16.0
 13
60.4947187669232
 23
16.0
  0
SOLID
  5
12E
100
AcDbEntity
  8
0
 62
             4
100
AcDbTrace
 10
59.57315128381143
 20
-9.0
 11
61.41628625003497
 21
-9.0
 12
60.4947187669232
 22
-16.0
 13
60.4947187669232
 23
-16.0
  0
MTEXT
  5
12F
100
AcDbEntity
  8
0
 62
             1
100
AcDbMText
 10
58.4947187669232
 20
-8.67753183164254
 30
0.0
 40
7.0
 41
0.0
 71
             7
 72
             1
  1
\C1;DN\C1;32
  7
CONVERTER_1
 11
0.0
 21
1.0
 31
0.0
  0
ENDBLK
  5
130
100
AcDbEntity
  8
0
100
AcDbBlockEnd
  0
BLOCK
  5
134
100
AcDbEntity
  8
0
100
AcDbBlockBegin
  2
*D9
 70
             1
 10
0.0
 20
0.0
 30
0.0
  3
*D9
  1

  0
LINE
  5
135
100
AcDbEntity
  8
0
  6
CONTINUOUS
 62
             4
100
AcDbLine
 10
44.0
 20
-37.5963327730862
 11
-43.99999999999091
 21
-37.5963327730862
  0
LINE
  5
136
100
AcDbEntity
  8
0
  6
CONTINUOUS
 62
             4
100
AcDbLine
 10
-43.99999999999091
 20
-22.62294788908002
 11
-43.99999999999091
 21
-39.5963327730862
  0
LINE
  5
137
100
AcDbEntity
  8
0
  6
CONTINUOUS
 62
             4
100
AcDbLine
 10
44.0
 20
-22.62294788908002
 11
44.0
 21
-39.5963327730862
  0
SOLID
  5
138
100
AcDbEntity
  8
0
 62
             4
100
AcDbTrace
 10
37.0
 20
-38.51790025619798
 11
37.0
 21
-36.67476528997443
 12
44.0
 22
-37.5963327730862
 13
44.0
 23
-37.5963327730862
  0
SOLID
  5
139
100
AcDbEntity
  8
0
 62
             4
100
AcDbTrace
 10
-36.99999999999091
 20
-36.67476528997443
 11
-36.99999999999091
 21
-38.51790025619798
 12
-43.99999999999091
 22
-37.5963327730862
 13
-43.99999999999091
 23
-37.5963327730862
  0
MTEXT
  5
13A
100
AcDbEntity
  8
0
 62
             1
100
AcDbMText
 10
-5.1633087337904
 20
-35.5963327730862
 30
0.0
 40
7.0
 41
0.0
 71
             7
 72
             1
  1
88
  7
CONVERTER_1
 11
0.99999999999706
 21
0.00000242406841
 31
0.0
  0
ENDBLK
  5
13B
100
AcDbEntity
  8
0
100
AcDbBlockEnd
  0
ENDSEC
  0
SECTION
  2
ENTITIES
  0
DIMENSION
  5
13D
100
AcDbEntity
  8
1
100
AcDbDimension
  2
*D9
 10
44.0
 20
-37.5963327730862
 11
0.0866912662096
 21
-32.0963327730862
 31
0.0
 53
0.00013888888889
  1
<>
  3
ME10_DIM_5
100
AcDbAlignedDimension
 13
-43.99999999999091
 23
-22.62294788908002
 14
44.0
 24
-22.62294788908002
100
AcDbRotatedDimension
  0
DIMENSION
  5
132
100
AcDbEntity
  8
1
100
AcDbDimension
  2
*D8
 10
60.4947187669232
 20
16.0
 11
54.9947187669232
 21
0.35246816835746
 31
0.0
 53
90.0
  1
<>
  3
ME10_DIM_4
100
AcDbAlignedDimension
 13
47.0
 23
-16.0
 14
47.0
 24
16.0
 50
90.0
100
AcDbRotatedDimension
  0
DIMENSION
  5
127
100
AcDbEntity
  8
1
100
AcDbDimension
  2
*D7
 10
-57.0
 20
16.0
 11
-62.5
 21
0.25050008194999
 31
0.0
 53
90.0
  1
<>
  3
ME10_DIM_3
100
AcDbAlignedDimension
 13
-47.0
 23
-16.0
 14
-47.0
 24
16.0
 50
90.0
100
AcDbRotatedDimension
  0
DIMENSION
  5
11C
100
AcDbEntity
  8
1
100
AcDbDimension
  2
*D6
 10
-69.00519702361791
 20
20.95000000000073
 11
-74.50519702361791
 21
-0.3326779339219
 31
0.0
 53
90.0
  1
5/4"
  3
ME10_DIM_2
100
AcDbAlignedDimension
 13
-47.49999999999091
 23
-20.94999999999891
 14
-47.49999999999091
 24
20.95000000000073
 50
90.0
100
AcDbRotatedDimension
  0
DIMENSION
  5
111
100
AcDbEntity
  8
1
100
AcDbDimension
  2
*D5
 10
73.8547146565204
 20
20.95000000000073
 11
68.3547146565204
 21
1.46580115915724
 31
0.0
 53
90.0
  1
5/4"
  3
ME10_DIM_1
100
AcDbAlignedDimension
 13
47.5
 23
-20.94999999999891
 14
47.5
 24
20.95000000000073
 50
90.0
100
AcDbRotatedDimension
  0
DIMENSION
  5
106
100
AcDbEntity
  8
1
100
AcDbDimension
  2
*D4
 10
-16.49999999999273
 20
47.3386430348041
 11
-0.19478806272244
 21
52.8386430348041
 31
0.0
 53
0.00013888888889
  1
1"
  3
ME10_DIM_0
100
AcDbAlignedDimension
 13
16.50000000000728
 23
36.0
 14
-16.49999999999272
 24
36.0
100
AcDbRotatedDimension
  0
INSERT
  5
2F
100
AcDbEntity
  8
1
100
AcDbBlockReference
  2
HL902_T-ST_CK_DN30__1
 10
-58.83436177705153
 20
75.49783194321208
  0
INSERT
  5
30
100
AcDbEntity
  8
1
100
AcDbBlockReference
  2
HL902_T-ST_CK_DN30__2
 10
-56.1566629729532
 20
-75.74367832427015
  0
INSERT
  5
31
100
AcDbEntity
  8
0
100
AcDbBlockReference
  2
MUTTER5_4__3
 10
95.78040191541913
 20
71.01879849455145
  0
INSERT
  5
32
100
AcDbEntity
  8
0
100
AcDbBlockReference
  2
MUTTER5_4__4
 10
-95.78040191541004
 20
71.01879849455145
  0
ENDSEC
  0
SECTION
  2
OBJECTS
  0
DICTIONARY
  5
19
100
AcDbDictionary
  3
ACAD_GROUP
350
1A
  3
ACAD_MLINESTYLE
350
1B
  0
DICTIONARY
  5
1A
102
{ACAD_REACTORS
330
19
102
}
100
AcDbDictionary
  0
DICTIONARY
  5
1B
102
{ACAD_REACTORS
330
19
102
}
100
AcDbDictionary
  3
STANDARD
350
1C
  0
MLINESTYLE
  5
1C
102
{ACAD_REACTORS
330
1B
102
}
100
AcDbMlineStyle
  2
STANDARD
 70
             0
  3

 62
             0
 51
90.0
 52
90.0
 71
             2
 49
0.5
 62
           256
  6
BYLAYER
 49
-0.5
 62
           256
  6
BYLAYER
  0
ENDSEC
  0
EOF
