  0
SECTION
  2
HEADER
  9
$ACADVER
  1
AC1014
  9
$ACADMAINTVER
 70
             0
  9
$DWGCODEPAGE
  3
ANSI_1252
  9
$INSBASE
 10
0.0
 20
0.0
 30
0.0
  9
$EXTMIN
 10
-29.0388124567222
 20
-302.05043021386382
 30
0.0
  9
$EXTMAX
 10
347.40038946733102
 20
64.51548650969319
 30
0.0
  9
$LIMMIN
 10
0.0
 20
0.0
  9
$LIMMAX
 10
0.0
 20
0.0
  9
$ORTHOMODE
 70
             0
  9
$REGENMODE
 70
             1
  9
$FILLMODE
 70
             1
  9
$QTEXTMODE
 70
             0
  9
$MIRRTEXT
 70
             1
  9
$DRAGMODE
 70
             2
  9
$LTSCALE
 40
1.0
  9
$OSMODE
 70
             0
  9
$ATTMODE
 70
             1
  9
$TEXTSIZE
 40
0.2
  9
$TRACEWID
 40
0.05
  9
$TEXTSTYLE
  7
STANDARD
  9
$CLAYER
  8
0
  9
$CELTYPE
  6
CONTINUOUS
  9
$CECOLOR
 62
           256
  9
$CELTSCALE
 40
1.0
  9
$DELOBJ
 70
             1
  9
$DISPSILH
 70
             0
  9
$DIMSCALE
 40
1.0
  9
$DIMASZ
 40
0.18
  9
$DIMEXO
 40
0.0625
  9
$DIMDLI
 40
0.38
  9
$DIMRND
 40
0.0
  9
$DIMDLE
 40
0.0
  9
$DIMEXE
 40
0.18
  9
$DIMTP
 40
0.0
  9
$DIMTM
 40
0.0
  9
$DIMTXT
 40
0.18
  9
$DIMCEN
 40
0.09
  9
$DIMTSZ
 40
0.0
  9
$DIMTOL
 70
             0
  9
$DIMLIM
 70
             0
  9
$DIMTIH
 70
             1
  9
$DIMTOH
 70
             1
  9
$DIMSE1
 70
             0
  9
$DIMSE2
 70
             0
  9
$DIMTAD
 70
             0
  9
$DIMZIN
 70
             0
  9
$DIMBLK
  1

  9
$DIMASO
 70
             1
  9
$DIMSHO
 70
             1
  9
$DIMPOST
  1

  9
$DIMAPOST
  1

  9
$DIMALT
 70
             0
  9
$DIMALTD
 70
             2
  9
$DIMALTF
 40
25.4
  9
$DIMLFAC
 40
1.0
  9
$DIMTOFL
 70
             0
  9
$DIMTVP
 40
0.0
  9
$DIMTIX
 70
             0
  9
$DIMSOXD
 70
             0
  9
$DIMSAH
 70
             0
  9
$DIMBLK1
  1

  9
$DIMBLK2
  1

  9
$DIMSTYLE
  2
STANDARD
  9
$DIMCLRD
 70
             0
  9
$DIMCLRE
 70
             0
  9
$DIMCLRT
 70
             0
  9
$DIMTFAC
 40
1.0
  9
$DIMGAP
 40
0.09
  9
$DIMJUST
 70
             0
  9
$DIMSD1
 70
             0
  9
$DIMSD2
 70
             0
  9
$DIMTOLJ
 70
             1
  9
$DIMTZIN
 70
             0
  9
$DIMALTZ
 70
             0
  9
$DIMALTTZ
 70
             0
  9
$DIMFIT
 70
             3
  9
$DIMUPT
 70
             0
  9
$DIMUNIT
 70
             2
  9
$DIMDEC
 70
             4
  9
$DIMTDEC
 70
             4
  9
$DIMALTU
 70
             2
  9
$DIMALTTD
 70
             2
  9
$DIMTXSTY
  7
STANDARD
  9
$DIMAUNIT
 70
             0
  9
$LUNITS
 70
             2
  9
$LUPREC
 70
             4
  9
$SKETCHINC
 40
0.1
  9
$FILLETRAD
 40
0.0
  9
$AUNITS
 70
             0
  9
$AUPREC
 70
             0
  9
$MENU
  1
acad
  9
$ELEVATION
 40
0.0
  9
$PELEVATION
 40
0.0
  9
$THICKNESS
 40
0.0
  9
$LIMCHECK
 70
             0
  9
$BLIPMODE
 70
             1
  9
$CHAMFERA
 40
0.0
  9
$CHAMFERB
 40
0.0
  9
$CHAMFERC
 40
0.0
  9
$CHAMFERD
 40
0.0
  9
$SKPOLY
 70
             0
  9
$TDCREATE
 40
0.000000000
  9
$TDUPDATE
 40
0.000000000
  9
$TDINDWG
 40
0.0000000000
  9
$TDUSRTIMER
 40
0.0000000000
  9
$USRTIMER
 70
             1
  9
$ANGBASE
 50
0.0
  9
$ANGDIR
 70
             0
  9
$PDMODE
 70
             0
  9
$PDSIZE
 40
0.0
  9
$PLINEWID
 40
0.0
  9
$COORDS
 70
             0
  9
$SPLFRAME
 70
             0
  9
$SPLINETYPE
 70
             6
  9
$SPLINESEGS
 70
             8
  9
$ATTDIA
 70
             0
  9
$ATTREQ
 70
             1
  9
$HANDLING
 70
             1
  9
$HANDSEED
  5
1DD
  9
$SURFTAB1
 70
             6
  9
$SURFTAB2
 70
             6
  9
$SURFTYPE
 70
             6
  9
$SURFU
 70
             6
  9
$SURFV
 70
             6
  9
$UCSNAME
  2

  9
$UCSORG
 10
0.0
 20
0.0
 30
0.0
  9
$UCSXDIR
 10
1.0
 20
0.0
 30
0.0
  9
$UCSYDIR
 10
0.0
 20
1.0
 30
0.0
  9
$PUCSNAME
  2

  9
$PUCSORG
 10
0.0
 20
0.0
 30
0.0
  9
$PUCSXDIR
 10
1.0
 20
0.0
 30
0.0
  9
$PUCSYDIR
 10
0.0
 20
1.0
 30
0.0
  9
$USERI1
 70
             0
  9
$USERI2
 70
             0
  9
$USERI3
 70
             0
  9
$USERI4
 70
             0
  9
$USERI5
 70
             0
  9
$USERR1
 40
12.01
  9
$USERR2
 40
0.0
  9
$USERR3
 40
0.0
  9
$USERR4
 40
0.0
  9
$USERR5
 40
0.0
  9
$WORLDVIEW
 70
             1
  9
$SHADEDGE
 70
             3
  9
$SHADEDIF
 70
            70
  9
$TILEMODE
 70
             1
  9
$MAXACTVP
 70
            16
  9
$PINSBASE
 10
0.0
 20
0.0
 30
0.0
  9
$PLIMCHECK
 70
             0
  9
$PEXTMIN
 10
1.00000000000000E+20
 20
1.00000000000000E+20
 30
1.00000000000000E+20
  9
$PEXTMAX
 10
-1.00000000000000E+20
 20
-1.00000000000000E+20
 30
-1.00000000000000E+20
  9
$PLIMMIN
 10
0.0
 20
0.0
  9
$PLIMMAX
 10
12.0
 20
9.0
  9
$UNITMODE
 70
             0
  9
$VISRETAIN
 70
             0
  9
$PLINEGEN
 70
             1
  9
$PSLTSCALE
 70
             0
  9
$TREEDEPTH
 70
          3020
  9
$PICKSTYLE
 70
             1
  9
$CMLSTYLE
  2
STANDARD
  9
$CMLJUST
 70
             0
  9
$CMLSCALE
 40
1.0
  9
$PROXYGRAPHICS
 70
             0
  9
$MEASUREMENT
 70
             1
  0
ENDSEC
  0
SECTION
  2
CLASSES
  0
CLASS
  1
LWPOLYLINE
  2
AcDbPolyline
  3
"AutoCAD"
 90
        0
280
             0
281
             1
  0
CLASS
  1
IMAGE
  2
AcDbRasterImage
  3
ISM
 90
      127
280
             0
281
             1
  0
CLASS
  1
OLE2FRAME
  2
AcDbOle2Frame
  3
""
 90
        0
280
             0
281
             1
  0
CLASS
  1
HATCH
  2
AcDbHatch
  3
"ACAD_SEDONA"
 90
        0
280
             0
281
             1
  0
CLASS
  1
DICTIONARYVAR
  2
AcDbDictionaryVar
  3
"AutoCAD"
 90
        0
280
             0
281
             0
  0
CLASS
  1
RASTERVARIABLES
  2
AcDbRasterVariables
  3
ISM
 90
        0
280
             0
281
             0
  0
CLASS
  1
IMAGEDEF
  2
AcDbRasterImageDef
  3
ISM
 90
        0
280
             0
281
             0
  0
CLASS
  1
IMAGEDEF_REACTOR
  2
AcDbRasterImageDefReactor
  3
ISM
 90
        1
280
             0
281
             0
  0
CLASS
  1
IDBUFFER
  2
AcDbIdBuffer
  3
"Acad"
 90
        0
280
             0
281
             0
  0
CLASS
  1
SPATIAL_FILTER
  2
AcDbSpatialFilter
  3
"Acad"
 90
        0
280
             0
281
             0
  0
CLASS
  1
XRECORD
  2
AcDbXrecord
  3
"<Built In>"
 90
        0
280
             0
281
             0
  0
CLASS
  1
SORTENTSTABLE
  2
AcDbSortentsTable
  3
"AutoCAD"
 90
        0
280
             0
281
             0
  0
CLASS
  1
LAYER_INDEX
  2
AcDbLayerIndex
  3
"Acad"
 90
        0
280
             0
281
             0
  0
CLASS
  1
SPATIAL_INDEX
  2
AcDbSpatialIndex
  3
"Acad"
 90
        0
280
             0
281
             0
  0
CLASS
  1
OBJECT_PTR
  2
CAseDLPNTableRecord
  3
"ASE-LPNTableRecord"
 90
        1
280
             0
281
             0
  0
CLASS
  1
LAYOUT
  2
AcDbLayout
  3
"AutoCAD 2000"
 90
        0
280
             0
281
             0
  0
CLASS
  1
PLOTSETTINGS
  2
AcDbPlotSettings
  3
"AutoCAD 2000"
 90
        0
280
             0
281
             0
  0
CLASS
  1
ACDBDICTIONARYWDFLT
  2
AcDbDictionaryWithDefault
  3
"AutoCAD 2000"
 90
        0
280
             0
281
             0
  0
CLASS
  1
ACDBPLACEHOLDER
  2
AcDbPlaceHolder
  3
"AutoCAD 2000"
 90
        0
280
             0
281
             0
  0
ENDSEC
  0
SECTION
  2
TABLES
  0
TABLE
  2
VPORT
  5
7
100
AcDbSymbolTable
 70
             1
  0
VPORT
  5
15
100
AcDbSymbolTableRecord
100
AcDbViewportTableRecord
  2
*ACTIVE
 70
             0
 10
0.0
 20
0.0
 11
1.0
 21
1.0
 12
159.18078850530441
 22
-118.76747185208532
 13
0.0
 23
0.0
 14
1.0
 24
1.0
 15
0.0
 25
0.0
 16
0.0
 26
0.0
 36
1.0
 17
0.0
 27
0.0
 37
0.0
 40
403.22250839591271
 41
1.60267857142857
 42
50.0
 43
0.0
 44
0.0
 50
0.0
 51
0.0
 71
             0
 72
           100
 73
             1
 74
             1
 75
             0
 76
             0
 77
             0
 78
             0
  0
ENDTAB
  0
TABLE
  2
LTYPE
  5
4
100
AcDbSymbolTable
 70
            10
  0
LTYPE
  5
11
100
AcDbSymbolTableRecord
100
AcDbLinetypeTableRecord
  2
BYBLOCK
 70
            64
  3

 72
            65
 73
             0
 40
0.0
  0
LTYPE
  5
12
100
AcDbSymbolTableRecord
100
AcDbLinetypeTableRecord
  2
BYLAYER
 70
            64
  3

 72
            65
 73
             0
 40
0.0
  0
LTYPE
  5
13
100
AcDbSymbolTableRecord
100
AcDbLinetypeTableRecord
  2
CONTINUOUS
 70
            64
  3
Solid line
 72
            65
 73
             0
 40
0.0
  0
LTYPE
  5
1D
100
AcDbSymbolTableRecord
100
AcDbLinetypeTableRecord
  2
DASHED
 70
            64
  3
Dashed
 72
            65
 73
             2
 40
15.0
 49
7.0
 74
             0
 49
-8.0
 74
             0
  0
LTYPE
  5
1E
100
AcDbSymbolTableRecord
100
AcDbLinetypeTableRecord
  2
DOTTED
 70
            64
  3
Dotted
 72
            65
 73
             2
 40
1.0
 49
0.0
 74
             0
 49
-1.0
 74
             0
  0
LTYPE
  5
1F
100
AcDbSymbolTableRecord
100
AcDbLinetypeTableRecord
  2
DOT_CENTER
 70
            64
  3
Dot_Center
 72
            65
 73
             4
 40
14.0
 49
12.0
 74
             0
 49
-1.0
 74
             0
 49
0.0
 74
             0
 49
-1.0
 74
             0
  0
LTYPE
  5
20
100
AcDbSymbolTableRecord
100
AcDbLinetypeTableRecord
  2
LONG_DASHED
 70
            64
  3
Long_Dashed
 72
            65
 73
             2
 40
15.0
 49
10.0
 74
             0
 49
-5.0
 74
             0
  0
LTYPE
  5
21
100
AcDbSymbolTableRecord
100
AcDbLinetypeTableRecord
  2
DASH_CENTER
 70
            64
  3
Dash_Center
 72
            65
 73
             4
 40
14.0
 49
11.0
 74
             0
 49
-1.0
 74
             0
 49
1.0
 74
             0
 49
-1.0
 74
             0
  0
LTYPE
  5
22
100
AcDbSymbolTableRecord
100
AcDbLinetypeTableRecord
  2
PHANTOM
 70
            64
  3
Phantom
 72
            65
 73
             6
 40
13.0
 49
10.0
 74
             0
 49
-1.0
 74
             0
 49
0.0
 74
             0
 49
-1.0
 74
             0
 49
0.0
 74
             0
 49
-1.0
 74
             0
  0
LTYPE
  5
23
100
AcDbSymbolTableRecord
100
AcDbLinetypeTableRecord
  2
CENTER_DASH_DASH
 70
            64
  3
Center_Dash_Dash
 72
            65
 73
             6
 40
14.0
 49
9.0
 74
             0
 49
-1.0
 74
             0
 49
1.0
 74
             0
 49
-1.0
 74
             0
 49
1.0
 74
             0
 49
-1.0
 74
             0
  0
ENDTAB
  0
TABLE
  2
LAYER
  5
2
100
AcDbSymbolTable
 70
             2
  0
LAYER
  5
14
100
AcDbSymbolTableRecord
100
AcDbLayerTableRecord
  2
0
 70
             0
 62
             7
  6
CONTINUOUS
  0
LAYER
  5
24
100
AcDbSymbolTableRecord
100
AcDbLayerTableRecord
  2
1
 70
             0
 62
             7
  6
CONTINUOUS
  0
ENDTAB
  0
TABLE
  2
STYLE
  5
3
100
AcDbSymbolTable
 70
             2
  0
STYLE
  5
17
100
AcDbSymbolTableRecord
100
AcDbTextStyleTableRecord
  2
STANDARD
 70
             0
 40
0.0
 41
1.0
 50
0.0
 71
             0
 42
0.0
  3
txt
  4

  0
STYLE
  5
190
100
AcDbSymbolTableRecord
100
AcDbTextStyleTableRecord
  2
CONVERTER_1
 70
             0
 40
0.0
 41
0.9
 50
0.0
 71
             0
 42
0.0
  3
txt.shx
  4

  0
ENDTAB
  0
TABLE
  2
VIEW
  5
5
100
AcDbSymbolTable
 70
             0
  0
ENDTAB
  0
TABLE
  2
UCS
  5
6
100
AcDbSymbolTable
 70
             0
  0
ENDTAB
  0
TABLE
  2
APPID
  5
8
100
AcDbSymbolTable
 70
             1
  0
APPID
  5
16
100
AcDbSymbolTableRecord
100
AcDbRegAppTableRecord
  2
ACAD
 70
             0
  0
ENDTAB
  0
TABLE
  2
DIMSTYLE
  5
9
100
AcDbSymbolTable
 70
             8
  0
DIMSTYLE
105
18
100
AcDbSymbolTableRecord
100
AcDbDimStyleTableRecord
  2
STANDARD
 70
             0
  3

  4

  5

  6

  7

 40
1.0
 41
0.18
 42
0.0625
 43
0.38
 44
0.18
 45
0.0
 46
0.0
 47
0.0
 48
0.0
 71
             0
 72
             0
 73
             1
 74
             1
 75
             0
 76
             0
 77
             0
 78
             0
140
0.18
141
0.09
142
0.0
143
25.4
144
1.0
145
0.0
146
1.0
147
0.09
170
             0
171
             2
172
             0
173
             0
174
             0
175
             0
176
             0
177
             0
178
             0
270
             2
271
             4
272
             4
273
             2
274
             2
275
             0
280
             0
281
             0
282
             0
283
             1
284
             0
285
             0
286
             0
287
             3
288
             0
340
17
  0
DIMSTYLE
105
193
100
AcDbSymbolTableRecord
100
AcDbDimStyleTableRecord
  2
ME10_DIM_0
 70
             0
  3

  4

  5

  6

  7

 40
1.0
 41
7.0
 42
0.0
 43
0.38
 44
2.0
 45
0.0
 46
0.0
 47
0.0
 48
0.0
 71
             0
 72
             0
 73
             0
 74
             0
 75
             0
 76
             0
 77
             1
 78
             8
140
7.0
141
0.09
142
0.0
143
25.4
144
1.0
145
0.0
146
1.0
147
0.625
170
             0
171
             2
172
             1
173
             1
174
             0
175
             0
176
             4
177
             4
178
             1
270
             2
271
             0
272
             4
273
             2
274
             2
275
             0
280
             0
281
             0
282
             0
283
             1
284
             0
285
             0
286
             0
287
             3
288
             0
340
190
  0
DIMSTYLE
105
19F
100
AcDbSymbolTableRecord
100
AcDbDimStyleTableRecord
  2
ME10_DIM_1
 70
             0
  3
DN<>
  4

  5

  6

  7

 40
1.0
 41
7.0
 42
0.0
 43
0.38
 44
2.0
 45
0.0
 46
0.0
 47
0.0
 48
0.0
 71
             0
 72
             0
 73
             0
 74
             0
 75
             0
 76
             0
 77
             1
 78
             8
140
7.0
141
0.09
142
0.0
143
25.4
144
1.0
145
0.0
146
1.0
147
0.625
170
             0
171
             2
172
             1
173
             1
174
             0
175
             0
176
             4
177
             4
178
             1
270
             2
271
             2
272
             4
273
             2
274
             2
275
             0
280
             0
281
             0
282
             0
283
             1
284
             0
285
             0
286
             0
287
             3
288
             0
340
190
  0
DIMSTYLE
105
1AB
100
AcDbSymbolTableRecord
100
AcDbDimStyleTableRecord
  2
ME10_DIM_2
 70
             0
  3

  4

  5

  6

  7

 40
1.0
 41
7.0
 42
0.0
 43
0.38
 44
2.0
 45
0.0
 46
0.0
 47
0.0
 48
0.0
 71
             0
 72
             0
 73
             0
 74
             0
 75
             0
 76
             0
 77
             1
 78
             8
140
7.0
141
0.09
142
0.0
143
25.4
144
1.0
145
0.0
146
1.0
147
0.625
170
             0
171
             2
172
             1
173
             1
174
             0
175
             0
176
             4
177
             4
178
             1
270
             2
271
             0
272
             4
273
             2
274
             2
275
             0
280
             0
281
             0
282
             0
283
             1
284
             0
285
             0
286
             0
287
             3
288
             0
340
190
  0
DIMSTYLE
105
1B7
100
AcDbSymbolTableRecord
100
AcDbDimStyleTableRecord
  2
ME10_DIM_3
 70
             0
  3

  4

  5

  6

  7

 40
1.0
 41
7.0
 42
0.0
 43
0.38
 44
2.0
 45
0.0
 46
0.0
 47
0.0
 48
0.0
 71
             0
 72
             0
 73
             0
 74
             0
 75
             0
 76
             0
 77
             1
 78
             8
140
7.0
141
0.09
142
0.0
143
25.4
144
1.0
145
0.0
146
1.0
147
0.625
170
             0
171
             2
172
             1
173
             1
174
             0
175
             0
176
             4
177
             4
178
             1
270
             2
271
             0
272
             4
273
             2
274
             2
275
             0
280
             0
281
             0
282
             0
283
             1
284
             0
285
             0
286
             0
287
             3
288
             0
340
190
  0
DIMSTYLE
105
1C3
100
AcDbSymbolTableRecord
100
AcDbDimStyleTableRecord
  2
ME10_DIM_4
 70
             0
  3

  4

  5

  6

  7

 40
1.0
 41
7.0
 42
0.0
 43
0.38
 44
2.0
 45
0.0
 46
0.0
 47
0.0
 48
0.0
 71
             0
 72
             0
 73
             0
 74
             0
 75
             0
 76
             0
 77
             1
 78
             8
140
7.0
141
0.09
142
0.0
143
25.4
144
1.0
145
0.0
146
1.0
147
0.625
170
             0
171
             2
172
             1
173
             1
174
             0
175
             0
176
             4
177
             4
178
             1
270
             2
271
             2
272
             4
273
             2
274
             2
275
             0
280
             0
281
             0
282
             0
283
             1
284
             0
285
             0
286
             0
287
             3
288
             0
340
190
  0
DIMSTYLE
105
1CF
100
AcDbSymbolTableRecord
100
AcDbDimStyleTableRecord
  2
ME10_DIM_5
 70
             0
  3
DN<>
  4

  5

  6

  7

 40
1.0
 41
7.0
 42
0.0
 43
0.38
 44
2.0
 45
0.0
 46
0.0
 47
0.0
 48
0.0
 71
             0
 72
             0
 73
             0
 74
             0
 75
             0
 76
             0
 77
             1
 78
             8
140
7.0
141
0.09
142
0.0
143
25.4
144
1.0
145
0.0
146
1.0
147
0.625
170
             0
171
             2
172
             1
173
             1
174
             0
175
             0
176
             4
177
             4
178
             1
270
             2
271
             2
272
             4
273
             2
274
             2
275
             0
280
             0
281
             0
282
             0
283
             1
284
             0
285
             0
286
             0
287
             3
288
             0
340
190
  0
DIMSTYLE
105
1DA
100
AcDbSymbolTableRecord
100
AcDbDimStyleTableRecord
  2
ME10_DIM_6
 70
             0
  3
0-<>
  4

  5

  6

  7

 40
1.0
 41
7.0
 42
0.0
 43
0.38
 44
2.0
 45
0.0
 46
0.0
 47
0.0
 48
0.0
 71
             0
 72
             0
 73
             0
 74
             0
 75
             0
 76
             0
 77
             1
 78
             8
140
7.0
141
0.09
142
0.0
143
25.4
144
1.0
145
0.0
146
1.0
147
0.625
170
             0
171
             2
172
             1
173
             1
174
             0
175
             0
176
             4
177
             4
178
             1
270
             2
271
             2
272
             4
273
             2
274
             2
275
             0
280
             0
281
             0
282
             0
283
             1
284
             0
285
             0
286
             0
287
             3
288
             0
340
190
  0
ENDTAB
  0
TABLE
  2
BLOCK_RECORD
  5
1
100
AcDbSymbolTable
 70
            16
  0
BLOCK_RECORD
  5
A
100
AcDbSymbolTableRecord
100
AcDbBlockTableRecord
  2
*MODEL_SPACE
  0
BLOCK_RECORD
  5
B
100
AcDbSymbolTableRecord
100
AcDbBlockTableRecord
  2
*PAPER_SPACE
  0
BLOCK_RECORD
  5
25
100
AcDbSymbolTableRecord
100
AcDbBlockTableRecord
  2
HL_100_KR_MMER
  0
BLOCK_RECORD
  5
27
100
AcDbSymbolTableRecord
100
AcDbBlockTableRecord
  2
HL_100_ABGANGSBOGEN_DN40
  0
BLOCK_RECORD
  5
29
100
AcDbSymbolTableRecord
100
AcDbBlockTableRecord
  2
HOLL_NDERMUTTER_2_
  0
BLOCK_RECORD
  5
2B
100
AcDbSymbolTableRecord
100
AcDbBlockTableRecord
  2
BGR_ERSATZTEIL
  0
BLOCK_RECORD
  5
30
100
AcDbSymbolTableRecord
100
AcDbBlockTableRecord
  2
HOLL_NDERMUTTER_6_4__1
  0
BLOCK_RECORD
  5
32
100
AcDbSymbolTableRecord
100
AcDbBlockTableRecord
  2
HL_13_TAUCHROHR
  0
BLOCK_RECORD
  5
34
100
AcDbSymbolTableRecord
100
AcDbBlockTableRecord
  2
HOLL_NDERMUTTER_6_4__2
  0
BLOCK_RECORD
  5
36
100
AcDbSymbolTableRecord
100
AcDbBlockTableRecord
  2
HL_13_TAUCHROHR_ARTIKEL
  0
BLOCK_RECORD
  5
38
100
AcDbSymbolTableRecord
100
AcDbBlockTableRecord
  2
HL_100
  0
BLOCK_RECORD
  5
189
100
AcDbSymbolTableRecord
100
AcDbBlockTableRecord
  2
*D9
  0
BLOCK_RECORD
  5
195
100
AcDbSymbolTableRecord
100
AcDbBlockTableRecord
  2
*D10
  0
BLOCK_RECORD
  5
1A1
100
AcDbSymbolTableRecord
100
AcDbBlockTableRecord
  2
*D11
  0
BLOCK_RECORD
  5
1AD
100
AcDbSymbolTableRecord
100
AcDbBlockTableRecord
  2
*D12
  0
BLOCK_RECORD
  5
1B9
100
AcDbSymbolTableRecord
100
AcDbBlockTableRecord
  2
*D13
  0
BLOCK_RECORD
  5
1C5
100
AcDbSymbolTableRecord
100
AcDbBlockTableRecord
  2
*D14
  0
BLOCK_RECORD
  5
1D1
100
AcDbSymbolTableRecord
100
AcDbBlockTableRecord
  2
*D15
  0
ENDTAB
  0
ENDSEC
  0
SECTION
  2
BLOCKS
  0
BLOCK
  5
D
100
AcDbEntity
  8
0
100
AcDbBlockBegin
  2
*MODEL_SPACE
 70
             0
 10
0.0
 20
0.0
 30
0.0
  3
*MODEL_SPACE
  1

  0
ENDBLK
  5
E
100
AcDbEntity
  8
0
100
AcDbBlockEnd
  0
BLOCK
  5
F
100
AcDbEntity
 67
             1
  8
0
100
AcDbBlockBegin
  2
*PAPER_SPACE
 70
             0
 10
0.0
 20
0.0
 30
0.0
  3
*PAPER_SPACE
  1

  0
ENDBLK
  5
10
100
AcDbEntity
 67
             1
  8
0
100
AcDbBlockEnd
  0
BLOCK
  5
26
100
AcDbEntity
  8
0
100
AcDbBlockBegin
  2
HL_100_KR_MMER
 70
             0
 10
529.96209174422006
 20
-216.55043021386379
 30
0.0
  3
HL_100_KR_MMER
  1

  0
ARC
  5
75
100
AcDbEntity
  8
1
  6
CONTINUOUS
 62
             7
100
AcDbCircle
 10
3.64999999999793
 20
-212.80043021386379
 40
0.75
100
AcDbArc
 50
180.0
 51
-90.0
  0
ARC
  5
74
100
AcDbEntity
  8
1
  6
CONTINUOUS
 62
             7
100
AcDbCircle
 10
-2.65000000000128
 20
-209.70043021386161
 40
0.75
100
AcDbArc
 50
-90.0
 51
0.0
  0
ARC
  5
73
100
AcDbEntity
  8
1
  6
CONTINUOUS
 62
             7
100
AcDbCircle
 10
-2.65000000000128
 20
-212.40043021386231
 40
0.75
100
AcDbArc
 50
0.0
 51
90.0
  0
ARC
  5
72
100
AcDbEntity
  8
1
  6
CONTINUOUS
 62
             7
100
AcDbCircle
 10
-4.15000000000128
 20
-212.40043021386231
 40
0.75
100
AcDbArc
 50
90.0
 51
180.0
  0
ARC
  5
71
100
AcDbEntity
  8
1
  6
CONTINUOUS
 62
             7
100
AcDbCircle
 10
-4.15000000000128
 20
-209.70043021386161
 40
0.75
100
AcDbArc
 50
180.0
 51
-90.0
  0
ARC
  5
70
100
AcDbEntity
  8
1
  6
CONTINUOUS
 62
             7
100
AcDbCircle
 10
6.14999999999793
 20
-214.30043021386379
 40
0.75
100
AcDbArc
 50
-90.0
 51
0.0
  0
ARC
  5
6F
100
AcDbEntity
  8
1
  6
CONTINUOUS
 62
             7
100
AcDbCircle
 10
6.14999999999793
 20
-214.30043021386379
 40
0.75
100
AcDbArc
 50
0.0
 51
90.0
  0
ARC
  5
6E
100
AcDbEntity
  8
1
  6
CONTINUOUS
 62
             7
100
AcDbCircle
 10
2.14999999999793
 20
-207.80043021386379
 40
0.75
100
AcDbArc
 50
0.0
 51
90.0
  0
ARC
  5
6D
100
AcDbEntity
  8
1
  6
CONTINUOUS
 62
             7
100
AcDbCircle
 10
2.14999999999793
 20
-207.80043021386379
 40
0.75
100
AcDbArc
 50
90.0
 51
180.0
  0
ARC
  5
6C
100
AcDbEntity
  8
1
  6
CONTINUOUS
 62
             7
100
AcDbCircle
 10
2.14999999999793
 20
-214.30043021386379
 40
0.75
100
AcDbArc
 50
180.0
 51
-90.0
  0
ARC
  5
6B
100
AcDbEntity
  8
1
  6
CONTINUOUS
 62
             7
100
AcDbCircle
 10
-5.65000000000128
 20
-207.80043021386379
 40
0.75
100
AcDbArc
 50
90.0
 51
180.0
  0
ARC
  5
6A
100
AcDbEntity
  8
1
  6
CONTINUOUS
 62
             7
100
AcDbCircle
 10
-5.65000000000128
 20
-207.80043021386379
 40
0.75
100
AcDbArc
 50
0.0
 51
90.0
  0
ARC
  5
69
100
AcDbEntity
  8
1
  6
CONTINUOUS
 62
             7
100
AcDbCircle
 10
-1.15000000000128
 20
-207.80043021386379
 40
0.75
100
AcDbArc
 50
90.0
 51
180.0
  0
ARC
  5
68
100
AcDbEntity
  8
1
  6
CONTINUOUS
 62
             7
100
AcDbCircle
 10
-1.15000000000128
 20
-207.80043021386379
 40
0.75
100
AcDbArc
 50
0.0
 51
90.0
  0
ARC
  5
67
100
AcDbEntity
  8
1
  6
CONTINUOUS
 62
             7
100
AcDbCircle
 10
-1.15000000000128
 20
-214.30043021386379
 40
0.75
100
AcDbArc
 50
-90.0
 51
0.0
  0
ARC
  5
66
100
AcDbEntity
  8
1
  6
CONTINUOUS
 62
             7
100
AcDbCircle
 10
-1.15000000000128
 20
-214.30043021386379
 40
0.75
100
AcDbArc
 50
180.0
 51
-90.0
  0
ARC
  5
65
100
AcDbEntity
  8
1
  6
CONTINUOUS
 62
             7
100
AcDbCircle
 10
-5.65000000000128
 20
-214.30043021386379
 40
0.75
100
AcDbArc
 50
-90.0
 51
0.0
  0
ARC
  5
64
100
AcDbEntity
  8
1
  6
CONTINUOUS
 62
             7
100
AcDbCircle
 10
-5.65000000000128
 20
-214.30043021386379
 40
0.75
100
AcDbArc
 50
180.0
 51
-90.0
  0
ARC
  5
63
100
AcDbEntity
  8
1
  6
CONTINUOUS
 62
             7
100
AcDbCircle
 10
40.0
 20
-226.85043021386389
 40
75.19999999999993
100
AcDbArc
 50
-90.0
 51
-31.92467306533292
  0
ARC
  5
62
100
AcDbEntity
  8
1
  6
CONTINUOUS
 62
             7
100
AcDbCircle
 10
40.0
 20
-226.85043021386389
 40
30.79999999999989
100
AcDbArc
 50
-125.30452499558541
 51
-44.03441705136086
  0
ARC
  5
61
100
AcDbEntity
  8
1
  6
CONTINUOUS
 62
             7
100
AcDbCircle
 10
89.89079430382854
 20
-241.75541742395771
 40
28.49999999999985
100
AcDbArc
 50
-175.78945668552026
 51
-166.80868156583909
  0
ARC
  5
60
100
AcDbEntity
  8
1
  6
CONTINUOUS
 62
             7
100
AcDbCircle
 10
40.0
 20
-226.85043021386389
 40
75.20000000000009
100
AcDbArc
 50
-145.80479992001204
 51
-90.0
  0
ARC
  5
5F
100
AcDbEntity
  8
1
  6
CONTINUOUS
 62
             7
100
AcDbCircle
 10
89.89079430382854
 20
-241.75541742395771
 40
28.49999999999998
100
AcDbArc
 50
-60.72913860663667
 51
-14.21054331447949
  0
ARC
  5
5E
100
AcDbEntity
  8
1
  6
PHANTOM
 62
             2
100
AcDbCircle
 10
40.0
 20
-226.85043021386389
 40
52.99999999999999
100
AcDbArc
 50
-139.88624277172323
 51
-17.591269301453
  0
LINE
  5
5D
100
AcDbEntity
  8
1
  6
CONTINUOUS
 62
             7
100
AcDbLine
 10
-22.19999999999999
 20
-203.5504302138639
 11
-22.2000000000001
 21
-269.11388960847569
  0
LINE
  5
5C
100
AcDbEntity
  8
1
  6
CONTINUOUS
 62
             7
100
AcDbLine
 10
22.19999999999993
 20
-203.5504302138639
 11
22.20000000000005
 21
-251.98606229264789
  0
LINE
  5
5B
100
AcDbEntity
  8
1
  6
CONTINUOUS
 62
             7
100
AcDbLine
 10
-22.2000000000001
 20
-269.11388960847569
 11
22.20000000000005
 21
-251.98606229264789
  0
LINE
  5
5A
100
AcDbEntity
  8
1
  6
CONTINUOUS
 62
             7
100
AcDbLine
 10
62.14280978591989
 20
-248.25921286922679
 11
103.8255525234441
 21
-266.61648162806722
  0
LINE
  5
59
100
AcDbEntity
  8
1
  6
PHANTOM
 62
             2
100
AcDbLine
 10
0.0
 20
-205.29684037537791
 11
0.0
 21
-262.12367502881642
  0
LINE
  5
58
100
AcDbEntity
  8
1
  6
CONTINUOUS
 62
             7
100
AcDbLine
 10
-4.15000000000128
 20
-210.45043021386161
 11
-2.65000000000128
 21
-210.45043021386161
  0
LINE
  5
57
100
AcDbEntity
  8
1
  6
CONTINUOUS
 62
             7
100
AcDbLine
 10
-1.90000000000128
 20
-209.70043021386161
 11
-1.90000000000128
 21
-207.80043021386379
  0
LINE
  5
56
100
AcDbEntity
  8
1
  6
CONTINUOUS
 62
             7
100
AcDbLine
 10
-2.65000000000128
 20
-211.65043021386231
 11
-4.15000000000128
 21
-211.65043021386231
  0
LINE
  5
55
100
AcDbEntity
  8
1
  6
CONTINUOUS
 62
             7
100
AcDbLine
 10
-4.90000000000128
 20
-212.40043021386231
 11
-4.90000000000128
 21
-214.30043021386379
  0
LINE
  5
54
100
AcDbEntity
  8
1
  6
CONTINUOUS
 62
             7
100
AcDbLine
 10
1.39999999999793
 20
-213.05043021386379
 11
1.39999999999793
 21
-207.80043021386379
  0
LINE
  5
53
100
AcDbEntity
  8
1
  6
CONTINUOUS
 62
             7
100
AcDbLine
 10
1.39999999999793
 20
-214.30043021386379
 11
1.39999999999793
 21
-213.05043021386379
  0
LINE
  5
52
100
AcDbEntity
  8
1
  6
CONTINUOUS
 62
             7
100
AcDbLine
 10
2.14999999999793
 20
-215.05043021386379
 11
6.14999999999793
 21
-215.05043021386379
  0
LINE
  5
51
100
AcDbEntity
  8
1
  6
CONTINUOUS
 62
             7
100
AcDbLine
 10
6.14999999999793
 20
-213.55043021386379
 11
3.64999999999793
 21
-213.55043021386379
  0
LINE
  5
50
100
AcDbEntity
  8
1
  6
CONTINUOUS
 62
             7
100
AcDbLine
 10
-6.40000000000128
 20
-214.30043021386379
 11
-6.40000000000128
 21
-207.80043021386379
  0
LINE
  5
4F
100
AcDbEntity
  8
1
  6
CONTINUOUS
 62
             7
100
AcDbLine
 10
-1.90000000000128
 20
-214.30043021386379
 11
-1.90000000000128
 21
-212.40043021386231
  0
LINE
  5
4E
100
AcDbEntity
  8
1
  6
CONTINUOUS
 62
             7
100
AcDbLine
 10
-0.40000000000128
 20
-207.80043021386379
 11
-0.40000000000128
 21
-214.30043021386379
  0
LINE
  5
4D
100
AcDbEntity
  8
1
  6
CONTINUOUS
 62
             7
100
AcDbLine
 10
-4.90000000000128
 20
-207.80043021386379
 11
-4.90000000000128
 21
-209.70043021386161
  0
LINE
  5
4C
100
AcDbEntity
  8
1
  6
CONTINUOUS
 62
             7
100
AcDbLine
 10
2.89999999999793
 20
-207.80043021386379
 11
2.89999999999793
 21
-212.80043021386379
  0
LINE
  5
4B
100
AcDbEntity
  8
1
  6
CONTINUOUS
 62
             7
100
AcDbLine
 10
23.59999999999991
 20
-201.29684037537771
 11
23.59999999999991
 21
-202.45043021386391
  0
LINE
  5
4A
100
AcDbEntity
  8
1
  6
CONTINUOUS
 62
             2
100
AcDbLine
 10
-22.50000000000011
 20
-201.29684037537771
 11
-22.50000000000011
 21
-203.5504302138639
  0
LINE
  5
49
100
AcDbEntity
  8
1
  6
CONTINUOUS
 62
             7
100
AcDbLine
 10
-22.50000000000011
 20
-203.5504302138639
 11
-23.60000000000008
 21
-202.45043021386391
  0
LINE
  5
48
100
AcDbEntity
  8
1
  6
CONTINUOUS
 62
             7
100
AcDbLine
 10
22.5
 20
-203.5504302138639
 11
23.59999999999991
 21
-202.45043021386391
  0
LINE
  5
47
100
AcDbEntity
  8
1
  6
CONTINUOUS
 62
             7
100
AcDbLine
 10
22.5
 20
-203.5504302138639
 11
22.19999999999993
 21
-203.5504302138639
  0
LINE
  5
46
100
AcDbEntity
  8
1
  6
CONTINUOUS
 62
             2
100
AcDbLine
 10
22.5
 20
-203.5504302138639
 11
22.5
 21
-201.29684037537771
  0
LINE
  5
45
100
AcDbEntity
  8
1
  6
CONTINUOUS
 62
             7
100
AcDbLine
 10
-22.19999999999999
 20
-203.5504302138639
 11
-22.50000000000011
 21
-203.5504302138639
  0
LINE
  5
44
100
AcDbEntity
  8
1
  6
CONTINUOUS
 62
             7
100
AcDbLine
 10
-23.60000000000008
 20
-202.45043021386391
 11
-23.60000000000008
 21
-201.29684037537771
  0
LINE
  5
43
100
AcDbEntity
  8
1
  6
CONTINUOUS
 62
             7
100
AcDbLine
 10
-23.60000000000008
 20
-202.45043021386391
 11
23.59999999999991
 21
-202.45043021386391
  0
LINE
  5
42
100
AcDbEntity
  8
1
  6
CONTINUOUS
 62
             7
100
AcDbLine
 10
-22.19999999999999
 20
-203.5504302138639
 11
22.19999999999993
 21
-203.5504302138639
  0
ENDBLK
  5
76
100
AcDbEntity
  8
0
100
AcDbBlockEnd
  0
BLOCK
  5
28
100
AcDbEntity
  8
0
100
AcDbBlockBegin
  2
HL_100_ABGANGSBOGEN_DN40
 70
             0
 10
619.88361966217008
 20
-205.95541742395781
 30
0.0
  3
HL_100_ABGANGSBOGEN_DN40
  1

  0
ARC
  5
86
100
AcDbEntity
  8
1
  6
CONTINUOUS
 62
             7
100
AcDbCircle
 10
109.5215279179501
 20
-191.9854174239577
 40
40.0
100
AcDbArc
 50
90.0
 51
180.0
  0
ARC
  5
85
100
AcDbEntity
  8
1
  6
CONTINUOUS
 62
             7
100
AcDbCircle
 10
111.82152791795011
 20
-193.4854174239577
 40
1.5
100
AcDbArc
 50
90.0
 51
180.0
  0
ARC
  5
84
100
AcDbEntity
  8
1
  6
CONTINUOUS
 62
             7
100
AcDbCircle
 10
89.92152791795003
 20
-240.75541742395771
 40
26.70000000000003
100
AcDbArc
 50
27.73805354764828
 51
40.1778993327533
  0
ARC
  5
83
100
AcDbEntity
  8
1
  6
CONTINUOUS
 62
             7
100
AcDbCircle
 10
89.92152791795003
 20
-240.75541742395771
 40
26.70000000000002
100
AcDbArc
 50
139.82210066724679
 51
142.26194645235196
  0
LINE
  5
82
100
AcDbEntity
  8
1
  6
CONTINUOUS
 62
             7
100
AcDbLine
 10
69.52152791794991
 20
-223.52956476001111
 11
69.52152791794991
 21
-191.9854174239577
  0
LINE
  5
81
100
AcDbEntity
  8
1
  6
CONTINUOUS
 62
             7
100
AcDbLine
 10
110.32152791795011
 20
-223.52956476001111
 11
110.32152791795011
 21
-193.4854174239577
  0
LINE
  5
80
100
AcDbEntity
  8
1
  6
CONTINUOUS
 62
             7
100
AcDbLine
 10
111.82152791795011
 20
-191.9854174239577
 11
306.42152791795002
 21
-191.9854174239577
  0
LINE
  5
7F
100
AcDbEntity
  8
1
  6
CONTINUOUS
 62
             7
100
AcDbLine
 10
109.5215279179501
 20
-151.9854174239577
 11
306.42152791795002
 21
-151.9854174239577
  0
LINE
  5
7E
100
AcDbEntity
  8
1
  6
CONTINUOUS
 62
             7
100
AcDbLine
 10
309.92152791795002
 20
-152.92323959746659
 11
309.92152791795002
 21
-191.04759525044881
  0
LINE
  5
7D
100
AcDbEntity
  8
1
  6
CONTINUOUS
 62
             7
100
AcDbLine
 10
306.42152791795002
 20
-191.9854174239577
 11
309.92152791795002
 21
-191.04759525044881
  0
LINE
  5
7C
100
AcDbEntity
  8
1
  6
CONTINUOUS
 62
             7
100
AcDbLine
 10
306.42152791795002
 20
-151.9854174239577
 11
309.92152791795002
 21
-152.92323959746659
  0
LINE
  5
7B
100
AcDbEntity
  8
1
  6
CONTINUOUS
 62
             7
100
AcDbLine
 10
306.42152791795002
 20
-191.9854174239577
 11
306.42152791795002
 21
-151.9854174239577
  0
LINE
  5
7A
100
AcDbEntity
  8
1
  6
CONTINUOUS
 62
             7
100
AcDbLine
 10
69.52152791794991
 20
-223.52956476001111
 11
110.32152791795011
 21
-223.52956476001111
  0
LINE
  5
79
100
AcDbEntity
  8
1
  6
CONTINUOUS
 62
             7
100
AcDbLine
 10
110.32152791795011
 20
-191.9854174239577
 11
95.9241298201158
 21
-177.5880193261234
  0
LINE
  5
78
100
AcDbEntity
  8
1
  6
PHANTOM
 62
             2
100
AcDbLine
 10
89.92152791795003
 20
-230.88477036255159
 11
89.92152791795003
 21
-166.52360399995831
  0
LINE
  5
77
100
AcDbEntity
  8
1
  6
PHANTOM
 62
             2
100
AcDbLine
 10
85.46563074103905
 20
-171.9854174239577
 11
312.84637482141778
 21
-171.9854174239577
  0
ENDBLK
  5
87
100
AcDbEntity
  8
0
100
AcDbBlockEnd
  0
BLOCK
  5
2A
100
AcDbEntity
  8
0
100
AcDbBlockBegin
  2
HOLL_NDERMUTTER_2_
 70
             0
 10
671.67306087483303
 20
-266.42937398338069
 30
0.0
  3
HOLL_NDERMUTTER_2_
  1

  0
SPLINE
  5
F6
100
AcDbEntity
  8
0
  6
CONTINUOUS
 62
             7
100
AcDbSpline
210
0.0
220
0.0
230
1.0
 70
             0
 71
             3
 72
            11
 73
             7
 74
             5
 42
0.00000000001
 43
0.00000000001
 44
0.00000000001
 40
22.415023762374819
 40
22.415023762374819
 40
22.415023762374819
 40
22.415023762374819
 40
22.9819699166062
 40
22.9819699166062
 40
22.9819699166062
 40
23.548916061135749
 40
23.548916061135749
 40
23.548916061135749
 40
23.548916061135749
 10
59.519471029104693
 20
-229.12209934847391
 30
0.0
 10
59.375094992224597
 20
-229.2426858623713
 30
0.0
 10
59.230052945529003
 20
-229.36383573312679
 30
0.0
 10
59.084346502536619
 20
-229.48554754025841
 30
0.0
 10
58.940394817560097
 20
-229.60579355929741
 30
0.0
 10
58.795365076904318
 20
-229.72694688708981
 30
0.0
 10
58.649242320127883
 20
-229.8490200718021
 30
0.0
 11
59.519471029104693
 21
-229.12209934847391
 31
0.0
 11
59.302407668112764
 21
-229.30340145940335
 31
0.0
 11
59.084346502536619
 21
-229.48554754025841
 31
0.0
 11
58.867608563257221
 21
-229.66659861890278
 31
0.0
 11
58.649242320127883
 21
-229.8490200718021
 31
0.0
  0
SPLINE
  5
F5
100
AcDbEntity
  8
0
  6
CONTINUOUS
 62
             7
100
AcDbSpline
210
0.0
220
0.0
230
1.0
 70
             0
 71
             3
 72
            11
 73
             7
 74
             5
 42
0.00000000001
 43
0.00000000001
 44
0.00000000001
 40
22.415023762374819
 40
22.415023762374819
 40
22.415023762374819
 40
22.415023762374819
 40
22.91972772573315
 40
22.91972772573315
 40
22.91972772573315
 40
23.424439041987451
 40
23.424439041987451
 40
23.424439041987451
 40
23.424439041987451
 10
116.6073008174445
 20
-234.11663728025121
 30
0.0
 10
116.6968221603569
 20
-234.25672665351601
 30
0.0
 10
116.78740111444471
 20
-234.39847962152359
 30
0.0
 10
116.8790589066318
 20
-234.54192968735779
 30
0.0
 10
116.9691884366523
 20
-234.68298792917841
 30
0.0
 10
117.0597678276759
 20
-234.82475859510981
 30
0.0
 10
117.1507979520659
 20
-234.9672429882277
 30
0.0
 11
116.6073008174445
 21
-234.11663728025121
 31
0.0
 11
116.74237869356014
 21
-234.328023224091
 31
0.0
 11
116.8790589066318
 21
-234.54192968735779
 31
0.0
 11
117.0145907064603
 21
-234.75405153105626
 31
0.0
 11
117.1507979520659
 21
-234.9672429882277
 31
0.0
  0
SPLINE
  5
F4
100
AcDbEntity
  8
0
  6
CONTINUOUS
 62
             7
100
AcDbSpline
210
0.0
220
0.0
230
1.0
 70
             0
 71
             3
 72
            11
 73
             7
 74
             5
 42
0.00000000001
 43
0.00000000001
 44
0.00000000001
 40
88.526044134201342
 40
88.526044134201342
 40
88.526044134201342
 40
88.526044134201342
 40
88.973664201906928
 40
88.973664201906928
 40
88.973664201906928
 40
89.421269210085399
 40
89.421269210085399
 40
89.421269210085399
 40
89.421269210085399
 10
104.1180516702623
 20
-233.82702543396019
 30
0.0
 10
104.0626467366878
 20
-233.6875472236504
 30
0.0
 10
104.0075617891016
 20
-233.54888339270281
 30
0.0
 10
103.9527944937622
 20
-233.4110280894931
 30
0.0
 10
103.8965781630441
 20
-233.26952540493559
 30
0.0
 10
103.84149295464979
 20
-233.13087932243931
 30
0.0
 10
103.7875242070714
 20
-232.99505215790879
 30
0.0
 11
104.1180516702623
 21
-233.82702543396019
 31
0.0
 11
104.03518396767409
 21
-233.61841817156412
 31
0.0
 11
103.9527944937622
 21
-233.4110280894931
 31
0.0
 11
103.86931650673939
 21
-233.20091180369076
 31
0.0
 11
103.7875242070714
 21
-232.99505215790879
 31
0.0
  0
SPLINE
  5
F3
100
AcDbEntity
  8
0
  6
CONTINUOUS
 62
             7
100
AcDbSpline
210
0.0
220
0.0
230
1.0
 70
             0
 71
             3
 72
            11
 73
             7
 74
             5
 42
0.00000000001
 43
0.00000000001
 44
0.00000000001
 40
22.415023762374819
 40
22.415023762374819
 40
22.415023762374819
 40
22.415023762374819
 40
22.821051999854941
 40
22.821051999854941
 40
22.821051999854941
 40
23.227101709105799
 40
23.227101709105799
 40
23.227101709105799
 40
23.227101709105799
 10
99.124481229804346
 20
-232.58708875986369
 30
0.0
 10
99.136030112766647
 20
-232.7219341838935
 30
0.0
 10
99.14757798659808
 20
-232.8567834258503
 30
0.0
 10
99.159124888877486
 20
-232.99163634237689
 30
0.0
 10
99.17067179140291
 20
-233.1264892617771
 30
0.0
 10
99.18221772109699
 20
-233.2613458409221
 30
0.0
 10
99.19376271635214
 20
-233.3962059745671
 30
0.0
 11
99.124481229804346
 21
-232.58708875986369
 31
0.0
 11
99.141803802097002
 21
-232.78935974143403
 31
0.0
 11
99.159124888877486
 21
-232.99163634237689
 31
0.0
 11
99.176444517841148
 21
-233.19391845313012
 31
0.0
 11
99.19376271635214
 21
-233.3962059745671
 31
0.0
  0
SPLINE
  5
F2
100
AcDbEntity
  8
0
  6
CONTINUOUS
 62
             7
100
AcDbSpline
210
0.0
220
0.0
230
1.0
 70
             0
 71
             3
 72
            11
 73
             7
 74
             5
 42
0.00000000001
 43
0.00000000001
 44
0.00000000001
 40
88.526044134201328
 40
88.526044134201328
 40
88.526044134201328
 40
88.526044134201328
 40
88.932093843452179
 40
88.932093843452179
 40
88.932093843452179
 40
89.338122080932308
 40
89.338122080932308
 40
89.338122080932308
 40
89.338122080932308
 10
82.180720720067356
 20
-231.9077576678018
 30
0.0
 10
82.2155085347881
 20
-231.7769511396377
 30
0.0
 10
82.25029666020599
 20
-231.64614824533319
 30
0.0
 10
82.28508510048097
 20
-231.51534915300689
 30
0.0
 10
82.319873542576929
 20
-231.38455005383429
 30
0.0
 10
82.354662303382824
 20
-231.25375474211279
 30
0.0
 10
82.38945139501196
 20
-231.1229633655513
 30
0.0
 11
82.180720720067356
 21
-231.9077576678018
 31
0.0
 11
82.232902675691321
 21
-231.71155062196516
 31
0.0
 11
82.28508510048097
 21
-231.51534915300689
 31
0.0
 11
82.337268004171534
 21
-231.31915336329996
 31
0.0
 11
82.38945139501196
 21
-231.1229633655513
 31
0.0
  0
SPLINE
  5
F1
100
AcDbEntity
  8
0
  6
CONTINUOUS
 62
             7
100
AcDbSpline
210
0.0
220
0.0
230
1.0
 70
             0
 71
             3
 72
            11
 73
             7
 74
             5
 42
0.00000000001
 43
0.00000000001
 44
0.00000000001
 40
22.415023762374819
 40
22.415023762374819
 40
22.415023762374819
 40
22.415023762374819
 40
22.862628770553311
 40
22.862628770553311
 40
22.862628770553311
 40
23.310248838258889
 40
23.310248838258889
 40
23.310248838258889
 40
23.310248838258889
 10
77.726408417744878
 20
-230.71499996750629
 30
0.0
 10
77.648024025887807
 20
-230.84206583343499
 30
0.0
 10
77.569684951768053
 20
-230.96906486926281
 30
0.0
 10
77.491415495596343
 20
-231.09595740589069
 30
0.0
 10
77.413534031460458
 20
-231.22222091944869
 30
0.0
 10
77.33520712369922
 20
-231.34921290232339
 30
0.0
 10
77.256431766157206
 20
-231.4769382084088
 30
0.0
 11
77.726408417744878
 21
-230.71499996750629
 31
0.0
 11
77.6088688557886
 21
-230.90554368518627
 31
0.0
 11
77.491415495596343
 21
-231.09595740589069
 31
0.0
 11
77.374258840904076
 21
-231.28589963495193
 31
0.0
 11
77.256431766157206
 21
-231.4769382084088
 31
0.0
  0
SPLINE
  5
F0
100
AcDbEntity
  8
0
  6
CONTINUOUS
 62
             7
100
AcDbSpline
210
0.0
220
0.0
230
1.0
 70
             0
 71
             3
 72
            11
 73
             7
 74
             5
 42
0.00000000001
 43
0.00000000001
 44
0.00000000001
 40
88.526044134201342
 40
88.526044134201342
 40
88.526044134201342
 40
88.526044134201342
 40
89.076085497806929
 40
89.076085497806929
 40
89.076085497806929
 40
89.626124958411154
 40
89.626124958411154
 40
89.626124958411154
 40
89.626124958411154
 10
59.559214138823897
 20
-229.92863229006591
 30
0.0
 10
59.697281771904613
 20
-229.8058045152103
 30
0.0
 10
59.834265402630308
 20
-229.68394779594371
 30
0.0
 10
59.970180841141307
 20
-229.56304800264829
 30
0.0
 10
60.108595898015658
 20
-229.43992474344819
 30
0.0
 10
60.2455823418411
 20
-229.31807926290651
 30
0.0
 10
60.381166542584879
 20
-229.19748793731819
 30
0.0
 11
59.559214138823897
 21
-229.92863229006591
 31
0.0
 11
59.765504562946241
 21
-229.74511715327205
 31
0.0
 11
59.970180841141307
 21
-229.56304800264829
 31
0.0
 11
60.176735262912047
 21
-229.37931849487873
 31
0.0
 11
60.381166542584879
 21
-229.19748793731819
 31
0.0
  0
SPLINE
  5
EF
100
AcDbEntity
  8
0
  6
CONTINUOUS
 62
             7
100
AcDbSpline
210
0.0
220
0.0
230
1.0
 70
             0
 71
             3
 72
            11
 73
             7
 74
             5
 42
0.00000000001
 43
0.00000000001
 44
0.00000000001
 40
22.415023762374819
 40
22.415023762374819
 40
22.415023762374819
 40
22.415023762374819
 40
22.91972772573315
 40
22.91972772573315
 40
22.91972772573315
 40
23.424439041987451
 40
23.424439041987451
 40
23.424439041987451
 40
23.424439041987451
 10
68.74868145998461
 20
-229.92955063447121
 30
0.0
 10
68.634947471295149
 20
-230.05332293905869
 30
0.0
 10
68.521112596709841
 20
-230.17721200582
 30
0.0
 10
68.407200735339629
 20
-230.30119159733329
 30
0.0
 10
68.29427341947131
 20
-230.42409962748599
 30
0.0
 10
68.180455960120739
 20
-230.54798309134361
 30
0.0
 10
68.065735136966268
 20
-230.67285644344861
 30
0.0
 11
68.74868145998461
 21
-229.92955063447121
 31
0.0
 11
68.578007799917401
 21
-230.11529338330507
 31
0.0
 11
68.407200735339629
 21
-230.30119159733329
 31
0.0
 11
68.237140501385255
 21
-230.48628702465882
 31
0.0
 11
68.065735136966268
 21
-230.67285644344861
 31
0.0
  0
SPLINE
  5
EE
100
AcDbEntity
  8
0
  6
CONTINUOUS
 62
             7
100
AcDbSpline
210
0.0
220
0.0
230
1.0
 70
             0
 71
             3
 72
            11
 73
             7
 74
             5
 42
0.00000000001
 43
0.00000000001
 44
0.00000000001
 40
88.526044134201342
 40
88.526044134201342
 40
88.526044134201342
 40
88.526044134201342
 40
88.973664201906928
 40
88.973664201906928
 40
88.973664201906928
 40
89.421269210085399
 40
89.421269210085399
 40
89.421269210085399
 40
89.421269210085399
 10
72.080052272180311
 20
-231.02406368457781
 30
0.0
 10
72.159156750262341
 20
-230.8958047468717
 30
0.0
 10
72.237480083312548
 20
-230.76881861200889
 30
0.0
 10
72.315036001619418
 20
-230.64308288205959
 30
0.0
 10
72.394412373747159
 20
-230.51439578366549
 30
0.0
 10
72.472736102515213
 20
-230.3874218072734
 30
0.0
 10
72.550028923765794
 20
-230.26212544367871
 30
0.0
 11
72.080052272180311
 21
-231.02406368457781
 31
0.0
 11
72.198124846815546
 21
-230.83262708040991
 31
0.0
 11
72.315036001619418
 21
-230.64308288205959
 31
0.0
 11
72.433313794271527
 21
-230.45133263731933
 31
0.0
 11
72.550028923765794
 21
-230.26212544367871
 31
0.0
  0
SPLINE
  5
ED
100
AcDbEntity
  8
0
  6
CONTINUOUS
 62
             7
100
AcDbSpline
210
0.0
220
0.0
230
1.0
 70
             0
 71
             3
 72
            11
 73
             7
 74
             5
 42
0.00000000001
 43
0.00000000001
 44
0.00000000001
 40
22.415023762374819
 40
22.415023762374819
 40
22.415023762374819
 40
22.415023762374819
 40
22.821051999854941
 40
22.821051999854941
 40
22.821051999854941
 40
23.227101709105789
 40
23.227101709105789
 40
23.227101709105789
 40
23.227101709105789
 10
88.27581296815346
 20
-231.63795327261951
 30
0.0
 10
88.241023875337063
 20
-231.7687446536444
 30
0.0
 10
88.20623511690745
 20
-231.89953995643179
 30
0.0
 10
88.171446673623436
 20
-232.0303390600715
 30
0.0
 10
88.136658232067489
 20
-232.16113815721491
 30
0.0
 10
88.10187010921176
 20
-232.291941041885
 30
0.0
 10
88.06708229320985
 20
-232.42274757486641
 30
0.0
 11
88.27581296815346
 21
-231.63795327261951
 31
0.0
 11
88.223629577313801
 21
-231.83414327036496
 31
0.0
 11
88.171446673623436
 21
-232.0303390600715
 31
0.0
 11
88.119264248833886
 21
-232.22654052902971
 31
0.0
 11
88.06708229320985
 21
-232.42274757486641
 31
0.0
  0
SPLINE
  5
EC
100
AcDbEntity
  8
0
  6
CONTINUOUS
 62
             7
100
AcDbSpline
210
0.0
220
0.0
230
1.0
 70
             0
 71
             3
 72
            11
 73
             7
 74
             5
 42
0.00000000001
 43
0.00000000001
 44
0.00000000001
 40
88.526044134201328
 40
88.526044134201328
 40
88.526044134201328
 40
88.526044134201328
 40
88.932093843452179
 40
88.932093843452179
 40
88.932093843452179
 40
89.338122080932308
 40
89.338122080932308
 40
89.338122080932308
 40
89.338122080932308
 10
93.307401143209617
 20
-232.88121606750261
 30
0.0
 10
93.295856148804873
 20
-232.74635594379049
 30
0.0
 10
93.28431021741018
 20
-232.6114993447801
 30
0.0
 10
93.27276331573502
 20
-232.47664643531229
 30
0.0
 10
93.261216413455699
 20
-232.3417935187862
 30
0.0
 10
93.249668539624267
 20
-232.2069442768283
 30
0.0
 10
93.238119656662306
 20
-232.07209885280281
 30
0.0
 11
93.307401143209617
 21
-232.88121606750261
 31
0.0
 11
93.290082944698725
 21
-232.6789285460658
 31
0.0
 11
93.27276331573502
 21
-232.47664643531229
 31
0.0
 11
93.255442228954649
 21
-232.27436983436982
 31
0.0
 11
93.238119656662306
 21
-232.07209885280281
 31
0.0
  0
SPLINE
  5
EB
100
AcDbEntity
  8
0
  6
CONTINUOUS
 62
             7
100
AcDbSpline
210
0.0
220
0.0
230
1.0
 70
             0
 71
             3
 72
            11
 73
             7
 74
             5
 42
0.00000000001
 43
0.00000000001
 44
0.00000000001
 40
22.415023762374808
 40
22.415023762374808
 40
22.415023762374808
 40
22.415023762374808
 40
22.8626287705533
 40
22.8626287705533
 40
22.8626287705533
 40
23.310248838258889
 40
23.310248838258889
 40
23.310248838258889
 40
23.310248838258889
 10
108.9639037010498
 20
-233.4479266817435
 30
0.0
 10
109.0182633822574
 20
-233.58473773804059
 30
0.0
 10
109.07334839023881
 20
-233.72338344723121
 30
0.0
 10
109.12917398773899
 20
-233.86390261332409
 30
0.0
 10
109.1840189204238
 20
-234.00195333826679
 30
0.0
 10
109.2391049296011
 20
-234.14061986678391
 30
0.0
 10
109.2944311642391
 20
-234.2798999577914
 30
0.0
 11
108.9639037010498
 21
-233.4479266817435
 31
0.0
 11
109.04598912578467
 21
-233.65452410636038
 31
0.0
 11
109.12917398773899
 21
-233.86390261332409
 31
0.0
 11
109.2116220877566
 21
-234.07144027328346
 31
0.0
 11
109.2944311642391
 21
-234.2798999577914
 31
0.0
  0
SPLINE
  5
EA
100
AcDbEntity
  8
0
  6
CONTINUOUS
 62
             7
100
AcDbSpline
210
0.0
220
0.0
230
1.0
 70
             0
 71
             3
 72
            11
 73
             7
 74
             5
 42
0.00000000001
 43
0.00000000001
 44
0.00000000001
 40
88.526044134201342
 40
88.526044134201342
 40
88.526044134201342
 40
88.526044134201342
 40
89.030755450455644
 40
89.030755450455644
 40
89.030755450455644
 40
89.535459413813967
 40
89.535459413813967
 40
89.535459413813967
 40
89.535459413813967
 10
113.3087482994532
 20
-234.6311071989204
 30
0.0
 10
113.2177055578689
 20
-234.48860305680961
 30
0.0
 10
113.12712633754479
 20
-234.34683266034349
 30
0.0
 10
113.0370092540189
 20
-234.2057938980505
 30
0.0
 10
112.94635773575681
 20
-234.06391871261999
 30
0.0
 10
112.8557653624022
 20
-233.92214455389069
 30
0.0
 10
112.7652511648341
 20
-233.78050149094781
 30
0.0
 11
113.3087482994532
 21
-234.6311071989204
 31
0.0
 11
113.17253165496416
 21
-234.41790103105379
 31
0.0
 11
113.0370092540189
 21
-234.2057938980505
 31
0.0
 11
112.90107871416622
 21
-233.99306064856628
 31
0.0
 11
112.7652511648341
 21
-233.78050149094781
 31
0.0
  0
SPLINE
  5
E9
100
AcDbEntity
  8
0
  6
CONTINUOUS
 62
             7
100
AcDbSpline
210
0.0
220
0.0
230
1.0
 70
             0
 71
             3
 72
            11
 73
             7
 74
             5
 42
0.00000000001
 43
0.00000000001
 44
0.00000000001
 40
22.415023762374808
 40
22.415023762374808
 40
22.415023762374808
 40
22.415023762374808
 40
22.96506322297904
 40
22.96506322297904
 40
22.96506322297904
 40
23.515104586584631
 40
23.515104586584631
 40
23.515104586584631
 40
23.515104586584631
 10
121.1327660822309
 20
-234.51256418810399
 30
0.0
 10
121.245349687578
 20
-234.65486702713699
 30
0.0
 10
121.359096751305
 20
-234.7986488441023
 30
0.0
 10
121.4740291482172
 20
-234.9439374927355
 30
0.0
 10
121.5869138008559
 20
-235.08663754140699
 30
0.0
 10
121.7006564547015
 20
-235.2304303364464
 30
0.0
 10
121.81526929759561
 20
-235.37533135230311
 30
0.0
 11
121.1327660822309
 21
-234.51256418810399
 31
0.0
 11
121.30251681838712
 21
-234.72713116181967
 31
0.0
 11
121.4740291482172
 21
-234.9439374927355
 31
0.0
 11
121.64400115156062
 21
-235.15880905982485
 31
0.0
 11
121.81526929759561
 21
-235.37533135230311
 31
0.0
  0
SPLINE
  5
E8
100
AcDbEntity
  8
0
  6
CONTINUOUS
 62
             7
100
AcDbSpline
210
0.0
220
0.0
230
1.0
 70
             0
 71
             3
 72
            11
 73
             7
 74
             5
 42
0.00000000001
 43
0.00000000001
 44
0.00000000001
 40
22.415023762374808
 40
22.415023762374808
 40
22.415023762374808
 40
22.415023762374808
 40
22.96506322297904
 40
22.96506322297904
 40
22.96506322297904
 40
23.515104586584631
 40
23.515104586584631
 40
23.515104586584631
 40
23.515104586584631
 10
62.425478463114473
 20
-229.3763420550755
 30
0.0
 10
62.288761106539482
 20
-229.4979412323386
 30
0.0
 10
62.151759571238472
 20
-229.61980025262039
 30
0.0
 10
62.014492761671022
 20
-229.7419021204056
 30
0.0
 10
61.8781407635704
 20
-229.8631902431263
 30
0.0
 10
61.741151662085258
 20
-229.98505187215761
 30
0.0
 10
61.603526059353612
 20
-230.1074864078231
 30
0.0
 11
62.425478463114473
 21
-229.3763420550755
 31
0.0
 11
62.22019165726492
 21
-229.55893357879478
 31
0.0
 11
62.014492761671022
 21
-229.7419021204056
 31
0.0
 11
61.809487012248958
 21
-229.92426435926006
 31
0.0
 11
61.603526059353612
 21
-230.1074864078231
 31
0.0
  0
SPLINE
  5
E7
100
AcDbEntity
  8
0
  6
CONTINUOUS
 62
             7
100
AcDbSpline
210
0.0
220
0.0
230
1.0
 70
             0
 71
             3
 72
            11
 73
             7
 74
             5
 42
0.00000000001
 43
0.00000000001
 44
0.00000000001
 40
88.526044134201342
 40
88.526044134201342
 40
88.526044134201342
 40
88.526044134201342
 40
89.076085497806929
 40
89.076085497806929
 40
89.076085497806929
 40
89.62612495841114
 40
89.62612495841114
 40
89.62612495841114
 40
89.62612495841114
 10
119.7709573770659
 20
-235.1964772345458
 30
0.0
 10
119.6563166146673
 20
-235.05154092103399
 30
0.0
 10
119.54257426523731
 20
-234.90774851478969
 30
0.0
 10
119.4297172276875
 20
-234.76508337497819
 30
0.0
 10
119.3157383865945
 20
-234.6210001378746
 30
0.0
 10
119.20197881272119
 20
-234.47720236738721
 30
0.0
 10
119.08845416170109
 20
-234.33371007034671
 30
0.0
 11
119.7709573770659
 21
-235.1964772345458
 31
0.0
 11
119.5996684055584
 21
-234.97992861462438
 31
0.0
 11
119.4297172276875
 21
-234.76508337497819
 31
0.0
 11
119.25891537341695
 21
-234.54917512013881
 31
0.0
 11
119.08845416170109
 21
-234.33371007034671
 31
0.0
  0
SPLINE
  5
E6
100
AcDbEntity
  8
0
  6
CONTINUOUS
 62
             7
100
AcDbSpline
210
0.0
220
0.0
230
1.0
 70
             0
 71
             3
 72
            11
 73
             7
 74
             5
 42
0.00000000001
 43
0.00000000001
 44
0.00000000001
 40
88.526044134201342
 40
88.526044134201342
 40
88.526044134201342
 40
88.526044134201342
 40
89.030755450455644
 40
89.030755450455644
 40
89.030755450455644
 40
89.535459413813967
 40
89.535459413813967
 40
89.535459413813967
 40
89.535459413813967
 10
64.223685484353496
 20
-230.33672065414129
 30
0.0
 10
64.338508226060526
 20
-230.21173636392621
 30
0.0
 10
64.452324632339469
 20
-230.08785405802939
 30
0.0
 10
64.565151082726743
 20
-229.96505580802599
 30
0.0
 10
64.678438608514057
 20
-229.84175573196981
 30
0.0
 10
64.792285395560498
 20
-229.71785362616771
 30
0.0
 10
64.906631807371923
 20
-229.59341484516369
 30
0.0
 11
64.223685484353496
 21
-230.33672065414129
 31
0.0
 11
64.395166892785028
 21
-230.15006846600426
 31
0.0
 11
64.565151082726743
 21
-229.96505580802599
 31
0.0
 11
64.735494362790277
 21
-229.77966234095021
 31
0.0
 11
64.906631807371923
 21
-229.59341484516369
 31
0.0
  0
SPLINE
  5
E5
100
AcDbEntity
  8
0
  6
CONTINUOUS
 62
             7
100
AcDbSpline
210
0.0
220
0.0
230
1.0
 70
             0
 71
             3
 72
            11
 73
             7
 74
             5
 42
0.00000000001
 43
0.00000000001
 44
0.00000000001
 40
88.526044134201328
 40
88.526044134201328
 40
88.526044134201328
 40
88.526044134201328
 40
89.092990278730866
 40
89.092990278730866
 40
89.092990278730866
 40
89.659936432962255
 40
89.659936432962255
 40
89.659936432962255
 40
89.659936432962255
 10
122.7252411162917
 20
-235.454943570567
 30
0.0
 10
122.60258100154179
 20
-235.30940430358879
 30
0.0
 10
122.48079213444839
 20
-235.16490680748541
 30
0.0
 10
122.35986348682179
 20
-235.02143795512541
 30
0.0
 10
122.236869715935
 20
-234.8755190558164
 30
0.0
 10
122.1150760601506
 20
-234.73103232844969
 30
0.0
 10
121.9944615957148
 20
-234.58795277694489
 30
0.0
 11
122.7252411162917
 21
-235.454943570567
 31
0.0
 11
122.54190300138551
 21
-235.2374143573644
 31
0.0
 11
122.35986348682179
 21
-235.02143795512541
 31
0.0
 11
122.17627030134913
 21
-234.80363061060848
 31
0.0
 11
121.9944615957148
 21
-234.58795277694489
 31
0.0
  0
ARC
  5
E4
100
AcDbEntity
  8
0
  6
CONTINUOUS
 62
             7
100
AcDbCircle
 10
62.12878729599004
 20
-226.3389254287537
 40
2.49999999999984
100
AcDbArc
 50
84.99999999999727
 51
175.00000000000048
  0
ARC
  5
E3
100
AcDbEntity
  8
0
  6
CONTINUOUS
 62
             7
100
AcDbCircle
 10
119.9080797853114
 20
-231.39395850811789
 40
2.49999999999994
100
AcDbArc
 50
-4.99999999999926
 51
84.99999999999874
  0
LINE
  5
E2
100
AcDbEntity
  8
1
  6
PHANTOM
 62
             2
100
AcDbLine
 10
91.40598053644179
 20
-224.43675953676609
 11
89.27692883350765
 21
-248.7719318565872
  0
LINE
  5
E1
100
AcDbEntity
  8
0
  6
CONTINUOUS
 62
             7
100
AcDbLine
 10
123.625295005929
 20
-246.27456034418651
 11
123.3638277776861
 21
-249.26314443846169
  0
LINE
  5
E0
100
AcDbEntity
  8
0
  6
CONTINUOUS
 62
             7
100
AcDbLine
 10
121.9317640191732
 20
-246.1263955815156
 11
123.625295005929
 21
-246.27456034418651
  0
LINE
  5
DF
100
AcDbEntity
  8
0
  6
CONTINUOUS
 62
             7
100
AcDbLine
 10
57.57758652244638
 20
-240.4961346000168
 11
57.71667587272793
 21
-240.50830334138359
  0
LINE
  5
DE
100
AcDbEntity
  8
0
  6
CONTINUOUS
 62
             7
100
AcDbLine
 10
55.88405553569044
 20
-240.34796983734589
 11
57.57758652244638
 21
-240.4961346000168
  0
LINE
  5
DD
100
AcDbEntity
  8
0
  6
CONTINUOUS
 62
             7
100
AcDbLine
 10
57.71667587272793
 20
-240.50830334138359
 11
58.5171799875028
 21
-240.57833837653229
  0
LINE
  5
DC
100
AcDbEntity
  8
0
  6
CONTINUOUS
 62
             7
100
AcDbLine
 10
58.64924232012788
 20
-229.8490200718021
 11
58.51015296984633
 21
-229.83685133043531
  0
LINE
  5
DB
100
AcDbEntity
  8
0
  6
CONTINUOUS
 62
             7
100
AcDbLine
 10
59.37683332251777
 20
-229.10962016615991
 11
58.51015296984633
 21
-229.83685133043531
  0
LINE
  5
DA
100
AcDbEntity
  8
0
  6
CONTINUOUS
 62
             7
100
AcDbLine
 10
58.64924232012788
 20
-229.8490200718021
 11
57.71667587272793
 21
-240.50830334138359
  0
LINE
  5
D9
100
AcDbEntity
  8
0
  6
CONTINUOUS
 62
             7
100
AcDbLine
 10
58.51015296984633
 20
-229.83685133043531
 11
57.57758652244638
 21
-240.4961346000168
  0
LINE
  5
D8
100
AcDbEntity
  8
0
  6
CONTINUOUS
 62
             7
100
AcDbLine
 10
118.08616312010309
 20
-245.78994909840179
 11
118.83839092966591
 21
-245.8557605041276
  0
LINE
  5
D7
100
AcDbEntity
  8
0
  6
CONTINUOUS
 62
             7
100
AcDbLine
 10
118.83839092966591
 20
-245.8557605041276
 11
120.8827028501955
 21
-246.03461462188471
  0
LINE
  5
D6
100
AcDbEntity
  8
0
  6
CONTINUOUS
 62
             7
100
AcDbLine
 10
111.762960123236
 20
-245.23674051900289
 11
112.37618185205309
 21
-245.2903904685021
  0
LINE
  5
D5
100
AcDbEntity
  8
0
  6
CONTINUOUS
 62
             7
100
AcDbLine
 10
112.37618185205309
 20
-245.2903904685021
 11
116.21823150466589
 21
-245.62652625780939
  0
LINE
  5
D4
100
AcDbEntity
  8
0
  6
CONTINUOUS
 62
             7
100
AcDbLine
 10
102.78523316547491
 20
-244.45129118596759
 11
103.1854852228623
 21
-244.48630870354191
  0
LINE
  5
D3
100
AcDbEntity
  8
0
  6
CONTINUOUS
 62
             7
100
AcDbLine
 10
103.1854852228623
 20
-244.48630870354191
 11
108.36186471683919
 21
-244.93918322737301
  0
LINE
  5
D2
100
AcDbEntity
  8
0
  6
CONTINUOUS
 62
             7
100
AcDbLine
 10
92.23582861506417
 20
-243.528337880858
 11
92.37483469580967
 21
-243.54049933708421
  0
LINE
  5
D1
100
AcDbEntity
  8
0
  6
CONTINUOUS
 62
             7
100
AcDbLine
 10
92.37483469580967
 20
-243.54049933708421
 11
98.26119626895219
 21
-244.05548924414879
  0
LINE
  5
D0
100
AcDbEntity
  8
0
  6
CONTINUOUS
 62
             7
100
AcDbLine
 10
76.7241173761448
 20
-242.17123899556469
 11
81.24815427266729
 21
-242.5670409373835
  0
LINE
  5
CF
100
AcDbEntity
  8
0
  6
CONTINUOUS
 62
             7
100
AcDbLine
 10
81.24815427266729
 20
-242.5670409373835
 11
87.1345158458099
 21
-243.08203084444801
  0
LINE
  5
CE
100
AcDbEntity
  8
0
  6
CONTINUOUS
 62
             7
100
AcDbLine
 10
67.74639041838348
 20
-241.38578966252959
 11
71.14748582478036
 21
-241.6833469541593
  0
LINE
  5
CD
100
AcDbEntity
  8
0
  6
CONTINUOUS
 62
             7
100
AcDbLine
 10
71.14748582478036
 20
-241.6833469541593
 11
76.32386531875726
 21
-242.13622147799049
  0
LINE
  5
CC
100
AcDbEntity
  8
0
  6
CONTINUOUS
 62
             7
100
AcDbLine
 10
63.29111903695355
 20
-240.9960039237229
 11
67.13316868956632
 21
-241.33213971303039
  0
LINE
  5
CB
100
AcDbEntity
  8
0
  6
CONTINUOUS
 62
             7
100
AcDbLine
 10
58.5171799875028
 20
-240.57833837653229
 11
58.62664769142395
 21
-240.58791555964751
  0
LINE
  5
CA
100
AcDbEntity
  8
0
  6
CONTINUOUS
 62
             7
100
AcDbLine
 10
61.42318742151633
 20
-240.83258108313049
 11
63.29111903695355
 21
-240.9960039237229
  0
LINE
  5
C9
100
AcDbEntity
  8
0
  6
CONTINUOUS
 62
             7
100
AcDbLine
 10
108.36186471683919
 20
-244.93918322737301
 11
111.762960123236
 21
-245.23674051900289
  0
LINE
  5
C8
100
AcDbEntity
  8
0
  6
CONTINUOUS
 62
             7
100
AcDbLine
 10
98.26119626895219
 20
-244.05548924414879
 11
102.78523316547491
 21
-244.45129118596759
  0
LINE
  5
C7
100
AcDbEntity
  8
0
  6
CONTINUOUS
 62
             7
100
AcDbLine
 10
116.21823150466589
 20
-245.62652625780939
 11
118.08616312010309
 21
-245.78994909840179
  0
LINE
  5
C6
100
AcDbEntity
  8
0
  6
CONTINUOUS
 62
             7
100
AcDbLine
 10
87.2735219265554
 20
-243.09419230067439
 11
92.23582861506417
 21
-243.528337880858
  0
LINE
  5
C5
100
AcDbEntity
  8
0
  6
CONTINUOUS
 62
             7
100
AcDbLine
 10
87.1345158458099
 20
-243.08203084444801
 11
87.2735219265554
 21
-243.09419230067439
  0
LINE
  5
C4
100
AcDbEntity
  8
0
  6
CONTINUOUS
 62
             7
100
AcDbLine
 10
120.8827028501955
 20
-246.03461462188471
 11
120.9921705541167
 21
-246.04419180500011
  0
LINE
  5
C3
100
AcDbEntity
  8
0
  6
CONTINUOUS
 62
             7
100
AcDbLine
 10
76.32386531875726
 20
-242.13622147799049
 11
76.7241173761448
 21
-242.17123899556469
  0
LINE
  5
C2
100
AcDbEntity
  8
0
  6
CONTINUOUS
 62
             7
100
AcDbLine
 10
60.67095961195366
 20
-240.7667696774048
 11
61.42318742151633
 21
-240.83258108313049
  0
LINE
  5
C1
100
AcDbEntity
  8
0
  6
CONTINUOUS
 62
             7
100
AcDbLine
 10
67.13316868956632
 20
-241.33213971303039
 11
67.74639041838348
 21
-241.38578966252959
  0
LINE
  5
C0
100
AcDbEntity
  8
0
  6
CONTINUOUS
 62
             7
100
AcDbLine
 10
58.62664769142395
 20
-240.58791555964751
 11
60.67095961195366
 21
-240.7667696774048
  0
LINE
  5
BF
100
AcDbEntity
  8
0
  6
CONTINUOUS
 62
             7
100
AcDbLine
 10
119.7709573770659
 20
-235.1964772345458
 11
118.83839092966591
 21
-245.8557605041276
  0
LINE
  5
BE
100
AcDbEntity
  8
0
  6
CONTINUOUS
 62
             7
100
AcDbLine
 10
121.81526929759561
 20
-235.37533135230311
 11
120.8827028501955
 21
-246.03461462188471
  0
LINE
  5
BD
100
AcDbEntity
  8
0
  6
CONTINUOUS
 62
             7
100
AcDbLine
 10
113.3087482994532
 20
-234.6311071989204
 11
112.37618185205309
 21
-245.2903904685021
  0
LINE
  5
BC
100
AcDbEntity
  8
0
  6
CONTINUOUS
 62
             7
100
AcDbLine
 10
117.1507979520659
 20
-234.9672429882277
 11
116.21823150466589
 21
-245.62652625780939
  0
LINE
  5
BB
100
AcDbEntity
  8
0
  6
CONTINUOUS
 62
             7
100
AcDbLine
 10
104.1180516702623
 20
-233.82702543396019
 11
103.1854852228623
 21
-244.48630870354191
  0
LINE
  5
BA
100
AcDbEntity
  8
0
  6
CONTINUOUS
 62
             7
100
AcDbLine
 10
109.2944311642391
 20
-234.2798999577914
 11
108.36186471683919
 21
-244.93918322737301
  0
LINE
  5
B9
100
AcDbEntity
  8
0
  6
CONTINUOUS
 62
             7
100
AcDbLine
 10
93.30740114320962
 20
-232.88121606750261
 11
92.37483469580967
 21
-243.54049933708421
  0
LINE
  5
B8
100
AcDbEntity
  8
0
  6
CONTINUOUS
 62
             7
100
AcDbLine
 10
99.19376271635214
 20
-233.3962059745671
 11
98.26119626895219
 21
-244.05548924414879
  0
LINE
  5
B7
100
AcDbEntity
  8
0
  6
CONTINUOUS
 62
             7
100
AcDbLine
 10
82.18072072006736
 20
-231.9077576678018
 11
81.24815427266729
 21
-242.5670409373835
  0
LINE
  5
B6
100
AcDbEntity
  8
0
  6
CONTINUOUS
 62
             7
100
AcDbLine
 10
88.06708229320985
 20
-232.42274757486641
 11
87.1345158458099
 21
-243.08203084444801
  0
LINE
  5
B5
100
AcDbEntity
  8
0
  6
CONTINUOUS
 62
             7
100
AcDbLine
 10
72.08005227218031
 20
-231.02406368457781
 11
71.14748582478036
 21
-241.6833469541593
  0
LINE
  5
B4
100
AcDbEntity
  8
0
  6
CONTINUOUS
 62
             7
100
AcDbLine
 10
77.25643176615721
 20
-231.4769382084088
 11
76.32386531875726
 21
-242.13622147799049
  0
LINE
  5
B3
100
AcDbEntity
  8
0
  6
CONTINUOUS
 62
             7
100
AcDbLine
 10
77.72640841774488
 20
-230.71499996750629
 11
72.55002892376579
 21
-230.26212544367871
  0
LINE
  5
B2
100
AcDbEntity
  8
0
  6
CONTINUOUS
 62
             7
100
AcDbLine
 10
62.42547846311447
 20
-229.3763420550755
 11
60.38116654258488
 21
-229.19748793731819
  0
LINE
  5
B1
100
AcDbEntity
  8
0
  6
CONTINUOUS
 62
             7
100
AcDbLine
 10
88.27581296815346
 20
-231.63795327261951
 11
82.38945139501196
 21
-231.1229633655513
  0
LINE
  5
B0
100
AcDbEntity
  8
0
  6
CONTINUOUS
 62
             7
100
AcDbLine
 10
59.51947102910469
 20
-229.12209934847391
 11
59.37683332251777
 21
-229.10962016615991
  0
LINE
  5
AF
100
AcDbEntity
  8
0
  6
CONTINUOUS
 62
             7
100
AcDbLine
 10
59.63830055076085
 20
-226.12103607188459
 11
59.37683332251777
 21
-229.10962016615991
  0
LINE
  5
AE
100
AcDbEntity
  8
0
  6
CONTINUOUS
 62
             7
100
AcDbLine
 10
122.39856653054071
 20
-231.611847864987
 11
59.63830055076085
 21
-226.12103607188459
  0
LINE
  5
AD
100
AcDbEntity
  8
0
  6
CONTINUOUS
 62
             7
100
AcDbLine
 10
122.39856653054071
 20
-231.611847864987
 11
122.1370993022979
 21
-234.60043195926229
  0
LINE
  5
AC
100
AcDbEntity
  8
0
  6
CONTINUOUS
 62
             7
100
AcDbLine
 10
122.1370993022979
 20
-234.60043195926229
 11
121.9944615957148
 21
-234.58795277694489
  0
LINE
  5
AB
100
AcDbEntity
  8
0
  6
CONTINUOUS
 62
             7
100
AcDbLine
 10
99.12448122980435
 20
-232.58708875986369
 11
93.23811965666231
 21
-232.07209885280281
  0
LINE
  5
AA
100
AcDbEntity
  8
0
  6
CONTINUOUS
 62
             7
100
AcDbLine
 10
121.1327660822309
 20
-234.51256418810399
 11
119.08845416170109
 21
-234.33371007034671
  0
LINE
  5
A9
100
AcDbEntity
  8
0
  6
CONTINUOUS
 62
             7
100
AcDbLine
 10
108.9639037010498
 20
-233.4479266817435
 11
103.7875242070714
 21
-232.99505215790879
  0
LINE
  5
A8
100
AcDbEntity
  8
0
  6
CONTINUOUS
 62
             7
100
AcDbLine
 10
116.6073008174445
 20
-234.11663728025121
 11
112.7652511648341
 21
-233.78050149094781
  0
LINE
  5
A7
100
AcDbEntity
  8
0
  6
CONTINUOUS
 62
             7
100
AcDbLine
 10
121.81526929759561
 20
-235.37533135230311
 11
119.7709573770659
 21
-235.1964772345458
  0
LINE
  5
A6
100
AcDbEntity
  8
0
  6
CONTINUOUS
 62
             7
100
AcDbLine
 10
117.1507979520659
 20
-234.9672429882277
 11
113.3087482994532
 21
-234.6311071989204
  0
LINE
  5
A5
100
AcDbEntity
  8
0
  6
CONTINUOUS
 62
             7
100
AcDbLine
 10
109.2944311642391
 20
-234.2798999577914
 11
104.1180516702623
 21
-233.82702543396019
  0
LINE
  5
A4
100
AcDbEntity
  8
0
  6
CONTINUOUS
 62
             7
100
AcDbLine
 10
99.19376271635214
 20
-233.3962059745671
 11
93.30740114320962
 21
-232.88121606750261
  0
LINE
  5
A3
100
AcDbEntity
  8
0
  6
CONTINUOUS
 62
             7
100
AcDbLine
 10
88.06708229320985
 20
-232.42274757486641
 11
82.18072072006736
 21
-231.9077576678018
  0
LINE
  5
A2
100
AcDbEntity
  8
0
  6
CONTINUOUS
 62
             7
100
AcDbLine
 10
77.25643176615721
 20
-231.4769382084088
 11
72.08005227218031
 21
-231.02406368457781
  0
LINE
  5
A1
100
AcDbEntity
  8
0
  6
CONTINUOUS
 62
             7
100
AcDbLine
 10
68.06573513696627
 20
-230.67285644344861
 11
64.2236854843535
 21
-230.33672065414129
  0
LINE
  5
A0
100
AcDbEntity
  8
0
  6
CONTINUOUS
 62
             7
100
AcDbLine
 10
61.60352605935361
 20
-230.1074864078231
 11
59.5592141388239
 21
-229.92863229006591
  0
LINE
  5
9F
100
AcDbEntity
  8
0
  6
CONTINUOUS
 62
             7
100
AcDbLine
 10
68.06573513696627
 20
-230.67285644344861
 11
67.13316868956632
 21
-241.33213971303039
  0
LINE
  5
9E
100
AcDbEntity
  8
0
  6
CONTINUOUS
 62
             7
100
AcDbLine
 10
59.5592141388239
 20
-229.92863229006591
 11
58.62664769142395
 21
-240.58791555964751
  0
LINE
  5
9D
100
AcDbEntity
  8
0
  6
CONTINUOUS
 62
             7
100
AcDbLine
 10
64.2236854843535
 20
-230.33672065414129
 11
63.29111903695355
 21
-240.9960039237229
  0
LINE
  5
9C
100
AcDbEntity
  8
0
  6
CONTINUOUS
 62
             7
100
AcDbLine
 10
112.7652511648341
 20
-233.78050149094781
 11
111.762960123236
 21
-245.23674051900289
  0
LINE
  5
9B
100
AcDbEntity
  8
0
  6
CONTINUOUS
 62
             7
100
AcDbLine
 10
103.7875242070714
 20
-232.99505215790879
 11
102.78523316547491
 21
-244.45129118596759
  0
LINE
  5
9A
100
AcDbEntity
  8
0
  6
CONTINUOUS
 62
             7
100
AcDbLine
 10
119.08845416170109
 20
-234.33371007034671
 11
118.08616312010309
 21
-245.78994909840179
  0
LINE
  5
99
100
AcDbEntity
  8
0
  6
CONTINUOUS
 62
             7
100
AcDbLine
 10
93.23811965666231
 20
-232.07209885280281
 11
92.23582861506417
 21
-243.528337880858
  0
LINE
  5
98
100
AcDbEntity
  8
0
  6
CONTINUOUS
 62
             7
100
AcDbLine
 10
88.27581296815346
 20
-231.63795327261951
 11
87.2735219265554
 21
-243.09419230067439
  0
LINE
  5
97
100
AcDbEntity
  8
0
  6
CONTINUOUS
 62
             7
100
AcDbLine
 10
121.9944615957148
 20
-234.58795277694489
 11
120.9921705541167
 21
-246.04419180500011
  0
LINE
  5
96
100
AcDbEntity
  8
0
  6
CONTINUOUS
 62
             7
100
AcDbLine
 10
77.72640841774488
 20
-230.71499996750629
 11
76.7241173761448
 21
-242.17123899556469
  0
LINE
  5
95
100
AcDbEntity
  8
0
  6
CONTINUOUS
 62
             7
100
AcDbLine
 10
59.51947102910469
 20
-229.12209934847391
 11
58.5171799875028
 21
-240.57833837653229
  0
LINE
  5
94
100
AcDbEntity
  8
0
  6
CONTINUOUS
 62
             7
100
AcDbLine
 10
62.42547846311447
 20
-229.3763420550755
 11
61.42318742151633
 21
-240.83258108313049
  0
LINE
  5
93
100
AcDbEntity
  8
0
  6
CONTINUOUS
 62
             7
100
AcDbLine
 10
68.74868145998461
 20
-229.92955063447121
 11
67.74639041838348
 21
-241.38578966252959
  0
LINE
  5
92
100
AcDbEntity
  8
0
  6
CONTINUOUS
 62
             7
100
AcDbLine
 10
61.60352605935361
 20
-230.1074864078231
 11
60.67095961195366
 21
-240.7667696774048
  0
LINE
  5
91
100
AcDbEntity
  8
0
  6
CONTINUOUS
 62
             7
100
AcDbLine
 10
55.88405553569044
 20
-240.34796983734589
 11
55.62258830744747
 21
-243.3365539316209
  0
LINE
  5
90
100
AcDbEntity
  8
0
  6
CONTINUOUS
 62
             7
100
AcDbLine
 10
55.62258830744747
 20
-243.3365539316209
 11
123.3638277776861
 21
-249.26314443846169
  0
LINE
  5
8F
100
AcDbEntity
  8
0
  6
CONTINUOUS
 62
             7
100
AcDbLine
 10
120.9921705541167
 20
-246.04419180500011
 11
121.79267466889181
 21
-246.11422684014869
  0
LINE
  5
8E
100
AcDbEntity
  8
0
  6
CONTINUOUS
 62
             7
100
AcDbLine
 10
121.79267466889181
 20
-246.11422684014869
 11
121.9317640191732
 21
-246.1263955815156
  0
LINE
  5
8D
100
AcDbEntity
  8
0
  6
CONTINUOUS
 62
             7
100
AcDbLine
 10
120.12596914218059
 20
-228.90347176288861
 11
62.34667665285929
 21
-223.84843868352451
  0
LINE
  5
8C
100
AcDbEntity
  8
0
  6
CONTINUOUS
 62
             7
100
AcDbLine
 10
122.1370993022979
 20
-234.60043195926229
 11
122.86433046657319
 21
-235.4671123119339
  0
LINE
  5
8B
100
AcDbEntity
  8
0
  6
CONTINUOUS
 62
             7
100
AcDbLine
 10
122.86433046657319
 20
-235.4671123119339
 11
122.7252411162917
 21
-235.454943570567
  0
LINE
  5
8A
100
AcDbEntity
  8
0
  6
CONTINUOUS
 62
             7
100
AcDbLine
 10
122.7252411162917
 20
-235.454943570567
 11
121.79267466889181
 21
-246.11422684014869
  0
LINE
  5
89
100
AcDbEntity
  8
0
  6
CONTINUOUS
 62
             7
100
AcDbLine
 10
122.86433046657319
 20
-235.4671123119339
 11
121.9317640191732
 21
-246.1263955815156
  0
LINE
  5
88
100
AcDbEntity
  8
0
  6
CONTINUOUS
 62
             7
100
AcDbLine
 10
68.74868145998461
 20
-229.92955063447121
 11
64.90663180737192
 21
-229.59341484516369
  0
ENDBLK
  5
F7
100
AcDbEntity
  8
0
100
AcDbBlockEnd
  0
BLOCK
  5
2C
100
AcDbEntity
  8
0
100
AcDbBlockBegin
  2
BGR_ERSATZTEIL
 70
             0
 10
892.64664974662401
 20
-729.3749330492459
 30
0.0
  3
BGR_ERSATZTEIL
  1

  0
INSERT
  5
2D
100
AcDbEntity
  8
1
100
AcDbBlockReference
  2
HL_100_KR_MMER
 10
529.96209174422006
 20
-216.55043021386379
  0
INSERT
  5
2E
100
AcDbEntity
  8
1
100
AcDbBlockReference
  2
HL_100_ABGANGSBOGEN_DN40
 10
619.88361966217008
 20
-205.95541742395781
  0
INSERT
  5
2F
100
AcDbEntity
  8
0
100
AcDbBlockReference
  2
HOLL_NDERMUTTER_2_
 10
671.67306087483303
 20
-266.42937398338069
  0
ENDBLK
  5
F8
100
AcDbEntity
  8
0
100
AcDbBlockEnd
  0
BLOCK
  5
31
100
AcDbEntity
  8
0
100
AcDbBlockBegin
  2
HOLL_NDERMUTTER_6_4__1
 70
             0
 10
375.27393665073868
 20
-226.47338449267619
 30
0.0
  3
HOLL_NDERMUTTER_6_4__1
  1

  0
SPLINE
  5
139
100
AcDbEntity
  8
0
  6
CONTINUOUS
 62
             7
100
AcDbSpline
210
0.0
220
0.0
230
1.0
 70
             0
 71
             3
 72
            11
 73
             7
 74
             5
 42
0.00000000001
 43
0.00000000001
 44
0.00000000001
 40
10.19448601636854
 40
10.19448601636854
 40
10.19448601636854
 40
10.19448601636854
 40
10.818569247931419
 40
10.818569247931419
 40
10.818569247931419
 40
11.430058017314931
 40
11.430058017314931
 40
11.430058017314931
 40
11.430058017314931
 10
-28.5
 20
-186.29684037537771
 30
0.0
 10
-28.336681865861461
 20
-186.15980018925731
 30
0.0
 10
-28.174958906056421
 20
-186.0290491805801
 30
0.0
 10
-28.014728269128678
 20
-185.90446620373521
 30
0.0
 10
-27.849789339583371
 20
-185.776222421927
 30
0.0
 10
-27.68638954937342
 20
-185.65448170288181
 30
0.0
 10
-27.524420523448502
 20
-185.539123012056
 30
0.0
 11
-28.5
 21
-186.29684037537771
 31
0.0
 11
-28.256206323110288
 21
-186.09598183607815
 31
0.0
 11
-28.014728269128678
 21
-185.90446620373521
 31
0.0
 11
-27.768460682430945
 21
-185.71696269877722
 31
0.0
 11
-27.524420523448502
 21
-185.539123012056
 31
0.0
  0
SPLINE
  5
138
100
AcDbEntity
  8
0
  6
CONTINUOUS
 62
             7
100
AcDbSpline
210
0.0
220
0.0
230
1.0
 70
             0
 71
             3
 72
            11
 73
             7
 74
             5
 42
0.00000000001
 43
0.00000000001
 44
0.00000000001
 40
9.6520212354362265
 40
9.6520212354362265
 40
9.6520212354362265
 40
9.6520212354362265
 40
10.16722522019518
 40
10.16722522019518
 40
10.16722522019518
 40
10.7005567454881
 40
10.7005567454881
 40
10.7005567454881
 40
10.7005567454881
 10
20.8769179627343
 20
-185.539123012056
 30
0.0
 10
20.757140629208148
 20
-185.65401569502981
 30
0.0
 10
20.635955804777041
 20
-185.77557821827691
 30
0.0
 10
20.513269559585751
 20
-185.90403837035879
 30
0.0
 10
20.39416552487819
 20
-186.0287477245995
 30
0.0
 10
20.273949000376891
 20
-186.15964100417949
 30
0.0
 10
20.15254326381546
 20
-186.29684037537771
 30
0.0
 11
20.8769179627343
 21
-185.539123012056
 31
0.0
 11
20.696184603034457
 21
-185.71649289029187
 31
0.0
 11
20.513269559585751
 21
-185.90403837035879
 31
0.0
 11
20.333769549895809
 21
-186.09575561650919
 31
0.0
 11
20.15254326381546
 21
-186.29684037537771
 31
0.0
  0
SPLINE
  5
137
100
AcDbEntity
  8
0
  6
CONTINUOUS
 62
             7
100
AcDbSpline
210
0.0
220
0.0
230
1.0
 70
             0
 71
             3
 72
            11
 73
             7
 74
             5
 42
0.00000000001
 43
0.00000000001
 44
0.00000000001
 40
10.19555243465283
 40
10.19555243465283
 40
10.19555243465283
 40
10.19555243465283
 40
11.26499585315983
 40
11.26499585315983
 40
11.26499585315983
 40
12.33452008509976
 40
12.33452008509976
 40
12.33452008509976
 40
12.33452008509976
 10
0.0
 20
-186.29684037537771
 30
0.0
 10
0.3332558010370121
 20
-186.16043737979749
 30
0.0
 10
0.6648254651481693
 20
-186.0296292505966
 30
0.0
 10
0.9948383386399797
 20
-185.9044660467018
 30
0.0
 10
1.332898932971148
 20
-185.77625060271501
 30
0.0
 10
1.6678798362699889
 20
-185.65450718765101
 30
0.0
 10
2.0
 20
-185.539123012056
 30
0.0
 11
0.0
 21
-186.29684037537771
 31
0.0
 11
0.4986352671494405
 21
-186.09643828915773
 31
0.0
 11
0.9948383386399797
 21
-185.9044660467018
 31
0.0
 11
1.4996468307954238
 21
-185.71698280373201
 31
0.0
 11
2.0
 21
-185.539123012056
 31
0.0
  0
SPLINE
  5
136
100
AcDbEntity
  8
0
  6
CONTINUOUS
 62
             7
100
AcDbSpline
210
0.0
220
0.0
230
1.0
 70
             0
 71
             3
 72
            11
 73
             7
 74
             5
 42
0.00000000001
 43
0.00000000001
 44
0.00000000001
 40
10.19555243465293
 40
10.19555243465293
 40
10.19555243465293
 40
10.19555243465293
 40
11.313304530967139
 40
11.313304530967139
 40
11.313304530967139
 40
12.43211945463684
 40
12.43211945463684
 40
12.43211945463684
 40
12.43211945463684
 10
-20.15254326381552
 20
-186.29684037537771
 30
0.0
 10
-19.79854873157819
 20
-186.15911429653829
 30
0.0
 10
-19.44977968933739
 20
-186.02842162397539
 30
0.0
 10
-19.10594725395282
 20
-185.9044660467018
 30
0.0
 10
-18.750301521875372
 20
-185.7762516390805
 30
0.0
 10
-18.39789278902748
 20
-185.65450812319719
 30
0.0
 10
-18.048490837987629
 20
-185.539123012056
 30
0.0
 11
-20.15254326381552
 21
-186.29684037537771
 31
0.0
 11
-19.625434472564386
 21
-186.09548927295256
 31
0.0
 11
-19.10594725395282
 21
-185.9044660467018
 31
0.0
 11
-18.574877628081126
 21
-185.71698354319884
 31
0.0
 11
-18.048490837987629
 21
-185.539123012056
 31
0.0
  0
SPLINE
  5
135
100
AcDbEntity
  8
0
  6
CONTINUOUS
 62
             7
100
AcDbSpline
210
0.0
220
0.0
230
1.0
 70
             0
 71
             3
 72
            11
 73
             7
 74
             5
 42
0.00000000001
 43
0.00000000001
 44
0.00000000001
 40
10.195552434652781
 40
10.195552434652781
 40
10.195552434652781
 40
10.195552434652781
 40
10.72829261095816
 40
10.72829261095816
 40
10.72829261095816
 40
11.244087937724711
 40
11.244087937724711
 40
11.244087937724711
 40
11.244087937724711
 10
-20.15254326381552
 20
-186.29684037537771
 30
0.0
 10
-20.274607587209179
 20
-186.15889674191311
 30
0.0
 10
-20.3946785759581
 20
-186.02822193308489
 30
0.0
 10
-20.512861124829211
 20
-185.9044660467018
 30
0.0
 10
-20.63534201365837
 20
-185.77620911615779
 30
0.0
 10
-20.756667290093901
 20
-185.6544697309557
 30
0.0
 10
-20.8769179627343
 20
-185.539123012056
 30
0.0
 11
-20.15254326381552
 21
-186.29684037537771
 31
0.0
 11
-20.334157859768322
 21
-186.0953328058842
 31
0.0
 11
-20.512861124829211
 21
-185.9044660467018
 31
0.0
 11
-20.695725874852542
 21
-185.71695320001228
 31
0.0
 11
-20.8769179627343
 21
-185.539123012056
 31
0.0
  0
SPLINE
  5
134
100
AcDbEntity
  8
0
  6
CONTINUOUS
 62
             7
100
AcDbSpline
210
0.0
220
0.0
230
1.0
 70
             0
 71
             3
 72
            11
 73
             7
 74
             5
 42
0.00000000001
 43
0.00000000001
 44
0.00000000001
 40
10.195552434652781
 40
10.195552434652781
 40
10.195552434652781
 40
10.195552434652781
 40
11.264995853159769
 40
11.264995853159769
 40
11.264995853159769
 40
12.33452008509969
 40
12.33452008509969
 40
12.33452008509969
 40
12.33452008509969
 10
0.0
 20
-186.29684037537771
 30
0.0
 10
-0.3366485074001773
 20
-186.15904873086879
 30
0.0
 10
-0.6681681591725805
 20
-186.02836147492161
 30
0.0
 10
-0.9948383386399726
 20
-185.9044660467018
 30
0.0
 10
-1.331847329125587
 20
-185.7766494420259
 30
0.0
 10
-1.6668451055883791
 20
-185.65486667063419
 30
0.0
 10
-2.0
 20
-185.539123012056
 30
0.0
 11
0.0
 21
-186.29684037537771
 31
0.0
 11
-0.5011610422947808
 21
-186.09544212993134
 31
0.0
 11
-0.9948383386399726
 21
-185.9044660467018
 31
0.0
 11
-1.4988644553477333
 21
-185.71726717459225
 31
0.0
 11
-2.0
 21
-185.539123012056
 31
0.0
  0
SPLINE
  5
133
100
AcDbEntity
  8
0
  6
CONTINUOUS
 62
             7
100
AcDbSpline
210
0.0
220
0.0
230
1.0
 70
             0
 71
             3
 72
            11
 73
             7
 74
             5
 42
0.00000000001
 43
0.00000000001
 44
0.00000000001
 40
12.60222498519215
 40
12.60222498519215
 40
12.60222498519215
 40
12.60222498519215
 40
13.20477356312929
 40
13.20477356312929
 40
13.20477356312929
 40
13.80733366403499
 40
13.80733366403499
 40
13.80733366403499
 40
13.80733366403499
 10
-20.099100503426602
 20
-184.6186411130231
 30
0.0
 10
-20.227551685747979
 20
-184.77063503880461
 30
0.0
 10
-20.35718696530239
 20
-184.92403901267721
 30
0.0
 10
-20.488018166441179
 20
-185.0788669707228
 30
0.0
 10
-20.615852009708821
 20
-185.2301478024394
 30
0.0
 10
-20.745469537574479
 20
-185.38354779297629
 30
0.0
 10
-20.8769179627343
 20
-185.539123012056
 30
0.0
 11
-20.099100503426602
 21
-184.6186411130231
 31
0.0
 11
-20.292666827877362
 21
-184.84769127977393
 31
0.0
 11
-20.488018166441179
 21
-185.0788669707228
 31
0.0
 11
-20.681112596378171
 21
-185.30738459612826
 31
0.0
 11
-20.8769179627343
 21
-185.539123012056
 31
0.0
  0
SPLINE
  5
132
100
AcDbEntity
  8
0
  6
CONTINUOUS
 62
             7
100
AcDbSpline
210
0.0
220
0.0
230
1.0
 70
             0
 71
             3
 72
            11
 73
             7
 74
             5
 42
0.00000000001
 43
0.00000000001
 44
0.00000000001
 40
110.6006816516911
 40
110.6006816516911
 40
110.6006816516911
 40
110.6006816516911
 40
111.2032417235651
 40
111.2032417235651
 40
111.2032417235651
 40
111.8057903305339
 40
111.8057903305339
 40
111.8057903305339
 40
111.8057903305339
 10
18.048490837998539
 20
-185.53912301200509
 30
0.0
 10
17.917873292117289
 20
-185.3845311765956
 30
0.0
 10
17.788239850502581
 20
-185.23111224707941
 30
0.0
 10
17.65959106043374
 20
-185.07886699289989
 30
0.0
 10
17.52846193662845
 20
-184.92368646789441
 30
0.0
 10
17.398832670147389
 20
-184.7702896497151
 30
0.0
 10
17.27067337867993
 20
-184.6186411130231
 30
0.0
 11
18.048490837998539
 21
-185.53912301200509
 31
0.0
 11
17.853302665786487
 21
-185.30811503449127
 31
0.0
 11
17.65959106043374
 21
-185.07886699289989
 31
0.0
 11
17.464018532430142
 21
-184.8474295573439
 31
0.0
 11
17.27067337867993
 21
-184.6186411130231
 31
0.0
  0
SPLINE
  5
131
100
AcDbEntity
  8
0
  6
CONTINUOUS
 62
             7
100
AcDbSpline
210
0.0
220
0.0
230
1.0
 70
             0
 71
             3
 72
            11
 73
             7
 74
             5
 42
0.00000000001
 43
0.00000000001
 44
0.00000000001
 40
12.60222498519019
 40
12.60222498519019
 40
12.60222498519019
 40
12.60222498519019
 40
13.20477356312731
 40
13.20477356312731
 40
13.20477356312731
 40
13.807333664033029
 40
13.807333664033029
 40
13.807333664033029
 40
13.807333664033029
 10
-17.270673378683568
 20
-184.6186411130231
 30
0.0
 10
-17.398734616501319
 20
-184.77017362463559
 30
0.0
 10
-17.52836200704769
 20
-184.92356820946341
 30
0.0
 10
-17.659591041694512
 20
-185.0788669707228
 30
0.0
 10
-17.78832831423642
 20
-185.23121693662429
 30
0.0
 10
-17.91796380839509
 20
-185.38463830674411
 30
0.0
 10
-18.048490837987629
 20
-185.539123012056
 30
0.0
 11
-17.270673378683568
 21
-184.6186411130231
 31
0.0
 11
-17.46394428637814
 21
-184.84734169825538
 31
0.0
 11
-17.659591041694512
 21
-185.0788669707228
 31
0.0
 11
-17.853369780947084
 21
-185.30819446411053
 31
0.0
 11
-18.048490837987629
 21
-185.539123012056
 31
0.0
  0
SPLINE
  5
130
100
AcDbEntity
  8
0
  6
CONTINUOUS
 62
             7
100
AcDbSpline
210
0.0
220
0.0
230
1.0
 70
             0
 71
             3
 72
            11
 73
             7
 74
             5
 42
0.00000000001
 43
0.00000000001
 44
0.00000000001
 40
110.6006816517057
 40
110.6006816517057
 40
110.6006816517057
 40
110.6006816517057
 40
111.20324172357979
 40
111.20324172357979
 40
111.20324172357979
 40
111.8057903305485
 40
111.8057903305485
 40
111.8057903305485
 40
111.8057903305485
 10
20.8769179627343
 20
-185.539123012056
 30
0.0
 10
20.746359006494458
 20
-185.3846005200987
 30
0.0
 10
20.61672424666904
 20
-185.23118002309019
 30
0.0
 10
20.488018185180412
 20
-185.07886699289989
 30
0.0
 10
20.356525981966119
 20
-184.9232567933006
 30
0.0
 10
20.226903152004521
 20
-184.76986764073189
 30
0.0
 10
20.099100503426602
 20
-184.6186411130231
 30
0.0
 11
20.8769179627343
 21
-185.539123012056
 31
0.0
 11
20.681773238425656
 21
-185.30816645431531
 31
0.0
 11
20.488018185180412
 21
-185.07886699289989
 31
0.0
 11
20.292175761314869
 21
-184.84711017600253
 31
0.0
 11
20.099100503426602
 21
-184.6186411130231
 31
0.0
  0
SPLINE
  5
12F
100
AcDbEntity
  8
0
  6
CONTINUOUS
 62
             7
100
AcDbSpline
210
0.0
220
0.0
230
1.0
 70
             0
 71
             3
 72
            11
 73
             7
 74
             5
 42
0.00000000001
 43
0.00000000001
 44
0.00000000001
 40
12.602224985190871
 40
12.602224985190871
 40
12.602224985190871
 40
12.602224985190871
 40
13.31938726627383
 40
13.31938726627383
 40
13.31938726627383
 40
14.03654953995088
 40
14.03654953995088
 40
14.03654953995088
 40
14.03654953995088
 10
-26.424420523446319
 20
-184.6186411130231
 30
0.0
 10
-26.606421741736991
 20
-184.77092271032711
 30
0.0
 10
-26.789761535583182
 20
-184.9243332638664
 30
0.0
 10
-26.974433157127411
 20
-185.0788669707228
 30
0.0
 10
-27.156161294616989
 20
-185.230937562251
 30
0.0
 10
-27.339486043732901
 20
-185.38435260462319
 30
0.0
 10
-27.524420523448502
 20
-185.539123012056
 30
0.0
 11
-26.424420523446319
 21
-184.6186411130231
 31
0.0
 11
-26.698425439066781
 21
-184.84790950079082
 31
0.0
 11
-26.974433157127411
 21
-185.0788669707228
 31
0.0
 11
-27.248224461953196
 21
-185.30798256042519
 31
0.0
 11
-27.524420523448502
 21
-185.539123012056
 31
0.0
  0
SPLINE
  5
12E
100
AcDbEntity
  8
0
  6
CONTINUOUS
 62
             7
100
AcDbSpline
210
0.0
220
0.0
230
1.0
 70
             0
 71
             3
 72
            11
 73
             7
 74
             5
 42
0.00000000001
 43
0.00000000001
 44
0.00000000001
 40
12.6022249851908
 40
12.6022249851908
 40
12.6022249851908
 40
12.6022249851908
 40
13.319387266273759
 40
13.319387266273759
 40
13.319387266273759
 40
14.0365495399508
 40
14.0365495399508
 40
14.0365495399508
 40
14.0365495399508
 10
26.424420523446319
 20
-184.6186411130231
 30
0.0
 10
26.605663994829229
 20
-184.7702886985837
 30
0.0
 10
26.788987430474659
 20
-184.9236854906423
 30
0.0
 10
26.974433157127351
 20
-185.0788669707228
 30
0.0
 10
27.15623036144461
 20
-185.2309953575579
 30
0.0
 10
27.339556615643229
 20
-185.38441166577579
 30
0.0
 10
27.524420523448502
 20
-185.539123012056
 30
0.0
 11
26.424420523446319
 21
-184.6186411130231
 31
0.0
 11
26.697850994560667
 21
-184.84742883142798
 31
0.0
 11
26.974433157127351
 21
-185.0788669707228
 31
0.0
 11
27.24827682647992
 21
-185.3080263815975
 31
0.0
 11
27.524420523448502
 21
-185.539123012056
 31
0.0
  0
SPLINE
  5
12D
100
AcDbEntity
  8
0
  6
CONTINUOUS
 62
             7
100
AcDbSpline
210
0.0
220
0.0
230
1.0
 70
             0
 71
             3
 72
            11
 73
             7
 74
             5
 42
0.00000000001
 43
0.00000000001
 44
0.00000000001
 40
9.6520212354362247
 40
9.6520212354362247
 40
9.6520212354362247
 40
9.6520212354362247
 40
10.76957509520426
 40
10.76957509520426
 40
10.76957509520426
 40
11.88858825881975
 40
11.88858825881975
 40
11.88858825881975
 40
11.88858825881975
 10
18.048490837998539
 20
-185.53912301200509
 30
0.0
 10
18.396649719950801
 20
-185.65409761695369
 30
0.0
 10
18.748651742880611
 20
-185.77566870515261
 30
0.0
 10
19.10476089536678
 20
-185.90403837035879
 30
0.0
 10
19.45184294222781
 20
-186.02915395877901
 30
0.0
 10
19.801048657194769
 20
-186.16008692446229
 30
0.0
 10
20.15254326381546
 20
-186.29684037537771
 30
0.0
 11
18.048490837998539
 21
-185.53912301200509
 31
0.0
 11
18.573644515232441
 21
-185.71655754358537
 31
0.0
 11
19.10476089536678
 21
-185.90403837035879
 31
0.0
 11
19.626997369681245
 21
-186.09607517443257
 31
0.0
 11
20.15254326381546
 21
-186.29684037537771
 31
0.0
  0
SPLINE
  5
12C
100
AcDbEntity
  8
0
  6
CONTINUOUS
 62
             7
100
AcDbSpline
210
0.0
220
0.0
230
1.0
 70
             0
 71
             3
 72
            11
 73
             7
 74
             5
 42
0.00000000001
 43
0.00000000001
 44
0.00000000001
 40
10.19555243465282
 40
10.19555243465282
 40
10.19555243465282
 40
10.19555243465282
 40
10.819635921994889
 40
10.819635921994889
 40
10.819635921994889
 40
11.431124435565939
 40
11.431124435565939
 40
11.431124435565939
 40
11.431124435565939
 10
28.49999999998181
 20
-186.29684037534139
 30
0.0
 10
28.337288486141919
 20
-186.16030920409071
 30
0.0
 10
28.17555515099593
 20
-186.02951277040589
 30
0.0
 10
28.014728067166288
 20
-185.9044660467018
 30
0.0
 10
27.84978906629112
 20
-185.77622221376549
 30
0.0
 10
27.686389345359199
 20
-185.6544815575773
 30
0.0
 10
27.524420523448502
 20
-185.539123012056
 30
0.0
 11
28.49999999998181
 21
-186.29684037534139
 31
0.0
 11
28.256657372320205
 21
-186.09634654319163
 31
0.0
 11
28.014728067166288
 21
-185.9044660467018
 31
0.0
 11
27.768460478195713
 21
-185.71696254659824
 31
0.0
 11
27.524420523448502
 21
-185.539123012056
 31
0.0
  0
LINE
  5
12B
100
AcDbEntity
  8
0
  6
CONTINUOUS
 62
             7
100
AcDbLine
 10
-26.11649281480999
 20
-184.29684037537771
 11
26.11649281481004
 21
-184.29684037537771
  0
LINE
  5
12A
100
AcDbEntity
  8
0
  6
CONTINUOUS
 62
             7
100
AcDbLine
 10
-28.5
 20
-186.29684037537771
 11
-26.11649281480999
 21
-184.29684037537771
  0
LINE
  5
129
100
AcDbEntity
  8
0
  6
CONTINUOUS
 62
             7
100
AcDbLine
 10
28.49999999998181
 20
-186.29684037534139
 11
28.5
 21
-198.79684037537771
  0
LINE
  5
128
100
AcDbEntity
  8
0
  6
CONTINUOUS
 62
             7
100
AcDbLine
 10
-28.5
 20
-186.29684037537771
 11
-28.5
 21
-198.79684037537771
  0
LINE
  5
127
100
AcDbEntity
  8
0
  6
CONTINUOUS
 62
             7
100
AcDbLine
 10
-27.5244205234485
 20
-198.79684037537771
 11
-28.5
 21
-198.79684037537771
  0
LINE
  5
126
100
AcDbEntity
  8
0
  6
CONTINUOUS
 62
             7
100
AcDbLine
 10
27.5244205234485
 20
-198.79684037537771
 11
28.5
 21
-198.79684037537771
  0
LINE
  5
125
100
AcDbEntity
  8
0
  6
CONTINUOUS
 62
             7
100
AcDbLine
 10
28.49999999998181
 20
-186.29684037534139
 11
26.11649281481004
 21
-184.29684037537771
  0
LINE
  5
124
100
AcDbEntity
  8
0
  6
CONTINUOUS
 62
             7
100
AcDbLine
 10
-27.5244205234485
 20
-198.79684037537771
 11
-26.42442052344632
 21
-198.79684037537771
  0
LINE
  5
123
100
AcDbEntity
  8
0
  6
CONTINUOUS
 62
             7
100
AcDbLine
 10
20.8769179627343
 20
-187.29684037537771
 11
20.8769179627343
 21
-188.29684037537771
  0
LINE
  5
122
100
AcDbEntity
  8
0
  6
CONTINUOUS
 62
             7
100
AcDbLine
 10
20.8769179627343
 20
-185.539123012056
 11
20.8769179627343
 21
-187.29684037537771
  0
LINE
  5
121
100
AcDbEntity
  8
0
  6
CONTINUOUS
 62
             7
100
AcDbLine
 10
2.0
 20
-184.6186411130231
 11
17.27067337867993
 21
-184.6186411130231
  0
LINE
  5
120
100
AcDbEntity
  8
0
  6
CONTINUOUS
 62
             7
100
AcDbLine
 10
-17.27067337868357
 20
-184.6186411130231
 11
-2.0
 21
-184.6186411130231
  0
LINE
  5
11F
100
AcDbEntity
  8
0
  6
CONTINUOUS
 62
             7
100
AcDbLine
 10
-17.27067337868357
 20
-184.6186411130231
 11
-17.27067337868357
 21
-198.79684037537771
  0
LINE
  5
11E
100
AcDbEntity
  8
0
  6
CONTINUOUS
 62
             7
100
AcDbLine
 10
2.0
 20
-184.6186411130231
 11
2.0
 21
-185.539123012056
  0
LINE
  5
11D
100
AcDbEntity
  8
0
  6
CONTINUOUS
 62
             7
100
AcDbLine
 10
17.27067337867993
 20
-184.6186411130231
 11
17.27067337867993
 21
-198.79684037537771
  0
LINE
  5
11C
100
AcDbEntity
  8
0
  6
CONTINUOUS
 62
             7
100
AcDbLine
 10
2.0
 20
-185.539123012056
 11
2.0
 21
-198.79684037537771
  0
LINE
  5
11B
100
AcDbEntity
  8
0
  6
CONTINUOUS
 62
             7
100
AcDbLine
 10
-20.8769179627343
 20
-185.539123012056
 11
-20.8769179627343
 21
-187.29684037537771
  0
LINE
  5
11A
100
AcDbEntity
  8
0
  6
CONTINUOUS
 62
             7
100
AcDbLine
 10
-18.04849083798763
 20
-185.539123012056
 11
-18.04849083798763
 21
-198.79684037537771
  0
LINE
  5
119
100
AcDbEntity
  8
0
  6
CONTINUOUS
 62
             7
100
AcDbLine
 10
18.04849083799854
 20
-185.53912301200509
 11
18.04849083798763
 21
-198.79684037537771
  0
LINE
  5
118
100
AcDbEntity
  8
0
  6
CONTINUOUS
 62
             7
100
AcDbLine
 10
-2.0
 20
-185.539123012056
 11
-2.0
 21
-198.79684037537771
  0
LINE
  5
117
100
AcDbEntity
  8
0
  6
CONTINUOUS
 62
             7
100
AcDbLine
 10
20.15254326381546
 20
-186.29684037537771
 11
20.15254326381546
 21
-198.79684037537771
  0
LINE
  5
116
100
AcDbEntity
  8
0
  6
CONTINUOUS
 62
             7
100
AcDbLine
 10
-20.15254326381552
 20
-186.29684037537771
 11
-20.15254326381552
 21
-198.79684037537771
  0
LINE
  5
115
100
AcDbEntity
  8
0
  6
CONTINUOUS
 62
             7
100
AcDbLine
 10
0.0
 20
-186.29684037537771
 11
0.0
 21
-198.79684037537771
  0
LINE
  5
114
100
AcDbEntity
  8
0
  6
CONTINUOUS
 62
             7
100
AcDbLine
 10
-20.8769179627343
 20
-187.29684037537771
 11
-20.8769179627343
 21
-198.79684037537771
  0
LINE
  5
113
100
AcDbEntity
  8
0
  6
CONTINUOUS
 62
             7
100
AcDbLine
 10
20.8769179627343
 20
-188.29684037537771
 11
20.8769179627343
 21
-198.79684037537771
  0
LINE
  5
112
100
AcDbEntity
  8
0
  6
CONTINUOUS
 62
             7
100
AcDbLine
 10
20.15254326381546
 20
-198.79684037537771
 11
20.8769179627343
 21
-198.79684037537771
  0
LINE
  5
111
100
AcDbEntity
  8
0
  6
CONTINUOUS
 62
             7
100
AcDbLine
 10
17.27067337867993
 20
-198.79684037537771
 11
18.04849083798763
 21
-198.79684037537771
  0
LINE
  5
110
100
AcDbEntity
  8
0
  6
CONTINUOUS
 62
             7
100
AcDbLine
 10
2.0
 20
-198.79684037537771
 11
17.27067337867993
 21
-198.79684037537771
  0
LINE
  5
10F
100
AcDbEntity
  8
0
  6
CONTINUOUS
 62
             7
100
AcDbLine
 10
-20.8769179627343
 20
-198.79684037537771
 11
-20.15254326381552
 21
-198.79684037537771
  0
LINE
  5
10E
100
AcDbEntity
  8
0
  6
CONTINUOUS
 62
             7
100
AcDbLine
 10
-20.15254326381552
 20
-198.79684037537771
 11
-20.0991005034266
 21
-198.79684037537771
  0
LINE
  5
10D
100
AcDbEntity
  8
0
  6
CONTINUOUS
 62
             7
100
AcDbLine
 10
-2.0
 20
-198.79684037537771
 11
0.0
 21
-198.79684037537771
  0
LINE
  5
10C
100
AcDbEntity
  8
0
  6
CONTINUOUS
 62
             7
100
AcDbLine
 10
-18.04849083798763
 20
-198.79684037537771
 11
-17.27067337868357
 21
-198.79684037537771
  0
LINE
  5
10B
100
AcDbEntity
  8
0
  6
CONTINUOUS
 62
             7
100
AcDbLine
 10
-18.04849083798763
 20
-198.79684037537771
 11
-20.0991005034266
 21
-198.79684037537771
  0
LINE
  5
10A
100
AcDbEntity
  8
0
  6
CONTINUOUS
 62
             7
100
AcDbLine
 10
2.0
 20
-198.79684037537771
 11
0.0
 21
-198.79684037537771
  0
LINE
  5
109
100
AcDbEntity
  8
0
  6
CONTINUOUS
 62
             7
100
AcDbLine
 10
20.15254326381546
 20
-198.79684037537771
 11
20.0991005034266
 21
-198.79684037537771
  0
LINE
  5
108
100
AcDbEntity
  8
0
  6
CONTINUOUS
 62
             7
100
AcDbLine
 10
-26.42442052344632
 20
-184.6186411130231
 11
-20.0991005034266
 21
-184.6186411130231
  0
LINE
  5
107
100
AcDbEntity
  8
0
  6
CONTINUOUS
 62
             7
100
AcDbLine
 10
-26.42442052344632
 20
-184.6186411130231
 11
-26.42442052344632
 21
-198.79684037537771
  0
LINE
  5
106
100
AcDbEntity
  8
0
  6
CONTINUOUS
 62
             7
100
AcDbLine
 10
-26.42442052344632
 20
-198.79684037537771
 11
-20.8769179627343
 21
-198.79684037537771
  0
LINE
  5
105
100
AcDbEntity
  8
0
  6
CONTINUOUS
 62
             7
100
AcDbLine
 10
-27.5244205234485
 20
-185.539123012056
 11
-27.5244205234485
 21
-198.79684037537771
  0
LINE
  5
104
100
AcDbEntity
  8
0
  6
CONTINUOUS
 62
             7
100
AcDbLine
 10
28.5
 20
-201.29684037537771
 11
-28.5
 21
-201.29684037537771
  0
LINE
  5
103
100
AcDbEntity
  8
0
  6
CONTINUOUS
 62
             7
100
AcDbLine
 10
-28.5
 20
-198.79684037537771
 11
-28.5
 21
-201.29684037537771
  0
LINE
  5
102
100
AcDbEntity
  8
0
  6
CONTINUOUS
 62
             7
100
AcDbLine
 10
28.5
 20
-198.79684037537771
 11
28.5
 21
-201.29684037537771
  0
LINE
  5
101
100
AcDbEntity
  8
0
  6
CONTINUOUS
 62
             7
100
AcDbLine
 10
26.42442052344632
 20
-184.6186411130231
 11
26.42442052344632
 21
-198.79684037537771
  0
LINE
  5
100
100
AcDbEntity
  8
0
  6
CONTINUOUS
 62
             7
100
AcDbLine
 10
-2.0
 20
-184.6186411130231
 11
-2.0
 21
-185.539123012056
  0
LINE
  5
FF
100
AcDbEntity
  8
0
  6
CONTINUOUS
 62
             7
100
AcDbLine
 10
26.42442052344632
 20
-184.6186411130231
 11
20.0991005034266
 21
-184.6186411130231
  0
LINE
  5
FE
100
AcDbEntity
  8
0
  6
CONTINUOUS
 62
             7
100
AcDbLine
 10
27.5244205234485
 20
-185.539123012056
 11
27.5244205234485
 21
-198.79684037537771
  0
LINE
  5
FD
100
AcDbEntity
  8
0
  6
CONTINUOUS
 62
             7
100
AcDbLine
 10
27.5244205234485
 20
-198.79684037537771
 11
26.42442052344632
 21
-198.79684037537771
  0
LINE
  5
FC
100
AcDbEntity
  8
0
  6
CONTINUOUS
 62
             7
100
AcDbLine
 10
-17.27067337868357
 20
-198.79684037537771
 11
-2.0
 21
-198.79684037537771
  0
LINE
  5
FB
100
AcDbEntity
  8
0
  6
CONTINUOUS
 62
             7
100
AcDbLine
 10
26.42442052344632
 20
-198.79684037537771
 11
20.8769179627343
 21
-198.79684037537771
  0
LINE
  5
FA
100
AcDbEntity
  8
0
  6
CONTINUOUS
 62
             7
100
AcDbLine
 10
20.0991005034266
 20
-198.79684037537771
 11
18.04849083798763
 21
-198.79684037537771
  0
LINE
  5
F9
100
AcDbEntity
  8
1
  6
PHANTOM
 62
             2
100
AcDbLine
 10
0.0
 20
-198.79684037537771
 11
0.0
 21
-201.29684037537771
  0
ENDBLK
  5
13A
100
AcDbEntity
  8
0
100
AcDbBlockEnd
  0
BLOCK
  5
33
100
AcDbEntity
  8
0
100
AcDbBlockBegin
  2
HL_13_TAUCHROHR
 70
             0
 10
680.71047681752532
 20
-33.20000000000005
 30
0.0
  3
HL_13_TAUCHROHR
  1

  0
LINE
  5
13B
100
AcDbEntity
  8
1
  6
CONTINUOUS
 62
             7
100
AcDbLine
 10
30.96736389113357
 20
0.0
 11
31.96736389113357
 21
0.0
  0
ENDBLK
  5
13C
100
AcDbEntity
  8
0
100
AcDbBlockEnd
  0
BLOCK
  5
35
100
AcDbEntity
  8
0
100
AcDbBlockBegin
  2
HOLL_NDERMUTTER_6_4__2
 70
             0
 10
374.74130054188112
 20
10.37252406494849
 30
0.0
  3
HOLL_NDERMUTTER_6_4__2
  1

  0
SPLINE
  5
17F
100
AcDbEntity
  8
0
  6
CONTINUOUS
 62
             7
100
AcDbSpline
210
0.0
220
0.0
230
1.0
 70
             0
 71
             3
 72
            11
 73
             7
 74
             5
 42
0.00000000001
 43
0.00000000001
 44
0.00000000001
 40
10.19555243465282
 40
10.19555243465282
 40
10.19555243465282
 40
10.19555243465282
 40
10.819635921994889
 40
10.819635921994889
 40
10.819635921994889
 40
11.431124435565939
 40
11.431124435565939
 40
11.431124435565939
 40
11.431124435565939
 10
27.96736389112414
 20
-6.5000000000364366
 30
0.0
 10
27.804652377284238
 20
-6.6365311712871176
 30
0.0
 10
27.64291904213815
 20
-6.767327604971797
 30
0.0
 10
27.482091958308619
 20
-6.8923743286759986
 30
0.0
 10
27.31715295743345
 20
-7.0206181616123331
 30
0.0
 10
27.153753236501529
 20
-7.1423588178005284
 30
0.0
 10
26.991784414590821
 20
-7.2577173633218308
 30
0.0
 11
27.96736389112414
 21
-6.5000000000364366
 31
0.0
 11
27.72402126346249
 21
-6.7004938321861474
 31
0.0
 11
27.482091958308619
 21
-6.8923743286759986
 31
0.0
 11
27.23582436933804
 21
-7.0798778287795496
 31
0.0
 11
26.991784414590821
 21
-7.2577173633218308
 31
0.0
  0
SPLINE
  5
17E
100
AcDbEntity
  8
0
  6
CONTINUOUS
 62
             7
100
AcDbSpline
210
0.0
220
0.0
230
1.0
 70
             0
 71
             3
 72
            11
 73
             7
 74
             5
 42
0.00000000001
 43
0.00000000001
 44
0.00000000001
 40
9.6520212354362247
 40
9.6520212354362247
 40
9.6520212354362247
 40
9.6520212354362247
 40
10.76957509520426
 40
10.76957509520426
 40
10.76957509520426
 40
11.88858825881975
 40
11.88858825881975
 40
11.88858825881975
 40
11.88858825881975
 10
17.515854729140759
 20
-7.2577173633727057
 30
0.0
 10
17.864013611093132
 20
-7.142742758424049
 30
0.0
 10
18.216015634022941
 20
-7.0211716702252147
 30
0.0
 10
18.572124786509111
 20
-6.8928020050189502
 30
0.0
 10
18.91920683337014
 20
-6.7676864165988491
 30
0.0
 10
19.2684125483371
 20
-6.6367534509155348
 30
0.0
 10
19.61990715495779
 20
-6.5
 30
0.0
 11
17.515854729140759
 21
-7.2577173633727057
 31
0.0
 11
18.041008406374761
 21
-7.0802828317924309
 31
0.0
 11
18.572124786509111
 21
-6.8928020050189502
 31
0.0
 11
19.094361260823579
 21
-6.7007652009452627
 31
0.0
 11
19.61990715495779
 21
-6.5
 31
0.0
  0
SPLINE
  5
17D
100
AcDbEntity
  8
0
  6
CONTINUOUS
 62
             7
100
AcDbSpline
210
0.0
220
0.0
230
1.0
 70
             0
 71
             3
 72
            11
 73
             7
 74
             5
 42
0.00000000001
 43
0.00000000001
 44
0.00000000001
 40
12.6022249851908
 40
12.6022249851908
 40
12.6022249851908
 40
12.6022249851908
 40
13.319387266273759
 40
13.319387266273759
 40
13.319387266273759
 40
14.0365495399508
 40
14.0365495399508
 40
14.0365495399508
 40
14.0365495399508
 10
25.891784414588638
 20
-8.1781992623546103
 30
0.0
 10
26.073027885971442
 20
-8.0265516767940994
 30
0.0
 10
26.256351321616989
 20
-7.873154884735527
 30
0.0
 10
26.44179704826956
 20
-7.7179734046550266
 30
0.0
 10
26.62359425258694
 20
-7.5658450178198109
 30
0.0
 10
26.806920506785449
 20
-7.4124287096020112
 30
0.0
 10
26.991784414590821
 20
-7.2577173633218308
 30
0.0
 11
25.891784414588638
 21
-8.1781992623546103
 31
0.0
 11
26.165214885702937
 21
-7.9494115439498145
 31
0.0
 11
26.44179704826956
 21
-7.7179734046550266
 31
0.0
 11
26.715640717622193
 21
-7.4888139937802904
 31
0.0
 11
26.991784414590821
 21
-7.2577173633218308
 31
0.0
  0
SPLINE
  5
17C
100
AcDbEntity
  8
0
  6
CONTINUOUS
 62
             7
100
AcDbSpline
210
0.0
220
0.0
230
1.0
 70
             0
 71
             3
 72
            11
 73
             7
 74
             5
 42
0.00000000001
 43
0.00000000001
 44
0.00000000001
 40
12.602224985190871
 40
12.602224985190871
 40
12.602224985190871
 40
12.602224985190871
 40
13.31938726627383
 40
13.31938726627383
 40
13.31938726627383
 40
14.03654953995088
 40
14.03654953995088
 40
14.03654953995088
 40
14.03654953995088
 10
-26.957056632303988
 20
-8.1781992623546103
 30
0.0
 10
-27.139057850594671
 20
-8.0259176650507129
 30
0.0
 10
-27.322397644440908
 20
-7.8725071115114247
 30
0.0
 10
-27.507069265985081
 20
-7.7179734046550266
 30
0.0
 10
-27.68879740347478
 20
-7.5659028131267974
 30
0.0
 10
-27.872122152590581
 20
-7.4124877707546366
 30
0.0
 10
-28.057056632306171
 20
-7.2577173633218308
 30
0.0
 11
-26.957056632303988
 21
-8.1781992623546103
 31
0.0
 11
-27.231061547924476
 21
-7.9489308745870062
 31
0.0
 11
-27.507069265985081
 21
-7.7179734046550266
 31
0.0
 11
-27.780860570810919
 21
-7.4888578149526452
 31
0.0
 11
-28.057056632306171
 21
-7.2577173633218308
 31
0.0
  0
SPLINE
  5
17B
100
AcDbEntity
  8
0
  6
CONTINUOUS
 62
             7
100
AcDbSpline
210
0.0
220
0.0
230
1.0
 70
             0
 71
             3
 72
            11
 73
             7
 74
             5
 42
0.00000000001
 43
0.00000000001
 44
0.00000000001
 40
110.6006816517057
 40
110.6006816517057
 40
110.6006816517057
 40
110.6006816517057
 40
111.20324172357979
 40
111.20324172357979
 40
111.20324172357979
 40
111.8057903305485
 40
111.8057903305485
 40
111.8057903305485
 40
111.8057903305485
 10
20.34428185387662
 20
-7.2577173633218308
 30
0.0
 10
20.213722897636789
 20
-7.4122398552790969
 30
0.0
 10
20.08408813781125
 20
-7.5656603522876367
 30
0.0
 10
19.955382076322731
 20
-7.7179733824777941
 30
0.0
 10
19.823889873108438
 20
-7.8735835820772309
 30
0.0
 10
19.694267043146851
 20
-8.0269727346459376
 30
0.0
 10
19.566464394568921
 20
-8.1781992623546103
 30
0.0
 11
20.34428185387662
 21
-7.2577173633218308
 31
0.0
 11
20.149137129567936
 21
-7.488673921062472
 31
0.0
 11
19.955382076322731
 21
-7.7179733824777941
 31
0.0
 11
19.759539652457192
 21
-7.9497301993752334
 31
0.0
 11
19.566464394568921
 21
-8.1781992623546103
 31
0.0
  0
SPLINE
  5
17A
100
AcDbEntity
  8
0
  6
CONTINUOUS
 62
             7
100
AcDbSpline
210
0.0
220
0.0
230
1.0
 70
             0
 71
             3
 72
            11
 73
             7
 74
             5
 42
0.00000000001
 43
0.00000000001
 44
0.00000000001
 40
12.60222498519019
 40
12.60222498519019
 40
12.60222498519019
 40
12.60222498519019
 40
13.20477356312731
 40
13.20477356312731
 40
13.20477356312731
 40
13.807333664033029
 40
13.807333664033029
 40
13.807333664033029
 40
13.807333664033029
 10
-17.803309487541409
 20
-8.1781992623546103
 30
0.0
 10
-17.931370725358988
 20
-8.0266667507422085
 30
0.0
 10
-18.06099811590542
 20
-7.8732721659144431
 30
0.0
 10
-18.192227150552181
 20
-7.7179734046550266
 30
0.0
 10
-18.3209644230941
 20
-7.5656234387534482
 30
0.0
 10
-18.45059991725282
 20
-7.4122020686337464
 30
0.0
 10
-18.581126946845298
 20
-7.2577173633218308
 30
0.0
 11
-17.803309487541409
 21
-8.1781992623546103
 31
0.0
 11
-17.996580395235856
 21
-7.949498677122449
 31
0.0
 11
-18.192227150552181
 21
-7.7179734046550266
 31
0.0
 11
-18.386005889804782
 21
-7.4886459112673052
 31
0.0
 11
-18.581126946845298
 21
-7.2577173633218308
 31
0.0
  0
SPLINE
  5
179
100
AcDbEntity
  8
0
  6
CONTINUOUS
 62
             7
100
AcDbSpline
210
0.0
220
0.0
230
1.0
 70
             0
 71
             3
 72
            11
 73
             7
 74
             5
 42
0.00000000001
 43
0.00000000001
 44
0.00000000001
 40
110.6006816516911
 40
110.6006816516911
 40
110.6006816516911
 40
110.6006816516911
 40
111.2032417235651
 40
111.2032417235651
 40
111.2032417235651
 40
111.8057903305339
 40
111.8057903305339
 40
111.8057903305339
 40
111.8057903305339
 10
17.515854729140759
 20
-7.2577173633727057
 30
0.0
 10
17.385237183259619
 20
-7.4123091987822249
 30
0.0
 10
17.255603741644901
 20
-7.5657281282984172
 30
0.0
 10
17.12695495157595
 20
-7.7179733824777941
 30
0.0
 10
16.995825827770659
 20
-7.8731539074834131
 30
0.0
 10
16.866196561289708
 20
-8.0265507256627302
 30
0.0
 10
16.73803726982214
 20
-8.1781992623546103
 30
0.0
 11
17.515854729140759
 21
-7.2577173633727057
 31
0.0
 11
17.320666556928781
 21
-7.4887253408865533
 31
0.0
 11
17.12695495157595
 21
-7.7179733824777941
 31
0.0
 11
16.931382423572394
 21
-7.9494108180338587
 31
0.0
 11
16.73803726982214
 21
-8.1781992623546103
 31
0.0
  0
SPLINE
  5
178
100
AcDbEntity
  8
0
  6
CONTINUOUS
 62
             7
100
AcDbSpline
210
0.0
220
0.0
230
1.0
 70
             0
 71
             3
 72
            11
 73
             7
 74
             5
 42
0.00000000001
 43
0.00000000001
 44
0.00000000001
 40
12.60222498519215
 40
12.60222498519215
 40
12.60222498519215
 40
12.60222498519215
 40
13.20477356312929
 40
13.20477356312929
 40
13.20477356312929
 40
13.80733366403499
 40
13.80733366403499
 40
13.80733366403499
 40
13.80733366403499
 10
-20.631736612284271
 20
-8.1781992623546103
 30
0.0
 10
-20.760187794605709
 20
-8.0262053365732413
 30
0.0
 10
-20.88982307416012
 20
-7.8728013627006126
 30
0.0
 10
-21.020654275298909
 20
-7.7179734046550266
 30
0.0
 10
-21.14848811856649
 20
-7.5666925729384502
 30
0.0
 10
-21.278105646432209
 20
-7.4132925824015388
 30
0.0
 10
-21.40955407159197
 20
-7.2577173633218308
 30
0.0
 11
-20.631736612284271
 21
-8.1781992623546103
 31
0.0
 11
-20.825302936735085
 21
-7.949149095603901
 31
0.0
 11
-21.020654275298909
 21
-7.7179734046550266
 31
0.0
 11
-21.213748705235872
 21
-7.4894557792496039
 31
0.0
 11
-21.40955407159197
 21
-7.2577173633218308
 31
0.0
  0
SPLINE
  5
177
100
AcDbEntity
  8
0
  6
CONTINUOUS
 62
             7
100
AcDbSpline
210
0.0
220
0.0
230
1.0
 70
             0
 71
             3
 72
            11
 73
             7
 74
             5
 42
0.00000000001
 43
0.00000000001
 44
0.00000000001
 40
10.195552434652781
 40
10.195552434652781
 40
10.195552434652781
 40
10.195552434652781
 40
11.264995853159769
 40
11.264995853159769
 40
11.264995853159769
 40
12.33452008509969
 40
12.33452008509969
 40
12.33452008509969
 40
12.33452008509969
 10
-0.5326361088576732
 20
-6.5
 30
0.0
 10
-0.8692846162579073
 20
-6.6377916445090364
 30
0.0
 10
-1.200804268030311
 20
-6.7684789004561026
 30
0.0
 10
-1.527474447497809
 20
-6.8923743286759986
 30
0.0
 10
-1.8644834379832671
 20
-7.0201909333518984
 30
0.0
 10
-2.1994812144461089
 20
-7.1419737047436342
 30
0.0
 10
-2.5326361088576732
 20
-7.2577173633218308
 30
0.0
 11
-0.5326361088576732
 21
-6.5
 31
0.0
 11
-1.0337971511525172
 21
-6.7013982454464269
 31
0.0
 11
-1.527474447497809
 21
-6.8923743286759986
 31
0.0
 11
-2.0315005642054507
 21
-7.0795732007855525
 31
0.0
 11
-2.5326361088576732
 21
-7.2577173633218308
 31
0.0
  0
SPLINE
  5
176
100
AcDbEntity
  8
0
  6
CONTINUOUS
 62
             7
100
AcDbSpline
210
0.0
220
0.0
230
1.0
 70
             0
 71
             3
 72
            11
 73
             7
 74
             5
 42
0.00000000001
 43
0.00000000001
 44
0.00000000001
 40
10.195552434652781
 40
10.195552434652781
 40
10.195552434652781
 40
10.195552434652781
 40
10.72829261095816
 40
10.72829261095816
 40
10.72829261095816
 40
11.244087937724711
 40
11.244087937724711
 40
11.244087937724711
 40
11.244087937724711
 10
-20.68517937267319
 20
-6.5
 30
0.0
 10
-20.807243696066791
 20
-6.6379436334646016
 30
0.0
 10
-20.927314684815769
 20
-6.7686184422928477
 30
0.0
 10
-21.045497233686891
 20
-6.8923743286759986
 30
0.0
 10
-21.16797812251599
 20
-7.0206312592200106
 30
0.0
 10
-21.289303398951571
 20
-7.1423706444221011
 30
0.0
 10
-21.40955407159197
 20
-7.2577173633218308
 30
0.0
 11
-20.68517937267319
 21
-6.5
 31
0.0
 11
-20.86679396862597
 21
-6.7015075694935415
 31
0.0
 11
-21.045497233686891
 21
-6.8923743286759986
 31
0.0
 11
-21.228361983710194
 21
-7.0798871753655206
 31
0.0
 11
-21.40955407159197
 21
-7.2577173633218308
 31
0.0
  0
SPLINE
  5
175
100
AcDbEntity
  8
0
  6
CONTINUOUS
 62
             7
100
AcDbSpline
210
0.0
220
0.0
230
1.0
 70
             0
 71
             3
 72
            11
 73
             7
 74
             5
 42
0.00000000001
 43
0.00000000001
 44
0.00000000001
 40
10.19555243465293
 40
10.19555243465293
 40
10.19555243465293
 40
10.19555243465293
 40
11.313304530967139
 40
11.313304530967139
 40
11.313304530967139
 40
12.43211945463684
 40
12.43211945463684
 40
12.43211945463684
 40
12.43211945463684
 10
-20.68517937267319
 20
-6.5
 30
0.0
 10
-20.331184840435871
 20
-6.6377260788395347
 30
0.0
 10
-19.98241579819523
 20
-6.7684187514024066
 30
0.0
 10
-19.638583362810611
 20
-6.8923743286759986
 30
0.0
 10
-19.282937630732992
 20
-7.0205887362973272
 30
0.0
 10
-18.93052889788521
 20
-7.1423322521804948
 30
0.0
 10
-18.581126946845298
 20
-7.2577173633218308
 30
0.0
 11
-20.68517937267319
 21
-6.5
 31
0.0
 11
-20.158070581422137
 21
-6.7013511024252281
 31
0.0
 11
-19.638583362810611
 21
-6.8923743286759986
 31
0.0
 11
-19.107513736938817
 21
-7.079856832178911
 31
0.0
 11
-18.581126946845298
 21
-7.2577173633218308
 31
0.0
  0
SPLINE
  5
174
100
AcDbEntity
  8
0
  6
CONTINUOUS
 62
             7
100
AcDbSpline
210
0.0
220
0.0
230
1.0
 70
             0
 71
             3
 72
            11
 73
             7
 74
             5
 42
0.00000000001
 43
0.00000000001
 44
0.00000000001
 40
10.19555243465283
 40
10.19555243465283
 40
10.19555243465283
 40
10.19555243465283
 40
11.26499585315983
 40
11.26499585315983
 40
11.26499585315983
 40
12.33452008509976
 40
12.33452008509976
 40
12.33452008509976
 40
12.33452008509976
 10
-0.5326361088576732
 20
-6.5
 30
0.0
 10
-0.1993803078207179
 20
-6.6364029955803403
 30
0.0
 10
0.1321893562905032
 20
-6.7672111247812268
 30
0.0
 10
0.4622022297822923
 20
-6.8923743286759986
 30
0.0
 10
0.8002628241133607
 20
-7.020589772662845
 30
0.0
 10
1.1352437274123299
 20
-7.1423331877268197
 30
0.0
 10
1.467363891142327
 20
-7.2577173633218308
 30
0.0
 11
-0.5326361088576732
 21
-6.5
 31
0.0
 11
-0.0340008417082531
 21
-6.7004020862200875
 31
0.0
 11
0.4622022297822923
 21
-6.8923743286759986
 31
0.0
 11
0.9670107219377113
 21
-7.0798575716458529
 31
0.0
 11
1.467363891142327
 21
-7.2577173633218308
 31
0.0
  0
SPLINE
  5
173
100
AcDbEntity
  8
0
  6
CONTINUOUS
 62
             7
100
AcDbSpline
210
0.0
220
0.0
230
1.0
 70
             0
 71
             3
 72
            11
 73
             7
 74
             5
 42
0.00000000001
 43
0.00000000001
 44
0.00000000001
 40
9.6520212354362265
 40
9.6520212354362265
 40
9.6520212354362265
 40
9.6520212354362265
 40
10.16722522019518
 40
10.16722522019518
 40
10.16722522019518
 40
10.7005567454881
 40
10.7005567454881
 40
10.7005567454881
 40
10.7005567454881
 10
20.34428185387662
 20
-7.2577173633218308
 30
0.0
 10
20.224504520350369
 20
-7.142824680348042
 30
0.0
 10
20.10331969591925
 20
-7.0212621571009208
 30
0.0
 10
19.980633450727961
 20
-6.8928020050189502
 30
0.0
 10
19.86152941602052
 20
-6.7680926507783283
 30
0.0
 10
19.741312891519211
 20
-6.637199371198335
 30
0.0
 10
19.61990715495779
 20
-6.5
 30
0.0
 11
20.34428185387662
 21
-7.2577173633218308
 31
0.0
 11
20.16354849417668
 21
-7.0803474850859587
 31
0.0
 11
19.980633450727961
 21
-6.8928020050189502
 31
0.0
 11
19.801133441038118
 21
-6.7010847588686184
 31
0.0
 11
19.61990715495779
 21
-6.5
 31
0.0
  0
SPLINE
  5
172
100
AcDbEntity
  8
0
  6
CONTINUOUS
 62
             7
100
AcDbSpline
210
0.0
220
0.0
230
1.0
 70
             0
 71
             3
 72
            11
 73
             7
 74
             5
 42
0.00000000001
 43
0.00000000001
 44
0.00000000001
 40
10.19448601636854
 40
10.19448601636854
 40
10.19448601636854
 40
10.19448601636854
 40
10.818569247931419
 40
10.818569247931419
 40
10.818569247931419
 40
11.430058017314931
 40
11.430058017314931
 40
11.430058017314931
 40
11.430058017314931
 10
-29.03263610885767
 20
-6.5
 30
0.0
 10
-28.869317974719308
 20
-6.6370401861205437
 30
0.0
 10
-28.707595014914091
 20
-6.7677911947976099
 30
0.0
 10
-28.547364377986408
 20
-6.8923741716426434
 30
0.0
 10
-28.382425448441211
 20
-7.02061795345071
 30
0.0
 10
-28.219025658231089
 20
-7.1423586724959023
 30
0.0
 10
-28.057056632306171
 20
-7.2577173633218308
 30
0.0
 11
-29.03263610885767
 21
-6.5
 31
0.0
 11
-28.788842431968035
 21
-6.700858539299638
 31
0.0
 11
-28.547364377986408
 21
-6.8923741716426434
 31
0.0
 11
-28.301096791288685
 21
-7.079877676600538
 31
0.0
 11
-28.057056632306171
 21
-7.2577173633218308
 31
0.0
  0
LINE
  5
171
100
AcDbEntity
  8
1
  6
CONTINUOUS
 62
             7
100
AcDbLine
 10
23.46736389114233
 20
11.5
 11
23.46736389114233
 21
12.5
  0
LINE
  5
170
100
AcDbEntity
  8
1
  6
CONTINUOUS
 62
             7
100
AcDbLine
 10
-24.53263610885767
 20
11.5
 11
-24.53263610885767
 21
12.5
  0
LINE
  5
16F
100
AcDbEntity
  8
1
  6
PHANTOM
 62
             2
100
AcDbLine
 10
-0.53263610885767
 20
8.5
 11
-0.53263610885767
 21
6.0
  0
LINE
  5
16E
100
AcDbEntity
  8
0
  6
CONTINUOUS
 62
             7
100
AcDbLine
 10
17.51585472912984
 20
6.0
 11
19.56646439456892
 21
6.0
  0
LINE
  5
16D
100
AcDbEntity
  8
0
  6
CONTINUOUS
 62
             7
100
AcDbLine
 10
20.34428185387662
 20
6.0
 11
25.89178441458864
 21
6.0
  0
LINE
  5
16C
100
AcDbEntity
  8
0
  6
CONTINUOUS
 62
             7
100
AcDbLine
 10
-2.53263610885767
 20
6.0
 11
-17.80330948754141
 21
6.0
  0
LINE
  5
16B
100
AcDbEntity
  8
0
  6
CONTINUOUS
 62
             7
100
AcDbLine
 10
25.89178441458864
 20
6.0
 11
26.99178441459082
 21
6.0
  0
LINE
  5
16A
100
AcDbEntity
  8
0
  6
CONTINUOUS
 62
             7
100
AcDbLine
 10
26.99178441459082
 20
6.0
 11
26.99178441459082
 21
-7.25771736332183
  0
LINE
  5
169
100
AcDbEntity
  8
0
  6
CONTINUOUS
 62
             7
100
AcDbLine
 10
19.56646439456892
 20
-8.17819926235461
 11
25.89178441458864
 21
-8.17819926235461
  0
LINE
  5
168
100
AcDbEntity
  8
0
  6
CONTINUOUS
 62
             7
100
AcDbLine
 10
-2.53263610885767
 20
-7.25771736332183
 11
-2.53263610885767
 21
-8.17819926235461
  0
LINE
  5
167
100
AcDbEntity
  8
0
  6
CONTINUOUS
 62
             7
100
AcDbLine
 10
25.89178441458864
 20
6.0
 11
25.89178441458864
 21
-8.17819926235461
  0
LINE
  5
166
100
AcDbEntity
  8
0
  6
CONTINUOUS
 62
             7
100
AcDbLine
 10
27.96736389114233
 20
8.5
 11
27.96736389114233
 21
6.0
  0
LINE
  5
165
100
AcDbEntity
  8
0
  6
CONTINUOUS
 62
             7
100
AcDbLine
 10
-29.03263610885767
 20
8.5
 11
-29.03263610885767
 21
6.0
  0
LINE
  5
164
100
AcDbEntity
  8
0
  6
CONTINUOUS
 62
             7
100
AcDbLine
 10
-29.03263610885767
 20
8.5
 11
27.96736389114233
 21
8.5
  0
LINE
  5
163
100
AcDbEntity
  8
0
  6
CONTINUOUS
 62
             7
100
AcDbLine
 10
-28.05705663230617
 20
6.0
 11
-28.05705663230617
 21
-7.25771736332183
  0
LINE
  5
162
100
AcDbEntity
  8
0
  6
CONTINUOUS
 62
             7
100
AcDbLine
 10
-21.40955407159197
 20
6.0
 11
-26.95705663230399
 21
6.0
  0
LINE
  5
161
100
AcDbEntity
  8
0
  6
CONTINUOUS
 62
             7
100
AcDbLine
 10
-26.95705663230399
 20
6.0
 11
-26.95705663230399
 21
-8.17819926235461
  0
LINE
  5
160
100
AcDbEntity
  8
0
  6
CONTINUOUS
 62
             7
100
AcDbLine
 10
-20.63173661228427
 20
-8.17819926235461
 11
-26.95705663230399
 21
-8.17819926235461
  0
LINE
  5
15F
100
AcDbEntity
  8
0
  6
CONTINUOUS
 62
             7
100
AcDbLine
 10
19.56646439456892
 20
6.0
 11
19.61990715495779
 21
6.0
  0
LINE
  5
15E
100
AcDbEntity
  8
0
  6
CONTINUOUS
 62
             7
100
AcDbLine
 10
-0.53263610885767
 20
6.0
 11
1.46736389114233
 21
6.0
  0
LINE
  5
15D
100
AcDbEntity
  8
0
  6
CONTINUOUS
 62
             7
100
AcDbLine
 10
-20.63173661228427
 20
6.0
 11
-18.5811269468453
 21
6.0
  0
LINE
  5
15C
100
AcDbEntity
  8
0
  6
CONTINUOUS
 62
             7
100
AcDbLine
 10
-17.80330948754141
 20
6.0
 11
-18.5811269468453
 21
6.0
  0
LINE
  5
15B
100
AcDbEntity
  8
0
  6
CONTINUOUS
 62
             7
100
AcDbLine
 10
-0.53263610885767
 20
6.0
 11
-2.53263610885767
 21
6.0
  0
LINE
  5
15A
100
AcDbEntity
  8
0
  6
CONTINUOUS
 62
             7
100
AcDbLine
 10
-20.63173661228427
 20
6.0
 11
-20.68517937267319
 21
6.0
  0
LINE
  5
159
100
AcDbEntity
  8
0
  6
CONTINUOUS
 62
             7
100
AcDbLine
 10
-20.68517937267319
 20
6.0
 11
-21.40955407159197
 21
6.0
  0
LINE
  5
158
100
AcDbEntity
  8
0
  6
CONTINUOUS
 62
             7
100
AcDbLine
 10
16.73803726982214
 20
6.0
 11
1.46736389114233
 21
6.0
  0
LINE
  5
157
100
AcDbEntity
  8
0
  6
CONTINUOUS
 62
             7
100
AcDbLine
 10
17.51585472912984
 20
6.0
 11
16.73803726982214
 21
6.0
  0
LINE
  5
156
100
AcDbEntity
  8
0
  6
CONTINUOUS
 62
             7
100
AcDbLine
 10
20.34428185387662
 20
6.0
 11
19.61990715495779
 21
6.0
  0
LINE
  5
155
100
AcDbEntity
  8
0
  6
CONTINUOUS
 62
             7
100
AcDbLine
 10
20.34428185387662
 20
6.0
 11
20.34428185387662
 21
-4.5
  0
LINE
  5
154
100
AcDbEntity
  8
0
  6
CONTINUOUS
 62
             7
100
AcDbLine
 10
-21.40955407159197
 20
6.0
 11
-21.40955407159197
 21
-5.5
  0
LINE
  5
153
100
AcDbEntity
  8
0
  6
CONTINUOUS
 62
             7
100
AcDbLine
 10
-0.53263610885767
 20
6.0
 11
-0.53263610885767
 21
-6.5
  0
LINE
  5
152
100
AcDbEntity
  8
0
  6
CONTINUOUS
 62
             7
100
AcDbLine
 10
-20.68517937267319
 20
6.0
 11
-20.68517937267319
 21
-6.5
  0
LINE
  5
151
100
AcDbEntity
  8
0
  6
CONTINUOUS
 62
             7
100
AcDbLine
 10
19.61990715495779
 20
6.0
 11
19.61990715495779
 21
-6.5
  0
LINE
  5
150
100
AcDbEntity
  8
0
  6
CONTINUOUS
 62
             7
100
AcDbLine
 10
-2.53263610885767
 20
6.0
 11
-2.53263610885767
 21
-7.25771736332183
  0
LINE
  5
14F
100
AcDbEntity
  8
0
  6
CONTINUOUS
 62
             7
100
AcDbLine
 10
17.51585472912984
 20
6.0
 11
17.51585472914076
 21
-7.25771736337271
  0
LINE
  5
14E
100
AcDbEntity
  8
0
  6
CONTINUOUS
 62
             7
100
AcDbLine
 10
-18.5811269468453
 20
6.0
 11
-18.5811269468453
 21
-7.25771736332183
  0
LINE
  5
14D
100
AcDbEntity
  8
0
  6
CONTINUOUS
 62
             7
100
AcDbLine
 10
-21.40955407159197
 20
-5.5
 11
-21.40955407159197
 21
-7.25771736332183
  0
LINE
  5
14C
100
AcDbEntity
  8
0
  6
CONTINUOUS
 62
             7
100
AcDbLine
 10
1.46736389114233
 20
6.0
 11
1.46736389114233
 21
-7.25771736332183
  0
LINE
  5
14B
100
AcDbEntity
  8
0
  6
CONTINUOUS
 62
             7
100
AcDbLine
 10
16.73803726982214
 20
6.0
 11
16.73803726982214
 21
-8.17819926235461
  0
LINE
  5
14A
100
AcDbEntity
  8
0
  6
CONTINUOUS
 62
             7
100
AcDbLine
 10
1.46736389114233
 20
-7.25771736332183
 11
1.46736389114233
 21
-8.17819926235461
  0
LINE
  5
149
100
AcDbEntity
  8
0
  6
CONTINUOUS
 62
             7
100
AcDbLine
 10
-17.80330948754141
 20
6.0
 11
-17.80330948754141
 21
-8.17819926235461
  0
LINE
  5
148
100
AcDbEntity
  8
0
  6
CONTINUOUS
 62
             7
100
AcDbLine
 10
-2.53263610885767
 20
-8.17819926235461
 11
-17.80330948754141
 21
-8.17819926235461
  0
LINE
  5
147
100
AcDbEntity
  8
0
  6
CONTINUOUS
 62
             7
100
AcDbLine
 10
16.73803726982214
 20
-8.17819926235461
 11
1.46736389114233
 21
-8.17819926235461
  0
LINE
  5
146
100
AcDbEntity
  8
0
  6
CONTINUOUS
 62
             7
100
AcDbLine
 10
20.34428185387662
 20
-5.5
 11
20.34428185387662
 21
-7.25771736332183
  0
LINE
  5
145
100
AcDbEntity
  8
0
  6
CONTINUOUS
 62
             7
100
AcDbLine
 10
20.34428185387662
 20
-4.5
 11
20.34428185387662
 21
-5.5
  0
LINE
  5
144
100
AcDbEntity
  8
0
  6
CONTINUOUS
 62
             7
100
AcDbLine
 10
-26.95705663230399
 20
6.0
 11
-28.05705663230617
 21
6.0
  0
LINE
  5
143
100
AcDbEntity
  8
0
  6
CONTINUOUS
 62
             7
100
AcDbLine
 10
25.58385670595226
 20
-8.5
 11
27.96736389112414
 21
-6.50000000003644
  0
LINE
  5
142
100
AcDbEntity
  8
0
  6
CONTINUOUS
 62
             7
100
AcDbLine
 10
27.96736389114233
 20
6.0
 11
26.99178441459082
 21
6.0
  0
LINE
  5
141
100
AcDbEntity
  8
0
  6
CONTINUOUS
 62
             7
100
AcDbLine
 10
-29.03263610885767
 20
6.0
 11
-28.05705663230617
 21
6.0
  0
LINE
  5
140
100
AcDbEntity
  8
0
  6
CONTINUOUS
 62
             7
100
AcDbLine
 10
-29.03263610885767
 20
6.0
 11
-29.03263610885767
 21
-6.5
  0
LINE
  5
13F
100
AcDbEntity
  8
0
  6
CONTINUOUS
 62
             7
100
AcDbLine
 10
27.96736389114233
 20
6.0
 11
27.96736389112414
 21
-6.50000000003644
  0
LINE
  5
13E
100
AcDbEntity
  8
0
  6
CONTINUOUS
 62
             7
100
AcDbLine
 10
-26.64912892366772
 20
-8.5
 11
-29.03263610885767
 21
-6.5
  0
LINE
  5
13D
100
AcDbEntity
  8
0
  6
CONTINUOUS
 62
             7
100
AcDbLine
 10
25.58385670595226
 20
-8.5
 11
-26.64912892366772
 21
-8.5
  0
ENDBLK
  5
180
100
AcDbEntity
  8
0
100
AcDbBlockEnd
  0
BLOCK
  5
37
100
AcDbEntity
  8
0
100
AcDbBlockBegin
  2
HL_13_TAUCHROHR_ARTIKEL
 70
             0
 10
552.46209174422006
 20
-288.68143851508131
 30
0.0
  3
HL_13_TAUCHROHR_ARTIKEL
  1

  0
LINE
  5
185
100
AcDbEntity
  8
1
  6
CONTINUOUS
 62
             7
100
AcDbLine
 10
-20.0
 20
-164.29684037537791
 11
-20.0
 21
-8.5
  0
LINE
  5
184
100
AcDbEntity
  8
1
  6
CONTINUOUS
 62
             7
100
AcDbLine
 10
20.0
 20
-164.29684037537791
 11
20.0
 21
-184.29684037537771
  0
LINE
  5
183
100
AcDbEntity
  8
1
  6
CONTINUOUS
 62
             7
100
AcDbLine
 10
20.0
 20
-8.49999999999625
 11
20.0
 21
-164.29684037537791
  0
LINE
  5
182
100
AcDbEntity
  8
1
  6
CONTINUOUS
 62
             7
100
AcDbLine
 10
-20.0
 20
-184.29684037537771
 11
-20.0
 21
-164.29684037537791
  0
LINE
  5
181
100
AcDbEntity
  8
1
  6
PHANTOM
 62
             2
100
AcDbLine
 10
-0.00000000000002
 20
-203.5504302138639
 11
0.00000000000001
 21
-8.49999999999625
  0
ENDBLK
  5
186
100
AcDbEntity
  8
0
100
AcDbBlockEnd
  0
BLOCK
  5
39
100
AcDbEntity
  8
0
100
AcDbBlockBegin
  2
HL_100
 70
             0
 10
40.0
 20
-302.05043021386382
 30
0.0
  3
HL_100
  1

  0
INSERT
  5
3A
100
AcDbEntity
  8
1
100
AcDbBlockReference
  2
BGR_ERSATZTEIL
 10
892.64664974662401
 20
-729.3749330492459
  0
INSERT
  5
3B
100
AcDbEntity
  8
0
100
AcDbBlockReference
  2
HOLL_NDERMUTTER_6_4__1
 10
375.27393665073868
 20
-226.47338449267619
  0
INSERT
  5
3C
100
AcDbEntity
  8
0
100
AcDbBlockReference
  2
HL_13_TAUCHROHR
 10
680.71047681752532
 20
-33.20000000000005
  0
INSERT
  5
3D
100
AcDbEntity
  8
0
100
AcDbBlockReference
  2
HOLL_NDERMUTTER_6_4__2
 10
374.74130054188112
 20
10.37252406494849
  0
INSERT
  5
3E
100
AcDbEntity
  8
1
100
AcDbBlockReference
  2
HL_13_TAUCHROHR_ARTIKEL
 10
552.46209174422006
 20
-288.68143851508131
  0
ENDBLK
  5
187
100
AcDbEntity
  8
0
100
AcDbBlockEnd
  0
BLOCK
  5
18A
100
AcDbEntity
  8
0
100
AcDbBlockBegin
  2
*D9
 70
             1
 10
0.0
 20
0.0
 30
0.0
  3
*D9
  1

  0
LINE
  5
18B
100
AcDbEntity
  8
0
  6
CONTINUOUS
 62
             4
100
AcDbLine
 10
156.26944958085099
 20
-171.98541742395773
 11
156.26944958085099
 21
-302.05043021386382
  0
LINE
  5
18C
100
AcDbEntity
  8
0
  6
CONTINUOUS
 62
             4
100
AcDbLine
 10
39.99999999999999
 20
-302.05043021386382
 11
158.26944958085099
 21
-302.05043021386382
  0
LINE
  5
18D
100
AcDbEntity
  8
0
  6
CONTINUOUS
 62
             4
100
AcDbLine
 10
85.46563074103905
 20
-171.98541742395773
 11
158.26944958085099
 21
-171.98541742395773
  0
SOLID
  5
18E
100
AcDbEntity
  8
0
 62
             4
100
AcDbTrace
 10
157.19101706396276
 20
-178.98541742395773
 11
155.34788209773922
 21
-178.98541742395773
 12
156.26944958085099
 22
-171.98541742395773
 13
156.26944958085099
 23
-171.98541742395773
  0
SOLID
  5
18F
100
AcDbEntity
  8
0
 62
             4
100
AcDbTrace
 10
155.34788209773922
 20
-295.05043021386382
 11
157.19101706396276
 21
-295.05043021386382
 12
156.26944958085099
 22
-302.05043021386382
 13
156.26944958085099
 23
-302.05043021386382
  0
MTEXT
  5
191
100
AcDbEntity
  8
0
 62
             1
100
AcDbMText
 10
154.26944958085099
 20
-251.76345526640409
 30
0.0
 40
7.0
 41
0.0
 71
             7
 72
             1
  1
130
  7
CONVERTER_1
 11
0.0
 21
1.0
 31
0.0
  0
ENDBLK
  5
192
100
AcDbEntity
  8
0
100
AcDbBlockEnd
  0
BLOCK
  5
196
100
AcDbEntity
  8
0
100
AcDbBlockBegin
  2
*D10
 70
             1
 10
0.0
 20
0.0
 30
0.0
  3
*D10
  1

  0
LINE
  5
197
100
AcDbEntity
  8
0
  6
CONTINUOUS
 62
             4
100
AcDbLine
 10
-20.0
 20
-167.36726491103079
 11
20.0
 21
-167.36726491103079
  0
LINE
  5
198
100
AcDbEntity
  8
0
  6
CONTINUOUS
 62
             4
100
AcDbLine
 10
20.0
 20
-167.36726491103079
 11
53.6841419900867
 21
-167.36726491103079
  0
LINE
  5
199
100
AcDbEntity
  8
0
  6
CONTINUOUS
 62
             4
100
AcDbLine
 10
-20.0
 20
-184.29684037537768
 11
-20.0
 21
-165.36726491103079
  0
LINE
  5
19A
100
AcDbEntity
  8
0
  6
CONTINUOUS
 62
             4
100
AcDbLine
 10
20.0
 20
-184.29684037537768
 11
20.0
 21
-165.36726491103079
  0
SOLID
  5
19B
100
AcDbEntity
  8
0
 62
             4
100
AcDbTrace
 10
13.0
 20
-168.28883239414256
 11
13.0
 21
-166.44569742791901
 12
20.0
 22
-167.36726491103079
 13
20.0
 23
-167.36726491103079
  0
SOLID
  5
19C
100
AcDbEntity
  8
0
 62
             4
100
AcDbTrace
 10
-13.0
 20
-166.44569742791901
 11
-13.0
 21
-168.28883239414256
 12
-20.0
 22
-167.36726491103079
 13
-20.0
 23
-167.36726491103079
  0
MTEXT
  5
19D
100
AcDbEntity
  8
0
 62
             1
100
AcDbMText
 10
31.70414199012043
 20
-165.36729273933608
 30
0.0
 40
7.0
 41
0.0
 71
             7
 72
             1
  1
\C1;DN\C1;40
  7
CONVERTER_1
 11
0.99999999999706
 21
0.00000242406841
 31
0.0
  0
ENDBLK
  5
19E
100
AcDbEntity
  8
0
100
AcDbBlockEnd
  0
BLOCK
  5
1A2
100
AcDbEntity
  8
0
100
AcDbBlockBegin
  2
*D11
 70
             1
 10
0.0
 20
0.0
 30
0.0
  3
*D11
  1

  0
LINE
  5
1A3
100
AcDbEntity
  8
0
  6
CONTINUOUS
 62
             4
100
AcDbLine
 10
0.0
 20
55.51548650969319
 11
309.92152791795002
 21
55.51548650969319
  0
LINE
  5
1A4
100
AcDbEntity
  8
0
  6
CONTINUOUS
 62
             4
100
AcDbLine
 10
0.0
 20
26.09949272986519
 11
0.0
 21
57.51548650969319
  0
LINE
  5
1A5
100
AcDbEntity
  8
0
  6
CONTINUOUS
 62
             4
100
AcDbLine
 10
309.92152791795002
 20
-152.92323959746659
 11
309.92152791795002
 21
57.51548650969319
  0
LINE
  5
1A6
100
AcDbEntity
  8
0
  6
CONTINUOUS
 62
             4
100
AcDbLine
 10
0.0
 20
-8.49999999999625
 11
0.0
 21
16.28006052296321
  0
SOLID
  5
1A7
100
AcDbEntity
  8
0
 62
             4
100
AcDbTrace
 10
7.0
 20
56.43705399280496
 11
7.0
 21
54.59391902658142
 12
0.0
 22
55.51548650969319
 13
0.0
 23
55.51548650969319
  0
SOLID
  5
1A8
100
AcDbEntity
  8
0
 62
             4
100
AcDbTrace
 10
302.92152791795002
 20
54.59391902658142
 11
302.92152791795002
 21
56.43705399280496
 12
309.92152791795002
 22
55.51548650969319
 13
309.92152791795002
 23
55.51548650969319
  0
MTEXT
  5
1A9
100
AcDbEntity
  8
0
 62
             1
100
AcDbMText
 10
144.96679996661192
 20
57.51548650969319
 30
0.0
 40
7.0
 41
0.0
 71
             7
 72
             1
  1
310
  7
CONVERTER_1
 11
0.99999999999706
 21
0.00000242406841
 31
0.0
  0
ENDBLK
  5
1AA
100
AcDbEntity
  8
0
100
AcDbBlockEnd
  0
BLOCK
  5
1AE
100
AcDbEntity
  8
0
100
AcDbBlockBegin
  2
*D12
 70
             1
 10
0.0
 20
0.0
 30
0.0
  3
*D12
  1

  0
LINE
  5
1AF
100
AcDbEntity
  8
0
  6
CONTINUOUS
 62
             4
100
AcDbLine
 10
0.00000000000002
 20
41.01314675267117
 11
89.92152791795003
 21
41.01314675267117
  0
LINE
  5
1B0
100
AcDbEntity
  8
0
  6
CONTINUOUS
 62
             4
100
AcDbLine
 10
0.00000000000002
 20
25.97360257336715
 11
0.00000000000002
 21
43.01314675267117
  0
LINE
  5
1B1
100
AcDbEntity
  8
0
  6
CONTINUOUS
 62
             4
100
AcDbLine
 10
89.92152791795003
 20
-166.52360399995834
 11
89.92152791795003
 21
43.01314675267117
  0
LINE
  5
1B2
100
AcDbEntity
  8
0
  6
CONTINUOUS
 62
             4
100
AcDbLine
 10
0.00000000000002
 20
-8.49999999999625
 11
0.00000000000002
 21
16.2800605229632
  0
SOLID
  5
1B3
100
AcDbEntity
  8
0
 62
             4
100
AcDbTrace
 10
7.00000000000002
 20
41.93471423578294
 11
7.00000000000002
 21
40.0915792695594
 12
0.00000000000002
 22
41.01314675267117
 13
0.00000000000002
 23
41.01314675267117
  0
SOLID
  5
1B4
100
AcDbEntity
  8
0
 62
             4
100
AcDbTrace
 10
82.92152791795003
 20
40.0915792695594
 11
82.92152791795003
 21
41.93471423578294
 12
89.92152791795003
 22
41.01314675267117
 13
89.92152791795003
 23
41.01314675267117
  0
MTEXT
  5
1B5
100
AcDbEntity
  8
0
 62
             1
100
AcDbMText
 10
35.27793100623486
 20
43.01314675267117
 30
0.0
 40
7.0
 41
0.0
 71
             7
 72
             1
  1
90
  7
CONVERTER_1
 11
0.99999999999706
 21
0.00000242406841
 31
0.0
  0
ENDBLK
  5
1B6
100
AcDbEntity
  8
0
100
AcDbBlockEnd
  0
BLOCK
  5
1BA
100
AcDbEntity
  8
0
100
AcDbBlockBegin
  2
*D13
 70
             1
 10
0.0
 20
0.0
 30
0.0
  3
*D13
  1

  0
LINE
  5
1BB
100
AcDbEntity
  8
0
  6
CONTINUOUS
 62
             4
100
AcDbLine
 10
23.46736389114233
 20
21.5
 11
60.04869875292395
 21
21.5
  0
LINE
  5
1BC
100
AcDbEntity
  8
0
  6
CONTINUOUS
 62
             4
100
AcDbLine
 10
-24.53263610885767
 20
21.5
 11
23.46736389114233
 21
21.5
  0
LINE
  5
1BD
100
AcDbEntity
  8
0
  6
CONTINUOUS
 62
             4
100
AcDbLine
 10
23.46736389114233
 20
11.5
 11
23.46736389114233
 21
23.5
  0
LINE
  5
1BE
100
AcDbEntity
  8
0
  6
CONTINUOUS
 62
             4
100
AcDbLine
 10
-24.53263610885767
 20
11.5
 11
-24.53263610885767
 21
23.5
  0
SOLID
  5
1BF
100
AcDbEntity
  8
0
 62
             4
100
AcDbTrace
 10
16.46736389114233
 20
20.57843251688823
 11
16.46736389114233
 21
22.42156748311177
 12
23.46736389114233
 22
21.5
 13
23.46736389114233
 23
21.5
  0
SOLID
  5
1C0
100
AcDbEntity
  8
0
 62
             4
100
AcDbTrace
 10
-17.53263610885767
 20
22.42156748311177
 11
-17.53263610885767
 21
20.57843251688823
 12
-24.53263610885767
 22
21.5
 13
-24.53263610885767
 23
21.5
  0
MTEXT
  5
1C1
100
AcDbEntity
  8
0
 62
             1
100
AcDbMText
 10
41.14869875292395
 20
23.5
 30
0.0
 40
7.0
 41
0.0
 71
             7
 72
             1
  1
6/4"
  7
CONVERTER_1
 11
0.99999999999706
 21
0.00000242406841
 31
0.0
  0
ENDBLK
  5
1C2
100
AcDbEntity
  8
0
100
AcDbBlockEnd
  0
BLOCK
  5
1C6
100
AcDbEntity
  8
0
100
AcDbBlockBegin
  2
*D14
 70
             1
 10
0.0
 20
0.0
 30
0.0
  3
*D14
  1

  0
LINE
  5
1C7
100
AcDbEntity
  8
0
  6
CONTINUOUS
 62
             4
100
AcDbLine
 10
325.44735987399298
 20
-151.9854174239577
 11
325.44735987399298
 21
-118.82814793886901
  0
LINE
  5
1C8
100
AcDbEntity
  8
0
  6
CONTINUOUS
 62
             4
100
AcDbLine
 10
325.44735987399298
 20
-191.9854174239577
 11
325.44735987399298
 21
-151.9854174239577
  0
LINE
  5
1C9
100
AcDbEntity
  8
0
  6
CONTINUOUS
 62
             4
100
AcDbLine
 10
306.42152791795002
 20
-151.9854174239577
 11
327.44735987399298
 21
-151.9854174239577
  0
LINE
  5
1CA
100
AcDbEntity
  8
0
  6
CONTINUOUS
 62
             4
100
AcDbLine
 10
306.42152791795002
 20
-191.9854174239577
 11
327.44735987399298
 21
-191.9854174239577
  0
SOLID
  5
1CB
100
AcDbEntity
  8
0
 62
             4
100
AcDbTrace
 10
324.52579239088124
 20
-184.9854174239577
 11
326.36892735710472
 21
-184.9854174239577
 12
325.44735987399298
 22
-191.9854174239577
 13
325.44735987399298
 23
-191.9854174239577
  0
SOLID
  5
1CC
100
AcDbEntity
  8
0
 62
             4
100
AcDbTrace
 10
326.36892735710472
 20
-158.9854174239577
 11
324.52579239088124
 21
-158.9854174239577
 12
325.44735987399298
 22
-151.9854174239577
 13
325.44735987399298
 23
-151.9854174239577
  0
MTEXT
  5
1CD
100
AcDbEntity
  8
0
 62
             1
100
AcDbMText
 10
323.44735987399298
 20
-140.80814793886901
 30
0.0
 40
7.0
 41
0.0
 71
             7
 72
             1
  1
\C1;DN\C1;40
  7
CONVERTER_1
 11
0.0
 21
1.0
 31
0.0
  0
ENDBLK
  5
1CE
100
AcDbEntity
  8
0
100
AcDbBlockEnd
  0
BLOCK
  5
1D2
100
AcDbEntity
  8
0
100
AcDbBlockBegin
  2
*D15
 70
             1
 10
0.0
 20
0.0
 30
0.0
  3
*D15
  1

  0
LINE
  5
1D3
100
AcDbEntity
  8
0
  6
CONTINUOUS
 62
             4
100
AcDbLine
 10
345.40038946733102
 20
-171.9854174239577
 11
345.40038946733102
 21
0.0
  0
LINE
  5
1D4
100
AcDbEntity
  8
0
  6
CONTINUOUS
 62
             4
100
AcDbLine
 10
30.96736389113352
 20
0.0
 11
347.40038946733102
 21
0.0
  0
LINE
  5
1D5
100
AcDbEntity
  8
0
  6
CONTINUOUS
 62
             4
100
AcDbLine
 10
312.84637482141778
 20
-171.9854174239577
 11
347.40038946733102
 21
-171.9854174239577
  0
SOLID
  5
1D6
100
AcDbEntity
  8
0
 62
             4
100
AcDbTrace
 10
344.47882198421928
 20
-164.9854174239577
 11
346.32195695044277
 21
-164.9854174239577
 12
345.40038946733102
 22
-171.9854174239577
 13
345.40038946733102
 23
-171.9854174239577
  0
SOLID
  5
1D7
100
AcDbEntity
  8
0
 62
             4
100
AcDbTrace
 10
346.32195695044277
 20
-7.0
 11
344.47882198421928
 21
-7.0
 12
345.40038946733102
 22
0.0
 13
345.40038946733102
 23
0.0
  0
MTEXT
  5
1D8
100
AcDbEntity
  8
0
 62
             1
100
AcDbMText
 10
343.40038946733102
 20
-102.74380326373399
 30
0.0
 40
7.0
 41
0.0
 71
             7
 72
             1
  1
\C1;0-\C1;205
  7
CONVERTER_1
 11
0.0
 21
1.0
 31
0.0
  0
ENDBLK
  5
1D9
100
AcDbEntity
  8
0
100
AcDbBlockEnd
  0
ENDSEC
  0
SECTION
  2
ENTITIES
  0
DIMENSION
  5
1DB
100
AcDbEntity
  8
1
100
AcDbDimension
  2
*D15
 10
345.40038946733102
 20
-171.9854174239577
 11
339.90038946733102
 21
-89.51380326373399
 31
0.0
 53
89.99999999999999
  1
0-205
  3
ME10_DIM_6
100
AcDbAlignedDimension
 13
30.96736389113357
 23
0.0
 14
312.84637482141778
 24
-171.9854174239577
 50
89.99999999999999
100
AcDbRotatedDimension
  0
DIMENSION
  5
1D0
100
AcDbEntity
  8
1
100
AcDbDimension
  2
*D14
 10
325.44735987399298
 20
-191.9854174239577
 11
319.94735987399298
 21
-131.77814793886901
 31
0.0
 53
90.0
  1
<>
  3
ME10_DIM_5
100
AcDbAlignedDimension
 13
306.42152791795002
 23
-151.9854174239577
 14
306.42152791795002
 24
-191.9854174239577
 50
90.0
100
AcDbRotatedDimension
  0
DIMENSION
  5
1C4
100
AcDbEntity
  8
1
100
AcDbDimension
  2
*D13
 10
23.46736389114233
 20
21.5
 11
50.59869875292395
 21
27.0
 31
0.0
 53
180.0
  1
6/4"
  3
ME10_DIM_4
100
AcDbAlignedDimension
 13
-24.53263610885767
 23
11.5
 14
23.46736389114233
 24
11.5
 50
180.0
100
AcDbRotatedDimension
  0
DIMENSION
  5
1B8
100
AcDbEntity
  8
1
100
AcDbDimension
  2
*D12
 10
0.00000000000002
 20
41.01314675267117
 11
40.52793100623486
 21
46.51314675267117
 31
0.0
 53
180.0
  1
<>
  3
ME10_DIM_3
100
AcDbAlignedDimension
 13
89.92152791795003
 23
-166.52360399995831
 14
0.00000000000001
 24
-8.49999999999625
 50
180.0
100
AcDbRotatedDimension
  0
DIMENSION
  5
1AC
100
AcDbEntity
  8
1
100
AcDbDimension
  2
*D11
 10
0.0
 20
55.51548650969319
 11
152.31679996661191
 21
61.01548650969319
 31
0.0
 53
180.0
  1
<>
  3
ME10_DIM_2
100
AcDbAlignedDimension
 13
309.92152791795002
 23
-152.92323959746659
 14
0.00000000000001
 24
-8.49999999999625
 50
180.0
100
AcDbRotatedDimension
  0
DIMENSION
  5
1A0
100
AcDbEntity
  8
1
100
AcDbDimension
  2
*D10
 10
20.0
 20
-167.36726491103079
 11
40.7341419900867
 21
-161.86726491103079
 31
0.0
 53
180.0
  1
DN40
  3
ME10_DIM_1
100
AcDbAlignedDimension
 13
-20.0
 23
-184.29684037537771
 14
20.0
 24
-184.29684037537771
 50
180.0
100
AcDbRotatedDimension
  0
DIMENSION
  5
194
100
AcDbEntity
  8
1
100
AcDbDimension
  2
*D9
 10
156.26944958085099
 20
-171.98541742395773
 11
150.76944958085099
 21
-244.4134552664041
 31
0.0
 53
90.0
  1
<>
  3
ME10_DIM_0
100
AcDbAlignedDimension
 13
40.0
 23
-302.05043021386382
 14
85.46563074103905
 24
-171.9854174239577
 50
90.0
100
AcDbRotatedDimension
  0
INSERT
  5
41
100
AcDbEntity
  8
0
100
AcDbBlockReference
  2
HL_100
 10
40.0
 20
-302.05043021386382
  0
ENDSEC
  0
SECTION
  2
OBJECTS
  0
DICTIONARY
  5
19
100
AcDbDictionary
  3
ACAD_GROUP
350
1A
  3
ACAD_MLINESTYLE
350
1B
  0
DICTIONARY
  5
1A
102
{ACAD_REACTORS
330
19
102
}
100
AcDbDictionary
  0
DICTIONARY
  5
1B
102
{ACAD_REACTORS
330
19
102
}
100
AcDbDictionary
  3
STANDARD
350
1C
  0
MLINESTYLE
  5
1C
102
{ACAD_REACTORS
330
1B
102
}
100
AcDbMlineStyle
  2
STANDARD
 70
             0
  3

 62
             0
 51
90.0
 52
90.0
 71
             2
 49
0.5
 62
           256
  6
BYLAYER
 49
-0.5
 62
           256
  6
BYLAYER
  0
ENDSEC
  0
EOF
