  0
SECTION
  2
HEADER
  9
$ACADVER
  1
AC1014
  9
$ACADMAINTVER
 70
             0
  9
$DWGCODEPAGE
  3
ANSI_1252
  9
$INSBASE
 10
0.0
 20
0.0
 30
0.0
  9
$EXTMIN
 10
-111.780924248525
 20
0.0
 30
0.0
  9
$EXTMAX
 10
298.53453367072899
 20
365.06772504694601
 30
0.0
  9
$LIMMIN
 10
0.0
 20
0.0
  9
$LIMMAX
 10
0.0
 20
0.0
  9
$ORTHOMODE
 70
             0
  9
$REGENMODE
 70
             1
  9
$FILLMODE
 70
             1
  9
$QTEXTMODE
 70
             0
  9
$MIRRTEXT
 70
             1
  9
$DRAGMODE
 70
             2
  9
$LTSCALE
 40
1.0
  9
$OSMODE
 70
             0
  9
$ATTMODE
 70
             1
  9
$TEXTSIZE
 40
0.2
  9
$TRACEWID
 40
0.05
  9
$TEXTSTYLE
  7
STANDARD
  9
$CLAYER
  8
0
  9
$CELTYPE
  6
CONTINUOUS
  9
$CECOLOR
 62
           256
  9
$CELTSCALE
 40
1.0
  9
$DELOBJ
 70
             1
  9
$DISPSILH
 70
             0
  9
$DIMSCALE
 40
1.0
  9
$DIMASZ
 40
0.18
  9
$DIMEXO
 40
0.0625
  9
$DIMDLI
 40
0.38
  9
$DIMRND
 40
0.0
  9
$DIMDLE
 40
0.0
  9
$DIMEXE
 40
0.18
  9
$DIMTP
 40
0.0
  9
$DIMTM
 40
0.0
  9
$DIMTXT
 40
0.18
  9
$DIMCEN
 40
0.09
  9
$DIMTSZ
 40
0.0
  9
$DIMTOL
 70
             0
  9
$DIMLIM
 70
             0
  9
$DIMTIH
 70
             1
  9
$DIMTOH
 70
             1
  9
$DIMSE1
 70
             0
  9
$DIMSE2
 70
             0
  9
$DIMTAD
 70
             0
  9
$DIMZIN
 70
             0
  9
$DIMBLK
  1

  9
$DIMASO
 70
             1
  9
$DIMSHO
 70
             1
  9
$DIMPOST
  1

  9
$DIMAPOST
  1

  9
$DIMALT
 70
             0
  9
$DIMALTD
 70
             2
  9
$DIMALTF
 40
25.4
  9
$DIMLFAC
 40
1.0
  9
$DIMTOFL
 70
             0
  9
$DIMTVP
 40
0.0
  9
$DIMTIX
 70
             0
  9
$DIMSOXD
 70
             0
  9
$DIMSAH
 70
             0
  9
$DIMBLK1
  1

  9
$DIMBLK2
  1

  9
$DIMSTYLE
  2
STANDARD
  9
$DIMCLRD
 70
             0
  9
$DIMCLRE
 70
             0
  9
$DIMCLRT
 70
             0
  9
$DIMTFAC
 40
1.0
  9
$DIMGAP
 40
0.09
  9
$DIMJUST
 70
             0
  9
$DIMSD1
 70
             0
  9
$DIMSD2
 70
             0
  9
$DIMTOLJ
 70
             1
  9
$DIMTZIN
 70
             0
  9
$DIMALTZ
 70
             0
  9
$DIMALTTZ
 70
             0
  9
$DIMFIT
 70
             3
  9
$DIMUPT
 70
             0
  9
$DIMUNIT
 70
             2
  9
$DIMDEC
 70
             4
  9
$DIMTDEC
 70
             4
  9
$DIMALTU
 70
             2
  9
$DIMALTTD
 70
             2
  9
$DIMTXSTY
  7
STANDARD
  9
$DIMAUNIT
 70
             0
  9
$LUNITS
 70
             2
  9
$LUPREC
 70
             4
  9
$SKETCHINC
 40
0.1
  9
$FILLETRAD
 40
0.0
  9
$AUNITS
 70
             0
  9
$AUPREC
 70
             0
  9
$MENU
  1
acad
  9
$ELEVATION
 40
0.0
  9
$PELEVATION
 40
0.0
  9
$THICKNESS
 40
0.0
  9
$LIMCHECK
 70
             0
  9
$BLIPMODE
 70
             1
  9
$CHAMFERA
 40
0.0
  9
$CHAMFERB
 40
0.0
  9
$CHAMFERC
 40
0.0
  9
$CHAMFERD
 40
0.0
  9
$SKPOLY
 70
             0
  9
$TDCREATE
 40
0.000000000
  9
$TDUPDATE
 40
0.000000000
  9
$TDINDWG
 40
0.0000000000
  9
$TDUSRTIMER
 40
0.0000000000
  9
$USRTIMER
 70
             1
  9
$ANGBASE
 50
0.0
  9
$ANGDIR
 70
             0
  9
$PDMODE
 70
             0
  9
$PDSIZE
 40
0.0
  9
$PLINEWID
 40
0.0
  9
$COORDS
 70
             0
  9
$SPLFRAME
 70
             0
  9
$SPLINETYPE
 70
             6
  9
$SPLINESEGS
 70
             8
  9
$ATTDIA
 70
             0
  9
$ATTREQ
 70
             1
  9
$HANDLING
 70
             1
  9
$HANDSEED
  5
1D3
  9
$SURFTAB1
 70
             6
  9
$SURFTAB2
 70
             6
  9
$SURFTYPE
 70
             6
  9
$SURFU
 70
             6
  9
$SURFV
 70
             6
  9
$UCSNAME
  2

  9
$UCSORG
 10
0.0
 20
0.0
 30
0.0
  9
$UCSXDIR
 10
1.0
 20
0.0
 30
0.0
  9
$UCSYDIR
 10
0.0
 20
1.0
 30
0.0
  9
$PUCSNAME
  2

  9
$PUCSORG
 10
0.0
 20
0.0
 30
0.0
  9
$PUCSXDIR
 10
1.0
 20
0.0
 30
0.0
  9
$PUCSYDIR
 10
0.0
 20
1.0
 30
0.0
  9
$USERI1
 70
             0
  9
$USERI2
 70
             0
  9
$USERI3
 70
             0
  9
$USERI4
 70
             0
  9
$USERI5
 70
             0
  9
$USERR1
 40
12.01
  9
$USERR2
 40
0.0
  9
$USERR3
 40
0.0
  9
$USERR4
 40
0.0
  9
$USERR5
 40
0.0
  9
$WORLDVIEW
 70
             1
  9
$SHADEDGE
 70
             3
  9
$SHADEDIF
 70
            70
  9
$TILEMODE
 70
             1
  9
$MAXACTVP
 70
            16
  9
$PINSBASE
 10
0.0
 20
0.0
 30
0.0
  9
$PLIMCHECK
 70
             0
  9
$PEXTMIN
 10
1.00000000000000E+20
 20
1.00000000000000E+20
 30
1.00000000000000E+20
  9
$PEXTMAX
 10
-1.00000000000000E+20
 20
-1.00000000000000E+20
 30
-1.00000000000000E+20
  9
$PLIMMIN
 10
0.0
 20
0.0
  9
$PLIMMAX
 10
12.0
 20
9.0
  9
$UNITMODE
 70
             0
  9
$VISRETAIN
 70
             0
  9
$PLINEGEN
 70
             1
  9
$PSLTSCALE
 70
             0
  9
$TREEDEPTH
 70
          3020
  9
$PICKSTYLE
 70
             1
  9
$CMLSTYLE
  2
STANDARD
  9
$CMLJUST
 70
             0
  9
$CMLSCALE
 40
1.0
  9
$PROXYGRAPHICS
 70
             0
  9
$MEASUREMENT
 70
             1
  0
ENDSEC
  0
SECTION
  2
CLASSES
  0
CLASS
  1
LWPOLYLINE
  2
AcDbPolyline
  3
"AutoCAD"
 90
        0
280
             0
281
             1
  0
CLASS
  1
IMAGE
  2
AcDbRasterImage
  3
ISM
 90
      127
280
             0
281
             1
  0
CLASS
  1
OLE2FRAME
  2
AcDbOle2Frame
  3
""
 90
        0
280
             0
281
             1
  0
CLASS
  1
HATCH
  2
AcDbHatch
  3
"ACAD_SEDONA"
 90
        0
280
             0
281
             1
  0
CLASS
  1
DICTIONARYVAR
  2
AcDbDictionaryVar
  3
"AutoCAD"
 90
        0
280
             0
281
             0
  0
CLASS
  1
RASTERVARIABLES
  2
AcDbRasterVariables
  3
ISM
 90
        0
280
             0
281
             0
  0
CLASS
  1
IMAGEDEF
  2
AcDbRasterImageDef
  3
ISM
 90
        0
280
             0
281
             0
  0
CLASS
  1
IMAGEDEF_REACTOR
  2
AcDbRasterImageDefReactor
  3
ISM
 90
        1
280
             0
281
             0
  0
CLASS
  1
IDBUFFER
  2
AcDbIdBuffer
  3
"Acad"
 90
        0
280
             0
281
             0
  0
CLASS
  1
SPATIAL_FILTER
  2
AcDbSpatialFilter
  3
"Acad"
 90
        0
280
             0
281
             0
  0
CLASS
  1
XRECORD
  2
AcDbXrecord
  3
"<Built In>"
 90
        0
280
             0
281
             0
  0
CLASS
  1
SORTENTSTABLE
  2
AcDbSortentsTable
  3
"AutoCAD"
 90
        0
280
             0
281
             0
  0
CLASS
  1
LAYER_INDEX
  2
AcDbLayerIndex
  3
"Acad"
 90
        0
280
             0
281
             0
  0
CLASS
  1
SPATIAL_INDEX
  2
AcDbSpatialIndex
  3
"Acad"
 90
        0
280
             0
281
             0
  0
CLASS
  1
OBJECT_PTR
  2
CAseDLPNTableRecord
  3
"ASE-LPNTableRecord"
 90
        1
280
             0
281
             0
  0
CLASS
  1
LAYOUT
  2
AcDbLayout
  3
"AutoCAD 2000"
 90
        0
280
             0
281
             0
  0
CLASS
  1
PLOTSETTINGS
  2
AcDbPlotSettings
  3
"AutoCAD 2000"
 90
        0
280
             0
281
             0
  0
CLASS
  1
ACDBDICTIONARYWDFLT
  2
AcDbDictionaryWithDefault
  3
"AutoCAD 2000"
 90
        0
280
             0
281
             0
  0
CLASS
  1
ACDBPLACEHOLDER
  2
AcDbPlaceHolder
  3
"AutoCAD 2000"
 90
        0
280
             0
281
             0
  0
ENDSEC
  0
SECTION
  2
TABLES
  0
TABLE
  2
VPORT
  5
7
100
AcDbSymbolTable
 70
             1
  0
VPORT
  5
15
100
AcDbSymbolTableRecord
100
AcDbViewportTableRecord
  2
*ACTIVE
 70
             0
 10
0.0
 20
0.0
 11
1.0
 21
1.0
 12
93.376804711102
 22
182.533862523473
 13
0.0
 23
0.0
 14
1.0
 24
1.0
 15
0.0
 25
0.0
 16
0.0
 26
0.0
 36
1.0
 17
0.0
 27
0.0
 37
0.0
 40
401.57449755164066
 41
1.60267857142857
 42
50.0
 43
0.0
 44
0.0
 50
0.0
 51
0.0
 71
             0
 72
           100
 73
             1
 74
             1
 75
             0
 76
             0
 77
             0
 78
             0
  0
ENDTAB
  0
TABLE
  2
LTYPE
  5
4
100
AcDbSymbolTable
 70
            10
  0
LTYPE
  5
11
100
AcDbSymbolTableRecord
100
AcDbLinetypeTableRecord
  2
BYBLOCK
 70
            64
  3

 72
            65
 73
             0
 40
0.0
  0
LTYPE
  5
12
100
AcDbSymbolTableRecord
100
AcDbLinetypeTableRecord
  2
BYLAYER
 70
            64
  3

 72
            65
 73
             0
 40
0.0
  0
LTYPE
  5
13
100
AcDbSymbolTableRecord
100
AcDbLinetypeTableRecord
  2
CONTINUOUS
 70
            64
  3
Solid line
 72
            65
 73
             0
 40
0.0
  0
LTYPE
  5
1D
100
AcDbSymbolTableRecord
100
AcDbLinetypeTableRecord
  2
DASHED
 70
            64
  3
Dashed
 72
            65
 73
             2
 40
15.0
 49
7.0
 74
             0
 49
-8.0
 74
             0
  0
LTYPE
  5
1E
100
AcDbSymbolTableRecord
100
AcDbLinetypeTableRecord
  2
DOTTED
 70
            64
  3
Dotted
 72
            65
 73
             2
 40
1.0
 49
0.0
 74
             0
 49
-1.0
 74
             0
  0
LTYPE
  5
1F
100
AcDbSymbolTableRecord
100
AcDbLinetypeTableRecord
  2
DOT_CENTER
 70
            64
  3
Dot_Center
 72
            65
 73
             4
 40
14.0
 49
12.0
 74
             0
 49
-1.0
 74
             0
 49
0.0
 74
             0
 49
-1.0
 74
             0
  0
LTYPE
  5
20
100
AcDbSymbolTableRecord
100
AcDbLinetypeTableRecord
  2
LONG_DASHED
 70
            64
  3
Long_Dashed
 72
            65
 73
             2
 40
15.0
 49
10.0
 74
             0
 49
-5.0
 74
             0
  0
LTYPE
  5
21
100
AcDbSymbolTableRecord
100
AcDbLinetypeTableRecord
  2
DASH_CENTER
 70
            64
  3
Dash_Center
 72
            65
 73
             4
 40
14.0
 49
11.0
 74
             0
 49
-1.0
 74
             0
 49
1.0
 74
             0
 49
-1.0
 74
             0
  0
LTYPE
  5
22
100
AcDbSymbolTableRecord
100
AcDbLinetypeTableRecord
  2
PHANTOM
 70
            64
  3
Phantom
 72
            65
 73
             6
 40
13.0
 49
10.0
 74
             0
 49
-1.0
 74
             0
 49
0.0
 74
             0
 49
-1.0
 74
             0
 49
0.0
 74
             0
 49
-1.0
 74
             0
  0
LTYPE
  5
23
100
AcDbSymbolTableRecord
100
AcDbLinetypeTableRecord
  2
CENTER_DASH_DASH
 70
            64
  3
Center_Dash_Dash
 72
            65
 73
             6
 40
14.0
 49
9.0
 74
             0
 49
-1.0
 74
             0
 49
1.0
 74
             0
 49
-1.0
 74
             0
 49
1.0
 74
             0
 49
-1.0
 74
             0
  0
ENDTAB
  0
TABLE
  2
LAYER
  5
2
100
AcDbSymbolTable
 70
             2
  0
LAYER
  5
14
100
AcDbSymbolTableRecord
100
AcDbLayerTableRecord
  2
0
 70
             0
 62
             7
  6
CONTINUOUS
  0
LAYER
  5
24
100
AcDbSymbolTableRecord
100
AcDbLayerTableRecord
  2
1
 70
             0
 62
             7
  6
CONTINUOUS
  0
ENDTAB
  0
TABLE
  2
STYLE
  5
3
100
AcDbSymbolTable
 70
             2
  0
STYLE
  5
17
100
AcDbSymbolTableRecord
100
AcDbTextStyleTableRecord
  2
STANDARD
 70
             0
 40
0.0
 41
1.0
 50
0.0
 71
             0
 42
0.0
  3
txt
  4

  0
STYLE
  5
187
100
AcDbSymbolTableRecord
100
AcDbTextStyleTableRecord
  2
CONVERTER_1
 70
             0
 40
0.0
 41
0.9
 50
0.0
 71
             0
 42
0.0
  3
txt.shx
  4

  0
ENDTAB
  0
TABLE
  2
VIEW
  5
5
100
AcDbSymbolTable
 70
             0
  0
ENDTAB
  0
TABLE
  2
UCS
  5
6
100
AcDbSymbolTable
 70
             0
  0
ENDTAB
  0
TABLE
  2
APPID
  5
8
100
AcDbSymbolTable
 70
             1
  0
APPID
  5
16
100
AcDbSymbolTableRecord
100
AcDbRegAppTableRecord
  2
ACAD
 70
             0
  0
ENDTAB
  0
TABLE
  2
DIMSTYLE
  5
9
100
AcDbSymbolTable
 70
             8
  0
DIMSTYLE
105
18
100
AcDbSymbolTableRecord
100
AcDbDimStyleTableRecord
  2
STANDARD
 70
             0
  3

  4

  5

  6

  7

 40
1.0
 41
0.18
 42
0.0625
 43
0.38
 44
0.18
 45
0.0
 46
0.0
 47
0.0
 48
0.0
 71
             0
 72
             0
 73
             1
 74
             1
 75
             0
 76
             0
 77
             0
 78
             0
140
0.18
141
0.09
142
0.0
143
25.4
144
1.0
145
0.0
146
1.0
147
0.09
170
             0
171
             2
172
             0
173
             0
174
             0
175
             0
176
             0
177
             0
178
             0
270
             2
271
             4
272
             4
273
             2
274
             2
275
             0
280
             0
281
             0
282
             0
283
             1
284
             0
285
             0
286
             0
287
             3
288
             0
340
17
  0
DIMSTYLE
105
18A
100
AcDbSymbolTableRecord
100
AcDbDimStyleTableRecord
  2
ME10_DIM_0
 70
             0
  3
DN<>
  4

  5

  6

  7

 40
1.0
 41
7.0
 42
0.0
 43
0.38
 44
2.0
 45
0.0
 46
0.0
 47
0.0
 48
0.0
 71
             0
 72
             0
 73
             0
 74
             0
 75
             0
 76
             0
 77
             1
 78
             8
140
7.0
141
0.09
142
0.0
143
25.4
144
1.0
145
0.0
146
1.0
147
0.625
170
             0
171
             2
172
             1
173
             1
174
             0
175
             0
176
             4
177
             4
178
             1
270
             2
271
             2
272
             4
273
             2
274
             2
275
             0
280
             0
281
             0
282
             0
283
             1
284
             0
285
             0
286
             0
287
             3
288
             0
340
187
  0
DIMSTYLE
105
196
100
AcDbSymbolTableRecord
100
AcDbDimStyleTableRecord
  2
ME10_DIM_1
 70
             0
  3

  4

  5

  6

  7

 40
1.0
 41
7.0
 42
0.0
 43
0.38
 44
2.0
 45
0.0
 46
0.0
 47
0.0
 48
0.0
 71
             0
 72
             0
 73
             0
 74
             0
 75
             0
 76
             0
 77
             1
 78
             8
140
7.0
141
0.09
142
0.0
143
25.4
144
1.0
145
0.0
146
1.0
147
0.625
170
             0
171
             2
172
             1
173
             1
174
             0
175
             0
176
             4
177
             4
178
             1
270
             2
271
             2
272
             4
273
             2
274
             2
275
             0
280
             0
281
             0
282
             0
283
             1
284
             0
285
             0
286
             0
287
             3
288
             0
340
187
  0
DIMSTYLE
105
1A2
100
AcDbSymbolTableRecord
100
AcDbDimStyleTableRecord
  2
ME10_DIM_2
 70
             0
  3
DN<>
  4

  5

  6

  7

 40
1.0
 41
7.0
 42
0.0
 43
0.38
 44
2.0
 45
0.0
 46
0.0
 47
0.0
 48
0.0
 71
             0
 72
             0
 73
             0
 74
             0
 75
             0
 76
             0
 77
             1
 78
             8
140
7.0
141
0.09
142
0.0
143
25.4
144
1.0
145
0.0
146
1.0
147
0.625
170
             0
171
             2
172
             1
173
             1
174
             0
175
             0
176
             4
177
             4
178
             1
270
             2
271
             2
272
             4
273
             2
274
             2
275
             0
280
             0
281
             0
282
             0
283
             1
284
             0
285
             0
286
             0
287
             3
288
             0
340
187
  0
DIMSTYLE
105
1AD
100
AcDbSymbolTableRecord
100
AcDbDimStyleTableRecord
  2
ME10_DIM_3
 70
             0
  3

  4

  5

  6

  7

 40
1.0
 41
7.0
 42
0.0
 43
0.38
 44
2.0
 45
0.0
 46
0.0
 47
0.0
 48
0.0
 71
             0
 72
             0
 73
             0
 74
             0
 75
             0
 76
             0
 77
             1
 78
             8
140
7.0
141
0.09
142
0.0
143
25.4
144
1.0
145
0.0
146
1.0
147
0.625
170
             0
171
             2
172
             1
173
             1
174
             0
175
             0
176
             4
177
             4
178
             1
270
             2
271
             2
272
             4
273
             2
274
             2
275
             0
280
             0
281
             0
282
             0
283
             1
284
             0
285
             0
286
             0
287
             3
288
             0
340
187
  0
DIMSTYLE
105
1B8
100
AcDbSymbolTableRecord
100
AcDbDimStyleTableRecord
  2
ME10_DIM_4
 70
             0
  3
-215
  4

  5

  6

  7

 40
1.0
 41
7.0
 42
0.0
 43
0.38
 44
2.0
 45
0.0
 46
0.0
 47
0.0
 48
0.0
 71
             0
 72
             0
 73
             0
 74
             0
 75
             0
 76
             0
 77
             1
 78
             8
140
7.0
141
0.09
142
0.0
143
25.4
144
1.0
145
0.0
146
1.0
147
0.625
170
             0
171
             2
172
             1
173
             1
174
             0
175
             0
176
             4
177
             4
178
             1
270
             2
271
             2
272
             4
273
             2
274
             2
275
             0
280
             0
281
             0
282
             0
283
             1
284
             0
285
             0
286
             0
287
             3
288
             0
340
187
  0
DIMSTYLE
105
1C4
100
AcDbSymbolTableRecord
100
AcDbDimStyleTableRecord
  2
ME10_DIM_5
 70
             0
  3

  4

  5

  6

  7

 40
1.0
 41
7.0
 42
0.0
 43
0.38
 44
2.0
 45
0.0
 46
0.0
 47
0.0
 48
0.0
 71
             0
 72
             0
 73
             0
 74
             0
 75
             0
 76
             0
 77
             1
 78
             8
140
7.0
141
0.09
142
0.0
143
25.4
144
1.0
145
0.0
146
1.0
147
0.625
170
             0
171
             2
172
             1
173
             1
174
             0
175
             0
176
             4
177
             4
178
             1
270
             2
271
             0
272
             4
273
             2
274
             2
275
             0
280
             0
281
             0
282
             0
283
             1
284
             0
285
             0
286
             0
287
             3
288
             0
340
187
  0
DIMSTYLE
105
1D0
100
AcDbSymbolTableRecord
100
AcDbDimStyleTableRecord
  2
ME10_DIM_6
 70
             0
  3

  4

  5

  6

  7

 40
1.0
 41
7.0
 42
0.0
 43
0.38
 44
2.0
 45
0.0
 46
0.0
 47
0.0
 48
0.0
 71
             0
 72
             0
 73
             0
 74
             0
 75
             0
 76
             0
 77
             1
 78
             8
140
7.0
141
0.09
142
0.0
143
25.4
144
1.0
145
0.0
146
1.0
147
0.625
170
             0
171
             2
172
             1
173
             1
174
             0
175
             0
176
             4
177
             4
178
             1
270
             2
271
             0
272
             4
273
             2
274
             2
275
             0
280
             0
281
             0
282
             0
283
             1
284
             0
285
             0
286
             0
287
             3
288
             0
340
187
  0
ENDTAB
  0
TABLE
  2
BLOCK_RECORD
  5
1
100
AcDbSymbolTable
 70
            14
  0
BLOCK_RECORD
  5
A
100
AcDbSymbolTableRecord
100
AcDbBlockTableRecord
  2
*MODEL_SPACE
  0
BLOCK_RECORD
  5
B
100
AcDbSymbolTableRecord
100
AcDbBlockTableRecord
  2
*PAPER_SPACE
  0
BLOCK_RECORD
  5
25
100
AcDbSymbolTableRecord
100
AcDbBlockTableRecord
  2
HL_13_TAUCHROHR_ARTIKEL
  0
BLOCK_RECORD
  5
27
100
AcDbSymbolTableRecord
100
AcDbBlockTableRecord
  2
HOLL_NDERMUTTER_6_4__1
  0
BLOCK_RECORD
  5
29
100
AcDbSymbolTableRecord
100
AcDbBlockTableRecord
  2
HL_13_TAUCHROHR
  0
BLOCK_RECORD
  5
2B
100
AcDbSymbolTableRecord
100
AcDbBlockTableRecord
  2
HOLL_NDERMUTTER_6_4__2
  0
BLOCK_RECORD
  5
2D
100
AcDbSymbolTableRecord
100
AcDbBlockTableRecord
  2
HL_100_KR_MMER
  0
BLOCK_RECORD
  5
2F
100
AcDbSymbolTableRecord
100
AcDbBlockTableRecord
  2
HOLL_NDERMUTTER_2_
  0
BLOCK_RECORD
  5
31
100
AcDbSymbolTableRecord
100
AcDbBlockTableRecord
  2
ABGANGSBOGENDN50
  0
BLOCK_RECORD
  5
17F
100
AcDbSymbolTableRecord
100
AcDbBlockTableRecord
  2
*D7
  0
BLOCK_RECORD
  5
18C
100
AcDbSymbolTableRecord
100
AcDbBlockTableRecord
  2
*D8
  0
BLOCK_RECORD
  5
198
100
AcDbSymbolTableRecord
100
AcDbBlockTableRecord
  2
*D9
  0
BLOCK_RECORD
  5
1A4
100
AcDbSymbolTableRecord
100
AcDbBlockTableRecord
  2
*D10
  0
BLOCK_RECORD
  5
1AF
100
AcDbSymbolTableRecord
100
AcDbBlockTableRecord
  2
*D11
  0
BLOCK_RECORD
  5
1BA
100
AcDbSymbolTableRecord
100
AcDbBlockTableRecord
  2
*D12
  0
BLOCK_RECORD
  5
1C6
100
AcDbSymbolTableRecord
100
AcDbBlockTableRecord
  2
*D13
  0
ENDTAB
  0
ENDSEC
  0
SECTION
  2
BLOCKS
  0
BLOCK
  5
D
100
AcDbEntity
  8
0
100
AcDbBlockBegin
  2
*MODEL_SPACE
 70
             0
 10
0.0
 20
0.0
 30
0.0
  3
*MODEL_SPACE
  1

  0
ENDBLK
  5
E
100
AcDbEntity
  8
0
100
AcDbBlockEnd
  0
BLOCK
  5
F
100
AcDbEntity
 67
             1
  8
0
100
AcDbBlockBegin
  2
*PAPER_SPACE
 70
             0
 10
0.0
 20
0.0
 30
0.0
  3
*PAPER_SPACE
  1

  0
ENDBLK
  5
10
100
AcDbEntity
 67
             1
  8
0
100
AcDbBlockEnd
  0
BLOCK
  5
26
100
AcDbEntity
  8
0
100
AcDbBlockBegin
  2
HL_13_TAUCHROHR_ARTIKEL
 70
             0
 10
512.46209174422006
 20
13.36899169878262
 30
0.0
  3
HL_13_TAUCHROHR_ARTIKEL
  1

  0
LINE
  5
40
100
AcDbEntity
  8
1
  6
PHANTOM
 62
             2
100
AcDbLine
 10
-40.00000000000002
 20
117.4317891008407
 11
-39.99999999999999
 21
293.55043021386763
  0
LINE
  5
3F
100
AcDbEntity
  8
1
  6
CONTINUOUS
 62
             7
100
AcDbLine
 10
-60.0
 20
117.75358983848611
 11
-60.0
 21
137.75358983848591
  0
LINE
  5
3E
100
AcDbEntity
  8
1
  6
CONTINUOUS
 62
             7
100
AcDbLine
 10
-20.0
 20
293.55043021386763
 11
-20.0
 21
137.75358983848591
  0
LINE
  5
3D
100
AcDbEntity
  8
1
  6
CONTINUOUS
 62
             7
100
AcDbLine
 10
-20.0
 20
137.75358983848591
 11
-20.0
 21
117.75358983848611
  0
LINE
  5
3C
100
AcDbEntity
  8
1
  6
CONTINUOUS
 62
             7
100
AcDbLine
 10
-60.0
 20
137.75358983848591
 11
-60.0
 21
293.55043021386382
  0
ENDBLK
  5
41
100
AcDbEntity
  8
0
100
AcDbBlockEnd
  0
BLOCK
  5
28
100
AcDbEntity
  8
0
100
AcDbBlockBegin
  2
HOLL_NDERMUTTER_6_4__1
 70
             0
 10
335.27393665073879
 20
312.42295427881231
 30
0.0
  3
HOLL_NDERMUTTER_6_4__1
  1

  0
SPLINE
  5
84
100
AcDbEntity
  8
0
  6
CONTINUOUS
 62
             7
100
AcDbSpline
210
0.0
220
0.0
230
1.0
 70
             0
 71
             3
 72
            11
 73
             7
 74
             5
 42
0.00000000001
 43
0.00000000001
 44
0.00000000001
 40
10.19448601636854
 40
10.19448601636854
 40
10.19448601636854
 40
10.19448601636854
 40
10.818569247931419
 40
10.818569247931419
 40
10.818569247931419
 40
11.430058017314931
 40
11.430058017314931
 40
11.430058017314931
 40
11.430058017314931
 10
-68.5
 20
295.55043021386382
 30
0.0
 10
-68.336681865861635
 20
295.41339002774328
 30
0.0
 10
-68.174958906056418
 20
295.28263901906621
 30
0.0
 10
-68.014728269128739
 20
295.15805604222118
 30
0.0
 10
-67.849789339583538
 20
295.02981226041311
 30
0.0
 10
-67.686389549373416
 20
294.90807154136792
 30
0.0
 10
-67.524420523448498
 20
294.79271285054199
 30
0.0
 11
-68.5
 21
295.55043021386382
 31
0.0
 11
-68.256206323110362
 21
295.34957167456417
 31
0.0
 11
-68.014728269128739
 21
295.15805604222118
 31
0.0
 11
-67.768460682431012
 21
294.97055253726325
 31
0.0
 11
-67.524420523448498
 21
294.79271285054199
 31
0.0
  0
SPLINE
  5
83
100
AcDbEntity
  8
0
  6
CONTINUOUS
 62
             7
100
AcDbSpline
210
0.0
220
0.0
230
1.0
 70
             0
 71
             3
 72
            11
 73
             7
 74
             5
 42
0.00000000001
 43
0.00000000001
 44
0.00000000001
 40
9.6520212354362265
 40
9.6520212354362265
 40
9.6520212354362265
 40
9.6520212354362265
 40
10.16722522019518
 40
10.16722522019518
 40
10.16722522019518
 40
10.7005567454881
 40
10.7005567454881
 40
10.7005567454881
 40
10.7005567454881
 10
-19.123082037265711
 20
294.79271285054199
 30
0.0
 10
-19.242859370791962
 20
294.90760553351578
 30
0.0
 10
-19.36404419522308
 20
295.0291680567629
 30
0.0
 10
-19.48673044041437
 20
295.15762820884493
 30
0.0
 10
-19.60583447512181
 20
295.28233756308549
 30
0.0
 10
-19.726050999623119
 20
295.41323084266548
 30
0.0
 10
-19.84745673618454
 20
295.55043021386382
 30
0.0
 11
-19.123082037265711
 21
294.79271285054199
 31
0.0
 11
-19.303815396965653
 21
294.97008272877792
 31
0.0
 11
-19.48673044041437
 21
295.15762820884493
 31
0.0
 11
-19.666230450104212
 21
295.34934545499516
 31
0.0
 11
-19.84745673618454
 21
295.55043021386382
 31
0.0
  0
SPLINE
  5
82
100
AcDbEntity
  8
0
  6
CONTINUOUS
 62
             7
100
AcDbSpline
210
0.0
220
0.0
230
1.0
 70
             0
 71
             3
 72
            11
 73
             7
 74
             5
 42
0.00000000001
 43
0.00000000001
 44
0.00000000001
 40
10.19555243465283
 40
10.19555243465283
 40
10.19555243465283
 40
10.19555243465283
 40
11.26499585315983
 40
11.26499585315983
 40
11.26499585315983
 40
12.33452008509976
 40
12.33452008509976
 40
12.33452008509976
 40
12.33452008509976
 10
-40.0
 20
295.55043021386382
 30
0.0
 10
-39.666744198963038
 20
295.41402721828348
 30
0.0
 10
-39.335174534851816
 20
295.28321908908259
 30
0.0
 10
-39.005161661360027
 20
295.15805588518782
 30
0.0
 10
-38.667101067028973
 20
295.02984044120097
 30
0.0
 10
-38.332120163730004
 20
294.908097026137
 30
0.0
 10
-38.0
 20
294.79271285054199
 30
0.0
 11
-40.0
 21
295.55043021386382
 31
0.0
 11
-39.501364732850575
 21
295.35002812764372
 31
0.0
 11
-39.005161661360027
 21
295.15805588518782
 31
0.0
 11
-38.500353169204622
 21
294.97057264221797
 31
0.0
 11
-38.0
 21
294.79271285054199
 31
0.0
  0
SPLINE
  5
81
100
AcDbEntity
  8
0
  6
CONTINUOUS
 62
             7
100
AcDbSpline
210
0.0
220
0.0
230
1.0
 70
             0
 71
             3
 72
            11
 73
             7
 74
             5
 42
0.00000000001
 43
0.00000000001
 44
0.00000000001
 40
10.19555243465293
 40
10.19555243465293
 40
10.19555243465293
 40
10.19555243465293
 40
11.313304530967139
 40
11.313304530967139
 40
11.313304530967139
 40
12.43211945463684
 40
12.43211945463684
 40
12.43211945463684
 40
12.43211945463684
 10
-60.152543263815517
 20
295.55043021386382
 30
0.0
 10
-59.798548731578187
 20
295.41270413502428
 30
0.0
 10
-59.449779689337547
 20
295.28201146246141
 30
0.0
 10
-59.105947253952927
 20
295.15805588518782
 30
0.0
 10
-58.750301521875308
 20
295.02984147756649
 30
0.0
 10
-58.397892789027537
 20
294.90809796168332
 30
0.0
 10
-58.048490837987629
 20
294.79271285054199
 30
0.0
 11
-60.152543263815517
 21
295.55043021386382
 31
0.0
 11
-59.625434472564457
 21
295.34907911143858
 31
0.0
 11
-59.105947253952927
 21
295.15805588518782
 31
0.0
 11
-58.574877628081133
 21
294.97057338168491
 31
0.0
 11
-58.048490837987629
 21
294.79271285054199
 31
0.0
  0
SPLINE
  5
80
100
AcDbEntity
  8
0
  6
CONTINUOUS
 62
             7
100
AcDbSpline
210
0.0
220
0.0
230
1.0
 70
             0
 71
             3
 72
            11
 73
             7
 74
             5
 42
0.00000000001
 43
0.00000000001
 44
0.00000000001
 40
10.195552434652781
 40
10.195552434652781
 40
10.195552434652781
 40
10.195552434652781
 40
10.72829261095816
 40
10.72829261095816
 40
10.72829261095816
 40
11.244087937724711
 40
11.244087937724711
 40
11.244087937724711
 40
11.244087937724711
 10
-60.152543263815517
 20
295.55043021386382
 30
0.0
 10
-60.274607587209118
 20
295.41248658039922
 30
0.0
 10
-60.394678575958103
 20
295.28181177157097
 30
0.0
 10
-60.512861124829207
 20
295.15805588518782
 30
0.0
 10
-60.635342013658317
 20
295.02979895464381
 30
0.0
 10
-60.756667290093887
 20
294.90805956944172
 30
0.0
 10
-60.876917962734296
 20
294.79271285054199
 30
0.0
 11
-60.152543263815517
 21
295.55043021386382
 31
0.0
 11
-60.334157859768297
 21
295.34892264437025
 31
0.0
 11
-60.512861124829207
 21
295.15805588518782
 31
0.0
 11
-60.695725874852513
 21
294.97054303849831
 31
0.0
 11
-60.876917962734296
 21
294.79271285054199
 31
0.0
  0
SPLINE
  5
7F
100
AcDbEntity
  8
0
  6
CONTINUOUS
 62
             7
100
AcDbSpline
210
0.0
220
0.0
230
1.0
 70
             0
 71
             3
 72
            11
 73
             7
 74
             5
 42
0.00000000001
 43
0.00000000001
 44
0.00000000001
 40
10.195552434652781
 40
10.195552434652781
 40
10.195552434652781
 40
10.195552434652781
 40
11.264995853159769
 40
11.264995853159769
 40
11.264995853159769
 40
12.33452008509969
 40
12.33452008509969
 40
12.33452008509969
 40
12.33452008509969
 10
-40.0
 20
295.55043021386382
 30
0.0
 10
-40.336648507400227
 20
295.41263856935478
 30
0.0
 10
-40.668168159172637
 20
295.28195131340772
 30
0.0
 10
-40.994838338640143
 20
295.15805588518782
 30
0.0
 10
-41.331847329125587
 20
295.03023928051192
 30
0.0
 10
-41.666845105588443
 20
294.90845650912019
 30
0.0
 10
-42.0
 20
294.79271285054199
 30
0.0
 11
-40.0
 21
295.55043021386382
 31
0.0
 11
-40.501161042294839
 21
295.34903196841736
 31
0.0
 11
-40.994838338640143
 21
295.15805588518782
 31
0.0
 11
-41.498864455347771
 21
294.97085701307827
 31
0.0
 11
-42.0
 21
294.79271285054199
 31
0.0
  0
SPLINE
  5
7E
100
AcDbEntity
  8
0
  6
CONTINUOUS
 62
             7
100
AcDbSpline
210
0.0
220
0.0
230
1.0
 70
             0
 71
             3
 72
            11
 73
             7
 74
             5
 42
0.00000000001
 43
0.00000000001
 44
0.00000000001
 40
12.60222498519215
 40
12.60222498519215
 40
12.60222498519215
 40
12.60222498519215
 40
13.20477356312929
 40
13.20477356312929
 40
13.20477356312929
 40
13.80733366403499
 40
13.80733366403499
 40
13.80733366403499
 40
13.80733366403499
 10
-60.099100503426598
 20
293.87223095150921
 30
0.0
 10
-60.22755168574804
 20
294.02422487729058
 30
0.0
 10
-60.357186965302454
 20
294.17762885116321
 30
0.0
 10
-60.488018166441243
 20
294.33245680920879
 30
0.0
 10
-60.615852009708817
 20
294.48373764092543
 30
0.0
 10
-60.745469537574543
 20
294.63713763146228
 30
0.0
 10
-60.876917962734296
 20
294.79271285054199
 30
0.0
 11
-60.099100503426598
 21
293.87223095150921
 31
0.0
 11
-60.292666827877412
 21
294.10128111825992
 31
0.0
 11
-60.488018166441243
 21
294.33245680920879
 31
0.0
 11
-60.681112596378206
 21
294.56097443461425
 31
0.0
 11
-60.876917962734296
 21
294.79271285054199
 31
0.0
  0
SPLINE
  5
7D
100
AcDbEntity
  8
0
  6
CONTINUOUS
 62
             7
100
AcDbSpline
210
0.0
220
0.0
230
1.0
 70
             0
 71
             3
 72
            11
 73
             7
 74
             5
 42
0.00000000001
 43
0.00000000001
 44
0.00000000001
 40
110.6006816516911
 40
110.6006816516911
 40
110.6006816516911
 40
110.6006816516911
 40
111.2032417235651
 40
111.2032417235651
 40
111.2032417235651
 40
111.8057903305339
 40
111.8057903305339
 40
111.8057903305339
 40
111.8057903305339
 10
-21.951509162001571
 20
294.79271285049111
 30
0.0
 10
-22.082126707882711
 20
294.63812101508159
 30
0.0
 10
-22.211760149497429
 20
294.4847020855654
 30
0.0
 10
-22.34040893956638
 20
294.33245683138603
 30
0.0
 10
-22.471538063371671
 20
294.17727630638041
 30
0.0
 10
-22.601167329852618
 20
294.02387948820109
 30
0.0
 10
-22.72932662132019
 20
293.87223095150921
 30
0.0
 11
-21.951509162001571
 21
294.79271285049111
 31
0.0
 11
-22.146697334213549
 21
294.56170487297726
 31
0.0
 11
-22.34040893956638
 21
294.33245683138603
 31
0.0
 11
-22.535981467569929
 21
294.10101939582995
 31
0.0
 11
-22.72932662132019
 21
293.87223095150921
 31
0.0
  0
SPLINE
  5
7C
100
AcDbEntity
  8
0
  6
CONTINUOUS
 62
             7
100
AcDbSpline
210
0.0
220
0.0
230
1.0
 70
             0
 71
             3
 72
            11
 73
             7
 74
             5
 42
0.00000000001
 43
0.00000000001
 44
0.00000000001
 40
12.60222498519019
 40
12.60222498519019
 40
12.60222498519019
 40
12.60222498519019
 40
13.20477356312731
 40
13.20477356312731
 40
13.20477356312731
 40
13.807333664033029
 40
13.807333664033029
 40
13.807333664033029
 40
13.807333664033029
 10
-57.270673378683739
 20
293.87223095150921
 30
0.0
 10
-57.398734616501322
 20
294.02376346312161
 30
0.0
 10
-57.528362007047747
 20
294.17715804794938
 30
0.0
 10
-57.659591041694497
 20
294.33245680920879
 30
0.0
 10
-57.788328314236423
 20
294.48480677511043
 30
0.0
 10
-57.91796380839515
 20
294.63822814523007
 30
0.0
 10
-58.048490837987629
 20
294.79271285054199
 30
0.0
 11
-57.270673378683739
 21
293.87223095150921
 31
0.0
 11
-57.463944286378187
 21
294.10093153674143
 31
0.0
 11
-57.659591041694497
 21
294.33245680920879
 31
0.0
 11
-57.853369780947105
 21
294.56178430259655
 31
0.0
 11
-58.048490837987629
 21
294.79271285054199
 31
0.0
  0
SPLINE
  5
7B
100
AcDbEntity
  8
0
  6
CONTINUOUS
 62
             7
100
AcDbSpline
210
0.0
220
0.0
230
1.0
 70
             0
 71
             3
 72
            11
 73
             7
 74
             5
 42
0.00000000001
 43
0.00000000001
 44
0.00000000001
 40
110.6006816517057
 40
110.6006816517057
 40
110.6006816517057
 40
110.6006816517057
 40
111.20324172357979
 40
111.20324172357979
 40
111.20324172357979
 40
111.8057903305485
 40
111.8057903305485
 40
111.8057903305485
 40
111.8057903305485
 10
-19.123082037265711
 20
294.79271285054199
 30
0.0
 10
-19.253640993505542
 20
294.63819035858472
 30
0.0
 10
-19.38327575333108
 20
294.48476986157618
 30
0.0
 10
-19.511981814819599
 20
294.33245683138603
 30
0.0
 10
-19.643474018033888
 20
294.17684663178659
 30
0.0
 10
-19.773096847995479
 20
294.02345747921788
 30
0.0
 10
-19.900899496573409
 20
293.87223095150921
 30
0.0
 11
-19.123082037265711
 21
294.79271285054199
 31
0.0
 11
-19.318226761574394
 21
294.56175629280136
 31
0.0
 11
-19.511981814819599
 21
294.33245683138603
 31
0.0
 11
-19.707824238685134
 21
294.10070001448861
 31
0.0
 11
-19.900899496573409
 21
293.87223095150921
 31
0.0
  0
SPLINE
  5
7A
100
AcDbEntity
  8
0
  6
CONTINUOUS
 62
             7
100
AcDbSpline
210
0.0
220
0.0
230
1.0
 70
             0
 71
             3
 72
            11
 73
             7
 74
             5
 42
0.00000000001
 43
0.00000000001
 44
0.00000000001
 40
12.602224985190871
 40
12.602224985190871
 40
12.602224985190871
 40
12.602224985190871
 40
13.31938726627383
 40
13.31938726627383
 40
13.31938726627383
 40
14.03654953995088
 40
14.03654953995088
 40
14.03654953995088
 40
14.03654953995088
 10
-66.424420523446315
 20
293.87223095150921
 30
0.0
 10
-66.606421741736995
 20
294.02451254881311
 30
0.0
 10
-66.789761535583239
 20
294.17792310235239
 30
0.0
 10
-66.974433157127407
 20
294.33245680920879
 30
0.0
 10
-67.156161294617107
 20
294.48452740073702
 30
0.0
 10
-67.339486043732904
 20
294.63794244310918
 30
0.0
 10
-67.524420523448498
 20
294.79271285054199
 30
0.0
 11
-66.424420523446315
 21
293.87223095150921
 31
0.0
 11
-66.698425439066796
 21
294.10149933927681
 31
0.0
 11
-66.974433157127407
 21
294.33245680920879
 31
0.0
 11
-67.248224461953242
 21
294.56157239891115
 31
0.0
 11
-67.524420523448498
 21
294.79271285054199
 31
0.0
  0
SPLINE
  5
79
100
AcDbEntity
  8
0
  6
CONTINUOUS
 62
             7
100
AcDbSpline
210
0.0
220
0.0
230
1.0
 70
             0
 71
             3
 72
            11
 73
             7
 74
             5
 42
0.00000000001
 43
0.00000000001
 44
0.00000000001
 40
12.6022249851908
 40
12.6022249851908
 40
12.6022249851908
 40
12.6022249851908
 40
13.319387266273759
 40
13.319387266273759
 40
13.319387266273759
 40
14.0365495399508
 40
14.0365495399508
 40
14.0365495399508
 40
14.0365495399508
 10
-13.57557947655369
 20
293.87223095150921
 30
0.0
 10
-13.39433600517089
 20
294.02387853706972
 30
0.0
 10
-13.211012569525341
 20
294.17727532912829
 30
0.0
 10
-13.02556684287277
 20
294.33245680920879
 30
0.0
 10
-12.84376963855539
 20
294.48458519604401
 30
0.0
 10
-12.66044338435688
 20
294.63800150426181
 30
0.0
 10
-12.475579476551509
 20
294.79271285054199
 30
0.0
 11
-13.57557947655369
 21
293.87223095150921
 31
0.0
 11
-13.302149005439393
 21
294.10101866991403
 31
0.0
 11
-13.02556684287277
 21
294.33245680920879
 31
0.0
 11
-12.751723173520137
 21
294.56161622008352
 31
0.0
 11
-12.475579476551509
 21
294.79271285054199
 31
0.0
  0
SPLINE
  5
78
100
AcDbEntity
  8
0
  6
CONTINUOUS
 62
             7
100
AcDbSpline
210
0.0
220
0.0
230
1.0
 70
             0
 71
             3
 72
            11
 73
             7
 74
             5
 42
0.00000000001
 43
0.00000000001
 44
0.00000000001
 40
9.6520212354362247
 40
9.6520212354362247
 40
9.6520212354362247
 40
9.6520212354362247
 40
10.76957509520426
 40
10.76957509520426
 40
10.76957509520426
 40
11.88858825881975
 40
11.88858825881975
 40
11.88858825881975
 40
11.88858825881975
 10
-21.951509162001571
 20
294.79271285049111
 30
0.0
 10
-21.603350280049199
 20
294.90768745543983
 30
0.0
 10
-21.251348257119389
 20
295.0292585436386
 30
0.0
 10
-20.89523910463322
 20
295.15762820884493
 30
0.0
 10
-20.54815705777219
 20
295.28274379726503
 30
0.0
 10
-20.198951342805231
 20
295.41367676294828
 30
0.0
 10
-19.84745673618454
 20
295.55043021386382
 30
0.0
 11
-21.951509162001571
 21
294.79271285049111
 31
0.0
 11
-21.426355484767573
 21
294.97014738207145
 31
0.0
 11
-20.89523910463322
 21
295.15762820884493
 31
0.0
 11
-20.373002630318751
 21
295.34966501291859
 31
0.0
 11
-19.84745673618454
 21
295.55043021386382
 31
0.0
  0
SPLINE
  5
77
100
AcDbEntity
  8
0
  6
CONTINUOUS
 62
             7
100
AcDbSpline
210
0.0
220
0.0
230
1.0
 70
             0
 71
             3
 72
            11
 73
             7
 74
             5
 42
0.00000000001
 43
0.00000000001
 44
0.00000000001
 40
10.19555243465282
 40
10.19555243465282
 40
10.19555243465282
 40
10.19555243465282
 40
10.819635921994889
 40
10.819635921994889
 40
10.819635921994889
 40
11.431124435565939
 40
11.431124435565939
 40
11.431124435565939
 40
11.431124435565939
 10
-11.50000000001819
 20
295.55043021382738
 30
0.0
 10
-11.66271151385809
 20
295.4138990425767
 30
0.0
 10
-11.82444484900418
 20
295.28310260889202
 30
0.0
 10
-11.98527193283371
 20
295.15805588518782
 30
0.0
 10
-12.15021093370888
 20
295.02981205225149
 30
0.0
 10
-12.313610654640801
 20
294.90807139606329
 30
0.0
 10
-12.475579476551509
 20
294.79271285054199
 30
0.0
 11
-11.50000000001819
 21
295.55043021382738
 31
0.0
 11
-11.743342627679839
 21
295.34993638167765
 31
0.0
 11
-11.98527193283371
 21
295.15805588518782
 31
0.0
 11
-12.23153952180428
 21
294.9705523850842
 31
0.0
 11
-12.475579476551509
 21
294.79271285054199
 31
0.0
  0
LINE
  5
76
100
AcDbEntity
  8
0
  6
CONTINUOUS
 62
             7
100
AcDbLine
 10
-13.88350718519007
 20
293.55043021386382
 11
-66.11649281481004
 21
293.55043021386382
  0
LINE
  5
75
100
AcDbEntity
  8
0
  6
CONTINUOUS
 62
             7
100
AcDbLine
 10
-66.11649281481004
 20
293.55043021386382
 11
-68.5
 21
295.55043021386382
  0
LINE
  5
74
100
AcDbEntity
  8
0
  6
CONTINUOUS
 62
             7
100
AcDbLine
 10
-11.5
 20
308.05043021386382
 11
-11.50000000001819
 21
295.55043021382738
  0
LINE
  5
73
100
AcDbEntity
  8
0
  6
CONTINUOUS
 62
             7
100
AcDbLine
 10
-68.5
 20
308.05043021386382
 11
-68.5
 21
295.55043021386382
  0
LINE
  5
72
100
AcDbEntity
  8
0
  6
CONTINUOUS
 62
             7
100
AcDbLine
 10
-68.5
 20
308.05043021386382
 11
-67.5244205234485
 21
308.05043021386382
  0
LINE
  5
71
100
AcDbEntity
  8
0
  6
CONTINUOUS
 62
             7
100
AcDbLine
 10
-11.5
 20
308.05043021386382
 11
-12.47557947655151
 21
308.05043021386382
  0
LINE
  5
70
100
AcDbEntity
  8
0
  6
CONTINUOUS
 62
             7
100
AcDbLine
 10
-13.88350718519007
 20
293.55043021386382
 11
-11.50000000001819
 21
295.55043021382738
  0
LINE
  5
6F
100
AcDbEntity
  8
0
  6
CONTINUOUS
 62
             7
100
AcDbLine
 10
-66.42442052344632
 20
308.05043021386382
 11
-67.5244205234485
 21
308.05043021386382
  0
LINE
  5
6E
100
AcDbEntity
  8
0
  6
CONTINUOUS
 62
             7
100
AcDbLine
 10
-19.12308203726571
 20
297.55043021386382
 11
-19.12308203726571
 21
296.55043021386382
  0
LINE
  5
6D
100
AcDbEntity
  8
0
  6
CONTINUOUS
 62
             7
100
AcDbLine
 10
-19.12308203726571
 20
296.55043021386382
 11
-19.12308203726571
 21
294.79271285054199
  0
LINE
  5
6C
100
AcDbEntity
  8
0
  6
CONTINUOUS
 62
             7
100
AcDbLine
 10
-22.72932662132019
 20
293.87223095150921
 11
-38.0
 21
293.87223095150921
  0
LINE
  5
6B
100
AcDbEntity
  8
0
  6
CONTINUOUS
 62
             7
100
AcDbLine
 10
-42.0
 20
293.87223095150921
 11
-57.27067337868374
 21
293.87223095150921
  0
LINE
  5
6A
100
AcDbEntity
  8
0
  6
CONTINUOUS
 62
             7
100
AcDbLine
 10
-57.27067337868374
 20
308.05043021386382
 11
-57.27067337868374
 21
293.87223095150921
  0
LINE
  5
69
100
AcDbEntity
  8
0
  6
CONTINUOUS
 62
             7
100
AcDbLine
 10
-38.0
 20
294.79271285054199
 11
-38.0
 21
293.87223095150921
  0
LINE
  5
68
100
AcDbEntity
  8
0
  6
CONTINUOUS
 62
             7
100
AcDbLine
 10
-22.72932662132019
 20
308.05043021386382
 11
-22.72932662132019
 21
293.87223095150921
  0
LINE
  5
67
100
AcDbEntity
  8
0
  6
CONTINUOUS
 62
             7
100
AcDbLine
 10
-38.0
 20
308.05043021386382
 11
-38.0
 21
294.79271285054199
  0
LINE
  5
66
100
AcDbEntity
  8
0
  6
CONTINUOUS
 62
             7
100
AcDbLine
 10
-60.8769179627343
 20
296.55043021386382
 11
-60.8769179627343
 21
294.79271285054199
  0
LINE
  5
65
100
AcDbEntity
  8
0
  6
CONTINUOUS
 62
             7
100
AcDbLine
 10
-58.04849083798763
 20
308.05043021386382
 11
-58.04849083798763
 21
294.79271285054199
  0
LINE
  5
64
100
AcDbEntity
  8
0
  6
CONTINUOUS
 62
             7
100
AcDbLine
 10
-21.95150916201249
 20
308.05043021386382
 11
-21.95150916200157
 21
294.79271285049111
  0
LINE
  5
63
100
AcDbEntity
  8
0
  6
CONTINUOUS
 62
             7
100
AcDbLine
 10
-42.0
 20
308.05043021386382
 11
-42.0
 21
294.79271285054199
  0
LINE
  5
62
100
AcDbEntity
  8
0
  6
CONTINUOUS
 62
             7
100
AcDbLine
 10
-19.84745673618454
 20
308.05043021386382
 11
-19.84745673618454
 21
295.55043021386382
  0
LINE
  5
61
100
AcDbEntity
  8
0
  6
CONTINUOUS
 62
             7
100
AcDbLine
 10
-60.15254326381552
 20
308.05043021386382
 11
-60.15254326381552
 21
295.55043021386382
  0
LINE
  5
60
100
AcDbEntity
  8
0
  6
CONTINUOUS
 62
             7
100
AcDbLine
 10
-40.0
 20
308.05043021386382
 11
-40.0
 21
295.55043021386382
  0
LINE
  5
5F
100
AcDbEntity
  8
0
  6
CONTINUOUS
 62
             7
100
AcDbLine
 10
-60.8769179627343
 20
308.05043021386382
 11
-60.8769179627343
 21
296.55043021386382
  0
LINE
  5
5E
100
AcDbEntity
  8
0
  6
CONTINUOUS
 62
             7
100
AcDbLine
 10
-19.12308203726571
 20
308.05043021386382
 11
-19.12308203726571
 21
297.55043021386382
  0
LINE
  5
5D
100
AcDbEntity
  8
0
  6
CONTINUOUS
 62
             7
100
AcDbLine
 10
-19.12308203726571
 20
308.05043021386382
 11
-19.84745673618454
 21
308.05043021386382
  0
LINE
  5
5C
100
AcDbEntity
  8
0
  6
CONTINUOUS
 62
             7
100
AcDbLine
 10
-21.95150916201249
 20
308.05043021386382
 11
-22.72932662132019
 21
308.05043021386382
  0
LINE
  5
5B
100
AcDbEntity
  8
0
  6
CONTINUOUS
 62
             7
100
AcDbLine
 10
-22.72932662132019
 20
308.05043021386382
 11
-38.0
 21
308.05043021386382
  0
LINE
  5
5A
100
AcDbEntity
  8
0
  6
CONTINUOUS
 62
             7
100
AcDbLine
 10
-60.15254326381552
 20
308.05043021386382
 11
-60.8769179627343
 21
308.05043021386382
  0
LINE
  5
59
100
AcDbEntity
  8
0
  6
CONTINUOUS
 62
             7
100
AcDbLine
 10
-60.0991005034266
 20
308.05043021386382
 11
-60.15254326381552
 21
308.05043021386382
  0
LINE
  5
58
100
AcDbEntity
  8
0
  6
CONTINUOUS
 62
             7
100
AcDbLine
 10
-40.0
 20
308.05043021386382
 11
-42.0
 21
308.05043021386382
  0
LINE
  5
57
100
AcDbEntity
  8
0
  6
CONTINUOUS
 62
             7
100
AcDbLine
 10
-57.27067337868374
 20
308.05043021386382
 11
-58.04849083798763
 21
308.05043021386382
  0
LINE
  5
56
100
AcDbEntity
  8
0
  6
CONTINUOUS
 62
             7
100
AcDbLine
 10
-60.0991005034266
 20
308.05043021386382
 11
-58.04849083798763
 21
308.05043021386382
  0
LINE
  5
55
100
AcDbEntity
  8
0
  6
CONTINUOUS
 62
             7
100
AcDbLine
 10
-40.0
 20
308.05043021386382
 11
-38.0
 21
308.05043021386382
  0
LINE
  5
54
100
AcDbEntity
  8
0
  6
CONTINUOUS
 62
             7
100
AcDbLine
 10
-19.90089949657341
 20
308.05043021386382
 11
-19.84745673618454
 21
308.05043021386382
  0
LINE
  5
53
100
AcDbEntity
  8
0
  6
CONTINUOUS
 62
             7
100
AcDbLine
 10
-60.0991005034266
 20
293.87223095150921
 11
-66.42442052344632
 21
293.87223095150921
  0
LINE
  5
52
100
AcDbEntity
  8
0
  6
CONTINUOUS
 62
             7
100
AcDbLine
 10
-66.42442052344632
 20
308.05043021386382
 11
-66.42442052344632
 21
293.87223095150921
  0
LINE
  5
51
100
AcDbEntity
  8
0
  6
CONTINUOUS
 62
             7
100
AcDbLine
 10
-60.8769179627343
 20
308.05043021386382
 11
-66.42442052344632
 21
308.05043021386382
  0
LINE
  5
50
100
AcDbEntity
  8
0
  6
CONTINUOUS
 62
             7
100
AcDbLine
 10
-67.5244205234485
 20
308.05043021386382
 11
-67.5244205234485
 21
294.79271285054199
  0
LINE
  5
4F
100
AcDbEntity
  8
0
  6
CONTINUOUS
 62
             7
100
AcDbLine
 10
-68.5
 20
310.55043021386382
 11
-11.5
 21
310.55043021386382
  0
LINE
  5
4E
100
AcDbEntity
  8
0
  6
CONTINUOUS
 62
             7
100
AcDbLine
 10
-68.5
 20
310.55043021386382
 11
-68.5
 21
308.05043021386382
  0
LINE
  5
4D
100
AcDbEntity
  8
0
  6
CONTINUOUS
 62
             7
100
AcDbLine
 10
-11.5
 20
310.55043021386382
 11
-11.5
 21
308.05043021386382
  0
LINE
  5
4C
100
AcDbEntity
  8
0
  6
CONTINUOUS
 62
             7
100
AcDbLine
 10
-13.57557947655369
 20
308.05043021386382
 11
-13.57557947655369
 21
293.87223095150921
  0
LINE
  5
4B
100
AcDbEntity
  8
0
  6
CONTINUOUS
 62
             7
100
AcDbLine
 10
-42.0
 20
294.79271285054199
 11
-42.0
 21
293.87223095150921
  0
LINE
  5
4A
100
AcDbEntity
  8
0
  6
CONTINUOUS
 62
             7
100
AcDbLine
 10
-19.90089949657341
 20
293.87223095150921
 11
-13.57557947655369
 21
293.87223095150921
  0
LINE
  5
49
100
AcDbEntity
  8
0
  6
CONTINUOUS
 62
             7
100
AcDbLine
 10
-12.47557947655151
 20
308.05043021386382
 11
-12.47557947655151
 21
294.79271285054199
  0
LINE
  5
48
100
AcDbEntity
  8
0
  6
CONTINUOUS
 62
             7
100
AcDbLine
 10
-13.57557947655369
 20
308.05043021386382
 11
-12.47557947655151
 21
308.05043021386382
  0
LINE
  5
47
100
AcDbEntity
  8
0
  6
CONTINUOUS
 62
             7
100
AcDbLine
 10
-42.0
 20
308.05043021386382
 11
-57.27067337868374
 21
308.05043021386382
  0
LINE
  5
46
100
AcDbEntity
  8
0
  6
CONTINUOUS
 62
             7
100
AcDbLine
 10
-19.12308203726571
 20
308.05043021386382
 11
-13.57557947655369
 21
308.05043021386382
  0
LINE
  5
45
100
AcDbEntity
  8
0
  6
CONTINUOUS
 62
             7
100
AcDbLine
 10
-21.95150916201249
 20
308.05043021386382
 11
-19.90089949657341
 21
308.05043021386382
  0
LINE
  5
44
100
AcDbEntity
  8
1
  6
PHANTOM
 62
             2
100
AcDbLine
 10
-40.0
 20
310.55043021386382
 11
-40.0
 21
308.05043021386382
  0
LINE
  5
43
100
AcDbEntity
  8
1
  6
CONTINUOUS
 62
             7
100
AcDbLine
 10
-64.0
 20
313.55043021386382
 11
-64.0
 21
314.55043021386382
  0
LINE
  5
42
100
AcDbEntity
  8
1
  6
CONTINUOUS
 62
             7
100
AcDbLine
 10
-16.0
 20
313.55043021386382
 11
-16.0
 21
314.55043021386382
  0
ENDBLK
  5
85
100
AcDbEntity
  8
0
100
AcDbBlockEnd
  0
BLOCK
  5
2A
100
AcDbEntity
  8
0
100
AcDbBlockBegin
  2
HL_13_TAUCHROHR
 70
             0
 10
640.71047681752532
 20
268.85043021386377
 30
0.0
  3
HL_13_TAUCHROHR
  1

  0
LINE
  5
86
100
AcDbEntity
  8
1
  6
CONTINUOUS
 62
             7
100
AcDbLine
 10
-9.03263610886643
 20
302.05043021386382
 11
-8.03263610886643
 21
302.05043021386382
  0
ENDBLK
  5
87
100
AcDbEntity
  8
0
100
AcDbBlockEnd
  0
BLOCK
  5
2C
100
AcDbEntity
  8
0
100
AcDbBlockBegin
  2
HOLL_NDERMUTTER_6_4__2
 70
             0
 10
335.27393665073868
 20
75.57704572118752
 30
0.0
  3
HOLL_NDERMUTTER_6_4__2
  1

  0
SPLINE
  5
C8
100
AcDbEntity
  8
0
  6
CONTINUOUS
 62
             7
100
AcDbSpline
210
0.0
220
0.0
230
1.0
 70
             0
 71
             3
 72
            11
 73
             7
 74
             5
 42
0.00000000001
 43
0.00000000001
 44
0.00000000001
 40
10.19555243465282
 40
10.19555243465282
 40
10.19555243465282
 40
10.19555243465282
 40
10.819635921994889
 40
10.819635921994889
 40
10.819635921994889
 40
11.431124435565939
 40
11.431124435565939
 40
11.431124435565939
 40
11.431124435565939
 10
-11.50000000001819
 20
115.7535898385224
 30
0.0
 10
-11.662711513858079
 20
115.8901210097731
 30
0.0
 10
-11.82444484900407
 20
116.0209174434579
 30
0.0
 10
-11.98527193283371
 20
116.14596416716201
 30
0.0
 10
-12.15021093370888
 20
116.2742080000983
 30
0.0
 10
-12.313610654640801
 20
116.39594865628651
 30
0.0
 10
-12.4755794765515
 20
116.5113072018078
 30
0.0
 11
-11.50000000001819
 21
115.7535898385224
 31
0.0
 11
-11.743342627679795
 21
115.95408367067216
 31
0.0
 11
-11.98527193283371
 21
116.14596416716201
 31
0.0
 11
-12.23153952180428
 21
116.3334676672655
 31
0.0
 11
-12.4755794765515
 21
116.5113072018078
 31
0.0
  0
SPLINE
  5
C7
100
AcDbEntity
  8
0
  6
CONTINUOUS
 62
             7
100
AcDbSpline
210
0.0
220
0.0
230
1.0
 70
             0
 71
             3
 72
            11
 73
             7
 74
             5
 42
0.00000000001
 43
0.00000000001
 44
0.00000000001
 40
9.6520212354362247
 40
9.6520212354362247
 40
9.6520212354362247
 40
9.6520212354362247
 40
10.76957509520426
 40
10.76957509520426
 40
10.76957509520426
 40
11.88858825881975
 40
11.88858825881975
 40
11.88858825881975
 40
11.88858825881975
 10
-21.951509162001461
 20
116.5113072018587
 30
0.0
 10
-21.603350280049199
 20
116.3963325969101
 30
0.0
 10
-21.251348257119389
 20
116.27476150871119
 30
0.0
 10
-20.89523910463322
 20
116.146391843505
 30
0.0
 10
-20.54815705777219
 20
116.0212762550848
 30
0.0
 10
-20.198951342805231
 20
115.8903432894015
 30
0.0
 10
-19.84745673618454
 20
115.75358983848611
 30
0.0
 11
-21.951509162001461
 21
116.5113072018587
 31
0.0
 11
-21.426355484767559
 21
116.33387267027845
 31
0.0
 11
-20.89523910463322
 21
116.146391843505
 31
0.0
 11
-20.373002630318751
 21
115.95435503943126
 31
0.0
 11
-19.84745673618454
 21
115.75358983848611
 31
0.0
  0
SPLINE
  5
C6
100
AcDbEntity
  8
0
  6
CONTINUOUS
 62
             7
100
AcDbSpline
210
0.0
220
0.0
230
1.0
 70
             0
 71
             3
 72
            11
 73
             7
 74
             5
 42
0.00000000001
 43
0.00000000001
 44
0.00000000001
 40
12.6022249851908
 40
12.6022249851908
 40
12.6022249851908
 40
12.6022249851908
 40
13.319387266273759
 40
13.319387266273759
 40
13.319387266273759
 40
14.0365495399508
 40
14.0365495399508
 40
14.0365495399508
 40
14.0365495399508
 10
-13.575579476553679
 20
117.4317891008407
 30
0.0
 10
-13.39433600517077
 20
117.28014151528011
 30
0.0
 10
-13.211012569525341
 20
117.12674472322151
 30
0.0
 10
-13.025566842872649
 20
116.97156324314101
 30
0.0
 10
-12.84376963855539
 20
116.8194348563059
 30
0.0
 10
-12.660443384356769
 20
116.666018548088
 30
0.0
 10
-12.4755794765515
 20
116.5113072018078
 30
0.0
 11
-13.575579476553679
 21
117.4317891008407
 31
0.0
 11
-13.302149005439333
 21
117.20300138243582
 31
0.0
 11
-13.025566842872649
 21
116.97156324314101
 31
0.0
 11
-12.75172317352008
 21
116.74240383226632
 31
0.0
 11
-12.4755794765515
 21
116.5113072018078
 31
0.0
  0
SPLINE
  5
C5
100
AcDbEntity
  8
0
  6
CONTINUOUS
 62
             7
100
AcDbSpline
210
0.0
220
0.0
230
1.0
 70
             0
 71
             3
 72
            11
 73
             7
 74
             5
 42
0.00000000001
 43
0.00000000001
 44
0.00000000001
 40
12.602224985190871
 40
12.602224985190871
 40
12.602224985190871
 40
12.602224985190871
 40
13.31938726627383
 40
13.31938726627383
 40
13.31938726627383
 40
14.03654953995088
 40
14.03654953995088
 40
14.03654953995088
 40
14.03654953995088
 10
-66.424420523446315
 20
117.4317891008407
 30
0.0
 10
-66.606421741736995
 20
117.27950750353671
 30
0.0
 10
-66.789761535583182
 20
117.1260969499974
 30
0.0
 10
-66.974433157127407
 20
116.97156324314101
 30
0.0
 10
-67.156161294616993
 20
116.8194926516128
 30
0.0
 10
-67.339486043732904
 20
116.6660776092406
 30
0.0
 10
-67.524420523448498
 20
116.5113072018078
 30
0.0
 11
-66.424420523446315
 21
117.4317891008407
 31
0.0
 11
-66.698425439066781
 21
117.202520713073
 31
0.0
 11
-66.974433157127407
 21
116.97156324314101
 31
0.0
 11
-67.2482244619532
 21
116.74244765343863
 31
0.0
 11
-67.524420523448498
 21
116.5113072018078
 31
0.0
  0
SPLINE
  5
C4
100
AcDbEntity
  8
0
  6
CONTINUOUS
 62
             7
100
AcDbSpline
210
0.0
220
0.0
230
1.0
 70
             0
 71
             3
 72
            11
 73
             7
 74
             5
 42
0.00000000001
 43
0.00000000001
 44
0.00000000001
 40
110.6006816517057
 40
110.6006816517057
 40
110.6006816517057
 40
110.6006816517057
 40
111.20324172357979
 40
111.20324172357979
 40
111.20324172357979
 40
111.8057903305485
 40
111.8057903305485
 40
111.8057903305485
 40
111.8057903305485
 10
-19.1230820372657
 20
116.5113072018078
 30
0.0
 10
-19.253640993505542
 20
116.6658296937651
 30
0.0
 10
-19.38327575333096
 20
116.8192501907736
 30
0.0
 10
-19.511981814819588
 20
116.9715632209639
 30
0.0
 10
-19.643474018033881
 20
117.1271734205632
 30
0.0
 10
-19.773096847995479
 20
117.2805625731319
 30
0.0
 10
-19.900899496573398
 20
117.4317891008407
 30
0.0
 11
-19.1230820372657
 21
116.5113072018078
 31
0.0
 11
-19.318226761574341
 21
116.74226375954848
 31
0.0
 11
-19.511981814819588
 21
116.9715632209639
 31
0.0
 11
-19.707824238685127
 21
117.20332003786123
 31
0.0
 11
-19.900899496573398
 21
117.4317891008407
 31
0.0
  0
SPLINE
  5
C3
100
AcDbEntity
  8
0
  6
CONTINUOUS
 62
             7
100
AcDbSpline
210
0.0
220
0.0
230
1.0
 70
             0
 71
             3
 72
            11
 73
             7
 74
             5
 42
0.00000000001
 43
0.00000000001
 44
0.00000000001
 40
12.60222498519019
 40
12.60222498519019
 40
12.60222498519019
 40
12.60222498519019
 40
13.20477356312731
 40
13.20477356312731
 40
13.20477356312731
 40
13.807333664033029
 40
13.807333664033029
 40
13.807333664033029
 40
13.807333664033029
 10
-57.270673378683568
 20
117.4317891008407
 30
0.0
 10
-57.398734616501322
 20
117.2802565892282
 30
0.0
 10
-57.52836200704769
 20
117.12686200440039
 30
0.0
 10
-57.659591041694512
 20
116.97156324314101
 30
0.0
 10
-57.788328314236423
 20
116.8192132772395
 30
0.0
 10
-57.917963808395093
 20
116.6657919071197
 30
0.0
 10
-58.048490837987629
 20
116.5113072018078
 30
0.0
 11
-57.270673378683568
 21
117.4317891008407
 31
0.0
 11
-57.463944286378151
 21
117.20308851560844
 31
0.0
 11
-57.659591041694512
 21
116.97156324314101
 31
0.0
 11
-57.853369780947091
 21
116.74223574975329
 31
0.0
 11
-58.048490837987629
 21
116.5113072018078
 31
0.0
  0
SPLINE
  5
C2
100
AcDbEntity
  8
0
  6
CONTINUOUS
 62
             7
100
AcDbSpline
210
0.0
220
0.0
230
1.0
 70
             0
 71
             3
 72
            11
 73
             7
 74
             5
 42
0.00000000001
 43
0.00000000001
 44
0.00000000001
 40
110.6006816516911
 40
110.6006816516911
 40
110.6006816516911
 40
110.6006816516911
 40
111.2032417235651
 40
111.2032417235651
 40
111.2032417235651
 40
111.8057903305339
 40
111.8057903305339
 40
111.8057903305339
 40
111.8057903305339
 10
-21.951509162001461
 20
116.5113072018587
 30
0.0
 10
-22.082126707882711
 20
116.6658990372682
 30
0.0
 10
-22.211760149497419
 20
116.8193179667844
 30
0.0
 10
-22.34040893956626
 20
116.9715632209639
 30
0.0
 10
-22.47153806337155
 20
117.12674374596941
 30
0.0
 10
-22.601167329852611
 20
117.2801405641487
 30
0.0
 10
-22.72932662132007
 20
117.4317891008407
 30
0.0
 11
-21.951509162001461
 21
116.5113072018587
 31
0.0
 11
-22.146697334213513
 21
116.74231517937255
 31
0.0
 11
-22.34040893956626
 21
116.9715632209639
 31
0.0
 11
-22.535981467569854
 21
117.20300065651985
 31
0.0
 11
-22.72932662132007
 21
117.4317891008407
 31
0.0
  0
SPLINE
  5
C1
100
AcDbEntity
  8
0
  6
CONTINUOUS
 62
             7
100
AcDbSpline
210
0.0
220
0.0
230
1.0
 70
             0
 71
             3
 72
            11
 73
             7
 74
             5
 42
0.00000000001
 43
0.00000000001
 44
0.00000000001
 40
12.60222498519215
 40
12.60222498519215
 40
12.60222498519215
 40
12.60222498519215
 40
13.20477356312929
 40
13.20477356312929
 40
13.20477356312929
 40
13.80733366403499
 40
13.80733366403499
 40
13.80733366403499
 40
13.80733366403499
 10
-60.099100503426598
 20
117.4317891008407
 30
0.0
 10
-60.227551685747983
 20
117.27979517505921
 30
0.0
 10
-60.35718696530239
 20
117.12639120118661
 30
0.0
 10
-60.488018166441179
 20
116.97156324314101
 30
0.0
 10
-60.615852009708817
 20
116.8202824114244
 30
0.0
 10
-60.745469537574479
 20
116.6668824208875
 30
0.0
 10
-60.876917962734296
 20
116.5113072018078
 30
0.0
 11
-60.099100503426598
 21
117.4317891008407
 31
0.0
 11
-60.292666827877362
 21
117.20273893408989
 31
0.0
 11
-60.488018166441179
 21
116.97156324314101
 31
0.0
 11
-60.681112596378178
 21
116.74304561773556
 31
0.0
 11
-60.876917962734296
 21
116.5113072018078
 31
0.0
  0
SPLINE
  5
C0
100
AcDbEntity
  8
0
  6
CONTINUOUS
 62
             7
100
AcDbSpline
210
0.0
220
0.0
230
1.0
 70
             0
 71
             3
 72
            11
 73
             7
 74
             5
 42
0.00000000001
 43
0.00000000001
 44
0.00000000001
 40
10.195552434652781
 40
10.195552434652781
 40
10.195552434652781
 40
10.195552434652781
 40
11.264995853159769
 40
11.264995853159769
 40
11.264995853159769
 40
12.33452008509969
 40
12.33452008509969
 40
12.33452008509969
 40
12.33452008509969
 10
-40.0
 20
115.75358983848611
 30
0.0
 10
-40.336648507400177
 20
115.891381482995
 30
0.0
 10
-40.668168159172581
 20
116.0220687389422
 30
0.0
 10
-40.994838338639973
 20
116.14596416716201
 30
0.0
 10
-41.331847329125587
 20
116.27378077183791
 30
0.0
 10
-41.666845105588379
 20
116.3955635432296
 30
0.0
 10
-42.0
 20
116.5113072018078
 30
0.0
 11
-40.0
 21
115.75358983848611
 31
0.0
 11
-40.501161042294783
 21
115.95498808393245
 31
0.0
 11
-40.994838338639973
 21
116.14596416716201
 31
0.0
 11
-41.498864455347729
 21
116.33316303927154
 31
0.0
 11
-42.0
 21
116.5113072018078
 31
0.0
  0
SPLINE
  5
BF
100
AcDbEntity
  8
0
  6
CONTINUOUS
 62
             7
100
AcDbSpline
210
0.0
220
0.0
230
1.0
 70
             0
 71
             3
 72
            11
 73
             7
 74
             5
 42
0.00000000001
 43
0.00000000001
 44
0.00000000001
 40
10.195552434652781
 40
10.195552434652781
 40
10.195552434652781
 40
10.195552434652781
 40
10.72829261095816
 40
10.72829261095816
 40
10.72829261095816
 40
11.244087937724711
 40
11.244087937724711
 40
11.244087937724711
 40
11.244087937724711
 10
-60.152543263815517
 20
115.75358983848611
 30
0.0
 10
-60.274607587209182
 20
115.89153347195069
 30
0.0
 10
-60.394678575958103
 20
116.0222082807789
 30
0.0
 10
-60.512861124829207
 20
116.14596416716201
 30
0.0
 10
-60.635342013658367
 20
116.274221097706
 30
0.0
 10
-60.756667290093901
 20
116.39596048290809
 30
0.0
 10
-60.876917962734296
 20
116.5113072018078
 30
0.0
 11
-60.152543263815517
 21
115.75358983848611
 31
0.0
 11
-60.334157859768318
 21
115.95509740797961
 31
0.0
 11
-60.512861124829207
 21
116.14596416716201
 31
0.0
 11
-60.695725874852542
 21
116.33347701385151
 31
0.0
 11
-60.876917962734296
 21
116.5113072018078
 31
0.0
  0
SPLINE
  5
BE
100
AcDbEntity
  8
0
  6
CONTINUOUS
 62
             7
100
AcDbSpline
210
0.0
220
0.0
230
1.0
 70
             0
 71
             3
 72
            11
 73
             7
 74
             5
 42
0.00000000001
 43
0.00000000001
 44
0.00000000001
 40
10.19555243465293
 40
10.19555243465293
 40
10.19555243465293
 40
10.19555243465293
 40
11.313304530967139
 40
11.313304530967139
 40
11.313304530967139
 40
12.43211945463684
 40
12.43211945463684
 40
12.43211945463684
 40
12.43211945463684
 10
-60.152543263815517
 20
115.75358983848611
 30
0.0
 10
-59.798548731578187
 20
115.8913159173255
 30
0.0
 10
-59.44977968933739
 20
116.0220085898884
 30
0.0
 10
-59.10594725395282
 20
116.14596416716201
 30
0.0
 10
-58.750301521875372
 20
116.27417857478331
 30
0.0
 10
-58.39789278902748
 20
116.3959220906666
 30
0.0
 10
-58.048490837987629
 20
116.5113072018078
 30
0.0
 11
-60.152543263815517
 21
115.75358983848611
 31
0.0
 11
-59.625434472564386
 21
115.95494094091123
 31
0.0
 11
-59.10594725395282
 21
116.14596416716201
 31
0.0
 11
-58.574877628081126
 21
116.33344667066496
 31
0.0
 11
-58.048490837987629
 21
116.5113072018078
 31
0.0
  0
SPLINE
  5
BD
100
AcDbEntity
  8
0
  6
CONTINUOUS
 62
             7
100
AcDbSpline
210
0.0
220
0.0
230
1.0
 70
             0
 71
             3
 72
            11
 73
             7
 74
             5
 42
0.00000000001
 43
0.00000000001
 44
0.00000000001
 40
10.19555243465283
 40
10.19555243465283
 40
10.19555243465283
 40
10.19555243465283
 40
11.26499585315983
 40
11.26499585315983
 40
11.26499585315983
 40
12.33452008509976
 40
12.33452008509976
 40
12.33452008509976
 40
12.33452008509976
 10
-40.0
 20
115.75358983848611
 30
0.0
 10
-39.666744198962988
 20
115.88999283406631
 30
0.0
 10
-39.335174534851831
 20
116.02080096326721
 30
0.0
 10
-39.005161661360027
 20
116.14596416716201
 30
0.0
 10
-38.667101067028852
 20
116.2741796111488
 30
0.0
 10
-38.332120163730004
 20
116.3959230262128
 30
0.0
 10
-38.0
 20
116.5113072018078
 30
0.0
 11
-40.0
 21
115.75358983848611
 31
0.0
 11
-39.501364732850561
 21
115.95399192470607
 31
0.0
 11
-39.005161661360027
 21
116.14596416716201
 31
0.0
 11
-38.500353169204573
 21
116.33344741013181
 31
0.0
 11
-38.0
 21
116.5113072018078
 31
0.0
  0
SPLINE
  5
BC
100
AcDbEntity
  8
0
  6
CONTINUOUS
 62
             7
100
AcDbSpline
210
0.0
220
0.0
230
1.0
 70
             0
 71
             3
 72
            11
 73
             7
 74
             5
 42
0.00000000001
 43
0.00000000001
 44
0.00000000001
 40
9.6520212354362265
 40
9.6520212354362265
 40
9.6520212354362265
 40
9.6520212354362265
 40
10.16722522019518
 40
10.16722522019518
 40
10.16722522019518
 40
10.7005567454881
 40
10.7005567454881
 40
10.7005567454881
 40
10.7005567454881
 10
-19.1230820372657
 20
116.5113072018078
 30
0.0
 10
-19.242859370791852
 20
116.39641451883401
 30
0.0
 10
-19.364044195222959
 20
116.2748519955869
 30
0.0
 10
-19.486730440414249
 20
116.146391843505
 30
0.0
 10
-19.60583447512181
 20
116.02168248926429
 30
0.0
 10
-19.726050999623109
 20
115.8907892096843
 30
0.0
 10
-19.84745673618454
 20
115.75358983848611
 30
0.0
 11
-19.1230820372657
 21
116.5113072018078
 31
0.0
 11
-19.30381539696555
 21
116.33393732357194
 31
0.0
 11
-19.486730440414249
 21
116.146391843505
 31
0.0
 11
-19.666230450104191
 21
115.95467459735461
 31
0.0
 11
-19.84745673618454
 21
115.75358983848611
 31
0.0
  0
SPLINE
  5
BB
100
AcDbEntity
  8
0
  6
CONTINUOUS
 62
             7
100
AcDbSpline
210
0.0
220
0.0
230
1.0
 70
             0
 71
             3
 72
            11
 73
             7
 74
             5
 42
0.00000000001
 43
0.00000000001
 44
0.00000000001
 40
10.19448601636854
 40
10.19448601636854
 40
10.19448601636854
 40
10.19448601636854
 40
10.818569247931419
 40
10.818569247931419
 40
10.818569247931419
 40
11.430058017314931
 40
11.430058017314931
 40
11.430058017314931
 40
11.430058017314931
 10
-68.5
 20
115.75358983848611
 30
0.0
 10
-68.336681865861465
 20
115.89063002460649
 30
0.0
 10
-68.174958906056418
 20
116.0213810332837
 30
0.0
 10
-68.014728269128682
 20
116.14596401012859
 30
0.0
 10
-67.849789339583367
 20
116.2742077919368
 30
0.0
 10
-67.686389549373416
 20
116.395948510982
 30
0.0
 10
-67.524420523448498
 20
116.5113072018078
 30
0.0
 11
-68.5
 21
115.75358983848611
 31
0.0
 11
-68.256206323110291
 21
115.95444837778567
 31
0.0
 11
-68.014728269128682
 21
116.14596401012859
 31
0.0
 11
-67.768460682430941
 21
116.33346751508658
 31
0.0
 11
-67.524420523448498
 21
116.5113072018078
 31
0.0
  0
LINE
  5
BA
100
AcDbEntity
  8
1
  6
PHANTOM
 62
             2
100
AcDbLine
 10
-40.0
 20
103.25358983848611
 11
-40.0
 21
100.75358983848611
  0
LINE
  5
B9
100
AcDbEntity
  8
0
  6
CONTINUOUS
 62
             7
100
AcDbLine
 10
-19.9008994965734
 20
103.25358983848611
 11
-21.95150916201237
 21
103.25358983848611
  0
LINE
  5
B8
100
AcDbEntity
  8
0
  6
CONTINUOUS
 62
             7
100
AcDbLine
 10
-13.57557947655368
 20
103.25358983848611
 11
-19.1230820372657
 21
103.25358983848611
  0
LINE
  5
B7
100
AcDbEntity
  8
0
  6
CONTINUOUS
 62
             7
100
AcDbLine
 10
-57.27067337868357
 20
103.25358983848611
 11
-42.0
 21
103.25358983848611
  0
LINE
  5
B6
100
AcDbEntity
  8
0
  6
CONTINUOUS
 62
             7
100
AcDbLine
 10
-12.4755794765515
 20
103.25358983848611
 11
-13.57557947655368
 21
103.25358983848611
  0
LINE
  5
B5
100
AcDbEntity
  8
0
  6
CONTINUOUS
 62
             7
100
AcDbLine
 10
-12.4755794765515
 20
116.5113072018078
 11
-12.4755794765515
 21
103.25358983848611
  0
LINE
  5
B4
100
AcDbEntity
  8
0
  6
CONTINUOUS
 62
             7
100
AcDbLine
 10
-13.57557947655368
 20
117.4317891008407
 11
-19.9008994965734
 21
117.4317891008407
  0
LINE
  5
B3
100
AcDbEntity
  8
0
  6
CONTINUOUS
 62
             7
100
AcDbLine
 10
-42.0
 20
117.4317891008407
 11
-42.0
 21
116.5113072018078
  0
LINE
  5
B2
100
AcDbEntity
  8
0
  6
CONTINUOUS
 62
             7
100
AcDbLine
 10
-13.57557947655368
 20
117.4317891008407
 11
-13.57557947655368
 21
103.25358983848611
  0
LINE
  5
B1
100
AcDbEntity
  8
0
  6
CONTINUOUS
 62
             7
100
AcDbLine
 10
-11.5
 20
103.25358983848611
 11
-11.5
 21
100.75358983848611
  0
LINE
  5
B0
100
AcDbEntity
  8
0
  6
CONTINUOUS
 62
             7
100
AcDbLine
 10
-68.5
 20
103.25358983848611
 11
-68.5
 21
100.75358983848611
  0
LINE
  5
AF
100
AcDbEntity
  8
0
  6
CONTINUOUS
 62
             7
100
AcDbLine
 10
-11.5
 20
100.75358983848611
 11
-68.5
 21
100.75358983848611
  0
LINE
  5
AE
100
AcDbEntity
  8
0
  6
CONTINUOUS
 62
             7
100
AcDbLine
 10
-67.5244205234485
 20
116.5113072018078
 11
-67.5244205234485
 21
103.25358983848611
  0
LINE
  5
AD
100
AcDbEntity
  8
0
  6
CONTINUOUS
 62
             7
100
AcDbLine
 10
-66.42442052344632
 20
103.25358983848611
 11
-60.8769179627343
 21
103.25358983848611
  0
LINE
  5
AC
100
AcDbEntity
  8
0
  6
CONTINUOUS
 62
             7
100
AcDbLine
 10
-66.42442052344632
 20
117.4317891008407
 11
-66.42442052344632
 21
103.25358983848611
  0
LINE
  5
AB
100
AcDbEntity
  8
0
  6
CONTINUOUS
 62
             7
100
AcDbLine
 10
-66.42442052344632
 20
117.4317891008407
 11
-60.0991005034266
 21
117.4317891008407
  0
LINE
  5
AA
100
AcDbEntity
  8
0
  6
CONTINUOUS
 62
             7
100
AcDbLine
 10
-19.84745673618454
 20
103.25358983848611
 11
-19.9008994965734
 21
103.25358983848611
  0
LINE
  5
A9
100
AcDbEntity
  8
0
  6
CONTINUOUS
 62
             7
100
AcDbLine
 10
-38.0
 20
103.25358983848611
 11
-40.0
 21
103.25358983848611
  0
LINE
  5
A8
100
AcDbEntity
  8
0
  6
CONTINUOUS
 62
             7
100
AcDbLine
 10
-58.04849083798763
 20
103.25358983848611
 11
-60.0991005034266
 21
103.25358983848611
  0
LINE
  5
A7
100
AcDbEntity
  8
0
  6
CONTINUOUS
 62
             7
100
AcDbLine
 10
-58.04849083798763
 20
103.25358983848611
 11
-57.27067337868357
 21
103.25358983848611
  0
LINE
  5
A6
100
AcDbEntity
  8
0
  6
CONTINUOUS
 62
             7
100
AcDbLine
 10
-42.0
 20
103.25358983848611
 11
-40.0
 21
103.25358983848611
  0
LINE
  5
A5
100
AcDbEntity
  8
0
  6
CONTINUOUS
 62
             7
100
AcDbLine
 10
-60.15254326381552
 20
103.25358983848611
 11
-60.0991005034266
 21
103.25358983848611
  0
LINE
  5
A4
100
AcDbEntity
  8
0
  6
CONTINUOUS
 62
             7
100
AcDbLine
 10
-60.8769179627343
 20
103.25358983848611
 11
-60.15254326381552
 21
103.25358983848611
  0
LINE
  5
A3
100
AcDbEntity
  8
0
  6
CONTINUOUS
 62
             7
100
AcDbLine
 10
-38.0
 20
103.25358983848611
 11
-22.72932662132007
 21
103.25358983848611
  0
LINE
  5
A2
100
AcDbEntity
  8
0
  6
CONTINUOUS
 62
             7
100
AcDbLine
 10
-22.72932662132007
 20
103.25358983848611
 11
-21.95150916201237
 21
103.25358983848611
  0
LINE
  5
A1
100
AcDbEntity
  8
0
  6
CONTINUOUS
 62
             7
100
AcDbLine
 10
-19.84745673618454
 20
103.25358983848611
 11
-19.1230820372657
 21
103.25358983848611
  0
LINE
  5
A0
100
AcDbEntity
  8
0
  6
CONTINUOUS
 62
             7
100
AcDbLine
 10
-19.1230820372657
 20
113.75358983848611
 11
-19.1230820372657
 21
103.25358983848611
  0
LINE
  5
9F
100
AcDbEntity
  8
0
  6
CONTINUOUS
 62
             7
100
AcDbLine
 10
-60.8769179627343
 20
114.75358983848611
 11
-60.8769179627343
 21
103.25358983848611
  0
LINE
  5
9E
100
AcDbEntity
  8
0
  6
CONTINUOUS
 62
             7
100
AcDbLine
 10
-40.0
 20
115.75358983848611
 11
-40.0
 21
103.25358983848611
  0
LINE
  5
9D
100
AcDbEntity
  8
0
  6
CONTINUOUS
 62
             7
100
AcDbLine
 10
-60.15254326381552
 20
115.75358983848611
 11
-60.15254326381552
 21
103.25358983848611
  0
LINE
  5
9C
100
AcDbEntity
  8
0
  6
CONTINUOUS
 62
             7
100
AcDbLine
 10
-19.84745673618454
 20
115.75358983848611
 11
-19.84745673618454
 21
103.25358983848611
  0
LINE
  5
9B
100
AcDbEntity
  8
0
  6
CONTINUOUS
 62
             7
100
AcDbLine
 10
-42.0
 20
116.5113072018078
 11
-42.0
 21
103.25358983848611
  0
LINE
  5
9A
100
AcDbEntity
  8
0
  6
CONTINUOUS
 62
             7
100
AcDbLine
 10
-21.95150916200146
 20
116.5113072018587
 11
-21.95150916201237
 21
103.25358983848611
  0
LINE
  5
99
100
AcDbEntity
  8
0
  6
CONTINUOUS
 62
             7
100
AcDbLine
 10
-58.04849083798763
 20
116.5113072018078
 11
-58.04849083798763
 21
103.25358983848611
  0
LINE
  5
98
100
AcDbEntity
  8
0
  6
CONTINUOUS
 62
             7
100
AcDbLine
 10
-60.8769179627343
 20
116.5113072018078
 11
-60.8769179627343
 21
114.75358983848611
  0
LINE
  5
97
100
AcDbEntity
  8
0
  6
CONTINUOUS
 62
             7
100
AcDbLine
 10
-38.0
 20
116.5113072018078
 11
-38.0
 21
103.25358983848611
  0
LINE
  5
96
100
AcDbEntity
  8
0
  6
CONTINUOUS
 62
             7
100
AcDbLine
 10
-22.72932662132007
 20
117.4317891008407
 11
-22.72932662132007
 21
103.25358983848611
  0
LINE
  5
95
100
AcDbEntity
  8
0
  6
CONTINUOUS
 62
             7
100
AcDbLine
 10
-38.0
 20
117.4317891008407
 11
-38.0
 21
116.5113072018078
  0
LINE
  5
94
100
AcDbEntity
  8
0
  6
CONTINUOUS
 62
             7
100
AcDbLine
 10
-57.27067337868357
 20
117.4317891008407
 11
-57.27067337868357
 21
103.25358983848611
  0
LINE
  5
93
100
AcDbEntity
  8
0
  6
CONTINUOUS
 62
             7
100
AcDbLine
 10
-57.27067337868357
 20
117.4317891008407
 11
-42.0
 21
117.4317891008407
  0
LINE
  5
92
100
AcDbEntity
  8
0
  6
CONTINUOUS
 62
             7
100
AcDbLine
 10
-38.0
 20
117.4317891008407
 11
-22.72932662132007
 21
117.4317891008407
  0
LINE
  5
91
100
AcDbEntity
  8
0
  6
CONTINUOUS
 62
             7
100
AcDbLine
 10
-19.1230820372657
 20
116.5113072018078
 11
-19.1230820372657
 21
114.75358983848611
  0
LINE
  5
90
100
AcDbEntity
  8
0
  6
CONTINUOUS
 62
             7
100
AcDbLine
 10
-19.1230820372657
 20
114.75358983848611
 11
-19.1230820372657
 21
113.75358983848611
  0
LINE
  5
8F
100
AcDbEntity
  8
0
  6
CONTINUOUS
 62
             7
100
AcDbLine
 10
-67.5244205234485
 20
103.25358983848611
 11
-66.42442052344632
 21
103.25358983848611
  0
LINE
  5
8E
100
AcDbEntity
  8
0
  6
CONTINUOUS
 62
             7
100
AcDbLine
 10
-11.50000000001819
 20
115.7535898385224
 11
-13.88350718518996
 21
117.75358983848611
  0
LINE
  5
8D
100
AcDbEntity
  8
0
  6
CONTINUOUS
 62
             7
100
AcDbLine
 10
-12.4755794765515
 20
103.25358983848611
 11
-11.5
 21
103.25358983848611
  0
LINE
  5
8C
100
AcDbEntity
  8
0
  6
CONTINUOUS
 62
             7
100
AcDbLine
 10
-67.5244205234485
 20
103.25358983848611
 11
-68.5
 21
103.25358983848611
  0
LINE
  5
8B
100
AcDbEntity
  8
0
  6
CONTINUOUS
 62
             7
100
AcDbLine
 10
-68.5
 20
115.75358983848611
 11
-68.5
 21
103.25358983848611
  0
LINE
  5
8A
100
AcDbEntity
  8
0
  6
CONTINUOUS
 62
             7
100
AcDbLine
 10
-11.50000000001819
 20
115.7535898385224
 11
-11.5
 21
103.25358983848611
  0
LINE
  5
89
100
AcDbEntity
  8
0
  6
CONTINUOUS
 62
             7
100
AcDbLine
 10
-68.5
 20
115.75358983848611
 11
-66.11649281480999
 21
117.75358983848611
  0
LINE
  5
88
100
AcDbEntity
  8
0
  6
CONTINUOUS
 62
             7
100
AcDbLine
 10
-66.11649281480999
 20
117.75358983848611
 11
-13.88350718518996
 21
117.75358983848611
  0
ENDBLK
  5
C9
100
AcDbEntity
  8
0
100
AcDbBlockEnd
  0
BLOCK
  5
2E
100
AcDbEntity
  8
0
100
AcDbBlockBegin
  2
HL_100_KR_MMER
 70
             0
 10
489.96209174422012
 20
85.5
 30
0.0
  3
HL_100_KR_MMER
  1

  0
ARC
  5
FD
100
AcDbEntity
  8
1
  6
CONTINUOUS
 62
             7
100
AcDbCircle
 10
-45.65000000000128
 20
87.75
 40
0.75
100
AcDbArc
 50
180.0
 51
-90.0
  0
ARC
  5
FC
100
AcDbEntity
  8
1
  6
CONTINUOUS
 62
             7
100
AcDbCircle
 10
-45.65000000000128
 20
87.75
 40
0.75
100
AcDbArc
 50
-90.0
 51
0.0
  0
ARC
  5
FB
100
AcDbEntity
  8
1
  6
CONTINUOUS
 62
             7
100
AcDbCircle
 10
-41.15000000000128
 20
87.75
 40
0.75
100
AcDbArc
 50
180.0
 51
-90.0
  0
ARC
  5
FA
100
AcDbEntity
  8
1
  6
CONTINUOUS
 62
             7
100
AcDbCircle
 10
-41.15000000000128
 20
87.75
 40
0.75
100
AcDbArc
 50
-90.0
 51
0.0
  0
ARC
  5
F9
100
AcDbEntity
  8
1
  6
CONTINUOUS
 62
             7
100
AcDbCircle
 10
-41.15000000000128
 20
94.25
 40
0.75
100
AcDbArc
 50
0.0
 51
90.0
  0
ARC
  5
F8
100
AcDbEntity
  8
1
  6
CONTINUOUS
 62
             7
100
AcDbCircle
 10
-41.15000000000128
 20
94.25
 40
0.75
100
AcDbArc
 50
90.0
 51
180.0
  0
ARC
  5
F7
100
AcDbEntity
  8
1
  6
CONTINUOUS
 62
             7
100
AcDbCircle
 10
-45.65000000000128
 20
94.25
 40
0.75
100
AcDbArc
 50
0.0
 51
90.0
  0
ARC
  5
F6
100
AcDbEntity
  8
1
  6
CONTINUOUS
 62
             7
100
AcDbCircle
 10
-45.65000000000128
 20
94.25
 40
0.75
100
AcDbArc
 50
90.0
 51
180.0
  0
ARC
  5
F5
100
AcDbEntity
  8
1
  6
CONTINUOUS
 62
             7
100
AcDbCircle
 10
-37.85000000000207
 20
87.75
 40
0.75
100
AcDbArc
 50
180.0
 51
-90.0
  0
ARC
  5
F4
100
AcDbEntity
  8
1
  6
CONTINUOUS
 62
             7
100
AcDbCircle
 10
-37.85000000000207
 20
94.25
 40
0.75
100
AcDbArc
 50
90.0
 51
180.0
  0
ARC
  5
F3
100
AcDbEntity
  8
1
  6
CONTINUOUS
 62
             7
100
AcDbCircle
 10
-37.85000000000207
 20
94.25
 40
0.75
100
AcDbArc
 50
0.0
 51
90.0
  0
ARC
  5
F2
100
AcDbEntity
  8
1
  6
CONTINUOUS
 62
             7
100
AcDbCircle
 10
-33.85000000000207
 20
87.75
 40
0.75
100
AcDbArc
 50
0.0
 51
90.0
  0
ARC
  5
F1
100
AcDbEntity
  8
1
  6
CONTINUOUS
 62
             7
100
AcDbCircle
 10
-33.85000000000207
 20
87.75
 40
0.75
100
AcDbArc
 50
-90.0
 51
0.0
  0
ARC
  5
F0
100
AcDbEntity
  8
1
  6
CONTINUOUS
 62
             7
100
AcDbCircle
 10
-44.15000000000128
 20
92.35000000000218
 40
0.75
100
AcDbArc
 50
180.0
 51
-90.0
  0
ARC
  5
EF
100
AcDbEntity
  8
1
  6
CONTINUOUS
 62
             7
100
AcDbCircle
 10
-44.15000000000128
 20
89.65000000000151
 40
0.75
100
AcDbArc
 50
90.0
 51
180.0
  0
ARC
  5
EE
100
AcDbEntity
  8
1
  6
CONTINUOUS
 62
             7
100
AcDbCircle
 10
-42.65000000000128
 20
89.65000000000151
 40
0.75
100
AcDbArc
 50
0.0
 51
90.0
  0
ARC
  5
ED
100
AcDbEntity
  8
1
  6
CONTINUOUS
 62
             7
100
AcDbCircle
 10
-42.65000000000128
 20
92.35000000000218
 40
0.75
100
AcDbArc
 50
-90.0
 51
0.0
  0
ARC
  5
EC
100
AcDbEntity
  8
1
  6
CONTINUOUS
 62
             7
100
AcDbCircle
 10
-36.35000000000207
 20
89.25
 40
0.75
100
AcDbArc
 50
180.0
 51
-90.0
  0
ARC
  5
EB
100
AcDbEntity
  8
1
  6
PHANTOM
 62
             2
100
AcDbCircle
 10
0.0
 20
75.19999999999999
 40
53.00000000000007
100
AcDbArc
 50
-139.88624277172315
 51
-17.59126930145308
  0
ARC
  5
EA
100
AcDbEntity
  8
1
  6
CONTINUOUS
 62
             7
100
AcDbCircle
 10
49.89079430382856
 20
60.29501278990608
 40
28.49999999999995
100
AcDbArc
 50
-60.72913860663665
 51
-14.21054331447926
  0
ARC
  5
E9
100
AcDbEntity
  8
1
  6
CONTINUOUS
 62
             7
100
AcDbCircle
 10
0.0
 20
75.19999999999999
 40
75.20000000000009
100
AcDbArc
 50
-145.80479992001204
 51
-90.0
  0
ARC
  5
E8
100
AcDbEntity
  8
1
  6
CONTINUOUS
 62
             7
100
AcDbCircle
 10
49.89079430382856
 20
60.29501278990608
 40
28.49999999999987
100
AcDbArc
 50
-175.78945668552021
 51
-166.80868156583921
  0
ARC
  5
E7
100
AcDbEntity
  8
1
  6
CONTINUOUS
 62
             7
100
AcDbCircle
 10
0.0
 20
75.19999999999999
 40
30.79999999999998
100
AcDbArc
 50
-125.30452499558528
 51
-44.0344170513609
  0
ARC
  5
E6
100
AcDbEntity
  8
1
  6
CONTINUOUS
 62
             7
100
AcDbCircle
 10
0.0
 20
75.19999999999999
 40
75.19999999999999
100
AcDbArc
 50
-90.0
 51
-31.92467306533295
  0
LINE
  5
E5
100
AcDbEntity
  8
1
  6
CONTINUOUS
 62
             7
100
AcDbLine
 10
-62.19999999999999
 20
98.49999999999989
 11
-17.80000000000007
 21
98.49999999999989
  0
LINE
  5
E4
100
AcDbEntity
  8
1
  6
CONTINUOUS
 62
             7
100
AcDbLine
 10
-63.60000000000008
 20
99.59999999999991
 11
-16.40000000000009
 21
99.59999999999991
  0
LINE
  5
E3
100
AcDbEntity
  8
1
  6
CONTINUOUS
 62
             7
100
AcDbLine
 10
-63.60000000000008
 20
99.59999999999991
 11
-63.60000000000008
 21
100.75358983848611
  0
LINE
  5
E2
100
AcDbEntity
  8
1
  6
CONTINUOUS
 62
             7
100
AcDbLine
 10
-62.19999999999999
 20
98.49999999999989
 11
-62.50000000000011
 21
98.49999999999989
  0
LINE
  5
E1
100
AcDbEntity
  8
1
  6
CONTINUOUS
 62
             2
100
AcDbLine
 10
-17.5
 20
98.49999999999989
 11
-17.5
 21
100.75358983848611
  0
LINE
  5
E0
100
AcDbEntity
  8
1
  6
CONTINUOUS
 62
             7
100
AcDbLine
 10
-17.5
 20
98.49999999999989
 11
-17.80000000000007
 21
98.49999999999989
  0
LINE
  5
DF
100
AcDbEntity
  8
1
  6
CONTINUOUS
 62
             7
100
AcDbLine
 10
-17.5
 20
98.49999999999989
 11
-16.40000000000009
 21
99.59999999999991
  0
LINE
  5
DE
100
AcDbEntity
  8
1
  6
CONTINUOUS
 62
             7
100
AcDbLine
 10
-62.50000000000011
 20
98.49999999999989
 11
-63.60000000000008
 21
99.59999999999991
  0
LINE
  5
DD
100
AcDbEntity
  8
1
  6
CONTINUOUS
 62
             2
100
AcDbLine
 10
-62.50000000000011
 20
100.75358983848611
 11
-62.50000000000011
 21
98.49999999999989
  0
LINE
  5
DC
100
AcDbEntity
  8
1
  6
CONTINUOUS
 62
             7
100
AcDbLine
 10
-16.40000000000009
 20
100.75358983848611
 11
-16.40000000000009
 21
99.59999999999991
  0
LINE
  5
DB
100
AcDbEntity
  8
1
  6
CONTINUOUS
 62
             7
100
AcDbLine
 10
-37.10000000000207
 20
94.25
 11
-37.10000000000207
 21
89.25
  0
LINE
  5
DA
100
AcDbEntity
  8
1
  6
CONTINUOUS
 62
             7
100
AcDbLine
 10
-44.90000000000128
 20
94.25
 11
-44.90000000000128
 21
92.35000000000218
  0
LINE
  5
D9
100
AcDbEntity
  8
1
  6
CONTINUOUS
 62
             7
100
AcDbLine
 10
-40.40000000000128
 20
94.25
 11
-40.40000000000128
 21
87.75
  0
LINE
  5
D8
100
AcDbEntity
  8
1
  6
CONTINUOUS
 62
             7
100
AcDbLine
 10
-41.90000000000128
 20
87.75
 11
-41.90000000000128
 21
89.65000000000151
  0
LINE
  5
D7
100
AcDbEntity
  8
1
  6
CONTINUOUS
 62
             7
100
AcDbLine
 10
-46.40000000000128
 20
87.75
 11
-46.40000000000128
 21
94.25
  0
LINE
  5
D6
100
AcDbEntity
  8
1
  6
CONTINUOUS
 62
             7
100
AcDbLine
 10
-33.85000000000207
 20
88.5
 11
-36.35000000000207
 21
88.5
  0
LINE
  5
D5
100
AcDbEntity
  8
1
  6
CONTINUOUS
 62
             7
100
AcDbLine
 10
-37.85000000000207
 20
87.0
 11
-33.85000000000207
 21
87.0
  0
LINE
  5
D4
100
AcDbEntity
  8
1
  6
CONTINUOUS
 62
             7
100
AcDbLine
 10
-38.60000000000207
 20
87.75
 11
-38.60000000000207
 21
89.0
  0
LINE
  5
D3
100
AcDbEntity
  8
1
  6
CONTINUOUS
 62
             7
100
AcDbLine
 10
-38.60000000000207
 20
89.0
 11
-38.60000000000207
 21
94.25
  0
LINE
  5
D2
100
AcDbEntity
  8
1
  6
CONTINUOUS
 62
             7
100
AcDbLine
 10
-44.90000000000128
 20
89.65000000000151
 11
-44.90000000000128
 21
87.75
  0
LINE
  5
D1
100
AcDbEntity
  8
1
  6
CONTINUOUS
 62
             7
100
AcDbLine
 10
-42.65000000000128
 20
90.40000000000151
 11
-44.15000000000128
 21
90.40000000000151
  0
LINE
  5
D0
100
AcDbEntity
  8
1
  6
CONTINUOUS
 62
             7
100
AcDbLine
 10
-41.90000000000128
 20
92.35000000000218
 11
-41.90000000000128
 21
94.25
  0
LINE
  5
CF
100
AcDbEntity
  8
1
  6
CONTINUOUS
 62
             7
100
AcDbLine
 10
-44.15000000000128
 20
91.60000000000218
 11
-42.65000000000128
 21
91.60000000000218
  0
LINE
  5
CE
100
AcDbEntity
  8
1
  6
PHANTOM
 62
             2
100
AcDbLine
 10
-40.0
 20
96.75358983848599
 11
-40.0
 21
39.92675518504751
  0
LINE
  5
CD
100
AcDbEntity
  8
1
  6
CONTINUOUS
 62
             7
100
AcDbLine
 10
22.14280978591989
 20
53.79121734463706
 11
63.82555252344412
 21
35.4339485857966
  0
LINE
  5
CC
100
AcDbEntity
  8
1
  6
CONTINUOUS
 62
             7
100
AcDbLine
 10
-62.2000000000001
 20
32.93654060538819
 11
-17.79999999999995
 21
50.06436792121588
  0
LINE
  5
CB
100
AcDbEntity
  8
1
  6
CONTINUOUS
 62
             7
100
AcDbLine
 10
-17.80000000000007
 20
98.49999999999989
 11
-17.79999999999995
 21
50.06436792121588
  0
LINE
  5
CA
100
AcDbEntity
  8
1
  6
CONTINUOUS
 62
             7
100
AcDbLine
 10
-62.19999999999999
 20
98.49999999999989
 11
-62.2000000000001
 21
32.93654060538819
  0
ENDBLK
  5
FE
100
AcDbEntity
  8
0
100
AcDbBlockEnd
  0
BLOCK
  5
30
100
AcDbEntity
  8
0
100
AcDbBlockBegin
  2
HOLL_NDERMUTTER_2_
 70
             0
 10
631.67306087483303
 20
35.62105623048302
 30
0.0
  3
HOLL_NDERMUTTER_2_
  1

  0
SPLINE
  5
16D
100
AcDbEntity
  8
0
  6
CONTINUOUS
 62
             7
100
AcDbSpline
210
0.0
220
0.0
230
1.0
 70
             0
 71
             3
 72
            11
 73
             7
 74
             5
 42
0.00000000001
 43
0.00000000001
 44
0.00000000001
 40
88.526044134201328
 40
88.526044134201328
 40
88.526044134201328
 40
88.526044134201328
 40
89.092990278730866
 40
89.092990278730866
 40
89.092990278730866
 40
89.659936432962255
 40
89.659936432962255
 40
89.659936432962255
 40
89.659936432962255
 10
82.725241116291727
 20
66.595486643296795
 30
0.0
 10
82.602581001541807
 20
66.741025910274914
 30
0.0
 10
82.480792134448393
 20
66.885523406378468
 30
0.0
 10
82.359863486821837
 20
67.028992258738413
 30
0.0
 10
82.236869715934972
 20
67.174911158047394
 30
0.0
 10
82.115076060150614
 20
67.319397885414162
 30
0.0
 10
81.994461595714824
 20
67.462477436918903
 30
0.0
 11
82.725241116291727
 21
66.595486643296795
 31
0.0
 11
82.541903001385521
 21
66.813015856499419
 31
0.0
 11
82.359863486821837
 21
67.028992258738413
 31
0.0
 11
82.176270301349149
 21
67.246799603255241
 31
0.0
 11
81.994461595714824
 21
67.462477436918903
 31
0.0
  0
SPLINE
  5
16C
100
AcDbEntity
  8
0
  6
CONTINUOUS
 62
             7
100
AcDbSpline
210
0.0
220
0.0
230
1.0
 70
             0
 71
             3
 72
            11
 73
             7
 74
             5
 42
0.00000000001
 43
0.00000000001
 44
0.00000000001
 40
88.526044134201342
 40
88.526044134201342
 40
88.526044134201342
 40
88.526044134201342
 40
89.030755450455644
 40
89.030755450455644
 40
89.030755450455644
 40
89.535459413813967
 40
89.535459413813967
 40
89.535459413813967
 40
89.535459413813967
 10
24.223685484353499
 20
71.713709559722474
 30
0.0
 10
24.338508226060529
 20
71.83869384993767
 30
0.0
 10
24.452324632339469
 20
71.96257615583437
 30
0.0
 10
24.565151082726739
 20
72.085374405837797
 30
0.0
 10
24.67843860851406
 20
72.208674481894093
 30
0.0
 10
24.792285395560501
 20
72.332576587696167
 30
0.0
 10
24.90663180737192
 20
72.45701536870007
 30
0.0
 11
24.223685484353499
 21
71.713709559722474
 31
0.0
 11
24.395166892785024
 21
71.900361747859534
 31
0.0
 11
24.565151082726739
 21
72.085374405837797
 31
0.0
 11
24.735494362790291
 21
72.270767872913581
 31
0.0
 11
24.90663180737192
 21
72.45701536870007
 31
0.0
  0
SPLINE
  5
16B
100
AcDbEntity
  8
0
  6
CONTINUOUS
 62
             7
100
AcDbSpline
210
0.0
220
0.0
230
1.0
 70
             0
 71
             3
 72
            11
 73
             7
 74
             5
 42
0.00000000001
 43
0.00000000001
 44
0.00000000001
 40
88.526044134201342
 40
88.526044134201342
 40
88.526044134201342
 40
88.526044134201342
 40
89.076085497806929
 40
89.076085497806929
 40
89.076085497806929
 40
89.62612495841114
 40
89.62612495841114
 40
89.62612495841114
 40
89.62612495841114
 10
79.770957377065884
 20
66.853952979317967
 30
0.0
 10
79.656316614667276
 20
66.998889292829801
 30
0.0
 10
79.542574265237363
 20
67.142681699074103
 30
0.0
 10
79.429717227687547
 20
67.285346838885573
 30
0.0
 10
79.315738386594489
 20
67.429430075989274
 30
0.0
 10
79.201978812721222
 20
67.573227846476584
 30
0.0
 10
79.088454161701065
 20
67.71672014351708
 30
0.0
 11
79.770957377065884
 21
66.853952979317967
 31
0.0
 11
79.599668405558418
 21
67.070501599239392
 31
0.0
 11
79.429717227687547
 21
67.285346838885573
 31
0.0
 11
79.258915373416968
 21
67.501255093725035
 31
0.0
 11
79.088454161701065
 21
67.71672014351708
 31
0.0
  0
SPLINE
  5
16A
100
AcDbEntity
  8
0
  6
CONTINUOUS
 62
             7
100
AcDbSpline
210
0.0
220
0.0
230
1.0
 70
             0
 71
             3
 72
            11
 73
             7
 74
             5
 42
0.00000000001
 43
0.00000000001
 44
0.00000000001
 40
22.415023762374808
 40
22.415023762374808
 40
22.415023762374808
 40
22.415023762374808
 40
22.96506322297904
 40
22.96506322297904
 40
22.96506322297904
 40
23.515104586584631
 40
23.515104586584631
 40
23.515104586584631
 40
23.515104586584631
 10
22.425478463114469
 20
72.674088158788379
 30
0.0
 10
22.288761106539479
 20
72.5524889815253
 30
0.0
 10
22.151759571238468
 20
72.430629961243369
 30
0.0
 10
22.014492761671018
 20
72.308528093458278
 30
0.0
 10
21.8781407635704
 20
72.187239970737494
 30
0.0
 10
21.741151662085262
 20
72.065378341706264
 30
0.0
 10
21.603526059353609
 20
71.942943806040716
 30
0.0
 11
22.425478463114469
 21
72.674088158788379
 31
0.0
 11
22.220191657264916
 21
72.491496635069083
 31
0.0
 11
22.014492761671018
 21
72.308528093458278
 31
0.0
 11
21.809487012248955
 21
72.126165854603784
 31
0.0
 11
21.603526059353609
 21
71.942943806040716
 31
0.0
  0
SPLINE
  5
169
100
AcDbEntity
  8
0
  6
CONTINUOUS
 62
             7
100
AcDbSpline
210
0.0
220
0.0
230
1.0
 70
             0
 71
             3
 72
            11
 73
             7
 74
             5
 42
0.00000000001
 43
0.00000000001
 44
0.00000000001
 40
22.415023762374808
 40
22.415023762374808
 40
22.415023762374808
 40
22.415023762374808
 40
22.96506322297904
 40
22.96506322297904
 40
22.96506322297904
 40
23.515104586584631
 40
23.515104586584631
 40
23.515104586584631
 40
23.515104586584631
 10
81.132766082230887
 20
67.537866025759797
 30
0.0
 10
81.245349687578027
 20
67.395563186726804
 30
0.0
 10
81.35909675130506
 20
67.251781369761488
 30
0.0
 10
81.474029148217255
 20
67.106492721128291
 30
0.0
 10
81.586913800855882
 20
66.963792672456862
 30
0.0
 10
81.700656454701516
 20
66.819999877417501
 30
0.0
 10
81.815269297595592
 20
66.675098861560798
 30
0.0
 11
81.132766082230887
 21
67.537866025759797
 31
0.0
 11
81.302516818387176
 21
67.323299052044121
 31
0.0
 11
81.474029148217255
 21
67.106492721128291
 31
0.0
 11
81.64400115156063
 21
66.891621154039029
 31
0.0
 11
81.815269297595592
 21
66.675098861560798
 31
0.0
  0
SPLINE
  5
168
100
AcDbEntity
  8
0
  6
CONTINUOUS
 62
             7
100
AcDbSpline
210
0.0
220
0.0
230
1.0
 70
             0
 71
             3
 72
            11
 73
             7
 74
             5
 42
0.00000000001
 43
0.00000000001
 44
0.00000000001
 40
88.526044134201342
 40
88.526044134201342
 40
88.526044134201342
 40
88.526044134201342
 40
89.030755450455644
 40
89.030755450455644
 40
89.030755450455644
 40
89.535459413813967
 40
89.535459413813967
 40
89.535459413813967
 40
89.535459413813967
 10
73.308748299453214
 20
67.419323014943416
 30
0.0
 10
73.217705557868953
 20
67.561827157054267
 30
0.0
 10
73.127126337544837
 20
67.703597553520297
 30
0.0
 10
73.037009254018926
 20
67.844636315813261
 30
0.0
 10
72.946357735756806
 20
67.986511501243797
 30
0.0
 10
72.855765362402167
 20
68.128285659973074
 30
0.0
 10
72.765251164834126
 20
68.269928722916063
 30
0.0
 11
73.308748299453214
 21
67.419323014943416
 31
0.0
 11
73.172531654964203
 21
67.632529182810046
 31
0.0
 11
73.037009254018926
 21
67.844636315813261
 31
0.0
 11
72.901078714166232
 21
68.057369565297478
 31
0.0
 11
72.765251164834126
 21
68.269928722916063
 31
0.0
  0
SPLINE
  5
167
100
AcDbEntity
  8
0
  6
CONTINUOUS
 62
             7
100
AcDbSpline
210
0.0
220
0.0
230
1.0
 70
             0
 71
             3
 72
            11
 73
             7
 74
             5
 42
0.00000000001
 43
0.00000000001
 44
0.00000000001
 40
22.415023762374808
 40
22.415023762374808
 40
22.415023762374808
 40
22.415023762374808
 40
22.8626287705533
 40
22.8626287705533
 40
22.8626287705533
 40
23.310248838258889
 40
23.310248838258889
 40
23.310248838258889
 40
23.310248838258889
 10
68.963903701049844
 20
68.602503532120295
 30
0.0
 10
69.018263382257373
 20
68.465692475823175
 30
0.0
 10
69.073348390238834
 20
68.327046766632577
 30
0.0
 10
69.129173987739023
 20
68.186527600539705
 30
0.0
 10
69.184018920423796
 20
68.048476875596975
 30
0.0
 10
69.239104929601126
 20
67.909810347079883
 30
0.0
 10
69.294431164239086
 20
67.770530256072504
 30
0.0
 11
68.963903701049844
 21
68.602503532120295
 31
0.0
 11
69.045989125784686
 21
68.395906107503407
 31
0.0
 11
69.129173987739023
 21
68.186527600539705
 31
0.0
 11
69.211622087756609
 21
67.978989940580348
 31
0.0
 11
69.294431164239086
 21
67.770530256072504
 31
0.0
  0
SPLINE
  5
166
100
AcDbEntity
  8
0
  6
CONTINUOUS
 62
             7
100
AcDbSpline
210
0.0
220
0.0
230
1.0
 70
             0
 71
             3
 72
            11
 73
             7
 74
             5
 42
0.00000000001
 43
0.00000000001
 44
0.00000000001
 40
88.526044134201328
 40
88.526044134201328
 40
88.526044134201328
 40
88.526044134201328
 40
88.932093843452179
 40
88.932093843452179
 40
88.932093843452179
 40
89.338122080932308
 40
89.338122080932308
 40
89.338122080932308
 40
89.338122080932308
 10
53.307401143209631
 20
69.169214146361185
 30
0.0
 10
53.295856148804887
 20
69.304074270073272
 30
0.0
 10
53.284310217410173
 20
69.438930869083777
 30
0.0
 10
53.272763315735013
 20
69.573783778551501
 30
0.0
 10
53.261216413455713
 20
69.708636695077701
 30
0.0
 10
53.249668539624281
 20
69.843485937035496
 30
0.0
 10
53.23811965666232
 20
69.978331361061009
 30
0.0
 11
53.307401143209631
 21
69.169214146361185
 31
0.0
 11
53.290082944698725
 21
69.371501667797986
 31
0.0
 11
53.272763315735013
 21
69.573783778551501
 31
0.0
 11
53.255442228954671
 21
69.776060379494027
 31
0.0
 11
53.23811965666232
 21
69.978331361061009
 31
0.0
  0
SPLINE
  5
165
100
AcDbEntity
  8
0
  6
CONTINUOUS
 62
             7
100
AcDbSpline
210
0.0
220
0.0
230
1.0
 70
             0
 71
             3
 72
            11
 73
             7
 74
             5
 42
0.00000000001
 43
0.00000000001
 44
0.00000000001
 40
22.415023762374819
 40
22.415023762374819
 40
22.415023762374819
 40
22.415023762374819
 40
22.821051999854941
 40
22.821051999854941
 40
22.821051999854941
 40
23.227101709105789
 40
23.227101709105789
 40
23.227101709105789
 40
23.227101709105789
 10
48.275812968153453
 20
70.412476941244392
 30
0.0
 10
48.241023875337078
 20
70.281685560219501
 30
0.0
 10
48.206235116907457
 20
70.150890257432081
 30
0.0
 10
48.17144667362345
 20
70.020091153792407
 30
0.0
 10
48.136658232067482
 20
69.889292056648969
 30
0.0
 10
48.101870109211752
 20
69.758489171978795
 30
0.0
 10
48.067082293209857
 20
69.627682638997385
 30
0.0
 11
48.275812968153453
 21
70.412476941244392
 31
0.0
 11
48.223629577313815
 21
70.216286943498943
 31
0.0
 11
48.17144667362345
 21
70.020091153792407
 31
0.0
 11
48.119264248833872
 21
69.823889684834128
 31
0.0
 11
48.067082293209857
 21
69.627682638997385
 31
0.0
  0
SPLINE
  5
164
100
AcDbEntity
  8
0
  6
CONTINUOUS
 62
             7
100
AcDbSpline
210
0.0
220
0.0
230
1.0
 70
             0
 71
             3
 72
            11
 73
             7
 74
             5
 42
0.00000000001
 43
0.00000000001
 44
0.00000000001
 40
88.526044134201342
 40
88.526044134201342
 40
88.526044134201342
 40
88.526044134201342
 40
88.973664201906928
 40
88.973664201906928
 40
88.973664201906928
 40
89.421269210085399
 40
89.421269210085399
 40
89.421269210085399
 40
89.421269210085399
 10
32.080052272180303
 20
71.026366529286065
 30
0.0
 10
32.159156750262348
 20
71.154625466992172
 30
0.0
 10
32.237480083312562
 20
71.281611601854877
 30
0.0
 10
32.315036001619433
 20
71.407347331804203
 30
0.0
 10
32.394412373747173
 20
71.536034430198413
 30
0.0
 10
32.472736102515228
 20
71.663008406590393
 30
0.0
 10
32.550028923765808
 20
71.788304770185164
 30
0.0
 11
32.080052272180303
 21
71.026366529286065
 31
0.0
 11
32.198124846815553
 21
71.217803133453927
 31
0.0
 11
32.315036001619433
 21
71.407347331804203
 31
0.0
 11
32.433313794271548
 21
71.599097576544466
 31
0.0
 11
32.550028923765808
 21
71.788304770185164
 31
0.0
  0
SPLINE
  5
163
100
AcDbEntity
  8
0
  6
CONTINUOUS
 62
             7
100
AcDbSpline
210
0.0
220
0.0
230
1.0
 70
             0
 71
             3
 72
            11
 73
             7
 74
             5
 42
0.00000000001
 43
0.00000000001
 44
0.00000000001
 40
22.415023762374819
 40
22.415023762374819
 40
22.415023762374819
 40
22.415023762374819
 40
22.91972772573315
 40
22.91972772573315
 40
22.91972772573315
 40
23.424439041987451
 40
23.424439041987451
 40
23.424439041987451
 40
23.424439041987451
 10
28.748681459984599
 20
72.120879579392692
 30
0.0
 10
28.63494747129516
 20
71.997107274805103
 30
0.0
 10
28.52111259670983
 20
71.873218208043795
 30
0.0
 10
28.407200735339639
 20
71.749238616530477
 30
0.0
 10
28.29427341947132
 20
71.626330586377776
 30
0.0
 10
28.180455960120749
 20
71.502447122520209
 30
0.0
 10
28.065735136966278
 20
71.377573770415211
 30
0.0
 11
28.748681459984599
 21
72.120879579392692
 31
0.0
 11
28.578007799917401
 21
71.935136830558733
 31
0.0
 11
28.407200735339639
 21
71.749238616530477
 31
0.0
 11
28.237140501385266
 21
71.564143189204955
 31
0.0
 11
28.065735136966278
 21
71.377573770415211
 31
0.0
  0
SPLINE
  5
162
100
AcDbEntity
  8
0
  6
CONTINUOUS
 62
             7
100
AcDbSpline
210
0.0
220
0.0
230
1.0
 70
             0
 71
             3
 72
            11
 73
             7
 74
             5
 42
0.00000000001
 43
0.00000000001
 44
0.00000000001
 40
88.526044134201342
 40
88.526044134201342
 40
88.526044134201342
 40
88.526044134201342
 40
89.076085497806929
 40
89.076085497806929
 40
89.076085497806929
 40
89.626124958411154
 40
89.626124958411154
 40
89.626124958411154
 40
89.626124958411154
 10
19.559214138823901
 20
72.121797923797885
 30
0.0
 10
19.69728177190461
 20
72.244625698653465
 30
0.0
 10
19.834265402630312
 20
72.366482417920167
 30
0.0
 10
19.97018084114131
 20
72.487382211215561
 30
0.0
 10
20.108595898015661
 20
72.610505470415603
 30
0.0
 10
20.2455823418411
 20
72.732350950957311
 30
0.0
 10
20.381166542584879
 20
72.852942276545605
 30
0.0
 11
19.559214138823901
 21
72.121797923797885
 31
0.0
 11
19.765504562946241
 21
72.3053130605918
 31
0.0
 11
19.97018084114131
 21
72.487382211215561
 31
0.0
 11
20.176735262912057
 21
72.671111718984974
 31
0.0
 11
20.381166542584879
 21
72.852942276545605
 31
0.0
  0
SPLINE
  5
161
100
AcDbEntity
  8
0
  6
CONTINUOUS
 62
             7
100
AcDbSpline
210
0.0
220
0.0
230
1.0
 70
             0
 71
             3
 72
            11
 73
             7
 74
             5
 42
0.00000000001
 43
0.00000000001
 44
0.00000000001
 40
22.415023762374819
 40
22.415023762374819
 40
22.415023762374819
 40
22.415023762374819
 40
22.862628770553311
 40
22.862628770553311
 40
22.862628770553311
 40
23.310248838258889
 40
23.310248838258889
 40
23.310248838258889
 40
23.310248838258889
 10
37.726408417744892
 20
71.335430246357475
 30
0.0
 10
37.648024025887821
 20
71.208364380428861
 30
0.0
 10
37.569684951768068
 20
71.081365344601011
 30
0.0
 10
37.491415495596357
 20
70.954472807973161
 30
0.0
 10
37.413534031460472
 20
70.828209294415103
 30
0.0
 10
37.335207123699213
 20
70.701217311540404
 30
0.0
 10
37.25643176615722
 20
70.57349200545508
 30
0.0
 11
37.726408417744892
 21
71.335430246357475
 31
0.0
 11
37.608868855788614
 21
71.144886528677532
 31
0.0
 11
37.491415495596357
 21
70.954472807973161
 31
0.0
 11
37.374258840904076
 21
70.764530578911845
 31
0.0
 11
37.25643176615722
 21
70.57349200545508
 31
0.0
  0
SPLINE
  5
160
100
AcDbEntity
  8
0
  6
CONTINUOUS
 62
             7
100
AcDbSpline
210
0.0
220
0.0
230
1.0
 70
             0
 71
             3
 72
            11
 73
             7
 74
             5
 42
0.00000000001
 43
0.00000000001
 44
0.00000000001
 40
88.526044134201328
 40
88.526044134201328
 40
88.526044134201328
 40
88.526044134201328
 40
88.932093843452179
 40
88.932093843452179
 40
88.932093843452179
 40
89.338122080932308
 40
89.338122080932308
 40
89.338122080932308
 40
89.338122080932308
 10
42.18072072006737
 20
70.142672546062101
 30
0.0
 10
42.215508534788107
 20
70.273479074226088
 30
0.0
 10
42.250296660205997
 20
70.404281968530711
 30
0.0
 10
42.285085100480963
 20
70.535081060856896
 30
0.0
 10
42.319873542576943
 20
70.665880160029474
 30
0.0
 10
42.354662303382838
 20
70.796675471750973
 30
0.0
 10
42.389451395011967
 20
70.927466848312463
 30
0.0
 11
42.18072072006737
 21
70.142672546062101
 31
0.0
 11
42.232902675691328
 21
70.338879591898674
 31
0.0
 11
42.285085100480963
 21
70.535081060856896
 31
0.0
 11
42.337268004171534
 21
70.731276850563845
 31
0.0
 11
42.389451395011967
 21
70.927466848312463
 31
0.0
  0
SPLINE
  5
15F
100
AcDbEntity
  8
0
  6
CONTINUOUS
 62
             7
100
AcDbSpline
210
0.0
220
0.0
230
1.0
 70
             0
 71
             3
 72
            11
 73
             7
 74
             5
 42
0.00000000001
 43
0.00000000001
 44
0.00000000001
 40
22.415023762374819
 40
22.415023762374819
 40
22.415023762374819
 40
22.415023762374819
 40
22.821051999854941
 40
22.821051999854941
 40
22.821051999854941
 40
23.227101709105799
 40
23.227101709105799
 40
23.227101709105799
 40
23.227101709105799
 10
59.12448122980436
 20
69.463341454000101
 30
0.0
 10
59.136030112766662
 20
69.328496029970381
 30
0.0
 10
59.147577986598087
 20
69.193646788013496
 30
0.0
 10
59.1591248888775
 20
69.058793871486898
 30
0.0
 10
59.170671791402917
 20
68.923940952086696
 30
0.0
 10
59.182217721096997
 20
68.789084372941716
 30
0.0
 10
59.193762716352133
 20
68.654224239296695
 30
0.0
 11
59.12448122980436
 21
69.463341454000101
 31
0.0
 11
59.141803802097016
 21
69.261070472429822
 31
0.0
 11
59.1591248888775
 21
69.058793871486898
 31
0.0
 11
59.176444517841155
 21
68.856511760733596
 31
0.0
 11
59.193762716352133
 21
68.654224239296695
 31
0.0
  0
SPLINE
  5
15E
100
AcDbEntity
  8
0
  6
CONTINUOUS
 62
             7
100
AcDbSpline
210
0.0
220
0.0
230
1.0
 70
             0
 71
             3
 72
            11
 73
             7
 74
             5
 42
0.00000000001
 43
0.00000000001
 44
0.00000000001
 40
88.526044134201342
 40
88.526044134201342
 40
88.526044134201342
 40
88.526044134201342
 40
88.973664201906928
 40
88.973664201906928
 40
88.973664201906928
 40
89.421269210085399
 40
89.421269210085399
 40
89.421269210085399
 40
89.421269210085399
 10
64.118051670262275
 20
68.223404779903603
 30
0.0
 10
64.062646736687839
 20
68.362882990213393
 30
0.0
 10
64.007561789101601
 20
68.501546821161071
 30
0.0
 10
63.952794493762212
 20
68.63940212437069
 30
0.0
 10
63.896578163044069
 20
68.780904808928199
 30
0.0
 10
63.841492954649773
 20
68.919550891424478
 30
0.0
 10
63.787524207071442
 20
69.055378055954975
 30
0.0
 11
64.118051670262275
 21
68.223404779903603
 31
0.0
 11
64.035183967674101
 21
68.432012042299704
 31
0.0
 11
63.952794493762212
 21
68.63940212437069
 31
0.0
 11
63.869316506739381
 21
68.849518410172948
 31
0.0
 11
63.787524207071442
 21
69.055378055954975
 31
0.0
  0
SPLINE
  5
15D
100
AcDbEntity
  8
0
  6
CONTINUOUS
 62
             7
100
AcDbSpline
210
0.0
220
0.0
230
1.0
 70
             0
 71
             3
 72
            11
 73
             7
 74
             5
 42
0.00000000001
 43
0.00000000001
 44
0.00000000001
 40
22.415023762374819
 40
22.415023762374819
 40
22.415023762374819
 40
22.415023762374819
 40
22.91972772573315
 40
22.91972772573315
 40
22.91972772573315
 40
23.424439041987451
 40
23.424439041987451
 40
23.424439041987451
 40
23.424439041987451
 10
76.607300817444525
 20
67.933792933612608
 30
0.0
 10
76.696822160356874
 20
67.793703560347808
 30
0.0
 10
76.787401114444719
 20
67.651950592340199
 30
0.0
 10
76.879058906631826
 20
67.508500526505998
 30
0.0
 10
76.969188436652303
 20
67.367442284685467
 30
0.0
 10
77.059767827675955
 20
67.225671618754006
 30
0.0
 10
77.150797952065886
 20
67.083187225636095
 30
0.0
 11
76.607300817444525
 21
67.933792933612608
 31
0.0
 11
76.742378693560141
 21
67.722406989772821
 31
0.0
 11
76.879058906631826
 21
67.508500526505998
 31
0.0
 11
77.014590706460311
 21
67.296378682807557
 31
0.0
 11
77.150797952065886
 21
67.083187225636095
 31
0.0
  0
SPLINE
  5
15C
100
AcDbEntity
  8
0
  6
CONTINUOUS
 62
             7
100
AcDbSpline
210
0.0
220
0.0
230
1.0
 70
             0
 71
             3
 72
            11
 73
             7
 74
             5
 42
0.00000000001
 43
0.00000000001
 44
0.00000000001
 40
22.415023762374819
 40
22.415023762374819
 40
22.415023762374819
 40
22.415023762374819
 40
22.9819699166062
 40
22.9819699166062
 40
22.9819699166062
 40
23.548916061135749
 40
23.548916061135749
 40
23.548916061135749
 40
23.548916061135749
 10
19.51947102910469
 20
72.92833086538991
 30
0.0
 10
19.3750949922246
 20
72.807744351492488
 30
0.0
 10
19.230052945529
 20
72.686594480736971
 30
0.0
 10
19.084346502536619
 20
72.564882673605496
 30
0.0
 10
18.940394817560101
 20
72.444636654566466
 30
0.0
 10
18.795365076904321
 20
72.323483326774067
 30
0.0
 10
18.649242320127879
 20
72.201410142061775
 30
0.0
 11
19.51947102910469
 21
72.92833086538991
 31
0.0
 11
19.302407668112764
 21
72.747028754460473
 31
0.0
 11
19.084346502536619
 21
72.564882673605496
 31
0.0
 11
18.867608563257221
 21
72.383831594961123
 31
0.0
 11
18.649242320127879
 21
72.201410142061775
 31
0.0
  0
ARC
  5
15B
100
AcDbEntity
  8
0
  6
CONTINUOUS
 62
             7
100
AcDbCircle
 10
79.90807978531143
 20
70.6564717057459
 40
2.49999999999994
100
AcDbArc
 50
-4.99999999999991
 51
85.00000000000021
  0
ARC
  5
15A
100
AcDbEntity
  8
0
  6
CONTINUOUS
 62
             7
100
AcDbCircle
 10
22.12878729599004
 20
75.71150478511009
 40
2.49999999999995
100
AcDbArc
 50
84.9999999999975
 51
175.00000000000117
  0
LINE
  5
159
100
AcDbEntity
  8
0
  6
CONTINUOUS
 62
             7
100
AcDbLine
 10
28.7486814599846
 20
72.12087957939269
 11
24.90663180737192
 21
72.45701536870007
  0
LINE
  5
158
100
AcDbEntity
  8
0
  6
CONTINUOUS
 62
             7
100
AcDbLine
 10
82.86433046657317
 20
66.58331790193
 11
81.93176401917322
 21
55.92403463234831
  0
LINE
  5
157
100
AcDbEntity
  8
0
  6
CONTINUOUS
 62
             7
100
AcDbLine
 10
82.72524111629173
 20
66.5954866432968
 11
81.79267466889178
 21
55.9362033737151
  0
LINE
  5
156
100
AcDbEntity
  8
0
  6
CONTINUOUS
 62
             7
100
AcDbLine
 10
82.86433046657317
 20
66.58331790193
 11
82.72524111629173
 21
66.5954866432968
  0
LINE
  5
155
100
AcDbEntity
  8
0
  6
CONTINUOUS
 62
             7
100
AcDbLine
 10
82.13709930229788
 20
67.4499982546015
 11
82.86433046657317
 21
66.58331790193
  0
LINE
  5
154
100
AcDbEntity
  8
0
  6
CONTINUOUS
 62
             7
100
AcDbLine
 10
80.12596914218057
 20
73.14695845097526
 11
22.34667665285929
 21
78.2019915303394
  0
LINE
  5
153
100
AcDbEntity
  8
0
  6
CONTINUOUS
 62
             7
100
AcDbLine
 10
81.79267466889178
 20
55.9362033737151
 11
81.93176401917322
 21
55.92403463234831
  0
LINE
  5
152
100
AcDbEntity
  8
0
  6
CONTINUOUS
 62
             7
100
AcDbLine
 10
80.99217055411668
 20
56.00623840886379
 11
81.79267466889178
 21
55.9362033737151
  0
LINE
  5
151
100
AcDbEntity
  8
0
  6
CONTINUOUS
 62
             7
100
AcDbLine
 10
15.62258830744747
 20
58.71387628224289
 11
83.36382777768608
 21
52.7872857754021
  0
LINE
  5
150
100
AcDbEntity
  8
0
  6
CONTINUOUS
 62
             7
100
AcDbLine
 10
15.88405553569044
 20
61.70246037651799
 11
15.62258830744747
 21
58.71387628224289
  0
LINE
  5
14F
100
AcDbEntity
  8
0
  6
CONTINUOUS
 62
             7
100
AcDbLine
 10
21.60352605935361
 20
71.94294380604072
 11
20.67095961195366
 21
61.28366053645897
  0
LINE
  5
14E
100
AcDbEntity
  8
0
  6
CONTINUOUS
 62
             7
100
AcDbLine
 10
28.7486814599846
 20
72.12087957939269
 11
27.7463904183835
 21
60.66464055133417
  0
LINE
  5
14D
100
AcDbEntity
  8
0
  6
CONTINUOUS
 62
             7
100
AcDbLine
 10
22.42547846311447
 20
72.67408815878838
 11
21.42318742151633
 21
61.21784913073327
  0
LINE
  5
14C
100
AcDbEntity
  8
0
  6
CONTINUOUS
 62
             7
100
AcDbLine
 10
19.51947102910469
 20
72.92833086538991
 11
18.5171799875028
 21
61.4720918373315
  0
LINE
  5
14B
100
AcDbEntity
  8
0
  6
CONTINUOUS
 62
             7
100
AcDbLine
 10
37.72640841774489
 20
71.33543024635748
 11
36.72411737614482
 21
59.87919121829901
  0
LINE
  5
14A
100
AcDbEntity
  8
0
  6
CONTINUOUS
 62
             7
100
AcDbLine
 10
81.99446159571482
 20
67.4624774369189
 11
80.99217055411668
 21
56.00623840886379
  0
LINE
  5
149
100
AcDbEntity
  8
0
  6
CONTINUOUS
 62
             7
100
AcDbLine
 10
48.27581296815345
 20
70.41247694124439
 11
47.27352192655542
 21
58.9562379131894
  0
LINE
  5
148
100
AcDbEntity
  8
0
  6
CONTINUOUS
 62
             7
100
AcDbLine
 10
53.23811965666232
 20
69.97833136106101
 11
52.23582861506418
 21
58.5220923330059
  0
LINE
  5
147
100
AcDbEntity
  8
0
  6
CONTINUOUS
 62
             7
100
AcDbLine
 10
79.08845416170107
 20
67.71672014351708
 11
78.08616312010315
 21
56.26048111546197
  0
LINE
  5
146
100
AcDbEntity
  8
0
  6
CONTINUOUS
 62
             7
100
AcDbLine
 10
63.78752420707144
 20
69.05537805595498
 11
62.78523316547489
 21
57.59913902789617
  0
LINE
  5
145
100
AcDbEntity
  8
0
  6
CONTINUOUS
 62
             7
100
AcDbLine
 10
72.76525116483413
 20
68.26992872291606
 11
71.76296012323599
 21
56.81368969486101
  0
LINE
  5
144
100
AcDbEntity
  8
0
  6
CONTINUOUS
 62
             7
100
AcDbLine
 10
24.2236854843535
 20
71.71370955972247
 11
23.29111903695355
 21
61.0544262901409
  0
LINE
  5
143
100
AcDbEntity
  8
0
  6
CONTINUOUS
 62
             7
100
AcDbLine
 10
19.5592141388239
 20
72.12179792379789
 11
18.62664769142395
 21
61.46251465421631
  0
LINE
  5
142
100
AcDbEntity
  8
0
  6
CONTINUOUS
 62
             7
100
AcDbLine
 10
28.06573513696628
 20
71.37757377041521
 11
27.13316868956633
 21
60.71829050083346
  0
LINE
  5
141
100
AcDbEntity
  8
0
  6
CONTINUOUS
 62
             7
100
AcDbLine
 10
21.60352605935361
 20
71.94294380604072
 11
19.5592141388239
 21
72.12179792379789
  0
LINE
  5
140
100
AcDbEntity
  8
0
  6
CONTINUOUS
 62
             7
100
AcDbLine
 10
28.06573513696628
 20
71.37757377041521
 11
24.2236854843535
 21
71.71370955972247
  0
LINE
  5
13F
100
AcDbEntity
  8
0
  6
CONTINUOUS
 62
             7
100
AcDbLine
 10
37.25643176615722
 20
70.57349200545508
 11
32.0800522721803
 21
71.02636652928607
  0
LINE
  5
13E
100
AcDbEntity
  8
0
  6
CONTINUOUS
 62
             7
100
AcDbLine
 10
48.06708229320986
 20
69.62768263899739
 11
42.18072072006737
 21
70.1426725460621
  0
LINE
  5
13D
100
AcDbEntity
  8
0
  6
CONTINUOUS
 62
             7
100
AcDbLine
 10
59.19376271635213
 20
68.6542242392967
 11
53.30740114320963
 21
69.16921414636119
  0
LINE
  5
13C
100
AcDbEntity
  8
0
  6
CONTINUOUS
 62
             7
100
AcDbLine
 10
69.29443116423909
 20
67.7705302560725
 11
64.11805167026228
 21
68.2234047799036
  0
LINE
  5
13B
100
AcDbEntity
  8
0
  6
CONTINUOUS
 62
             7
100
AcDbLine
 10
77.15079795206589
 20
67.0831872256361
 11
73.30874829945321
 21
67.41932301494342
  0
LINE
  5
13A
100
AcDbEntity
  8
0
  6
CONTINUOUS
 62
             7
100
AcDbLine
 10
81.81526929759559
 20
66.6750988615608
 11
79.77095737706588
 21
66.85395297931797
  0
LINE
  5
139
100
AcDbEntity
  8
0
  6
CONTINUOUS
 62
             7
100
AcDbLine
 10
76.60730081744453
 20
67.93379293361261
 11
72.76525116483413
 21
68.26992872291606
  0
LINE
  5
138
100
AcDbEntity
  8
0
  6
CONTINUOUS
 62
             7
100
AcDbLine
 10
68.96390370104984
 20
68.6025035321203
 11
63.78752420707144
 21
69.05537805595498
  0
LINE
  5
137
100
AcDbEntity
  8
0
  6
CONTINUOUS
 62
             7
100
AcDbLine
 10
81.13276608223089
 20
67.5378660257598
 11
79.08845416170107
 21
67.71672014351708
  0
LINE
  5
136
100
AcDbEntity
  8
0
  6
CONTINUOUS
 62
             7
100
AcDbLine
 10
59.12448122980436
 20
69.4633414540001
 11
53.23811965666232
 21
69.97833136106101
  0
LINE
  5
135
100
AcDbEntity
  8
0
  6
CONTINUOUS
 62
             7
100
AcDbLine
 10
82.13709930229788
 20
67.4499982546015
 11
81.99446159571482
 21
67.4624774369189
  0
LINE
  5
134
100
AcDbEntity
  8
0
  6
CONTINUOUS
 62
             7
100
AcDbLine
 10
82.39856653054073
 20
70.43858234887676
 11
82.13709930229788
 21
67.4499982546015
  0
LINE
  5
133
100
AcDbEntity
  8
0
  6
CONTINUOUS
 62
             7
100
AcDbLine
 10
82.39856653054073
 20
70.43858234887676
 11
19.63830055076085
 21
75.92939414197917
  0
LINE
  5
132
100
AcDbEntity
  8
0
  6
CONTINUOUS
 62
             7
100
AcDbLine
 10
19.63830055076085
 20
75.92939414197917
 11
19.37683332251777
 21
72.94081004770396
  0
LINE
  5
131
100
AcDbEntity
  8
0
  6
CONTINUOUS
 62
             7
100
AcDbLine
 10
19.51947102910469
 20
72.92833086538991
 11
19.37683332251777
 21
72.94081004770396
  0
LINE
  5
130
100
AcDbEntity
  8
0
  6
CONTINUOUS
 62
             7
100
AcDbLine
 10
48.27581296815345
 20
70.41247694124439
 11
42.38945139501197
 21
70.92746684831246
  0
LINE
  5
12F
100
AcDbEntity
  8
0
  6
CONTINUOUS
 62
             7
100
AcDbLine
 10
22.42547846311447
 20
72.67408815878838
 11
20.38116654258488
 21
72.85294227654561
  0
LINE
  5
12E
100
AcDbEntity
  8
0
  6
CONTINUOUS
 62
             7
100
AcDbLine
 10
37.72640841774489
 20
71.33543024635748
 11
32.55002892376581
 21
71.78830477018516
  0
LINE
  5
12D
100
AcDbEntity
  8
0
  6
CONTINUOUS
 62
             7
100
AcDbLine
 10
37.25643176615722
 20
70.57349200545508
 11
36.32386531875727
 21
59.91420873587339
  0
LINE
  5
12C
100
AcDbEntity
  8
0
  6
CONTINUOUS
 62
             7
100
AcDbLine
 10
32.0800522721803
 20
71.02636652928607
 11
31.14748582478035
 21
60.36708325970449
  0
LINE
  5
12B
100
AcDbEntity
  8
0
  6
CONTINUOUS
 62
             7
100
AcDbLine
 10
48.06708229320986
 20
69.62768263899739
 11
47.13451584580991
 21
58.96839936941581
  0
LINE
  5
12A
100
AcDbEntity
  8
0
  6
CONTINUOUS
 62
             7
100
AcDbLine
 10
42.18072072006737
 20
70.1426725460621
 11
41.24815427266731
 21
59.48338927648041
  0
LINE
  5
129
100
AcDbEntity
  8
0
  6
CONTINUOUS
 62
             7
100
AcDbLine
 10
59.19376271635213
 20
68.6542242392967
 11
58.26119626895218
 21
57.994940969715
  0
LINE
  5
128
100
AcDbEntity
  8
0
  6
CONTINUOUS
 62
             7
100
AcDbLine
 10
53.30740114320963
 20
69.16921414636119
 11
52.37483469580968
 21
58.50993087677961
  0
LINE
  5
127
100
AcDbEntity
  8
0
  6
CONTINUOUS
 62
             7
100
AcDbLine
 10
69.29443116423909
 20
67.7705302560725
 11
68.36186471683925
 21
57.11124698649087
  0
LINE
  5
126
100
AcDbEntity
  8
0
  6
CONTINUOUS
 62
             7
100
AcDbLine
 10
64.11805167026228
 20
68.2234047799036
 11
63.18548522286233
 21
57.56412151032191
  0
LINE
  5
125
100
AcDbEntity
  8
0
  6
CONTINUOUS
 62
             7
100
AcDbLine
 10
77.15079795206589
 20
67.0831872256361
 11
76.21823150466594
 21
56.4239039560544
  0
LINE
  5
124
100
AcDbEntity
  8
0
  6
CONTINUOUS
 62
             7
100
AcDbLine
 10
73.30874829945321
 20
67.41932301494342
 11
72.37618185205315
 21
56.76003974536178
  0
LINE
  5
123
100
AcDbEntity
  8
0
  6
CONTINUOUS
 62
             7
100
AcDbLine
 10
81.81526929759559
 20
66.6750988615608
 11
80.88270285019553
 21
56.01581559197911
  0
LINE
  5
122
100
AcDbEntity
  8
0
  6
CONTINUOUS
 62
             7
100
AcDbLine
 10
79.77095737706588
 20
66.85395297931797
 11
78.83839092966593
 21
56.19466970973627
  0
LINE
  5
121
100
AcDbEntity
  8
0
  6
CONTINUOUS
 62
             7
100
AcDbLine
 10
18.62664769142395
 20
61.46251465421631
 11
20.67095961195366
 21
61.28366053645897
  0
LINE
  5
120
100
AcDbEntity
  8
0
  6
CONTINUOUS
 62
             7
100
AcDbLine
 10
27.13316868956633
 20
60.71829050083346
 11
27.7463904183835
 21
60.66464055133417
  0
LINE
  5
11F
100
AcDbEntity
  8
0
  6
CONTINUOUS
 62
             7
100
AcDbLine
 10
20.67095961195366
 20
61.28366053645897
 11
21.42318742151633
 21
61.21784913073327
  0
LINE
  5
11E
100
AcDbEntity
  8
0
  6
CONTINUOUS
 62
             7
100
AcDbLine
 10
36.32386531875727
 20
59.91420873587339
 11
36.72411737614482
 21
59.87919121829901
  0
LINE
  5
11D
100
AcDbEntity
  8
0
  6
CONTINUOUS
 62
             7
100
AcDbLine
 10
80.88270285019553
 20
56.01581559197911
 11
80.99217055411668
 21
56.00623840886379
  0
LINE
  5
11C
100
AcDbEntity
  8
0
  6
CONTINUOUS
 62
             7
100
AcDbLine
 10
47.13451584580991
 20
58.96839936941581
 11
47.27352192655542
 21
58.9562379131894
  0
LINE
  5
11B
100
AcDbEntity
  8
0
  6
CONTINUOUS
 62
             7
100
AcDbLine
 10
47.27352192655542
 20
58.9562379131894
 11
52.23582861506418
 21
58.5220923330059
  0
LINE
  5
11A
100
AcDbEntity
  8
0
  6
CONTINUOUS
 62
             7
100
AcDbLine
 10
76.21823150466594
 20
56.4239039560544
 11
78.08616312010315
 21
56.26048111546197
  0
LINE
  5
119
100
AcDbEntity
  8
0
  6
CONTINUOUS
 62
             7
100
AcDbLine
 10
58.26119626895218
 20
57.994940969715
 11
62.78523316547489
 21
57.59913902789617
  0
LINE
  5
118
100
AcDbEntity
  8
0
  6
CONTINUOUS
 62
             7
100
AcDbLine
 10
68.36186471683925
 20
57.11124698649087
 11
71.76296012323599
 21
56.81368969486101
  0
LINE
  5
117
100
AcDbEntity
  8
0
  6
CONTINUOUS
 62
             7
100
AcDbLine
 10
21.42318742151633
 20
61.21784913073327
 11
23.29111903695355
 21
61.0544262901409
  0
LINE
  5
116
100
AcDbEntity
  8
0
  6
CONTINUOUS
 62
             7
100
AcDbLine
 10
18.5171799875028
 20
61.4720918373315
 11
18.62664769142395
 21
61.46251465421631
  0
LINE
  5
115
100
AcDbEntity
  8
0
  6
CONTINUOUS
 62
             7
100
AcDbLine
 10
23.29111903695355
 20
61.0544262901409
 11
27.13316868956633
 21
60.71829050083346
  0
LINE
  5
114
100
AcDbEntity
  8
0
  6
CONTINUOUS
 62
             7
100
AcDbLine
 10
31.14748582478035
 20
60.36708325970449
 11
36.32386531875727
 21
59.91420873587339
  0
LINE
  5
113
100
AcDbEntity
  8
0
  6
CONTINUOUS
 62
             7
100
AcDbLine
 10
27.7463904183835
 20
60.66464055133417
 11
31.14748582478035
 21
60.36708325970449
  0
LINE
  5
112
100
AcDbEntity
  8
0
  6
CONTINUOUS
 62
             7
100
AcDbLine
 10
41.24815427266731
 20
59.48338927648041
 11
47.13451584580991
 21
58.96839936941581
  0
LINE
  5
111
100
AcDbEntity
  8
0
  6
CONTINUOUS
 62
             7
100
AcDbLine
 10
36.72411737614482
 20
59.87919121829901
 11
41.24815427266731
 21
59.48338927648041
  0
LINE
  5
110
100
AcDbEntity
  8
0
  6
CONTINUOUS
 62
             7
100
AcDbLine
 10
52.37483469580968
 20
58.50993087677961
 11
58.26119626895218
 21
57.994940969715
  0
LINE
  5
10F
100
AcDbEntity
  8
0
  6
CONTINUOUS
 62
             7
100
AcDbLine
 10
52.23582861506418
 20
58.5220923330059
 11
52.37483469580968
 21
58.50993087677961
  0
LINE
  5
10E
100
AcDbEntity
  8
0
  6
CONTINUOUS
 62
             7
100
AcDbLine
 10
63.18548522286233
 20
57.56412151032191
 11
68.36186471683925
 21
57.11124698649087
  0
LINE
  5
10D
100
AcDbEntity
  8
0
  6
CONTINUOUS
 62
             7
100
AcDbLine
 10
62.78523316547489
 20
57.59913902789617
 11
63.18548522286233
 21
57.56412151032191
  0
LINE
  5
10C
100
AcDbEntity
  8
0
  6
CONTINUOUS
 62
             7
100
AcDbLine
 10
72.37618185205315
 20
56.76003974536178
 11
76.21823150466594
 21
56.4239039560544
  0
LINE
  5
10B
100
AcDbEntity
  8
0
  6
CONTINUOUS
 62
             7
100
AcDbLine
 10
71.76296012323599
 20
56.81368969486101
 11
72.37618185205315
 21
56.76003974536178
  0
LINE
  5
10A
100
AcDbEntity
  8
0
  6
CONTINUOUS
 62
             7
100
AcDbLine
 10
78.83839092966593
 20
56.19466970973627
 11
80.88270285019553
 21
56.01581559197911
  0
LINE
  5
109
100
AcDbEntity
  8
0
  6
CONTINUOUS
 62
             7
100
AcDbLine
 10
78.08616312010315
 20
56.26048111546197
 11
78.83839092966593
 21
56.19466970973627
  0
LINE
  5
108
100
AcDbEntity
  8
0
  6
CONTINUOUS
 62
             7
100
AcDbLine
 10
18.51015296984633
 20
72.21357888342857
 11
17.57758652244638
 21
61.55429561384699
  0
LINE
  5
107
100
AcDbEntity
  8
0
  6
CONTINUOUS
 62
             7
100
AcDbLine
 10
18.64924232012788
 20
72.20141014206178
 11
17.71667587272793
 21
61.5421268724802
  0
LINE
  5
106
100
AcDbEntity
  8
0
  6
CONTINUOUS
 62
             7
100
AcDbLine
 10
19.37683332251777
 20
72.94081004770396
 11
18.51015296984633
 21
72.21357888342857
  0
LINE
  5
105
100
AcDbEntity
  8
0
  6
CONTINUOUS
 62
             7
100
AcDbLine
 10
18.64924232012788
 20
72.20141014206178
 11
18.51015296984633
 21
72.21357888342857
  0
LINE
  5
104
100
AcDbEntity
  8
0
  6
CONTINUOUS
 62
             7
100
AcDbLine
 10
17.71667587272793
 20
61.5421268724802
 11
18.5171799875028
 21
61.4720918373315
  0
LINE
  5
103
100
AcDbEntity
  8
0
  6
CONTINUOUS
 62
             7
100
AcDbLine
 10
15.88405553569044
 20
61.70246037651799
 11
17.57758652244638
 21
61.55429561384699
  0
LINE
  5
102
100
AcDbEntity
  8
0
  6
CONTINUOUS
 62
             7
100
AcDbLine
 10
17.57758652244638
 20
61.55429561384699
 11
17.71667587272793
 21
61.5421268724802
  0
LINE
  5
101
100
AcDbEntity
  8
0
  6
CONTINUOUS
 62
             7
100
AcDbLine
 10
81.93176401917322
 20
55.92403463234831
 11
83.62529500592905
 21
55.77586986967731
  0
LINE
  5
100
100
AcDbEntity
  8
0
  6
CONTINUOUS
 62
             7
100
AcDbLine
 10
83.62529500592905
 20
55.77586986967731
 11
83.36382777768608
 21
52.7872857754021
  0
LINE
  5
FF
100
AcDbEntity
  8
1
  6
PHANTOM
 62
             2
100
AcDbLine
 10
51.4059805364418
 20
77.61367067709767
 11
49.27692883350767
 21
53.27849835727659
  0
ENDBLK
  5
16E
100
AcDbEntity
  8
0
100
AcDbBlockEnd
  0
BLOCK
  5
32
100
AcDbEntity
  8
0
100
AcDbBlockBegin
  2
ABGANGSBOGENDN50
 70
             0
 10
227.93016575435831
 20
43.06916012595946
 30
0.0
  3
ABGANGSBOGENDN50
  1

  0
ARC
  5
17C
100
AcDbEntity
  8
1
  6
CONTINUOUS
 62
             7
100
AcDbCircle
 10
79.92152791795002
 20
94.99916012595946
 40
50.00000000000003
100
AcDbArc
 50
90.0
 51
180.0
  0
ARC
  5
17B
100
AcDbEntity
  8
1
  6
CONTINUOUS
 62
             7
100
AcDbCircle
 10
50.23402791795002
 20
60.49916012595946
 40
25.6875
100
AcDbArc
 50
31.29331774194731
 51
39.96621304379997
  0
LINE
  5
17A
100
AcDbEntity
  8
1
  6
CONTINUOUS
 62
             7
100
AcDbLine
 10
263.92152791795002
 20
94.99916012595946
 11
263.92152791795002
 21
144.99916012595949
  0
LINE
  5
179
100
AcDbEntity
  8
1
  6
CONTINUOUS
 62
             7
100
AcDbLine
 10
69.92152791795002
 20
94.99916012595946
 11
57.00007649682119
 21
107.9206115470883
  0
LINE
  5
178
100
AcDbEntity
  8
1
  6
CONTINUOUS
 62
             7
100
AcDbLine
 10
36.09510251632594
 20
76.99916012595946
 11
69.92152791795002
 21
76.99916012595946
  0
LINE
  5
177
100
AcDbEntity
  8
1
  6
PHANTOM
 62
             2
100
AcDbLine
 10
49.92152791795002
 20
94.99916012595946
 11
49.92152791795002
 21
70.41247694124441
  0
LINE
  5
176
100
AcDbEntity
  8
1
  6
PHANTOM
 62
             2
100
AcDbLine
 10
269.53670039024809
 20
119.99916012595951
 11
30.69528689528136
 21
119.99916012595951
  0
LINE
  5
175
100
AcDbEntity
  8
1
  6
CONTINUOUS
 62
             7
100
AcDbLine
 10
263.92152791795002
 20
94.99916012595946
 11
264.92152791795002
 21
95.99916012595946
  0
LINE
  5
174
100
AcDbEntity
  8
1
  6
CONTINUOUS
 62
             7
100
AcDbLine
 10
264.92152791795002
 20
143.99916012595949
 11
263.92152791795002
 21
144.99916012595949
  0
LINE
  5
173
100
AcDbEntity
  8
1
  6
CONTINUOUS
 62
             7
100
AcDbLine
 10
263.92152791795002
 20
94.99916012595946
 11
69.92152791795002
 21
94.99916012595946
  0
LINE
  5
172
100
AcDbEntity
  8
1
  6
CONTINUOUS
 62
             7
100
AcDbLine
 10
264.92152791795002
 20
143.99916012595949
 11
264.92152791795002
 21
95.99916012595946
  0
LINE
  5
171
100
AcDbEntity
  8
1
  6
CONTINUOUS
 62
             7
100
AcDbLine
 10
69.92152791795002
 20
76.99916012595946
 11
69.92152791795002
 21
94.99916012595946
  0
LINE
  5
170
100
AcDbEntity
  8
1
  6
CONTINUOUS
 62
             7
100
AcDbLine
 10
29.92152791795002
 20
94.99916012595946
 11
29.92152791795002
 21
77.53927791674896
  0
LINE
  5
16F
100
AcDbEntity
  8
1
  6
CONTINUOUS
 62
             7
100
AcDbLine
 10
79.92152791795002
 20
144.99916012595949
 11
263.92152791795002
 21
144.99916012595949
  0
ENDBLK
  5
17D
100
AcDbEntity
  8
0
100
AcDbBlockEnd
  0
BLOCK
  5
180
100
AcDbEntity
  8
0
100
AcDbBlockBegin
  2
*D7
 70
             1
 10
0.0
 20
0.0
 30
0.0
  3
*D7
  1

  0
LINE
  5
181
100
AcDbEntity
  8
0
  6
CONTINUOUS
 62
             4
100
AcDbLine
 10
-111.78092424852498
 20
133.06298605606599
 11
-60.0
 21
133.06298605606599
  0
LINE
  5
182
100
AcDbEntity
  8
0
  6
CONTINUOUS
 62
             4
100
AcDbLine
 10
-60.0
 20
133.06298605606599
 11
-20.0
 21
133.06298605606599
  0
LINE
  5
183
100
AcDbEntity
  8
0
  6
CONTINUOUS
 62
             4
100
AcDbLine
 10
-60.0
 20
117.75358983848611
 11
-60.0
 21
135.06298605606599
  0
LINE
  5
184
100
AcDbEntity
  8
0
  6
CONTINUOUS
 62
             4
100
AcDbLine
 10
-20.0
 20
117.75358983848611
 11
-20.0
 21
135.06298605606599
  0
SOLID
  5
185
100
AcDbEntity
  8
0
 62
             4
100
AcDbTrace
 10
-27.0
 20
132.14141857295422
 11
-27.0
 21
133.98455353917777
 12
-20.0
 22
133.06298605606599
 13
-20.0
 23
133.06298605606599
  0
SOLID
  5
186
100
AcDbEntity
  8
0
 62
             4
100
AcDbTrace
 10
-53.0
 20
133.98455353917777
 11
-53.0
 21
132.14141857295422
 12
-60.0
 22
133.06298605606599
 13
-60.0
 23
133.06298605606599
  0
MTEXT
  5
188
100
AcDbEntity
  8
0
 62
             1
100
AcDbMText
 10
-107.86092424849124
 20
135.0629582277607
 30
0.0
 40
7.0
 41
0.0
 71
             7
 72
             1
  1
\C1;DN\C1;40
  7
CONVERTER_1
 11
0.99999999999706
 21
0.00000242406841
 31
0.0
  0
ENDBLK
  5
189
100
AcDbEntity
  8
0
100
AcDbBlockEnd
  0
BLOCK
  5
18D
100
AcDbEntity
  8
0
100
AcDbBlockBegin
  2
*D8
 70
             1
 10
0.0
 20
0.0
 30
0.0
  3
*D8
  1

  0
LINE
  5
18E
100
AcDbEntity
  8
0
  6
CONTINUOUS
 62
             4
100
AcDbLine
 10
-15.99999999999999
 20
323.55043021386382
 11
9.08268872383674
 21
323.55043021386382
  0
LINE
  5
18F
100
AcDbEntity
  8
0
  6
CONTINUOUS
 62
             4
100
AcDbLine
 10
-64.00000000000001
 20
323.55043021386382
 11
-15.99999999999999
 21
323.55043021386382
  0
LINE
  5
190
100
AcDbEntity
  8
0
  6
CONTINUOUS
 62
             4
100
AcDbLine
 10
-15.99999999999999
 20
313.55043021386382
 11
-15.99999999999999
 21
325.55043021386382
  0
LINE
  5
191
100
AcDbEntity
  8
0
  6
CONTINUOUS
 62
             4
100
AcDbLine
 10
-64.00000000000001
 20
313.55043021386382
 11
-64.00000000000001
 21
325.55043021386382
  0
SOLID
  5
192
100
AcDbEntity
  8
0
 62
             4
100
AcDbTrace
 10
-22.99999999999999
 20
322.62886273075208
 11
-22.99999999999999
 21
324.47199769697556
 12
-15.99999999999999
 22
323.55043021386382
 13
-15.99999999999999
 23
323.55043021386382
  0
SOLID
  5
193
100
AcDbEntity
  8
0
 62
             4
100
AcDbTrace
 10
-57.00000000000001
 20
324.47199769697556
 11
-57.00000000000001
 21
322.62886273075208
 12
-64.00000000000001
 22
323.55043021386382
 13
-64.00000000000001
 23
323.55043021386382
  0
MTEXT
  5
194
100
AcDbEntity
  8
0
 62
             1
100
AcDbMText
 10
-9.81731127616326
 20
325.55043021386382
 30
0.0
 40
7.0
 41
0.0
 71
             7
 72
             1
  1
6/4"
  7
CONVERTER_1
 11
0.99999999999706
 21
0.00000242406841
 31
0.0
  0
ENDBLK
  5
195
100
AcDbEntity
  8
0
100
AcDbBlockEnd
  0
BLOCK
  5
199
100
AcDbEntity
  8
0
100
AcDbBlockBegin
  2
*D9
 70
             1
 10
0.0
 20
0.0
 30
0.0
  3
*D9
  1

  0
LINE
  5
19A
100
AcDbEntity
  8
0
  6
CONTINUOUS
 62
             4
100
AcDbLine
 10
279.76355169466541
 20
144.99916012595949
 11
279.76355169466541
 21
177.26659815530809
  0
LINE
  5
19B
100
AcDbEntity
  8
0
  6
CONTINUOUS
 62
             4
100
AcDbLine
 10
279.76355169466541
 20
94.99916012595946
 11
279.76355169466541
 21
144.99916012595949
  0
LINE
  5
19C
100
AcDbEntity
  8
0
  6
CONTINUOUS
 62
             4
100
AcDbLine
 10
263.92152791795002
 20
144.99916012595949
 11
281.76355169466541
 21
144.99916012595949
  0
LINE
  5
19D
100
AcDbEntity
  8
0
  6
CONTINUOUS
 62
             4
100
AcDbLine
 10
263.92152791795002
 20
94.99916012595946
 11
281.76355169466541
 21
94.99916012595946
  0
SOLID
  5
19E
100
AcDbEntity
  8
0
 62
             4
100
AcDbTrace
 10
278.84198421155367
 20
101.99916012595946
 11
280.68511917777715
 21
101.99916012595946
 12
279.76355169466541
 22
94.99916012595946
 13
279.76355169466541
 23
94.99916012595946
  0
SOLID
  5
19F
100
AcDbEntity
  8
0
 62
             4
100
AcDbTrace
 10
280.68511917777715
 20
137.99916012595949
 11
278.84198421155367
 21
137.99916012595949
 12
279.76355169466541
 22
144.99916012595949
 13
279.76355169466541
 23
144.99916012595949
  0
MTEXT
  5
1A0
100
AcDbEntity
  8
0
 62
             1
100
AcDbMText
 10
277.76355169466541
 20
155.2865981553081
 30
0.0
 40
7.0
 41
0.0
 71
             7
 72
             1
  1
\C1;DN\C1;50
  7
CONVERTER_1
 11
0.0
 21
1.0
 31
0.0
  0
ENDBLK
  5
1A1
100
AcDbEntity
  8
0
100
AcDbBlockEnd
  0
BLOCK
  5
1A5
100
AcDbEntity
  8
0
100
AcDbBlockBegin
  2
*D10
 70
             1
 10
0.0
 20
0.0
 30
0.0
  3
*D10
  1

  0
LINE
  5
1A6
100
AcDbEntity
  8
0
  6
CONTINUOUS
 62
             4
100
AcDbLine
 10
102.2322245980383
 20
0.0
 11
102.2322245980383
 21
119.99916012595949
  0
LINE
  5
1A7
100
AcDbEntity
  8
0
  6
CONTINUOUS
 62
             4
100
AcDbLine
 10
30.69528689528136
 20
119.99916012595949
 11
104.2322245980383
 21
119.99916012595949
  0
LINE
  5
1A8
100
AcDbEntity
  8
0
  6
CONTINUOUS
 62
             4
100
AcDbLine
 10
0.0
 20
0.0
 11
104.2322245980383
 21
0.0
  0
SOLID
  5
1A9
100
AcDbEntity
  8
0
 62
             4
100
AcDbTrace
 10
101.31065711492653
 20
7.0
 11
103.15379208115007
 21
7.0
 12
102.2322245980383
 22
0.0
 13
102.2322245980383
 23
0.0
  0
SOLID
  5
1AA
100
AcDbEntity
  8
0
 62
             4
100
AcDbTrace
 10
103.15379208115007
 20
112.99916012595949
 11
101.31065711492653
 21
112.99916012595949
 12
102.2322245980383
 22
119.99916012595949
 13
102.2322245980383
 23
119.99916012595949
  0
MTEXT
  5
1AB
100
AcDbEntity
  8
0
 62
             1
100
AcDbMText
 10
100.2322245980383
 20
52.57454075759365
 30
0.0
 40
7.0
 41
0.0
 71
             7
 72
             1
  1
120
  7
CONVERTER_1
 11
0.0
 21
1.0
 31
0.0
  0
ENDBLK
  5
1AC
100
AcDbEntity
  8
0
100
AcDbBlockEnd
  0
BLOCK
  5
1B0
100
AcDbEntity
  8
0
100
AcDbBlockBegin
  2
*D11
 70
             1
 10
0.0
 20
0.0
 30
0.0
  3
*D11
  1

  0
LINE
  5
1B1
100
AcDbEntity
  8
0
  6
CONTINUOUS
 62
             4
100
AcDbLine
 10
296.53453367072899
 20
119.99916012595953
 11
296.53453367072899
 21
302.05043021386382
  0
LINE
  5
1B2
100
AcDbEntity
  8
0
  6
CONTINUOUS
 62
             4
100
AcDbLine
 10
-8.03263610886643
 20
302.05043021386382
 11
298.53453367072899
 21
302.05043021386382
  0
LINE
  5
1B3
100
AcDbEntity
  8
0
  6
CONTINUOUS
 62
             4
100
AcDbLine
 10
269.53670039024809
 20
119.99916012595953
 11
298.53453367072899
 21
119.99916012595953
  0
SOLID
  5
1B4
100
AcDbEntity
  8
0
 62
             4
100
AcDbTrace
 10
295.61296618761725
 20
126.99916012595953
 11
297.45610115384073
 21
126.99916012595953
 12
296.53453367072899
 22
119.99916012595953
 13
296.53453367072899
 23
119.99916012595953
  0
SOLID
  5
1B5
100
AcDbEntity
  8
0
 62
             4
100
AcDbTrace
 10
297.45610115384073
 20
295.05043021386382
 11
295.61296618761725
 21
295.05043021386382
 12
296.53453367072899
 22
302.05043021386382
 13
296.53453367072899
 23
302.05043021386382
  0
MTEXT
  5
1B6
100
AcDbEntity
  8
0
 62
             1
100
AcDbMText
 10
294.53453367072899
 20
185.34011378989319
 30
0.0
 40
7.0
 41
0.0
 71
             7
 72
             1
  1
\C1;20\C1;-215
  7
CONVERTER_1
 11
0.0
 21
1.0
 31
0.0
  0
ENDBLK
  5
1B7
100
AcDbEntity
  8
0
100
AcDbBlockEnd
  0
BLOCK
  5
1BB
100
AcDbEntity
  8
0
100
AcDbBlockBegin
  2
*D12
 70
             1
 10
0.0
 20
0.0
 30
0.0
  3
*D12
  1

  0
LINE
  5
1BC
100
AcDbEntity
  8
0
  6
CONTINUOUS
 62
             4
100
AcDbLine
 10
-39.99999999999999
 20
339.25781839540002
 11
49.92152791795002
 21
339.25781839540002
  0
LINE
  5
1BD
100
AcDbEntity
  8
0
  6
CONTINUOUS
 62
             4
100
AcDbLine
 10
-39.99999999999999
 20
329.95236497781104
 11
-39.99999999999999
 21
341.25781839540002
  0
LINE
  5
1BE
100
AcDbEntity
  8
0
  6
CONTINUOUS
 62
             4
100
AcDbLine
 10
49.92152791795002
 20
94.99916012595944
 11
49.92152791795002
 21
341.25781839540002
  0
LINE
  5
1BF
100
AcDbEntity
  8
0
  6
CONTINUOUS
 62
             4
100
AcDbLine
 10
-39.99999999999999
 20
293.55043021386763
 11
-39.99999999999999
 21
314.73972844135307
  0
SOLID
  5
1C0
100
AcDbEntity
  8
0
 62
             4
100
AcDbTrace
 10
-32.99999999999999
 20
340.17938587851177
 11
-32.99999999999999
 21
338.33625091228828
 12
-39.99999999999999
 22
339.25781839540002
 13
-39.99999999999999
 23
339.25781839540002
  0
SOLID
  5
1C1
100
AcDbEntity
  8
0
 62
             4
100
AcDbTrace
 10
42.92152791795002
 20
338.33625091228828
 11
42.92152791795002
 21
340.17938587851177
 12
49.92152791795002
 22
339.25781839540002
 13
49.92152791795002
 23
339.25781839540002
  0
MTEXT
  5
1C2
100
AcDbEntity
  8
0
 62
             1
100
AcDbMText
 10
-10.33849057761507
 20
341.25781839540002
 30
0.0
 40
7.0
 41
0.0
 71
             7
 72
             1
  1
90
  7
CONVERTER_1
 11
0.99999999999706
 21
0.00000242406841
 31
0.0
  0
ENDBLK
  5
1C3
100
AcDbEntity
  8
0
100
AcDbBlockEnd
  0
BLOCK
  5
1C7
100
AcDbEntity
  8
0
100
AcDbBlockBegin
  2
*D13
 70
             1
 10
0.0
 20
0.0
 30
0.0
  3
*D13
  1

  0
LINE
  5
1C8
100
AcDbEntity
  8
0
  6
CONTINUOUS
 62
             4
100
AcDbLine
 10
-39.99999999999999
 20
356.06772504694601
 11
264.92152791795002
 21
356.06772504694601
  0
LINE
  5
1C9
100
AcDbEntity
  8
0
  6
CONTINUOUS
 62
             4
100
AcDbLine
 10
-39.99999999999999
 20
329.95236497781104
 11
-39.99999999999999
 21
358.06772504694601
  0
LINE
  5
1CA
100
AcDbEntity
  8
0
  6
CONTINUOUS
 62
             4
100
AcDbLine
 10
264.92152791795002
 20
143.99916012595952
 11
264.92152791795002
 21
358.06772504694601
  0
LINE
  5
1CB
100
AcDbEntity
  8
0
  6
CONTINUOUS
 62
             4
100
AcDbLine
 10
-39.99999999999999
 20
293.55043021386763
 11
-39.99999999999999
 21
314.73972844135307
  0
SOLID
  5
1CC
100
AcDbEntity
  8
0
 62
             4
100
AcDbTrace
 10
-32.99999999999999
 20
356.98929253005775
 11
-32.99999999999999
 21
355.14615756383427
 12
-39.99999999999999
 22
356.06772504694601
 13
-39.99999999999999
 23
356.06772504694601
  0
SOLID
  5
1CD
100
AcDbEntity
  8
0
 62
             4
100
AcDbTrace
 10
257.92152791795002
 20
355.14615756383427
 11
257.92152791795002
 21
356.98929253005775
 12
264.92152791795002
 22
356.06772504694601
 13
264.92152791795002
 23
356.06772504694601
  0
MTEXT
  5
1CE
100
AcDbEntity
  8
0
 62
             1
100
AcDbMText
 10
100.927325663552
 20
358.06772504694601
 30
0.0
 40
7.0
 41
0.0
 71
             7
 72
             1
  1
305
  7
CONVERTER_1
 11
0.99999999999706
 21
0.00000242406841
 31
0.0
  0
ENDBLK
  5
1CF
100
AcDbEntity
  8
0
100
AcDbBlockEnd
  0
ENDSEC
  0
SECTION
  2
ENTITIES
  0
DIMENSION
  5
1D1
100
AcDbEntity
  8
1
100
AcDbDimension
  2
*D13
 10
-39.99999999999999
 20
356.06772504694601
 11
109.327325663552
 21
361.56772504694601
 31
0.0
 53
180.0
  1
<>
  3
ME10_DIM_6
100
AcDbAlignedDimension
 13
264.92152791795002
 23
143.99916012595949
 14
-39.99999999999999
 24
293.55043021386763
 50
180.0
100
AcDbRotatedDimension
  0
DIMENSION
  5
1C5
100
AcDbEntity
  8
1
100
AcDbDimension
  2
*D12
 10
-39.99999999999999
 20
339.25781839540002
 11
-5.08849057761507
 21
344.75781839540002
 31
0.0
 53
180.0
  1
<>
  3
ME10_DIM_5
100
AcDbAlignedDimension
 13
49.92152791795002
 23
94.99916012595946
 14
-39.99999999999999
 24
293.55043021386763
 50
180.0
100
AcDbRotatedDimension
  0
DIMENSION
  5
1B9
100
AcDbEntity
  8
1
100
AcDbDimension
  2
*D11
 10
296.53453367072899
 20
119.99916012595953
 11
291.03453367072899
 21
202.4901137898932
 31
0.0
 53
90.0
  1
20
  3
ME10_DIM_4
100
AcDbAlignedDimension
 13
-8.03263610886643
 23
302.05043021386382
 14
269.53670039024809
 24
119.99916012595951
 50
90.0
100
AcDbRotatedDimension
  0
DIMENSION
  5
1AE
100
AcDbEntity
  8
1
100
AcDbDimension
  2
*D10
 10
102.2322245980383
 20
0.0
 11
96.7322245980383
 21
59.92454075759365
 31
0.0
 53
90.0
  1
<>
  3
ME10_DIM_3
100
AcDbAlignedDimension
 13
30.69528689528136
 23
119.99916012595951
 14
0.0
 24
0.0
 50
90.0
100
AcDbRotatedDimension
  0
DIMENSION
  5
1A3
100
AcDbEntity
  8
1
100
AcDbDimension
  2
*D9
 10
279.76355169466541
 20
94.99916012595946
 11
274.26355169466541
 21
164.3165981553081
 31
0.0
 53
90.0
  1
<>
  3
ME10_DIM_2
100
AcDbAlignedDimension
 13
263.92152791795002
 23
144.99916012595949
 14
263.92152791795002
 24
94.99916012595946
 50
90.0
100
AcDbRotatedDimension
  0
DIMENSION
  5
197
100
AcDbEntity
  8
1
100
AcDbDimension
  2
*D8
 10
-15.99999999999999
 20
323.55043021386382
 11
-0.36731127616326
 21
329.05043021386382
 31
0.0
 53
180.0
  1
6/4"
  3
ME10_DIM_1
100
AcDbAlignedDimension
 13
-64.0
 23
313.55043021386382
 14
-16.0
 24
313.55043021386382
 50
180.0
100
AcDbRotatedDimension
  0
DIMENSION
  5
18B
100
AcDbEntity
  8
1
100
AcDbDimension
  2
*D7
 10
-20.0
 20
133.06298605606599
 11
-98.83092424852498
 21
138.56298605606599
 31
0.0
 53
180.0
  1
DN40
  3
ME10_DIM_0
100
AcDbAlignedDimension
 13
-60.0
 23
117.75358983848611
 14
-20.0
 24
117.75358983848611
 50
180.0
100
AcDbRotatedDimension
  0
INSERT
  5
35
100
AcDbEntity
  8
1
100
AcDbBlockReference
  2
HL_13_TAUCHROHR_ARTIKEL
 10
512.46209174422006
 20
13.36899169878262
  0
INSERT
  5
36
100
AcDbEntity
  8
0
100
AcDbBlockReference
  2
HOLL_NDERMUTTER_6_4__1
 10
335.27393665073879
 20
312.42295427881231
  0
INSERT
  5
37
100
AcDbEntity
  8
0
100
AcDbBlockReference
  2
HL_13_TAUCHROHR
 10
640.71047681752532
 20
268.85043021386377
  0
INSERT
  5
38
100
AcDbEntity
  8
0
100
AcDbBlockReference
  2
HOLL_NDERMUTTER_6_4__2
 10
335.27393665073868
 20
75.57704572118752
  0
INSERT
  5
39
100
AcDbEntity
  8
1
100
AcDbBlockReference
  2
HL_100_KR_MMER
 10
489.96209174422012
 20
85.5
  0
INSERT
  5
3A
100
AcDbEntity
  8
0
100
AcDbBlockReference
  2
HOLL_NDERMUTTER_2_
 10
631.67306087483303
 20
35.62105623048302
  0
INSERT
  5
3B
100
AcDbEntity
  8
1
100
AcDbBlockReference
  2
ABGANGSBOGENDN50
 10
227.93016575435831
 20
43.06916012595946
  0
ENDSEC
  0
SECTION
  2
OBJECTS
  0
DICTIONARY
  5
19
100
AcDbDictionary
  3
ACAD_GROUP
350
1A
  3
ACAD_MLINESTYLE
350
1B
  0
DICTIONARY
  5
1A
102
{ACAD_REACTORS
330
19
102
}
100
AcDbDictionary
  0
DICTIONARY
  5
1B
102
{ACAD_REACTORS
330
19
102
}
100
AcDbDictionary
  3
STANDARD
350
1C
  0
MLINESTYLE
  5
1C
102
{ACAD_REACTORS
330
1B
102
}
100
AcDbMlineStyle
  2
STANDARD
 70
             0
  3

 62
             0
 51
90.0
 52
90.0
 71
             2
 49
0.5
 62
           256
  6
BYLAYER
 49
-0.5
 62
           256
  6
BYLAYER
  0
ENDSEC
  0
EOF
