  0
SECTION
  2
HEADER
  9
$ACADVER
  1
AC1015
  9
$ACADMAINTVER
 70
     6
  9
$DWGCODEPAGE
  3
ANSI_1252
  9
$INSBASE
 10
0.0
 20
0.0
 30
0.0
  9
$EXTMIN
 10
-220.0316040035023
 20
-221.4985533535613
 30
0.0
  9
$EXTMAX
 10
45.27165650498112
 20
36.5322540759135
 30
0.0
  9
$LIMMIN
 10
0.0
 20
0.0
  9
$LIMMAX
 10
12.0
 20
9.0
  9
$ORTHOMODE
 70
     0
  9
$REGENMODE
 70
     1
  9
$FILLMODE
 70
     1
  9
$QTEXTMODE
 70
     0
  9
$MIRRTEXT
 70
     1
  9
$LTSCALE
 40
1.0
  9
$ATTMODE
 70
     1
  9
$TEXTSIZE
 40
0.2
  9
$TRACEWID
 40
0.05
  9
$TEXTSTYLE
  7
Standard
  9
$CLAYER
  8
0
  9
$CELTYPE
  6
ByLayer
  9
$CECOLOR
 62
   256
  9
$CELTSCALE
 40
1.0
  9
$DISPSILH
 70
     0
  9
$DIMSCALE
 40
1.0
  9
$DIMASZ
 40
0.18
  9
$DIMEXO
 40
0.0625
  9
$DIMDLI
 40
0.38
  9
$DIMRND
 40
0.0
  9
$DIMDLE
 40
0.0
  9
$DIMEXE
 40
0.18
  9
$DIMTP
 40
0.0
  9
$DIMTM
 40
0.0
  9
$DIMTXT
 40
0.18
  9
$DIMCEN
 40
0.09
  9
$DIMTSZ
 40
0.0
  9
$DIMTOL
 70
     0
  9
$DIMLIM
 70
     0
  9
$DIMTIH
 70
     1
  9
$DIMTOH
 70
     1
  9
$DIMSE1
 70
     0
  9
$DIMSE2
 70
     0
  9
$DIMTAD
 70
     0
  9
$DIMZIN
 70
     0
  9
$DIMBLK
  1

  9
$DIMASO
 70
     1
  9
$DIMSHO
 70
     1
  9
$DIMPOST
  1

  9
$DIMAPOST
  1

  9
$DIMALT
 70
     0
  9
$DIMALTD
 70
     2
  9
$DIMALTF
 40
25.4
  9
$DIMLFAC
 40
1.0
  9
$DIMTOFL
 70
     0
  9
$DIMTVP
 40
0.0
  9
$DIMTIX
 70
     0
  9
$DIMSOXD
 70
     0
  9
$DIMSAH
 70
     0
  9
$DIMBLK1
  1

  9
$DIMBLK2
  1

  9
$DIMSTYLE
  2
Standard
  9
$DIMCLRD
 70
     0
  9
$DIMCLRE
 70
     0
  9
$DIMCLRT
 70
     0
  9
$DIMTFAC
 40
1.0
  9
$DIMGAP
 40
0.09
  9
$DIMJUST
 70
     0
  9
$DIMSD1
 70
     0
  9
$DIMSD2
 70
     0
  9
$DIMTOLJ
 70
     1
  9
$DIMTZIN
 70
     0
  9
$DIMALTZ
 70
     0
  9
$DIMALTTZ
 70
     0
  9
$DIMUPT
 70
     0
  9
$DIMDEC
 70
     4
  9
$DIMTDEC
 70
     4
  9
$DIMALTU
 70
     2
  9
$DIMALTTD
 70
     2
  9
$DIMTXSTY
  7
Standard
  9
$DIMAUNIT
 70
     0
  9
$DIMADEC
 70
     0
  9
$DIMALTRND
 40
0.0
  9
$DIMAZIN
 70
     0
  9
$DIMDSEP
 70
    46
  9
$DIMATFIT
 70
     3
  9
$DIMFRAC
 70
     0
  9
$DIMLDRBLK
  1

  9
$DIMLUNIT
 70
     2
  9
$DIMLWD
 70
    -2
  9
$DIMLWE
 70
    -2
  9
$DIMTMOVE
 70
     0
  9
$LUNITS
 70
     2
  9
$LUPREC
 70
     4
  9
$SKETCHINC
 40
0.1
  9
$FILLETRAD
 40
0.5
  9
$AUNITS
 70
     0
  9
$AUPREC
 70
     0
  9
$MENU
  1
.
  9
$ELEVATION
 40
0.0
  9
$PELEVATION
 40
0.0
  9
$THICKNESS
 40
0.0
  9
$LIMCHECK
 70
     0
  9
$CHAMFERA
 40
0.5
  9
$CHAMFERB
 40
0.5
  9
$CHAMFERC
 40
1.0
  9
$CHAMFERD
 40
0.0
  9
$SKPOLY
 70
     0
  9
$TDCREATE
 40
2456966.617687407
  9
$TDUCREATE
 40
2456966.576020741
  9
$TDUPDATE
 40
2456966.617687778
  9
$TDUUPDATE
 40
2456966.576021111
  9
$TDINDWG
 40
0.0000000116
  9
$TDUSRTIMER
 40
0.0000000116
  9
$USRTIMER
 70
     1
  9
$ANGBASE
 50
0.0
  9
$ANGDIR
 70
     0
  9
$PDMODE
 70
     0
  9
$PDSIZE
 40
0.0
  9
$PLINEWID
 40
0.0
  9
$SPLFRAME
 70
     0
  9
$SPLINETYPE
 70
     6
  9
$SPLINESEGS
 70
     8
  9
$HANDSEED
  5
398
  9
$SURFTAB1
 70
     6
  9
$SURFTAB2
 70
     6
  9
$SURFTYPE
 70
     6
  9
$SURFU
 70
     6
  9
$SURFV
 70
     6
  9
$UCSBASE
  2

  9
$UCSNAME
  2

  9
$UCSORG
 10
0.0
 20
0.0
 30
0.0
  9
$UCSXDIR
 10
1.0
 20
0.0
 30
0.0
  9
$UCSYDIR
 10
0.0
 20
1.0
 30
0.0
  9
$UCSORTHOREF
  2

  9
$UCSORTHOVIEW
 70
     0
  9
$UCSORGTOP
 10
0.0
 20
0.0
 30
0.0
  9
$UCSORGBOTTOM
 10
0.0
 20
0.0
 30
0.0
  9
$UCSORGLEFT
 10
0.0
 20
0.0
 30
0.0
  9
$UCSORGRIGHT
 10
0.0
 20
0.0
 30
0.0
  9
$UCSORGFRONT
 10
0.0
 20
0.0
 30
0.0
  9
$UCSORGBACK
 10
0.0
 20
0.0
 30
0.0
  9
$PUCSBASE
  2

  9
$PUCSNAME
  2

  9
$PUCSORG
 10
0.0
 20
0.0
 30
0.0
  9
$PUCSXDIR
 10
1.0
 20
0.0
 30
0.0
  9
$PUCSYDIR
 10
0.0
 20
1.0
 30
0.0
  9
$PUCSORTHOREF
  2

  9
$PUCSORTHOVIEW
 70
     0
  9
$PUCSORGTOP
 10
0.0
 20
0.0
 30
0.0
  9
$PUCSORGBOTTOM
 10
0.0
 20
0.0
 30
0.0
  9
$PUCSORGLEFT
 10
0.0
 20
0.0
 30
0.0
  9
$PUCSORGRIGHT
 10
0.0
 20
0.0
 30
0.0
  9
$PUCSORGFRONT
 10
0.0
 20
0.0
 30
0.0
  9
$PUCSORGBACK
 10
0.0
 20
0.0
 30
0.0
  9
$USERI1
 70
     0
  9
$USERI2
 70
     0
  9
$USERI3
 70
     0
  9
$USERI4
 70
     0
  9
$USERI5
 70
     0
  9
$USERR1
 40
18.1
  9
$USERR2
 40
0.0
  9
$USERR3
 40
0.0
  9
$USERR4
 40
0.0
  9
$USERR5
 40
0.0
  9
$WORLDVIEW
 70
     1
  9
$SHADEDGE
 70
     3
  9
$SHADEDIF
 70
    70
  9
$TILEMODE
 70
     1
  9
$MAXACTVP
 70
    64
  9
$PINSBASE
 10
0.0
 20
0.0
 30
0.0
  9
$PLIMCHECK
 70
     0
  9
$PEXTMIN
 10
1.00000000000000E+20
 20
1.00000000000000E+20
 30
1.00000000000000E+20
  9
$PEXTMAX
 10
-1.00000000000000E+20
 20
-1.00000000000000E+20
 30
-1.00000000000000E+20
  9
$PLIMMIN
 10
0.0
 20
0.0
  9
$PLIMMAX
 10
12.0
 20
9.0
  9
$UNITMODE
 70
     0
  9
$VISRETAIN
 70
     1
  9
$PLINEGEN
 70
     0
  9
$PSLTSCALE
 70
     1
  9
$TREEDEPTH
 70
  3020
  9
$CMLSTYLE
  2
Standard
  9
$CMLJUST
 70
     0
  9
$CMLSCALE
 40
1.0
  9
$PROXYGRAPHICS
 70
     1
  9
$MEASUREMENT
 70
     1
  9
$CELWEIGHT
370
    -1
  9
$ENDCAPS
280
     0
  9
$JOINSTYLE
280
     0
  9
$LWDISPLAY
290
     0
  9
$INSUNITS
 70
     1
  9
$HYPERLINKBASE
  1

  9
$STYLESHEET
  1

  9
$XEDIT
290
     1
  9
$CEPSNTYPE
380
     0
  9
$PSTYLEMODE
290
     1
  9
$FINGERPRINTGUID
  2
{C3CEBABB-DC1B-4BDB-B2CB-4CE4E2979D4F}
  9
$VERSIONGUID
  2
{FAEB1C32-E019-11D5-929B-00C0DF256EC4}
  9
$EXTNAMES
290
     1
  9
$PSVPSCALE
 40
0.0
  9
$OLESTARTUP
290
     0
  0
ENDSEC
  0
SECTION
  2
CLASSES
  0
CLASS
  1
ACDBDICTIONARYWDFLT
  2
AcDbDictionaryWithDefault
  3
ObjectDBX Classes
 90
        0
280
     0
281
     0
  0
CLASS
  1
VISUALSTYLE
  2
AcDbVisualStyle
  3
ObjectDBX Classes
 90
     4095
280
     0
281
     0
  0
CLASS
  1
MATERIAL
  2
AcDbMaterial
  3
ObjectDBX Classes
 90
     1153
280
     0
281
     0
  0
CLASS
  1
DICTIONARYVAR
  2
AcDbDictionaryVar
  3
ObjectDBX Classes
 90
        0
280
     0
281
     0
  0
CLASS
  1
ACDBPLACEHOLDER
  2
AcDbPlaceHolder
  3
ObjectDBX Classes
 90
        0
280
     0
281
     0
  0
CLASS
  1
LAYOUT
  2
AcDbLayout
  3
ObjectDBX Classes
 90
        0
280
     0
281
     0
  0
ENDSEC
  0
SECTION
  2
TABLES
  0
TABLE
  2
VPORT
  5
8
330
0
100
AcDbSymbolTable
 70
     1
  0
VPORT
  5
29
330
8
100
AcDbSymbolTableRecord
100
AcDbViewportTableRecord
  2
*Active
 70
     0
 10
0.0
 20
0.0
 11
1.0
 21
1.0
 12
-87.3799737492606
 22
-92.4831496388239
 13
0.0
 23
0.0
 14
0.5
 24
0.5
 15
0.5
 25
0.5
 16
0.0
 26
0.0
 36
1.0
 17
0.0
 27
0.0
 37
0.0
 40
283.8338881724223
 41
1.60267857142857
 42
50.0
 43
0.0
 44
0.0
 50
0.0
 51
0.0
 71
     0
 72
   100
 73
     1
 74
     3
 75
     0
 76
     0
 77
     0
 78
     0
281
     0
 65
     1
110
0.0
120
0.0
130
0.0
111
1.0
121
0.0
131
0.0
112
0.0
122
1.0
132
0.0
 79
     0
146
0.0
  0
ENDTAB
  0
TABLE
  2
LTYPE
  5
5
330
0
100
AcDbSymbolTable
 70
     8
  0
LTYPE
  5
14
330
5
100
AcDbSymbolTableRecord
100
AcDbLinetypeTableRecord
  2
ByBlock
 70
     0
  3

 72
    65
 73
     0
 40
0.0
  0
LTYPE
  5
15
330
5
100
AcDbSymbolTableRecord
100
AcDbLinetypeTableRecord
  2
ByLayer
 70
     0
  3

 72
    65
 73
     0
 40
0.0
  0
LTYPE
  5
16
330
5
100
AcDbSymbolTableRecord
100
AcDbLinetypeTableRecord
  2
Continuous
 70
     0
  3
Solid line
 72
    65
 73
     0
 40
0.0
  0
LTYPE
  5
3F
330
5
100
AcDbSymbolTableRecord
100
AcDbLinetypeTableRecord
  2
DASHED
 70
     0
  3
Dashed
 72
    65
 73
     2
 40
15.0
 49
7.0
 74
     0
 49
-8.0
 74
     0
  0
LTYPE
  5
40
330
5
100
AcDbSymbolTableRecord
100
AcDbLinetypeTableRecord
  2
DOTTED
 70
     0
  3
Dotted
 72
    65
 73
     2
 40
1.0
 49
0.0
 74
     0
 49
-1.0
 74
     0
  0
LTYPE
  5
41
330
5
100
AcDbSymbolTableRecord
100
AcDbLinetypeTableRecord
  2
DOT_CENTER
 70
     0
  3
Dot_Center
 72
    65
 73
     4
 40
14.0
 49
12.0
 74
     0
 49
-1.0
 74
     0
 49
0.0
 74
     0
 49
-1.0
 74
     0
  0
LTYPE
  5
42
330
5
100
AcDbSymbolTableRecord
100
AcDbLinetypeTableRecord
  2
LONG_DASHED
 70
     0
  3
Long_Dashed
 72
    65
 73
     2
 40
15.0
 49
10.0
 74
     0
 49
-5.0
 74
     0
  0
LTYPE
  5
43
330
5
100
AcDbSymbolTableRecord
100
AcDbLinetypeTableRecord
  2
DASH_CENTER
 70
     0
  3
Dash_Center
 72
    65
 73
     4
 40
14.0
 49
11.0
 74
     0
 49
-1.0
 74
     0
 49
1.0
 74
     0
 49
-1.0
 74
     0
  0
LTYPE
  5
44
330
5
100
AcDbSymbolTableRecord
100
AcDbLinetypeTableRecord
  2
PHANTOM
 70
     0
  3
Phantom
 72
    65
 73
     6
 40
13.0
 49
10.0
 74
     0
 49
-1.0
 74
     0
 49
0.0
 74
     0
 49
-1.0
 74
     0
 49
0.0
 74
     0
 49
-1.0
 74
     0
  0
LTYPE
  5
45
330
5
100
AcDbSymbolTableRecord
100
AcDbLinetypeTableRecord
  2
CENTER_DASH_DASH
 70
     0
  3
Center_Dash_Dash
 72
    65
 73
     6
 40
14.0
 49
9.0
 74
     0
 49
-1.0
 74
     0
 49
1.0
 74
     0
 49
-1.0
 74
     0
 49
1.0
 74
     0
 49
-1.0
 74
     0
  0
ENDTAB
  0
TABLE
  2
LAYER
  5
2
330
0
100
AcDbSymbolTable
 70
     2
  0
LAYER
  5
10
330
2
100
AcDbSymbolTableRecord
100
AcDbLayerTableRecord
  2
0
 70
     0
 62
     7
  6
Continuous
370
    -3
390
F
  0
LAYER
  5
46
330
2
100
AcDbSymbolTableRecord
100
AcDbLayerTableRecord
  2
1
 70
     0
 62
     7
  6
Continuous
370
    -3
390
F
  0
ENDTAB
  0
TABLE
  2
STYLE
  5
3
330
0
100
AcDbSymbolTable
 70
     2
  0
STYLE
  5
11
330
3
100
AcDbSymbolTableRecord
100
AcDbTextStyleTableRecord
  2
Standard
 70
     0
 40
0.0
 41
1.0
 50
0.0
 71
     0
 42
0.2
  3
txt
  4

  0
STYLE
  5
17A
330
3
100
AcDbSymbolTableRecord
100
AcDbTextStyleTableRecord
  2
CONVERTER_11
 70
     0
 40
0.0
 41
0.9
 50
0.0
 71
     0
 42
0.2
  3
txt.shx
  4

  0
ENDTAB
  0
TABLE
  2
VIEW
  5
6
330
0
100
AcDbSymbolTable
 70
     0
  0
ENDTAB
  0
TABLE
  2
UCS
  5
7
330
0
100
AcDbSymbolTable
 70
     0
  0
ENDTAB
  0
TABLE
  2
APPID
  5
9
330
0
100
AcDbSymbolTable
 70
     1
  0
APPID
  5
12
330
9
100
AcDbSymbolTableRecord
100
AcDbRegAppTableRecord
  2
ACAD
 70
     0
  0
ENDTAB
  0
TABLE
  2
DIMSTYLE
  5
A
330
0
100
AcDbSymbolTable
 70
    10
100
AcDbDimStyleTable
  0
DIMSTYLE
105
27
330
A
100
AcDbSymbolTableRecord
100
AcDbDimStyleTableRecord
  2
Standard
 70
     0
178
     0
340
11
  0
DIMSTYLE
105
17E
102
{ACAD_REACTORS
330
17F
102
}
330
A
100
AcDbSymbolTableRecord
100
AcDbDimStyleTableRecord
  2
ME10_DIM_10
 70
     0
  3
120-<>
 41
14.0
 42
0.0
 44
4.0
 73
     0
 74
     0
 77
     1
 78
     8
140
14.0
147
4.0
172
     1
173
     1
174
     1
175
     1
176
     4
177
     4
271
     2
178
     1
271
     2
340
17A
  0
DIMSTYLE
105
18A
102
{ACAD_REACTORS
330
18B
102
}
330
A
100
AcDbSymbolTableRecord
100
AcDbDimStyleTableRecord
  2
ME10_DIM_11
 70
     0
  3
DN<>
 41
14.0
 42
0.0
 44
4.0
 73
     0
 74
     0
 77
     1
 78
     8
140
14.0
147
4.0
172
     1
173
     1
174
     1
175
     1
176
     4
177
     4
271
     2
178
     1
271
     2
340
17A
  0
DIMSTYLE
105
195
102
{ACAD_REACTORS
330
196
102
}
330
A
100
AcDbSymbolTableRecord
100
AcDbDimStyleTableRecord
  2
ME10_DIM_12
 70
     0
 41
14.0
 42
0.0
 44
4.0
 73
     0
 74
     0
 77
     1
 78
     8
140
14.0
147
4.0
172
     1
173
     1
174
     1
175
     1
176
     4
177
     4
271
     0
178
     1
271
     0
340
17A
  0
DIMSTYLE
105
1A0
102
{ACAD_REACTORS
330
1A1
102
}
330
A
100
AcDbSymbolTableRecord
100
AcDbDimStyleTableRecord
  2
ME10_DIM_13
 70
     0
 41
14.0
 42
0.0
 44
4.0
 73
     0
 74
     0
 77
     1
 78
     8
140
14.0
147
4.0
172
     1
173
     1
174
     1
175
     1
176
     4
177
     4
271
     2
178
     1
271
     2
340
17A
  0
DIMSTYLE
105
1AB
102
{ACAD_REACTORS
330
1AC
102
}
330
A
100
AcDbSymbolTableRecord
100
AcDbDimStyleTableRecord
  2
ME10_DIM_14
 70
     0
  3
95-<>
 41
14.0
 42
0.0
 44
4.0
 73
     0
 74
     0
 77
     1
 78
     8
140
14.0
147
4.0
172
     1
173
     1
174
     1
175
     1
176
     4
177
     4
271
     2
178
     1
271
     2
340
17A
  0
DIMSTYLE
105
1B6
102
{ACAD_REACTORS
330
1B7
102
}
330
A
100
AcDbSymbolTableRecord
100
AcDbDimStyleTableRecord
  2
ME10_DIM_15
 70
     0
 41
14.0
 42
0.0
 44
4.0
 73
     0
 74
     0
 77
     1
 78
     8
140
14.0
147
4.0
172
     1
173
     1
174
     1
175
     1
176
     4
177
     4
271
     2
178
     1
271
     2
340
17A
  0
DIMSTYLE
105
1C2
102
{ACAD_REACTORS
330
1C3
102
}
330
A
100
AcDbSymbolTableRecord
100
AcDbDimStyleTableRecord
  2
ME10_DIM_16
 70
     0
  3
R<>
 41
14.0
 42
0.0
 44
4.0
 73
     0
 74
     0
 77
     1
 78
     8
140
14.0
147
4.0
172
     1
173
     1
174
     1
175
     1
176
     4
177
     4
271
     2
178
     1
271
     2
340
17A
  0
DIMSTYLE
105
1CF
102
{ACAD_REACTORS
330
1D0
102
}
330
A
100
AcDbSymbolTableRecord
100
AcDbDimStyleTableRecord
  2
ME10_DIM_17
 70
     0
 41
14.0
 42
0.0
 44
4.0
 73
     0
 74
     0
 77
     1
 78
     8
140
14.0
147
4.0
172
     1
173
     1
174
     1
175
     1
176
     4
177
     4
271
     2
178
     1
271
     2
340
17A
  0
DIMSTYLE
105
1DA
102
{ACAD_REACTORS
330
1DB
102
}
330
A
100
AcDbSymbolTableRecord
100
AcDbDimStyleTableRecord
  2
ME10_DIM_18
 70
     0
  3
35-<>
 41
14.0
 42
0.0
 44
4.0
 73
     0
 74
     0
 77
     1
 78
     8
140
14.0
147
4.0
172
     1
173
     1
174
     1
175
     1
176
     4
177
     4
271
     2
178
     1
271
     2
340
17A
  0
ENDTAB
  0
TABLE
  2
BLOCK_RECORD
  5
1
330
0
100
AcDbSymbolTable
 70
    25
  0
BLOCK_RECORD
  5
1F
330
1
100
AcDbSymbolTableRecord
100
AcDbBlockTableRecord
  2
*Model_Space
340
22
  0
BLOCK_RECORD
  5
1B
330
1
100
AcDbSymbolTableRecord
100
AcDbBlockTableRecord
  2
*Paper_Space
340
1E
  0
BLOCK_RECORD
  5
23
330
1
100
AcDbSymbolTableRecord
100
AcDbBlockTableRecord
  2
*Paper_Space0
340
26
  0
BLOCK_RECORD
  5
47
330
1
100
AcDbSymbolTableRecord
100
AcDbBlockTableRecord
  2
HL19_ABS_10003_ABS
340
0
102
{BLKREFS
331
4B
102
}
  0
BLOCK_RECORD
  5
4A
330
1
100
AcDbSymbolTableRecord
100
AcDbBlockTableRecord
  2
Katalog-HL19ABSC
340
0
102
{BLKREFS
331
5E
102
}
  0
BLOCK_RECORD
  5
4E
330
1
100
AcDbSymbolTableRecord
100
AcDbBlockTableRecord
  2
Holländermutter_6_4__1
340
0
102
{BLKREFS
331
5F
102
}
  0
BLOCK_RECORD
  5
51
330
1
100
AcDbSymbolTableRecord
100
AcDbBlockTableRecord
  2
Pfeife_DN40_6_4_abgesetzt
340
0
102
{BLKREFS
331
60
102
}
  0
BLOCK_RECORD
  5
54
330
1
100
AcDbSymbolTableRecord
100
AcDbBlockTableRecord
  2
HL_100_Krümmer
340
0
102
{BLKREFS
331
61
102
}
  0
BLOCK_RECORD
  5
57
330
1
100
AcDbSymbolTableRecord
100
AcDbBlockTableRecord
  2
HL_100_Abgangsbogen_DN40
340
0
102
{BLKREFS
331
62
102
}
  0
BLOCK_RECORD
  5
5A
330
1
100
AcDbSymbolTableRecord
100
AcDbBlockTableRecord
  2
Knie_DN40_6_4_kurz_025U_2E
340
0
102
{BLKREFS
331
63
102
}
  0
BLOCK_RECORD
  5
5D
330
1
100
AcDbSymbolTableRecord
100
AcDbBlockTableRecord
  2
HL_126_40_Raumsparsifon
340
0
102
{BLKREFS
331
7B
102
}
  0
BLOCK_RECORD
  5
66
330
1
100
AcDbSymbolTableRecord
100
AcDbBlockTableRecord
  2
Holländermutter_6_4__2
340
0
102
{BLKREFS
331
7C
102
}
  0
BLOCK_RECORD
  5
69
330
1
100
AcDbSymbolTableRecord
100
AcDbBlockTableRecord
  2
Holländermutter_6_4__3
340
0
102
{BLKREFS
331
7D
102
}
  0
BLOCK_RECORD
  5
6C
330
1
100
AcDbSymbolTableRecord
100
AcDbBlockTableRecord
  2
Holländermutter_2_
340
0
102
{BLKREFS
331
7E
102
}
  0
BLOCK_RECORD
  5
6F
330
1
100
AcDbSymbolTableRecord
100
AcDbBlockTableRecord
  2
Holländermutter_6_4__4
340
0
102
{BLKREFS
331
7F
102
}
  0
BLOCK_RECORD
  5
72
330
1
100
AcDbSymbolTableRecord
100
AcDbBlockTableRecord
  2
HL_13_Tauchrohr_Artikel
340
0
102
{BLKREFS
331
80
102
}
  0
BLOCK_RECORD
  5
75
330
1
100
AcDbSymbolTableRecord
100
AcDbBlockTableRecord
  2
Holländermutter_1
340
0
102
{BLKREFS
331
81
102
}
  0
BLOCK_RECORD
  5
78
330
1
100
AcDbSymbolTableRecord
100
AcDbBlockTableRecord
  2
Dichtstopfen
340
0
102
{BLKREFS
331
82
102
}
  0
BLOCK_RECORD
  5
174
330
1
100
AcDbSymbolTableRecord
100
AcDbBlockTableRecord
  2
*D16
340
0
  0
BLOCK_RECORD
  5
180
330
1
100
AcDbSymbolTableRecord
100
AcDbBlockTableRecord
  2
*D17
340
0
  0
BLOCK_RECORD
  5
18C
330
1
100
AcDbSymbolTableRecord
100
AcDbBlockTableRecord
  2
*D18
340
0
  0
BLOCK_RECORD
  5
197
330
1
100
AcDbSymbolTableRecord
100
AcDbBlockTableRecord
  2
*D19
340
0
  0
BLOCK_RECORD
  5
1A2
330
1
100
AcDbSymbolTableRecord
100
AcDbBlockTableRecord
  2
*D20
340
0
  0
BLOCK_RECORD
  5
1AD
330
1
100
AcDbSymbolTableRecord
100
AcDbBlockTableRecord
  2
*D21
340
0
  0
BLOCK_RECORD
  5
1B8
330
1
100
AcDbSymbolTableRecord
100
AcDbBlockTableRecord
  2
*D22
340
0
  0
BLOCK_RECORD
  5
1C4
330
1
100
AcDbSymbolTableRecord
100
AcDbBlockTableRecord
  2
*D23
340
0
  0
BLOCK_RECORD
  5
1D1
330
1
100
AcDbSymbolTableRecord
100
AcDbBlockTableRecord
  2
*D24
340
0
  0
ENDTAB
  0
ENDSEC
  0
SECTION
  2
BLOCKS
  0
BLOCK
  5
20
330
1F
100
AcDbEntity
  8
0
100
AcDbBlockBegin
  2
*Model_Space
 70
     0
 10
0.0
 20
0.0
 30
0.0
  3
*Model_Space
  1

  0
ENDBLK
  5
21
330
1F
100
AcDbEntity
  8
0
100
AcDbBlockEnd
  0
BLOCK
  5
1C
330
1B
100
AcDbEntity
 67
     1
  8
0
100
AcDbBlockBegin
  2
*Paper_Space
 70
     0
 10
0.0
 20
0.0
 30
0.0
  3
*Paper_Space
  1

  0
ENDBLK
  5
1D
330
1B
100
AcDbEntity
 67
     1
  8
0
100
AcDbBlockEnd
  0
BLOCK
  5
24
330
23
100
AcDbEntity
  8
0
100
AcDbBlockBegin
  2
*Paper_Space0
 70
     0
 10
0.0
 20
0.0
 30
0.0
  3
*Paper_Space0
  1

  0
ENDBLK
  5
25
330
23
100
AcDbEntity
  8
0
100
AcDbBlockEnd
  0
BLOCK
  5
48
330
47
100
AcDbEntity
  8
0
100
AcDbBlockBegin
  2
HL19_ABS_10003_ABS
 70
     0
 10
-372.0814509299996
 20
-102.8501854819116
 30
0.0
  3
HL19_ABS_10003_ABS
  1

  0
LINE
  5
83
330
47
100
AcDbEntity
  8
1
  6
DOT_CENTER
 62
     2
100
AcDbLine
 10
-396.4586217364723
 20
-133.9483426166658
 30
0.0
 11
-387.7105380120087
 21
-101.3000496880946
 31
0.0
  0
LINE
  5
84
330
47
100
AcDbEntity
  8
1
  6
DOT_CENTER
 62
     2
100
AcDbLine
 10
-383.9058980490026
 20
-87.10094004164517
 30
0.0
 11
-387.5811284894576
 21
-100.8170867749501
 31
0.0
  0
LINE
  5
85
330
47
100
AcDbEntity
  8
1
  6
DOT_CENTER
 62
     2
100
AcDbLine
 10
-342.3271211558213
 20
-88.40681601854882
 30
0.0
 11
-344.6253984708544
 21
-87.79099446800298
 31
0.0
  0
LINE
  5
86
330
47
100
AcDbEntity
  8
1
  6
DOT_CENTER
 62
     2
100
AcDbLine
 10
-372.2708217707829
 20
-80.38342562037232
 30
0.0
 11
-359.5972487783353
 21
-83.77929926891481
 31
0.0
  0
LINE
  5
87
330
47
100
AcDbEntity
  8
0
  6
Continuous
 62
     7
100
AcDbLine
 10
-382.2697812277183
 20
-116.7341245101951
 30
0.0
 11
-378.8970872385464
 21
-110.9085399682454
 31
0.0
  0
LINE
  5
88
330
47
100
AcDbEntity
  8
0
  6
Continuous
 62
     7
100
AcDbLine
 10
-386.2468012497462
 20
-129.6447136425465
 30
0.0
 11
-383.598551630291
 21
-123.6250148167699
 31
0.0
  0
LINE
  5
89
330
47
100
AcDbEntity
  8
0
  6
Continuous
 62
     7
100
AcDbLine
 10
-400.1394090140663
 20
-111.9459721757994
 30
0.0
 11
-382.2697812277183
 21
-116.7341245101951
 31
0.0
  0
LINE
  5
8A
330
47
100
AcDbEntity
  8
0
  6
Continuous
 62
     7
100
AcDbLine
 10
-384.3229960000078
 20
-123.4309005329431
 30
0.0
 11
-381.3038554014292
 21
-116.9929435552975
 31
0.0
  0
LINE
  5
8B
330
47
100
AcDbEntity
  8
0
  6
Continuous
 62
     7
100
AcDbLine
 10
-397.3697962748998
 20
-98.71185923706999
 30
0.0
 11
-378.0512797491181
 21
-103.8882401391194
 31
0.0
  0
LINE
  5
8C
330
47
100
AcDbEntity
  8
0
  6
Continuous
 62
     7
100
AcDbLine
 10
-378.0512797491181
 20
-103.8882401391194
 30
0.0
 11
-376.3609095531123
 21
-104.3411734680487
 31
0.0
  0
LINE
  5
8D
330
47
100
AcDbEntity
  8
0
  6
Continuous
 62
     7
100
AcDbLine
 10
-380.34597597798
 20
-110.5203114005917
 30
0.0
 11
-376.3609095531123
 21
-104.3411734680487
 31
0.0
  0
LINE
  5
8E
330
47
100
AcDbEntity
  8
0
  6
Continuous
 62
     3
100
AcDbLine
 10
-396.757423839204
 20
-98.35830584647668
 30
0.0
 11
-378.4048331397113
 21
-103.2758677034236
 31
0.0
  0
LINE
  5
8F
330
47
100
AcDbEntity
  8
0
  6
Continuous
 62
     7
100
AcDbLine
 10
-402.4341052429281
 20
-118.5780434372718
 30
0.0
 11
-401.7096608732113
 21
-118.7721577210986
 31
0.0
  0
LINE
  5
90
330
47
100
AcDbEntity
  8
0
  6
Continuous
 62
     7
100
AcDbLine
 10
-401.7096608732113
 20
-118.7721577210986
 30
0.0
 11
-384.3229960000078
 21
-123.4309005329431
 31
0.0
  0
LINE
  5
91
330
47
100
AcDbEntity
  8
0
  6
Continuous
 62
     7
100
AcDbLine
 10
-384.3229960000078
 20
-123.4309005329431
 30
0.0
 11
-383.598551630291
 21
-123.6250148167699
 31
0.0
  0
LINE
  5
92
330
47
100
AcDbEntity
  8
0
  6
Continuous
 62
     7
100
AcDbLine
 10
-382.2697812277183
 20
-116.7341245101951
 30
0.0
 11
-381.3038554014292
 21
-116.9929435552975
 31
0.0
  0
LINE
  5
93
330
47
100
AcDbEntity
  8
0
  6
Continuous
 62
     7
100
AcDbLine
 10
-398.6985666774726
 20
-105.6027495436448
 30
0.0
 11
-380.34597597798
 21
-110.5203114005917
 31
0.0
  0
LINE
  5
94
330
47
100
AcDbEntity
  8
0
  6
Continuous
 62
     7
100
AcDbLine
 10
-380.34597597798
 20
-110.5203114005917
 30
0.0
 11
-378.8970872385464
 21
-110.9085399682454
 31
0.0
  0
LINE
  5
95
330
47
100
AcDbEntity
  8
0
  6
Continuous
 62
     7
100
AcDbLine
 10
-403.1505032098051
 20
-125.1153803532533
 30
0.0
 11
-402.4341052429281
 21
-118.5780434372718
 31
0.0
  0
LINE
  5
96
330
47
100
AcDbEntity
  8
0
  6
Continuous
 62
     7
100
AcDbLine
 10
-403.3919846663774
 20
-125.0506755919777
 30
0.0
 11
-403.1505032098051
 21
-125.1153803532533
 31
0.0
  0
LINE
  5
97
330
47
100
AcDbEntity
  8
0
  6
Continuous
 62
     7
100
AcDbLine
 10
-403.1505032098051
 20
-125.1153803532533
 30
0.0
 11
-386.2468012497462
 21
-129.6447136425465
 31
0.0
  0
LINE
  5
98
330
47
100
AcDbEntity
  8
0
  6
Continuous
 62
     7
100
AcDbLine
 10
-386.2468012497462
 20
-129.6447136425465
 30
0.0
 11
-386.0053197931739
 21
-129.7094184038221
 31
0.0
  0
LINE
  5
99
330
47
100
AcDbEntity
  8
0
  6
Continuous
 62
     7
100
AcDbLine
 10
-404.6827902003051
 20
-131.7446833183647
 30
0.0
 11
-403.3919846663774
 21
-125.0506755919777
 31
0.0
  0
LINE
  5
9A
330
47
100
AcDbEntity
  8
0
  6
Continuous
 62
     7
100
AcDbLine
 10
-403.7030654336405
 20
-132.0071997783971
 30
0.0
 11
-389.2141780393043
 21
-135.8894854549342
 31
0.0
  0
LINE
  5
9B
330
47
100
AcDbEntity
  8
0
  6
Continuous
 62
     7
100
AcDbLine
 10
-404.6827902003051
 20
-131.7446833183647
 30
0.0
 11
-403.7030654336405
 21
-132.0071997783971
 31
0.0
  0
LINE
  5
9C
330
47
100
AcDbEntity
  8
0
  6
Continuous
 62
     7
100
AcDbLine
 10
-389.2141780393043
 20
-135.8894854549342
 30
0.0
 11
-388.2344532726397
 21
-136.1520019149666
 31
0.0
  0
LINE
  5
9D
330
47
100
AcDbEntity
  8
0
  6
Continuous
 62
     7
100
AcDbLine
 10
-388.2344532726397
 20
-136.1520019149666
 30
0.0
 11
-386.0053197931739
 21
-129.7094184038221
 31
0.0
  0
LINE
  5
9E
330
47
100
AcDbEntity
  8
0
  6
Continuous
 62
     7
100
AcDbLine
 10
-400.1394090140663
 20
-111.9459721757994
 30
0.0
 11
-400.1474554169062
 21
-105.2145209759911
 31
0.0
  0
LINE
  5
9F
330
47
100
AcDbEntity
  8
0
  6
Continuous
 62
     7
100
AcDbLine
 10
-398.6985666774726
 20
-105.6027495436448
 30
0.0
 11
-399.0601664709058
 21
-98.25892590814065
 31
0.0
  0
LINE
  5
A0
330
47
100
AcDbEntity
  8
0
  6
Continuous
 62
     7
100
AcDbLine
 10
-393.0821933987489
 20
-84.64215911317172
 30
0.0
 11
-396.757423839204
 21
-98.35830584647668
 31
0.0
  0
LINE
  5
A1
330
47
100
AcDbEntity
  8
0
  6
Continuous
 62
     7
100
AcDbLine
 10
-393.0821933987489
 20
-84.64215911317172
 30
0.0
 11
-391.9175076957878
 21
-80.29549289487085
 31
0.0
  0
LINE
  5
A2
330
47
100
AcDbEntity
  8
0
  6
Continuous
 62
     3
100
AcDbLine
 10
-393.0495990620807
 20
-84.6508927393598
 30
0.0
 11
-393.0821933987489
 21
-84.64215911317172
 31
0.0
  0
LINE
  5
A3
330
47
100
AcDbEntity
  8
0
  6
Continuous
 62
     7
100
AcDbLine
 10
-399.0601664709058
 20
-98.25892590814065
 30
0.0
 11
-397.3697962748998
 21
-98.71185923706999
 31
0.0
  0
LINE
  5
A4
330
47
100
AcDbEntity
  8
0
  6
Continuous
 62
     7
100
AcDbLine
 10
-400.1474554169062
 20
-105.2145209759911
 30
0.0
 11
-398.6985666774726
 21
-105.6027495436448
 31
0.0
  0
LINE
  5
A5
330
47
100
AcDbEntity
  8
0
  6
Continuous
 62
     7
100
AcDbLine
 10
-401.7096608732113
 20
-118.7721577210986
 30
0.0
 11
-401.1053348403554
 21
-111.687153130697
 31
0.0
  0
LINE
  5
A6
330
47
100
AcDbEntity
  8
0
  6
Continuous
 62
     7
100
AcDbLine
 10
-401.1053348403554
 20
-111.687153130697
 30
0.0
 11
-400.1394090140663
 21
-111.9459721757994
 31
0.0
  0
LINE
  5
A7
330
47
100
AcDbEntity
  8
0
  6
Continuous
 62
     7
100
AcDbLine
 10
-339.4801116596942
 20
-77.78163192936881
 30
0.0
 11
-339.7483538618083
 21
-77.31702280657294
 31
0.0
  0
LINE
  5
A8
330
47
100
AcDbEntity
  8
0
  6
Continuous
 62
     7
100
AcDbLine
 10
-339.4801116596942
 20
-77.78163192936881
 30
0.0
 11
-345.1741306519485
 21
-99.03200010772882
 31
0.0
  0
LINE
  5
A9
330
47
100
AcDbEntity
  8
0
  6
Continuous
 62
     7
100
AcDbLine
 10
-374.7296026992563
 20
-89.5597209701186
 30
0.0
 11
-362.0560297068087
 21
-92.9555946186611
 31
0.0
  0
LINE
  5
AA
330
47
100
AcDbEntity
  8
0
  6
Continuous
 62
     7
100
AcDbLine
 10
-345.1741306519485
 20
-99.03200010772882
 30
0.0
 11
-345.6387397747444
 21
-99.30024230984306
 31
0.0
  0
LINE
  5
AB
330
47
100
AcDbEntity
  8
0
  6
Continuous
 62
     7
100
AcDbLine
 10
-374.7296026992563
 20
-89.5597209701186
 30
0.0
 11
-378.4048331397113
 21
-103.2758677034236
 31
0.0
  0
LINE
  5
AC
330
47
100
AcDbEntity
  8
0
  6
Continuous
 62
     7
100
AcDbLine
 10
-369.8120408423094
 20
-71.20713027062604
 30
0.0
 11
-357.1384678498619
 21
-74.60300391916853
 31
0.0
  0
LINE
  5
AD
330
47
100
AcDbEntity
  8
0
  6
Continuous
 62
     7
100
AcDbLine
 10
-369.8120408423094
 20
-71.20713027062604
 30
0.0
 11
-374.1587070606103
 21
-70.04244456766494
 31
0.0
  0
LINE
  5
AE
330
47
100
AcDbEntity
  8
0
  6
Continuous
 62
     3
100
AcDbLine
 10
-369.8207744684975
 20
-71.23972460729428
 30
0.0
 11
-369.8120408423094
 21
-71.20713027062604
 31
0.0
  0
LINE
  5
AF
330
47
100
AcDbEntity
  8
0
  6
Continuous
 62
     3
100
AcDbLine
 10
-374.7296026992563
 20
-89.5597209701186
 30
0.0
 11
-369.8207744684975
 21
-71.23972460729428
 31
0.0
  0
LINE
  5
B0
330
47
100
AcDbEntity
  8
0
  6
Continuous
 62
     3
100
AcDbLine
 10
-374.7296026992563
 20
-89.5597209701186
 30
0.0
 11
-393.0495990620807
 21
-84.6508927393598
 31
0.0
  0
ARC
  5
B1
330
47
100
AcDbEntity
  8
0
  6
Continuous
 62
     7
100
AcDbCircle
 10
-374.7296026992563
 20
-89.5597209701186
 30
0.0
 40
19.00000000000001
100
AcDbArc
 50
75.00000000000306
 51
165.0000000000032
  0
ARC
  5
B2
330
47
100
AcDbEntity
  8
0
  6
Continuous
 62
     7
100
AcDbCircle
 10
-377.9218702265668
 20
-103.4052772259748
 30
0.0
 40
0.4999999999999419
100
AcDbArc
 50
165.0000000000054
 51
254.9999999999946
  0
ARC
  5
B3
330
47
100
AcDbEntity
  8
0
  6
Continuous
 62
     7
100
AcDbCircle
 10
-397.2403867523485
 20
-98.22889632392544
 30
0.0
 40
0.5000000000000152
100
AcDbArc
 50
254.9999999999993
 51
345.0000000000007
  0
ARC
  5
B4
330
47
100
AcDbEntity
  8
0
  6
Continuous
 62
     3
100
AcDbCircle
 10
-374.7296026992563
 20
-89.5597209701186
 30
0.0
 40
18.9662558596311
100
AcDbArc
 50
75.00000000000321
 51
165.0000000000032
  0
ARC
  5
B5
330
47
100
AcDbEntity
  8
0
  6
Continuous
 62
     7
100
AcDbCircle
 10
-377.9115832145961
 20
-84.04836904885664
 30
0.0
 40
14.5
100
AcDbArc
 50
75.00000000000321
 51
165.0000000000031
  0
ARC
  5
B6
330
47
100
AcDbEntity
  8
0
  6
Continuous
 62
     3
100
AcDbCircle
 10
-381.4471171205293
 20
-77.92464469189886
 30
0.0
 40
1.543712436559684
100
AcDbArc
 50
17.77577707086421
 51
222.2242229291936
  0
ARC
  5
B7
330
47
100
AcDbEntity
  8
0
  6
Continuous
 62
     3
100
AcDbCircle
 10
-381.4471171205293
 20
-77.92464469189886
 30
0.0
 40
1.248270110646836
100
AcDbArc
 50
342.3915449066009
 51
257.608455093413
  0
ARC
  5
B8
330
47
100
AcDbEntity
  8
0
  6
Continuous
 62
     7
100
AcDbCircle
 10
-374.7296026992563
 20
-89.5597209701186
 30
0.0
 40
12.54138126514927
100
AcDbArc
 50
116.1523389503326
 51
123.8476610496742
  0
SPLINE
  5
B9
330
47
100
AcDbEntity
  8
0
  6
Continuous
 62
     7
100
AcDbSpline
210
0.0
220
0.0
230
1.0
 70
     8
 71
     3
 72
    39
 73
    35
 74
    33
 42
0.000000001
 43
0.0000000001
 44
0.00000001
 40
0.0
 40
0.0
 40
0.0
 40
0.0
 40
0.1177780265596187
 40
0.2222550528379074
 40
0.3321237506740319
 40
0.4420271691150171
 40
0.6583162300859389
 40
0.874498818418996
 40
1.075473671946997
 40
1.276107302124901
 40
1.382657404056875
 40
1.477979307854324
 40
1.586291329373846
 40
1.682967782486733
 40
1.847099949043728
 40
2.010887696227295
 40
2.164669111040562
 40
2.349911604059291
 40
2.516372850420252
 40
2.656543559203942
 40
2.825844903446742
 40
2.968160554728764
 40
3.276648930834598
 40
3.585585405744019
 40
3.918976346677211
 40
4.253699939441004
 40
4.656889969852144
 40
5.061814371535521
 40
5.175544521161959
 40
5.276771486303909
 40
5.390698334713257
 40
5.492065070682765
 40
5.711951743565431
 40
5.931619272746671
 40
5.931619272746671
 40
5.931619272746671
 40
5.931619272746671
 10
-379.9771037596115
 20
-77.45336048304796
 30
0.0
 10
-379.9871095903063
 20
-77.4153794045215
 30
0.0
 10
-380.0059912746434
 20
-77.34370655899755
 30
0.0
 10
-380.0434757193425
 20
-77.23941306030534
 30
0.0
 10
-380.0861748426096
 20
-77.14004874161108
 30
0.0
 10
-380.152609349693
 20
-77.01065422510776
 30
0.0
 10
-380.2510327350957
 20
-76.85832778358075
 30
0.0
 10
-380.388418286107
 20
-76.69717916862457
 30
0.0
 10
-380.5412418958141
 20
-76.55839646469803
 30
0.0
 10
-380.6800731170058
 20
-76.46053869055478
 30
0.0
 10
-380.7966283610098
 20
-76.3939162507399
 30
0.0
 10
-380.8894719238751
 20
-76.34827833387796
 30
0.0
 10
-380.9819923962696
 20
-76.30984919310573
 30
0.0
 10
-381.0984602061151
 20
-76.26997723668345
 30
0.0
 10
-381.2359123349901
 20
-76.23513082779593
 30
0.0
 10
-381.3950790845935
 20
-76.21189105801594
 30
0.0
 10
-381.5627733626984
 20
-76.20445617398724
 30
0.0
 10
-381.7313362053042
 20
-76.2152430091958
 30
0.0
 10
-381.8930458247074
 20
-76.24417037468447
 30
0.0
 10
-382.0458762449913
 20
-76.2874634913859
 30
0.0
 10
-382.1862403783163
 20
-76.34294809021736
 30
0.0
 10
-382.3700073324676
 20
-76.43806405007918
 30
0.0
 10
-382.5770036426228
 20
-76.5872097022496
 30
0.0
 10
-382.7934330113366
 20
-76.82152275251913
 30
0.0
 10
-382.9619122363691
 20
-77.10320517102045
 30
0.0
 10
-383.0773733241627
 20
-77.44385704437232
 30
0.0
 10
-383.114241923165
 20
-77.82704310750579
 30
0.0
 10
-383.0664689584734
 20
-78.134197028314
 30
0.0
 10
-383.0028389836882
 20
-78.33088278044686
 30
0.0
 10
-382.9623016935019
 20
-78.43281722460708
 30
0.0
 10
-382.916951814723
 20
-78.52819613946065
 30
0.0
 10
-382.8459889685487
 20
-78.65473301155329
 30
0.0
 10
-382.743689464623
 20
-78.80431152554485
 30
0.0
 10
-382.6413914224046
 20
-78.90950232672171
 30
0.0
 10
-382.5902678982543
 20
-78.96207150193175
 30
0.0
 11
-379.9771037596115
 21
-77.45336048304796
 31
0.0
 11
-380.008863078044
 21
-77.33994526770086
 31
0.0
 11
-380.0438257638562
 21
-77.2414919289224
 31
0.0
 11
-380.0873053193355
 21
-77.14059267648089
 31
0.0
 11
-380.1374795080844
 21
-77.04281071373775
 31
0.0
 11
-380.2548833082535
 21
-76.86115910824728
 31
0.0
 11
-380.3951319449339
 21
-76.69664396748448
 31
0.0
 11
-380.5439244536456
 21
-76.56154518434246
 31
0.0
 11
-380.7079222729686
 21
-76.44596590886948
 31
0.0
 11
-380.8004277165187
 21
-76.39309183994418
 31
0.0
 11
-380.8859748612051
 21
-76.35104482573942
 31
0.0
 11
-380.9860031915351
 21
-76.3095017496775
 31
0.0
 11
-381.0774697873065
 21
-76.27819362820232
 31
0.0
 11
-381.2365744197229
 21
-76.23788129610215
 31
0.0
 11
-381.3986462054824
 21
-76.21423467968529
 31
0.0
 11
-381.5522774993196
 21
-76.20744136173832
 31
0.0
 11
-381.7371400448001
 21
-76.21929971777678
 31
0.0
 11
-381.9009983336993
 21
-76.24862219704309
 31
0.0
 11
-382.0358596358742
 21
-76.28683550418371
 31
0.0
 11
-382.1933056244728
 21
-76.34907460712323
 31
0.0
 11
-382.3196889998549
 21
-76.41450385973097
 31
0.0
 11
-382.5699715541203
 21
-76.5948472032659
 31
0.0
 11
-382.7796662642127
 21
-76.82171693333386
 31
0.0
 11
-382.9509253634291
 21
-77.10775861003532
 31
0.0
 11
-383.058528497771
 21
-77.42471515185451
 31
0.0
 11
-383.0972714849325
 21
-77.82603943732012
 31
0.0
 11
-383.0353107655221
 21
-78.22619520814656
 31
0.0
 11
-383.0003154881089
 21
-78.33440739575582
 31
0.0
 11
-382.9629136234874
 21
-78.42847119880477
 31
0.0
 11
-382.9139592362025
 21
-78.53134391059027
 31
0.0
 11
-382.8644820978719
 21
-78.61981553328759
 31
0.0
 11
-382.7388509712412
 21
-78.80027874202017
 31
0.0
 11
-382.5902678982543
 21
-78.96207150193175
 31
0.0
  0
SPLINE
  5
BA
330
47
100
AcDbEntity
  8
0
  6
Continuous
 62
     7
100
AcDbSpline
210
0.0
220
0.0
230
1.0
 70
     8
 71
     3
 72
    23
 73
    19
 74
    17
 42
0.000000001
 43
0.0000000001
 44
0.00000001
 40
0.0
 40
0.0
 40
0.0
 40
0.0
 40
0.0532060288347892
 40
0.1140263690513687
 40
0.1753878423401682
 40
0.2298825586279448
 40
0.2920047638695779
 40
0.3467937544916853
 40
0.4097533404947719
 40
0.4645423758507946
 40
0.5192264740646633
 40
0.5841403144895636
 40
0.6381155931321876
 40
0.7044580693736802
 40
0.8139844563235823
 40
0.9044735229127503
 40
0.9288551504923356
 40
0.9476573164942547
 40
0.9476573164942547
 40
0.9476573164942547
 40
0.9476573164942547
 10
-379.9771037596115
 20
-77.45336048304796
 30
0.0
 10
-379.9732661157171
 20
-77.47068163765815
 30
0.0
 10
-379.9650416367175
 20
-77.50780277899824
 30
0.0
 10
-379.9572672745967
 20
-77.56581989541512
 30
0.0
 10
-379.9532835193786
 20
-77.62461576369904
 30
0.0
 10
-379.9532246253412
 20
-77.68398016624812
 30
0.0
 10
-379.9568457757025
 20
-77.74104648601025
 30
0.0
 10
-379.9644668783818
 20
-77.80055088459036
 30
0.0
 10
-379.9754074893056
 20
-77.85706090510244
 30
0.0
 10
-379.9899158454142
 20
-77.91271146277691
 30
0.0
 10
-380.0079195994572
 20
-77.96801737357607
 30
0.0
 10
-380.0294525412576
 20
-78.02177720644978
 30
0.0
 10
-380.0562781080451
 20
-78.07743415414534
 30
0.0
 10
-380.0945027139962
 20
-78.14391865694596
 30
0.0
 10
-380.1474582491592
 20
-78.21563304077995
 30
0.0
 10
-380.2020851482654
 20
-78.26758217675648
 30
0.0
 10
-380.2390374264979
 20
-78.29263325623981
 30
0.0
 10
-380.2517836984725
 20
-78.2993396285955
 30
0.0
 10
-380.2573334115531
 20
-78.30225956844512
 30
0.0
 11
-379.9771037596115
 21
-77.45336048304796
 31
0.0
 11
-379.9662810411047
 21
-77.5054541457211
 31
0.0
 11
-379.9579506099558
 21
-77.56570128098613
 31
0.0
 11
-379.9538507329141
 21
-77.62692563355793
 31
0.0
 11
-379.9537735598657
 21
-77.68142029533622
 31
0.0
 11
-379.9577019429916
 21
-77.74341816805014
 31
0.0
 11
-379.9646570826661
 21
-77.79776390888425
 31
0.0
 11
-379.9766234194179
 21
-77.85957585171268
 31
0.0
 11
-379.990448443001
 21
-77.91259195426454
 31
0.0
 11
-380.0073839664096
 21
-77.96458751803458
 31
0.0
 11
-380.0315455234904
 21
-78.02483721382279
 31
0.0
 11
-380.0550072991908
 21
-78.07344663455552
 31
0.0
 11
-380.0881344673858
 21
-78.13092632549542
 31
0.0
 11
-380.1539195412544
 21
-78.21849546055077
 31
0.0
 11
-380.2205305430966
 21
-78.27974287131401
 31
0.0
 11
-380.2408375617003
 21
-78.29323689384967
 31
0.0
 11
-380.2573334115531
 21
-78.30225956844512
 31
0.0
  0
SPLINE
  5
BB
330
47
100
AcDbEntity
  8
0
  6
Continuous
 62
     7
100
AcDbSpline
210
0.0
220
0.0
230
1.0
 70
     8
 71
     3
 72
    21
 73
    17
 74
    15
 42
0.000000001
 43
0.0000000001
 44
0.00000001
 40
0.0
 40
0.0
 40
0.0
 40
0.0
 40
0.0208496131651549
 40
0.0432556775422275
 40
0.1337853821849809
 40
0.2433592839067724
 40
0.3095998264003723
 40
0.363518904193948
 40
0.418184636593494
 40
0.4827191890954675
 40
0.5376795434520134
 40
0.6008671714240079
 40
0.6554326231480064
 40
0.7172689452345876
 40
0.8328919387197209
 40
0.947530331856061
 40
0.947530331856061
 40
0.947530331856061
 40
0.947530331856061
 10
-381.7149848990811
 20
-79.1438350471543
 30
0.0
 10
-381.7208762649455
 20
-79.14753087918443
 30
0.0
 10
-381.7330988020926
 20
-79.15519842931695
 30
0.0
 10
-381.7733565692826
 20
-79.17455553931435
 30
0.0
 10
-381.8450566143491
 20
-79.19570270564851
 30
0.0
 10
-381.9336382092873
 20
-79.20568517252728
 30
0.0
 10
-382.0102899180343
 20
-79.20553676543403
 30
0.0
 10
-382.0684432539308
 20
-79.20119590110906
 30
0.0
 10
-382.1256454220636
 20
-79.19332357033073
 30
0.0
 10
-382.1825563207506
 20
-79.18160335239483
 30
0.0
 10
-382.24130615217
 20
-79.16545680635991
 30
0.0
 10
-382.295769550526
 20
-79.14665980994084
 30
0.0
 10
-382.3510443420121
 20
-79.12356430630831
 30
0.0
 10
-382.4203211181389
 20
-79.08913999291417
 30
0.0
 10
-382.5037376837737
 20
-79.038023348853
 30
0.0
 10
-382.5615068367279
 20
-78.9873165133417
 30
0.0
 10
-382.5902678982543
 20
-78.96207150193175
 30
0.0
 11
-381.7149848990811
 21
-79.1438350471543
 31
0.0
 11
-381.7328433997415
 21
-79.1545951883366
 31
0.0
 11
-381.7529520603628
 21
-79.16447817390589
 31
0.0
 11
-381.8393438424709
 21
-79.19153528167826
 31
0.0
 11
-381.9481233477051
 21
-79.20470567013712
 31
0.0
 11
-382.0143638630867
 21
-79.2046456934782
 31
0.0
 11
-382.0681355552448
 21
-79.20066171518916
 31
0.0
 11
-382.1222931160212
 21
-79.1932252559756
 31
0.0
 11
-382.1855044726894
 21
-79.18022399125142
 31
0.0
 11
-382.2385003748879
 21
-79.16566119871695
 31
0.0
 11
-382.298232290194
 21
-79.14505113669544
 31
0.0
 11
-382.3485709297639
 21
-79.1239938361726
 31
0.0
 11
-382.403981722522
 21
-79.09654616304351
 31
0.0
 11
-382.5020046717769
 21
-79.03522587744307
 31
0.0
 11
-382.5902678982543
 21
-78.96207150193175
 31
0.0
  0
ENDBLK
  5
49
330
47
100
AcDbEntity
  8
0
100
AcDbBlockEnd
  0
BLOCK
  5
4C
330
4A
100
AcDbEntity
  8
0
100
AcDbBlockBegin
  2
Katalog-HL19ABSC
 70
     0
 10
-371.7248624521566
 20
-102.2704418343284
 30
0.0
  3
Katalog-HL19ABSC
  1

  0
INSERT
  5
4B
330
4A
100
AcDbEntity
  8
0
100
AcDbBlockReference
  2
HL19_ABS_10003_ABS
 10
-372.0814509299996
 20
-102.8501854819116
 30
0.0
  0
ENDBLK
  5
4D
330
4A
100
AcDbEntity
  8
0
100
AcDbBlockEnd
  0
BLOCK
  5
4F
330
4E
100
AcDbEntity
  8
0
100
AcDbBlockBegin
  2
Holländermutter_6_4__1
 70
     0
 10
0.00000000000913
 20
-7.0
 30
0.0
  3
Holländermutter_6_4__1
  1

  0
LINE
  5
BC
330
4E
100
AcDbEntity
  8
1
  6
PHANTOM
 62
     2
100
AcDbLine
 10
0.0
 20
-2.5
 30
0.0
 11
0.0
 21
0.0
 31
0.0
  0
LINE
  5
BD
330
4E
100
AcDbEntity
  8
0
  6
Continuous
 62
     7
100
AcDbLine
 10
-20.0991005034266
 20
-2.5
 30
0.0
 11
-18.04849083798791
 21
-2.5
 31
0.0
  0
LINE
  5
BE
330
4E
100
AcDbEntity
  8
0
  6
Continuous
 62
     7
100
AcDbLine
 10
-26.42442052344643
 20
-2.5
 30
0.0
 11
-20.8769179627343
 21
-2.5
 31
0.0
  0
LINE
  5
BF
330
4E
100
AcDbEntity
  8
0
  6
Continuous
 62
     7
100
AcDbLine
 10
17.27067337868351
 20
-2.5
 30
0.0
 11
2.0
 21
-2.5
 31
0.0
  0
LINE
  5
C0
330
4E
100
AcDbEntity
  8
0
  6
Continuous
 62
     7
100
AcDbLine
 10
-27.5244205234485
 20
-2.5
 30
0.0
 11
-26.42442052344643
 21
-2.5
 31
0.0
  0
LINE
  5
C1
330
4E
100
AcDbEntity
  8
0
  6
Continuous
 62
     7
100
AcDbLine
 10
-27.5244205234485
 20
-15.75771736332217
 30
0.0
 11
-27.5244205234485
 21
-2.5
 31
0.0
  0
LINE
  5
C2
330
4E
100
AcDbEntity
  8
0
  6
Continuous
 62
     7
100
AcDbLine
 10
-26.42442052344643
 20
-16.67819926235507
 30
0.0
 11
-20.0991005034266
 21
-16.67819926235507
 31
0.0
  0
LINE
  5
C3
330
4E
100
AcDbEntity
  8
0
  6
Continuous
 62
     7
100
AcDbLine
 10
2.0
 20
-16.67819926235507
 30
0.0
 11
2.0
 21
-15.75771736332217
 31
0.0
  0
LINE
  5
C4
330
4E
100
AcDbEntity
  8
0
  6
Continuous
 62
     7
100
AcDbLine
 10
-26.42442052344643
 20
-16.67819926235507
 30
0.0
 11
-26.42442052344643
 21
-2.5
 31
0.0
  0
LINE
  5
C5
330
4E
100
AcDbEntity
  8
0
  6
Continuous
 62
     7
100
AcDbLine
 10
-28.5
 20
-2.5
 30
0.0
 11
-28.5
 21
0.0
 31
0.0
  0
LINE
  5
C6
330
4E
100
AcDbEntity
  8
0
  6
Continuous
 62
     7
100
AcDbLine
 10
28.5
 20
-2.5
 30
0.0
 11
28.5
 21
0.0
 31
0.0
  0
LINE
  5
C7
330
4E
100
AcDbEntity
  8
0
  6
Continuous
 62
     7
100
AcDbLine
 10
-28.5
 20
0.0
 30
0.0
 11
28.5
 21
0.0
 31
0.0
  0
LINE
  5
C8
330
4E
100
AcDbEntity
  8
0
  6
Continuous
 62
     7
100
AcDbLine
 10
27.52442052344838
 20
-15.75771736332217
 30
0.0
 11
27.52442052344838
 21
-2.5
 31
0.0
  0
LINE
  5
C9
330
4E
100
AcDbEntity
  8
0
  6
Continuous
 62
     7
100
AcDbLine
 10
26.42442052344626
 20
-2.5
 30
0.0
 11
20.87691796273418
 21
-2.5
 31
0.0
  0
LINE
  5
CA
330
4E
100
AcDbEntity
  8
0
  6
Continuous
 62
     7
100
AcDbLine
 10
26.42442052344626
 20
-16.67819926235507
 30
0.0
 11
26.42442052344626
 21
-2.5
 31
0.0
  0
LINE
  5
CB
330
4E
100
AcDbEntity
  8
0
  6
Continuous
 62
     7
100
AcDbLine
 10
26.42442052344626
 20
-16.67819926235507
 30
0.0
 11
20.09910050342648
 21
-16.67819926235507
 31
0.0
  0
LINE
  5
CC
330
4E
100
AcDbEntity
  8
0
  6
Continuous
 62
     7
100
AcDbLine
 10
-20.15254326381552
 20
-2.5
 30
0.0
 11
-20.0991005034266
 21
-2.5
 31
0.0
  0
LINE
  5
CD
330
4E
100
AcDbEntity
  8
0
  6
Continuous
 62
     7
100
AcDbLine
 10
-2.0
 20
-2.5
 30
0.0
 11
0.0
 21
-2.5
 31
0.0
  0
LINE
  5
CE
330
4E
100
AcDbEntity
  8
0
  6
Continuous
 62
     7
100
AcDbLine
 10
18.0484908379874
 20
-2.5
 30
0.0
 11
20.09910050342648
 21
-2.5
 31
0.0
  0
LINE
  5
CF
330
4E
100
AcDbEntity
  8
0
  6
Continuous
 62
     7
100
AcDbLine
 10
18.0484908379874
 20
-2.5
 30
0.0
 11
17.27067337868351
 21
-2.5
 31
0.0
  0
LINE
  5
D0
330
4E
100
AcDbEntity
  8
0
  6
Continuous
 62
     7
100
AcDbLine
 10
2.0
 20
-2.5
 30
0.0
 11
0.0
 21
-2.5
 31
0.0
  0
LINE
  5
D1
330
4E
100
AcDbEntity
  8
0
  6
Continuous
 62
     7
100
AcDbLine
 10
20.1525432638154
 20
-2.5
 30
0.0
 11
20.09910050342648
 21
-2.5
 31
0.0
  0
LINE
  5
D2
330
4E
100
AcDbEntity
  8
0
  6
Continuous
 62
     7
100
AcDbLine
 10
20.87691796273418
 20
-2.5
 30
0.0
 11
20.1525432638154
 21
-2.5
 31
0.0
  0
LINE
  5
D3
330
4E
100
AcDbEntity
  8
0
  6
Continuous
 62
     7
100
AcDbLine
 10
-2.0
 20
-2.5
 30
0.0
 11
-17.27067337868022
 21
-2.5
 31
0.0
  0
LINE
  5
D4
330
4E
100
AcDbEntity
  8
0
  6
Continuous
 62
     7
100
AcDbLine
 10
-17.27067337868022
 20
-2.5
 30
0.0
 11
-18.04849083798791
 21
-2.5
 31
0.0
  0
LINE
  5
D5
330
4E
100
AcDbEntity
  8
0
  6
Continuous
 62
     7
100
AcDbLine
 10
-20.15254326381552
 20
-2.5
 30
0.0
 11
-20.8769179627343
 21
-2.5
 31
0.0
  0
LINE
  5
D6
330
4E
100
AcDbEntity
  8
0
  6
Continuous
 62
     7
100
AcDbLine
 10
-20.8769179627343
 20
-13.0
 30
0.0
 11
-20.8769179627343
 21
-2.5
 31
0.0
  0
LINE
  5
D7
330
4E
100
AcDbEntity
  8
0
  6
Continuous
 62
     7
100
AcDbLine
 10
20.87691796273418
 20
-14.0
 30
0.0
 11
20.87691796273418
 21
-2.5
 31
0.0
  0
LINE
  5
D8
330
4E
100
AcDbEntity
  8
0
  6
Continuous
 62
     7
100
AcDbLine
 10
0.0
 20
-15.0
 30
0.0
 11
0.0
 21
-2.5
 31
0.0
  0
LINE
  5
D9
330
4E
100
AcDbEntity
  8
0
  6
Continuous
 62
     7
100
AcDbLine
 10
20.1525432638154
 20
-15.0
 30
0.0
 11
20.1525432638154
 21
-2.5
 31
0.0
  0
LINE
  5
DA
330
4E
100
AcDbEntity
  8
0
  6
Continuous
 62
     7
100
AcDbLine
 10
-20.15254326381552
 20
-15.0
 30
0.0
 11
-20.15254326381552
 21
-2.5
 31
0.0
  0
LINE
  5
DB
330
4E
100
AcDbEntity
  8
0
  6
Continuous
 62
     7
100
AcDbLine
 10
2.0
 20
-15.75771736332217
 30
0.0
 11
2.0
 21
-2.5
 31
0.0
  0
LINE
  5
DC
330
4E
100
AcDbEntity
  8
0
  6
Continuous
 62
     7
100
AcDbLine
 10
-18.04849083799883
 20
-15.7577173633731
 30
0.0
 11
-18.04849083798791
 21
-2.5
 31
0.0
  0
LINE
  5
DD
330
4E
100
AcDbEntity
  8
0
  6
Continuous
 62
     7
100
AcDbLine
 10
18.0484908379874
 20
-15.75771736332217
 30
0.0
 11
18.0484908379874
 21
-2.5
 31
0.0
  0
LINE
  5
DE
330
4E
100
AcDbEntity
  8
0
  6
Continuous
 62
     7
100
AcDbLine
 10
20.87691796273418
 20
-15.75771736332217
 30
0.0
 11
20.87691796273418
 21
-14.0
 31
0.0
  0
LINE
  5
DF
330
4E
100
AcDbEntity
  8
0
  6
Continuous
 62
     7
100
AcDbLine
 10
-2.0
 20
-15.75771736332217
 30
0.0
 11
-2.0
 21
-2.5
 31
0.0
  0
LINE
  5
E0
330
4E
100
AcDbEntity
  8
0
  6
Continuous
 62
     7
100
AcDbLine
 10
-17.27067337868022
 20
-16.67819926235507
 30
0.0
 11
-17.27067337868022
 21
-2.5
 31
0.0
  0
LINE
  5
E1
330
4E
100
AcDbEntity
  8
0
  6
Continuous
 62
     7
100
AcDbLine
 10
-2.0
 20
-16.67819926235507
 30
0.0
 11
-2.0
 21
-15.75771736332217
 31
0.0
  0
LINE
  5
E2
330
4E
100
AcDbEntity
  8
0
  6
Continuous
 62
     7
100
AcDbLine
 10
17.27067337868351
 20
-16.67819926235507
 30
0.0
 11
17.27067337868351
 21
-2.5
 31
0.0
  0
LINE
  5
E3
330
4E
100
AcDbEntity
  8
0
  6
Continuous
 62
     7
100
AcDbLine
 10
17.27067337868351
 20
-16.67819926235507
 30
0.0
 11
2.0
 21
-16.67819926235507
 31
0.0
  0
LINE
  5
E4
330
4E
100
AcDbEntity
  8
0
  6
Continuous
 62
     7
100
AcDbLine
 10
-2.0
 20
-16.67819926235507
 30
0.0
 11
-17.27067337868022
 21
-16.67819926235507
 31
0.0
  0
LINE
  5
E5
330
4E
100
AcDbEntity
  8
0
  6
Continuous
 62
     7
100
AcDbLine
 10
-20.8769179627343
 20
-15.75771736332217
 30
0.0
 11
-20.8769179627343
 21
-14.0
 31
0.0
  0
LINE
  5
E6
330
4E
100
AcDbEntity
  8
0
  6
Continuous
 62
     7
100
AcDbLine
 10
-20.8769179627343
 20
-14.0
 30
0.0
 11
-20.8769179627343
 21
-13.0
 31
0.0
  0
LINE
  5
E7
330
4E
100
AcDbEntity
  8
0
  6
Continuous
 62
     7
100
AcDbLine
 10
27.52442052344838
 20
-2.5
 30
0.0
 11
26.42442052344626
 21
-2.5
 31
0.0
  0
LINE
  5
E8
330
4E
100
AcDbEntity
  8
0
  6
Continuous
 62
     7
100
AcDbLine
 10
-28.49999999998192
 20
-15.00000000003593
 30
0.0
 11
-26.1164928148101
 21
-17.0
 31
0.0
  0
LINE
  5
E9
330
4E
100
AcDbEntity
  8
0
  6
Continuous
 62
     7
100
AcDbLine
 10
-27.5244205234485
 20
-2.5
 30
0.0
 11
-28.5
 21
-2.5
 31
0.0
  0
LINE
  5
EA
330
4E
100
AcDbEntity
  8
0
  6
Continuous
 62
     7
100
AcDbLine
 10
27.52442052344838
 20
-2.5
 30
0.0
 11
28.5
 21
-2.5
 31
0.0
  0
LINE
  5
EB
330
4E
100
AcDbEntity
  8
0
  6
Continuous
 62
     7
100
AcDbLine
 10
28.5
 20
-15.0
 30
0.0
 11
28.5
 21
-2.5
 31
0.0
  0
LINE
  5
EC
330
4E
100
AcDbEntity
  8
0
  6
Continuous
 62
     7
100
AcDbLine
 10
-28.49999999998192
 20
-15.00000000003593
 30
0.0
 11
-28.5
 21
-2.5
 31
0.0
  0
LINE
  5
ED
330
4E
100
AcDbEntity
  8
0
  6
Continuous
 62
     7
100
AcDbLine
 10
28.5
 20
-15.0
 30
0.0
 11
26.11649281480976
 21
-17.0
 31
0.0
  0
LINE
  5
EE
330
4E
100
AcDbEntity
  8
0
  6
Continuous
 62
     7
100
AcDbLine
 10
26.11649281480976
 20
-17.0
 30
0.0
 11
-26.1164928148101
 21
-17.0
 31
0.0
  0
LINE
  5
EF
330
4E
100
AcDbEntity
  8
1
  6
DOT_CENTER
 62
     2
100
AcDbLine
 10
-22.0
 20
3.0
 30
0.0
 11
-22.0
 21
1.0
 31
0.0
  0
LINE
  5
F0
330
4E
100
AcDbEntity
  8
1
  6
DOT_CENTER
 62
     2
100
AcDbLine
 10
22.0
 20
1.0
 30
0.0
 11
22.0
 21
3.0
 31
0.0
  0
SPLINE
  5
F1
330
4E
100
AcDbEntity
  8
0
  6
Continuous
 62
     7
100
AcDbSpline
210
0.0
220
0.0
230
1.0
 70
     8
 71
     3
 72
    11
 73
     7
 74
     5
 42
0.000000001
 43
0.0000000001
 44
0.00000001
 40
0.0
 40
0.0
 40
0.0
 40
0.0
 40
0.3152989234478319
 40
0.6240834980415668
 40
0.9336077907776761
 40
1.235572026220064
 40
1.235572026220064
 40
1.235572026220064
 40
1.235572026220064
 10
-28.49999999998192
 20
-15.00000000003593
 30
0.0
 10
-28.41915052973865
 20
-15.06715671526629
 30
0.0
 10
-28.2591219998658
 20
-15.20008261829456
 30
0.0
 10
-28.01506995120325
 20
-15.3932132450204
 30
0.0
 10
-27.77130940052398
 20
-15.57949209505444
 30
0.0
 10
-27.60603570560669
 20
-15.69880062965995
 30
0.0
 10
-27.5244205234485
 20
-15.75771736332217
 30
0.0
 11
-28.49999999998192
 21
-15.00000000003593
 31
0.0
 11
-28.25665737232037
 21
-15.20049383218606
 31
0.0
 11
-28.01472806716629
 21
-15.39237432867594
 31
0.0
 11
-27.76846047819587
 21
-15.57987782877916
 31
0.0
 11
-27.5244205234485
 21
-15.75771736332217
 31
0.0
  0
SPLINE
  5
F2
330
4E
100
AcDbEntity
  8
0
  6
Continuous
 62
     7
100
AcDbSpline
210
0.0
220
0.0
230
1.0
 70
     8
 71
     3
 72
    11
 73
     7
 74
     5
 42
0.000000001
 43
0.0000000001
 44
0.00000001
 40
0.0
 40
0.0
 40
0.0
 40
0.0
 40
0.5543188591684932
 40
1.117553862962221
 40
1.673979122166585
 40
2.236567028802538
 40
2.236567028802538
 40
2.236567028802538
 40
2.236567028802538
 10
-18.04849083799883
 20
-15.7577173633731
 30
0.0
 10
-18.22371502831363
 20
-15.69907696830919
 30
0.0
 10
-18.57698186174343
 20
-15.58085294100238
 30
0.0
 10
-19.10297953716658
 20
-15.39455193433093
 30
0.0
 10
-19.62944752705035
 20
-15.20144034049963
 30
0.0
 10
-19.97753901498409
 20
-15.06739286099931
 30
0.0
 10
-20.15254326381552
 20
-15.0
 30
0.0
 11
-18.04849083799883
 21
-15.7577173633731
 31
0.0
 11
-18.57364451523258
 21
-15.58028283179243
 31
0.0
 11
-19.10476089536684
 21
-15.39280200501889
 31
0.0
 11
-19.62699736968133
 21
-15.20076520094466
 31
0.0
 11
-20.15254326381552
 21
-15.0
 31
0.0
  0
SPLINE
  5
F3
330
4E
100
AcDbEntity
  8
0
  6
Continuous
 62
     7
100
AcDbSpline
210
0.0
220
0.0
230
1.0
 70
     8
 71
     3
 72
    11
 73
     7
 74
     5
 42
0.000000001
 43
0.0000000001
 44
0.00000001
 40
0.0
 40
0.0
 40
0.0
 40
0.0
 40
0.3565221488588081
 40
0.717162281082057
 40
1.074239850857507
 40
1.434324554759801
 40
1.434324554759801
 40
1.434324554759801
 40
1.434324554759801
 10
-26.42442052344643
 20
-16.67819926235507
 30
0.0
 10
-26.51556447542522
 20
-16.60193724122236
 30
0.0
 10
-26.69890512136531
 20
-16.44853232843698
 30
0.0
 10
-26.97352333226285
 20
-16.21873657328558
 30
0.0
 10
-27.24904684016165
 20
-15.98817224245315
 30
0.0
 10
-27.43237306375271
 20
-15.83475009840837
 30
0.0
 10
-27.5244205234485
 20
-15.75771736332217
 30
0.0
 11
-26.42442052344643
 21
-16.67819926235507
 31
0.0
 11
-26.69785099456082
 21
-16.44941154394962
 31
0.0
 11
-26.97443315712741
 21
-16.21797340465491
 31
0.0
 11
-27.24827682648008
 21
-15.9888139937803
 31
0.0
 11
-27.5244205234485
 21
-15.75771736332217
 31
0.0
  0
SPLINE
  5
F4
330
4E
100
AcDbEntity
  8
0
  6
Continuous
 62
     7
100
AcDbSpline
210
0.0
220
0.0
230
1.0
 70
     8
 71
     3
 72
    11
 73
     7
 74
     5
 42
0.000000001
 43
0.0000000001
 44
0.00000001
 40
0.0
 40
0.0
 40
0.0
 40
0.0
 40
0.3572711679016252
 40
0.7171622810820961
 40
1.07417156953645
 40
1.434324554759838
 40
1.434324554759838
 40
1.434324554759838
 40
1.434324554759838
 10
26.42442052344626
 20
-16.67819926235507
 30
0.0
 10
26.51575595902522
 20
-16.60177702060896
 30
0.0
 10
26.69909660266394
 20
-16.44837210507299
 30
0.0
 10
26.97369735183494
 20
-16.2185909487523
 30
0.0
 10
27.24902938535209
 20
-15.98818684954984
 30
0.0
 10
27.4323556091048
 20
-15.83476470569821
 30
0.0
 10
27.52442052344838
 20
-15.75771736332217
 30
0.0
 11
26.42442052344626
 21
-16.67819926235507
 31
0.0
 11
26.69842543906663
 21
-16.448930874587
 31
0.0
 11
26.97443315712729
 21
-16.21797340465491
 31
0.0
 11
27.24822446195315
 21
-15.98885781495261
 31
0.0
 11
27.52442052344838
 21
-15.75771736332217
 31
0.0
  0
SPLINE
  5
F5
330
4E
100
AcDbEntity
  8
0
  6
Continuous
 62
     7
100
AcDbSpline
210
0.0
220
0.0
230
1.0
 70
     8
 71
     3
 72
    11
 73
     7
 74
     5
 42
0.000000001
 43
0.0000000001
 44
0.00000001
 40
0.0
 40
0.0
 40
0.0
 40
0.0
 40
0.3023613649071807
 40
0.6025600718720184
 40
0.9059830063442694
 40
1.205108678842459
 40
1.205108678842459
 40
1.205108678842459
 40
1.205108678842459
 10
-20.8769179627343
 20
-15.75771736332217
 30
0.0
 10
-20.81187016072825
 20
-15.83470325386817
 30
0.0
 10
-20.68223980361931
 20
-15.98812437906323
 30
0.0
 10
-20.48732541149029
 20
-16.21879504995813
 30
0.0
 10
-20.29310171732096
 20
-16.44863729603062
 30
0.0
 10
-20.16345938371804
 20
-16.60204329760023
 30
0.0
 10
-20.0991005034266
 20
-16.67819926235507
 30
0.0
 11
-20.8769179627343
 21
-15.75771736332217
 31
0.0
 11
-20.6817732384258
 21
-15.98867392106228
 31
0.0
 11
-20.48801818518052
 21
-16.21797338247779
 31
0.0
 11
-20.29217576131503
 21
-16.4497301993752
 31
0.0
 11
-20.0991005034266
 21
-16.67819926235507
 31
0.0
  0
SPLINE
  5
F6
330
4E
100
AcDbEntity
  8
0
  6
Continuous
 62
     7
100
AcDbSpline
210
0.0
220
0.0
230
1.0
 70
     8
 71
     3
 72
    11
 73
     7
 74
     5
 42
0.000000001
 43
0.0000000001
 44
0.00000001
 40
0.0
 40
0.0
 40
0.0
 40
0.0
 40
0.2994287919469506
 40
0.6025485779338514
 40
0.9027839839231063
 40
1.205108678840001
 40
1.205108678840001
 40
1.205108678840001
 40
1.205108678840001
 10
17.27067337868351
 20
-16.67819926235507
 30
0.0
 10
17.33509747658565
 20
-16.60196612436829
 30
0.0
 10
17.46473980282747
 20
-16.44856012925004
 30
0.0
 10
17.65897138341307
 20
-16.21870854432159
 30
0.0
 10
17.85382056173395
 20
-15.98811504987298
 30
0.0
 10
17.98345092495909
 20
-15.83469391717556
 30
0.0
 10
18.0484908379874
 20
-15.75771736332217
 30
0.0
 11
17.27067337868351
 21
-16.67819926235507
 31
0.0
 11
17.46394428637807
 21
-16.44949867712228
 31
0.0
 11
17.65959104169446
 21
-16.21797340465491
 31
0.0
 11
17.85336978094684
 21
-15.98864591126727
 31
0.0
 11
18.0484908379874
 21
-15.75771736332217
 31
0.0
  0
SPLINE
  5
F7
330
4E
100
AcDbEntity
  8
0
  6
Continuous
 62
     7
100
AcDbSpline
210
0.0
220
0.0
230
1.0
 70
     8
 71
     3
 72
    11
 73
     7
 74
     5
 42
0.000000001
 43
0.0000000001
 44
0.00000001
 40
0.0
 40
0.0
 40
0.0
 40
0.0
 40
0.3024286829093172
 40
0.6025600718402291
 40
0.9055648577535667
 40
1.205108678810601
 40
1.205108678810601
 40
1.205108678810601
 40
1.205108678810601
 10
-18.04849083799883
 20
-15.7577173633731
 30
0.0
 10
-17.98342855357862
 20
-15.83472039402974
 30
0.0
 10
-17.85379819625161
 20
-15.98814151902668
 30
0.0
 10
-17.65897376438045
 20
-16.21870572521066
 30
0.0
 10
-17.46476455772614
 20
-16.4485308354688
 30
0.0
 10
-17.3351222256529
 20
-16.60193683833115
 30
0.0
 10
-17.27067337868022
 20
-16.67819926235507
 30
0.0
 11
-18.04849083799883
 21
-15.7577173633731
 31
0.0
 11
-17.8533026657866
 21
-15.98872534088639
 31
0.0
 11
-17.65959106043403
 21
-16.21797338247779
 31
0.0
 11
-17.46401853243025
 21
-16.44941081803388
 31
0.0
 11
-17.27067337868022
 21
-16.67819926235507
 31
0.0
  0
SPLINE
  5
F8
330
4E
100
AcDbEntity
  8
0
  6
Continuous
 62
     7
100
AcDbSpline
210
0.0
220
0.0
230
1.0
 70
     8
 71
     3
 72
    11
 73
     7
 74
     5
 42
0.000000001
 43
0.0000000001
 44
0.00000001
 40
0.0
 40
0.0
 40
0.0
 40
0.0
 40
0.2998864799385592
 40
0.6025485779362333
 40
0.9017237172669402
 40
1.205108678842461
 40
1.205108678842461
 40
1.205108678842461
 40
1.205108678842461
 10
20.09910050342648
 20
-16.67819926235507
 30
0.0
 10
20.16362307512591
 20
-16.60184959850135
 30
0.0
 10
20.29326539973099
 20
-16.44844360199881
 30
0.0
 10
20.48726886187983
 20
-16.21886196010815
 30
0.0
 10
20.68201958337143
 20
-15.98838500586383
 30
0.0
 10
20.81164995000153
 20
-15.83496387604318
 30
0.0
 10
20.87691796273418
 20
-15.75771736332217
 30
0.0
 11
20.09910050342648
 21
-16.67819926235507
 31
0.0
 11
20.29266682787722
 21
-16.44914909560407
 31
0.0
 11
20.48801816644112
 21
-16.21797340465491
 31
0.0
 11
20.68111259637802
 21
-15.98945577924923
 31
0.0
 11
20.87691796273418
 21
-15.75771736332217
 31
0.0
  0
SPLINE
  5
F9
330
4E
100
AcDbEntity
  8
0
  6
Continuous
 62
     7
100
AcDbSpline
210
0.0
220
0.0
230
1.0
 70
     8
 71
     3
 72
    11
 73
     7
 74
     5
 42
0.000000001
 43
0.0000000001
 44
0.00000001
 40
0.0
 40
0.0
 40
0.0
 40
0.0
 40
0.5401144726114725
 40
1.069443422464112
 40
1.607110367596515
 40
2.138967657364976
 40
2.138967657364976
 40
2.138967657364976
 40
2.138967657364976
 10
0.0
 20
-15.0
 30
0.0
 10
0.1668677818363347
 20
-15.06760125007599
 30
0.0
 10
0.4972711754682237
 20
-15.20145380992651
 30
0.0
 10
0.9970718974840438
 20
-15.39432065961602
 30
0.0
 10
1.496493592871377
 20
-15.58043849149877
 30
0.0
 10
1.832773419925835
 20
-15.69883879421796
 30
0.0
 10
2.0
 20
-15.75771736332217
 30
0.0
 11
0.0
 21
-15.0
 31
0.0
 11
0.5011610422947754
 21
-15.2013982454464
 31
0.0
 11
0.9948383386399087
 21
-15.39237432867594
 31
0.0
 11
1.498864455347685
 21
-15.57957320078572
 31
0.0
 11
2.0
 21
-15.75771736332217
 31
0.0
  0
SPLINE
  5
FA
330
4E
100
AcDbEntity
  8
0
  6
Continuous
 62
     7
100
AcDbSpline
210
0.0
220
0.0
230
1.0
 70
     8
 71
     3
 72
    11
 73
     7
 74
     5
 42
0.000000001
 43
0.0000000001
 44
0.00000001
 40
0.0
 40
0.0
 40
0.0
 40
0.0
 40
0.2712732238835661
 40
0.5327401942681236
 40
0.7946573268783865
 40
1.048535542549435
 40
1.048535542549435
 40
1.048535542549435
 40
1.048535542549435
 10
20.1525432638154
 20
-15.0
 30
0.0
 10
20.21280799831131
 20
-15.06741885447378
 30
0.0
 10
20.33115896893848
 20
-15.19981942985311
 30
0.0
 10
20.51241573184119
 20
-15.3930047941785
 30
0.0
 10
20.69296614909268
 20
-15.57886091130114
 30
0.0
 10
20.81624112115242
 20
-15.69872124303098
 30
0.0
 10
20.87691796273418
 20
-15.75771736332217
 30
0.0
 11
20.1525432638154
 21
-15.0
 31
0.0
 11
20.33415785976814
 21
-15.20150756949369
 31
0.0
 11
20.51286112482916
 21
-15.39237432867594
 31
0.0
 11
20.6957258748525
 21
-15.57988717536551
 31
0.0
 11
20.87691796273418
 21
-15.75771736332217
 31
0.0
  0
SPLINE
  5
FB
330
4E
100
AcDbEntity
  8
0
  6
Continuous
 62
     7
100
AcDbSpline
210
0.0
220
0.0
230
1.0
 70
     8
 71
     3
 72
    11
 73
     7
 74
     5
 42
0.000000001
 43
0.0000000001
 44
0.00000001
 40
0.0
 40
0.0
 40
0.0
 40
0.0
 40
0.564256984186194
 40
1.117752099907131
 40
1.680943573996661
 40
2.236567026744722
 40
2.236567026744722
 40
2.236567026744722
 40
2.236567026744722
 10
20.1525432638154
 20
-15.0
 30
0.0
 10
19.97701923470183
 20
-15.06759135262445
 30
0.0
 10
19.62931887720721
 20
-15.2014848986279
 30
0.0
 10
19.10325871887871
 20
-15.3944449524813
 30
0.0
 10
18.57779140402068
 20
-15.58057697031126
 30
0.0
 10
18.22412692845965
 20
-15.69893744639021
 30
0.0
 10
18.0484908379874
 20
-15.75771736332217
 30
0.0
 11
20.1525432638154
 21
-15.0
 31
0.0
 11
19.62543447256423
 21
-15.20135110242484
 31
0.0
 11
19.10594725395271
 21
-15.39237432867594
 31
0.0
 11
18.57487762808098
 21
-15.57985683217873
 31
0.0
 11
18.0484908379874
 21
-15.75771736332217
 31
0.0
  0
SPLINE
  5
FC
330
4E
100
AcDbEntity
  8
0
  6
Continuous
 62
     7
100
AcDbSpline
210
0.0
220
0.0
230
1.0
 70
     8
 71
     3
 72
    11
 73
     7
 74
     5
 42
0.000000001
 43
0.0000000001
 44
0.00000001
 40
0.0
 40
0.0
 40
0.0
 40
0.0
 40
0.537399409888472
 40
1.069443421120934
 40
1.607942799014475
 40
2.138967656576529
 40
2.138967656576529
 40
2.138967656576529
 40
2.138967656576529
 10
0.0
 20
-15.0
 30
0.0
 10
-0.1660278880811523
 20
-15.06726400369592
 30
0.0
 10
-0.4964291359300936
 20
-15.20112168468287
 30
0.0
 10
-0.9964825293303434
 20
-15.39410497538541
 30
0.0
 10
-1.496754386639348
 20
-15.58053340807397
 30
0.0
 10
-1.8330348416015
 20
-15.69893186435
 30
0.0
 10
-2.0
 20
-15.75771736332217
 30
0.0
 11
0.0
 21
-15.0
 31
0.0
 11
-0.4986352671495098
 21
-15.20040208621987
 31
0.0
 11
-0.9948383386400224
 21
-15.39237432867594
 31
0.0
 11
-1.499646830795498
 21
-15.57985757164585
 31
0.0
 11
-2.0
 21
-15.75771736332217
 31
0.0
  0
SPLINE
  5
FD
330
4E
100
AcDbEntity
  8
0
  6
Continuous
 62
     7
100
AcDbSpline
210
0.0
220
0.0
230
1.0
 70
     8
 71
     3
 72
    11
 73
     7
 74
     5
 42
0.000000001
 43
0.0000000001
 44
0.00000001
 40
0.0
 40
0.0
 40
0.0
 40
0.0
 40
0.2532283968018413
 40
0.5152040065317787
 40
0.7778363652525191
 40
1.048535546975959
 40
1.048535546975959
 40
1.048535546975959
 40
1.048535546975959
 10
-20.8769179627343
 20
-15.75771736332217
 30
0.0
 10
-20.81639550897021
 20
-15.69887321825272
 30
0.0
 10
-20.69325999822202
 20
-15.57915227693822
 30
0.0
 10
-20.51256650082076
 20
-15.3931683855985
 30
0.0
 10
-20.33116111359026
 20
-15.19982517755717
 30
0.0
 10
-20.21267989970879
 20
-15.06727667645502
 30
0.0
 10
-20.15254326381552
 20
-15.0
 30
0.0
 11
-20.8769179627343
 21
-15.75771736332217
 31
0.0
 11
-20.69618460303459
 21
-15.58034748508595
 31
0.0
 11
-20.51326955958581
 21
-15.39280200501889
 31
0.0
 11
-20.33376954989582
 21
-15.20108475886821
 31
0.0
 11
-20.15254326381552
 21
-15.0
 31
0.0
  0
SPLINE
  5
FE
330
4E
100
AcDbEntity
  8
0
  6
Continuous
 62
     7
100
AcDbSpline
210
0.0
220
0.0
230
1.0
 70
     8
 71
     3
 72
    11
 73
     7
 74
     5
 42
0.000000001
 43
0.0000000001
 44
0.00000001
 40
0.0
 40
0.0
 40
0.0
 40
0.0
 40
0.3158789477962153
 40
0.624083243464942
 40
0.933607537333512
 40
1.235572027457687
 40
1.235572027457687
 40
1.235572027457687
 40
1.235572027457687
 10
28.5
 20
-15.0
 30
0.0
 10
28.41900125410714
 20
-15.06727962422471
 30
0.0
 10
28.25897171306422
 20
-15.20020422322356
 30
0.0
 10
28.01491638493905
 20
-15.39333045149095
 30
0.0
 10
27.77130955331597
 20
-15.57949201730037
 30
0.0
 10
27.60603577933945
 20
-15.69880058719135
 30
0.0
 10
27.52442052344838
 20
-15.75771736332217
 30
0.0
 11
28.5
 21
-15.0
 31
0.0
 11
28.25620632311024
 21
-15.20085853929965
 31
0.0
 11
28.01472826912863
 21
-15.39237417164304
 31
0.0
 11
27.76846068243088
 21
-15.5798776766008
 31
0.0
 11
27.52442052344838
 21
-15.75771736332217
 31
0.0
  0
ENDBLK
  5
50
330
4E
100
AcDbEntity
  8
0
100
AcDbBlockEnd
  0
BLOCK
  5
52
330
51
100
AcDbEntity
  8
0
100
AcDbBlockBegin
  2
Pfeife_DN40_6_4_abgesetzt
 70
     0
 10
23220.56540849783
 20
33048.36814623709
 30
0.0
  3
Pfeife_DN40_6_4_abgesetzt
  1

  0
LINE
  5
FF
330
51
100
AcDbEntity
  8
1
  6
Continuous
 62
     7
100
AcDbLine
 10
23179.74999999997
 20
32567.28938207903
 30
0.0
 11
23178.05526077911
 21
32567.28938207903
 31
0.0
  0
LINE
  5
100
330
51
100
AcDbEntity
  8
1
  6
Continuous
 62
     7
100
AcDbLine
 10
23381.75
 20
32555.28938207903
 30
0.0
 11
23401.75
 21
32547.28938207903
 31
0.0
  0
LINE
  5
101
330
51
100
AcDbEntity
  8
1
  6
Continuous
 62
     7
100
AcDbLine
 10
23381.75
 20
32559.78938207903
 30
0.0
 11
23381.75
 21
32555.28938207903
 31
0.0
  0
LINE
  5
102
330
51
100
AcDbEntity
  8
1
  6
Continuous
 62
     7
100
AcDbLine
 10
23375.54999999997
 20
32555.28938207903
 30
0.0
 11
23381.75
 21
32555.28938207903
 31
0.0
  0
LINE
  5
103
330
51
100
AcDbEntity
  8
1
  6
Continuous
 62
     7
100
AcDbLine
 10
23375.54999999997
 20
32555.28938207903
 30
0.0
 11
23366.47893218812
 21
32564.36044989089
 31
0.0
  0
LINE
  5
104
330
51
100
AcDbEntity
  8
1
  6
Continuous
 62
     7
100
AcDbLine
 10
23421.75
 20
32559.78938207903
 30
0.0
 11
23421.75
 21
32547.28938207903
 31
0.0
  0
LINE
  5
105
330
51
100
AcDbEntity
  8
1
  6
Continuous
 62
     7
100
AcDbLine
 10
23401.75
 20
32527.28938207903
 30
0.0
 11
23179.74999999997
 21
32527.28938207903
 31
0.0
  0
LINE
  5
106
330
51
100
AcDbEntity
  8
1
  6
Continuous
 62
     7
100
AcDbLine
 10
23178.05526077911
 20
32567.28938207903
 30
0.0
 11
23359.40786437625
 21
32567.28938207903
 31
0.0
  0
LINE
  5
107
330
51
100
AcDbEntity
  8
1
  6
PHANTOM
 62
     2
100
AcDbLine
 10
23401.75
 20
32547.28938207903
 30
0.0
 11
23178.05526077911
 21
32547.28938207903
 31
0.0
  0
LINE
  5
108
330
51
100
AcDbEntity
  8
1
  6
PHANTOM
 62
     2
100
AcDbLine
 10
23401.75
 20
32580.22331362633
 30
0.0
 11
23401.75
 21
32543.47468314054
 31
0.0
  0
LINE
  5
109
330
51
100
AcDbEntity
  8
1
  6
DOT_CENTER
 62
     2
100
AcDbLine
 10
23432.1286043567
 20
32569.28938207903
 30
0.0
 11
23438.1286043567
 21
32569.28938207903
 31
0.0
  0
ARC
  5
10A
330
51
100
AcDbEntity
  8
1
  6
Continuous
 62
     7
100
AcDbCircle
 10
23359.40786437625
 20
32557.28938207903
 30
0.0
 40
9.999999999999115
100
AcDbArc
 50
44.99999999995578
 51
90.0
  0
ARC
  5
10B
330
51
100
AcDbEntity
  8
1
  6
Continuous
 62
     7
100
AcDbCircle
 10
23401.75
 20
32547.28938207903
 30
0.0
 40
20.0
100
AcDbArc
 50
270.0
 51
0.0
  0
ENDBLK
  5
53
330
51
100
AcDbEntity
  8
0
100
AcDbBlockEnd
  0
BLOCK
  5
55
330
54
100
AcDbEntity
  8
0
100
AcDbBlockBegin
  2
HL_100_Krümmer
 70
     0
 10
-253.0406500963013
 20
-231.975725170698
 30
0.0
  3
HL_100_Krümmer
  1

  0
LINE
  5
10C
330
54
100
AcDbEntity
  8
1
  6
Continuous
 62
     7
100
AcDbLine
 10
-297.1000000000052
 20
-312.313346740094
 30
0.0
 11
-297.1000000000052
 21
-317.313346740094
 31
0.0
  0
LINE
  5
10D
330
54
100
AcDbEntity
  8
1
  6
Continuous
 62
     7
100
AcDbLine
 10
-304.9000000000042
 20
-312.313346740094
 30
0.0
 11
-304.9000000000042
 21
-314.213346740092
 31
0.0
  0
LINE
  5
10E
330
54
100
AcDbEntity
  8
1
  6
Continuous
 62
     7
100
AcDbLine
 10
-300.4000000000042
 20
-312.313346740094
 30
0.0
 11
-300.4000000000042
 21
-318.813346740094
 31
0.0
  0
LINE
  5
10F
330
54
100
AcDbEntity
  8
1
  6
Continuous
 62
     7
100
AcDbLine
 10
-301.9000000000042
 20
-318.813346740094
 30
0.0
 11
-301.9000000000042
 21
-316.913346740093
 31
0.0
  0
LINE
  5
110
330
54
100
AcDbEntity
  8
1
  6
Continuous
 62
     7
100
AcDbLine
 10
-306.4000000000042
 20
-318.813346740094
 30
0.0
 11
-306.4000000000042
 21
-312.313346740094
 31
0.0
  0
LINE
  5
111
330
54
100
AcDbEntity
  8
1
  6
Continuous
 62
     7
100
AcDbLine
 10
-293.8500000000052
 20
-318.063346740094
 30
0.0
 11
-296.3500000000052
 21
-318.063346740094
 31
0.0
  0
LINE
  5
112
330
54
100
AcDbEntity
  8
1
  6
Continuous
 62
     7
100
AcDbLine
 10
-297.8500000000052
 20
-319.563346740094
 30
0.0
 11
-293.8500000000052
 21
-319.563346740094
 31
0.0
  0
LINE
  5
113
330
54
100
AcDbEntity
  8
1
  6
Continuous
 62
     7
100
AcDbLine
 10
-298.6000000000052
 20
-318.813346740094
 30
0.0
 11
-298.6000000000052
 21
-317.563346740094
 31
0.0
  0
LINE
  5
114
330
54
100
AcDbEntity
  8
1
  6
Continuous
 62
     7
100
AcDbLine
 10
-298.6000000000052
 20
-317.563346740094
 30
0.0
 11
-298.6000000000052
 21
-312.313346740094
 31
0.0
  0
LINE
  5
115
330
54
100
AcDbEntity
  8
1
  6
Continuous
 62
     7
100
AcDbLine
 10
-304.9000000000042
 20
-316.913346740093
 30
0.0
 11
-304.9000000000042
 21
-318.813346740094
 31
0.0
  0
LINE
  5
116
330
54
100
AcDbEntity
  8
1
  6
Continuous
 62
     7
100
AcDbLine
 10
-302.6500000000042
 20
-316.163346740093
 30
0.0
 11
-304.1500000000042
 21
-316.163346740093
 31
0.0
  0
LINE
  5
117
330
54
100
AcDbEntity
  8
1
  6
Continuous
 62
     7
100
AcDbLine
 10
-301.9000000000042
 20
-314.213346740092
 30
0.0
 11
-301.9000000000042
 21
-312.313346740094
 31
0.0
  0
LINE
  5
118
330
54
100
AcDbEntity
  8
1
  6
Continuous
 62
     7
100
AcDbLine
 10
-304.1500000000042
 20
-314.963346740092
 30
0.0
 11
-302.6500000000042
 21
-314.963346740092
 31
0.0
  0
LINE
  5
119
330
54
100
AcDbEntity
  8
1
  6
Continuous
 62
     7
100
AcDbLine
 10
-237.8571902140831
 20
-352.7721293954569
 30
0.0
 11
-196.1744474765588
 21
-371.1293981542981
 31
0.0
  0
LINE
  5
11A
330
54
100
AcDbEntity
  8
1
  6
Continuous
 62
     7
100
AcDbLine
 10
-322.2000000000031
 20
-373.6268061347059
 30
0.0
 11
-277.800000000003
 21
-356.498978818878
 31
0.0
  0
LINE
  5
11B
330
54
100
AcDbEntity
  8
1
  6
Continuous
 62
     7
100
AcDbLine
 10
-322.2000000000031
 20
-308.063346740094
 30
0.0
 11
-277.800000000003
 21
-308.063346740094
 31
0.0
  0
LINE
  5
11C
330
54
100
AcDbEntity
  8
1
  6
Continuous
 62
     2
100
AcDbLine
 10
-322.500000000003
 20
-305.563346740094
 30
0.0
 11
-322.500000000003
 21
-308.063346740094
 31
0.0
  0
LINE
  5
11D
330
54
100
AcDbEntity
  8
1
  6
Continuous
 62
     7
100
AcDbLine
 10
-322.500000000003
 20
-308.063346740094
 30
0.0
 11
-323.600000000003
 21
-306.963346740094
 31
0.0
  0
LINE
  5
11E
330
54
100
AcDbEntity
  8
1
  6
Continuous
 62
     7
100
AcDbLine
 10
-277.500000000003
 20
-308.063346740094
 30
0.0
 11
-276.400000000003
 21
-306.963346740094
 31
0.0
  0
LINE
  5
11F
330
54
100
AcDbEntity
  8
1
  6
Continuous
 62
     7
100
AcDbLine
 10
-277.500000000003
 20
-308.063346740094
 30
0.0
 11
-277.800000000003
 21
-308.063346740094
 31
0.0
  0
LINE
  5
120
330
54
100
AcDbEntity
  8
1
  6
Continuous
 62
     2
100
AcDbLine
 10
-277.500000000003
 20
-308.063346740094
 30
0.0
 11
-277.500000000003
 21
-305.563346740094
 31
0.0
  0
LINE
  5
121
330
54
100
AcDbEntity
  8
1
  6
Continuous
 62
     7
100
AcDbLine
 10
-277.800000000003
 20
-308.063346740094
 30
0.0
 11
-277.800000000003
 21
-356.498978818878
 31
0.0
  0
LINE
  5
122
330
54
100
AcDbEntity
  8
1
  6
Continuous
 62
     7
100
AcDbLine
 10
-322.2000000000031
 20
-308.063346740094
 30
0.0
 11
-322.500000000003
 21
-308.063346740094
 31
0.0
  0
LINE
  5
123
330
54
100
AcDbEntity
  8
1
  6
Continuous
 62
     7
100
AcDbLine
 10
-322.2000000000031
 20
-308.063346740094
 30
0.0
 11
-322.2000000000031
 21
-373.6268061347059
 31
0.0
  0
LINE
  5
124
330
54
100
AcDbEntity
  8
1
  6
Continuous
 62
     7
100
AcDbLine
 10
-323.600000000003
 20
-306.963346740094
 30
0.0
 11
-323.600000000003
 21
-305.563346740094
 31
0.0
  0
LINE
  5
125
330
54
100
AcDbEntity
  8
1
  6
Continuous
 62
     7
100
AcDbLine
 10
-276.400000000003
 20
-305.563346740094
 30
0.0
 11
-276.400000000003
 21
-306.963346740094
 31
0.0
  0
LINE
  5
126
330
54
100
AcDbEntity
  8
1
  6
PHANTOM
 62
     2
100
AcDbLine
 10
-300.000000000003
 20
-56.4581036013019
 30
0.0
 11
-300.000000000003
 21
-373.6268061347059
 31
0.0
  0
LINE
  5
127
330
54
100
AcDbEntity
  8
1
  6
DOT_CENTER
 62
     2
100
AcDbLine
 10
-277.678376343944
 20
-407.493346740094
 30
0.0
 11
-271.678376343944
 21
-407.493346740094
 31
0.0
  0
ARC
  5
128
330
54
100
AcDbEntity
  8
1
  6
Continuous
 62
     7
100
AcDbCircle
 10
-210.1092056961744
 20
-346.268333950188
 30
0.0
 40
28.50000000000051
100
AcDbArc
 50
299.2708613933628
 51
345.7894566855206
  0
ARC
  5
129
330
54
100
AcDbEntity
  8
1
  6
Continuous
 62
     7
100
AcDbCircle
 10
-260.000000000003
 20
-331.3633467400939
 30
0.0
 40
75.20000000000019
100
AcDbArc
 50
214.1952000799881
 51
270.0
  0
ARC
  5
12A
330
54
100
AcDbEntity
  8
1
  6
Continuous
 62
     7
100
AcDbCircle
 10
-210.1092056961744
 20
-346.268333950188
 30
0.0
 40
28.49999999999995
100
AcDbArc
 50
184.210543314481
 51
193.1913184341605
  0
ARC
  5
12B
330
54
100
AcDbEntity
  8
1
  6
Continuous
 62
     7
100
AcDbCircle
 10
-260.000000000003
 20
-331.3633467400939
 30
0.0
 40
30.80000000000002
100
AcDbArc
 50
234.6954750044146
 51
315.9655829486391
  0
ARC
  5
12C
330
54
100
AcDbEntity
  8
1
  6
Continuous
 62
     7
100
AcDbCircle
 10
-260.000000000003
 20
-331.3633467400939
 30
0.0
 40
75.2000000000001
100
AcDbArc
 50
270.0
 51
328.0753269346665
  0
ARC
  5
12D
330
54
100
AcDbEntity
  8
1
  6
PHANTOM
 62
     2
100
AcDbCircle
 10
-260.000000000003
 20
-331.3633467400939
 30
0.0
 40
53.00000000000011
100
AcDbArc
 50
213.9415371031615
 51
343.3663660010595
  0
ARC
  5
12E
330
54
100
AcDbEntity
  8
1
  6
Continuous
 62
     7
100
AcDbCircle
 10
-305.6500000000042
 20
-318.813346740094
 30
0.0
 40
0.75
100
AcDbArc
 50
180.0
 51
270.0
  0
ARC
  5
12F
330
54
100
AcDbEntity
  8
1
  6
Continuous
 62
     7
100
AcDbCircle
 10
-305.6500000000042
 20
-318.813346740094
 30
0.0
 40
0.75
100
AcDbArc
 50
270.0
 51
0.0
  0
ARC
  5
130
330
54
100
AcDbEntity
  8
1
  6
Continuous
 62
     7
100
AcDbCircle
 10
-301.1500000000042
 20
-318.813346740094
 30
0.0
 40
0.75
100
AcDbArc
 50
180.0
 51
270.0
  0
ARC
  5
131
330
54
100
AcDbEntity
  8
1
  6
Continuous
 62
     7
100
AcDbCircle
 10
-301.1500000000042
 20
-318.813346740094
 30
0.0
 40
0.75
100
AcDbArc
 50
270.0
 51
0.0
  0
ARC
  5
132
330
54
100
AcDbEntity
  8
1
  6
Continuous
 62
     7
100
AcDbCircle
 10
-301.1500000000042
 20
-312.313346740094
 30
0.0
 40
0.75
100
AcDbArc
 50
0.0
 51
90.0
  0
ARC
  5
133
330
54
100
AcDbEntity
  8
1
  6
Continuous
 62
     7
100
AcDbCircle
 10
-301.1500000000042
 20
-312.313346740094
 30
0.0
 40
0.75
100
AcDbArc
 50
90.0
 51
180.0
  0
ARC
  5
134
330
54
100
AcDbEntity
  8
1
  6
Continuous
 62
     7
100
AcDbCircle
 10
-305.6500000000042
 20
-312.313346740094
 30
0.0
 40
0.75
100
AcDbArc
 50
0.0
 51
90.0
  0
ARC
  5
135
330
54
100
AcDbEntity
  8
1
  6
Continuous
 62
     7
100
AcDbCircle
 10
-305.6500000000042
 20
-312.313346740094
 30
0.0
 40
0.75
100
AcDbArc
 50
90.0
 51
180.0
  0
ARC
  5
136
330
54
100
AcDbEntity
  8
1
  6
Continuous
 62
     7
100
AcDbCircle
 10
-297.8500000000052
 20
-318.813346740094
 30
0.0
 40
0.75
100
AcDbArc
 50
180.0
 51
270.0
  0
ARC
  5
137
330
54
100
AcDbEntity
  8
1
  6
Continuous
 62
     7
100
AcDbCircle
 10
-297.8500000000052
 20
-312.313346740094
 30
0.0
 40
0.75
100
AcDbArc
 50
90.0
 51
180.0
  0
ARC
  5
138
330
54
100
AcDbEntity
  8
1
  6
Continuous
 62
     7
100
AcDbCircle
 10
-297.8500000000052
 20
-312.313346740094
 30
0.0
 40
0.75
100
AcDbArc
 50
0.0
 51
90.0
  0
ARC
  5
139
330
54
100
AcDbEntity
  8
1
  6
Continuous
 62
     7
100
AcDbCircle
 10
-293.8500000000052
 20
-318.813346740094
 30
0.0
 40
0.75
100
AcDbArc
 50
0.0
 51
90.0
  0
ARC
  5
13A
330
54
100
AcDbEntity
  8
1
  6
Continuous
 62
     7
100
AcDbCircle
 10
-293.8500000000052
 20
-318.813346740094
 30
0.0
 40
0.75
100
AcDbArc
 50
270.0
 51
0.0
  0
ARC
  5
13B
330
54
100
AcDbEntity
  8
1
  6
Continuous
 62
     7
100
AcDbCircle
 10
-304.1500000000042
 20
-314.213346740092
 30
0.0
 40
0.75
100
AcDbArc
 50
180.0
 51
270.0
  0
ARC
  5
13C
330
54
100
AcDbEntity
  8
1
  6
Continuous
 62
     7
100
AcDbCircle
 10
-304.1500000000042
 20
-316.913346740093
 30
0.0
 40
0.75
100
AcDbArc
 50
90.0
 51
180.0
  0
ARC
  5
13D
330
54
100
AcDbEntity
  8
1
  6
Continuous
 62
     7
100
AcDbCircle
 10
-302.6500000000042
 20
-316.913346740093
 30
0.0
 40
0.75
100
AcDbArc
 50
0.0
 51
90.0
  0
ARC
  5
13E
330
54
100
AcDbEntity
  8
1
  6
Continuous
 62
     7
100
AcDbCircle
 10
-302.6500000000042
 20
-314.213346740092
 30
0.0
 40
0.75
100
AcDbArc
 50
270.0
 51
0.0
  0
ARC
  5
13F
330
54
100
AcDbEntity
  8
1
  6
Continuous
 62
     7
100
AcDbCircle
 10
-296.3500000000052
 20
-317.313346740094
 30
0.0
 40
0.75
100
AcDbArc
 50
180.0
 51
270.0
  0
ENDBLK
  5
56
330
54
100
AcDbEntity
  8
0
100
AcDbBlockEnd
  0
BLOCK
  5
58
330
57
100
AcDbEntity
  8
0
100
AcDbBlockBegin
  2
HL_100_Abgangsbogen_DN40
 70
     0
 10
-12003.82345325443
 20
-16234.34052960522
 30
0.0
  3
HL_100_Abgangsbogen_DN40
  1

  0
LINE
  5
140
330
57
100
AcDbEntity
  8
1
  6
Continuous
 62
     7
100
AcDbLine
 10
-11781.9
 20
-16978.63749407614
 30
0.0
 11
-11781.9
 21
-16947.09334674009
 31
0.0
  0
LINE
  5
141
330
57
100
AcDbEntity
  8
1
  6
Continuous
 62
     7
100
AcDbLine
 10
-11741.1
 20
-16978.63749407614
 30
0.0
 11
-11741.1
 21
-16948.59334674009
 31
0.0
  0
LINE
  5
142
330
57
100
AcDbEntity
  8
1
  6
Continuous
 62
     7
100
AcDbLine
 10
-11739.6
 20
-16947.09334674009
 30
0.0
 11
-11545.0
 21
-16947.09334674009
 31
0.0
  0
LINE
  5
143
330
57
100
AcDbEntity
  8
1
  6
Continuous
 62
     7
100
AcDbLine
 10
-11741.9
 20
-16907.09334674009
 30
0.0
 11
-11545.0
 21
-16907.09334674009
 31
0.0
  0
LINE
  5
144
330
57
100
AcDbEntity
  8
1
  6
Continuous
 62
     7
100
AcDbLine
 10
-11541.5
 20
-16908.0311689136
 30
0.0
 11
-11541.5
 21
-16946.15552456658
 31
0.0
  0
LINE
  5
145
330
57
100
AcDbEntity
  8
1
  6
Continuous
 62
     7
100
AcDbLine
 10
-11545.0
 20
-16947.09334674009
 30
0.0
 11
-11541.5
 21
-16946.15552456658
 31
0.0
  0
LINE
  5
146
330
57
100
AcDbEntity
  8
1
  6
Continuous
 62
     7
100
AcDbLine
 10
-11545.0
 20
-16907.09334674009
 30
0.0
 11
-11541.5
 21
-16908.0311689136
 31
0.0
  0
LINE
  5
147
330
57
100
AcDbEntity
  8
1
  6
Continuous
 62
     7
100
AcDbLine
 10
-11545.0
 20
-16947.09334674009
 30
0.0
 11
-11545.0
 21
-16907.09334674009
 31
0.0
  0
LINE
  5
148
330
57
100
AcDbEntity
  8
1
  6
Continuous
 62
     7
100
AcDbLine
 10
-11781.9
 20
-16978.63749407614
 30
0.0
 11
-11741.1
 21
-16978.63749407614
 31
0.0
  0
LINE
  5
149
330
57
100
AcDbEntity
  8
1
  6
Continuous
 62
     7
100
AcDbLine
 10
-11741.1
 20
-16947.09334674009
 30
0.0
 11
-11755.49739809783
 21
-16932.69594864226
 31
0.0
  0
LINE
  5
14A
330
57
100
AcDbEntity
  8
1
  6
PHANTOM
 62
     2
100
AcDbLine
 10
-11761.5
 20
-16985.99269967868
 30
0.0
 11
-11761.5
 21
-16921.63153331609
 31
0.0
  0
LINE
  5
14B
330
57
100
AcDbEntity
  8
1
  6
PHANTOM
 62
     2
100
AcDbLine
 10
-11765.95589717691
 20
-16927.09334674009
 30
0.0
 11
-11538.57515309653
 21
-16927.09334674009
 31
0.0
  0
ARC
  5
14C
330
57
100
AcDbEntity
  8
1
  6
Continuous
 62
     7
100
AcDbCircle
 10
-11761.5
 20
-16995.86334674009
 30
0.0
 40
26.70000000000441
100
AcDbArc
 50
30.31770287730749
 51
40.17789933275768
  0
ARC
  5
14D
330
57
100
AcDbEntity
  8
1
  6
Continuous
 62
     7
100
AcDbCircle
 10
-11741.9
 20
-16947.09334674009
 30
0.0
 40
40.0
100
AcDbArc
 50
90.0
 51
180.0
  0
ARC
  5
14E
330
57
100
AcDbEntity
  8
1
  6
Continuous
 62
     7
100
AcDbCircle
 10
-11739.6
 20
-16948.59334674009
 30
0.0
 40
1.5
100
AcDbArc
 50
90.0
 51
180.0
  0
ENDBLK
  5
59
330
57
100
AcDbEntity
  8
0
100
AcDbBlockEnd
  0
BLOCK
  5
5B
330
5A
100
AcDbEntity
  8
0
100
AcDbBlockBegin
  2
Knie_DN40_6_4_kurz_025U_2E
 70
     0
 10
21293.64165276972
 20
33221.65945190456
 30
0.0
  3
Knie_DN40_6_4_kurz_025U_2E
  1

  0
LINE
  5
14F
330
5A
100
AcDbEntity
  8
1
  6
Continuous
 62
     7
100
AcDbLine
 10
22816.83060997763
 20
32618.50506884178
 30
0.0
 11
22816.83060997763
 21
32618.50506884178
 31
0.0
  0
LINE
  5
150
330
5A
100
AcDbEntity
  8
1
  6
Continuous
 62
     7
100
AcDbLine
 10
22814.00218285288
 20
32580.50506884178
 30
0.0
 11
22816.00218285288
 21
32580.50506884178
 31
0.0
  0
LINE
  5
151
330
5A
100
AcDbEntity
  8
1
  6
Continuous
 62
     7
100
AcDbLine
 10
22852.50218285285
 20
32578.50506884178
 30
0.0
 11
22852.73312296054
 21
32578.10506884178
 31
0.0
  0
LINE
  5
152
330
5A
100
AcDbEntity
  8
1
  6
Continuous
 62
     7
100
AcDbLine
 10
22818.00218285288
 20
32578.50506884178
 30
0.0
 11
22852.50218285285
 21
32578.50506884178
 31
0.0
  0
LINE
  5
153
330
5A
100
AcDbEntity
  8
1
  6
Continuous
 62
     7
100
AcDbLine
 10
22853.59914836432
 20
32624.40506884179
 30
0.0
 11
22852.73312296054
 21
32622.90506884179
 31
0.0
  0
LINE
  5
154
330
5A
100
AcDbEntity
  8
1
  6
Continuous
 62
     7
100
AcDbLine
 10
22852.73312296054
 20
32622.90506884179
 30
0.0
 11
22852.50218285285
 21
32622.50506884178
 31
0.0
  0
LINE
  5
155
330
5A
100
AcDbEntity
  8
1
  6
Continuous
 62
     7
100
AcDbLine
 10
22852.73312296054
 20
32578.10506884178
 30
0.0
 11
22852.9063280413
 21
32577.80506884178
 31
0.0
  0
LINE
  5
156
330
5A
100
AcDbEntity
  8
1
  6
Continuous
 62
     7
100
AcDbLine
 10
22855.00218285286
 20
32576.60506884178
 30
0.0
 11
22853.59914836432
 21
32576.60506884178
 31
0.0
  0
LINE
  5
157
330
5A
100
AcDbEntity
  8
1
  6
Continuous
 62
     7
100
AcDbLine
 10
22852.9063280413
 20
32577.80506884178
 30
0.0
 11
22853.59914836432
 21
32576.60506884178
 31
0.0
  0
LINE
  5
158
330
5A
100
AcDbEntity
  8
1
  6
Continuous
 62
     2
100
AcDbLine
 10
22855.00218285286
 20
32577.80506884178
 30
0.0
 11
22852.9063280413
 21
32577.80506884178
 31
0.0
  0
LINE
  5
159
330
5A
100
AcDbEntity
  8
1
  6
Continuous
 62
     2
100
AcDbLine
 10
22855.00218285286
 20
32623.20506884179
 30
0.0
 11
22853.09045618155
 21
32623.20506884179
 31
0.0
  0
LINE
  5
15A
330
5A
100
AcDbEntity
  8
1
  6
Continuous
 62
     7
100
AcDbLine
 10
22855.00218285286
 20
32624.40506884179
 30
0.0
 11
22853.59914836432
 21
32624.40506884179
 31
0.0
  0
LINE
  5
15B
330
5A
100
AcDbEntity
  8
1
  6
Continuous
 62
     7
100
AcDbLine
 10
22818.00218285288
 20
32622.50506884178
 30
0.0
 11
22816.00218285288
 21
32620.50506884178
 31
0.0
  0
LINE
  5
15C
330
5A
100
AcDbEntity
  8
1
  6
Continuous
 62
     7
100
AcDbLine
 10
22818.00218285288
 20
32622.50506884178
 30
0.0
 11
22852.50218285285
 21
32622.50506884178
 31
0.0
  0
LINE
  5
15D
330
5A
100
AcDbEntity
  8
1
  6
Continuous
 62
     7
100
AcDbLine
 10
22816.00218285288
 20
32580.50506884178
 30
0.0
 11
22818.00218285288
 21
32578.50506884178
 31
0.0
  0
LINE
  5
15E
330
5A
100
AcDbEntity
  8
1
  6
Continuous
 62
     7
100
AcDbLine
 10
22794.00218285288
 20
32620.50506884178
 30
0.0
 11
22816.00218285288
 21
32620.50506884178
 31
0.0
  0
LINE
  5
15F
330
5A
100
AcDbEntity
  8
1
  6
Continuous
 62
     7
100
AcDbLine
 10
22774.00218285288
 20
32600.50506884178
 30
0.0
 11
22774.00218285288
 21
32576.75673489163
 31
0.0
  0
LINE
  5
160
330
5A
100
AcDbEntity
  8
1
  6
Continuous
 62
     7
100
AcDbLine
 10
22814.00218285288
 20
32580.50506884178
 30
0.0
 11
22814.00218285288
 21
32576.7567348916
 31
0.0
  0
LINE
  5
161
330
5A
100
AcDbEntity
  8
1
  6
Continuous
 62
     7
100
AcDbLine
 10
22817.90218285288
 20
32573.35549905564
 30
0.0
 11
22817.90218285288
 21
32574.50506884178
 31
0.0
  0
LINE
  5
162
330
5A
100
AcDbEntity
  8
1
  6
Continuous
 62
     7
100
AcDbLine
 10
22817.80459782267
 20
32574.56140958524
 30
0.0
 11
22817.90218285288
 21
32574.50506884178
 31
0.0
  0
LINE
  5
163
330
5A
100
AcDbEntity
  8
1
  6
Continuous
 62
     7
100
AcDbLine
 10
22770.10218285289
 20
32574.50506884178
 30
0.0
 11
22770.10218285289
 21
32573.35549905564
 31
0.0
  0
LINE
  5
164
330
5A
100
AcDbEntity
  8
1
  6
Continuous
 62
     7
100
AcDbLine
 10
22774.00218285288
 20
32576.7567348916
 30
0.0
 11
22774.00218285288
 21
32576.75673489163
 31
0.0
  0
LINE
  5
165
330
5A
100
AcDbEntity
  8
1
  6
Continuous
 62
     7
100
AcDbLine
 10
22812.00218285288
 20
32575.60203435324
 30
0.0
 11
22812.00218285288
 21
32575.60203435322
 31
0.0
  0
LINE
  5
166
330
5A
100
AcDbEntity
  8
1
  6
PHANTOM
 62
     2
100
AcDbLine
 10
22788.53270506005
 20
32600.50506884178
 30
0.0
 11
22852.50218285285
 21
32600.50506884178
 31
0.0
  0
LINE
  5
167
330
5A
100
AcDbEntity
  8
1
  6
Continuous
 62
     7
100
AcDbLine
 10
22816.00218285288
 20
32620.50506884178
 30
0.0
 11
22816.00218285288
 21
32580.50506884178
 31
0.0
  0
LINE
  5
168
330
5A
100
AcDbEntity
  8
1
  6
Continuous
 62
     7
100
AcDbLine
 10
22818.00218285288
 20
32578.50506884178
 30
0.0
 11
22818.00218285288
 21
32622.50506884178
 31
0.0
  0
LINE
  5
169
330
5A
100
AcDbEntity
  8
1
  6
Continuous
 62
     7
100
AcDbLine
 10
22852.50218285285
 20
32622.50506884178
 30
0.0
 11
22852.50218285285
 21
32578.50506884178
 31
0.0
  0
LINE
  5
16A
330
5A
100
AcDbEntity
  8
1
  6
Continuous
 62
     7
100
AcDbLine
 10
22790.66765907373
 20
32603.83959262094
 30
0.0
 11
22814.00218285288
 21
32580.50506884178
 31
0.0
  0
LINE
  5
16B
330
5A
100
AcDbEntity
  8
1
  6
Continuous
 62
     7
100
AcDbLine
 10
22774.00218285288
 20
32576.7567348916
 30
0.0
 11
22814.00218285288
 21
32576.7567348916
 31
0.0
  0
LINE
  5
16C
330
5A
100
AcDbEntity
  8
1
  6
Continuous
 62
     7
100
AcDbLine
 10
22770.10218285289
 20
32574.50506884178
 30
0.0
 11
22774.00218285288
 21
32576.7567348916
 31
0.0
  0
LINE
  5
16D
330
5A
100
AcDbEntity
  8
1
  6
PHANTOM
 62
     2
100
AcDbLine
 10
22794.00218285288
 20
32606.96207095922
 30
0.0
 11
22794.00218285288
 21
32558.68118817312
 31
0.0
  0
LINE
  5
16E
330
5A
100
AcDbEntity
  8
1
  6
Continuous
 62
     2
100
AcDbLine
 10
22816.60218285288
 20
32573.35549905564
 30
0.0
 11
22816.60218285288
 21
32574.81019773472
 31
0.0
  0
LINE
  5
16F
330
5A
100
AcDbEntity
  8
1
  6
Continuous
 62
     2
100
AcDbLine
 10
22771.40218285288
 20
32574.81019773472
 30
0.0
 11
22771.40218285288
 21
32573.35549905564
 31
0.0
  0
LINE
  5
170
330
5A
100
AcDbEntity
  8
1
  6
Continuous
 62
     7
100
AcDbLine
 10
22770.10218285289
 20
32574.56140958524
 30
0.0
 11
22817.80459782267
 21
32574.56140958524
 31
0.0
  0
LINE
  5
171
330
5A
100
AcDbEntity
  8
1
  6
Continuous
 62
     7
100
AcDbLine
 10
22814.00218285288
 20
32576.7567348916
 30
0.0
 11
22817.80459782267
 21
32574.56140958524
 31
0.0
  0
LINE
  5
172
330
5A
100
AcDbEntity
  8
1
  6
Continuous
 62
     7
100
AcDbLine
 10
22853.59914836432
 20
32576.40506884179
 30
0.0
 11
22853.59914836432
 21
32624.40506884179
 31
0.0
  0
ARC
  5
173
330
5A
100
AcDbEntity
  8
1
  6
Continuous
 62
     7
100
AcDbCircle
 10
22794.00218285288
 20
32600.50506884178
 30
0.0
 40
20.0
100
AcDbArc
 50
90.0
 51
180.0
  0
ENDBLK
  5
5C
330
5A
100
AcDbEntity
  8
0
100
AcDbBlockEnd
  0
BLOCK
  5
64
330
5D
100
AcDbEntity
  8
0
100
AcDbBlockBegin
  2
HL_126_40_Raumsparsifon
 70
     0
 10
-174.7599474985212
 20
-184.9662992776478
 30
0.0
  3
HL_126_40_Raumsparsifon
  1

  0
INSERT
  5
5E
330
5D
100
AcDbEntity
  8
0
100
AcDbBlockReference
  2
Katalog-HL19ABSC
 10
-371.7248624521566
 20
-102.2704418343284
 30
0.0
  0
INSERT
  5
5F
330
5D
100
AcDbEntity
  8
0
100
AcDbBlockReference
  2
Holländermutter_6_4__1
 10
0.00000000000913
 20
-7.0
 30
0.0
  0
INSERT
  5
60
330
5D
100
AcDbEntity
  8
0
100
AcDbBlockReference
  2
Pfeife_DN40_6_4_abgesetzt
 10
-181.1845915021695
 20
471.5787641580464
 30
0.0
  0
INSERT
  5
61
330
5D
100
AcDbEntity
  8
1
100
AcDbBlockReference
  2
HL_100_Krümmer
 10
-253.0406500963013
 20
-231.975725170698
 30
0.0
  0
INSERT
  5
62
330
5D
100
AcDbEntity
  8
1
100
AcDbBlockReference
  2
HL_100_Abgangsbogen_DN40
 10
-452.4019253364804
 20
415.2544831846844
 30
0.0
  0
INSERT
  5
63
330
5D
100
AcDbEntity
  8
0
100
AcDbBlockReference
  2
Knie_DN40_6_4_kurz_025U_2E
 10
-1800.360530083162
 20
591.6560491126002
 30
0.0
  0
DIMENSION
  5
17F
330
5D
100
AcDbEntity
  8
1
100
AcDbDimension
  2
*D16
 10
0.0
 20
55.064508151827
 30
0.0
 11
-151.6688802141229
 21
66.064508151827
 31
0.0
 70
    32
  1
120-325
 71
     5
 42
-1.0
 53
0.00013888888889
  3
ME10_DIM_10
100
AcDbAlignedDimension
 13
-300.0
 23
-23.04133183274098
 33
0.0
 14
0.0
 24
3.43393154728983
 34
0.0
100
AcDbRotatedDimension
  0
DIMENSION
  5
18B
330
5D
100
AcDbEntity
  8
1
100
AcDbDimension
  2
*D17
 10
51.60546659676828
 20
-257.498333950185
 30
0.0
 11
40.60546659676828
 21
-207.0247053299127
 31
0.0
 70
    32
  1
<>
 71
     5
 42
-1.0
 53
90.0
  3
ME10_DIM_11
100
AcDbAlignedDimension
 13
6.42152791794979
 23
-297.498333950185
 33
0.0
 14
6.42152791794979
 24
-257.498333950185
 34
0.0
 50
90.0
100
AcDbRotatedDimension
  0
DIMENSION
  5
196
330
5D
100
AcDbEntity
  8
1
100
AcDbDimension
  2
*D18
 10
-210.0784720820521
 20
-438.9971067071226
 30
0.0
 11
-254.4354608942949
 21
-427.9971067071226
 31
0.0
 70
    32
  1
<>
 71
     5
 42
-1.0
 53
0.00013888888889
  3
ME10_DIM_12
100
AcDbAlignedDimension
 13
-300.000000000003
 23
-373.6268061347059
 33
0.0
 14
-210.0784720820502
 24
-336.3976868887767
 34
0.0
100
AcDbRotatedDimension
  0
DIMENSION
  5
1A1
330
5D
100
AcDbEntity
  8
1
100
AcDbDimension
  2
*D19
 10
-368.656793867471
 20
-407.493346740094
 30
0.0
 11
-379.656793867471
 21
-330.1832303403734
 31
0.0
 70
    32
  1
<>
 71
     5
 42
-1.0
 53
90.0
  3
ME10_DIM_13
100
AcDbAlignedDimension
 13
-214.5343692589595
 23
-277.498333950185
 33
0.0
 14
-277.678376343944
 24
-407.493346740094
 34
0.0
 50
90.0
100
AcDbRotatedDimension
  0
DIMENSION
  5
1AC
330
5D
100
AcDbEntity
  8
1
100
AcDbDimension
  2
*D20
 10
86.54331300996225
 20
-277.4983339501887
 30
0.0
 11
75.54331300996225
 21
-140.1398679682946
 31
0.0
 70
    32
  1
<>
 71
     5
 42
-1.0
 53
-90.00000000000001
  3
ME10_DIM_14
100
AcDbAlignedDimension
 13
30.37860435670154
 23
-7.50000000001091
 33
0.0
 14
12.84637482141989
 24
-277.498333950185
 34
0.0
 50
-90.00000000000001
100
AcDbRotatedDimension
  0
DIMENSION
  5
1B7
330
5D
100
AcDbEntity
  8
1
100
AcDbDimension
  2
*D21
 10
55.80533933680846
 20
-7.50000000001092
 30
0.0
 11
44.80533933680846
 21
-29.03760693306617
 31
0.0
 70
    32
  1
<>
 71
     5
 42
-1.0
 53
90.0
  3
ME10_DIM_15
100
AcDbAlignedDimension
 13
0.0
 23
-49.50000000001091
 33
0.0
 14
30.37860435670154
 24
-7.50000000001091
 34
0.0
 50
90.0
100
AcDbRotatedDimension
  0
DIMENSION
  5
1C3
330
5D
100
AcDbEntity
  8
1
100
AcDbDimension
  2
*D22
 10
-22.00000000000003
 20
23.0
 30
0.0
 11
55.81599149761661
 21
34.0
 31
0.0
 70
    32
  1
R6/4"
 71
     5
 42
-1.0
 53
0.00013888888889
  3
ME10_DIM_16
100
AcDbAlignedDimension
 13
22.0
 23
3.0
 33
0.0
 14
-22.0
 24
3.0
 34
0.0
100
AcDbRotatedDimension
  0
DIMENSION
  5
1D0
330
5D
100
AcDbEntity
  8
1
100
AcDbDimension
  2
*D23
 10
-413.0172848709103
 20
-162.849440884482
 30
0.0
 11
-356.2482585340504
 21
-166.6726176620306
 31
0.0
 70
    33
  1
3/4"
 71
     5
 42
-1.0
 53
-14.99999999999658
  3
ME10_DIM_17
100
AcDbAlignedDimension
 13
-388.2344532726397
 23
-136.1520019149666
 33
0.0
 14
-404.6827902003051
 24
-131.7446833183647
 34
0.0
  0
DIMENSION
  5
1DB
330
5D
100
AcDbEntity
  8
1
100
AcDbDimension
  2
*D24
 10
-210.0784720820521
 20
-438.9971067071226
 30
0.0
 11
-107.7761253044498
 21
-427.9971067071226
 31
0.0
 70
    32
  1
<>
 71
     5
 42
-1.0
 53
0.00013888888889
  3
ME10_DIM_18
100
AcDbAlignedDimension
 13
9.92152791794979
 23
-296.5605117766754
 33
0.0
 14
-210.0784720820502
 24
-336.3976868887767
 34
0.0
100
AcDbRotatedDimension
  0
ENDBLK
  5
65
330
5D
100
AcDbEntity
  8
0
100
AcDbBlockEnd
  0
BLOCK
  5
67
330
66
100
AcDbEntity
  8
0
100
AcDbBlockBegin
  2
Holländermutter_6_4__2
 70
     0
 10
-230.5000000000342
 20
-29.49833395017449
 30
0.0
  3
Holländermutter_6_4__2
  1

  0
LINE
  5
1DC
330
66
100
AcDbEntity
  8
1
  6
PHANTOM
 62
     2
100
AcDbLine
 10
-236.5000000000342
 20
-29.49833395018413
 30
0.0
 11
-239.0000000000342
 21
-29.49833395018413
 31
0.0
  0
LINE
  5
1DD
330
66
100
AcDbEntity
  8
0
  6
Continuous
 62
     7
100
AcDbLine
 10
-236.5000000000342
 20
-49.59743445360982
 30
0.0
 11
-236.5000000000342
 21
-47.54682478817085
 31
0.0
  0
LINE
  5
1DE
330
66
100
AcDbEntity
  8
0
  6
Continuous
 62
     7
100
AcDbLine
 10
-236.5000000000342
 20
-55.92275447362999
 30
0.0
 11
-236.5000000000342
 21
-50.37525191291798
 31
0.0
  0
LINE
  5
1DF
330
66
100
AcDbEntity
  8
0
  6
Continuous
 62
     7
100
AcDbLine
 10
-236.5000000000342
 20
-12.22766057150011
 30
0.0
 11
-236.5000000000342
 21
-27.49833395018413
 31
0.0
  0
LINE
  5
1E0
330
66
100
AcDbEntity
  8
0
  6
Continuous
 62
     7
100
AcDbLine
 10
-236.5000000000342
 20
-57.02275447363218
 30
0.0
 11
-236.5000000000342
 21
-55.92275447362999
 31
0.0
  0
LINE
  5
1E1
330
66
100
AcDbEntity
  8
0
  6
Continuous
 62
     7
100
AcDbLine
 10
-223.2422826367122
 20
-57.02275447363218
 30
0.0
 11
-236.5000000000342
 21
-57.02275447363218
 31
0.0
  0
LINE
  5
1E2
330
66
100
AcDbEntity
  8
0
  6
Continuous
 62
     7
100
AcDbLine
 10
-222.3218007376791
 20
-55.92275447362999
 30
0.0
 11
-222.3218007376791
 21
-49.59743445360982
 31
0.0
  0
LINE
  5
1E3
330
66
100
AcDbEntity
  8
0
  6
Continuous
 62
     7
100
AcDbLine
 10
-222.3218007376791
 20
-27.49833395018413
 30
0.0
 11
-223.2422826367122
 21
-27.49833395018413
 31
0.0
  0
LINE
  5
1E4
330
66
100
AcDbEntity
  8
0
  6
Continuous
 62
     7
100
AcDbLine
 10
-222.3218007376791
 20
-55.92275447362999
 30
0.0
 11
-236.5000000000342
 21
-55.92275447362999
 31
0.0
  0
LINE
  5
1E5
330
66
100
AcDbEntity
  8
0
  6
Continuous
 62
     7
100
AcDbLine
 10
-236.5000000000342
 20
-57.99833395018413
 30
0.0
 11
-239.0000000000342
 21
-57.99833395018413
 31
0.0
  0
LINE
  5
1E6
330
66
100
AcDbEntity
  8
0
  6
Continuous
 62
     7
100
AcDbLine
 10
-236.5000000000342
 20
-0.99833395018413
 30
0.0
 11
-239.0000000000342
 21
-0.99833395018413
 31
0.0
  0
LINE
  5
1E7
330
66
100
AcDbEntity
  8
0
  6
Continuous
 62
     7
100
AcDbLine
 10
-239.0000000000342
 20
-57.99833395018413
 30
0.0
 11
-239.0000000000342
 21
-0.99833395018413
 31
0.0
  0
LINE
  5
1E8
330
66
100
AcDbEntity
  8
0
  6
Continuous
 62
     7
100
AcDbLine
 10
-223.2422826367122
 20
-1.97391342673518
 30
0.0
 11
-236.5000000000342
 21
-1.97391342673518
 31
0.0
  0
LINE
  5
1E9
330
66
100
AcDbEntity
  8
0
  6
Continuous
 62
     7
100
AcDbLine
 10
-236.5000000000342
 20
-3.07391342673691
 30
0.0
 11
-236.5000000000342
 21
-8.62141598744893
 31
0.0
  0
LINE
  5
1EA
330
66
100
AcDbEntity
  8
0
  6
Continuous
 62
     7
100
AcDbLine
 10
-222.3218007376791
 20
-3.07391342673691
 30
0.0
 11
-236.5000000000342
 21
-3.07391342673691
 31
0.0
  0
LINE
  5
1EB
330
66
100
AcDbEntity
  8
0
  6
Continuous
 62
     7
100
AcDbLine
 10
-222.3218007376791
 20
-3.07391342673691
 30
0.0
 11
-222.3218007376791
 21
-9.39923344675708
 31
0.0
  0
LINE
  5
1EC
330
66
100
AcDbEntity
  8
0
  6
Continuous
 62
     7
100
AcDbLine
 10
-236.5000000000342
 20
-49.65087721399914
 30
0.0
 11
-236.5000000000342
 21
-49.59743445360982
 31
0.0
  0
LINE
  5
1ED
330
66
100
AcDbEntity
  8
0
  6
Continuous
 62
     7
100
AcDbLine
 10
-236.5000000000342
 20
-31.49833395018413
 30
0.0
 11
-236.5000000000342
 21
-29.49833395018413
 31
0.0
  0
LINE
  5
1EE
330
66
100
AcDbEntity
  8
0
  6
Continuous
 62
     7
100
AcDbLine
 10
-236.5000000000342
 20
-11.44984311219605
 30
0.0
 11
-236.5000000000342
 21
-9.39923344675708
 31
0.0
  0
LINE
  5
1EF
330
66
100
AcDbEntity
  8
0
  6
Continuous
 62
     7
100
AcDbLine
 10
-236.5000000000342
 20
-11.44984311219605
 30
0.0
 11
-236.5000000000342
 21
-12.22766057150011
 31
0.0
  0
LINE
  5
1F0
330
66
100
AcDbEntity
  8
0
  6
Continuous
 62
     7
100
AcDbLine
 10
-236.5000000000342
 20
-27.49833395018413
 30
0.0
 11
-236.5000000000342
 21
-29.49833395018413
 31
0.0
  0
LINE
  5
1F1
330
66
100
AcDbEntity
  8
0
  6
Continuous
 62
     7
100
AcDbLine
 10
-236.5000000000342
 20
-9.34579068636776
 30
0.0
 11
-236.5000000000342
 21
-9.39923344675708
 31
0.0
  0
LINE
  5
1F2
330
66
100
AcDbEntity
  8
0
  6
Continuous
 62
     7
100
AcDbLine
 10
-236.5000000000342
 20
-8.62141598744893
 30
0.0
 11
-236.5000000000342
 21
-9.34579068636776
 31
0.0
  0
LINE
  5
1F3
330
66
100
AcDbEntity
  8
0
  6
Continuous
 62
     7
100
AcDbLine
 10
-236.5000000000342
 20
-31.49833395018413
 30
0.0
 11
-236.5000000000342
 21
-46.76900732886406
 31
0.0
  0
LINE
  5
1F4
330
66
100
AcDbEntity
  8
0
  6
Continuous
 62
     7
100
AcDbLine
 10
-236.5000000000342
 20
-46.76900732886406
 30
0.0
 11
-236.5000000000342
 21
-47.54682478817085
 31
0.0
  0
LINE
  5
1F5
330
66
100
AcDbEntity
  8
0
  6
Continuous
 62
     7
100
AcDbLine
 10
-236.5000000000342
 20
-49.65087721399914
 30
0.0
 11
-236.5000000000342
 21
-50.37525191291798
 31
0.0
  0
LINE
  5
1F6
330
66
100
AcDbEntity
  8
0
  6
Continuous
 62
     7
100
AcDbLine
 10
-226.0000000000342
 20
-50.37525191291798
 30
0.0
 11
-236.5000000000342
 21
-50.37525191291798
 31
0.0
  0
LINE
  5
1F7
330
66
100
AcDbEntity
  8
0
  6
Continuous
 62
     7
100
AcDbLine
 10
-225.0000000000342
 20
-8.62141598744893
 30
0.0
 11
-236.5000000000342
 21
-8.62141598744893
 31
0.0
  0
LINE
  5
1F8
330
66
100
AcDbEntity
  8
0
  6
Continuous
 62
     7
100
AcDbLine
 10
-224.0000000000342
 20
-29.49833395018413
 30
0.0
 11
-236.5000000000342
 21
-29.49833395018413
 31
0.0
  0
LINE
  5
1F9
330
66
100
AcDbEntity
  8
0
  6
Continuous
 62
     7
100
AcDbLine
 10
-224.0000000000342
 20
-9.34579068636776
 30
0.0
 11
-236.5000000000342
 21
-9.34579068636776
 31
0.0
  0
LINE
  5
1FA
330
66
100
AcDbEntity
  8
0
  6
Continuous
 62
     7
100
AcDbLine
 10
-224.0000000000342
 20
-49.65087721399914
 30
0.0
 11
-236.5000000000342
 21
-49.65087721399914
 31
0.0
  0
LINE
  5
1FB
330
66
100
AcDbEntity
  8
0
  6
Continuous
 62
     7
100
AcDbLine
 10
-223.2422826367122
 20
-27.49833395018413
 30
0.0
 11
-236.5000000000342
 21
-27.49833395018413
 31
0.0
  0
LINE
  5
1FC
330
66
100
AcDbEntity
  8
0
  6
Continuous
 62
     7
100
AcDbLine
 10
-223.2422826366613
 20
-47.54682478818177
 30
0.0
 11
-236.5000000000342
 21
-47.54682478817085
 31
0.0
  0
LINE
  5
1FD
330
66
100
AcDbEntity
  8
0
  6
Continuous
 62
     7
100
AcDbLine
 10
-223.2422826367122
 20
-11.44984311219605
 30
0.0
 11
-236.5000000000342
 21
-11.44984311219605
 31
0.0
  0
LINE
  5
1FE
330
66
100
AcDbEntity
  8
0
  6
Continuous
 62
     7
100
AcDbLine
 10
-223.2422826367122
 20
-8.62141598744893
 30
0.0
 11
-225.0000000000342
 21
-8.62141598744893
 31
0.0
  0
LINE
  5
1FF
330
66
100
AcDbEntity
  8
0
  6
Continuous
 62
     7
100
AcDbLine
 10
-223.2422826367122
 20
-31.49833395018413
 30
0.0
 11
-236.5000000000342
 21
-31.49833395018413
 31
0.0
  0
LINE
  5
200
330
66
100
AcDbEntity
  8
0
  6
Continuous
 62
     7
100
AcDbLine
 10
-222.3218007376791
 20
-46.76900732886406
 30
0.0
 11
-236.5000000000342
 21
-46.76900732886406
 31
0.0
  0
LINE
  5
201
330
66
100
AcDbEntity
  8
0
  6
Continuous
 62
     7
100
AcDbLine
 10
-222.3218007376791
 20
-31.49833395018413
 30
0.0
 11
-223.2422826367122
 21
-31.49833395018413
 31
0.0
  0
LINE
  5
202
330
66
100
AcDbEntity
  8
0
  6
Continuous
 62
     7
100
AcDbLine
 10
-222.3218007376791
 20
-12.22766057150011
 30
0.0
 11
-236.5000000000342
 21
-12.22766057150011
 31
0.0
  0
LINE
  5
203
330
66
100
AcDbEntity
  8
0
  6
Continuous
 62
     7
100
AcDbLine
 10
-222.3218007376791
 20
-12.22766057150011
 30
0.0
 11
-222.3218007376791
 21
-27.49833395018413
 31
0.0
  0
LINE
  5
204
330
66
100
AcDbEntity
  8
0
  6
Continuous
 62
     7
100
AcDbLine
 10
-222.3218007376791
 20
-31.49833395018413
 30
0.0
 11
-222.3218007376791
 21
-46.76900732886406
 31
0.0
  0
LINE
  5
205
330
66
100
AcDbEntity
  8
0
  6
Continuous
 62
     7
100
AcDbLine
 10
-223.2422826367122
 20
-50.37525191291798
 30
0.0
 11
-225.0000000000342
 21
-50.37525191291798
 31
0.0
  0
LINE
  5
206
330
66
100
AcDbEntity
  8
0
  6
Continuous
 62
     7
100
AcDbLine
 10
-225.0000000000342
 20
-50.37525191291798
 30
0.0
 11
-226.0000000000342
 21
-50.37525191291798
 31
0.0
  0
LINE
  5
207
330
66
100
AcDbEntity
  8
0
  6
Continuous
 62
     7
100
AcDbLine
 10
-236.5000000000342
 20
-1.97391342673518
 30
0.0
 11
-236.5000000000342
 21
-3.07391342673691
 31
0.0
  0
LINE
  5
208
330
66
100
AcDbEntity
  8
0
  6
Continuous
 62
     7
100
AcDbLine
 10
-223.9999999999971
 20
-57.99833395016503
 30
0.0
 11
-222.0000000000342
 21
-55.61482676499418
 31
0.0
  0
LINE
  5
209
330
66
100
AcDbEntity
  8
0
  6
Continuous
 62
     7
100
AcDbLine
 10
-236.5000000000342
 20
-57.02275447363218
 30
0.0
 11
-236.5000000000342
 21
-57.99833395018413
 31
0.0
  0
LINE
  5
20A
330
66
100
AcDbEntity
  8
0
  6
Continuous
 62
     7
100
AcDbLine
 10
-236.5000000000342
 20
-1.97391342673518
 30
0.0
 11
-236.5000000000342
 21
-0.99833395018413
 31
0.0
  0
LINE
  5
20B
330
66
100
AcDbEntity
  8
0
  6
Continuous
 62
     7
100
AcDbLine
 10
-224.0000000000342
 20
-0.99833395018413
 30
0.0
 11
-236.5000000000342
 21
-0.99833395018413
 31
0.0
  0
LINE
  5
20C
330
66
100
AcDbEntity
  8
0
  6
Continuous
 62
     7
100
AcDbLine
 10
-223.9999999999971
 20
-57.99833395016503
 30
0.0
 11
-236.5000000000342
 21
-57.99833395018413
 31
0.0
  0
LINE
  5
20D
330
66
100
AcDbEntity
  8
0
  6
Continuous
 62
     7
100
AcDbLine
 10
-224.0000000000342
 20
-0.99833395018413
 30
0.0
 11
-222.0000000000342
 21
-3.38184113537409
 31
0.0
  0
LINE
  5
20E
330
66
100
AcDbEntity
  8
0
  6
Continuous
 62
     7
100
AcDbLine
 10
-222.0000000000342
 20
-3.38184113537409
 30
0.0
 11
-222.0000000000342
 21
-55.61482676499418
 31
0.0
  0
SPLINE
  5
20F
330
66
100
AcDbEntity
  8
0
  6
Continuous
 62
     7
100
AcDbSpline
210
0.0
220
0.0
230
1.0
 70
     8
 71
     3
 72
    11
 73
     7
 74
     5
 42
0.000000001
 43
0.0000000001
 44
0.00000001
 40
0.0
 40
0.0
 40
0.0
 40
0.0
 40
0.3152989234467216
 40
0.6240834980404426
 40
0.9336077907769051
 40
1.2355720262188
 40
1.2355720262188
 40
1.2355720262188
 40
1.2355720262188
 10
-223.9999999999971
 20
-57.99833395016503
 30
0.0
 10
-223.9328432847671
 20
-57.91748447992202
 30
0.0
 10
-223.7999173817391
 20
-57.75745595004934
 30
0.0
 10
-223.6067867550138
 20
-57.51340390138672
 30
0.0
 10
-223.4205079049793
 20
-57.26964335070781
 30
0.0
 10
-223.3011993703741
 20
-57.10436965579034
 30
0.0
 10
-223.2422826367122
 20
-57.02275447363218
 30
0.0
 11
-223.9999999999971
 21
-57.99833395016503
 31
0.0
 11
-223.7995061678479
 21
-57.75499132250417
 31
0.0
 11
-223.6076256713582
 21
-57.51306201734997
 31
0.0
 11
-223.4201221712546
 21
-57.26679442837938
 31
0.0
 11
-223.2422826367122
 21
-57.02275447363218
 31
0.0
  0
SPLINE
  5
210
330
66
100
AcDbEntity
  8
0
  6
Continuous
 62
     7
100
AcDbSpline
210
0.0
220
0.0
230
1.0
 70
     8
 71
     3
 72
    11
 73
     7
 74
     5
 42
0.000000001
 43
0.0000000001
 44
0.00000001
 40
0.0
 40
0.0
 40
0.0
 40
0.0
 40
0.5543188591685965
 40
1.11755386296236
 40
1.673979122166606
 40
2.236567028803113
 40
2.236567028803113
 40
2.236567028803113
 40
2.236567028803113
 10
-223.2422826366613
 20
-47.54682478818177
 30
0.0
 10
-223.3009230317251
 20
-47.72204897849663
 30
0.0
 10
-223.4191470590318
 20
-48.07531581192651
 30
0.0
 10
-223.6054480657034
 20
-48.60131348734961
 30
0.0
 10
-223.7985596595339
 20
-49.12778147723384
 30
0.0
 10
-223.9326071390347
 20
-49.4758729651676
 30
0.0
 10
-224.0000000000342
 20
-49.65087721399914
 30
0.0
 11
-223.2422826366613
 21
-47.54682478818177
 31
0.0
 11
-223.4197171682418
 21
-48.07197846541567
 31
0.0
 11
-223.6071979950153
 21
-48.60309484555
 31
0.0
 11
-223.7992347990891
 21
-49.12533131986453
 31
0.0
 11
-224.0000000000342
 21
-49.65087721399914
 31
0.0
  0
SPLINE
  5
211
330
66
100
AcDbEntity
  8
0
  6
Continuous
 62
     7
100
AcDbSpline
210
0.0
220
0.0
230
1.0
 70
     8
 71
     3
 72
    11
 73
     7
 74
     5
 42
0.000000001
 43
0.0000000001
 44
0.00000001
 40
0.0
 40
0.0
 40
0.0
 40
0.0
 40
0.3565221488584244
 40
0.717162281082139
 40
1.074239850857296
 40
1.434324554760015
 40
1.434324554760015
 40
1.434324554760015
 40
1.434324554760015
 10
-222.3218007376791
 20
-55.92275447362999
 30
0.0
 10
-222.3980627588117
 20
-56.01389842560875
 30
0.0
 10
-222.5514676715969
 20
-56.19723907154894
 30
0.0
 10
-222.7812634267486
 20
-56.47185728244626
 30
0.0
 10
-223.0118277575811
 20
-56.74738079034518
 30
0.0
 10
-223.1652499016259
 20
-56.93070701393628
 30
0.0
 10
-223.2422826367122
 20
-57.02275447363218
 30
0.0
 11
-222.3218007376791
 21
-55.92275447362999
 31
0.0
 11
-222.5505884560842
 21
-56.19618494474418
 31
0.0
 11
-222.7820265953793
 21
-56.47276710731103
 31
0.0
 11
-223.0111860062538
 21
-56.74661077666343
 31
0.0
 11
-223.2422826367122
 21
-57.02275447363218
 31
0.0
  0
SPLINE
  5
212
330
66
100
AcDbEntity
  8
0
  6
Continuous
 62
     7
100
AcDbSpline
210
0.0
220
0.0
230
1.0
 70
     8
 71
     3
 72
    11
 73
     7
 74
     5
 42
0.000000001
 43
0.0000000001
 44
0.00000001
 40
0.0
 40
0.0
 40
0.0
 40
0.0
 40
0.3572711679015125
 40
0.7171622810821379
 40
1.074171569535864
 40
1.43432455475966
 40
1.43432455475966
 40
1.43432455475966
 40
1.43432455475966
 10
-222.3218007376791
 20
-3.073913426736908
 30
0.0
 10
-222.3982229794253
 20
-2.982577991158057
 30
0.0
 10
-222.5516278949615
 20
-2.799237347519463
 30
0.0
 10
-222.7814090512817
 20
-2.524636598348356
 30
0.0
 10
-223.0118131504843
 20
-2.249304564831366
 30
0.0
 10
-223.165235294336
 20
-2.065978341078822
 30
0.0
 10
-223.2422826367122
 20
-1.97391342673518
 30
0.0
 11
-222.3218007376791
 21
-3.073913426736908
 31
0.0
 11
-222.5510691254473
 21
-2.799908511116769
 31
0.0
 11
-222.7820265953793
 21
-2.523900793055873
 31
0.0
 11
-223.0111421850813
 21
-2.250109488230577
 31
0.0
 11
-223.2422826367122
 21
-1.97391342673518
 31
0.0
  0
SPLINE
  5
213
330
66
100
AcDbEntity
  8
0
  6
Continuous
 62
     7
100
AcDbSpline
210
0.0
220
0.0
230
1.0
 70
     8
 71
     3
 72
    11
 73
     7
 74
     5
 42
0.000000001
 43
0.0000000001
 44
0.00000001
 40
0.0
 40
0.0
 40
0.0
 40
0.0
 40
0.3023613649075725
 40
0.6025600718724387
 40
0.9059830063445962
 40
1.205108678842906
 40
1.205108678842906
 40
1.205108678842906
 40
1.205108678842906
 10
-223.2422826367122
 20
-50.37525191291798
 30
0.0
 10
-223.165296746166
 20
-50.31020411091198
 30
0.0
 10
-223.0118756209705
 20
-50.18057375380317
 30
0.0
 10
-222.781204950076
 20
-49.98565936167392
 30
0.0
 10
-222.5513627040034
 20
-49.79143566750435
 30
0.0
 10
-222.3979567024339
 20
-49.66179333390134
 30
0.0
 10
-222.3218007376791
 20
-49.59743445360982
 30
0.0
 11
-223.2422826367122
 21
-50.37525191291798
 31
0.0
 11
-223.0113260789715
 21
-50.18010718860951
 31
0.0
 11
-222.7820266175561
 21
-49.98635213536409
 31
0.0
 11
-222.5502698006589
 21
-49.79050971149849
 31
0.0
 11
-222.3218007376791
 21
-49.59743445360982
 31
0.0
  0
SPLINE
  5
214
330
66
100
AcDbEntity
  8
0
  6
Continuous
 62
     7
100
AcDbSpline
210
0.0
220
0.0
230
1.0
 70
     8
 71
     3
 72
    11
 73
     7
 74
     5
 42
0.000000001
 43
0.0000000001
 44
0.00000001
 40
0.0
 40
0.0
 40
0.0
 40
0.0
 40
0.2994287919468261
 40
0.6025485779338822
 40
0.902783983923187
 40
1.205108678840259
 40
1.205108678840259
 40
1.205108678840259
 40
1.205108678840259
 10
-222.3218007376791
 20
-12.22766057150011
 30
0.0
 10
-222.3980338756657
 20
-12.16323647359784
 30
0.0
 10
-222.5514398707837
 20
-12.03359414735569
 30
0.0
 10
-222.7812914557129
 20
-11.83936256677093
 30
0.0
 10
-223.0118849501605
 20
-11.64451338844875
 30
0.0
 10
-223.1653060828586
 20
-11.51488302522412
 30
0.0
 10
-223.2422826367122
 20
-11.44984311219605
 30
0.0
 11
-222.3218007376791
 21
-12.22766057150011
 31
0.0
 11
-222.5505013229116
 21
-12.03438966380537
 31
0.0
 11
-222.7820265953793
 21
-11.83874290848917
 31
0.0
 11
-223.0113540887665
 21
-11.64496416923623
 31
0.0
 11
-223.2422826367122
 21
-11.44984311219605
 31
0.0
  0
SPLINE
  5
215
330
66
100
AcDbEntity
  8
0
  6
Continuous
 62
     7
100
AcDbSpline
210
0.0
220
0.0
230
1.0
 70
     8
 71
     3
 72
    11
 73
     7
 74
     5
 42
0.000000001
 43
0.0000000001
 44
0.00000001
 40
0.0
 40
0.0
 40
0.0
 40
0.0
 40
0.3024286829095471
 40
0.6025600718406099
 40
0.9055648577536634
 40
1.205108678810187
 40
1.205108678810187
 40
1.205108678810187
 40
1.205108678810187
 10
-223.2422826366613
 20
-47.54682478818177
 30
0.0
 10
-223.1652796060044
 20
-47.48176250376176
 30
0.0
 10
-223.0118584810069
 20
-47.35213214643515
 30
0.0
 10
-222.7812942748236
 20
-47.15730771456319
 30
0.0
 10
-222.5514691645649
 20
-46.96309850790993
 30
0.0
 10
-222.3980631617028
 20
-46.8334561758367
 30
0.0
 10
-222.3218007376791
 20
-46.76900732886406
 30
0.0
 11
-223.2422826366613
 21
-47.54682478818177
 31
0.0
 11
-223.0112746591474
 21
-47.35163661596988
 31
0.0
 11
-222.7820266175561
 21
-47.15792501061696
 31
0.0
 11
-222.5505891819999
 21
-46.96235248261381
 31
0.0
 11
-222.3218007376791
 21
-46.76900732886406
 31
0.0
  0
SPLINE
  5
216
330
66
100
AcDbEntity
  8
0
  6
Continuous
 62
     7
100
AcDbSpline
210
0.0
220
0.0
230
1.0
 70
     8
 71
     3
 72
    11
 73
     7
 74
     5
 42
0.000000001
 43
0.0000000001
 44
0.00000001
 40
0.0
 40
0.0
 40
0.0
 40
0.0
 40
0.299886479938711
 40
0.6025485779365254
 40
0.901723717266447
 40
1.205108678842902
 40
1.205108678842902
 40
1.205108678842902
 40
1.205108678842902
 10
-222.3218007376791
 20
-9.39923344675708
 30
0.0
 10
-222.3981504015329
 20
-9.334710875057624
 30
0.0
 10
-222.5515563980354
 20
-9.20506855045251
 30
0.0
 10
-222.7811380399259
 20
-9.01106508830358
 30
0.0
 10
-223.0116149941699
 20
-8.81631436681147
 30
0.0
 10
-223.1650361239908
 20
-8.686684000181627
 30
0.0
 10
-223.2422826367122
 20
-8.621415987448927
 30
0.0
 11
-222.3218007376791
 21
-9.39923344675708
 31
0.0
 11
-222.5508509044302
 21
-9.205667122306238
 31
0.0
 11
-222.7820265953793
 21
-9.010315783742044
 31
0.0
 11
-223.0105442207842
 21
-8.817221353805394
 31
0.0
 11
-223.2422826367122
 21
-8.621415987448927
 31
0.0
  0
SPLINE
  5
217
330
66
100
AcDbEntity
  8
0
  6
Continuous
 62
     7
100
AcDbSpline
210
0.0
220
0.0
230
1.0
 70
     8
 71
     3
 72
    11
 73
     7
 74
     5
 42
0.000000001
 43
0.0000000001
 44
0.00000001
 40
0.0
 40
0.0
 40
0.0
 40
0.0
 40
0.54011447261196
 40
1.069443422464176
 40
1.607110367597087
 40
2.138967657364915
 40
2.138967657364915
 40
2.138967657364915
 40
2.138967657364915
 10
-224.0000000000342
 20
-29.49833395018413
 30
0.0
 10
-223.9323987499583
 20
-29.33146616834758
 30
0.0
 10
-223.798546190108
 20
-29.00106277471556
 30
0.0
 10
-223.6056793404179
 20
-28.50126205269981
 30
0.0
 10
-223.4195615085355
 20
-28.0018403573125
 30
0.0
 10
-223.3011612058163
 20
-27.66556053025809
 30
0.0
 10
-223.2422826367122
 20
-27.49833395018413
 30
0.0
 11
-224.0000000000342
 21
-29.49833395018413
 31
0.0
 11
-223.7986017545879
 21
-28.9971729078888
 31
0.0
 11
-223.6076256713582
 21
-28.50349561154417
 31
0.0
 11
-223.4204267992484
 21
-27.99946949483586
 31
0.0
 11
-223.2422826367122
 21
-27.49833395018413
 31
0.0
  0
SPLINE
  5
218
330
66
100
AcDbEntity
  8
0
  6
Continuous
 62
     7
100
AcDbSpline
210
0.0
220
0.0
230
1.0
 70
     8
 71
     3
 72
    11
 73
     7
 74
     5
 42
0.000000001
 43
0.0000000001
 44
0.00000001
 40
0.0
 40
0.0
 40
0.0
 40
0.0
 40
0.2712732238835214
 40
0.532740194268177
 40
0.7946573268782586
 40
1.048535542549367
 40
1.048535542549367
 40
1.048535542549367
 40
1.048535542549367
 10
-224.0000000000342
 20
-9.345790686367764
 30
0.0
 10
-223.9325811455604
 20
-9.285525951871978
 30
0.0
 10
-223.8001805701808
 20
-9.167174981245005
 30
0.0
 10
-223.6069952058559
 20
-8.985918218341935
 30
0.0
 10
-223.4211390887329
 20
-8.805367801090702
 30
0.0
 10
-223.3012787570032
 20
-8.682092829030797
 30
0.0
 10
-223.2422826367122
 20
-8.621415987448927
 30
0.0
 11
-224.0000000000342
 21
-9.345790686367764
 31
0.0
 11
-223.7984924305404
 21
-9.164176090415255
 31
0.0
 11
-223.6076256713582
 21
-8.985472825354009
 31
0.0
 11
-223.4201128246687
 21
-8.802608075330852
 31
0.0
 11
-223.2422826367122
 21
-8.621415987448927
 31
0.0
  0
SPLINE
  5
219
330
66
100
AcDbEntity
  8
0
  6
Continuous
 62
     7
100
AcDbSpline
210
0.0
220
0.0
230
1.0
 70
     8
 71
     3
 72
    11
 73
     7
 74
     5
 42
0.000000001
 43
0.0000000001
 44
0.00000001
 40
0.0
 40
0.0
 40
0.0
 40
0.0
 40
0.5642569841864422
 40
1.117752099907599
 40
1.680943573997037
 40
2.236567026744956
 40
2.236567026744956
 40
2.236567026744956
 40
2.236567026744956
 10
-224.0000000000342
 20
-9.345790686367764
 30
0.0
 10
-223.9324086474093
 20
-9.52131471548124
 30
0.0
 10
-223.798515101405
 20
-9.86901507297571
 30
0.0
 10
-223.6055550475534
 20
-10.39507523130503
 30
0.0
 10
-223.4194230297219
 20
-10.92054254616249
 30
0.0
 10
-223.3010625536437
 20
-11.27420702172371
 30
0.0
 10
-223.2422826367122
 20
-11.44984311219605
 30
0.0
 11
-224.0000000000342
 21
-9.345790686367764
 31
0.0
 11
-223.7986488976085
 21
-9.872899477618889
 31
0.0
 11
-223.6076256713582
 21
-10.39238669623092
 31
0.0
 11
-223.4201431678549
 21
-10.92345632210237
 31
0.0
 11
-223.2422826367122
 21
-11.44984311219605
 31
0.0
  0
SPLINE
  5
21A
330
66
100
AcDbEntity
  8
0
  6
Continuous
 62
     7
100
AcDbSpline
210
0.0
220
0.0
230
1.0
 70
     8
 71
     3
 72
    11
 73
     7
 74
     5
 42
0.000000001
 43
0.0000000001
 44
0.00000001
 40
0.0
 40
0.0
 40
0.0
 40
0.0
 40
0.5373994098883944
 40
1.069443421120916
 40
1.607942799014322
 40
2.138967656576483
 40
2.138967656576483
 40
2.138967656576483
 40
2.138967656576483
 10
-224.0000000000342
 20
-29.49833395018413
 30
0.0
 10
-223.9327359963381
 20
-29.66436183826518
 30
0.0
 10
-223.7988783153507
 20
-29.99476308611393
 30
0.0
 10
-223.6058950246489
 20
-30.49481647951444
 30
0.0
 10
-223.4194665919599
 20
-30.99508833682326
 30
0.0
 10
-223.3010681356841
 20
-31.33136879178553
 30
0.0
 10
-223.2422826367122
 20
-31.49833395018413
 30
0.0
 11
-224.0000000000342
 21
-29.49833395018413
 31
0.0
 11
-223.799597913814
 21
-29.9969692173334
 31
0.0
 11
-223.6076256713582
 21
-30.4931722888241
 31
0.0
 11
-223.4201424283882
 21
-30.99798078097939
 31
0.0
 11
-223.2422826367122
 21
-31.49833395018413
 31
0.0
  0
SPLINE
  5
21B
330
66
100
AcDbEntity
  8
0
  6
Continuous
 62
     7
100
AcDbSpline
210
0.0
220
0.0
230
1.0
 70
     8
 71
     3
 72
    11
 73
     7
 74
     5
 42
0.000000001
 43
0.0000000001
 44
0.00000001
 40
0.0
 40
0.0
 40
0.0
 40
0.0
 40
0.2532283968016885
 40
0.5152040065320216
 40
0.7778363652522081
 40
1.048535546975894
 40
1.048535546975894
 40
1.048535546975894
 40
1.048535546975894
 10
-223.2422826367122
 20
-50.37525191291798
 30
0.0
 10
-223.3011267817816
 20
-50.31472945915392
 30
0.0
 10
-223.420847723096
 20
-50.19159394840561
 30
0.0
 10
-223.6068316144353
 20
-50.010900451004
 30
0.0
 10
-223.8001748224771
 20
-49.82949506377395
 30
0.0
 10
-223.9327233235791
 20
-49.7110138498925
 30
0.0
 10
-224.0000000000342
 20
-49.65087721399914
 30
0.0
 11
-223.2422826367122
 21
-50.37525191291798
 31
0.0
 11
-223.4196525149482
 21
-50.19451855321826
 31
0.0
 11
-223.6071979950153
 21
-50.01160350976898
 31
0.0
 11
-223.7989152411658
 21
-49.8321035000796
 31
0.0
 11
-224.0000000000342
 21
-49.65087721399914
 31
0.0
  0
SPLINE
  5
21C
330
66
100
AcDbEntity
  8
0
  6
Continuous
 62
     7
100
AcDbSpline
210
0.0
220
0.0
230
1.0
 70
     8
 71
     3
 72
    11
 73
     7
 74
     5
 42
0.000000001
 43
0.0000000001
 44
0.00000001
 40
0.0
 40
0.0
 40
0.0
 40
0.0
 40
0.3158789477959576
 40
0.6240832434645922
 40
0.9336075373327893
 40
1.235572027457154
 40
1.235572027457154
 40
1.235572027457154
 40
1.235572027457154
 10
-224.0000000000342
 20
-0.9983339501841328
 30
0.0
 10
-223.9327203758093
 20
-1.079332696076728
 30
0.0
 10
-223.79979577681
 20
-1.239362237119157
 30
0.0
 10
-223.6066695485434
 20
-1.483417565244621
 30
0.0
 10
-223.4205079827337
 20
-1.727024396867374
 30
0.0
 10
-223.3011994128429
 20
-1.892298170843987
 30
0.0
 10
-223.2422826367122
 20
-1.97391342673518
 30
0.0
 11
-224.0000000000342
 21
-0.9983339501841328
 31
0.0
 11
-223.7991414607342
 21
-1.242127627073273
 31
0.0
 11
-223.6076258283911
 21
-1.483605681054996
 31
0.0
 11
-223.4201223234335
 21
-1.729873267752395
 31
0.0
 11
-223.2422826367122
 21
-1.97391342673518
 31
0.0
  0
ENDBLK
  5
68
330
66
100
AcDbEntity
  8
0
100
AcDbBlockEnd
  0
BLOCK
  5
6A
330
69
100
AcDbEntity
  8
0
100
AcDbBlockBegin
  2
Holländermutter_6_4__3
 70
     0
 10
-300.000000000003
 20
-65.14790373632604
 30
0.0
  3
Holländermutter_6_4__3
  1

  0
LINE
  5
21D
330
69
100
AcDbEntity
  8
0
  6
Continuous
 62
     7
100
AcDbLine
 10
-273.8835071852025
 20
-73.64790373632604
 30
0.0
 11
-326.1164928148224
 21
-73.64790373632604
 31
0.0
  0
LINE
  5
21E
330
69
100
AcDbEntity
  8
0
  6
Continuous
 62
     7
100
AcDbLine
 10
-271.5000000000122
 20
-71.64790373632604
 30
0.0
 11
-273.8835071852025
 21
-73.64790373632604
 31
0.0
  0
LINE
  5
21F
330
69
100
AcDbEntity
  8
0
  6
Continuous
 62
     7
100
AcDbLine
 10
-328.499999999994
 20
-71.64790373636288
 30
0.0
 11
-328.5000000000125
 21
-59.14790373632604
 31
0.0
  0
LINE
  5
220
330
69
100
AcDbEntity
  8
0
  6
Continuous
 62
     7
100
AcDbLine
 10
-271.5000000000122
 20
-71.64790373632604
 30
0.0
 11
-271.5000000000125
 21
-59.14790373632604
 31
0.0
  0
LINE
  5
221
330
69
100
AcDbEntity
  8
0
  6
Continuous
 62
     7
100
AcDbLine
 10
-272.475579476564
 20
-59.14790373632604
 30
0.0
 11
-271.5000000000125
 21
-59.14790373632604
 31
0.0
  0
LINE
  5
222
330
69
100
AcDbEntity
  8
0
  6
Continuous
 62
     7
100
AcDbLine
 10
-327.524420523461
 20
-59.14790373632604
 30
0.0
 11
-328.5000000000125
 21
-59.14790373632604
 31
0.0
  0
LINE
  5
223
330
69
100
AcDbEntity
  8
0
  6
Continuous
 62
     7
100
AcDbLine
 10
-328.499999999994
 20
-71.64790373636288
 30
0.0
 11
-326.1164928148224
 21
-73.64790373632604
 31
0.0
  0
LINE
  5
224
330
69
100
AcDbEntity
  8
0
  6
Continuous
 62
     7
100
AcDbLine
 10
-272.475579476564
 20
-59.14790373632604
 30
0.0
 11
-273.5755794765661
 21
-59.14790373632604
 31
0.0
  0
LINE
  5
225
330
69
100
AcDbEntity
  8
0
  6
Continuous
 62
     7
100
AcDbLine
 10
-320.8769179627468
 20
-70.64790373632604
 30
0.0
 11
-320.8769179627465
 21
-69.64790373632604
 31
0.0
  0
LINE
  5
226
330
69
100
AcDbEntity
  8
0
  6
Continuous
 62
     7
100
AcDbLine
 10
-320.8769179627468
 20
-72.40562109964776
 30
0.0
 11
-320.8769179627468
 21
-70.64790373632604
 31
0.0
  0
LINE
  5
227
330
69
100
AcDbEntity
  8
0
  6
Continuous
 62
     7
100
AcDbLine
 10
-302.0000000000125
 20
-73.32610299868111
 30
0.0
 11
-317.270673378692
 21
-73.32610299868111
 31
0.0
  0
LINE
  5
228
330
69
100
AcDbEntity
  8
0
  6
Continuous
 62
     7
100
AcDbLine
 10
-282.7293266213285
 20
-73.32610299868111
 30
0.0
 11
-298.0000000000125
 21
-73.32610299868111
 31
0.0
  0
LINE
  5
229
330
69
100
AcDbEntity
  8
0
  6
Continuous
 62
     7
100
AcDbLine
 10
-282.7293266213285
 20
-73.32610299868111
 30
0.0
 11
-282.7293266213285
 21
-59.14790373632604
 31
0.0
  0
LINE
  5
22A
330
69
100
AcDbEntity
  8
0
  6
Continuous
 62
     7
100
AcDbLine
 10
-302.0000000000125
 20
-73.32610299868111
 30
0.0
 11
-302.0000000000125
 21
-72.40562109964776
 31
0.0
  0
LINE
  5
22B
330
69
100
AcDbEntity
  8
0
  6
Continuous
 62
     7
100
AcDbLine
 10
-317.270673378692
 20
-73.32610299868111
 30
0.0
 11
-317.270673378692
 21
-59.14790373632604
 31
0.0
  0
LINE
  5
22C
330
69
100
AcDbEntity
  8
0
  6
Continuous
 62
     7
100
AcDbLine
 10
-302.0000000000125
 20
-72.40562109964776
 30
0.0
 11
-302.0000000000125
 21
-59.14790373632604
 31
0.0
  0
LINE
  5
22D
330
69
100
AcDbEntity
  8
0
  6
Continuous
 62
     7
100
AcDbLine
 10
-279.1230820372782
 20
-72.40562109964776
 30
0.0
 11
-279.1230820372779
 21
-70.64790373632604
 31
0.0
  0
LINE
  5
22E
330
69
100
AcDbEntity
  8
0
  6
Continuous
 62
     7
100
AcDbLine
 10
-281.9515091620247
 20
-72.40562109964776
 30
0.0
 11
-281.9515091620249
 21
-59.14790373632604
 31
0.0
  0
LINE
  5
22F
330
69
100
AcDbEntity
  8
0
  6
Continuous
 62
     7
100
AcDbLine
 10
-318.0484908380107
 20
-72.40562109969915
 30
0.0
 11
-318.048490838
 21
-59.14790373632604
 31
0.0
  0
LINE
  5
230
330
69
100
AcDbEntity
  8
0
  6
Continuous
 62
     7
100
AcDbLine
 10
-298.0000000000125
 20
-72.40562109964776
 30
0.0
 11
-298.0000000000125
 21
-59.14790373632604
 31
0.0
  0
LINE
  5
231
330
69
100
AcDbEntity
  8
0
  6
Continuous
 62
     7
100
AcDbLine
 10
-320.152543263828
 20
-71.64790373632604
 30
0.0
 11
-320.152543263828
 21
-59.14790373632604
 31
0.0
  0
LINE
  5
232
330
69
100
AcDbEntity
  8
0
  6
Continuous
 62
     7
100
AcDbLine
 10
-279.8474567361969
 20
-71.64790373632604
 30
0.0
 11
-279.8474567361969
 21
-59.14790373632604
 31
0.0
  0
LINE
  5
233
330
69
100
AcDbEntity
  8
0
  6
Continuous
 62
     7
100
AcDbLine
 10
-300.0000000000125
 20
-71.64790373632604
 30
0.0
 11
-300.0000000000125
 21
-59.14790373632604
 31
0.0
  0
LINE
  5
234
330
69
100
AcDbEntity
  8
0
  6
Continuous
 62
     7
100
AcDbLine
 10
-279.1230820372779
 20
-70.64790373632604
 30
0.0
 11
-279.1230820372782
 21
-59.14790373632604
 31
0.0
  0
LINE
  5
235
330
69
100
AcDbEntity
  8
0
  6
Continuous
 62
     7
100
AcDbLine
 10
-320.8769179627465
 20
-69.64790373632604
 30
0.0
 11
-320.8769179627468
 21
-59.14790373632604
 31
0.0
  0
LINE
  5
236
330
69
100
AcDbEntity
  8
0
  6
Continuous
 62
     7
100
AcDbLine
 10
-320.152543263828
 20
-59.14790373632604
 30
0.0
 11
-320.8769179627468
 21
-59.14790373632604
 31
0.0
  0
LINE
  5
237
330
69
100
AcDbEntity
  8
0
  6
Continuous
 62
     7
100
AcDbLine
 10
-317.270673378692
 20
-59.14790373632604
 30
0.0
 11
-318.048490838
 21
-59.14790373632604
 31
0.0
  0
LINE
  5
238
330
69
100
AcDbEntity
  8
0
  6
Continuous
 62
     7
100
AcDbLine
 10
-302.0000000000125
 20
-59.14790373632604
 30
0.0
 11
-317.270673378692
 21
-59.14790373632604
 31
0.0
  0
LINE
  5
239
330
69
100
AcDbEntity
  8
0
  6
Continuous
 62
     7
100
AcDbLine
 10
-279.1230820372782
 20
-59.14790373632604
 30
0.0
 11
-279.8474567361969
 21
-59.14790373632604
 31
0.0
  0
LINE
  5
23A
330
69
100
AcDbEntity
  8
0
  6
Continuous
 62
     7
100
AcDbLine
 10
-279.8474567361969
 20
-59.14790373632604
 30
0.0
 11
-279.9008994965859
 21
-59.14790373632604
 31
0.0
  0
LINE
  5
23B
330
69
100
AcDbEntity
  8
0
  6
Continuous
 62
     7
100
AcDbLine
 10
-298.0000000000125
 20
-59.14790373632604
 30
0.0
 11
-300.0000000000125
 21
-59.14790373632604
 31
0.0
  0
LINE
  5
23C
330
69
100
AcDbEntity
  8
0
  6
Continuous
 62
     7
100
AcDbLine
 10
-281.9515091620249
 20
-59.14790373632604
 30
0.0
 11
-282.7293266213285
 21
-59.14790373632604
 31
0.0
  0
LINE
  5
23D
330
69
100
AcDbEntity
  8
0
  6
Continuous
 62
     7
100
AcDbLine
 10
-281.9515091620249
 20
-59.14790373632604
 30
0.0
 11
-279.9008994965859
 21
-59.14790373632604
 31
0.0
  0
LINE
  5
23E
330
69
100
AcDbEntity
  8
0
  6
Continuous
 62
     7
100
AcDbLine
 10
-302.0000000000125
 20
-59.14790373632604
 30
0.0
 11
-300.0000000000125
 21
-59.14790373632604
 31
0.0
  0
LINE
  5
23F
330
69
100
AcDbEntity
  8
0
  6
Continuous
 62
     7
100
AcDbLine
 10
-320.152543263828
 20
-59.14790373632604
 30
0.0
 11
-320.0991005034388
 21
-59.14790373632604
 31
0.0
  0
LINE
  5
240
330
69
100
AcDbEntity
  8
0
  6
Continuous
 62
     7
100
AcDbLine
 10
-273.5755794765661
 20
-73.32610299868111
 30
0.0
 11
-279.9008994965859
 21
-73.32610299868111
 31
0.0
  0
LINE
  5
241
330
69
100
AcDbEntity
  8
0
  6
Continuous
 62
     7
100
AcDbLine
 10
-273.5755794765661
 20
-73.32610299868111
 30
0.0
 11
-273.5755794765661
 21
-59.14790373632604
 31
0.0
  0
LINE
  5
242
330
69
100
AcDbEntity
  8
0
  6
Continuous
 62
     7
100
AcDbLine
 10
-273.5755794765661
 20
-59.14790373632604
 30
0.0
 11
-279.1230820372782
 21
-59.14790373632604
 31
0.0
  0
LINE
  5
243
330
69
100
AcDbEntity
  8
0
  6
Continuous
 62
     7
100
AcDbLine
 10
-272.475579476564
 20
-72.40562109964776
 30
0.0
 11
-272.475579476564
 21
-59.14790373632604
 31
0.0
  0
LINE
  5
244
330
69
100
AcDbEntity
  8
0
  6
Continuous
 62
     7
100
AcDbLine
 10
-328.5000000000125
 20
-56.64790373632604
 30
0.0
 11
-271.5000000000125
 21
-56.64790373632604
 31
0.0
  0
LINE
  5
245
330
69
100
AcDbEntity
  8
0
  6
Continuous
 62
     7
100
AcDbLine
 10
-271.5000000000125
 20
-59.14790373632604
 30
0.0
 11
-271.5000000000125
 21
-56.64790373632604
 31
0.0
  0
LINE
  5
246
330
69
100
AcDbEntity
  8
0
  6
Continuous
 62
     7
100
AcDbLine
 10
-328.5000000000125
 20
-59.14790373632604
 30
0.0
 11
-328.5000000000125
 21
-56.64790373632604
 31
0.0
  0
LINE
  5
247
330
69
100
AcDbEntity
  8
0
  6
Continuous
 62
     7
100
AcDbLine
 10
-326.4244205234588
 20
-73.32610299868111
 30
0.0
 11
-326.4244205234585
 21
-59.14790373632604
 31
0.0
  0
LINE
  5
248
330
69
100
AcDbEntity
  8
0
  6
Continuous
 62
     7
100
AcDbLine
 10
-298.0000000000125
 20
-73.32610299868111
 30
0.0
 11
-298.0000000000125
 21
-72.40562109964776
 31
0.0
  0
LINE
  5
249
330
69
100
AcDbEntity
  8
0
  6
Continuous
 62
     7
100
AcDbLine
 10
-326.4244205234588
 20
-73.32610299868111
 30
0.0
 11
-320.0991005034391
 21
-73.32610299868111
 31
0.0
  0
LINE
  5
24A
330
69
100
AcDbEntity
  8
0
  6
Continuous
 62
     7
100
AcDbLine
 10
-327.524420523461
 20
-72.40562109964776
 30
0.0
 11
-327.524420523461
 21
-59.14790373632604
 31
0.0
  0
LINE
  5
24B
330
69
100
AcDbEntity
  8
0
  6
Continuous
 62
     7
100
AcDbLine
 10
-327.524420523461
 20
-59.14790373632604
 30
0.0
 11
-326.4244205234585
 21
-59.14790373632604
 31
0.0
  0
LINE
  5
24C
330
69
100
AcDbEntity
  8
0
  6
Continuous
 62
     7
100
AcDbLine
 10
-282.7293266213285
 20
-59.14790373632604
 30
0.0
 11
-298.0000000000125
 21
-59.14790373632604
 31
0.0
  0
LINE
  5
24D
330
69
100
AcDbEntity
  8
0
  6
Continuous
 62
     7
100
AcDbLine
 10
-326.4244205234585
 20
-59.14790373632604
 30
0.0
 11
-320.8769179627468
 21
-59.14790373632604
 31
0.0
  0
LINE
  5
24E
330
69
100
AcDbEntity
  8
0
  6
Continuous
 62
     7
100
AcDbLine
 10
-320.0991005034388
 20
-59.14790373632604
 30
0.0
 11
-318.048490838
 21
-59.14790373632604
 31
0.0
  0
LINE
  5
24F
330
69
100
AcDbEntity
  8
1
  6
PHANTOM
 62
     2
100
AcDbLine
 10
-300.0000000000125
 20
-59.14790373632604
 30
0.0
 11
-300.0000000000125
 21
-56.64790373632604
 31
0.0
  0
SPLINE
  5
250
330
69
100
AcDbEntity
  8
0
  6
Continuous
 62
     7
100
AcDbSpline
210
0.0
220
0.0
230
1.0
 70
     8
 71
     3
 72
    11
 73
     7
 74
     5
 42
0.000000001
 43
0.0000000001
 44
0.00000001
 40
0.0
 40
0.0
 40
0.0
 40
0.0
 40
0.3158789477963468
 40
0.6240832434648811
 40
0.9336075373333734
 40
1.235572027457563
 40
1.235572027457563
 40
1.235572027457563
 40
1.235572027457563
 10
-271.5000000000122
 20
-71.64790373632604
 30
0.0
 10
-271.580998745905
 20
-71.71518336055092
 30
0.0
 10
-271.7410282869477
 20
-71.84810795955003
 30
0.0
 10
-271.9850836150732
 20
-72.04123418781688
 30
0.0
 10
-272.228690446696
 20
-72.2273957536265
 30
0.0
 10
-272.393964220673
 20
-72.34670432351713
 30
0.0
 10
-272.475579476564
 20
-72.40562109964776
 30
0.0
 11
-271.5000000000122
 21
-71.64790373632604
 31
0.0
 11
-271.7437936769019
 21
-71.84876227562603
 31
0.0
 11
-271.9852717308835
 21
-72.04027790796908
 31
0.0
 11
-272.2315393175812
 21
-72.22778141292679
 31
0.0
 11
-272.475579476564
 21
-72.40562109964776
 31
0.0
  0
SPLINE
  5
251
330
69
100
AcDbEntity
  8
0
  6
Continuous
 62
     7
100
AcDbSpline
210
0.0
220
0.0
230
1.0
 70
     8
 71
     3
 72
    11
 73
     7
 74
     5
 42
0.000000001
 43
0.0000000001
 44
0.00000001
 40
0.0
 40
0.0
 40
0.0
 40
0.0
 40
0.2532283968018581
 40
0.5152040065317476
 40
0.7778363652517823
 40
1.048535546975669
 40
1.048535546975669
 40
1.048535546975669
 40
1.048535546975669
 10
-320.8769179627468
 20
-72.40562109964776
 30
0.0
 10
-320.8163955089825
 20
-72.34677695457849
 30
0.0
 10
-320.6932599982339
 20
-72.22705601326437
 30
0.0
 10
-320.5125665008333
 20
-72.04107212192456
 30
0.0
 10
-320.331161113602
 20
-71.84772891388403
 30
0.0
 10
-320.2126798997211
 20
-71.71518041278142
 30
0.0
 10
-320.152543263828
 20
-71.64790373632604
 30
0.0
 11
-320.8769179627468
 21
-72.40562109964776
 31
0.0
 11
-320.6961846030467
 21
-72.22825122141195
 31
0.0
 11
-320.5132695595979
 21
-72.04070574134494
 31
0.0
 11
-320.3337695499081
 21
-71.8489884951951
 31
0.0
 11
-320.152543263828
 21
-71.64790373632604
 31
0.0
  0
SPLINE
  5
252
330
69
100
AcDbEntity
  8
0
  6
Continuous
 62
     7
100
AcDbSpline
210
0.0
220
0.0
230
1.0
 70
     8
 71
     3
 72
    11
 73
     7
 74
     5
 42
0.000000001
 43
0.0000000001
 44
0.00000001
 40
0.0
 40
0.0
 40
0.0
 40
0.0
 40
0.5373994098885341
 40
1.06944342112093
 40
1.607942799014168
 40
2.138967656576387
 40
2.138967656576387
 40
2.138967656576387
 40
2.138967656576387
 10
-300.0000000000125
 20
-71.64790373632604
 30
0.0
 10
-300.1660278880937
 20
-71.71516774002234
 30
0.0
 10
-300.496429135942
 20
-71.84902542100997
 30
0.0
 10
-300.996482529343
 20
-72.04200871171112
 30
0.0
 10
-301.4967543866516
 20
-72.2284371444002
 30
0.0
 10
-301.8330348416138
 20
-72.34683560067579
 30
0.0
 10
-302.0000000000125
 20
-72.40562109964776
 30
0.0
 11
-300.0000000000125
 21
-71.64790373632604
 31
0.0
 11
-300.4986352671618
 21
-71.84830582254659
 31
0.0
 11
-300.9948383386525
 21
-72.04027806500198
 31
0.0
 11
-301.4996468308077
 21
-72.22776130797183
 31
0.0
 11
-302.0000000000125
 21
-72.40562109964776
 31
0.0
  0
SPLINE
  5
253
330
69
100
AcDbEntity
  8
0
  6
Continuous
 62
     7
100
AcDbSpline
210
0.0
220
0.0
230
1.0
 70
     8
 71
     3
 72
    11
 73
     7
 74
     5
 42
0.000000001
 43
0.0000000001
 44
0.00000001
 40
0.0
 40
0.0
 40
0.0
 40
0.0
 40
0.5642569841861592
 40
1.117752099906861
 40
1.680943573996717
 40
2.236567026744438
 40
2.236567026744438
 40
2.236567026744438
 40
2.236567026744438
 10
-279.8474567361969
 20
-71.64790373632604
 30
0.0
 10
-280.0229807653103
 20
-71.71549508895086
 30
0.0
 10
-280.3706811228046
 20
-71.84938863495508
 30
0.0
 10
-280.8967412811335
 20
-72.04234868880687
 30
0.0
 10
-281.4222085959912
 20
-72.22848070663838
 30
0.0
 10
-281.7758730715524
 20
-72.34684118271632
 30
0.0
 10
-281.9515091620247
 20
-72.40562109964776
 30
0.0
 11
-279.8474567361969
 21
-71.64790373632604
 31
0.0
 11
-280.3745655274478
 21
-71.84925483875156
 31
0.0
 11
-280.8940527460593
 21
-72.04027806500198
 31
0.0
 11
-281.4251223719311
 21
-72.2277605685054
 31
0.0
 11
-281.9515091620247
 21
-72.40562109964776
 31
0.0
  0
SPLINE
  5
254
330
69
100
AcDbEntity
  8
0
  6
Continuous
 62
     7
100
AcDbSpline
210
0.0
220
0.0
230
1.0
 70
     8
 71
     3
 72
    11
 73
     7
 74
     5
 42
0.000000001
 43
0.0000000001
 44
0.00000001
 40
0.0
 40
0.0
 40
0.0
 40
0.0
 40
0.2712732238837086
 40
0.5327401942681909
 40
0.7946573268786175
 40
1.048535542549036
 40
1.048535542549036
 40
1.048535542549036
 40
1.048535542549036
 10
-279.8474567361969
 20
-71.64790373632604
 30
0.0
 10
-279.7871920017008
 20
-71.7153225907998
 30
0.0
 10
-279.6688410310735
 20
-71.84772316617904
 30
0.0
 10
-279.4875842681709
 20
-72.04090853050457
 30
0.0
 10
-279.3070338509198
 20
-72.22676464762739
 30
0.0
 10
-279.1837588788599
 20
-72.34662497935687
 30
0.0
 10
-279.1230820372782
 20
-72.40562109964776
 30
0.0
 11
-279.8474567361969
 21
-71.64790373632604
 31
0.0
 11
-279.6658421402439
 21
-71.84941130581973
 31
0.0
 11
-279.487138875183
 21
-72.04027806500198
 31
0.0
 11
-279.3042741251597
 21
-72.22779091169184
 31
0.0
 11
-279.1230820372782
 21
-72.40562109964776
 31
0.0
  0
SPLINE
  5
255
330
69
100
AcDbEntity
  8
0
  6
Continuous
 62
     7
100
AcDbSpline
210
0.0
220
0.0
230
1.0
 70
     8
 71
     3
 72
    11
 73
     7
 74
     5
 42
0.000000001
 43
0.0000000001
 44
0.00000001
 40
0.0
 40
0.0
 40
0.0
 40
0.0
 40
0.5401144726118103
 40
1.069443422464265
 40
1.607110367596806
 40
2.138967657364825
 40
2.138967657364825
 40
2.138967657364825
 40
2.138967657364825
 10
-300.0000000000125
 20
-71.64790373632604
 30
0.0
 10
-299.833132218176
 20
-71.71550498640218
 30
0.0
 10
-299.5027288245442
 20
-71.84935754625296
 30
0.0
 10
-299.0029281025282
 20
-72.04222439594201
 30
0.0
 10
-298.5035064071411
 20
-72.22834222782478
 30
0.0
 10
-298.1672265800865
 20
-72.34674253054371
 30
0.0
 10
-298.0000000000125
 20
-72.40562109964776
 30
0.0
 11
-300.0000000000125
 21
-71.64790373632604
 31
0.0
 11
-299.4988389577175
 21
-71.84930198177278
 31
0.0
 11
-299.0051616613724
 21
-72.04027806500198
 31
0.0
 11
-298.5011355446645
 21
-72.2274769371117
 31
0.0
 11
-298.0000000000125
 21
-72.40562109964776
 31
0.0
  0
SPLINE
  5
256
330
69
100
AcDbEntity
  8
0
  6
Continuous
 62
     7
100
AcDbSpline
210
0.0
220
0.0
230
1.0
 70
     8
 71
     3
 72
    11
 73
     7
 74
     5
 42
0.000000001
 43
0.0000000001
 44
0.00000001
 40
0.0
 40
0.0
 40
0.0
 40
0.0
 40
0.2998864799385093
 40
0.6025485779364177
 40
0.9017237172666415
 40
1.205108678842804
 40
1.205108678842804
 40
1.205108678842804
 40
1.205108678842804
 10
-279.9008994965859
 20
-73.32610299868111
 30
0.0
 10
-279.8363769248862
 20
-73.24975333482756
 30
0.0
 10
-279.7067346002809
 20
-73.09634733832527
 30
0.0
 10
-279.5127311381327
 20
-72.86676569643419
 30
0.0
 10
-279.3179804166401
 20
-72.63628874219046
 30
0.0
 10
-279.1883500500106
 20
-72.4828676123692
 30
0.0
 10
-279.1230820372782
 20
-72.40562109964776
 30
0.0
 11
-279.9008994965859
 21
-73.32610299868111
 31
0.0
 11
-279.7073331721348
 21
-73.09705283193045
 31
0.0
 11
-279.511981833571
 21
-72.86587714098096
 31
0.0
 11
-279.3188874036341
 21
-72.6373595155759
 31
0.0
 11
-279.1230820372782
 21
-72.40562109964776
 31
0.0
  0
SPLINE
  5
257
330
69
100
AcDbEntity
  8
0
  6
Continuous
 62
     7
100
AcDbSpline
210
0.0
220
0.0
230
1.0
 70
     8
 71
     3
 72
    11
 73
     7
 74
     5
 42
0.000000001
 43
0.0000000001
 44
0.00000001
 40
0.0
 40
0.0
 40
0.0
 40
0.0
 40
0.3024286829096672
 40
0.6025600718402225
 40
0.9055648577537043
 40
1.205108678810669
 40
1.205108678810669
 40
1.205108678810669
 40
1.205108678810669
 10
-318.0484908380107
 20
-72.40562109969915
 30
0.0
 10
-317.9834285535907
 20
-72.4826241303561
 30
0.0
 10
-317.8537981962642
 20
-72.63604525535345
 30
0.0
 10
-317.6589737643919
 20
-72.86660946153658
 30
0.0
 10
-317.4647645577385
 20
-73.0964345717953
 30
0.0
 10
-317.3351222256649
 20
-73.24984057465737
 30
0.0
 10
-317.270673378692
 20
-73.32610299868111
 30
0.0
 11
-318.0484908380107
 21
-72.40562109969915
 31
0.0
 11
-317.8533026657987
 21
-72.63662907721312
 31
0.0
 11
-317.6595910604459
 21
-72.86587711880384
 31
0.0
 11
-317.4640185324423
 21
-73.09731455436025
 31
0.0
 11
-317.270673378692
 21
-73.32610299868111
 31
0.0
  0
SPLINE
  5
258
330
69
100
AcDbEntity
  8
0
  6
Continuous
 62
     7
100
AcDbSpline
210
0.0
220
0.0
230
1.0
 70
     8
 71
     3
 72
    11
 73
     7
 74
     5
 42
0.000000001
 43
0.0000000001
 44
0.00000001
 40
0.0
 40
0.0
 40
0.0
 40
0.0
 40
0.2994287919463237
 40
0.6025485779337401
 40
0.9027839839228978
 40
1.205108678840271
 40
1.205108678840271
 40
1.205108678840271
 40
1.205108678840271
 10
-282.7293266213285
 20
-73.32610299868111
 30
0.0
 10
-282.6649025234264
 20
-73.24986986069463
 30
0.0
 10
-282.5352601971842
 20
-73.09646386557665
 30
0.0
 10
-282.3410286165994
 20
-72.86661228064759
 30
0.0
 10
-282.1461794382777
 20
-72.63601878619934
 30
0.0
 10
-282.0165490750529
 20
-72.48259765350147
 30
0.0
 10
-281.9515091620247
 20
-72.40562109964776
 30
0.0
 11
-282.7293266213285
 21
-73.32610299868111
 31
0.0
 11
-282.5360557136341
 21
-73.097402413449
 31
0.0
 11
-282.3404089583177
 21
-72.86587714098096
 31
0.0
 11
-282.1466302190652
 21
-72.6365496475936
 31
0.0
 11
-281.9515091620247
 21
-72.40562109964776
 31
0.0
  0
SPLINE
  5
259
330
69
100
AcDbEntity
  8
0
  6
Continuous
 62
     7
100
AcDbSpline
210
0.0
220
0.0
230
1.0
 70
     8
 71
     3
 72
    11
 73
     7
 74
     5
 42
0.000000001
 43
0.0000000001
 44
0.00000001
 40
0.0
 40
0.0
 40
0.0
 40
0.0
 40
0.3023613649082693
 40
0.6025600718726496
 40
0.905983006345136
 40
1.205108678842803
 40
1.205108678842803
 40
1.205108678842803
 40
1.205108678842803
 10
-320.8769179627468
 20
-72.40562109964776
 30
0.0
 10
-320.8118701607407
 20
-72.48260699019418
 30
0.0
 10
-320.6822398036319
 20
-72.63602811538965
 30
0.0
 10
-320.4873254115021
 20
-72.86669878628422
 30
0.0
 10
-320.2931017173332
 20
-73.09654103235687
 30
0.0
 10
-320.1634593837305
 20
-73.24994703392642
 30
0.0
 10
-320.0991005034391
 20
-73.32610299868111
 30
0.0
 11
-320.8769179627468
 21
-72.40562109964776
 31
0.0
 11
-320.6817732384379
 21
-72.63657765738895
 31
0.0
 11
-320.4880181851926
 21
-72.86587711880384
 31
0.0
 11
-320.2921757613271
 21
-73.0976339357016
 31
0.0
 11
-320.0991005034391
 21
-73.32610299868111
 31
0.0
  0
SPLINE
  5
25A
330
69
100
AcDbEntity
  8
0
  6
Continuous
 62
     7
100
AcDbSpline
210
0.0
220
0.0
230
1.0
 70
     8
 71
     3
 72
    11
 73
     7
 74
     5
 42
0.000000001
 43
0.0000000001
 44
0.00000001
 40
0.0
 40
0.0
 40
0.0
 40
0.0
 40
0.3572711679015139
 40
0.7171622810819449
 40
1.074171569536482
 40
1.434324554760086
 40
1.434324554760086
 40
1.434324554760086
 40
1.434324554760086
 10
-273.5755794765661
 20
-73.32610299868111
 30
0.0
 10
-273.484244040987
 20
-73.24968075693518
 30
0.0
 10
-273.3009033973481
 20
-73.0962758413996
 30
0.0
 10
-273.0263026481778
 20
-72.86649468507804
 30
0.0
 10
-272.7509706146599
 20
-72.63609058587622
 30
0.0
 10
-272.5676443909074
 20
-72.48266844202404
 30
0.0
 10
-272.475579476564
 20
-72.40562109964776
 30
0.0
 11
-273.5755794765661
 21
-73.32610299868111
 31
0.0
 11
-273.3015745609455
 21
-73.09683461091339
 31
0.0
 11
-273.0255668428852
 21
-72.86587714098096
 31
0.0
 11
-272.7517755380591
 21
-72.63676155127877
 31
0.0
 11
-272.475579476564
 21
-72.40562109964776
 31
0.0
  0
SPLINE
  5
25B
330
69
100
AcDbEntity
  8
0
  6
Continuous
 62
     7
100
AcDbSpline
210
0.0
220
0.0
230
1.0
 70
     8
 71
     3
 72
    11
 73
     7
 74
     5
 42
0.000000001
 43
0.0000000001
 44
0.00000001
 40
0.0
 40
0.0
 40
0.0
 40
0.0
 40
0.3565221488581074
 40
0.7171622810818155
 40
1.074239850857259
 40
1.434324554760174
 40
1.434324554760174
 40
1.434324554760174
 40
1.434324554760174
 10
-326.4244205234588
 20
-73.32610299868111
 30
0.0
 10
-326.5155644754375
 20
-73.24984097754869
 30
0.0
 10
-326.6989051213778
 20
-73.09643606476365
 30
0.0
 10
-326.9735233322747
 20
-72.8666403096116
 30
0.0
 10
-327.2490468401738
 20
-72.636075978779
 30
0.0
 10
-327.432373063765
 20
-72.48265383473408
 30
0.0
 10
-327.524420523461
 20
-72.40562109964776
 30
0.0
 11
-326.4244205234588
 21
-73.32610299868111
 31
0.0
 11
-326.6978509945729
 21
-73.09731528027635
 31
0.0
 11
-326.9744331571395
 21
-72.86587714098096
 31
0.0
 11
-327.2482768264921
 21
-72.63671773010628
 31
0.0
 11
-327.524420523461
 21
-72.40562109964776
 31
0.0
  0
SPLINE
  5
25C
330
69
100
AcDbEntity
  8
0
  6
Continuous
 62
     7
100
AcDbSpline
210
0.0
220
0.0
230
1.0
 70
     8
 71
     3
 72
    11
 73
     7
 74
     5
 42
0.000000001
 43
0.0000000001
 44
0.00000001
 40
0.0
 40
0.0
 40
0.0
 40
0.0
 40
0.5543188591685685
 40
1.117553862962485
 40
1.673979122166728
 40
2.236567028803139
 40
2.236567028803139
 40
2.236567028803139
 40
2.236567028803139
 10
-318.0484908380107
 20
-72.40562109969915
 30
0.0
 10
-318.2237150283256
 20
-72.34698070463543
 30
0.0
 10
-318.5769818617555
 20
-72.22875667732899
 30
0.0
 10
-319.1029795371786
 20
-72.04245567065664
 30
0.0
 10
-319.6294475270629
 20
-71.84934407682664
 30
0.0
 10
-319.9775390149965
 20
-71.71529659732572
 30
0.0
 10
-320.152543263828
 20
-71.64790373632604
 30
0.0
 11
-318.0484908380107
 21
-72.40562109969915
 31
0.0
 11
-318.5736445152447
 21
-72.22818656811882
 31
0.0
 11
-319.104760895379
 21
-72.04070574134494
 31
0.0
 11
-319.6269973696936
 21
-71.84866893727138
 31
0.0
 11
-320.152543263828
 21
-71.64790373632604
 31
0.0
  0
SPLINE
  5
25D
330
69
100
AcDbEntity
  8
0
  6
Continuous
 62
     7
100
AcDbSpline
210
0.0
220
0.0
230
1.0
 70
     8
 71
     3
 72
    11
 73
     7
 74
     5
 42
0.000000001
 43
0.0000000001
 44
0.00000001
 40
0.0
 40
0.0
 40
0.0
 40
0.0
 40
0.3152989234476195
 40
0.624083498040872
 40
0.9336077907776125
 40
1.235572026218881
 40
1.235572026218881
 40
1.235572026218881
 40
1.235572026218881
 10
-328.499999999994
 20
-71.64790373636288
 30
0.0
 10
-328.4191505297507
 20
-71.71506045159309
 30
0.0
 10
-328.2591219998777
 20
-71.84798635462101
 30
0.0
 10
-328.0150699512151
 20
-72.04111698134645
 30
0.0
 10
-327.7713094005366
 20
-72.22739583138122
 30
0.0
 10
-327.6060357056191
 20
-72.34670436598606
 30
0.0
 10
-327.524420523461
 20
-72.40562109964776
 30
0.0
 11
-328.499999999994
 21
-71.64790373636288
 31
0.0
 11
-328.2566573723323
 21
-71.84839756851255
 31
0.0
 11
-328.0147280671785
 21
-72.04027806500198
 31
0.0
 11
-327.7684604782079
 21
-72.22778156510599
 31
0.0
 11
-327.524420523461
 21
-72.40562109964776
 31
0.0
  0
ENDBLK
  5
6B
330
69
100
AcDbEntity
  8
0
100
AcDbBlockEnd
  0
BLOCK
  5
6D
330
6C
100
AcDbEntity
  8
0
100
AcDbBlockBegin
  2
Holländermutter_2_
 70
     0
 10
-210.3760583433147
 20
-341.063951459838
 30
0.0
  3
Holländermutter_2_
  1

  0
LINE
  5
25E
330
6C
100
AcDbEntity
  8
0
  6
Continuous
 62
     7
100
AcDbLine
 10
-231.2513185400184
 20
-334.4424671607019
 30
0.0
 11
-235.0933681926311
 21
-334.1063313713939
 31
0.0
  0
LINE
  5
25F
330
6C
100
AcDbEntity
  8
0
  6
Continuous
 62
     7
100
AcDbLine
 10
-177.1356695334298
 20
-339.9800288381639
 30
0.0
 11
-178.0682359808298
 21
-350.639312107746
 31
0.0
  0
LINE
  5
260
330
6C
100
AcDbEntity
  8
0
  6
Continuous
 62
     7
100
AcDbLine
 10
-177.2747588837113
 20
-339.967860096797
 30
0.0
 11
-178.2073253311113
 21
-350.627143366379
 31
0.0
  0
LINE
  5
261
330
6C
100
AcDbEntity
  8
0
  6
Continuous
 62
     7
100
AcDbLine
 10
-177.1356695334298
 20
-339.9800288381639
 30
0.0
 11
-177.2747588837113
 21
-339.967860096797
 31
0.0
  0
LINE
  5
262
330
6C
100
AcDbEntity
  8
0
  6
Continuous
 62
     7
100
AcDbLine
 10
-177.8629006977052
 20
-339.1133484854929
 30
0.0
 11
-177.1356695334298
 21
-339.9800288381639
 31
0.0
  0
LINE
  5
263
330
6C
100
AcDbEntity
  8
0
  6
Continuous
 62
     7
100
AcDbLine
 10
-179.8740308578224
 20
-333.4163882891189
 30
0.0
 11
-237.6533233471437
 21
-328.361355209755
 31
0.0
  0
LINE
  5
264
330
6C
100
AcDbEntity
  8
0
  6
Continuous
 62
     7
100
AcDbLine
 10
-178.2073253311113
 20
-350.627143366379
 30
0.0
 11
-178.0682359808298
 21
-350.639312107746
 31
0.0
  0
LINE
  5
265
330
6C
100
AcDbEntity
  8
0
  6
Continuous
 62
     7
100
AcDbLine
 10
-179.0078294458863
 20
-350.55710833123
 30
0.0
 11
-178.2073253311113
 21
-350.627143366379
 31
0.0
  0
LINE
  5
266
330
6C
100
AcDbEntity
  8
0
  6
Continuous
 62
     7
100
AcDbLine
 10
-244.3774116925555
 20
-347.8494704578509
 30
0.0
 11
-176.6361722223169
 21
-353.7760609646921
 31
0.0
  0
LINE
  5
267
330
6C
100
AcDbEntity
  8
0
  6
Continuous
 62
     7
100
AcDbLine
 10
-244.1159444643126
 20
-344.8608863635759
 30
0.0
 11
-244.3774116925555
 21
-347.8494704578509
 31
0.0
  0
LINE
  5
268
330
6C
100
AcDbEntity
  8
0
  6
Continuous
 62
     7
100
AcDbLine
 10
-238.3964739406494
 20
-334.620402934054
 30
0.0
 11
-239.3290403880493
 21
-345.279686203635
 31
0.0
  0
LINE
  5
269
330
6C
100
AcDbEntity
  8
0
  6
Continuous
 62
     7
100
AcDbLine
 10
-231.2513185400184
 20
-334.4424671607019
 30
0.0
 11
-232.2536095816194
 21
-345.8987061887599
 31
0.0
  0
LINE
  5
26A
330
6C
100
AcDbEntity
  8
0
  6
Continuous
 62
     7
100
AcDbLine
 10
-237.5745215368885
 20
-333.889258581306
 30
0.0
 11
-238.5768125784866
 21
-345.345497609361
 31
0.0
  0
LINE
  5
26B
330
6C
100
AcDbEntity
  8
0
  6
Continuous
 62
     7
100
AcDbLine
 10
-240.4805289708983
 20
-333.635015874705
 30
0.0
 11
-241.4828200125002
 21
-345.091254902763
 31
0.0
  0
LINE
  5
26C
330
6C
100
AcDbEntity
  8
0
  6
Continuous
 62
     7
100
AcDbLine
 10
-222.2735915822581
 20
-335.227916493737
 30
0.0
 11
-223.2758826238582
 21
-346.684155521795
 31
0.0
  0
LINE
  5
26D
330
6C
100
AcDbEntity
  8
0
  6
Continuous
 62
     7
100
AcDbLine
 10
-178.0055384042882
 20
-339.1008693031749
 30
0.0
 11
-179.0078294458863
 21
-350.55710833123
 31
0.0
  0
LINE
  5
26E
330
6C
100
AcDbEntity
  8
0
  6
Continuous
 62
     7
100
AcDbLine
 10
-211.7241870318495
 20
-336.15086979885
 30
0.0
 11
-212.7264780734476
 21
-347.607108826905
 31
0.0
  0
LINE
  5
26F
330
6C
100
AcDbEntity
  8
0
  6
Continuous
 62
     7
100
AcDbLine
 10
-206.7618803433407
 20
-336.5850153790329
 30
0.0
 11
-207.7641713849388
 21
-348.041254407088
 31
0.0
  0
LINE
  5
270
330
6C
100
AcDbEntity
  8
0
  6
Continuous
 62
     7
100
AcDbLine
 10
-180.9115458383019
 20
-338.8466265965769
 30
0.0
 11
-181.9138368798999
 21
-350.302865624632
 31
0.0
  0
LINE
  5
271
330
6C
100
AcDbEntity
  8
0
  6
Continuous
 62
     7
100
AcDbLine
 10
-196.2124757929316
 20
-337.5079686841391
 30
0.0
 11
-197.2147668345282
 21
-348.964207712198
 31
0.0
  0
LINE
  5
272
330
6C
100
AcDbEntity
  8
0
  6
Continuous
 62
     7
100
AcDbLine
 10
-187.2347488351689
 20
-338.2934180171781
 30
0.0
 11
-188.237039876767
 21
-349.7496570452329
 31
0.0
  0
LINE
  5
273
330
6C
100
AcDbEntity
  8
0
  6
Continuous
 62
     7
100
AcDbLine
 10
-235.7763145156495
 20
-334.8496371803719
 30
0.0
 11
-236.7088809630495
 21
-345.5089204499529
 31
0.0
  0
LINE
  5
274
330
6C
100
AcDbEntity
  8
0
  6
Continuous
 62
     7
100
AcDbLine
 10
-240.4407858611791
 20
-334.4415488162961
 30
0.0
 11
-241.3733523085791
 21
-345.100832085878
 31
0.0
  0
LINE
  5
275
330
6C
100
AcDbEntity
  8
0
  6
Continuous
 62
     7
100
AcDbLine
 10
-231.9342648630367
 20
-335.185772969679
 30
0.0
 11
-232.8668313104367
 21
-345.8450562392609
 31
0.0
  0
LINE
  5
276
330
6C
100
AcDbEntity
  8
0
  6
Continuous
 62
     7
100
AcDbLine
 10
-238.3964739406494
 20
-334.620402934054
 30
0.0
 11
-240.4407858611791
 21
-334.4415488162961
 31
0.0
  0
LINE
  5
277
330
6C
100
AcDbEntity
  8
0
  6
Continuous
 62
     7
100
AcDbLine
 10
-231.9342648630367
 20
-335.185772969679
 30
0.0
 11
-235.7763145156495
 21
-334.8496371803719
 31
0.0
  0
LINE
  5
278
330
6C
100
AcDbEntity
  8
0
  6
Continuous
 62
     7
100
AcDbLine
 10
-222.7435682338458
 20
-335.989854734639
 30
0.0
 11
-227.9199477278227
 21
-335.536980210808
 31
0.0
  0
LINE
  5
279
330
6C
100
AcDbEntity
  8
0
  6
Continuous
 62
     7
100
AcDbLine
 10
-211.9329177067931
 20
-336.935664101097
 30
0.0
 11
-217.8192792799356
 21
-336.420674194032
 31
0.0
  0
LINE
  5
27A
330
6C
100
AcDbEntity
  8
0
  6
Continuous
 62
     7
100
AcDbLine
 10
-200.8062372836509
 20
-337.9091225007981
 30
0.0
 11
-206.6925988567934
 21
-337.3941325937331
 31
0.0
  0
LINE
  5
27B
330
6C
100
AcDbEntity
  8
0
  6
Continuous
 62
     7
100
AcDbLine
 10
-190.7055688357639
 20
-338.7928164840221
 30
0.0
 11
-195.8819483297408
 21
-338.339941960191
 31
0.0
  0
LINE
  5
27C
330
6C
100
AcDbEntity
  8
0
  6
Continuous
 62
     7
100
AcDbLine
 10
-182.8492020479371
 20
-339.4801595144579
 30
0.0
 11
-186.6912517005498
 21
-339.1440237251509
 31
0.0
  0
LINE
  5
27D
330
6C
100
AcDbEntity
  8
0
  6
Continuous
 62
     7
100
AcDbLine
 10
-178.1847307024075
 20
-339.888247878534
 30
0.0
 11
-180.2290426229372
 21
-339.709393760776
 31
0.0
  0
LINE
  5
27E
330
6C
100
AcDbEntity
  8
0
  6
Continuous
 62
     7
100
AcDbLine
 10
-183.3926991825585
 20
-338.6295538064819
 30
0.0
 11
-187.2347488351689
 21
-338.2934180171781
 31
0.0
  0
LINE
  5
27F
330
6C
100
AcDbEntity
  8
0
  6
Continuous
 62
     7
100
AcDbLine
 10
-191.0360962989532
 20
-337.960843207974
 30
0.0
 11
-196.2124757929316
 21
-337.5079686841391
 31
0.0
  0
LINE
  5
280
330
6C
100
AcDbEntity
  8
0
  6
Continuous
 62
     7
100
AcDbLine
 10
-178.8672339177721
 20
-339.025480714334
 30
0.0
 11
-180.9115458383019
 21
-338.8466265965769
 31
0.0
  0
LINE
  5
281
330
6C
100
AcDbEntity
  8
0
  6
Continuous
 62
     7
100
AcDbLine
 10
-200.8755187701986
 20
-337.1000052860941
 30
0.0
 11
-206.7618803433407
 21
-336.5850153790329
 31
0.0
  0
LINE
  5
282
330
6C
100
AcDbEntity
  8
0
  6
Continuous
 62
     7
100
AcDbLine
 10
-177.8629006977052
 20
-339.1133484854929
 30
0.0
 11
-178.0055384042882
 21
-339.1008693031749
 31
0.0
  0
LINE
  5
283
330
6C
100
AcDbEntity
  8
0
  6
Continuous
 62
     7
100
AcDbLine
 10
-177.6014334694623
 20
-336.124764391217
 30
0.0
 11
-177.8629006977052
 21
-339.1133484854929
 31
0.0
  0
LINE
  5
284
330
6C
100
AcDbEntity
  8
0
  6
Continuous
 62
     7
100
AcDbLine
 10
-177.6014334694623
 20
-336.124764391217
 30
0.0
 11
-240.3616994492422
 21
-330.633952598115
 31
0.0
  0
LINE
  5
285
330
6C
100
AcDbEntity
  8
0
  6
Continuous
 62
     7
100
AcDbLine
 10
-240.3616994492422
 20
-330.633952598115
 30
0.0
 11
-240.6231666774852
 21
-333.62253669239
 31
0.0
  0
LINE
  5
286
330
6C
100
AcDbEntity
  8
0
  6
Continuous
 62
     7
100
AcDbLine
 10
-240.4805289708983
 20
-333.635015874705
 30
0.0
 11
-240.6231666774852
 21
-333.62253669239
 31
0.0
  0
LINE
  5
287
330
6C
100
AcDbEntity
  8
0
  6
Continuous
 62
     7
100
AcDbLine
 10
-211.7241870318495
 20
-336.15086979885
 30
0.0
 11
-217.6105486049911
 21
-335.635879891782
 31
0.0
  0
LINE
  5
288
330
6C
100
AcDbEntity
  8
0
  6
Continuous
 62
     7
100
AcDbLine
 10
-237.5745215368885
 20
-333.889258581306
 30
0.0
 11
-239.6188334574182
 21
-333.7104044635489
 31
0.0
  0
LINE
  5
289
330
6C
100
AcDbEntity
  8
0
  6
Continuous
 62
     7
100
AcDbLine
 10
-222.2735915822581
 20
-335.227916493737
 30
0.0
 11
-227.4499710762371
 21
-334.7750419699089
 31
0.0
  0
LINE
  5
28A
330
6C
100
AcDbEntity
  8
0
  6
Continuous
 62
     7
100
AcDbLine
 10
-222.7435682338458
 20
-335.989854734639
 30
0.0
 11
-223.6761346812457
 21
-346.649138004221
 31
0.0
  0
LINE
  5
28B
330
6C
100
AcDbEntity
  8
0
  6
Continuous
 62
     7
100
AcDbLine
 10
-227.9199477278227
 20
-335.536980210808
 30
0.0
 11
-228.8525141752227
 21
-346.1962634803899
 31
0.0
  0
LINE
  5
28C
330
6C
100
AcDbEntity
  8
0
  6
Continuous
 62
     7
100
AcDbLine
 10
-211.9329177067931
 20
-336.935664101097
 30
0.0
 11
-212.8654841541931
 21
-347.594947370678
 31
0.0
  0
LINE
  5
28D
330
6C
100
AcDbEntity
  8
0
  6
Continuous
 62
     7
100
AcDbLine
 10
-217.8192792799356
 20
-336.420674194032
 30
0.0
 11
-218.7518457273356
 21
-347.0799574636139
 31
0.0
  0
LINE
  5
28E
330
6C
100
AcDbEntity
  8
0
  6
Continuous
 62
     7
100
AcDbLine
 10
-200.8062372836509
 20
-337.9091225007981
 30
0.0
 11
-201.7388037310508
 21
-348.5684057703791
 31
0.0
  0
LINE
  5
28F
330
6C
100
AcDbEntity
  8
0
  6
Continuous
 62
     7
100
AcDbLine
 10
-206.6925988567934
 20
-337.3941325937331
 30
0.0
 11
-207.6251653041933
 21
-348.053415863315
 31
0.0
  0
LINE
  5
290
330
6C
100
AcDbEntity
  8
0
  6
Continuous
 62
     7
100
AcDbLine
 10
-190.7055688357639
 20
-338.7928164840221
 30
0.0
 11
-191.6381352831638
 21
-349.4520997536031
 31
0.0
  0
LINE
  5
291
330
6C
100
AcDbEntity
  8
0
  6
Continuous
 62
     7
100
AcDbLine
 10
-195.8819483297408
 20
-338.339941960191
 30
0.0
 11
-196.8145147771407
 21
-348.999225229772
 31
0.0
  0
LINE
  5
292
330
6C
100
AcDbEntity
  8
0
  6
Continuous
 62
     7
100
AcDbLine
 10
-182.8492020479371
 20
-339.4801595144579
 30
0.0
 11
-183.781768495337
 21
-350.1394427840401
 31
0.0
  0
LINE
  5
293
330
6C
100
AcDbEntity
  8
0
  6
Continuous
 62
     7
100
AcDbLine
 10
-186.6912517005498
 20
-339.1440237251509
 30
0.0
 11
-187.6238181479499
 21
-349.803306994733
 31
0.0
  0
LINE
  5
294
330
6C
100
AcDbEntity
  8
0
  6
Continuous
 62
     7
100
AcDbLine
 10
-178.1847307024075
 20
-339.888247878534
 30
0.0
 11
-179.1172971498075
 21
-350.547531148115
 31
0.0
  0
LINE
  5
295
330
6C
100
AcDbEntity
  8
0
  6
Continuous
 62
     7
100
AcDbLine
 10
-180.2290426229372
 20
-339.709393760776
 30
0.0
 11
-181.1616090703371
 21
-350.368677030358
 31
0.0
  0
LINE
  5
296
330
6C
100
AcDbEntity
  8
0
  6
Continuous
 62
     7
100
AcDbLine
 10
-241.3733523085791
 20
-345.100832085878
 30
0.0
 11
-239.3290403880493
 21
-345.279686203635
 31
0.0
  0
LINE
  5
297
330
6C
100
AcDbEntity
  8
0
  6
Continuous
 62
     7
100
AcDbLine
 10
-232.8668313104367
 20
-345.8450562392609
 30
0.0
 11
-232.2536095816194
 21
-345.8987061887599
 31
0.0
  0
LINE
  5
298
330
6C
100
AcDbEntity
  8
0
  6
Continuous
 62
     7
100
AcDbLine
 10
-239.3290403880493
 20
-345.279686203635
 30
0.0
 11
-238.5768125784866
 21
-345.345497609361
 31
0.0
  0
LINE
  5
299
330
6C
100
AcDbEntity
  8
0
  6
Continuous
 62
     7
100
AcDbLine
 10
-223.6761346812457
 20
-346.649138004221
 30
0.0
 11
-223.2758826238582
 21
-346.684155521795
 31
0.0
  0
LINE
  5
29A
330
6C
100
AcDbEntity
  8
0
  6
Continuous
 62
     7
100
AcDbLine
 10
-179.1172971498075
 20
-350.547531148115
 30
0.0
 11
-179.0078294458863
 21
-350.55710833123
 31
0.0
  0
LINE
  5
29B
330
6C
100
AcDbEntity
  8
0
  6
Continuous
 62
     7
100
AcDbLine
 10
-212.8654841541931
 20
-347.594947370678
 30
0.0
 11
-212.7264780734476
 21
-347.607108826905
 31
0.0
  0
LINE
  5
29C
330
6C
100
AcDbEntity
  8
0
  6
Continuous
 62
     7
100
AcDbLine
 10
-212.7264780734476
 20
-347.607108826905
 30
0.0
 11
-207.7641713849388
 21
-348.041254407088
 31
0.0
  0
LINE
  5
29D
330
6C
100
AcDbEntity
  8
0
  6
Continuous
 62
     7
100
AcDbLine
 10
-183.781768495337
 20
-350.1394427840401
 30
0.0
 11
-181.9138368798999
 21
-350.302865624632
 31
0.0
  0
LINE
  5
29E
330
6C
100
AcDbEntity
  8
0
  6
Continuous
 62
     7
100
AcDbLine
 10
-201.7388037310508
 20
-348.5684057703791
 30
0.0
 11
-197.2147668345282
 21
-348.964207712198
 31
0.0
  0
LINE
  5
29F
330
6C
100
AcDbEntity
  8
0
  6
Continuous
 62
     7
100
AcDbLine
 10
-191.6381352831638
 20
-349.4520997536031
 30
0.0
 11
-188.237039876767
 21
-349.7496570452329
 31
0.0
  0
LINE
  5
2A0
330
6C
100
AcDbEntity
  8
0
  6
Continuous
 62
     7
100
AcDbLine
 10
-238.5768125784866
 20
-345.345497609361
 30
0.0
 11
-236.7088809630495
 21
-345.5089204499529
 31
0.0
  0
LINE
  5
2A1
330
6C
100
AcDbEntity
  8
0
  6
Continuous
 62
     7
100
AcDbLine
 10
-241.4828200125002
 20
-345.091254902763
 30
0.0
 11
-241.3733523085791
 21
-345.100832085878
 31
0.0
  0
LINE
  5
2A2
330
6C
100
AcDbEntity
  8
0
  6
Continuous
 62
     7
100
AcDbLine
 10
-236.7088809630495
 20
-345.5089204499529
 30
0.0
 11
-232.8668313104367
 21
-345.8450562392609
 31
0.0
  0
LINE
  5
2A3
330
6C
100
AcDbEntity
  8
0
  6
Continuous
 62
     7
100
AcDbLine
 10
-228.8525141752227
 20
-346.1962634803899
 30
0.0
 11
-223.6761346812457
 21
-346.649138004221
 31
0.0
  0
LINE
  5
2A4
330
6C
100
AcDbEntity
  8
0
  6
Continuous
 62
     7
100
AcDbLine
 10
-232.2536095816194
 20
-345.8987061887599
 30
0.0
 11
-228.8525141752227
 21
-346.1962634803899
 31
0.0
  0
LINE
  5
2A5
330
6C
100
AcDbEntity
  8
0
  6
Continuous
 62
     7
100
AcDbLine
 10
-218.7518457273356
 20
-347.0799574636139
 30
0.0
 11
-212.8654841541931
 21
-347.594947370678
 31
0.0
  0
LINE
  5
2A6
330
6C
100
AcDbEntity
  8
0
  6
Continuous
 62
     7
100
AcDbLine
 10
-223.2758826238582
 20
-346.684155521795
 30
0.0
 11
-218.7518457273356
 21
-347.0799574636139
 31
0.0
  0
LINE
  5
2A7
330
6C
100
AcDbEntity
  8
0
  6
Continuous
 62
     7
100
AcDbLine
 10
-207.6251653041933
 20
-348.053415863315
 30
0.0
 11
-201.7388037310508
 21
-348.5684057703791
 31
0.0
  0
LINE
  5
2A8
330
6C
100
AcDbEntity
  8
0
  6
Continuous
 62
     7
100
AcDbLine
 10
-207.7641713849388
 20
-348.041254407088
 30
0.0
 11
-207.6251653041933
 21
-348.053415863315
 31
0.0
  0
LINE
  5
2A9
330
6C
100
AcDbEntity
  8
0
  6
Continuous
 62
     7
100
AcDbLine
 10
-196.8145147771407
 20
-348.999225229772
 30
0.0
 11
-191.6381352831638
 21
-349.4520997536031
 31
0.0
  0
LINE
  5
2AA
330
6C
100
AcDbEntity
  8
0
  6
Continuous
 62
     7
100
AcDbLine
 10
-197.2147668345282
 20
-348.964207712198
 30
0.0
 11
-196.8145147771407
 21
-348.999225229772
 31
0.0
  0
LINE
  5
2AB
330
6C
100
AcDbEntity
  8
0
  6
Continuous
 62
     7
100
AcDbLine
 10
-187.6238181479499
 20
-349.803306994733
 30
0.0
 11
-183.781768495337
 21
-350.1394427840401
 31
0.0
  0
LINE
  5
2AC
330
6C
100
AcDbEntity
  8
0
  6
Continuous
 62
     7
100
AcDbLine
 10
-188.237039876767
 20
-349.7496570452329
 30
0.0
 11
-187.6238181479499
 21
-349.803306994733
 31
0.0
  0
LINE
  5
2AD
330
6C
100
AcDbEntity
  8
0
  6
Continuous
 62
     7
100
AcDbLine
 10
-181.1616090703371
 20
-350.368677030358
 30
0.0
 11
-179.1172971498075
 21
-350.547531148115
 31
0.0
  0
LINE
  5
2AE
330
6C
100
AcDbEntity
  8
0
  6
Continuous
 62
     7
100
AcDbLine
 10
-181.9138368798999
 20
-350.302865624632
 30
0.0
 11
-181.1616090703371
 21
-350.368677030358
 31
0.0
  0
LINE
  5
2AF
330
6C
100
AcDbEntity
  8
0
  6
Continuous
 62
     7
100
AcDbLine
 10
-241.4898470301567
 20
-334.349767856666
 30
0.0
 11
-242.4224134775566
 21
-345.009051126247
 31
0.0
  0
LINE
  5
2B0
330
6C
100
AcDbEntity
  8
0
  6
Continuous
 62
     7
100
AcDbLine
 10
-241.3507576798752
 20
-334.361936598033
 30
0.0
 11
-242.2833241272751
 21
-345.021219867614
 31
0.0
  0
LINE
  5
2B1
330
6C
100
AcDbEntity
  8
0
  6
Continuous
 62
     7
100
AcDbLine
 10
-240.6231666774852
 20
-333.62253669239
 30
0.0
 11
-241.4898470301567
 21
-334.349767856666
 31
0.0
  0
LINE
  5
2B2
330
6C
100
AcDbEntity
  8
0
  6
Continuous
 62
     7
100
AcDbLine
 10
-241.3507576798752
 20
-334.361936598033
 30
0.0
 11
-241.4898470301567
 21
-334.349767856666
 31
0.0
  0
LINE
  5
2B3
330
6C
100
AcDbEntity
  8
0
  6
Continuous
 62
     7
100
AcDbLine
 10
-242.2833241272751
 20
-345.021219867614
 30
0.0
 11
-241.4828200125002
 21
-345.091254902763
 31
0.0
  0
LINE
  5
2B4
330
6C
100
AcDbEntity
  8
0
  6
Continuous
 62
     7
100
AcDbLine
 10
-244.1159444643126
 20
-344.8608863635759
 30
0.0
 11
-242.4224134775566
 21
-345.009051126247
 31
0.0
  0
LINE
  5
2B5
330
6C
100
AcDbEntity
  8
0
  6
Continuous
 62
     7
100
AcDbLine
 10
-242.4224134775566
 20
-345.009051126247
 30
0.0
 11
-242.2833241272751
 21
-345.021219867614
 31
0.0
  0
LINE
  5
2B6
330
6C
100
AcDbEntity
  8
0
  6
Continuous
 62
     7
100
AcDbLine
 10
-178.0682359808298
 20
-350.639312107746
 30
0.0
 11
-176.3747049940739
 21
-350.7874768704171
 31
0.0
  0
LINE
  5
2B7
330
6C
100
AcDbEntity
  8
0
  6
Continuous
 62
     7
100
AcDbLine
 10
-176.3747049940739
 20
-350.7874768704171
 30
0.0
 11
-176.6361722223169
 21
-353.7760609646921
 31
0.0
  0
LINE
  5
2B8
330
6C
100
AcDbEntity
  8
1
  6
PHANTOM
 62
     2
100
AcDbLine
 10
-208.5940194635611
 20
-328.949676062997
 30
0.0
 11
-210.7230711664953
 21
-353.2848483828179
 31
0.0
  0
ARC
  5
2B9
330
6C
100
AcDbEntity
  8
0
  6
Continuous
 62
     7
100
AcDbCircle
 10
-180.0919202146916
 20
-335.9068750343479
 30
0.0
 40
2.49999999999994
100
AcDbArc
 50
355.0000000000001
 51
84.99999999999746
  0
ARC
  5
2BA
330
6C
100
AcDbEntity
  8
0
  6
Continuous
 62
     7
100
AcDbCircle
 10
-237.8712127040129
 20
-330.8518419549839
 30
0.0
 40
2.499999999999549
100
AcDbArc
 50
84.999999999998
 51
175.0000000000053
  0
SPLINE
  5
2BB
330
6C
100
AcDbEntity
  8
0
  6
Continuous
 62
     7
100
AcDbSpline
210
0.0
220
0.0
230
1.0
 70
     8
 71
     3
 72
    11
 73
     7
 74
     5
 42
0.000000001
 43
0.0000000001
 44
0.00000001
 40
0.0
 40
0.0
 40
0.0
 40
0.0
 40
0.2844851893745681
 40
0.566946144528768
 40
0.8518083868098796
 40
1.133892298755133
 40
1.133892298755133
 40
1.133892298755133
 40
1.133892298755133
 10
-177.2747588837113
 20
-339.967860096797
 30
0.0
 10
-177.3358711617033
 20
-339.8953499991915
 30
0.0
 10
-177.4576608890451
 20
-339.7508457540915
 30
0.0
 10
-177.6406515180834
 20
-339.5337417351845
 30
0.0
 10
-177.8231314951635
 20
-339.3172541272743
 30
0.0
 10
-177.9449350643277
 20
-339.1727615451155
 30
0.0
 10
-178.0055384042882
 20
-339.1008693031749
 30
0.0
 11
-177.2747588837113
 21
-339.967860096797
 31
0.0
 11
-177.4580969986174
 21
-339.7503308835951
 31
0.0
 11
-177.6401365131811
 21
-339.5343544813559
 31
0.0
 11
-177.8237296986538
 21
-339.3165471368388
 31
0.0
 11
-178.0055384042882
 21
-339.1008693031749
 31
0.0
  0
SPLINE
  5
2BC
330
6C
100
AcDbEntity
  8
0
  6
Continuous
 62
     7
100
AcDbSpline
210
0.0
220
0.0
230
1.0
 70
     8
 71
     3
 72
    11
 73
     7
 74
     5
 42
0.000000001
 43
0.0000000001
 44
0.00000001
 40
0.0
 40
0.0
 40
0.0
 40
0.0
 40
0.2534658019811396
 40
0.5047113162543171
 40
0.756480199750691
 40
1.009415279612258
 40
1.009415279612258
 40
1.009415279612258
 40
1.009415279612258
 10
-235.7763145156495
 20
-334.8496371803719
 30
0.0
 10
-235.7191544006872
 20
-334.7874194586199
 30
0.0
 10
-235.6053348659569
 20
-334.6635290346278
 30
0.0
 10
-235.4347315912239
 20
-334.4778432197442
 30
0.0
 10
-235.2642437122708
 20
-334.2922916213236
 30
0.0
 10
-235.1504143762755
 20
-334.1684135311306
 30
0.0
 10
-235.0933681926311
 20
-334.1063313713939
 30
0.0
 11
-235.7763145156495
 21
-334.8496371803719
 31
0.0
 11
-235.604833107218
 21
-334.6629849922348
 31
0.0
 11
-235.4348489172763
 21
-334.477972334256
 31
0.0
 11
-235.2645056372126
 21
-334.2925788671804
 31
0.0
 11
-235.0933681926311
 21
-334.1063313713939
 31
0.0
  0
SPLINE
  5
2BD
330
6C
100
AcDbEntity
  8
0
  6
Continuous
 62
     7
100
AcDbSpline
210
0.0
220
0.0
230
1.0
 70
     8
 71
     3
 72
    11
 73
     7
 74
     5
 42
0.000000001
 43
0.0000000001
 44
0.00000001
 40
0.0
 40
0.0
 40
0.0
 40
0.0
 40
0.276103633713335
 40
0.5500413636047992
 40
0.8253405607157134
 40
1.100080824204119
 40
1.100080824204119
 40
1.100080824204119
 40
1.100080824204119
 10
-180.2290426229372
 20
-339.709393760776
 30
0.0
 10
-180.2861385222215
 20
-339.6372105516444
 30
0.0
 10
-180.3998824419098
 20
-339.493410386166
 30
0.0
 10
-180.5705634772637
 20
-339.2776433052368
 30
0.0
 10
-180.7409677248559
 20
-339.0622367278294
 30
0.0
 10
-180.8547249954773
 20
-338.9184479326049
 30
0.0
 10
-180.9115458383019
 20
-338.8466265965769
 30
0.0
 11
-180.2290426229372
 21
-339.709393760776
 31
0.0
 11
-180.4003315944446
 21
-339.4928451408549
 31
0.0
 11
-180.5702827723154
 21
-339.2779999012089
 31
0.0
 11
-180.741084626586
 21
-339.0620916463695
 31
0.0
 11
-180.9115458383019
 21
-338.8466265965769
 31
0.0
  0
SPLINE
  5
2BE
330
6C
100
AcDbEntity
  8
0
  6
Continuous
 62
     7
100
AcDbSpline
210
0.0
220
0.0
230
1.0
 70
     8
 71
     3
 72
    11
 73
     7
 74
     5
 42
0.000000001
 43
0.0000000001
 44
0.00000001
 40
0.0
 40
0.0
 40
0.0
 40
0.0
 40
0.274740490627056
 40
0.5500394605989019
 40
0.8244175636902131
 40
1.100080824204282
 40
1.100080824204282
 40
1.100080824204282
 40
1.100080824204282
 10
-237.5745215368885
 20
-333.889258581306
 30
0.0
 10
-237.6429508441197
 20
-333.9501220043744
 30
0.0
 10
-237.7799485484339
 20
-334.0719725819848
 30
0.0
 10
-237.9852786120194
 20
-334.2546138224452
 30
0.0
 10
-238.1908341188512
 20
-334.4374644199128
 30
0.0
 10
-238.3278206482149
 20
-334.5593285148325
 30
0.0
 10
-238.3964739406494
 20
-334.620402934054
 30
0.0
 11
-237.5745215368885
 21
-333.889258581306
 31
0.0
 11
-237.7798083427381
 21
-334.0718501050254
 31
0.0
 11
-237.985507238332
 21
-334.2548186466361
 31
0.0
 11
-238.1905129877541
 21
-334.4371808854906
 31
0.0
 11
-238.3964739406494
 21
-334.620402934054
 31
0.0
  0
SPLINE
  5
2BF
330
6C
100
AcDbEntity
  8
0
  6
Continuous
 62
     7
100
AcDbSpline
210
0.0
220
0.0
230
1.0
 70
     8
 71
     3
 72
    11
 73
     7
 74
     5
 42
0.000000001
 43
0.0000000001
 44
0.00000001
 40
0.0
 40
0.0
 40
0.0
 40
0.0
 40
0.2735951363517651
 40
0.5500394605992232
 40
0.8240107588474728
 40
1.100080824204807
 40
1.100080824204807
 40
1.100080824204807
 40
1.100080824204807
 10
-178.8672339177721
 20
-339.025480714334
 30
0.0
 10
-178.8106499040881
 20
-339.097002694798
 30
0.0
 10
-178.6968926291918
 20
-339.2407914866404
 30
0.0
 10
-178.526481427431
 20
-339.4562068300969
 30
0.0
 10
-178.3555635796182
 20
-339.6722732797872
 30
0.0
 10
-178.2418196600021
 20
-339.8160734453228
 30
0.0
 10
-178.1847307024075
 20
-339.888247878534
 30
0.0
 11
-178.8672339177721
 21
-339.025480714334
 31
0.0
 11
-178.6974831816158
 21
-339.2400476880504
 31
0.0
 11
-178.5259708517857
 21
-339.4568540189659
 31
0.0
 11
-178.3559988484423
 21
-339.6717255860552
 31
0.0
 11
-178.1847307024075
 21
-339.888247878534
 31
0.0
  0
SPLINE
  5
2C0
330
6C
100
AcDbEntity
  8
0
  6
Continuous
 62
     7
100
AcDbSpline
210
0.0
220
0.0
230
1.0
 70
     8
 71
     3
 72
    11
 73
     7
 74
     5
 42
0.000000001
 43
0.0000000001
 44
0.00000001
 40
0.0
 40
0.0
 40
0.0
 40
0.0
 40
0.2530056209893369
 40
0.5047113162538982
 40
0.7571643754563164
 40
1.009415279607414
 40
1.009415279607414
 40
1.009415279607414
 40
1.009415279607414
 10
-186.6912517005498
 20
-339.1440237251509
 30
0.0
 10
-186.7366568446506
 20
-339.0729547443697
 30
0.0
 10
-186.8272338569203
 20
-338.9311819384745
 30
0.0
 10
-186.9631240667204
 20
-338.7184999772802
 30
0.0
 10
-187.0988837552399
 20
-338.5060331603682
 30
0.0
 10
-187.1894725658497
 20
-338.3642708016314
 30
0.0
 10
-187.2347488351689
 20
-338.2934180171781
 30
0.0
 11
-186.6912517005498
 21
-339.1440237251509
 31
0.0
 11
-186.8274683450389
 21
-338.9308175572842
 31
0.0
 11
-186.962990745984
 21
-338.718710424281
 31
0.0
 11
-187.0989212858367
 21
-338.5059771747967
 31
0.0
 11
-187.2347488351689
 21
-338.2934180171781
 31
0.0
  0
SPLINE
  5
2C1
330
6C
100
AcDbEntity
  8
0
  6
Continuous
 62
     7
100
AcDbSpline
210
0.0
220
0.0
230
1.0
 70
     8
 71
     3
 72
    11
 73
     7
 74
     5
 42
0.000000001
 43
0.0000000001
 44
0.00000001
 40
0.0
 40
0.0
 40
0.0
 40
0.0
 40
0.2223072486721782
 40
0.4476050081745154
 40
0.6709199640050767
 40
0.8952250758797873
 40
0.8952250758797873
 40
0.8952250758797873
 40
0.8952250758797873
 10
-191.0360962989532
 20
-337.960843207974
 30
0.0
 10
-191.0087341547935
 20
-338.0297088827166
 30
0.0
 10
-190.9536418007601
 20
-338.168366629267
 30
0.0
 10
-190.8710693739769
 20
-338.3762046396984
 30
0.0
 10
-190.7882550958421
 20
-338.5846631515046
 30
0.0
 10
-190.733171533591
 20
-338.7233297923534
 30
0.0
 10
-190.7055688357639
 20
-338.7928164840221
 30
0.0
 11
-191.0360962989532
 21
-337.960843207974
 31
0.0
 11
-190.9540108742183
 21
-338.1674406325909
 31
0.0
 11
-190.8708260122639
 21
-338.376819139555
 31
0.0
 11
-190.7883779122464
 21
-338.5843567995138
 31
0.0
 11
-190.7055688357639
 21
-338.7928164840221
 31
0.0
  0
SPLINE
  5
2C2
330
6C
100
AcDbEntity
  8
0
  6
Continuous
 62
     7
100
AcDbSpline
210
0.0
220
0.0
230
1.0
 70
     8
 71
     3
 72
    11
 73
     7
 74
     5
 42
0.000000001
 43
0.0000000001
 44
0.00000001
 40
0.0
 40
0.0
 40
0.0
 40
0.0
 40
0.2030274890959214
 40
0.4060497092549825
 40
0.60906656406277
 40
0.812077946736608
 40
0.812077946736608
 40
0.812077946736608
 40
0.812077946736608
 10
-206.6925988567934
 20
-337.3941325937331
 30
0.0
 10
-206.6983714557651
 20
-337.32670340846
 30
0.0
 10
-206.709916518844
 20
-337.1918467891049
 30
0.0
 10
-206.727236265598
 20
-336.9895647206888
 30
0.0
 10
-206.7445572106442
 20
-336.7872881433301
 30
0.0
 10
-206.7561060126753
 20
-336.6524390275746
 30
0.0
 10
-206.7618803433407
 20
-336.5850153790329
 30
0.0
 11
-206.6925988567934
 21
-337.3941325937331
 31
0.0
 11
-206.7099170553043
 21
-337.1918450722965
 31
0.0
 11
-206.727236684268
 21
-336.989562961543
 31
0.0
 11
-206.7445577710484
 21
-336.7872863606005
 31
0.0
 11
-206.7618803433407
 21
-336.5850153790329
 31
0.0
  0
SPLINE
  5
2C3
330
6C
100
AcDbEntity
  8
0
  6
Continuous
 62
     7
100
AcDbSpline
210
0.0
220
0.0
230
1.0
 70
     8
 71
     3
 72
    11
 73
     7
 74
     5
 42
0.000000001
 43
0.0000000001
 44
0.00000001
 40
0.0
 40
0.0
 40
0.0
 40
0.0
 40
0.2030113826729923
 40
0.4060282374809677
 40
0.609050457639624
 40
0.8120779467361914
 40
0.8120779467361914
 40
0.8120779467361914
 40
0.8120779467361914
 10
-211.7241870318495
 20
-336.15086979885
 30
0.0
 10
-211.7415816311581
 20
-336.2162664286727
 30
0.0
 10
-211.7763712841474
 20
-336.3470614549283
 30
0.0
 10
-211.8285540441615
 20
-336.5432572460208
 30
0.0
 10
-211.8807365776001
 20
-336.7394586528311
 30
0.0
 10
-211.9155238514265
 20
-336.8702617179524
 30
0.0
 10
-211.9329177067931
 20
-336.935664101097
 30
0.0
 11
-211.7241870318495
 21
-336.15086979885
 31
0.0
 11
-211.7763704226892
 21
-336.3470597965953
 31
0.0
 11
-211.8285533263796
 21
-336.5432555863019
 31
0.0
 11
-211.8807357511691
 21
-336.7394570552599
 31
0.0
 11
-211.9329177067931
 21
-336.935664101097
 31
0.0
  0
SPLINE
  5
2C4
330
6C
100
AcDbEntity
  8
0
  6
Continuous
 62
     7
100
AcDbSpline
210
0.0
220
0.0
230
1.0
 70
     8
 71
     3
 72
    11
 73
     7
 74
     5
 42
0.000000001
 43
0.0000000001
 44
0.00000001
 40
0.0
 40
0.0
 40
0.0
 40
0.0
 40
0.224920222070564
 40
0.4476200677051391
 40
0.6729149690955505
 40
0.895225075879458
 40
0.895225075879458
 40
0.895225075879458
 40
0.895225075879458
 10
-227.9199477278227
 20
-335.536980210808
 30
0.0
 10
-227.8805905048356
 20
-335.4731678232177
 30
0.0
 10
-227.8022645743396
 20
-335.3461730015659
 30
0.0
 10
-227.6845104849798
 20
-335.155262805785
 30
0.0
 10
-227.567209469459
 20
-334.9650953816079
 30
0.0
 10
-227.488876427056
 20
-334.8381108446782
 30
0.0
 10
-227.4499710762371
 20
-334.7750419699089
 30
0.0
 11
-227.9199477278227
 21
-335.536980210808
 31
0.0
 11
-227.8018751531874
 21
-335.3455436066401
 31
0.0
 11
-227.6849639983836
 21
-335.15599940829
 31
0.0
 11
-227.5666862057314
 21
-334.9642491635498
 31
0.0
 11
-227.4499710762371
 21
-334.7750419699089
 31
0.0
  0
SPLINE
  5
2C5
330
6C
100
AcDbEntity
  8
0
  6
Continuous
 62
     7
100
AcDbSpline
210
0.0
220
0.0
230
1.0
 70
     8
 71
     3
 72
    11
 73
     7
 74
     5
 42
0.000000001
 43
0.0000000001
 44
0.00000001
 40
0.0
 40
0.0
 40
0.0
 40
0.0
 40
0.2522496124573432
 40
0.5047039633578071
 40
0.7560618762811253
 40
1.009415279611573
 40
1.009415279611573
 40
1.009415279611573
 40
1.009415279611573
 10
-231.2513185400184
 20
-334.4424671607019
 30
0.0
 10
-231.308210126658
 20
-334.5043810734453
 30
0.0
 10
-231.4220394649566
 20
-334.6282591615212
 30
0.0
 10
-231.5925526995447
 20
-334.8138383427132
 30
0.0
 10
-231.7633105613192
 20
-334.9996924137441
 30
0.0
 10
-231.8771300957225
 20
-335.1235828380368
 30
0.0
 10
-231.9342648630367
 20
-335.185772969679
 30
0.0
 11
-231.2513185400184
 21
-334.4424671607019
 31
0.0
 11
-231.4219922000856
 21
-334.6282099095354
 31
0.0
 11
-231.5927992646634
 21
-334.814108123564
 31
0.0
 11
-231.7628594986178
 21
-334.9992035508891
 31
0.0
 11
-231.9342648630367
 21
-335.185772969679
 31
0.0
  0
SPLINE
  5
2C6
330
6C
100
AcDbEntity
  8
0
  6
Continuous
 62
     7
100
AcDbSpline
210
0.0
220
0.0
230
1.0
 70
     8
 71
     3
 72
    11
 73
     7
 74
     5
 42
0.000000001
 43
0.0000000001
 44
0.00000001
 40
0.0
 40
0.0
 40
0.0
 40
0.0
 40
0.2761042276331144
 40
0.5500413636048517
 40
0.8264853202726412
 40
1.100080824203776
 40
1.100080824203776
 40
1.100080824203776
 40
1.100080824203776
 10
-240.4407858611791
 20
-334.4415488162961
 30
0.0
 10
-240.3720227462415
 20
-334.3803766996048
 30
0.0
 10
-240.2350362155522
 20
-334.2585126061756
 30
0.0
 10
-240.029195539898
 20
-334.0754083459358
 30
0.0
 10
-239.8239752938661
 20
-333.8928648085096
 30
0.0
 10
-239.6869775859141
 20
-333.7710142349894
 30
0.0
 10
-239.6188334574182
 20
-333.7104044635489
 30
0.0
 11
-240.4407858611791
 21
-334.4415488162961
 31
0.0
 11
-240.2344954370568
 21
-334.2580336795025
 31
0.0
 11
-240.0298191588617
 21
-334.075964528879
 31
0.0
 11
-239.8232647370909
 21
-333.8922350211095
 31
0.0
 11
-239.6188334574182
 21
-333.7104044635489
 31
0.0
  0
SPLINE
  5
2C7
330
6C
100
AcDbEntity
  8
0
  6
Continuous
 62
     7
100
AcDbSpline
210
0.0
220
0.0
230
1.0
 70
     8
 71
     3
 72
    11
 73
     7
 74
     5
 42
0.000000001
 43
0.0000000001
 44
0.00000001
 40
0.0
 40
0.0
 40
0.0
 40
0.0
 40
0.2238804524114189
 40
0.4476050081778781
 40
0.6707725060787711
 40
0.8952250758830279
 40
0.8952250758830279
 40
0.8952250758830279
 40
0.8952250758830279
 10
-222.2735915822581
 20
-335.227916493737
 30
0.0
 10
-222.3127717486147
 20
-335.2914308736095
 30
0.0
 10
-222.3911047858952
 20
-335.4184154137005
 30
0.0
 10
-222.5084876247104
 20
-335.608715520952
 30
0.0
 10
-222.6259669137622
 20
-335.7991802022367
 30
0.0
 10
-222.7042928428067
 20
-335.926175024784
 30
0.0
 10
-222.7435682338458
 20
-335.989854734639
 30
0.0
 11
-222.2735915822581
 21
-335.227916493737
 31
0.0
 11
-222.3911311442144
 21
-335.4184602114165
 31
0.0
 11
-222.5085845044066
 21
-335.608873932121
 31
0.0
 11
-222.6257411590989
 21
-335.7988161611823
 31
0.0
 11
-222.7435682338458
 21
-335.989854734639
 31
0.0
  0
SPLINE
  5
2C8
330
6C
100
AcDbEntity
  8
0
  6
Continuous
 62
     7
100
AcDbSpline
210
0.0
220
0.0
230
1.0
 70
     8
 71
     3
 72
    11
 73
     7
 74
     5
 42
0.000000001
 43
0.0000000001
 44
0.00000001
 40
0.0
 40
0.0
 40
0.0
 40
0.0
 40
0.2030274890958129
 40
0.4060497092552528
 40
0.6090665640631806
 40
0.812077946739344
 40
0.812077946739344
 40
0.812077946739344
 40
0.812077946739344
 10
-217.8192792799356
 20
-336.420674194032
 30
0.0
 10
-217.801885424569
 20
-336.3552718108877
 30
0.0
 10
-217.7670981507423
 20
-336.2244687457664
 30
0.0
 10
-217.7149156173041
 20
-336.0282673389561
 30
0.0
 10
-217.6627328572895
 20
-335.8320715478623
 30
0.0
 10
-217.6279432043
 20
-335.7012765216058
 30
0.0
 10
-217.6105486049911
 20
-335.635879891782
 30
0.0
 11
-217.8192792799356
 21
-336.420674194032
 31
0.0
 11
-217.7670973243116
 21
-336.2244671481957
 31
0.0
 11
-217.714914899522
 21
-336.0282656792369
 31
0.0
 11
-217.6627319958315
 21
-335.8320698895304
 31
0.0
 11
-217.6105486049911
 21
-335.635879891782
 31
0.0
  0
SPLINE
  5
2C9
330
6C
100
AcDbEntity
  8
0
  6
Continuous
 62
     7
100
AcDbSpline
210
0.0
220
0.0
230
1.0
 70
     8
 71
     3
 72
    11
 73
     7
 74
     5
 42
0.000000001
 43
0.0000000001
 44
0.00000001
 40
0.0
 40
0.0
 40
0.0
 40
0.0
 40
0.2030113826767556
 40
0.4060282374855108
 40
0.6090504576440054
 40
0.812077946740439
 40
0.812077946740439
 40
0.812077946740439
 40
0.812077946740439
 10
-200.8755187701986
 20
-337.1000052860941
 30
0.0
 10
-200.8697444395331
 20
-337.1674289346368
 30
0.0
 10
-200.8581956375018
 20
-337.3022780503934
 30
0.0
 10
-200.8408746924556
 20
-337.5045546277534
 30
0.0
 10
-200.8235549457015
 20
-337.7068366961696
 30
0.0
 10
-200.8120098826225
 20
-337.8416933155249
 30
0.0
 10
-200.8062372836509
 20
-337.9091225007981
 30
0.0
 11
-200.8755187701986
 21
-337.1000052860941
 31
0.0
 11
-200.858196197906
 21
-337.3022762676646
 31
0.0
 11
-200.8408751111255
 21
-337.504552868608
 31
0.0
 11
-200.8235554821618
 21
-337.706834979361
 31
0.0
 11
-200.8062372836509
 21
-337.9091225007981
 31
0.0
  0
SPLINE
  5
2CA
330
6C
100
AcDbEntity
  8
0
  6
Continuous
 62
     7
100
AcDbSpline
210
0.0
220
0.0
230
1.0
 70
     8
 71
     3
 72
    11
 73
     7
 74
     5
 42
0.000000001
 43
0.0000000001
 44
0.00000001
 40
0.0
 40
0.0
 40
0.0
 40
0.0
 40
0.2244639081382289
 40
0.4476200677052721
 40
0.673711703722052
 40
0.8952250758838817
 40
0.8952250758838817
 40
0.8952250758838817
 40
0.8952250758838817
 10
-195.8819483297408
 20
-338.339941960191
 30
0.0
 10
-195.90957056911
 20
-338.2704060756969
 30
0.0
 10
-195.9646541319115
 20
-338.1317394350669
 30
0.0
 10
-196.0475661117628
 20
-337.9230349943433
 30
0.0
 10
-196.130119002894
 20
-337.7152461790757
 30
0.0
 10
-196.1852113597223
 20
-337.5765884336345
 30
0.0
 10
-196.2124757929316
 20
-337.5079686841391
 30
0.0
 11
-195.8819483297408
 21
-338.339941960191
 31
0.0
 11
-195.964816032329
 21
-338.1313346977947
 31
0.0
 11
-196.0472055062408
 21
-337.9239446157239
 31
0.0
 11
-196.1306834932636
 21
-337.7138283299213
 31
0.0
 11
-196.2124757929316
 21
-337.5079686841391
 31
0.0
  0
SPLINE
  5
2CB
330
6C
100
AcDbEntity
  8
0
  6
Continuous
 62
     7
100
AcDbSpline
210
0.0
220
0.0
230
1.0
 70
     8
 71
     3
 72
    11
 73
     7
 74
     5
 42
0.000000001
 43
0.0000000001
 44
0.00000001
 40
0.0
 40
0.0
 40
0.0
 40
0.0
 40
0.2508586252626487
 40
0.5047039633575003
 40
0.7564271155281161
 40
1.009415279611385
 40
1.009415279611385
 40
1.009415279611385
 40
1.009415279611385
 10
-183.3926991825585
 20
-338.6295538064819
 30
0.0
 10
-183.3476728093109
 20
-338.7000155228699
 30
0.0
 10
-183.257083993291
 20
-338.8417778781511
 30
0.0
 10
-183.1213211564507
 20
-339.0542495888159
 30
0.0
 10
-182.9851810714267
 20
-339.2673226313979
 30
0.0
 10
-182.8946040591645
 20
-339.409095437298
 30
0.0
 10
-182.8492020479371
 20
-339.4801595144579
 30
0.0
 11
-183.3926991825585
 21
-338.6295538064819
 31
0.0
 11
-183.2576213064429
 21
-338.8409397503212
 31
0.0
 11
-183.1209410933712
 21
-339.054846213588
 31
0.0
 11
-182.9854092935427
 21
-339.2669680572866
 31
0.0
 11
-182.8492020479371
 21
-339.4801595144579
 31
0.0
  0
SPLINE
  5
2CC
330
6C
100
AcDbEntity
  8
0
  6
Continuous
 62
     7
100
AcDbSpline
210
0.0
220
0.0
230
1.0
 70
     8
 71
     3
 72
    11
 73
     7
 74
     5
 42
0.000000001
 43
0.0000000001
 44
0.00000001
 40
0.0
 40
0.0
 40
0.0
 40
0.0
 40
0.2828196565167944
 40
0.5669461542307661
 40
0.8493551261156891
 40
1.133892298760102
 40
1.133892298760102
 40
1.133892298760102
 40
1.133892298760102
 10
-240.4805289708983
 20
-333.635015874705
 30
0.0
 10
-240.5528837939441
 20
-333.6954494694485
 30
0.0
 10
-240.6979277645357
 20
-333.8165959194818
 30
0.0
 10
-240.915214834342
 20
-333.9980961778749
 30
0.0
 10
-241.1329369236456
 20
-334.1799686817741
 30
0.0
 10
-241.2779692903191
 20
-334.3011290183332
 30
0.0
 10
-241.3507576798752
 20
-334.361936598033
 30
0.0
 11
-240.4805289708983
 21
-333.635015874705
 31
0.0
 11
-240.6975923318902
 21
-333.8163179856339
 31
0.0
 11
-240.9156534974664
 21
-333.9984640664891
 31
0.0
 11
-241.1323914367458
 21
-334.1795151451332
 31
0.0
 11
-241.3507576798752
 21
-334.361936598033
 31
0.0
  0
ENDBLK
  5
6E
330
6C
100
AcDbEntity
  8
0
100
AcDbBlockEnd
  0
BLOCK
  5
70
330
6F
100
AcDbEntity
  8
0
100
AcDbBlockBegin
  2
Holländermutter_6_4__4
 70
     0
 10
-300.0000000000122
 20
-297.063346740094
 30
0.0
  3
Holländermutter_6_4__4
  1

  0
LINE
  5
2CD
330
6F
100
AcDbEntity
  8
0
  6
Continuous
 62
     7
100
AcDbLine
 10
-326.1164928148131
 20
-288.563346740094
 30
0.0
 11
-273.883507185193
 21
-288.563346740094
 31
0.0
  0
LINE
  5
2CE
330
6F
100
AcDbEntity
  8
0
  6
Continuous
 62
     7
100
AcDbLine
 10
-328.500000000003
 20
-290.563346740094
 30
0.0
 11
-326.1164928148131
 21
-288.563346740094
 31
0.0
  0
LINE
  5
2CF
330
6F
100
AcDbEntity
  8
0
  6
Continuous
 62
     7
100
AcDbLine
 10
-271.5000000000212
 20
-290.563346740058
 30
0.0
 11
-271.500000000003
 21
-303.063346740094
 31
0.0
  0
LINE
  5
2D0
330
6F
100
AcDbEntity
  8
0
  6
Continuous
 62
     7
100
AcDbLine
 10
-328.500000000003
 20
-290.563346740094
 30
0.0
 11
-328.500000000003
 21
-303.063346740094
 31
0.0
  0
LINE
  5
2D1
330
6F
100
AcDbEntity
  8
0
  6
Continuous
 62
     7
100
AcDbLine
 10
-327.5244205234515
 20
-303.063346740094
 30
0.0
 11
-328.500000000003
 21
-303.063346740094
 31
0.0
  0
LINE
  5
2D2
330
6F
100
AcDbEntity
  8
0
  6
Continuous
 62
     7
100
AcDbLine
 10
-272.4755794765545
 20
-303.063346740094
 30
0.0
 11
-271.500000000003
 21
-303.063346740094
 31
0.0
  0
LINE
  5
2D3
330
6F
100
AcDbEntity
  8
0
  6
Continuous
 62
     7
100
AcDbLine
 10
-271.5000000000212
 20
-290.563346740058
 30
0.0
 11
-273.883507185193
 21
-288.563346740094
 31
0.0
  0
LINE
  5
2D4
330
6F
100
AcDbEntity
  8
0
  6
Continuous
 62
     7
100
AcDbLine
 10
-327.5244205234515
 20
-303.063346740094
 30
0.0
 11
-326.4244205234493
 21
-303.063346740094
 31
0.0
  0
LINE
  5
2D5
330
6F
100
AcDbEntity
  8
0
  6
Continuous
 62
     7
100
AcDbLine
 10
-279.1230820372687
 20
-291.563346740094
 30
0.0
 11
-279.1230820372687
 21
-292.563346740094
 31
0.0
  0
LINE
  5
2D6
330
6F
100
AcDbEntity
  8
0
  6
Continuous
 62
     7
100
AcDbLine
 10
-279.1230820372687
 20
-289.8056293767729
 30
0.0
 11
-279.1230820372687
 21
-291.563346740094
 31
0.0
  0
LINE
  5
2D7
330
6F
100
AcDbEntity
  8
0
  6
Continuous
 62
     7
100
AcDbLine
 10
-298.000000000003
 20
-288.88514747774
 30
0.0
 11
-282.7293266213231
 21
-288.88514747774
 31
0.0
  0
LINE
  5
2D8
330
6F
100
AcDbEntity
  8
0
  6
Continuous
 62
     7
100
AcDbLine
 10
-317.2706733786866
 20
-288.88514747774
 30
0.0
 11
-302.000000000003
 21
-288.88514747774
 31
0.0
  0
LINE
  5
2D9
330
6F
100
AcDbEntity
  8
0
  6
Continuous
 62
     7
100
AcDbLine
 10
-317.2706733786866
 20
-288.88514747774
 30
0.0
 11
-317.2706733786866
 21
-303.063346740094
 31
0.0
  0
LINE
  5
2DA
330
6F
100
AcDbEntity
  8
0
  6
Continuous
 62
     7
100
AcDbLine
 10
-298.000000000003
 20
-288.88514747774
 30
0.0
 11
-298.000000000003
 21
-289.8056293767729
 31
0.0
  0
LINE
  5
2DB
330
6F
100
AcDbEntity
  8
0
  6
Continuous
 62
     7
100
AcDbLine
 10
-282.7293266213231
 20
-288.88514747774
 30
0.0
 11
-282.7293266213231
 21
-303.063346740094
 31
0.0
  0
LINE
  5
2DC
330
6F
100
AcDbEntity
  8
0
  6
Continuous
 62
     7
100
AcDbLine
 10
-298.000000000003
 20
-289.8056293767729
 30
0.0
 11
-298.000000000003
 21
-303.063346740094
 31
0.0
  0
LINE
  5
2DD
330
6F
100
AcDbEntity
  8
0
  6
Continuous
 62
     7
100
AcDbLine
 10
-320.8769179627373
 20
-289.8056293767729
 30
0.0
 11
-320.8769179627373
 21
-291.563346740094
 31
0.0
  0
LINE
  5
2DE
330
6F
100
AcDbEntity
  8
0
  6
Continuous
 62
     7
100
AcDbLine
 10
-318.0484908379906
 20
-289.8056293767729
 30
0.0
 11
-318.0484908379906
 21
-303.063346740094
 31
0.0
  0
LINE
  5
2DF
330
6F
100
AcDbEntity
  8
0
  6
Continuous
 62
     7
100
AcDbLine
 10
-281.9515091620045
 20
-289.805629376722
 30
0.0
 11
-281.9515091620154
 21
-303.063346740094
 31
0.0
  0
LINE
  5
2E0
330
6F
100
AcDbEntity
  8
0
  6
Continuous
 62
     7
100
AcDbLine
 10
-302.000000000003
 20
-289.8056293767729
 30
0.0
 11
-302.000000000003
 21
-303.063346740094
 31
0.0
  0
LINE
  5
2E1
330
6F
100
AcDbEntity
  8
0
  6
Continuous
 62
     7
100
AcDbLine
 10
-279.8474567361876
 20
-290.563346740094
 30
0.0
 11
-279.8474567361876
 21
-303.063346740094
 31
0.0
  0
LINE
  5
2E2
330
6F
100
AcDbEntity
  8
0
  6
Continuous
 62
     7
100
AcDbLine
 10
-320.1525432638185
 20
-290.563346740094
 30
0.0
 11
-320.1525432638185
 21
-303.063346740094
 31
0.0
  0
LINE
  5
2E3
330
6F
100
AcDbEntity
  8
0
  6
Continuous
 62
     7
100
AcDbLine
 10
-300.000000000003
 20
-290.563346740094
 30
0.0
 11
-300.000000000003
 21
-303.063346740094
 31
0.0
  0
LINE
  5
2E4
330
6F
100
AcDbEntity
  8
0
  6
Continuous
 62
     7
100
AcDbLine
 10
-320.8769179627373
 20
-291.563346740094
 30
0.0
 11
-320.8769179627373
 21
-303.063346740094
 31
0.0
  0
LINE
  5
2E5
330
6F
100
AcDbEntity
  8
0
  6
Continuous
 62
     7
100
AcDbLine
 10
-279.1230820372687
 20
-292.563346740094
 30
0.0
 11
-279.1230820372687
 21
-303.063346740094
 31
0.0
  0
LINE
  5
2E6
330
6F
100
AcDbEntity
  8
0
  6
Continuous
 62
     7
100
AcDbLine
 10
-279.8474567361876
 20
-303.063346740094
 30
0.0
 11
-279.1230820372687
 21
-303.063346740094
 31
0.0
  0
LINE
  5
2E7
330
6F
100
AcDbEntity
  8
0
  6
Continuous
 62
     7
100
AcDbLine
 10
-282.7293266213231
 20
-303.063346740094
 30
0.0
 11
-281.9515091620154
 21
-303.063346740094
 31
0.0
  0
LINE
  5
2E8
330
6F
100
AcDbEntity
  8
0
  6
Continuous
 62
     7
100
AcDbLine
 10
-298.000000000003
 20
-303.063346740094
 30
0.0
 11
-282.7293266213231
 21
-303.063346740094
 31
0.0
  0
LINE
  5
2E9
330
6F
100
AcDbEntity
  8
0
  6
Continuous
 62
     7
100
AcDbLine
 10
-320.8769179627373
 20
-303.063346740094
 30
0.0
 11
-320.1525432638185
 21
-303.063346740094
 31
0.0
  0
LINE
  5
2EA
330
6F
100
AcDbEntity
  8
0
  6
Continuous
 62
     7
100
AcDbLine
 10
-320.1525432638185
 20
-303.063346740094
 30
0.0
 11
-320.0991005034296
 21
-303.063346740094
 31
0.0
  0
LINE
  5
2EB
330
6F
100
AcDbEntity
  8
0
  6
Continuous
 62
     7
100
AcDbLine
 10
-302.000000000003
 20
-303.063346740094
 30
0.0
 11
-300.000000000003
 21
-303.063346740094
 31
0.0
  0
LINE
  5
2EC
330
6F
100
AcDbEntity
  8
0
  6
Continuous
 62
     7
100
AcDbLine
 10
-318.0484908379906
 20
-303.063346740094
 30
0.0
 11
-317.2706733786866
 21
-303.063346740094
 31
0.0
  0
LINE
  5
2ED
330
6F
100
AcDbEntity
  8
0
  6
Continuous
 62
     7
100
AcDbLine
 10
-318.0484908379906
 20
-303.063346740094
 30
0.0
 11
-320.0991005034296
 21
-303.063346740094
 31
0.0
  0
LINE
  5
2EE
330
6F
100
AcDbEntity
  8
0
  6
Continuous
 62
     7
100
AcDbLine
 10
-298.000000000003
 20
-303.063346740094
 30
0.0
 11
-300.000000000003
 21
-303.063346740094
 31
0.0
  0
LINE
  5
2EF
330
6F
100
AcDbEntity
  8
0
  6
Continuous
 62
     7
100
AcDbLine
 10
-279.8474567361876
 20
-303.063346740094
 30
0.0
 11
-279.9008994965764
 21
-303.063346740094
 31
0.0
  0
LINE
  5
2F0
330
6F
100
AcDbEntity
  8
0
  6
Continuous
 62
     7
100
AcDbLine
 10
-326.4244205234493
 20
-288.88514747774
 30
0.0
 11
-320.0991005034296
 21
-288.88514747774
 31
0.0
  0
LINE
  5
2F1
330
6F
100
AcDbEntity
  8
0
  6
Continuous
 62
     7
100
AcDbLine
 10
-326.4244205234493
 20
-288.88514747774
 30
0.0
 11
-326.4244205234493
 21
-303.063346740094
 31
0.0
  0
LINE
  5
2F2
330
6F
100
AcDbEntity
  8
0
  6
Continuous
 62
     7
100
AcDbLine
 10
-326.4244205234493
 20
-303.063346740094
 30
0.0
 11
-320.8769179627373
 21
-303.063346740094
 31
0.0
  0
LINE
  5
2F3
330
6F
100
AcDbEntity
  8
0
  6
Continuous
 62
     7
100
AcDbLine
 10
-327.5244205234515
 20
-289.8056293767729
 30
0.0
 11
-327.5244205234515
 21
-303.063346740094
 31
0.0
  0
LINE
  5
2F4
330
6F
100
AcDbEntity
  8
0
  6
Continuous
 62
     7
100
AcDbLine
 10
-271.500000000003
 20
-305.563346740094
 30
0.0
 11
-328.500000000003
 21
-305.563346740094
 31
0.0
  0
LINE
  5
2F5
330
6F
100
AcDbEntity
  8
0
  6
Continuous
 62
     7
100
AcDbLine
 10
-328.500000000003
 20
-303.063346740094
 30
0.0
 11
-328.500000000003
 21
-305.563346740094
 31
0.0
  0
LINE
  5
2F6
330
6F
100
AcDbEntity
  8
0
  6
Continuous
 62
     7
100
AcDbLine
 10
-271.500000000003
 20
-303.063346740094
 30
0.0
 11
-271.500000000003
 21
-305.563346740094
 31
0.0
  0
LINE
  5
2F7
330
6F
100
AcDbEntity
  8
0
  6
Continuous
 62
     7
100
AcDbLine
 10
-273.5755794765567
 20
-288.88514747774
 30
0.0
 11
-273.5755794765567
 21
-303.063346740094
 31
0.0
  0
LINE
  5
2F8
330
6F
100
AcDbEntity
  8
0
  6
Continuous
 62
     7
100
AcDbLine
 10
-302.000000000003
 20
-288.88514747774
 30
0.0
 11
-302.000000000003
 21
-289.8056293767729
 31
0.0
  0
LINE
  5
2F9
330
6F
100
AcDbEntity
  8
0
  6
Continuous
 62
     7
100
AcDbLine
 10
-273.5755794765567
 20
-288.88514747774
 30
0.0
 11
-279.9008994965764
 21
-288.88514747774
 31
0.0
  0
LINE
  5
2FA
330
6F
100
AcDbEntity
  8
0
  6
Continuous
 62
     7
100
AcDbLine
 10
-272.4755794765545
 20
-289.8056293767729
 30
0.0
 11
-272.4755794765545
 21
-303.063346740094
 31
0.0
  0
LINE
  5
2FB
330
6F
100
AcDbEntity
  8
0
  6
Continuous
 62
     7
100
AcDbLine
 10
-272.4755794765545
 20
-303.063346740094
 30
0.0
 11
-273.5755794765567
 21
-303.063346740094
 31
0.0
  0
LINE
  5
2FC
330
6F
100
AcDbEntity
  8
0
  6
Continuous
 62
     7
100
AcDbLine
 10
-317.2706733786866
 20
-303.063346740094
 30
0.0
 11
-302.000000000003
 21
-303.063346740094
 31
0.0
  0
LINE
  5
2FD
330
6F
100
AcDbEntity
  8
0
  6
Continuous
 62
     7
100
AcDbLine
 10
-273.5755794765567
 20
-303.063346740094
 30
0.0
 11
-279.1230820372687
 21
-303.063346740094
 31
0.0
  0
LINE
  5
2FE
330
6F
100
AcDbEntity
  8
0
  6
Continuous
 62
     7
100
AcDbLine
 10
-279.9008994965764
 20
-303.063346740094
 30
0.0
 11
-281.9515091620154
 21
-303.063346740094
 31
0.0
  0
LINE
  5
2FF
330
6F
100
AcDbEntity
  8
1
  6
PHANTOM
 62
     2
100
AcDbLine
 10
-300.000000000003
 20
-303.063346740094
 30
0.0
 11
-300.000000000003
 21
-305.563346740094
 31
0.0
  0
SPLINE
  5
300
330
6F
100
AcDbEntity
  8
0
  6
Continuous
 62
     7
100
AcDbSpline
210
0.0
220
0.0
230
1.0
 70
     8
 71
     3
 72
    11
 73
     7
 74
     5
 42
0.000000001
 43
0.0000000001
 44
0.00000001
 40
0.0
 40
0.0
 40
0.0
 40
0.0
 40
0.3158789477958923
 40
0.6240832434642585
 40
0.9336075373330541
 40
1.235572027456922
 40
1.235572027456922
 40
1.235572027456922
 40
1.235572027456922
 10
-328.500000000003
 20
-290.563346740094
 30
0.0
 10
-328.4190012541101
 20
-290.4960671158696
 30
0.0
 10
-328.2589717130674
 20
-290.3631425168708
 30
0.0
 10
-328.0149163849418
 20
-290.1700162886042
 30
0.0
 10
-327.7713095533192
 20
-289.9838547227943
 30
0.0
 10
-327.6060357793426
 20
-289.8645461529035
 30
0.0
 10
-327.5244205234515
 20
-289.8056293767729
 30
0.0
 11
-328.500000000003
 21
-290.563346740094
 31
0.0
 11
-328.2562063231132
 21
-290.3624882007949
 31
0.0
 11
-328.0147282691317
 21
-290.170972568452
 31
0.0
 11
-327.7684606824339
 21
-289.9834690634939
 31
0.0
 11
-327.5244205234515
 21
-289.8056293767729
 31
0.0
  0
SPLINE
  5
301
330
6F
100
AcDbEntity
  8
0
  6
Continuous
 62
     7
100
AcDbSpline
210
0.0
220
0.0
230
1.0
 70
     8
 71
     3
 72
    11
 73
     7
 74
     5
 42
0.000000001
 43
0.0000000001
 44
0.00000001
 40
0.0
 40
0.0
 40
0.0
 40
0.0
 40
0.2532283968015366
 40
0.5152040065311015
 40
0.777836365251712
 40
1.048535546975282
 40
1.048535546975282
 40
1.048535546975282
 40
1.048535546975282
 10
-279.1230820372687
 20
-289.8056293767729
 30
0.0
 10
-279.1836044910328
 20
-289.8644735218422
 30
0.0
 10
-279.3067400017811
 20
-289.984194463156
 30
0.0
 10
-279.4874334991825
 20
-290.1701783544957
 30
0.0
 10
-279.6688388864129
 20
-290.3635215625367
 30
0.0
 10
-279.7873201002943
 20
-290.496070063639
 30
0.0
 10
-279.8474567361876
 20
-290.563346740094
 30
0.0
 11
-279.1230820372687
 21
-289.8056293767729
 31
0.0
 11
-279.3038153969686
 21
-289.9829992550085
 31
0.0
 11
-279.4867304404173
 21
-290.1705447350751
 31
0.0
 11
-279.6662304501073
 21
-290.3622619812256
 31
0.0
 11
-279.8474567361876
 21
-290.563346740094
 31
0.0
  0
SPLINE
  5
302
330
6F
100
AcDbEntity
  8
0
  6
Continuous
 62
     7
100
AcDbSpline
210
0.0
220
0.0
230
1.0
 70
     8
 71
     3
 72
    11
 73
     7
 74
     5
 42
0.000000001
 43
0.0000000001
 44
0.00000001
 40
0.0
 40
0.0
 40
0.0
 40
0.0
 40
0.5373994098884064
 40
1.069443421120831
 40
1.607942799014064
 40
2.138967656576161
 40
2.138967656576161
 40
2.138967656576161
 40
2.138967656576161
 10
-300.000000000003
 20
-290.563346740094
 30
0.0
 10
-299.8339721119218
 20
-290.4960827363981
 30
0.0
 10
-299.5035708640729
 20
-290.362225055411
 30
0.0
 10
-299.003517470673
 20
-290.1692417647084
 30
0.0
 10
-298.5032456133637
 20
-289.982813332021
 30
0.0
 10
-298.1669651584015
 20
-289.8644148757451
 30
0.0
 10
-298.000000000003
 20
-289.8056293767729
 30
0.0
 11
-300.000000000003
 21
-290.563346740094
 31
0.0
 11
-299.5013647328536
 21
-290.3629446538741
 31
0.0
 11
-299.0051616613631
 21
-290.170972411418
 31
0.0
 11
-298.5003531692076
 21
-289.983489168449
 31
0.0
 11
-298.000000000003
 21
-289.8056293767729
 31
0.0
  0
SPLINE
  5
303
330
6F
100
AcDbEntity
  8
0
  6
Continuous
 62
     7
100
AcDbSpline
210
0.0
220
0.0
230
1.0
 70
     8
 71
     3
 72
    11
 73
     7
 74
     5
 42
0.000000001
 43
0.0000000001
 44
0.00000001
 40
0.0
 40
0.0
 40
0.0
 40
0.0
 40
0.5642569841860474
 40
1.117752099907149
 40
1.680943573996507
 40
2.236567026744274
 40
2.236567026744274
 40
2.236567026744274
 40
2.236567026744274
 10
-320.1525432638185
 20
-290.563346740094
 30
0.0
 10
-319.9770192347049
 20
-290.4957553874696
 30
0.0
 10
-319.6293188772104
 20
-290.361861841466
 30
0.0
 10
-319.1032587188819
 20
-290.1689017876126
 30
0.0
 10
-318.5777914040239
 20
-289.9827697697826
 30
0.0
 10
-318.2241269284629
 20
-289.8644092937046
 30
0.0
 10
-318.0484908379906
 20
-289.8056293767729
 30
0.0
 11
-320.1525432638185
 21
-290.563346740094
 31
0.0
 11
-319.6254344725675
 21
-290.3619956376691
 31
0.0
 11
-319.1059472539558
 21
-290.170972411418
 31
0.0
 11
-318.5748776280842
 21
-289.9834899079154
 31
0.0
 11
-318.0484908379906
 21
-289.8056293767729
 31
0.0
  0
SPLINE
  5
304
330
6F
100
AcDbEntity
  8
0
  6
Continuous
 62
     7
100
AcDbSpline
210
0.0
220
0.0
230
1.0
 70
     8
 71
     3
 72
    11
 73
     7
 74
     5
 42
0.000000001
 43
0.0000000001
 44
0.00000001
 40
0.0
 40
0.0
 40
0.0
 40
0.0
 40
0.2712732238831322
 40
0.5327401942681358
 40
0.794657326878307
 40
1.048535542548708
 40
1.048535542548708
 40
1.048535542548708
 40
1.048535542548708
 10
-320.1525432638185
 20
-290.563346740094
 30
0.0
 10
-320.2128079983145
 20
-290.4959278856206
 30
0.0
 10
-320.3311589689421
 20
-290.3635273102416
 30
0.0
 10
-320.512415731844
 20
-290.1703419459154
 30
0.0
 10
-320.6929661490955
 20
-289.984485828793
 30
0.0
 10
-320.8162411211555
 20
-289.8646254970637
 30
0.0
 10
-320.8769179627373
 20
-289.8056293767729
 30
0.0
 11
-320.1525432638185
 21
-290.563346740094
 31
0.0
 11
-320.3341578597714
 21
-290.3618391706011
 31
0.0
 11
-320.5128611248322
 21
-290.170972411418
 31
0.0
 11
-320.6957258748556
 21
-289.9834595647286
 31
0.0
 11
-320.8769179627373
 21
-289.8056293767729
 31
0.0
  0
SPLINE
  5
305
330
6F
100
AcDbEntity
  8
0
  6
Continuous
 62
     7
100
AcDbSpline
210
0.0
220
0.0
230
1.0
 70
     8
 71
     3
 72
    11
 73
     7
 74
     5
 42
0.000000001
 43
0.0000000001
 44
0.00000001
 40
0.0
 40
0.0
 40
0.0
 40
0.0
 40
0.5401144726115619
 40
1.069443422464175
 40
1.607110367596357
 40
2.138967657364602
 40
2.138967657364602
 40
2.138967657364602
 40
2.138967657364602
 10
-300.000000000003
 20
-290.563346740094
 30
0.0
 10
-300.1668677818394
 20
-290.4957454900181
 30
0.0
 10
-300.4972711754713
 20
-290.3618929301677
 30
0.0
 10
-300.997071897487
 20
-290.1690260804777
 30
0.0
 10
-301.4964935928746
 20
-289.9829082485963
 30
0.0
 10
-301.8327734199289
 20
-289.8645079458772
 30
0.0
 10
-302.000000000003
 20
-289.8056293767729
 30
0.0
 11
-300.000000000003
 21
-290.563346740094
 31
0.0
 11
-300.5011610422979
 21
-290.3619484946477
 31
0.0
 11
-300.994838338643
 21
-290.170972411418
 31
0.0
 11
-301.4988644553508
 21
-289.9837735393091
 31
0.0
 11
-302.000000000003
 21
-289.8056293767729
 31
0.0
  0
SPLINE
  5
306
330
6F
100
AcDbEntity
  8
0
  6
Continuous
 62
     7
100
AcDbSpline
210
0.0
220
0.0
230
1.0
 70
     8
 71
     3
 72
    11
 73
     7
 74
     5
 42
0.000000001
 43
0.0000000001
 44
0.00000001
 40
0.0
 40
0.0
 40
0.0
 40
0.0
 40
0.2998864799381372
 40
0.6025485779353076
 40
0.9017237172662709
 40
1.205108678842457
 40
1.205108678842457
 40
1.205108678842457
 40
1.205108678842457
 10
-320.0991005034296
 20
-288.88514747774
 30
0.0
 10
-320.163623075129
 20
-288.9614971415935
 30
0.0
 10
-320.293265399734
 20
-289.1149031380957
 30
0.0
 10
-320.4872688618833
 20
-289.344484779986
 30
0.0
 10
-320.6820195833749
 20
-289.5749617342303
 30
0.0
 10
-320.8116499500046
 20
-289.7283828640515
 30
0.0
 10
-320.8769179627373
 20
-289.8056293767729
 30
0.0
 11
-320.0991005034296
 21
-288.88514747774
 31
0.0
 11
-320.2926668278803
 21
-289.1141976444905
 31
0.0
 11
-320.4880181664442
 21
-289.345373335439
 31
0.0
 11
-320.6811125963812
 21
-289.5738909608449
 31
0.0
 11
-320.8769179627373
 21
-289.8056293767729
 31
0.0
  0
SPLINE
  5
307
330
6F
100
AcDbEntity
  8
0
  6
Continuous
 62
     7
100
AcDbSpline
210
0.0
220
0.0
230
1.0
 70
     8
 71
     3
 72
    11
 73
     7
 74
     5
 42
0.000000001
 43
0.0000000001
 44
0.00000001
 40
0.0
 40
0.0
 40
0.0
 40
0.0
 40
0.3024286829097541
 40
0.6025600718402944
 40
0.9055648577537394
 40
1.205108678810558
 40
1.205108678810558
 40
1.205108678810558
 40
1.205108678810558
 10
-281.9515091620045
 20
-289.805629376722
 30
0.0
 10
-282.0165714464246
 20
-289.728626346065
 30
0.0
 10
-282.146201803751
 20
-289.5752052210675
 30
0.0
 10
-282.3410262356233
 20
-289.3446410148845
 30
0.0
 10
-282.5352354422766
 20
-289.1148159046256
 30
0.0
 10
-282.6648777743503
 20
-288.9614099017638
 30
0.0
 10
-282.7293266213231
 20
-288.88514747774
 30
0.0
 11
-281.9515091620045
 21
-289.805629376722
 31
0.0
 11
-282.1466973342165
 21
-289.5746213992079
 31
0.0
 11
-282.3404089395693
 21
-289.3453733576171
 31
0.0
 11
-282.5359814675728
 21
-289.1139359220608
 31
0.0
 11
-282.7293266213231
 21
-288.88514747774
 31
0.0
  0
SPLINE
  5
308
330
6F
100
AcDbEntity
  8
0
  6
Continuous
 62
     7
100
AcDbSpline
210
0.0
220
0.0
230
1.0
 70
     8
 71
     3
 72
    11
 73
     7
 74
     5
 42
0.000000001
 43
0.0000000001
 44
0.00000001
 40
0.0
 40
0.0
 40
0.0
 40
0.0
 40
0.2994287919462384
 40
0.6025485779329601
 40
0.9027839839227909
 40
1.20510867884007
 40
1.20510867884007
 40
1.20510867884007
 40
1.20510867884007
 10
-317.2706733786866
 20
-288.88514747774
 30
0.0
 10
-317.3350974765887
 20
-288.9613806157265
 30
0.0
 10
-317.4647398028306
 20
-289.1147866108441
 30
0.0
 10
-317.6589713834164
 20
-289.3446381957726
 30
0.0
 10
-317.8538205617372
 20
-289.5752316902215
 30
0.0
 10
-317.9834509249624
 20
-289.7286528229193
 30
0.0
 10
-318.0484908379906
 20
-289.8056293767729
 30
0.0
 11
-317.2706733786866
 21
-288.88514747774
 31
0.0
 11
-317.4639442863811
 21
-289.1138480629719
 31
0.0
 11
-317.6595910416975
 21
-289.345373335439
 31
0.0
 11
-317.8533697809501
 21
-289.5747008288272
 31
0.0
 11
-318.0484908379906
 21
-289.8056293767729
 31
0.0
  0
SPLINE
  5
309
330
6F
100
AcDbEntity
  8
0
  6
Continuous
 62
     7
100
AcDbSpline
210
0.0
220
0.0
230
1.0
 70
     8
 71
     3
 72
    11
 73
     7
 74
     5
 42
0.000000001
 43
0.0000000001
 44
0.00000001
 40
0.0
 40
0.0
 40
0.0
 40
0.0
 40
0.3023613649079122
 40
0.6025600718721906
 40
0.9059830063447069
 40
1.205108678842455
 40
1.205108678842455
 40
1.205108678842455
 40
1.205108678842455
 10
-279.1230820372687
 20
-289.8056293767729
 30
0.0
 10
-279.1881298392747
 20
-289.7286434862265
 30
0.0
 10
-279.3177601963833
 20
-289.5752223610311
 30
0.0
 10
-279.5126745885131
 20
-289.3445516901367
 30
0.0
 10
-279.7068982826819
 20
-289.1147094440641
 30
0.0
 10
-279.836540616285
 20
-288.9613034424947
 30
0.0
 10
-279.9008994965764
 20
-288.88514747774
 30
0.0
 11
-279.1230820372687
 21
-289.8056293767729
 31
0.0
 11
-279.3182267615774
 21
-289.5746728190319
 31
0.0
 11
-279.5119818148226
 21
-289.3453733576171
 31
0.0
 11
-279.7078242386881
 21
-289.1136165407195
 31
0.0
 11
-279.9008994965764
 21
-288.88514747774
 31
0.0
  0
SPLINE
  5
30A
330
6F
100
AcDbEntity
  8
0
  6
Continuous
 62
     7
100
AcDbSpline
210
0.0
220
0.0
230
1.0
 70
     8
 71
     3
 72
    11
 73
     7
 74
     5
 42
0.000000001
 43
0.0000000001
 44
0.00000001
 40
0.0
 40
0.0
 40
0.0
 40
0.0
 40
0.3572711679013498
 40
0.717162281081344
 40
1.074171569536138
 40
1.434324554759881
 40
1.434324554759881
 40
1.434324554759881
 40
1.434324554759881
 10
-326.4244205234493
 20
-288.88514747774
 30
0.0
 10
-326.5157559590283
 20
-288.9615697194859
 30
0.0
 10
-326.6990966026671
 20
-289.1149746350214
 30
0.0
 10
-326.9736973518384
 20
-289.3447557913415
 30
0.0
 10
-327.2490293853551
 20
-289.5751598905447
 30
0.0
 10
-327.4323556091079
 20
-289.7285820343967
 30
0.0
 10
-327.5244205234515
 20
-289.8056293767729
 30
0.0
 11
-326.4244205234493
 21
-288.88514747774
 31
0.0
 11
-326.6984254390699
 21
-289.1144158655075
 31
0.0
 11
-326.9744331571304
 21
-289.345373335439
 31
0.0
 11
-327.2482244619563
 21
-289.5744889251419
 31
0.0
 11
-327.5244205234515
 21
-289.8056293767729
 31
0.0
  0
SPLINE
  5
30B
330
6F
100
AcDbEntity
  8
0
  6
Continuous
 62
     7
100
AcDbSpline
210
0.0
220
0.0
230
1.0
 70
     8
 71
     3
 72
    11
 73
     7
 74
     5
 42
0.000000001
 43
0.0000000001
 44
0.00000001
 40
0.0
 40
0.0
 40
0.0
 40
0.0
 40
0.3565221488581248
 40
0.7171622810812583
 40
1.07423985085703
 40
1.434324554759882
 40
1.434324554759882
 40
1.434324554759882
 40
1.434324554759882
 10
-273.5755794765567
 20
-288.88514747774
 30
0.0
 10
-273.4844355245779
 20
-288.9614094988723
 30
0.0
 10
-273.3010948786376
 20
-289.1148144116571
 30
0.0
 10
-273.0264766677402
 20
-289.3446101668084
 30
0.0
 10
-272.7509531598415
 20
-289.5751744976413
 30
0.0
 10
-272.5676269362504
 20
-289.7285966416866
 30
0.0
 10
-272.4755794765545
 20
-289.8056293767729
 30
0.0
 11
-273.5755794765567
 21
-288.88514747774
 31
0.0
 11
-273.3021490054423
 21
-289.1139351961444
 31
0.0
 11
-273.0255668428757
 21
-289.345373335439
 31
0.0
 11
-272.7517231735231
 21
-289.5745327463142
 31
0.0
 11
-272.4755794765545
 21
-289.8056293767729
 31
0.0
  0
SPLINE
  5
30C
330
6F
100
AcDbEntity
  8
0
  6
Continuous
 62
     7
100
AcDbSpline
210
0.0
220
0.0
230
1.0
 70
     8
 71
     3
 72
    11
 73
     7
 74
     5
 42
0.000000001
 43
0.0000000001
 44
0.00000001
 40
0.0
 40
0.0
 40
0.0
 40
0.0
 40
0.5543188591683555
 40
1.11755386296219
 40
1.673979122166469
 40
2.236567028802407
 40
2.236567028802407
 40
2.236567028802407
 40
2.236567028802407
 10
-281.9515091620045
 20
-289.805629376722
 30
0.0
 10
-281.7762849716897
 20
-289.8642697717856
 30
0.0
 10
-281.4230181382597
 20
-289.9824937990917
 30
0.0
 10
-280.8970204628366
 20
-290.1687948057631
 30
0.0
 10
-280.3705524729527
 20
-290.3619063995942
 30
0.0
 10
-280.0224609850191
 20
-290.4959538790947
 30
0.0
 10
-279.8474567361876
 20
-290.563346740094
 30
0.0
 11
-281.9515091620045
 21
-289.805629376722
 31
0.0
 11
-281.4263554847706
 21
-289.9830639083018
 31
0.0
 11
-280.8952391046362
 21
-290.1705447350751
 31
0.0
 11
-280.3730026303218
 21
-290.3625815391492
 31
0.0
 11
-279.8474567361876
 21
-290.563346740094
 31
0.0
  0
SPLINE
  5
30D
330
6F
100
AcDbEntity
  8
0
  6
Continuous
 62
     7
100
AcDbSpline
210
0.0
220
0.0
230
1.0
 70
     8
 71
     3
 72
    11
 73
     7
 74
     5
 42
0.000000001
 43
0.0000000001
 44
0.00000001
 40
0.0
 40
0.0
 40
0.0
 40
0.0
 40
0.3152989234476298
 40
0.6240834980414924
 40
0.9336077907776344
 40
1.235572026219308
 40
1.235572026219308
 40
1.235572026219308
 40
1.235572026219308
 10
-271.5000000000212
 20
-290.563346740058
 30
0.0
 10
-271.5808494702645
 20
-290.4961900248278
 30
0.0
 10
-271.7408780001376
 20
-290.3632641217999
 30
0.0
 10
-271.9849300487996
 20
-290.1701334950734
 30
0.0
 10
-272.2286905994788
 20
-289.9838546450395
 30
0.0
 10
-272.3939642943964
 20
-289.8645461104348
 30
0.0
 10
-272.4755794765545
 20
-289.8056293767729
 30
0.0
 11
-271.5000000000212
 21
-290.563346740058
 31
0.0
 11
-271.7433426276828
 21
-290.3628529079083
 31
0.0
 11
-271.9852719328367
 21
-290.170972411418
 31
0.0
 11
-272.2315395218072
 21
-289.9834689113148
 31
0.0
 11
-272.4755794765545
 21
-289.8056293767729
 31
0.0
  0
ENDBLK
  5
71
330
6F
100
AcDbEntity
  8
0
100
AcDbBlockEnd
  0
BLOCK
  5
73
330
72
100
AcDbEntity
  8
0
100
AcDbBlockBegin
  2
HL_13_Tauchrohr_Artikel
 70
     0
 10
-329.6868924640223
 20
-181.4821191387255
 30
0.0
  3
HL_13_Tauchrohr_Artikel
  1

  0
LINE
  5
30E
330
72
100
AcDbEntity
  8
1
  6
Continuous
 62
     7
100
AcDbLine
 10
-320.000000000003
 20
-288.563346740094
 30
0.0
 11
-320.000000000003
 21
-109.4008547175081
 31
0.0
  0
LINE
  5
30F
330
72
100
AcDbEntity
  8
1
  6
Continuous
 62
     7
100
AcDbLine
 10
-280.000000000003
 20
-76.24833395018504
 30
0.0
 11
-280.000000000003
 21
-288.563346740094
 31
0.0
  0
LINE
  5
310
330
72
100
AcDbEntity
  8
1
  6
Continuous
 62
     7
100
AcDbLine
 10
-320.000000000003
 20
-79.37784548561604
 30
0.0
 11
-338.574245001835
 21
-74.40089153735698
 31
0.0
  0
LINE
  5
311
330
72
100
AcDbEntity
  8
1
  6
Continuous
 62
     7
100
AcDbLine
 10
-346.0799973098079
 20
-102.4127404997398
 30
0.0
 11
-320.000000000003
 21
-109.4008547175081
 31
0.0
  0
LINE
  5
312
330
72
100
AcDbEntity
  8
1
  6
Continuous
 62
     7
100
AcDbLine
 10
-320.000000000003
 20
-79.37784548561604
 30
0.0
 11
-320.000000000003
 21
-76.24833395018504
 31
0.0
  0
LINE
  5
313
330
72
100
AcDbEntity
  8
1
  6
PHANTOM
 62
     2
100
AcDbLine
 10
-379.3737849280415
 20
-78.48019237851713
 30
0.0
 11
-309.6901715247196
 21
-97.15186031561598
 31
0.0
  0
ARC
  5
314
330
72
100
AcDbEntity
  8
1
  6
Continuous
 62
     7
100
AcDbCircle
 10
-343.6358780070763
 20
-94.38935010156183
 30
0.0
 40
27.99999999999692
100
AcDbArc
 50
327.5797504596996
 51
32.42024954029959
  0
ENDBLK
  5
74
330
72
100
AcDbEntity
  8
0
100
AcDbBlockEnd
  0
BLOCK
  5
76
330
75
100
AcDbEntity
  8
0
100
AcDbBlockBegin
  2
Holländermutter_1
 70
     0
 10
-350.8065586981455
 20
-87.00152344726024
 30
0.0
  3
Holländermutter_1
  1

  0
LINE
  5
315
330
75
100
AcDbEntity
  8
1
  6
DOT_CENTER
 62
     2
100
AcDbLine
 10
-358.6313229520462
 20
-84.03811831401727
 30
0.0
 11
-355.2505825600344
 21
-84.9439849718759
 31
0.0
  0
LINE
  5
316
330
75
100
AcDbEntity
  8
0
  6
Continuous
 62
     7
100
AcDbLine
 10
-356.8037394573199
 20
-90.74044542467301
 30
0.0
 11
-346.6615182812847
 21
-93.45804539824903
 31
0.0
  0
LINE
  5
317
330
75
100
AcDbEntity
  8
0
  6
Continuous
 62
     7
100
AcDbLine
 10
-341.8808267790917
 20
-75.61626181674825
 30
0.0
 11
-343.4498338553855
 21
-81.47187594291292
 31
0.0
  0
LINE
  5
318
330
75
100
AcDbEntity
  8
0
  6
Continuous
 62
     7
100
AcDbLine
 10
-341.5123480679157
 20
-74.24108054513162
 30
0.0
 11
-341.8808267790917
 21
-75.61626181674825
 31
0.0
  0
LINE
  5
319
330
75
100
AcDbEntity
  8
0
  6
Continuous
 62
     7
100
AcDbLine
 10
-343.5552044867134
 20
-81.86512449265463
 30
0.0
 11
-344.2024947261404
 21
-84.28084455344003
 31
0.0
  0
LINE
  5
31A
330
75
100
AcDbEntity
  8
0
  6
Continuous
 62
     7
100
AcDbLine
 10
-353.6974256627488
 20
-79.14752451907879
 30
0.0
 11
-343.5552044867134
 21
-81.86512449265463
 31
0.0
  0
LINE
  5
31B
330
75
100
AcDbEntity
  8
0
  6
Continuous
 62
     7
100
AcDbLine
 10
-346.6615182812847
 20
-93.45804539824903
 30
0.0
 11
-346.7668889126126
 21
-93.85129394799074
 31
0.0
  0
LINE
  5
31C
330
75
100
AcDbEntity
  8
0
  6
Continuous
 62
     7
100
AcDbLine
 10
-344.2024947261404
 20
-84.28084455344003
 30
0.0
 11
-346.0142280418577
 21
-91.04232533746361
 31
0.0
  0
LINE
  5
31D
330
75
100
AcDbEntity
  8
0
  6
Continuous
 62
     7
100
AcDbLine
 10
-351.2503072940955
 20
-73.10571707925439
 30
0.0
 11
-352.8193143703892
 21
-78.96133120541914
 31
0.0
  0
LINE
  5
31E
330
75
100
AcDbEntity
  8
0
  6
Continuous
 62
     7
100
AcDbLine
 10
-351.6545692439511
 20
-71.5234805715559
 30
0.0
 11
-341.5123480679157
 21
-74.24108054513162
 31
0.0
  0
LINE
  5
31F
330
75
100
AcDbEntity
  8
0
  6
Continuous
 62
     7
100
AcDbLine
 10
-349.7927486450267
 20
-105.1439562059392
 30
0.0
 11
-349.99442351752
 21
-105.8966170766943
 31
0.0
  0
LINE
  5
320
330
75
100
AcDbEntity
  8
0
  6
Continuous
 62
     7
100
AcDbLine
 10
-350.0776870499669
 20
-106.207360810204
 30
0.0
 11
-350.194155620263
 21
-106.6420274320338
 31
0.0
  0
LINE
  5
321
330
75
100
AcDbEntity
  8
0
  6
Continuous
 62
     7
100
AcDbLine
 10
-349.99442351752
 20
-105.8966170766943
 30
0.0
 11
-350.0776870499669
 21
-106.207360810204
 31
0.0
  0
LINE
  5
322
330
75
100
AcDbEntity
  8
0
  6
Continuous
 62
     7
100
AcDbLine
 10
-348.886881987168
 20
-101.7632158139274
 30
0.0
 11
-349.7927486450267
 21
-105.1439562059392
 31
0.0
  0
LINE
  5
323
330
75
100
AcDbEntity
  8
0
  6
Continuous
 62
     7
100
AcDbLine
 10
-348.7043747000824
 20
-101.082089345772
 30
0.0
 11
-348.886881987168
 21
-101.7632158139274
 31
0.0
  0
LINE
  5
324
330
75
100
AcDbEntity
  8
0
  6
Continuous
 62
     7
100
AcDbLine
 10
-346.7668889126126
 20
-93.85129394799074
 30
0.0
 11
-348.3358959889064
 21
-99.70690807415541
 31
0.0
  0
LINE
  5
325
330
75
100
AcDbEntity
  8
0
  6
Continuous
 62
     7
100
AcDbLine
 10
-348.3358959889064
 20
-99.70690807415541
 30
0.0
 11
-348.7043747000824
 21
-101.082089345772
 31
0.0
  0
LINE
  5
326
330
75
100
AcDbEntity
  8
0
  6
Continuous
 62
     7
100
AcDbLine
 10
-340.2222992504781
 20
-69.4265528142093
 30
0.0
 11
-340.4239741229714
 21
-70.17921368496445
 31
0.0
  0
LINE
  5
327
330
75
100
AcDbEntity
  8
0
  6
Continuous
 62
     7
100
AcDbLine
 10
-340.4239741229714
 20
-70.17921368496445
 30
0.0
 11
-341.3298407808301
 21
-73.55995407697624
 31
0.0
  0
LINE
  5
328
330
75
100
AcDbEntity
  8
0
  6
Continuous
 62
     7
100
AcDbLine
 10
-340.0225671477351
 20
-68.68114245886981
 30
0.0
 11
-340.1390357180312
 21
-69.11580908069962
 31
0.0
  0
LINE
  5
329
330
75
100
AcDbEntity
  8
0
  6
Continuous
 62
     7
100
AcDbLine
 10
-340.1390357180312
 20
-69.11580908069962
 30
0.0
 11
-340.2222992504781
 21
-69.4265528142093
 31
0.0
  0
LINE
  5
32A
330
75
100
AcDbEntity
  8
0
  6
Continuous
 62
     7
100
AcDbLine
 10
-346.0142280418577
 20
-91.04232533746361
 30
0.0
 11
-346.6615182812847
 21
-93.45804539824903
 31
0.0
  0
LINE
  5
32B
330
75
100
AcDbEntity
  8
0
  6
Continuous
 62
     3
100
AcDbLine
 10
-339.4101947120394
 20
-68.3275890682765
 30
0.0
 11
-349.8406022296696
 21
-107.2543998677296
 31
0.0
  0
LINE
  5
32C
330
75
100
AcDbEntity
  8
0
  6
Continuous
 62
     7
100
AcDbLine
 10
-341.8808267790917
 20
-75.61626181674825
 30
0.0
 11
-351.2503072940955
 21
-73.10571707925439
 31
0.0
  0
LINE
  5
32D
330
75
100
AcDbEntity
  8
0
  6
Continuous
 62
     7
100
AcDbLine
 10
-337.4783430594612
 20
-68.84522715848144
 30
0.0
 11
-347.9087505770914
 21
-107.7720379579346
 31
0.0
  0
LINE
  5
32E
330
75
100
AcDbEntity
  8
0
  6
Continuous
 62
     7
100
AcDbLine
 10
-337.4783430594612
 20
-68.84522715848144
 30
0.0
 11
-339.4101947120394
 21
-68.3275890682765
 31
0.0
  0
LINE
  5
32F
330
75
100
AcDbEntity
  8
0
  6
Continuous
 62
     7
100
AcDbLine
 10
-348.3358959889064
 20
-99.70690807415541
 30
0.0
 11
-357.7053765039101
 21
-97.19636333666155
 31
0.0
  0
LINE
  5
330
330
75
100
AcDbEntity
  8
0
  6
Continuous
 62
     7
100
AcDbLine
 10
-347.9087505770914
 20
-107.7720379579346
 30
0.0
 11
-349.8406022296696
 21
-107.2543998677296
 31
0.0
  0
LINE
  5
331
330
75
100
AcDbEntity
  8
0
  6
Continuous
 62
     7
100
AcDbLine
 10
-359.4471675649707
 20
-103.6968160727102
 30
0.0
 11
-350.0776870499669
 21
-106.207360810204
 31
0.0
  0
LINE
  5
332
330
75
100
AcDbEntity
  8
0
  6
Continuous
 62
     7
100
AcDbLine
 10
-358.2563625021718
 20
-99.25267107643354
 30
0.0
 11
-359.1622291600305
 21
-102.6334114684453
 31
0.0
  0
LINE
  5
333
330
75
100
AcDbEntity
  8
0
  6
Continuous
 62
     7
100
AcDbLine
 10
-359.7524625339763
 20
-101.7452297642077
 30
0.0
 11
-358.8465958761177
 21
-98.3644893721959
 31
0.0
  0
LINE
  5
334
330
75
100
AcDbEntity
  8
0
  6
Continuous
 62
     7
100
AcDbLine
 10
-348.886881987168
 20
-101.7632158139274
 30
0.0
 11
-358.2563625021718
 21
-99.25267107643354
 31
0.0
  0
LINE
  5
335
330
75
100
AcDbEntity
  8
0
  6
Continuous
 62
     7
100
AcDbLine
 10
-358.8465958761177
 20
-98.3644893721959
 30
0.0
 11
-348.7043747000824
 21
-101.082089345772
 31
0.0
  0
LINE
  5
336
330
75
100
AcDbEntity
  8
0
  6
Continuous
 62
     7
100
AcDbLine
 10
-349.99442351752
 20
-105.8966170766943
 30
0.0
 11
-359.3639040325238
 21
-103.3860723392005
 31
0.0
  0
LINE
  5
337
330
75
100
AcDbEntity
  8
0
  6
Continuous
 62
     7
100
AcDbLine
 10
-363.393593381932
 20
-101.811153517738
 30
0.0
 11
-360.0128529899202
 21
-102.7170201755967
 31
0.0
  0
LINE
  5
338
330
75
100
AcDbEntity
  8
0
  6
Continuous
 62
     7
100
AcDbLine
 10
-349.7927486450267
 20
-105.1439562059392
 30
0.0
 11
-359.1622291600305
 21
-102.6334114684453
 31
0.0
  0
LINE
  5
339
330
75
100
AcDbEntity
  8
0
  6
Continuous
 62
     7
100
AcDbLine
 10
-360.0128529899202
 20
-102.7170201755967
 30
0.0
 11
-359.4471675649707
 21
-103.6968160727102
 31
0.0
  0
LINE
  5
33A
330
75
100
AcDbEntity
  8
0
  6
Continuous
 62
     7
100
AcDbLine
 10
-360.0128529899202
 20
-102.7170201755967
 30
0.0
 11
-359.9259034308993
 21
-102.3925200036348
 31
0.0
  0
LINE
  5
33B
330
75
100
AcDbEntity
  8
0
  6
Continuous
 62
     7
100
AcDbLine
 10
-359.9259034308993
 20
-102.3925200036348
 30
0.0
 11
-359.1915774616742
 21
-102.5892820540698
 31
0.0
  0
LINE
  5
33C
330
75
100
AcDbEntity
  8
0
  6
Continuous
 62
     7
100
AcDbLine
 10
-359.3639040325238
 20
-103.3860723392005
 30
0.0
 11
-359.4471675649707
 21
-103.6968160727102
 31
0.0
  0
LINE
  5
33D
330
75
100
AcDbEntity
  8
0
  6
Continuous
 62
     7
100
AcDbLine
 10
-344.2024947261404
 20
-84.28084455344003
 30
0.0
 11
-353.5719752411442
 21
-81.77029981594617
 31
0.0
  0
LINE
  5
33E
330
75
100
AcDbEntity
  8
0
  6
Continuous
 62
     7
100
AcDbLine
 10
-343.4498338553855
 20
-81.47187594291292
 30
0.0
 11
-343.5552044867134
 21
-81.86512449265463
 31
0.0
  0
LINE
  5
33F
330
75
100
AcDbEntity
  8
0
  6
Continuous
 62
     7
100
AcDbLine
 10
-341.3298407808301
 20
-73.55995407697624
 30
0.0
 11
-341.5123480679157
 21
-74.24108054513162
 31
0.0
  0
LINE
  5
340
330
75
100
AcDbEntity
  8
0
  6
Continuous
 62
     7
100
AcDbLine
 10
-340.4239741229714
 20
-70.17921368496445
 30
0.0
 11
-349.7934546379752
 21
-67.6686689474706
 31
0.0
  0
LINE
  5
341
330
75
100
AcDbEntity
  8
0
  6
Continuous
 62
     7
100
AcDbLine
 10
-343.4498338553855
 20
-81.47187594291292
 30
0.0
 11
-352.8193143703892
 21
-78.96133120541914
 31
0.0
  0
LINE
  5
342
330
75
100
AcDbEntity
  8
0
  6
Continuous
 62
     7
100
AcDbLine
 10
-341.3298407808301
 20
-73.55995407697624
 30
0.0
 11
-350.6993212958338
 21
-71.04940933948238
 31
0.0
  0
LINE
  5
343
330
75
100
AcDbEntity
  8
0
  6
Continuous
 62
     7
100
AcDbLine
 10
-340.2222992504781
 20
-69.4265528142093
 30
0.0
 11
-349.5917797654819
 21
-66.91600807671544
 31
0.0
  0
LINE
  5
344
330
75
100
AcDbEntity
  8
0
  6
Continuous
 62
     7
100
AcDbLine
 10
-349.5085162330349
 20
-66.60526434320576
 30
0.0
 11
-340.1390357180312
 21
-69.11580908069962
 31
0.0
  0
LINE
  5
345
330
75
100
AcDbEntity
  8
0
  6
Continuous
 62
     7
100
AcDbLine
 10
-349.5085162330349
 20
-66.60526434320576
 30
0.0
 11
-349.5917797654819
 21
-66.91600807671544
 31
0.0
  0
LINE
  5
346
330
75
100
AcDbEntity
  8
0
  6
Continuous
 62
     7
100
AcDbLine
 10
-346.7668889126126
 20
-93.85129394799074
 30
0.0
 11
-356.1363694276164
 21
-91.34074921049688
 31
0.0
  0
LINE
  5
347
330
75
100
AcDbEntity
  8
0
  6
Continuous
 62
     7
100
AcDbLine
 10
-346.0142280418577
 20
-91.04232533746361
 30
0.0
 11
-355.3837085568615
 21
-88.53178059996975
 31
0.0
  0
LINE
  5
348
330
75
100
AcDbEntity
  8
0
  6
Continuous
 62
     7
100
AcDbLine
 10
-350.4883121301485
 20
-67.17094976815514
 30
0.0
 11
-349.5085162330349
 21
-66.60526434320576
 31
0.0
  0
LINE
  5
349
330
75
100
AcDbEntity
  8
0
  6
Continuous
 62
     7
100
AcDbLine
 10
-353.5719752411442
 20
-81.77029981594617
 30
0.0
 11
-355.3837085568615
 21
-88.53178059996975
 31
0.0
  0
LINE
  5
34A
330
75
100
AcDbEntity
  8
0
  6
Continuous
 62
     7
100
AcDbLine
 10
-354.3447159021757
 20
-81.56324457986412
 30
0.0
 11
-353.5719752411442
 21
-81.77029981594617
 31
0.0
  0
LINE
  5
34B
330
75
100
AcDbEntity
  8
0
  6
Continuous
 62
     7
100
AcDbLine
 10
-355.3837085568615
 20
-88.53178059996975
 30
0.0
 11
-356.156449217893
 21
-88.3247253638877
 31
0.0
  0
LINE
  5
34C
330
75
100
AcDbEntity
  8
0
  6
Continuous
 62
     7
100
AcDbLine
 10
-356.156449217893
 20
-88.3247253638877
 30
0.0
 11
-354.3447159021757
 21
-81.56324457986412
 31
0.0
  0
LINE
  5
34D
330
75
100
AcDbEntity
  8
0
  6
Continuous
 62
     7
100
AcDbLine
 10
-358.3727465336137
 20
-96.59605955083771
 30
0.0
 11
-356.8037394573199
 21
-90.74044542467301
 31
0.0
  0
LINE
  5
34E
330
75
100
AcDbEntity
  8
0
  6
Continuous
 62
     7
100
AcDbLine
 10
-353.6974256627488
 20
-79.14752451907879
 30
0.0
 11
-352.128418586455
 21
-73.29191039291403
 31
0.0
  0
LINE
  5
34F
330
75
100
AcDbEntity
  8
0
  6
Continuous
 62
     7
100
AcDbLine
 10
-351.6545692439511
 20
-71.5234805715559
 30
0.0
 11
-350.7487025860925
 21
-68.1427401795441
 31
0.0
  0
LINE
  5
350
330
75
100
AcDbEntity
  8
0
  6
Continuous
 62
     7
100
AcDbLine
 10
-350.5752616891695
 20
-67.49544994011703
 30
0.0
 11
-349.8409357199444
 21
-67.69221199055204
 31
0.0
  0
LINE
  5
351
330
75
100
AcDbEntity
  8
0
  6
Continuous
 62
     7
100
AcDbLine
 10
-349.7934546379752
 20
-67.6686689474706
 30
0.0
 11
-350.6993212958338
 21
-71.04940933948238
 31
0.0
  0
LINE
  5
352
330
75
100
AcDbEntity
  8
0
  6
Continuous
 62
     7
100
AcDbLine
 10
-356.1363694276164
 20
-91.34074921049688
 30
0.0
 11
-357.7053765039101
 21
-97.19636333666155
 31
0.0
  0
LINE
  5
353
330
75
100
AcDbEntity
  8
0
  6
Continuous
 62
     3
100
AcDbLine
 10
-353.8690525221604
 20
-66.2650831102965
 30
0.0
 11
-363.393593381932
 21
-101.811153517738
 31
0.0
  0
LINE
  5
354
330
75
100
AcDbEntity
  8
0
  6
Continuous
 62
     7
100
AcDbLine
 10
-350.5752616891695
 20
-67.49544994011703
 30
0.0
 11
-350.4883121301485
 21
-67.17094976815514
 31
0.0
  0
LINE
  5
355
330
75
100
AcDbEntity
  8
0
  6
Continuous
 62
     7
100
AcDbLine
 10
-353.8690525221604
 20
-66.2650831102965
 30
0.0
 11
-350.4883121301485
 21
-67.17094976815514
 31
0.0
  0
LINE
  5
356
330
75
100
AcDbEntity
  8
0
  6
Continuous
 62
     7
100
AcDbLine
 10
-355.093797393552
 20
-66.97218989148332
 30
0.0
 11
-364.1007001631186
 21
-100.5864086463463
 31
0.0
  0
ARC
  5
357
330
75
100
AcDbEntity
  8
0
  6
Continuous
 62
     7
100
AcDbCircle
 10
-363.1347743368297
 20
-100.8452276914487
 30
0.0
 40
0.9999999999997741
100
AcDbArc
 50
165.0000000000038
 51
255.0000000000149
  0
ARC
  5
358
330
75
100
AcDbEntity
  8
0
  6
Continuous
 62
     7
100
AcDbCircle
 10
-349.7111927071183
 20
-106.7714369545851
 30
0.0
 40
0.5000000000001873
100
AcDbArc
 50
165.0000000000012
 51
254.9999999999917
  0
ARC
  5
359
330
75
100
AcDbEntity
  8
0
  6
Continuous
 62
     7
100
AcDbCircle
 10
-339.5396042345905
 20
-68.81055198142107
 30
0.0
 40
0.4999999999999986
100
AcDbArc
 50
75.00000000001897
 51
165.0000000000025
  0
ARC
  5
35A
330
75
100
AcDbEntity
  8
0
  6
Continuous
 62
     7
100
AcDbCircle
 10
-354.127871567263
 20
-67.23100893658575
 30
0.0
 40
1.000000000000196
100
AcDbArc
 50
74.99999999999844
 51
165.0000000000038
  0
SPLINE
  5
35B
330
75
100
AcDbEntity
  8
0
  6
Continuous
 62
     7
100
AcDbSpline
210
0.0
220
0.0
230
1.0
 70
     8
 71
     3
 72
    11
 73
     7
 74
     5
 42
0.000000001
 43
0.0000000001
 44
0.00000001
 40
0.0
 40
0.0
 40
0.0
 40
0.0
 40
0.2257350453693066
 40
0.4488690967298573
 40
0.6744398470786768
 40
0.8976343441810642
 40
0.8976343441810642
 40
0.8976343441810642
 40
0.8976343441810642
 10
-352.8193143703892
 20
-78.96133120541914
 30
0.0
 10
-352.8929269177033
 20
-78.97691982956654
 30
0.0
 10
-353.0393038210669
 20
-79.00791747518943
 30
0.0
 10
-353.2592307842855
 20
-79.05453445975726
 30
0.0
 10
-353.4783231590188
 20
-79.10100482647691
 30
0.0
 10
-353.6246497668223
 20
-79.13207278589765
 30
0.0
 10
-353.6974256627488
 20
-79.14752451907879
 30
0.0
 11
-352.8193143703892
 21
-78.96133120541914
 31
0.0
 11
-353.0401505117217
 21
-79.00810416116883
 31
0.0
 11
-353.2584351923805
 21
-79.05437081294873
 31
0.0
 11
-353.4790963914157
 21
-79.10117678109371
 31
0.0
 11
-353.6974256627488
 21
-79.14752451907879
 31
0.0
  0
SPLINE
  5
35C
330
75
100
AcDbEntity
  8
0
  6
Continuous
 62
     7
100
AcDbSpline
210
0.0
220
0.0
230
1.0
 70
     8
 71
     3
 72
    11
 73
     7
 74
     5
 42
0.000000001
 43
0.0000000001
 44
0.00000001
 40
0.0
 40
0.0
 40
0.0
 40
0.0
 40
0.2255797515741437
 40
0.4488690967297332
 40
0.6744126663341306
 40
0.8976343441809411
 40
0.8976343441809411
 40
0.8976343441809411
 40
0.8976343441809411
 10
-351.2503072940955
 20
-73.10571707925439
 30
0.0
 10
-351.3238692002483
 20
-73.12129497743008
 30
0.0
 10
-351.4702461043773
 20
-73.1522926194356
 30
0.0
 10
-351.6901642066362
 20
-73.19890771413753
 30
0.0
 10
-351.9093072197949
 20
-73.24538881973515
 30
0.0
 10
-352.0556338277605
 20
-73.27645677839269
 30
0.0
 10
-352.128418586455
 20
-73.29191039291403
 30
0.0
 11
-351.2503072940955
 21
-73.10571707925439
 31
0.0
 11
-351.4709915142113
 21
-73.15245784638982
 31
0.0
 11
-351.6894281160867
 21
-73.19875668678397
 31
0.0
 11
-351.9100627264143
 21
-73.24555701281086
 31
0.0
 11
-352.128418586455
 21
-73.29191039291403
 31
0.0
  0
SPLINE
  5
35D
330
75
100
AcDbEntity
  8
0
  6
Continuous
 62
     7
100
AcDbSpline
210
0.0
220
0.0
230
1.0
 70
     8
 71
     3
 72
    11
 73
     7
 74
     5
 42
0.000000001
 43
0.0000000001
 44
0.00000001
 40
0.0
 40
0.0
 40
0.0
 40
0.0
 40
0.2232179694157936
 40
0.4487652474511885
 40
0.6720534812134751
 40
0.8976343441810342
 40
0.8976343441810342
 40
0.8976343441810342
 40
0.8976343441810342
 10
-358.3727465336137
 20
-96.59605955083771
 30
0.0
 10
-358.3174408096918
 20
-96.64583432604513
 30
0.0
 10
-358.2062522293405
 20
-96.74590327154434
 30
0.0
 10
-358.0397096412791
 20
-96.89572834879888
 30
0.0
 10
-357.8725616062704
 20
-97.04605808281731
 30
0.0
 10
-357.7612943097885
 20
-97.1460912803364
 30
0.0
 10
-357.7053765039101
 20
-97.19636333666155
 30
0.0
 11
-358.3727465336137
 21
-96.59605955083771
 31
0.0
 11
-358.2068242585531
 21
-96.745378205095
 31
0.0
 11
-358.0391464873205
 21
-96.89622826198723
 31
0.0
 11
-357.8731250875867
 21
-97.04554179174191
 31
0.0
 11
-357.7053765039101
 21
-97.19636333666155
 31
0.0
  0
SPLINE
  5
35E
330
75
100
AcDbEntity
  8
0
  6
Continuous
 62
     7
100
AcDbSpline
210
0.0
220
0.0
230
1.0
 70
     8
 71
     3
 72
    11
 73
     7
 74
     5
 42
0.000000001
 43
0.0000000001
 44
0.00000001
 40
0.0
 40
0.0
 40
0.0
 40
0.0
 40
0.2651495747987582
 40
0.5331932871598835
 40
0.798481181011069
 40
1.066415597480098
 40
1.066415597480098
 40
1.066415597480098
 40
1.066415597480098
 10
-358.8465958761177
 20
-98.3644893721959
 30
0.0
 10
-358.7977023592487
 20
-98.43811689844746
 30
0.0
 10
-358.6993816347132
 20
-98.58617559539042
 30
0.0
 10
-358.5520858336978
 20
-98.80786299549959
 30
0.0
 10
-358.404240186069
 20
-99.0302995603677
 30
0.0
 10
-358.3058178995435
 20
-99.17830238153824
 30
0.0
 10
-358.2563625021718
 20
-99.25267107643354
 30
0.0
 11
-358.8465958761177
 21
-98.3644893721959
 31
0.0
 11
-358.699906066129
 21
-98.58536580068477
 31
0.0
 11
-358.5515714023516
 21
-98.80862407994769
 31
0.0
 11
-358.4047199185836
 21
-99.0295591571539
 31
0.0
 11
-358.2563625021718
 21
-99.25267107643354
 31
0.0
  0
SPLINE
  5
35F
330
75
100
AcDbEntity
  8
0
  6
Continuous
 62
     7
100
AcDbSpline
210
0.0
220
0.0
230
1.0
 70
     8
 71
     3
 72
    11
 73
     7
 74
     5
 42
0.000000001
 43
0.0000000001
 44
0.00000001
 40
0.0
 40
0.0
 40
0.0
 40
0.0
 40
0.2839714124428893
 40
0.5707429353688276
 40
0.8546478952706174
 40
1.14148571026292
 40
1.14148571026292
 40
1.14148571026292
 40
1.14148571026292
 10
-359.9259034308993
 20
-102.3925200036348
 30
0.0
 10
-359.8793273016267
 20
-102.4749253306705
 30
0.0
 10
-359.7857157643601
 20
-102.6405485380746
 30
0.0
 10
-359.6454758053021
 20
-102.8885220631959
 30
0.0
 10
-359.5047247912668
 20
-103.1373042414609
 30
0.0
 10
-359.411004821595
 20
-103.3028660536055
 30
0.0
 10
-359.3639040325238
 20
-103.3860723392005
 30
0.0
 11
-359.9259034308993
 21
-102.3925200036348
 31
0.0
 11
-359.7861645930457
 21
-102.6397300768129
 31
0.0
 11
-359.6449985966436
 21
-102.8893499234241
 31
0.0
 11
-359.5051965017175
 21
-103.1364478807451
 31
0.0
 11
-359.3639040325238
 21
-103.3860723392005
 31
0.0
  0
SPLINE
  5
360
330
75
100
AcDbEntity
  8
0
  6
Continuous
 62
     7
100
AcDbSpline
210
0.0
220
0.0
230
1.0
 70
     8
 71
     3
 72
    11
 73
     7
 74
     5
 42
0.000000001
 43
0.0000000001
 44
0.00000001
 40
0.0
 40
0.0
 40
0.0
 40
0.0
 40
0.2653179004677661
 40
0.5331932871598651
 40
0.7984354947490495
 40
1.066415597479986
 40
1.066415597479986
 40
1.066415597479986
 40
1.066415597479986
 10
-359.7524625339763
 20
-101.7452297642077
 30
0.0
 10
-359.7035379755682
 20
-101.8189040300894
 30
0.0
 10
-359.6052172463617
 20
-101.9669627239315
 30
0.0
 10
-359.4579298603337
 20
-102.1886374313953
 30
0.0
 10
-359.310115275108
 20
-102.4110272704963
 30
0.0
 10
-359.2116929896472
 20
-102.5590300923752
 30
0.0
 10
-359.1622291600305
 20
-102.6334114684453
 30
0.0
 11
-359.7524625339763
 21
-101.7452297642077
 31
0.0
 11
-359.60567958666
 21
-101.9662464031431
 31
0.0
 11
-359.4574380602102
 21
-102.1893644719595
 31
0.0
 11
-359.3106118698183
 21
-102.410261503408
 31
0.0
 11
-359.1622291600305
 21
-102.6334114684453
 31
0.0
  0
SPLINE
  5
361
330
75
100
AcDbEntity
  8
0
  6
Continuous
 62
     7
100
AcDbSpline
210
0.0
220
0.0
230
1.0
 70
     8
 71
     3
 72
    11
 73
     7
 74
     5
 42
0.000000001
 43
0.0000000001
 44
0.00000001
 40
0.0
 40
0.0
 40
0.0
 40
0.0
 40
0.286698705401685
 40
0.5707427748942033
 40
0.8577732734534149
 40
1.141485710262993
 40
1.141485710262993
 40
1.141485710262993
 40
1.141485710262993
 10
-349.5917797654819
 20
-66.91600807671544
 30
0.0
 10
-349.6741334302079
 20
-66.96449291210757
 30
0.0
 10
-349.838078212891
 20
-67.0610136590308
 30
0.0
 10
-350.0844376424444
 20
-67.20613364099914
 30
0.0
 10
-350.3299157095818
 20
-67.35078859570977
 30
0.0
 10
-350.4937972782388
 20
-67.44741673961327
 30
0.0
 10
-350.5752616891695
 20
-67.49544994011703
 30
0.0
 11
-349.5917797654819
 21
-66.91600807671544
 31
0.0
 11
-349.8388349947753
 21
-67.06147237253494
 31
0.0
 11
-350.0835760067636
 21
-67.20563502534708
 31
0.0
 11
-350.3308623723717
 21
-67.35136065963525
 31
0.0
 11
-350.5752616891695
 21
-67.49544994011703
 31
0.0
  0
SPLINE
  5
362
330
75
100
AcDbEntity
  8
0
  6
Continuous
 62
     7
100
AcDbSpline
210
0.0
220
0.0
230
1.0
 70
     8
 71
     3
 72
    11
 73
     7
 74
     5
 42
0.000000001
 43
0.0000000001
 44
0.00000001
 40
0.0
 40
0.0
 40
0.0
 40
0.0
 40
0.2650026194978369
 40
0.5331932871599621
 40
0.7984517946446312
 40
1.066415597480133
 40
1.066415597480133
 40
1.066415597480133
 40
1.066415597480133
 10
-350.7487025860925
 20
-68.1427401795441
 30
0.0
 10
-350.6695896678682
 20
-68.10344541826241
 30
0.0
 10
-350.5104120764188
 20
-68.0243831833225
 30
0.0
 10
-350.2720152506852
 20
-67.90604850701592
 30
0.0
 10
-350.0327150020411
 20
-67.78731384045848
 30
0.0
 10
-349.8734773914284
 20
-67.70835077994401
 30
0.0
 10
-349.7934546379752
 20
-67.6686689474706
 30
0.0
 11
-350.7487025860925
 21
-68.1427401795441
 31
0.0
 11
-350.5113588935981
 21
-68.02486583978201
 31
0.0
 11
-350.271136543197
 21
-67.90562047681172
 31
0.0
 11
-350.0335182145527
 21
-67.78772388786072
 31
0.0
 11
-349.7934546379752
 21
-67.6686689474706
 31
0.0
  0
SPLINE
  5
363
330
75
100
AcDbEntity
  8
0
  6
Continuous
 62
     7
100
AcDbSpline
210
0.0
220
0.0
230
1.0
 70
     8
 71
     3
 72
    11
 73
     7
 74
     5
 42
0.000000001
 43
0.0000000001
 44
0.00000001
 40
0.0
 40
0.0
 40
0.0
 40
0.0
 40
0.2232182509283391
 40
0.4487652474510891
 40
0.6718805072452967
 40
0.8976343441810217
 40
0.8976343441810217
 40
0.8976343441810217
 40
0.8976343441810217
 10
-356.8037394573199
 20
-90.74044542467301
 30
0.0
 10
-356.7484336636612
 20
-90.79022026266792
 30
0.0
 10
-356.6372450833351
 20
-90.89028920819494
 30
0.0
 10
-356.470745359973
 20
-91.04007572301536
 30
0.0
 10
-356.3035974032619
 20
-91.19040540376297
 30
0.0
 10
-356.1923301095276
 20
-91.29043860433906
 30
0.0
 10
-356.1363694276164
 20
-91.34074921049688
 30
0.0
 11
-356.8037394573199
 21
-90.74044542467301
 31
0.0
 11
-356.6378169729904
 21
-90.88976426722748
 31
0.0
 11
-356.4701394110268
 21
-91.04061413582245
 31
0.0
 11
-356.3042466312372
 21
-91.18981200701168
 31
0.0
 11
-356.1363694276164
 21
-91.34074921049688
 31
0.0
  0
SPLINE
  5
364
330
75
100
AcDbEntity
  8
0
  6
Continuous
 62
     7
100
AcDbSpline
210
0.0
220
0.0
230
1.0
 70
     8
 71
     3
 72
    11
 73
     7
 74
     5
 42
0.000000001
 43
0.0000000001
 44
0.00000001
 40
0.0
 40
0.0
 40
0.0
 40
0.0
 40
0.2678832079394449
 40
0.5332223103202645
 40
0.8014521220036775
 40
1.066415597480077
 40
1.066415597480077
 40
1.066415597480077
 40
1.066415597480077
 10
-350.6993212958338
 20
-71.04940933948238
 30
0.0
 10
-350.7793199815384
 20
-71.08907923588178
 30
0.0
 10
-350.9385575931906
 20
-71.16804229429957
 30
0.0
 10
-351.1778695334424
 20
-71.2867827536873
 30
0.0
 10
-351.4162904210452
 20
-71.40512937791635
 30
0.0
 10
-351.5754680119244
 20
-71.48419161400413
 30
0.0
 10
-351.6545692439511
 20
-71.5234805715559
 30
0.0
 11
-350.6993212958338
 21
-71.04940933948238
 31
0.0
 11
-350.9393126722715
 21
-71.16842846539042
 31
0.0
 11
-351.1770032010557
 21
-71.28636086882351
 31
0.0
 11
-351.4172606116403
 21
-71.40562363977902
 31
0.0
 11
-351.6545692439511
 21
-71.5234805715559
 31
0.0
  0
ENDBLK
  5
77
330
75
100
AcDbEntity
  8
0
100
AcDbBlockEnd
  0
BLOCK
  5
79
330
78
100
AcDbEntity
  8
0
100
AcDbBlockBegin
  2
Dichtstopfen
 70
     0
 10
-395.4194468329276
 20
-134.8997182101316
 30
0.0
  3
Dichtstopfen
  1

  0
LINE
  5
365
330
78
100
AcDbEntity
  8
0
  6
Continuous
 62
     7
100
AcDbLine
 10
-403.7030654336405
 20
-132.0071997783971
 30
0.0
 11
-389.2141780393043
 21
-135.8894854549342
 31
0.0
  0
LINE
  5
366
330
78
100
AcDbEntity
  8
0
  6
Continuous
 62
     7
100
AcDbLine
 10
-404.6827902003051
 20
-131.7446833183647
 30
0.0
 11
-403.7030654336405
 21
-132.0071997783971
 31
0.0
  0
LINE
  5
367
330
78
100
AcDbEntity
  8
0
  6
Continuous
 62
     7
100
AcDbLine
 10
-389.2141780393043
 20
-135.8894854549342
 30
0.0
 11
-388.2344532726397
 21
-136.1520019149666
 31
0.0
  0
LINE
  5
368
330
78
100
AcDbEntity
  8
0
  6
Continuous
 62
     7
100
AcDbLine
 10
-405.6349170862187
 20
-131.4895616881922
 30
0.0
 11
-404.6827902003051
 21
-131.7446833183647
 31
0.0
  0
LINE
  5
369
330
78
100
AcDbEntity
  8
0
  6
Continuous
 62
     7
100
AcDbLine
 10
-385.2039765796366
 20
-138.309874732071
 30
0.0
 11
-384.8675118210034
 21
-137.0541711578953
 31
0.0
  0
LINE
  5
36A
330
78
100
AcDbEntity
  8
0
  6
Continuous
 62
     7
100
AcDbLine
 10
-388.2344532726397
 20
-136.1520019149666
 30
0.0
 11
-384.8675118210034
 21
-137.0541711578953
 31
0.0
  0
LINE
  5
36B
330
78
100
AcDbEntity
  8
0
  6
Continuous
 62
     7
100
AcDbLine
 10
-405.9713818448519
 20
-132.745265262368
 30
0.0
 11
-405.6349170862187
 21
-131.4895616881922
 31
0.0
  0
LINE
  5
36C
330
78
100
AcDbEntity
  8
0
  6
Continuous
 62
     7
100
AcDbLine
 10
-405.9713818448519
 20
-132.745265262368
 30
0.0
 11
-385.2039765796366
 21
-138.309874732071
 31
0.0
  0
ENDBLK
  5
7A
330
78
100
AcDbEntity
  8
0
100
AcDbBlockEnd
  0
BLOCK
  5
17C
330
174
100
AcDbEntity
  8
0
100
AcDbBlockBegin
  2
*D16
 70
     1
 10
0.0
 20
0.0
 30
0.0
  3
*D16
  1

  0
LINE
  5
175
330
174
100
AcDbEntity
  8
1
  6
Continuous
 62
     4
100
AcDbLine
 10
-300.0
 20
55.064508151827
 30
0.0
 11
0.0
 21
55.064508151827
 31
0.0
  0
LINE
  5
176
330
174
100
AcDbEntity
  8
1
  6
Continuous
 62
     4
100
AcDbLine
 10
-300.0
 20
-23.04133183274098
 30
0.0
 11
-300.0
 21
59.064508151827
 31
0.0
  0
LINE
  5
177
330
174
100
AcDbEntity
  8
1
  6
Continuous
 62
     4
100
AcDbLine
 10
0.0
 20
3.43393154728983
 30
0.0
 11
0.0
 21
59.064508151827
 31
0.0
  0
SOLID
  5
178
330
174
100
AcDbEntity
  8
1
 62
     4
100
AcDbTrace
 10
-14.0
 20
53.22137318560346
 30
0.0
 11
-14.0
 21
56.90764311805054
 31
0.0
 12
0.0
 22
55.064508151827
 32
0.0
 13
0.0
 23
55.064508151827
 33
0.0
  0
SOLID
  5
179
330
174
100
AcDbEntity
  8
1
 62
     4
100
AcDbTrace
 10
-286.0
 20
56.90764311805054
 30
0.0
 11
-286.0
 21
53.22137318560345
 31
0.0
 12
-300.0
 22
55.064508151827
 32
0.0
 13
-300.0
 23
55.064508151827
 33
0.0
  0
MTEXT
  5
17B
330
174
100
AcDbEntity
  8
1
 62
     1
100
AcDbMText
 10
-190.588880213988
 20
59.06439683860582
 30
0.0
 40
14.0
 41
0.0
 71
     7
 72
     1
  1
\C1;120-\C1;325
  7
CONVERTER_11
 11
0.9999999999970619
 21
2.424068405545306E-6
 31
0.0
 73
     1
 44
0.60024009603842
  0
ENDBLK
  5
17D
330
174
100
AcDbEntity
  8
0
100
AcDbBlockEnd
  0
BLOCK
  5
188
330
180
100
AcDbEntity
  8
0
100
AcDbBlockBegin
  2
*D17
 70
     1
 10
0.0
 20
0.0
 30
0.0
  3
*D17
  1

  0
LINE
  5
181
330
180
100
AcDbEntity
  8
1
  6
Continuous
 62
     4
100
AcDbLine
 10
51.60546659676828
 20
-297.498333950185
 30
0.0
 11
51.60546659676828
 21
-257.498333950185
 31
0.0
  0
LINE
  5
182
330
180
100
AcDbEntity
  8
1
  6
Continuous
 62
     4
100
AcDbLine
 10
51.60546659676828
 20
-257.498333950185
 30
0.0
 11
51.60546659676828
 21
-181.1247053299127
 31
0.0
  0
LINE
  5
183
330
180
100
AcDbEntity
  8
1
  6
Continuous
 62
     4
100
AcDbLine
 10
6.42152791794979
 20
-297.498333950185
 30
0.0
 11
55.60546659676828
 21
-297.498333950185
 31
0.0
  0
LINE
  5
184
330
180
100
AcDbEntity
  8
1
  6
Continuous
 62
     4
100
AcDbLine
 10
6.42152791794979
 20
-257.498333950185
 30
0.0
 11
55.60546659676828
 21
-257.498333950185
 31
0.0
  0
SOLID
  5
185
330
180
100
AcDbEntity
  8
1
 62
     4
100
AcDbTrace
 10
53.44860156299182
 20
-271.498333950185
 30
0.0
 11
49.76233163054474
 21
-271.498333950185
 31
0.0
 12
51.60546659676828
 22
-257.498333950185
 32
0.0
 13
51.60546659676828
 23
-257.498333950185
 33
0.0
  0
SOLID
  5
186
330
180
100
AcDbEntity
  8
1
 62
     4
100
AcDbTrace
 10
49.76233163054474
 20
-283.498333950185
 30
0.0
 11
53.44860156299183
 21
-283.498333950185
 31
0.0
 12
51.60546659676828
 22
-297.498333950185
 32
0.0
 13
51.60546659676828
 23
-297.498333950185
 33
0.0
  0
MTEXT
  5
187
330
180
100
AcDbEntity
  8
1
 62
     1
100
AcDbMText
 10
47.60546659676828
 20
-225.0847053299127
 30
0.0
 40
14.0
 41
0.0
 71
     7
 72
     1
  1
\C1;DN\C1;40
  7
CONVERTER_11
 11
0.0
 21
1.0
 31
0.0
 73
     1
 44
0.60024009603842
  0
ENDBLK
  5
189
330
180
100
AcDbEntity
  8
0
100
AcDbBlockEnd
  0
BLOCK
  5
193
330
18C
100
AcDbEntity
  8
0
100
AcDbBlockBegin
  2
*D18
 70
     1
 10
0.0
 20
0.0
 30
0.0
  3
*D18
  1

  0
LINE
  5
18D
330
18C
100
AcDbEntity
  8
1
  6
Continuous
 62
     4
100
AcDbLine
 10
-300.0000000000031
 20
-438.9971067071226
 30
0.0
 11
-210.0784720820521
 21
-438.9971067071226
 31
0.0
  0
LINE
  5
18E
330
18C
100
AcDbEntity
  8
1
  6
Continuous
 62
     4
100
AcDbLine
 10
-210.0784720820521
 20
-336.3976868887767
 30
0.0
 11
-210.0784720820521
 21
-442.9971067071226
 31
0.0
  0
LINE
  5
18F
330
18C
100
AcDbEntity
  8
1
  6
Continuous
 62
     4
100
AcDbLine
 10
-300.0000000000031
 20
-373.6268061347059
 30
0.0
 11
-300.0000000000031
 21
-442.9971067071226
 31
0.0
  0
SOLID
  5
190
330
18C
100
AcDbEntity
  8
1
 62
     4
100
AcDbTrace
 10
-224.0784720820521
 20
-440.8402416733462
 30
0.0
 11
-224.0784720820521
 21
-437.1539717408991
 31
0.0
 12
-210.0784720820521
 22
-438.9971067071226
 32
0.0
 13
-210.0784720820521
 23
-438.9971067071226
 33
0.0
  0
SOLID
  5
191
330
18C
100
AcDbEntity
  8
1
 62
     4
100
AcDbTrace
 10
-286.0000000000031
 20
-437.1539717408991
 30
0.0
 11
-286.0000000000031
 21
-440.8402416733462
 31
0.0
 12
-300.0000000000031
 22
-438.9971067071226
 32
0.0
 13
-300.0000000000031
 23
-438.9971067071226
 33
0.0
  0
MTEXT
  5
192
330
18C
100
AcDbEntity
  8
1
 62
     1
100
AcDbMText
 10
-264.9354608942949
 20
-434.9971067071226
 30
0.0
 40
14.0
 41
0.0
 71
     7
 72
     1
  1
90
  7
CONVERTER_11
 11
0.9999999999970619
 21
2.424068405545306E-6
 31
0.0
 73
     1
 44
0.60024009603842
  0
ENDBLK
  5
194
330
18C
100
AcDbEntity
  8
0
100
AcDbBlockEnd
  0
BLOCK
  5
19E
330
197
100
AcDbEntity
  8
0
100
AcDbBlockBegin
  2
*D19
 70
     1
 10
0.0
 20
0.0
 30
0.0
  3
*D19
  1

  0
LINE
  5
198
330
197
100
AcDbEntity
  8
1
  6
Continuous
 62
     4
100
AcDbLine
 10
-368.656793867471
 20
-407.493346740094
 30
0.0
 11
-368.656793867471
 21
-277.4983339501887
 31
0.0
  0
LINE
  5
199
330
197
100
AcDbEntity
  8
1
  6
Continuous
 62
     4
100
AcDbLine
 10
-214.5343692589613
 20
-277.4983339501887
 30
0.0
 11
-372.656793867471
 21
-277.4983339501887
 31
0.0
  0
LINE
  5
19A
330
197
100
AcDbEntity
  8
1
  6
Continuous
 62
     4
100
AcDbLine
 10
-277.678376343944
 20
-407.493346740094
 30
0.0
 11
-372.656793867471
 21
-407.493346740094
 31
0.0
  0
SOLID
  5
19B
330
197
100
AcDbEntity
  8
1
 62
     4
100
AcDbTrace
 10
-370.4999288336945
 20
-393.493346740094
 30
0.0
 11
-366.8136589012474
 21
-393.493346740094
 31
0.0
 12
-368.656793867471
 22
-407.493346740094
 32
0.0
 13
-368.656793867471
 23
-407.493346740094
 33
0.0
  0
SOLID
  5
19C
330
197
100
AcDbEntity
  8
1
 62
     4
100
AcDbTrace
 10
-366.8136589012474
 20
-291.4983339501887
 30
0.0
 11
-370.4999288336945
 21
-291.4983339501887
 31
0.0
 12
-368.656793867471
 22
-277.4983339501887
 32
0.0
 13
-368.656793867471
 23
-277.4983339501887
 33
0.0
  0
MTEXT
  5
19D
330
197
100
AcDbEntity
  8
1
 62
     1
100
AcDbMText
 10
-372.656793867471
 20
-344.8832303403734
 30
0.0
 40
14.0
 41
0.0
 71
     7
 72
     1
  1
130
  7
CONVERTER_11
 11
0.0
 21
1.0
 31
0.0
 73
     1
 44
0.60024009603842
  0
ENDBLK
  5
19F
330
197
100
AcDbEntity
  8
0
100
AcDbBlockEnd
  0
BLOCK
  5
1A9
330
1A2
100
AcDbEntity
  8
0
100
AcDbBlockBegin
  2
*D20
 70
     1
 10
0.0
 20
0.0
 30
0.0
  3
*D20
  1

  0
LINE
  5
1A3
330
1A2
100
AcDbEntity
  8
1
  6
Continuous
 62
     4
100
AcDbLine
 10
86.54331300996225
 20
-277.4983339501887
 30
0.0
 11
86.54331300996225
 21
-7.50000000001461
 31
0.0
  0
LINE
  5
1A4
330
1A2
100
AcDbEntity
  8
1
  6
Continuous
 62
     4
100
AcDbLine
 10
30.37860435669791
 20
-7.50000000001461
 30
0.0
 11
90.54331300996225
 21
-7.50000000001461
 31
0.0
  0
LINE
  5
1A5
330
1A2
100
AcDbEntity
  8
1
  6
Continuous
 62
     4
100
AcDbLine
 10
12.84637482141807
 20
-277.4983339501887
 30
0.0
 11
90.54331300996225
 21
-277.4983339501887
 31
0.0
  0
SOLID
  5
1A6
330
1A2
100
AcDbEntity
  8
1
 62
     4
100
AcDbTrace
 10
84.7001780437387
 20
-263.4983339501887
 30
0.0
 11
88.38644797618579
 21
-263.4983339501887
 31
0.0
 12
86.54331300996225
 22
-277.4983339501887
 32
0.0
 13
86.54331300996225
 23
-277.4983339501887
 33
0.0
  0
SOLID
  5
1A7
330
1A2
100
AcDbEntity
  8
1
 62
     4
100
AcDbTrace
 10
88.38644797618578
 20
-21.50000000001461
 30
0.0
 11
84.7001780437387
 21
-21.50000000001461
 31
0.0
 12
86.54331300996225
 22
-7.50000000001461
 32
0.0
 13
86.54331300996225
 23
-7.50000000001461
 33
0.0
  0
MTEXT
  5
1A8
330
1A2
100
AcDbEntity
  8
1
 62
     1
100
AcDbMText
 10
82.54331300996225
 20
-171.7798679682946
 30
0.0
 40
14.0
 41
0.0
 71
     7
 72
     1
  1
\C1;95-\C1;270
  7
CONVERTER_11
 11
0.0
 21
1.0
 31
0.0
 73
     1
 44
0.60024009603842
  0
ENDBLK
  5
1AA
330
1A2
100
AcDbEntity
  8
0
100
AcDbBlockEnd
  0
BLOCK
  5
1B4
330
1AD
100
AcDbEntity
  8
0
100
AcDbBlockBegin
  2
*D21
 70
     1
 10
0.0
 20
0.0
 30
0.0
  3
*D21
  1

  0
LINE
  5
1AE
330
1AD
100
AcDbEntity
  8
1
  6
Continuous
 62
     4
100
AcDbLine
 10
55.80533933680846
 20
-49.50000000001091
 30
0.0
 11
55.80533933680846
 21
-7.50000000001092
 31
0.0
  0
LINE
  5
1AF
330
1AD
100
AcDbEntity
  8
1
  6
Continuous
 62
     4
100
AcDbLine
 10
0.0
 20
-49.50000000001091
 30
0.0
 11
59.80533933680846
 21
-49.50000000001091
 31
0.0
  0
LINE
  5
1B0
330
1AD
100
AcDbEntity
  8
1
  6
Continuous
 62
     4
100
AcDbLine
 10
30.37860435670155
 20
-7.50000000001092
 30
0.0
 11
59.80533933680846
 21
-7.50000000001092
 31
0.0
  0
SOLID
  5
1B1
330
1AD
100
AcDbEntity
  8
1
 62
     4
100
AcDbTrace
 10
57.648474303032
 20
-21.50000000001092
 30
0.0
 11
53.96220437058491
 21
-21.50000000001092
 31
0.0
 12
55.80533933680846
 22
-7.50000000001092
 32
0.0
 13
55.80533933680846
 23
-7.50000000001092
 33
0.0
  0
SOLID
  5
1B2
330
1AD
100
AcDbEntity
  8
1
 62
     4
100
AcDbTrace
 10
53.96220437058491
 20
-35.50000000001091
 30
0.0
 11
57.648474303032
 21
-35.50000000001091
 31
0.0
 12
55.80533933680846
 22
-49.50000000001091
 32
0.0
 13
55.80533933680846
 23
-49.50000000001091
 33
0.0
  0
MTEXT
  5
1B3
330
1AD
100
AcDbEntity
  8
1
 62
     1
100
AcDbMText
 10
51.80533933680846
 20
-39.53760693306617
 30
0.0
 40
14.0
 41
0.0
 71
     7
 72
     1
  1
42
  7
CONVERTER_11
 11
0.0
 21
1.0
 31
0.0
 73
     1
 44
0.60024009603842
  0
ENDBLK
  5
1B5
330
1AD
100
AcDbEntity
  8
0
100
AcDbBlockEnd
  0
BLOCK
  5
1C0
330
1B8
100
AcDbEntity
  8
0
100
AcDbBlockBegin
  2
*D22
 70
     1
 10
0.0
 20
0.0
 30
0.0
  3
*D22
  1

  0
LINE
  5
1B9
330
1B8
100
AcDbEntity
  8
1
  6
Continuous
 62
     4
100
AcDbLine
 10
21.99999999999996
 20
23.0
 30
0.0
 11
83.11599149761659
 21
23.0
 31
0.0
  0
LINE
  5
1BA
330
1B8
100
AcDbEntity
  8
1
  6
Continuous
 62
     4
100
AcDbLine
 10
-22.00000000000003
 20
23.0
 30
0.0
 11
21.99999999999996
 21
23.0
 31
0.0
  0
LINE
  5
1BB
330
1B8
100
AcDbEntity
  8
1
  6
Continuous
 62
     4
100
AcDbLine
 10
21.99999999999996
 20
3.0
 30
0.0
 11
21.99999999999996
 21
27.0
 31
0.0
  0
LINE
  5
1BC
330
1B8
100
AcDbEntity
  8
1
  6
Continuous
 62
     4
100
AcDbLine
 10
-22.00000000000003
 20
3.0
 30
0.0
 11
-22.00000000000003
 21
27.0
 31
0.0
  0
SOLID
  5
1BD
330
1B8
100
AcDbEntity
  8
1
 62
     4
100
AcDbTrace
 10
-8.00000000000003
 20
24.84313496622354
 30
0.0
 11
-8.00000000000003
 21
21.15686503377646
 31
0.0
 12
-22.00000000000003
 22
23.0
 32
0.0
 13
-22.00000000000003
 23
23.0
 33
0.0
  0
SOLID
  5
1BE
330
1B8
100
AcDbEntity
  8
1
 62
     4
100
AcDbTrace
 10
7.99999999999996
 20
21.15686503377646
 30
0.0
 11
7.99999999999996
 21
24.84313496622354
 31
0.0
 12
21.99999999999996
 22
23.0
 32
0.0
 13
21.99999999999996
 23
23.0
 33
0.0
  0
MTEXT
  5
1BF
330
1B8
100
AcDbEntity
  8
1
 62
     1
100
AcDbMText
 10
33.83599149765034
 20
26.9999721716947
 30
0.0
 40
14.0
 41
0.0
 71
     7
 72
     1
  1
\C1;R\C1;6/4"
  7
CONVERTER_11
 11
0.9999999999970619
 21
2.424068405545306E-6
 31
0.0
 73
     1
 44
0.60024009603842
  0
ENDBLK
  5
1C1
330
1B8
100
AcDbEntity
  8
0
100
AcDbBlockEnd
  0
BLOCK
  5
1CD
330
1C4
100
AcDbEntity
  8
0
100
AcDbBlockBegin
  2
*D23
 70
     1
 10
0.0
 20
0.0
 30
0.0
  3
*D23
  1

  0
LINE
  5
1C5
330
1C4
100
AcDbEntity
  8
1
  6
Continuous
 62
     4
100
AcDbLine
 10
-440.0632080070046
 20
-155.6025076216129
 30
0.0
 11
-413.0172848709103
 21
-162.849440884482
 31
0.0
  0
LINE
  5
1C6
330
1C4
100
AcDbEntity
  8
1
  6
Continuous
 62
     4
100
AcDbLine
 10
-413.0172848709103
 20
-162.849440884482
 30
0.0
 11
-396.5689479432449
 21
-167.256759481084
 31
0.0
  0
LINE
  5
1C7
330
1C4
100
AcDbEntity
  8
1
  6
Continuous
 62
     4
100
AcDbLine
 10
-396.5689479432449
 20
-167.256759481084
 30
0.0
 11
-340.8392699133139
 21
-182.1894817036472
 31
0.0
  0
LINE
  5
1C8
330
1C4
100
AcDbEntity
  8
1
  6
Continuous
 62
     4
100
AcDbLine
 10
-404.6827902003052
 20
-131.7446833183647
 30
0.0
 11
-414.0525610513202
 21
-166.7131441896383
 31
0.0
  0
LINE
  5
1C9
330
1C4
100
AcDbEntity
  8
1
  6
Continuous
 62
     4
100
AcDbLine
 10
-388.2344532726398
 20
-136.1520019149667
 30
0.0
 11
-397.6042241236548
 21
-171.1204627862403
 31
0.0
  0
SOLID
  5
1CA
330
1C4
100
AcDbEntity
  8
1
 62
     4
100
AcDbTrace
 10
-427.0172848709104
 20
-161.0063059182594
 30
0.0
 11
-426.0632080070046
 21
-157.4456425878359
 31
0.0
 12
-413.0172848709103
 22
-162.849440884482
 32
0.0
 13
-413.0172848709103
 23
-162.849440884482
 33
0.0
  0
SOLID
  5
1CB
330
1C4
100
AcDbEntity
  8
1
 62
     4
100
AcDbTrace
 10
-382.5689479432448
 20
-169.0998944473066
 30
0.0
 11
-383.5230248071506
 21
-172.6605577777301
 31
0.0
 12
-396.5689479432449
 22
-167.256759481084
 32
0.0
 13
-396.5689479432449
 23
-167.256759481084
 33
0.0
  0
MTEXT
  5
1CC
330
1C4
100
AcDbEntity
  8
1
 62
     1
100
AcDbMText
 10
-376.3159899666313
 20
-168.5424184936176
 30
0.0
 40
14.0
 41
0.0
 71
     7
 72
     1
  1
3/4"
  7
CONVERTER_11
 11
0.9659258262890826
 21
-0.2588190451024672
 31
0.0
 73
     1
 44
0.60024009603842
  0
ENDBLK
  5
1CE
330
1C4
100
AcDbEntity
  8
0
100
AcDbBlockEnd
  0
BLOCK
  5
1D8
330
1D1
100
AcDbEntity
  8
0
100
AcDbBlockBegin
  2
*D24
 70
     1
 10
0.0
 20
0.0
 30
0.0
  3
*D24
  1

  0
LINE
  5
1D2
330
1D1
100
AcDbEntity
  8
1
  6
Continuous
 62
     4
100
AcDbLine
 10
-210.0784720820521
 20
-438.9971067071226
 30
0.0
 11
9.9215279179479
 21
-438.9971067071226
 31
0.0
  0
LINE
  5
1D3
330
1D1
100
AcDbEntity
  8
1
  6
Continuous
 62
     4
100
AcDbLine
 10
9.9215279179479
 20
-296.560511776679
 30
0.0
 11
9.9215279179479
 21
-442.9971067071226
 31
0.0
  0
LINE
  5
1D4
330
1D1
100
AcDbEntity
  8
1
  6
Continuous
 62
     4
100
AcDbLine
 10
-210.0784720820521
 20
-336.3976868887767
 30
0.0
 11
-210.0784720820521
 21
-442.9971067071226
 31
0.0
  0
SOLID
  5
1D5
330
1D1
100
AcDbEntity
  8
1
 62
     4
100
AcDbTrace
 10
-196.0784720820521
 20
-437.1539717408991
 30
0.0
 11
-196.0784720820521
 21
-440.8402416733462
 31
0.0
 12
-210.0784720820521
 22
-438.9971067071226
 32
0.0
 13
-210.0784720820521
 23
-438.9971067071226
 33
0.0
  0
SOLID
  5
1D6
330
1D1
100
AcDbEntity
  8
1
 62
     4
100
AcDbTrace
 10
-4.0784720820521
 20
-440.8402416733462
 30
0.0
 11
-4.0784720820521
 21
-437.1539717408991
 31
0.0
 12
9.9215279179479
 22
-438.9971067071226
 32
0.0
 13
9.9215279179479
 23
-438.9971067071226
 33
0.0
  0
MTEXT
  5
1D7
330
1D1
100
AcDbEntity
  8
1
 62
     1
100
AcDbMText
 10
-139.4161253043486
 20
-434.9971901920385
 30
0.0
 40
14.0
 41
0.0
 71
     7
 72
     1
  1
\C1;35-\C1;220
  7
CONVERTER_11
 11
0.9999999999970619
 21
2.424068405545306E-6
 31
0.0
 73
     1
 44
0.60024009603842
  0
ENDBLK
  5
1D9
330
1D1
100
AcDbEntity
  8
0
100
AcDbBlockEnd
  0
ENDSEC
  0
SECTION
  2
ENTITIES
  0
INSERT
  5
7B
330
1F
100
AcDbEntity
  8
0
100
AcDbBlockReference
  2
HL_126_40_Raumsparsifon
 10
-87.3799737492606
 20
-92.4831496388239
 30
0.0
 41
0.5
 42
0.5
 43
0.5
  0
INSERT
  5
7C
330
1F
100
AcDbEntity
  8
0
100
AcDbBlockReference
  2
Holländermutter_6_4__2
 10
-115.2500000000171
 20
-14.74916697508725
 30
0.0
 41
0.5
 42
0.5
 43
0.5
  0
INSERT
  5
7D
330
1F
100
AcDbEntity
  8
0
100
AcDbBlockReference
  2
Holländermutter_6_4__3
 10
-150.0000000000015
 20
-32.57395186816302
 30
0.0
 41
0.5
 42
0.5
 43
0.5
  0
INSERT
  5
7E
330
1F
100
AcDbEntity
  8
0
100
AcDbBlockReference
  2
Holländermutter_2_
 10
-105.1880291716573
 20
-170.531975729919
 30
0.0
 41
0.5
 42
0.5
 43
0.5
  0
INSERT
  5
7F
330
1F
100
AcDbEntity
  8
0
100
AcDbBlockReference
  2
Holländermutter_6_4__4
 10
-150.0000000000061
 20
-148.531673370047
 30
0.0
 41
0.5
 42
0.5
 43
0.5
  0
INSERT
  5
80
330
1F
100
AcDbEntity
  8
1
100
AcDbBlockReference
  2
HL_13_Tauchrohr_Artikel
 10
-164.8434462320112
 20
-90.74105956936275
 30
0.0
 41
0.5
 42
0.5
 43
0.5
  0
INSERT
  5
81
330
1F
100
AcDbEntity
  8
0
100
AcDbBlockReference
  2
Holländermutter_1
 10
-175.4032793490728
 20
-43.50076172363012
 30
0.0
 41
0.5
 42
0.5
 43
0.5
  0
INSERT
  5
82
330
1F
100
AcDbEntity
  8
0
100
AcDbBlockReference
  2
Dichtstopfen
 10
-197.7097234164638
 20
-67.4498591050658
 30
0.0
 41
0.5
 42
0.5
 43
0.5
  0
ENDSEC
  0
SECTION
  2
OBJECTS
  0
DICTIONARY
  5
C
330
0
100
AcDbDictionary
281
     1
  3
ACAD_GROUP
350
D
  3
ACAD_LAYOUT
350
1A
  3
ACAD_MATERIAL
350
3B
  3
ACAD_MLEADERSTYLE
350
36F
  3
ACAD_MLINESTYLE
350
17
  3
ACAD_PLOTSETTINGS
350
19
  3
ACAD_PLOTSTYLENAME
350
E
  3
ACAD_VISUALSTYLE
350
2A
  3
AcDbVariableDictionary
350
36D
  0
DICTIONARY
  5
D
102
{ACAD_REACTORS
330
C
102
}
330
C
100
AcDbDictionary
281
     1
  0
DICTIONARY
  5
1A
102
{ACAD_REACTORS
330
C
102
}
330
C
100
AcDbDictionary
281
     1
  3
Layout1
350
1E
  3
Layout2
350
26
  3
Model
350
22
  0
DICTIONARY
  5
3B
102
{ACAD_REACTORS
330
C
102
}
330
C
100
AcDbDictionary
281
     1
  3
ByBlock
350
3D
  3
ByLayer
350
3C
  3
Global
350
3E
  0
DICTIONARY
  5
36F
102
{ACAD_REACTORS
330
C
102
}
330
C
100
AcDbDictionary
281
     1
  0
DICTIONARY
  5
17
102
{ACAD_REACTORS
330
C
102
}
330
C
100
AcDbDictionary
281
     1
  3
Standard
350
18
  0
DICTIONARY
  5
19
102
{ACAD_REACTORS
330
C
102
}
330
C
100
AcDbDictionary
281
     1
  0
ACDBDICTIONARYWDFLT
  5
E
102
{ACAD_REACTORS
330
C
102
}
330
C
100
AcDbDictionary
281
     1
  3
Normal
350
F
100
AcDbDictionaryWithDefault
340
F
  0
DICTIONARY
  5
2A
102
{ACAD_REACTORS
330
C
102
}
330
C
100
AcDbDictionary
281
     1
  3
2dWireframe
350
2F
  3
3D Hidden
350
31
  3
3dWireframe
350
30
  3
Basic
350
32
  3
Brighten
350
36
  3
ColorChange
350
3A
  3
Conceptual
350
34
  3
Dim
350
35
  3
Facepattern
350
39
  3
Flat
350
2B
  3
FlatWithEdges
350
2C
  3
Gouraud
350
2D
  3
GouraudWithEdges
350
2E
  3
Linepattern
350
38
  3
Realistic
350
33
  3
Thicken
350
37
  0
DICTIONARY
  5
36D
102
{ACAD_REACTORS
330
C
102
}
330
C
100
AcDbDictionary
281
     1
  3
DIMASSOC
350
370
  3
HIDETEXT
350
371
  0
LAYOUT
  5
1E
102
{ACAD_REACTORS
330
1A
102
}
330
1A
100
AcDbPlotSettings
  1

  2
none_device
  4

  6

 40
0.0
 41
0.0
 42
0.0
 43
0.0
 44
0.0
 45
0.0
 46
0.0
 47
0.0
 48
0.0
 49
0.0
140
0.0
141
0.0
142
1.0
143
1.0
 70
   688
 72
     0
 73
     0
 74
     5
  7

 75
    16
147
1.0
148
0.0
149
0.0
100
AcDbLayout
  1
Layout1
 70
     1
 71
     1
 10
0.0
 20
0.0
 11
12.0
 21
9.0
 12
0.0
 22
0.0
 32
0.0
 14
1.00000000000000E+20
 24
1.00000000000000E+20
 34
1.00000000000000E+20
 15
-1.00000000000000E+20
 25
-1.00000000000000E+20
 35
-1.00000000000000E+20
146
0.0
 13
0.0
 23
0.0
 33
0.0
 16
1.0
 26
0.0
 36
0.0
 17
0.0
 27
1.0
 37
0.0
 76
     0
330
1B
  0
LAYOUT
  5
26
102
{ACAD_REACTORS
330
1A
102
}
330
1A
100
AcDbPlotSettings
  1

  2
none_device
  4

  6

 40
0.0
 41
0.0
 42
0.0
 43
0.0
 44
0.0
 45
0.0
 46
0.0
 47
0.0
 48
0.0
 49
0.0
140
0.0
141
0.0
142
1.0
143
1.0
 70
   688
 72
     0
 73
     0
 74
     5
  7

 75
    16
147
1.0
148
0.0
149
0.0
100
AcDbLayout
  1
Layout2
 70
     1
 71
     2
 10
0.0
 20
0.0
 11
0.0
 21
0.0
 12
0.0
 22
0.0
 32
0.0
 14
0.0
 24
0.0
 34
0.0
 15
0.0
 25
0.0
 35
0.0
146
0.0
 13
0.0
 23
0.0
 33
0.0
 16
1.0
 26
0.0
 36
0.0
 17
0.0
 27
1.0
 37
0.0
 76
     0
330
23
  0
LAYOUT
  5
22
102
{ACAD_REACTORS
330
1A
102
}
330
1A
100
AcDbPlotSettings
  1

  2
none_device
  4

  6

 40
0.0
 41
0.0
 42
0.0
 43
0.0
 44
0.0
 45
0.0
 46
0.0
 47
0.0
 48
0.0
 49
0.0
140
0.0
141
0.0
142
1.0
143
1.0
 70
  1712
 72
     0
 73
     0
 74
     0
  7

 75
     0
147
1.0
148
0.0
149
0.0
100
AcDbLayout
  1
Model
 70
     1
 71
     0
 10
0.0
 20
0.0
 11
12.0
 21
9.0
 12
0.0
 22
0.0
 32
0.0
 14
-220.0316040035023
 24
-221.4985533535613
 34
0.0
 15
45.27165650498112
 25
36.5322540759135
 35
0.0
146
0.0
 13
0.0
 23
0.0
 33
0.0
 16
1.0
 26
0.0
 36
0.0
 17
0.0
 27
1.0
 37
0.0
 76
     0
330
1F
331
29
  0
MATERIAL
  5
3D
102
{ACAD_REACTORS
330
3B
102
}
102
{ACAD_XDICTIONARY
360
394
102
}
330
3B
100
AcDbMaterial
  1
ByBlock
  0
MATERIAL
  5
3C
102
{ACAD_REACTORS
330
3B
102
}
102
{ACAD_XDICTIONARY
360
392
102
}
330
3B
100
AcDbMaterial
  1
ByLayer
  0
MATERIAL
  5
3E
102
{ACAD_REACTORS
330
3B
102
}
102
{ACAD_XDICTIONARY
360
396
102
}
330
3B
100
AcDbMaterial
  1
Global
  0
MLINESTYLE
  5
18
102
{ACAD_REACTORS
330
17
102
}
330
17
100
AcDbMlineStyle
  2
Standard
 70
     0
  3

 62
   256
 51
90.0
 52
90.0
 71
     2
 49
0.5
 62
   256
  6
BYLAYER
 49
-0.5
 62
   256
  6
BYLAYER
  0
ACDBPLACEHOLDER
  5
F
102
{ACAD_REACTORS
330
E
102
}
330
E
  0
VISUALSTYLE
  5
2F
102
{ACAD_REACTORS
330
2A
102
}
102
{ACAD_XDICTIONARY
360
37A
102
}
330
2A
100
AcDbVisualStyle
  2
2dWireframe
 70
     4
 71
     0
 72
     2
 73
     0
 90
        0
 40
-0.6
 41
-30.0
 62
     5
 63
     7
 74
     1
 91
        4
 64
     7
 65
   257
 75
     1
175
     1
 42
1.0
 92
        0
 66
   257
 43
1.0
 76
     1
 77
     6
 78
     2
 67
     7
 79
     5
170
     0
171
     0
290
     0
174
     0
 93
        1
 44
0.0
173
     0
291
     0
 45
0.0
1001
ACAD
1000
AcDbSavedByObjectVersion
1070
     0
  0
VISUALSTYLE
  5
31
102
{ACAD_REACTORS
330
2A
102
}
102
{ACAD_XDICTIONARY
360
37E
102
}
330
2A
100
AcDbVisualStyle
  2
3D Hidden
 70
     6
 71
     1
 72
     2
 73
     2
 90
        0
 40
-0.6
 41
-30.0
 62
     5
 63
     7
 74
     2
 91
        2
 64
     7
 65
   257
 75
     2
175
     1
 42
40.0
 92
        0
 66
   257
 43
1.0
 76
     1
 77
     6
 78
     2
 67
     7
 79
     3
170
     0
171
     0
290
     0
174
     0
 93
        1
 44
0.0
173
     0
291
     0
 45
0.0
1001
ACAD
1000
AcDbSavedByObjectVersion
1070
     0
  0
VISUALSTYLE
  5
30
102
{ACAD_REACTORS
330
2A
102
}
102
{ACAD_XDICTIONARY
360
37C
102
}
330
2A
100
AcDbVisualStyle
  2
3dWireframe
 70
     5
 71
     0
 72
     2
 73
     0
 90
        0
 40
-0.6
 41
-30.0
 62
     5
 63
     7
 74
     1
 91
        4
 64
     7
 65
   257
 75
     1
175
     1
 42
1.0
 92
        0
 66
   257
 43
1.0
 76
     1
 77
     6
 78
     2
 67
     7
 79
     5
170
     0
171
     0
290
     0
174
     0
 93
        1
 44
0.0
173
     0
291
     0
 45
0.0
1001
ACAD
1000
AcDbSavedByObjectVersion
1070
     0
  0
VISUALSTYLE
  5
32
102
{ACAD_REACTORS
330
2A
102
}
102
{ACAD_XDICTIONARY
360
380
102
}
330
2A
100
AcDbVisualStyle
  2
Basic
 70
     7
 71
     1
 72
     0
 73
     1
 90
        0
 40
-0.6
 41
-30.0
 62
     5
 63
     7
 74
     0
 91
        4
 64
     7
 65
   257
 75
     1
175
     1
 42
1.0
 92
        8
 66
     7
 43
1.0
 76
     1
 77
     6
 78
     2
 67
     7
 79
     5
170
     0
171
     0
290
     0
174
     0
 93
        1
 44
0.0
173
     0
291
     1
 45
0.0
1001
ACAD
1000
AcDbSavedByObjectVersion
1070
     0
  0
VISUALSTYLE
  5
36
102
{ACAD_REACTORS
330
2A
102
}
102
{ACAD_XDICTIONARY
360
388
102
}
330
2A
100
AcDbVisualStyle
  2
Brighten
 70
    12
 71
     2
 72
     2
 73
     0
 90
        0
 40
-0.6
 41
-30.0
 62
     5
 63
     7
 74
     1
 91
        4
 64
     7
 65
   257
 75
     1
175
     1
 42
1.0
 92
        8
 66
     7
 43
1.0
 76
     1
 77
     6
 78
     2
 67
     7
 79
     5
170
     0
171
     0
290
     0
174
     0
 93
        1
 44
50.0
173
     0
291
     1
 45
0.0
1001
ACAD
1000
AcDbSavedByObjectVersion
1070
     0
  0
VISUALSTYLE
  5
3A
102
{ACAD_REACTORS
330
2A
102
}
102
{ACAD_XDICTIONARY
360
390
102
}
330
2A
100
AcDbVisualStyle
  2
ColorChange
 70
    16
 71
     2
 72
     2
 73
     3
 90
        0
 40
-0.6
 41
-30.0
 62
     5
 63
     8
 74
     1
 91
        4
 64
     7
 65
   257
 75
     1
175
     1
 42
1.0
 92
        8
 66
     8
 43
1.0
 76
     1
 77
     6
 78
     2
 67
     7
 79
     5
170
     0
171
     0
290
     0
174
     0
 93
        1
 44
0.0
173
     0
291
     1
 45
0.0
1001
ACAD
1000
AcDbSavedByObjectVersion
1070
     0
  0
VISUALSTYLE
  5
34
102
{ACAD_REACTORS
330
2A
102
}
102
{ACAD_XDICTIONARY
360
384
102
}
330
2A
100
AcDbVisualStyle
  2
Conceptual
 70
     9
 71
     3
 72
     2
 73
     0
 90
        0
 40
-0.6
 41
-30.0
 62
     5
 63
     7
 74
     2
 91
        2
 64
     7
 65
   257
 75
     1
175
     1
 42
40.0
 92
        8
 66
     7
 43
1.0
 76
     1
 77
     6
 78
     2
 67
     7
 79
     3
170
     0
171
     0
290
     0
174
     0
 93
        1
 44
0.0
173
     0
291
     0
 45
0.0
1001
ACAD
1000
AcDbSavedByObjectVersion
1070
     0
  0
VISUALSTYLE
  5
35
102
{ACAD_REACTORS
330
2A
102
}
102
{ACAD_XDICTIONARY
360
386
102
}
330
2A
100
AcDbVisualStyle
  2
Dim
 70
    11
 71
     2
 72
     2
 73
     0
 90
        0
 40
-0.6
 41
-30.0
 62
     5
 63
     7
 74
     1
 91
        4
 64
     7
 65
   257
 75
     1
175
     1
 42
1.0
 92
        8
 66
     7
 43
1.0
 76
     1
 77
     6
 78
     2
 67
     7
 79
     5
170
     0
171
     0
290
     0
174
     0
 93
        1
 44
-50.0
173
     0
291
     1
 45
0.0
1001
ACAD
1000
AcDbSavedByObjectVersion
1070
     0
  0
VISUALSTYLE
  5
39
102
{ACAD_REACTORS
330
2A
102
}
102
{ACAD_XDICTIONARY
360
38E
102
}
330
2A
100
AcDbVisualStyle
  2
Facepattern
 70
    15
 71
     2
 72
     2
 73
     0
 90
        0
 40
-0.6
 41
-30.0
 62
     5
 63
     7
 74
     1
 91
        4
 64
     7
 65
   257
 75
     1
175
     1
 42
1.0
 92
        8
 66
     7
 43
1.0
 76
     1
 77
     6
 78
     2
 67
     7
 79
     5
170
     0
171
     0
290
     0
174
     0
 93
        1
 44
0.0
173
     0
291
     1
 45
0.0
1001
ACAD
1000
AcDbSavedByObjectVersion
1070
     0
  0
VISUALSTYLE
  5
2B
102
{ACAD_REACTORS
330
2A
102
}
102
{ACAD_XDICTIONARY
360
372
102
}
330
2A
100
AcDbVisualStyle
  2
Flat
 70
     0
 71
     2
 72
     1
 73
     1
 90
        2
 40
-0.6
 41
30.0
 62
     5
 63
     7
 74
     0
 91
        4
 64
     7
 65
   257
 75
     1
175
     1
 42
1.0
 92
        8
 66
     7
 43
1.0
 76
     1
 77
     6
 78
     2
 67
     7
 79
     5
170
     0
171
     0
290
     0
174
     0
 93
       13
 44
0.0
173
     0
291
     1
 45
0.0
1001
ACAD
1000
AcDbSavedByObjectVersion
1070
     0
  0
VISUALSTYLE
  5
2C
102
{ACAD_REACTORS
330
2A
102
}
102
{ACAD_XDICTIONARY
360
374
102
}
330
2A
100
AcDbVisualStyle
  2
FlatWithEdges
 70
     1
 71
     2
 72
     1
 73
     1
 90
        2
 40
-0.6
 41
30.0
 62
     5
 63
     7
 74
     1
 91
        4
 64
     7
 65
   257
 75
     1
175
     1
 42
1.0
 92
        0
 66
   257
 43
1.0
 76
     1
 77
     6
 78
     2
 67
     7
 79
     5
170
     0
171
     0
290
     0
174
     0
 93
       13
 44
0.0
173
     0
291
     1
 45
0.0
1001
ACAD
1000
AcDbSavedByObjectVersion
1070
     0
  0
VISUALSTYLE
  5
2D
102
{ACAD_REACTORS
330
2A
102
}
102
{ACAD_XDICTIONARY
360
376
102
}
330
2A
100
AcDbVisualStyle
  2
Gouraud
 70
     2
 71
     2
 72
     2
 73
     1
 90
        2
 40
-0.6
 41
30.0
 62
     5
 63
     7
 74
     0
 91
        4
 64
     7
 65
   257
 75
     1
175
     1
 42
1.0
 92
        0
 66
     7
 43
1.0
 76
     1
 77
     6
 78
     2
 67
     7
 79
     5
170
     0
171
     0
290
     0
174
     0
 93
       13
 44
0.0
173
     0
291
     1
 45
0.0
1001
ACAD
1000
AcDbSavedByObjectVersion
1070
     0
  0
VISUALSTYLE
  5
2E
102
{ACAD_REACTORS
330
2A
102
}
102
{ACAD_XDICTIONARY
360
378
102
}
330
2A
100
AcDbVisualStyle
  2
GouraudWithEdges
 70
     3
 71
     2
 72
     2
 73
     1
 90
        2
 40
-0.6
 41
30.0
 62
     5
 63
     7
 74
     1
 91
        4
 64
     7
 65
   257
 75
     1
175
     1
 42
1.0
 92
        0
 66
   257
 43
1.0
 76
     1
 77
     6
 78
     2
 67
     7
 79
     5
170
     0
171
     0
290
     0
174
     0
 93
       13
 44
0.0
173
     0
291
     1
 45
0.0
1001
ACAD
1000
AcDbSavedByObjectVersion
1070
     0
  0
VISUALSTYLE
  5
38
102
{ACAD_REACTORS
330
2A
102
}
102
{ACAD_XDICTIONARY
360
38C
102
}
330
2A
100
AcDbVisualStyle
  2
Linepattern
 70
    14
 71
     2
 72
     2
 73
     0
 90
        0
 40
-0.6
 41
-30.0
 62
     5
 63
     7
 74
     1
 91
        4
 64
     7
 65
   257
 75
     7
175
     7
 42
1.0
 92
        8
 66
     7
 43
1.0
 76
     1
 77
     6
 78
     2
 67
     7
 79
     5
170
     0
171
     0
290
     0
174
     0
 93
        1
 44
0.0
173
     0
291
     1
 45
0.0
1001
ACAD
1000
AcDbSavedByObjectVersion
1070
     0
  0
VISUALSTYLE
  5
33
102
{ACAD_REACTORS
330
2A
102
}
102
{ACAD_XDICTIONARY
360
382
102
}
330
2A
100
AcDbVisualStyle
  2
Realistic
 70
     8
 71
     2
 72
     2
 73
     0
 90
        0
 40
-0.6
 41
-30.0
 62
     5
 63
     7
 74
     1
 91
        0
 64
     7
 65
   257
 75
     1
175
     1
 42
1.0
 92
        8
 66
     8
 43
1.0
 76
     1
 77
     6
 78
     2
 67
     7
 79
     5
170
     0
171
     0
290
     0
174
     0
 93
       13
 44
0.0
173
     0
291
     0
 45
0.0
1001
ACAD
1000
AcDbSavedByObjectVersion
1070
     0
  0
VISUALSTYLE
  5
37
102
{ACAD_REACTORS
330
2A
102
}
102
{ACAD_XDICTIONARY
360
38A
102
}
330
2A
100
AcDbVisualStyle
  2
Thicken
 70
    13
 71
     2
 72
     2
 73
     0
 90
        0
 40
-0.6
 41
-30.0
 62
     5
 63
     7
 74
     1
 91
        4
 64
     7
 65
   257
 75
     1
175
     1
 42
1.0
 92
       12
 66
     7
 43
1.0
 76
     1
 77
     6
 78
     2
 67
     7
 79
     5
170
     0
171
     0
290
     0
174
     0
 93
        1
 44
0.0
173
     0
291
     1
 45
0.0
1001
ACAD
1000
AcDbSavedByObjectVersion
1070
     0
  0
DICTIONARYVAR
  5
370
102
{ACAD_REACTORS
330
36D
102
}
330
36D
100
DictionaryVariables
280
     0
  1
2
  0
DICTIONARYVAR
  5
371
102
{ACAD_REACTORS
330
36D
102
}
330
36D
100
DictionaryVariables
280
     0
  1
1
  0
DICTIONARY
  5
394
330
3D
100
AcDbDictionary
280
     1
281
     1
  3
ACAD_XREC_ROUNDTRIP
360
395
  0
DICTIONARY
  5
392
330
3C
100
AcDbDictionary
280
     1
281
     1
  3
ACAD_XREC_ROUNDTRIP
360
393
  0
DICTIONARY
  5
396
330
3E
100
AcDbDictionary
280
     1
281
     1
  3
ACAD_XREC_ROUNDTRIP
360
397
  0
DICTIONARY
  5
37A
330
2F
100
AcDbDictionary
280
     1
281
     1
  3
ACAD_XREC_ROUNDTRIP
360
37B
  0
DICTIONARY
  5
37E
330
31
100
AcDbDictionary
280
     1
281
     1
  3
ACAD_XREC_ROUNDTRIP
360
37F
  0
DICTIONARY
  5
37C
330
30
100
AcDbDictionary
280
     1
281
     1
  3
ACAD_XREC_ROUNDTRIP
360
37D
  0
DICTIONARY
  5
380
330
32
100
AcDbDictionary
280
     1
281
     1
  3
ACAD_XREC_ROUNDTRIP
360
381
  0
DICTIONARY
  5
388
330
36
100
AcDbDictionary
280
     1
281
     1
  3
ACAD_XREC_ROUNDTRIP
360
389
  0
DICTIONARY
  5
390
330
3A
100
AcDbDictionary
280
     1
281
     1
  3
ACAD_XREC_ROUNDTRIP
360
391
  0
DICTIONARY
  5
384
330
34
100
AcDbDictionary
280
     1
281
     1
  3
ACAD_XREC_ROUNDTRIP
360
385
  0
DICTIONARY
  5
386
330
35
100
AcDbDictionary
280
     1
281
     1
  3
ACAD_XREC_ROUNDTRIP
360
387
  0
DICTIONARY
  5
38E
330
39
100
AcDbDictionary
280
     1
281
     1
  3
ACAD_XREC_ROUNDTRIP
360
38F
  0
DICTIONARY
  5
372
330
2B
100
AcDbDictionary
280
     1
281
     1
  3
ACAD_XREC_ROUNDTRIP
360
373
  0
DICTIONARY
  5
374
330
2C
100
AcDbDictionary
280
     1
281
     1
  3
ACAD_XREC_ROUNDTRIP
360
375
  0
DICTIONARY
  5
376
330
2D
100
AcDbDictionary
280
     1
281
     1
  3
ACAD_XREC_ROUNDTRIP
360
377
  0
DICTIONARY
  5
378
330
2E
100
AcDbDictionary
280
     1
281
     1
  3
ACAD_XREC_ROUNDTRIP
360
379
  0
DICTIONARY
  5
38C
330
38
100
AcDbDictionary
280
     1
281
     1
  3
ACAD_XREC_ROUNDTRIP
360
38D
  0
DICTIONARY
  5
382
330
33
100
AcDbDictionary
280
     1
281
     1
  3
ACAD_XREC_ROUNDTRIP
360
383
  0
DICTIONARY
  5
38A
330
37
100
AcDbDictionary
280
     1
281
     1
  3
ACAD_XREC_ROUNDTRIP
360
38B
  0
XRECORD
  5
395
102
{ACAD_REACTORS
330
394
102
}
330
394
100
AcDbXrecord
280
     1
102
MATERIAL
148
0.0
149
0.0
149
0.0
 93
        0
 94
      127
282
     0
 72
     1
 77
     1
171
     1
175
     1
179
     1
273
     0
  0
XRECORD
  5
393
102
{ACAD_REACTORS
330
392
102
}
330
392
100
AcDbXrecord
280
     1
102
MATERIAL
148
0.0
149
0.0
149
0.0
 93
        0
 94
      127
282
     0
 72
     1
 77
     1
171
     1
175
     1
179
     1
273
     0
  0
XRECORD
  5
397
102
{ACAD_REACTORS
330
396
102
}
330
396
100
AcDbXrecord
280
     1
102
MATERIAL
148
0.0
149
0.0
149
0.0
 93
        0
 94
      127
282
     0
 72
     1
 77
     1
171
     1
175
     1
179
     1
273
     0
  0
XRECORD
  5
37B
102
{ACAD_REACTORS
330
37A
102
}
330
37A
100
AcDbXrecord
280
     1
102
RTVSPropertyOp0
 70
     1
102
RTVSPropertyOp1
 70
     1
102
RTVSPropertyOp2
 70
     1
102
RTVSPropertyOp3
 70
     1
102
RTVSPropertyOp4
 70
     1
102
RTVSPropertyOp5
 70
     1
102
RTVSPropertyOp6
 70
     1
102
RTVSPropertyOp7
 70
     1
102
RTVSPropertyOp8
 70
     1
102
RTVSPropertyOp9
 70
     1
102
RTVSPropertyOp10
 70
     1
102
RTVSPropertyOp11
 70
     1
102
RTVSPropertyOp12
 70
     1
102
RTVSPropertyOp13
 70
     1
102
RTVSPropertyOp14
 70
     1
102
RTVSPropertyOp15
 70
     1
102
RTVSPropertyOp16
 70
     1
102
RTVSPropertyOp17
 70
     1
102
RTVSPropertyOp18
 70
     1
102
RTVSPropertyOp19
 70
     1
102
RTVSPropertyOp20
 70
     1
102
RTVSPropertyOp21
 70
     1
102
RTVSPropertyOp22
 70
     1
102
RTVSPropertyOp23
 70
     1
102
RTVSPropertyOp24
 70
     1
102
RTVSPropertyOp25
 70
     1
102
RTVSPropertyOp26
 70
     1
102
RTVSPropertyOp27
 70
     1
102
RTVSPropertyOp28
 70
     1
102
RTVSPropertyOp29
 70
     1
102
RTVSPropertyOp30
 70
     1
102
RTVSPropertyOp31
 70
     1
102
RTVSPropertyOp32
 70
     1
  0
XRECORD
  5
37F
102
{ACAD_REACTORS
330
37E
102
}
330
37E
100
AcDbXrecord
280
     1
102
RTVSPropertyOp0
 70
     1
102
RTVSPropertyOp1
 70
     1
102
RTVSPropertyOp2
 70
     1
102
RTVSPropertyOp3
 70
     1
102
RTVSPropertyOp4
 70
     1
102
RTVSPropertyOp5
 70
     1
102
RTVSPropertyOp6
 70
     1
102
RTVSPropertyOp7
 70
     1
102
RTVSPropertyOp8
 70
     1
102
RTVSPropertyOp9
 70
     1
102
RTVSPropertyOp10
 70
     1
102
RTVSPropertyOp11
 70
     1
102
RTVSPropertyOp12
 70
     1
102
RTVSPropertyOp13
 70
     1
102
RTVSPropertyOp14
 70
     1
102
RTVSPropertyOp15
 70
     1
102
RTVSPropertyOp16
 70
     1
102
RTVSPropertyOp17
 70
     1
102
RTVSPropertyOp18
 70
     1
102
RTVSPropertyOp19
 70
     1
102
RTVSPropertyOp20
 70
     1
102
RTVSPropertyOp21
 70
     1
102
RTVSPropertyOp22
 70
     1
102
RTVSPropertyOp23
 70
     1
102
RTVSPropertyOp24
 70
     1
102
RTVSPropertyOp25
 70
     1
102
RTVSPropertyOp26
 70
     1
102
RTVSPropertyOp27
 70
     1
102
RTVSPropertyOp28
 70
     1
102
RTVSPropertyOp29
 70
     1
102
RTVSPropertyOp30
 70
     1
102
RTVSPropertyOp31
 70
     1
102
RTVSPropertyOp32
 70
     1
  0
XRECORD
  5
37D
102
{ACAD_REACTORS
330
37C
102
}
330
37C
100
AcDbXrecord
280
     1
102
RTVSPropertyOp0
 70
     1
102
RTVSPropertyOp1
 70
     1
102
RTVSPropertyOp2
 70
     1
102
RTVSPropertyOp3
 70
     1
102
RTVSPropertyOp4
 70
     1
102
RTVSPropertyOp5
 70
     1
102
RTVSPropertyOp6
 70
     1
102
RTVSPropertyOp7
 70
     1
102
RTVSPropertyOp8
 70
     1
102
RTVSPropertyOp9
 70
     1
102
RTVSPropertyOp10
 70
     1
102
RTVSPropertyOp11
 70
     1
102
RTVSPropertyOp12
 70
     1
102
RTVSPropertyOp13
 70
     1
102
RTVSPropertyOp14
 70
     1
102
RTVSPropertyOp15
 70
     1
102
RTVSPropertyOp16
 70
     1
102
RTVSPropertyOp17
 70
     1
102
RTVSPropertyOp18
 70
     1
102
RTVSPropertyOp19
 70
     1
102
RTVSPropertyOp20
 70
     1
102
RTVSPropertyOp21
 70
     1
102
RTVSPropertyOp22
 70
     1
102
RTVSPropertyOp23
 70
     1
102
RTVSPropertyOp24
 70
     1
102
RTVSPropertyOp25
 70
     1
102
RTVSPropertyOp26
 70
     1
102
RTVSPropertyOp27
 70
     1
102
RTVSPropertyOp28
 70
     1
102
RTVSPropertyOp29
 70
     1
102
RTVSPropertyOp30
 70
     1
102
RTVSPropertyOp31
 70
     1
102
RTVSPropertyOp32
 70
     1
  0
XRECORD
  5
381
102
{ACAD_REACTORS
330
380
102
}
330
380
100
AcDbXrecord
280
     1
102
RTVSPropertyOp0
 70
     1
102
RTVSPropertyOp1
 70
     1
102
RTVSPropertyOp2
 70
     1
102
RTVSPropertyOp3
 70
     1
102
RTVSPropertyOp4
 70
     1
102
RTVSPropertyOp5
 70
     1
102
RTVSPropertyOp6
 70
     1
102
RTVSPropertyOp7
 70
     1
102
RTVSPropertyOp8
 70
     1
102
RTVSPropertyOp9
 70
     1
102
RTVSPropertyOp10
 70
     1
102
RTVSPropertyOp11
 70
     1
102
RTVSPropertyOp12
 70
     1
102
RTVSPropertyOp13
 70
     1
102
RTVSPropertyOp14
 70
     1
102
RTVSPropertyOp15
 70
     1
102
RTVSPropertyOp16
 70
     1
102
RTVSPropertyOp17
 70
     1
102
RTVSPropertyOp18
 70
     1
102
RTVSPropertyOp19
 70
     1
102
RTVSPropertyOp20
 70
     1
102
RTVSPropertyOp21
 70
     1
102
RTVSPropertyOp22
 70
     1
102
RTVSPropertyOp23
 70
     1
102
RTVSPropertyOp24
 70
     1
102
RTVSPropertyOp25
 70
     1
102
RTVSPropertyOp26
 70
     1
102
RTVSPropertyOp27
 70
     1
102
RTVSPropertyOp28
 70
     1
102
RTVSPropertyOp29
 70
     1
102
RTVSPropertyOp30
 70
     1
102
RTVSPropertyOp31
 70
     1
102
RTVSPropertyOp32
 70
     1
  0
XRECORD
  5
389
102
{ACAD_REACTORS
330
388
102
}
330
388
100
AcDbXrecord
280
     1
102
RTVSPropertyOp0
 70
     1
102
RTVSPropertyOp1
 70
     1
102
RTVSPropertyOp2
 70
     1
102
RTVSPropertyOp3
 70
     1
102
RTVSPropertyOp4
 70
     1
102
RTVSPropertyOp5
 70
     1
102
RTVSPropertyOp6
 70
     1
102
RTVSPropertyOp7
 70
     1
102
RTVSPropertyOp8
 70
     1
102
RTVSPropertyOp9
 70
     1
102
RTVSPropertyOp10
 70
     1
102
RTVSPropertyOp11
 70
     1
102
RTVSPropertyOp12
 70
     1
102
RTVSPropertyOp13
 70
     1
102
RTVSPropertyOp14
 70
     1
102
RTVSPropertyOp15
 70
     1
102
RTVSPropertyOp16
 70
     1
102
RTVSPropertyOp17
 70
     1
102
RTVSPropertyOp18
 70
     1
102
RTVSPropertyOp19
 70
     1
102
RTVSPropertyOp20
 70
     1
102
RTVSPropertyOp21
 70
     1
102
RTVSPropertyOp22
 70
     1
102
RTVSPropertyOp23
 70
     1
102
RTVSPropertyOp24
 70
     1
102
RTVSPropertyOp25
 70
     1
102
RTVSPropertyOp26
 70
     1
102
RTVSPropertyOp27
 70
     1
102
RTVSPropertyOp28
 70
     1
102
RTVSPropertyOp29
 70
     1
102
RTVSPropertyOp30
 70
     1
102
RTVSPropertyOp31
 70
     1
102
RTVSPropertyOp32
 70
     1
  0
XRECORD
  5
391
102
{ACAD_REACTORS
330
390
102
}
330
390
100
AcDbXrecord
280
     1
102
RTVSPropertyOp0
 70
     1
102
RTVSPropertyOp1
 70
     1
102
RTVSPropertyOp2
 70
     1
102
RTVSPropertyOp3
 70
     1
102
RTVSPropertyOp4
 70
     1
102
RTVSPropertyOp5
 70
     1
102
RTVSPropertyOp6
 70
     1
102
RTVSPropertyOp7
 70
     1
102
RTVSPropertyOp8
 70
     1
102
RTVSPropertyOp9
 70
     1
102
RTVSPropertyOp10
 70
     1
102
RTVSPropertyOp11
 70
     1
102
RTVSPropertyOp12
 70
     1
102
RTVSPropertyOp13
 70
     1
102
RTVSPropertyOp14
 70
     1
102
RTVSPropertyOp15
 70
     1
102
RTVSPropertyOp16
 70
     1
102
RTVSPropertyOp17
 70
     1
102
RTVSPropertyOp18
 70
     1
102
RTVSPropertyOp19
 70
     1
102
RTVSPropertyOp20
 70
     1
102
RTVSPropertyOp21
 70
     1
102
RTVSPropertyOp22
 70
     1
102
RTVSPropertyOp23
 70
     1
102
RTVSPropertyOp24
 70
     1
102
RTVSPropertyOp25
 70
     1
102
RTVSPropertyOp26
 70
     1
102
RTVSPropertyOp27
 70
     1
102
RTVSPropertyOp28
 70
     1
102
RTVSPropertyOp29
 70
     1
102
RTVSPropertyOp30
 70
     1
102
RTVSPropertyOp31
 70
     1
102
RTVSPropertyOp32
 70
     1
  0
XRECORD
  5
385
102
{ACAD_REACTORS
330
384
102
}
330
384
100
AcDbXrecord
280
     1
102
RTVSPropertyOp0
 70
     1
102
RTVSPropertyOp1
 70
     1
102
RTVSPropertyOp2
 70
     1
102
RTVSPropertyOp3
 70
     1
102
RTVSPropertyOp4
 70
     1
102
RTVSPropertyOp5
 70
     1
102
RTVSPropertyOp6
 70
     1
102
RTVSPropertyOp7
 70
     1
102
RTVSPropertyOp8
 70
     1
102
RTVSPropertyOp9
 70
     1
102
RTVSPropertyOp10
 70
     1
102
RTVSPropertyOp11
 70
     1
102
RTVSPropertyOp12
 70
     1
102
RTVSPropertyOp13
 70
     1
102
RTVSPropertyOp14
 70
     1
102
RTVSPropertyOp15
 70
     1
102
RTVSPropertyOp16
 70
     1
102
RTVSPropertyOp17
 70
     1
102
RTVSPropertyOp18
 70
     1
102
RTVSPropertyOp19
 70
     1
102
RTVSPropertyOp20
 70
     1
102
RTVSPropertyOp21
 70
     1
102
RTVSPropertyOp22
 70
     1
102
RTVSPropertyOp23
 70
     1
102
RTVSPropertyOp24
 70
     1
102
RTVSPropertyOp25
 70
     1
102
RTVSPropertyOp26
 70
     1
102
RTVSPropertyOp27
 70
     1
102
RTVSPropertyOp28
 70
     1
102
RTVSPropertyOp29
 70
     1
102
RTVSPropertyOp30
 70
     1
102
RTVSPropertyOp31
 70
     1
102
RTVSPropertyOp32
 70
     1
  0
XRECORD
  5
387
102
{ACAD_REACTORS
330
386
102
}
330
386
100
AcDbXrecord
280
     1
102
RTVSPropertyOp0
 70
     1
102
RTVSPropertyOp1
 70
     1
102
RTVSPropertyOp2
 70
     1
102
RTVSPropertyOp3
 70
     1
102
RTVSPropertyOp4
 70
     1
102
RTVSPropertyOp5
 70
     1
102
RTVSPropertyOp6
 70
     1
102
RTVSPropertyOp7
 70
     1
102
RTVSPropertyOp8
 70
     1
102
RTVSPropertyOp9
 70
     1
102
RTVSPropertyOp10
 70
     1
102
RTVSPropertyOp11
 70
     1
102
RTVSPropertyOp12
 70
     1
102
RTVSPropertyOp13
 70
     1
102
RTVSPropertyOp14
 70
     1
102
RTVSPropertyOp15
 70
     1
102
RTVSPropertyOp16
 70
     1
102
RTVSPropertyOp17
 70
     1
102
RTVSPropertyOp18
 70
     1
102
RTVSPropertyOp19
 70
     1
102
RTVSPropertyOp20
 70
     1
102
RTVSPropertyOp21
 70
     1
102
RTVSPropertyOp22
 70
     1
102
RTVSPropertyOp23
 70
     1
102
RTVSPropertyOp24
 70
     1
102
RTVSPropertyOp25
 70
     1
102
RTVSPropertyOp26
 70
     1
102
RTVSPropertyOp27
 70
     1
102
RTVSPropertyOp28
 70
     1
102
RTVSPropertyOp29
 70
     1
102
RTVSPropertyOp30
 70
     1
102
RTVSPropertyOp31
 70
     1
102
RTVSPropertyOp32
 70
     1
  0
XRECORD
  5
38F
102
{ACAD_REACTORS
330
38E
102
}
330
38E
100
AcDbXrecord
280
     1
102
RTVSPropertyOp0
 70
     1
102
RTVSPropertyOp1
 70
     1
102
RTVSPropertyOp2
 70
     1
102
RTVSPropertyOp3
 70
     1
102
RTVSPropertyOp4
 70
     1
102
RTVSPropertyOp5
 70
     1
102
RTVSPropertyOp6
 70
     1
102
RTVSPropertyOp7
 70
     1
102
RTVSPropertyOp8
 70
     1
102
RTVSPropertyOp9
 70
     1
102
RTVSPropertyOp10
 70
     1
102
RTVSPropertyOp11
 70
     1
102
RTVSPropertyOp12
 70
     1
102
RTVSPropertyOp13
 70
     1
102
RTVSPropertyOp14
 70
     1
102
RTVSPropertyOp15
 70
     1
102
RTVSPropertyOp16
 70
     1
102
RTVSPropertyOp17
 70
     1
102
RTVSPropertyOp18
 70
     1
102
RTVSPropertyOp19
 70
     1
102
RTVSPropertyOp20
 70
     1
102
RTVSPropertyOp21
 70
     1
102
RTVSPropertyOp22
 70
     1
102
RTVSPropertyOp23
 70
     1
102
RTVSPropertyOp24
 70
     1
102
RTVSPropertyOp25
 70
     1
102
RTVSPropertyOp26
 70
     1
102
RTVSPropertyOp27
 70
     1
102
RTVSPropertyOp28
 70
     1
102
RTVSPropertyOp29
 70
     1
102
RTVSPropertyOp30
 70
     1
102
RTVSPropertyOp31
 70
     1
102
RTVSPropertyOp32
 70
     1
  0
XRECORD
  5
373
102
{ACAD_REACTORS
330
372
102
}
330
372
100
AcDbXrecord
280
     1
102
RTVSPropertyOp0
 70
     1
102
RTVSPropertyOp1
 70
     1
102
RTVSPropertyOp2
 70
     1
102
RTVSPropertyOp3
 70
     1
102
RTVSPropertyOp4
 70
     1
102
RTVSPropertyOp5
 70
     1
102
RTVSPropertyOp6
 70
     1
102
RTVSPropertyOp7
 70
     1
102
RTVSPropertyOp8
 70
     1
102
RTVSPropertyOp9
 70
     1
102
RTVSPropertyOp10
 70
     1
102
RTVSPropertyOp11
 70
     1
102
RTVSPropertyOp12
 70
     1
102
RTVSPropertyOp13
 70
     1
102
RTVSPropertyOp14
 70
     1
102
RTVSPropertyOp15
 70
     1
102
RTVSPropertyOp16
 70
     1
102
RTVSPropertyOp17
 70
     1
102
RTVSPropertyOp18
 70
     1
102
RTVSPropertyOp19
 70
     1
102
RTVSPropertyOp20
 70
     1
102
RTVSPropertyOp21
 70
     1
102
RTVSPropertyOp22
 70
     1
102
RTVSPropertyOp23
 70
     1
102
RTVSPropertyOp24
 70
     1
102
RTVSPropertyOp25
 70
     1
102
RTVSPropertyOp26
 70
     1
102
RTVSPropertyOp27
 70
     1
102
RTVSPropertyOp28
 70
     1
102
RTVSPropertyOp29
 70
     1
102
RTVSPropertyOp30
 70
     1
102
RTVSPropertyOp31
 70
     1
102
RTVSPropertyOp32
 70
     1
  0
XRECORD
  5
375
102
{ACAD_REACTORS
330
374
102
}
330
374
100
AcDbXrecord
280
     1
102
RTVSPropertyOp0
 70
     1
102
RTVSPropertyOp1
 70
     1
102
RTVSPropertyOp2
 70
     1
102
RTVSPropertyOp3
 70
     1
102
RTVSPropertyOp4
 70
     1
102
RTVSPropertyOp5
 70
     1
102
RTVSPropertyOp6
 70
     1
102
RTVSPropertyOp7
 70
     1
102
RTVSPropertyOp8
 70
     1
102
RTVSPropertyOp9
 70
     1
102
RTVSPropertyOp10
 70
     1
102
RTVSPropertyOp11
 70
     1
102
RTVSPropertyOp12
 70
     1
102
RTVSPropertyOp13
 70
     1
102
RTVSPropertyOp14
 70
     1
102
RTVSPropertyOp15
 70
     1
102
RTVSPropertyOp16
 70
     1
102
RTVSPropertyOp17
 70
     1
102
RTVSPropertyOp18
 70
     1
102
RTVSPropertyOp19
 70
     1
102
RTVSPropertyOp20
 70
     1
102
RTVSPropertyOp21
 70
     1
102
RTVSPropertyOp22
 70
     1
102
RTVSPropertyOp23
 70
     1
102
RTVSPropertyOp24
 70
     1
102
RTVSPropertyOp25
 70
     1
102
RTVSPropertyOp26
 70
     1
102
RTVSPropertyOp27
 70
     1
102
RTVSPropertyOp28
 70
     1
102
RTVSPropertyOp29
 70
     1
102
RTVSPropertyOp30
 70
     1
102
RTVSPropertyOp31
 70
     1
102
RTVSPropertyOp32
 70
     1
  0
XRECORD
  5
377
102
{ACAD_REACTORS
330
376
102
}
330
376
100
AcDbXrecord
280
     1
102
RTVSPropertyOp0
 70
     1
102
RTVSPropertyOp1
 70
     1
102
RTVSPropertyOp2
 70
     1
102
RTVSPropertyOp3
 70
     1
102
RTVSPropertyOp4
 70
     1
102
RTVSPropertyOp5
 70
     1
102
RTVSPropertyOp6
 70
     1
102
RTVSPropertyOp7
 70
     1
102
RTVSPropertyOp8
 70
     1
102
RTVSPropertyOp9
 70
     1
102
RTVSPropertyOp10
 70
     1
102
RTVSPropertyOp11
 70
     1
102
RTVSPropertyOp12
 70
     1
102
RTVSPropertyOp13
 70
     1
102
RTVSPropertyOp14
 70
     1
102
RTVSPropertyOp15
 70
     1
102
RTVSPropertyOp16
 70
     1
102
RTVSPropertyOp17
 70
     1
102
RTVSPropertyOp18
 70
     1
102
RTVSPropertyOp19
 70
     1
102
RTVSPropertyOp20
 70
     1
102
RTVSPropertyOp21
 70
     1
102
RTVSPropertyOp22
 70
     1
102
RTVSPropertyOp23
 70
     1
102
RTVSPropertyOp24
 70
     1
102
RTVSPropertyOp25
 70
     1
102
RTVSPropertyOp26
 70
     1
102
RTVSPropertyOp27
 70
     1
102
RTVSPropertyOp28
 70
     1
102
RTVSPropertyOp29
 70
     1
102
RTVSPropertyOp30
 70
     1
102
RTVSPropertyOp31
 70
     1
102
RTVSPropertyOp32
 70
     1
  0
XRECORD
  5
379
102
{ACAD_REACTORS
330
378
102
}
330
378
100
AcDbXrecord
280
     1
102
RTVSPropertyOp0
 70
     1
102
RTVSPropertyOp1
 70
     1
102
RTVSPropertyOp2
 70
     1
102
RTVSPropertyOp3
 70
     1
102
RTVSPropertyOp4
 70
     1
102
RTVSPropertyOp5
 70
     1
102
RTVSPropertyOp6
 70
     1
102
RTVSPropertyOp7
 70
     1
102
RTVSPropertyOp8
 70
     1
102
RTVSPropertyOp9
 70
     1
102
RTVSPropertyOp10
 70
     1
102
RTVSPropertyOp11
 70
     1
102
RTVSPropertyOp12
 70
     1
102
RTVSPropertyOp13
 70
     1
102
RTVSPropertyOp14
 70
     1
102
RTVSPropertyOp15
 70
     1
102
RTVSPropertyOp16
 70
     1
102
RTVSPropertyOp17
 70
     1
102
RTVSPropertyOp18
 70
     1
102
RTVSPropertyOp19
 70
     1
102
RTVSPropertyOp20
 70
     1
102
RTVSPropertyOp21
 70
     1
102
RTVSPropertyOp22
 70
     1
102
RTVSPropertyOp23
 70
     1
102
RTVSPropertyOp24
 70
     1
102
RTVSPropertyOp25
 70
     1
102
RTVSPropertyOp26
 70
     1
102
RTVSPropertyOp27
 70
     1
102
RTVSPropertyOp28
 70
     1
102
RTVSPropertyOp29
 70
     1
102
RTVSPropertyOp30
 70
     1
102
RTVSPropertyOp31
 70
     1
102
RTVSPropertyOp32
 70
     1
  0
XRECORD
  5
38D
102
{ACAD_REACTORS
330
38C
102
}
330
38C
100
AcDbXrecord
280
     1
102
RTVSPropertyOp0
 70
     1
102
RTVSPropertyOp1
 70
     1
102
RTVSPropertyOp2
 70
     1
102
RTVSPropertyOp3
 70
     1
102
RTVSPropertyOp4
 70
     1
102
RTVSPropertyOp5
 70
     1
102
RTVSPropertyOp6
 70
     1
102
RTVSPropertyOp7
 70
     1
102
RTVSPropertyOp8
 70
     1
102
RTVSPropertyOp9
 70
     1
102
RTVSPropertyOp10
 70
     1
102
RTVSPropertyOp11
 70
     1
102
RTVSPropertyOp12
 70
     1
102
RTVSPropertyOp13
 70
     1
102
RTVSPropertyOp14
 70
     1
102
RTVSPropertyOp15
 70
     1
102
RTVSPropertyOp16
 70
     1
102
RTVSPropertyOp17
 70
     1
102
RTVSPropertyOp18
 70
     1
102
RTVSPropertyOp19
 70
     1
102
RTVSPropertyOp20
 70
     1
102
RTVSPropertyOp21
 70
     1
102
RTVSPropertyOp22
 70
     1
102
RTVSPropertyOp23
 70
     1
102
RTVSPropertyOp24
 70
     1
102
RTVSPropertyOp25
 70
     1
102
RTVSPropertyOp26
 70
     1
102
RTVSPropertyOp27
 70
     1
102
RTVSPropertyOp28
 70
     1
102
RTVSPropertyOp29
 70
     1
102
RTVSPropertyOp30
 70
     1
102
RTVSPropertyOp31
 70
     1
102
RTVSPropertyOp32
 70
     1
  0
XRECORD
  5
383
102
{ACAD_REACTORS
330
382
102
}
330
382
100
AcDbXrecord
280
     1
102
RTVSPropertyOp0
 70
     1
102
RTVSPropertyOp1
 70
     1
102
RTVSPropertyOp2
 70
     1
102
RTVSPropertyOp3
 70
     1
102
RTVSPropertyOp4
 70
     1
102
RTVSPropertyOp5
 70
     1
102
RTVSPropertyOp6
 70
     1
102
RTVSPropertyOp7
 70
     1
102
RTVSPropertyOp8
 70
     1
102
RTVSPropertyOp9
 70
     1
102
RTVSPropertyOp10
 70
     1
102
RTVSPropertyOp11
 70
     1
102
RTVSPropertyOp12
 70
     1
102
RTVSPropertyOp13
 70
     1
102
RTVSPropertyOp14
 70
     1
102
RTVSPropertyOp15
 70
     1
102
RTVSPropertyOp16
 70
     1
102
RTVSPropertyOp17
 70
     1
102
RTVSPropertyOp18
 70
     1
102
RTVSPropertyOp19
 70
     1
102
RTVSPropertyOp20
 70
     1
102
RTVSPropertyOp21
 70
     1
102
RTVSPropertyOp22
 70
     1
102
RTVSPropertyOp23
 70
     1
102
RTVSPropertyOp24
 70
     1
102
RTVSPropertyOp25
 70
     1
102
RTVSPropertyOp26
 70
     1
102
RTVSPropertyOp27
 70
     1
102
RTVSPropertyOp28
 70
     1
102
RTVSPropertyOp29
 70
     1
102
RTVSPropertyOp30
 70
     1
102
RTVSPropertyOp31
 70
     1
102
RTVSPropertyOp32
 70
     1
  0
XRECORD
  5
38B
102
{ACAD_REACTORS
330
38A
102
}
330
38A
100
AcDbXrecord
280
     1
102
RTVSPropertyOp0
 70
     1
102
RTVSPropertyOp1
 70
     1
102
RTVSPropertyOp2
 70
     1
102
RTVSPropertyOp3
 70
     1
102
RTVSPropertyOp4
 70
     1
102
RTVSPropertyOp5
 70
     1
102
RTVSPropertyOp6
 70
     1
102
RTVSPropertyOp7
 70
     1
102
RTVSPropertyOp8
 70
     1
102
RTVSPropertyOp9
 70
     1
102
RTVSPropertyOp10
 70
     1
102
RTVSPropertyOp11
 70
     1
102
RTVSPropertyOp12
 70
     1
102
RTVSPropertyOp13
 70
     1
102
RTVSPropertyOp14
 70
     1
102
RTVSPropertyOp15
 70
     1
102
RTVSPropertyOp16
 70
     1
102
RTVSPropertyOp17
 70
     1
102
RTVSPropertyOp18
 70
     1
102
RTVSPropertyOp19
 70
     1
102
RTVSPropertyOp20
 70
     1
102
RTVSPropertyOp21
 70
     1
102
RTVSPropertyOp22
 70
     1
102
RTVSPropertyOp23
 70
     1
102
RTVSPropertyOp24
 70
     1
102
RTVSPropertyOp25
 70
     1
102
RTVSPropertyOp26
 70
     1
102
RTVSPropertyOp27
 70
     1
102
RTVSPropertyOp28
 70
     1
102
RTVSPropertyOp29
 70
     1
102
RTVSPropertyOp30
 70
     1
102
RTVSPropertyOp31
 70
     1
102
RTVSPropertyOp32
 70
     1
  0
ENDSEC
  0
EOF
