  0
SECTION
  2
HEADER
  9
$ACADVER
  1
AC1014
  9
$ACADMAINTVER
 70
             0
  9
$DWGCODEPAGE
  3
ANSI_1252
  9
$INSBASE
 10
0.0
 20
0.0
 30
0.0
  9
$EXTMIN
 10
-365.26777079006399
 20
-186.04372993843589
 30
0.0
  9
$EXTMAX
 10
-56.31090299999973
 20
71.69008343770724
 30
0.0
  9
$LIMMIN
 10
0.0
 20
0.0
  9
$LIMMAX
 10
0.0
 20
0.0
  9
$ORTHOMODE
 70
             0
  9
$REGENMODE
 70
             1
  9
$FILLMODE
 70
             1
  9
$QTEXTMODE
 70
             0
  9
$MIRRTEXT
 70
             1
  9
$DRAGMODE
 70
             2
  9
$LTSCALE
 40
1.0
  9
$OSMODE
 70
             0
  9
$ATTMODE
 70
             1
  9
$TEXTSIZE
 40
0.2
  9
$TRACEWID
 40
0.05
  9
$TEXTSTYLE
  7
STANDARD
  9
$CLAYER
  8
0
  9
$CELTYPE
  6
CONTINUOUS
  9
$CECOLOR
 62
           256
  9
$CELTSCALE
 40
1.0
  9
$DELOBJ
 70
             1
  9
$DISPSILH
 70
             0
  9
$DIMSCALE
 40
1.0
  9
$DIMASZ
 40
0.18
  9
$DIMEXO
 40
0.0625
  9
$DIMDLI
 40
0.38
  9
$DIMRND
 40
0.0
  9
$DIMDLE
 40
0.0
  9
$DIMEXE
 40
0.18
  9
$DIMTP
 40
0.0
  9
$DIMTM
 40
0.0
  9
$DIMTXT
 40
0.18
  9
$DIMCEN
 40
0.09
  9
$DIMTSZ
 40
0.0
  9
$DIMTOL
 70
             0
  9
$DIMLIM
 70
             0
  9
$DIMTIH
 70
             1
  9
$DIMTOH
 70
             1
  9
$DIMSE1
 70
             0
  9
$DIMSE2
 70
             0
  9
$DIMTAD
 70
             0
  9
$DIMZIN
 70
             0
  9
$DIMBLK
  1

  9
$DIMASO
 70
             1
  9
$DIMSHO
 70
             1
  9
$DIMPOST
  1

  9
$DIMAPOST
  1

  9
$DIMALT
 70
             0
  9
$DIMALTD
 70
             2
  9
$DIMALTF
 40
25.4
  9
$DIMLFAC
 40
1.0
  9
$DIMTOFL
 70
             0
  9
$DIMTVP
 40
0.0
  9
$DIMTIX
 70
             0
  9
$DIMSOXD
 70
             0
  9
$DIMSAH
 70
             0
  9
$DIMBLK1
  1

  9
$DIMBLK2
  1

  9
$DIMSTYLE
  2
STANDARD
  9
$DIMCLRD
 70
             0
  9
$DIMCLRE
 70
             0
  9
$DIMCLRT
 70
             0
  9
$DIMTFAC
 40
1.0
  9
$DIMGAP
 40
0.09
  9
$DIMJUST
 70
             0
  9
$DIMSD1
 70
             0
  9
$DIMSD2
 70
             0
  9
$DIMTOLJ
 70
             1
  9
$DIMTZIN
 70
             0
  9
$DIMALTZ
 70
             0
  9
$DIMALTTZ
 70
             0
  9
$DIMFIT
 70
             3
  9
$DIMUPT
 70
             0
  9
$DIMUNIT
 70
             2
  9
$DIMDEC
 70
             4
  9
$DIMTDEC
 70
             4
  9
$DIMALTU
 70
             2
  9
$DIMALTTD
 70
             2
  9
$DIMTXSTY
  7
STANDARD
  9
$DIMAUNIT
 70
             0
  9
$LUNITS
 70
             2
  9
$LUPREC
 70
             4
  9
$SKETCHINC
 40
0.1
  9
$FILLETRAD
 40
0.0
  9
$AUNITS
 70
             0
  9
$AUPREC
 70
             0
  9
$MENU
  1
acad
  9
$ELEVATION
 40
0.0
  9
$PELEVATION
 40
0.0
  9
$THICKNESS
 40
0.0
  9
$LIMCHECK
 70
             0
  9
$BLIPMODE
 70
             1
  9
$CHAMFERA
 40
0.0
  9
$CHAMFERB
 40
0.0
  9
$CHAMFERC
 40
0.0
  9
$CHAMFERD
 40
0.0
  9
$SKPOLY
 70
             0
  9
$TDCREATE
 40
0.000000000
  9
$TDUPDATE
 40
0.000000000
  9
$TDINDWG
 40
0.0000000000
  9
$TDUSRTIMER
 40
0.0000000000
  9
$USRTIMER
 70
             1
  9
$ANGBASE
 50
0.0
  9
$ANGDIR
 70
             0
  9
$PDMODE
 70
             0
  9
$PDSIZE
 40
0.0
  9
$PLINEWID
 40
0.0
  9
$COORDS
 70
             0
  9
$SPLFRAME
 70
             0
  9
$SPLINETYPE
 70
             6
  9
$SPLINESEGS
 70
             8
  9
$ATTDIA
 70
             0
  9
$ATTREQ
 70
             1
  9
$HANDLING
 70
             1
  9
$HANDSEED
  5
11F
  9
$SURFTAB1
 70
             6
  9
$SURFTAB2
 70
             6
  9
$SURFTYPE
 70
             6
  9
$SURFU
 70
             6
  9
$SURFV
 70
             6
  9
$UCSNAME
  2

  9
$UCSORG
 10
0.0
 20
0.0
 30
0.0
  9
$UCSXDIR
 10
1.0
 20
0.0
 30
0.0
  9
$UCSYDIR
 10
0.0
 20
1.0
 30
0.0
  9
$PUCSNAME
  2

  9
$PUCSORG
 10
0.0
 20
0.0
 30
0.0
  9
$PUCSXDIR
 10
1.0
 20
0.0
 30
0.0
  9
$PUCSYDIR
 10
0.0
 20
1.0
 30
0.0
  9
$USERI1
 70
             0
  9
$USERI2
 70
             0
  9
$USERI3
 70
             0
  9
$USERI4
 70
             0
  9
$USERI5
 70
             0
  9
$USERR1
 40
12.01
  9
$USERR2
 40
0.0
  9
$USERR3
 40
0.0
  9
$USERR4
 40
0.0
  9
$USERR5
 40
0.0
  9
$WORLDVIEW
 70
             1
  9
$SHADEDGE
 70
             3
  9
$SHADEDIF
 70
            70
  9
$TILEMODE
 70
             1
  9
$MAXACTVP
 70
            16
  9
$PINSBASE
 10
0.0
 20
0.0
 30
0.0
  9
$PLIMCHECK
 70
             0
  9
$PEXTMIN
 10
1.00000000000000E+20
 20
1.00000000000000E+20
 30
1.00000000000000E+20
  9
$PEXTMAX
 10
-1.00000000000000E+20
 20
-1.00000000000000E+20
 30
-1.00000000000000E+20
  9
$PLIMMIN
 10
0.0
 20
0.0
  9
$PLIMMAX
 10
12.0
 20
9.0
  9
$UNITMODE
 70
             0
  9
$VISRETAIN
 70
             0
  9
$PLINEGEN
 70
             1
  9
$PSLTSCALE
 70
             0
  9
$TREEDEPTH
 70
          3020
  9
$PICKSTYLE
 70
             1
  9
$CMLSTYLE
  2
STANDARD
  9
$CMLJUST
 70
             0
  9
$CMLSCALE
 40
1.0
  9
$PROXYGRAPHICS
 70
             0
  9
$MEASUREMENT
 70
             1
  0
ENDSEC
  0
SECTION
  2
CLASSES
  0
CLASS
  1
LWPOLYLINE
  2
AcDbPolyline
  3
"AutoCAD"
 90
        0
280
             0
281
             1
  0
CLASS
  1
IMAGE
  2
AcDbRasterImage
  3
ISM
 90
      127
280
             0
281
             1
  0
CLASS
  1
OLE2FRAME
  2
AcDbOle2Frame
  3
""
 90
        0
280
             0
281
             1
  0
CLASS
  1
HATCH
  2
AcDbHatch
  3
"ACAD_SEDONA"
 90
        0
280
             0
281
             1
  0
CLASS
  1
DICTIONARYVAR
  2
AcDbDictionaryVar
  3
"AutoCAD"
 90
        0
280
             0
281
             0
  0
CLASS
  1
RASTERVARIABLES
  2
AcDbRasterVariables
  3
ISM
 90
        0
280
             0
281
             0
  0
CLASS
  1
IMAGEDEF
  2
AcDbRasterImageDef
  3
ISM
 90
        0
280
             0
281
             0
  0
CLASS
  1
IMAGEDEF_REACTOR
  2
AcDbRasterImageDefReactor
  3
ISM
 90
        1
280
             0
281
             0
  0
CLASS
  1
IDBUFFER
  2
AcDbIdBuffer
  3
"Acad"
 90
        0
280
             0
281
             0
  0
CLASS
  1
SPATIAL_FILTER
  2
AcDbSpatialFilter
  3
"Acad"
 90
        0
280
             0
281
             0
  0
CLASS
  1
XRECORD
  2
AcDbXrecord
  3
"<Built In>"
 90
        0
280
             0
281
             0
  0
CLASS
  1
SORTENTSTABLE
  2
AcDbSortentsTable
  3
"AutoCAD"
 90
        0
280
             0
281
             0
  0
CLASS
  1
LAYER_INDEX
  2
AcDbLayerIndex
  3
"Acad"
 90
        0
280
             0
281
             0
  0
CLASS
  1
SPATIAL_INDEX
  2
AcDbSpatialIndex
  3
"Acad"
 90
        0
280
             0
281
             0
  0
CLASS
  1
OBJECT_PTR
  2
CAseDLPNTableRecord
  3
"ASE-LPNTableRecord"
 90
        1
280
             0
281
             0
  0
CLASS
  1
LAYOUT
  2
AcDbLayout
  3
"AutoCAD 2000"
 90
        0
280
             0
281
             0
  0
CLASS
  1
PLOTSETTINGS
  2
AcDbPlotSettings
  3
"AutoCAD 2000"
 90
        0
280
             0
281
             0
  0
CLASS
  1
ACDBDICTIONARYWDFLT
  2
AcDbDictionaryWithDefault
  3
"AutoCAD 2000"
 90
        0
280
             0
281
             0
  0
CLASS
  1
ACDBPLACEHOLDER
  2
AcDbPlaceHolder
  3
"AutoCAD 2000"
 90
        0
280
             0
281
             0
  0
ENDSEC
  0
SECTION
  2
TABLES
  0
TABLE
  2
VPORT
  5
7
100
AcDbSymbolTable
 70
             1
  0
VPORT
  5
15
100
AcDbSymbolTableRecord
100
AcDbViewportTableRecord
  2
*ACTIVE
 70
             0
 10
0.0
 20
0.0
 11
1.0
 21
1.0
 12
-210.78933689503185
 22
-57.17682325036432
 13
0.0
 23
0.0
 14
1.0
 24
1.0
 15
0.0
 25
0.0
 16
0.0
 26
0.0
 36
1.0
 17
0.0
 27
0.0
 37
0.0
 40
283.50719471375749
 41
1.60267857142857
 42
50.0
 43
0.0
 44
0.0
 50
0.0
 51
0.0
 71
             0
 72
           100
 73
             1
 74
             1
 75
             0
 76
             0
 77
             0
 78
             0
  0
ENDTAB
  0
TABLE
  2
LTYPE
  5
4
100
AcDbSymbolTable
 70
            11
  0
LTYPE
  5
11
100
AcDbSymbolTableRecord
100
AcDbLinetypeTableRecord
  2
BYBLOCK
 70
            64
  3

 72
            65
 73
             0
 40
0.0
  0
LTYPE
  5
12
100
AcDbSymbolTableRecord
100
AcDbLinetypeTableRecord
  2
BYLAYER
 70
            64
  3

 72
            65
 73
             0
 40
0.0
  0
LTYPE
  5
13
100
AcDbSymbolTableRecord
100
AcDbLinetypeTableRecord
  2
CONTINUOUS
 70
            64
  3
Solid line
 72
            65
 73
             0
 40
0.0
  0
LTYPE
  5
1D
100
AcDbSymbolTableRecord
100
AcDbLinetypeTableRecord
  2
DASHED
 70
            64
  3
Dashed
 72
            65
 73
             2
 40
15.0
 49
7.0
 74
             0
 49
-8.0
 74
             0
  0
LTYPE
  5
1E
100
AcDbSymbolTableRecord
100
AcDbLinetypeTableRecord
  2
DOTTED
 70
            64
  3
Dotted
 72
            65
 73
             2
 40
1.0
 49
0.0
 74
             0
 49
-1.0
 74
             0
  0
LTYPE
  5
1F
100
AcDbSymbolTableRecord
100
AcDbLinetypeTableRecord
  2
DOT_CENTER
 70
            64
  3
Dot_Center
 72
            65
 73
             4
 40
14.0
 49
12.0
 74
             0
 49
-1.0
 74
             0
 49
0.0
 74
             0
 49
-1.0
 74
             0
  0
LTYPE
  5
20
100
AcDbSymbolTableRecord
100
AcDbLinetypeTableRecord
  2
LONG_DASHED
 70
            64
  3
Long_Dashed
 72
            65
 73
             2
 40
15.0
 49
10.0
 74
             0
 49
-5.0
 74
             0
  0
LTYPE
  5
21
100
AcDbSymbolTableRecord
100
AcDbLinetypeTableRecord
  2
DASH_CENTER
 70
            64
  3
Dash_Center
 72
            65
 73
             4
 40
14.0
 49
11.0
 74
             0
 49
-1.0
 74
             0
 49
1.0
 74
             0
 49
-1.0
 74
             0
  0
LTYPE
  5
22
100
AcDbSymbolTableRecord
100
AcDbLinetypeTableRecord
  2
PHANTOM
 70
            64
  3
Phantom
 72
            65
 73
             6
 40
13.0
 49
10.0
 74
             0
 49
-1.0
 74
             0
 49
0.0
 74
             0
 49
-1.0
 74
             0
 49
0.0
 74
             0
 49
-1.0
 74
             0
  0
LTYPE
  5
23
100
AcDbSymbolTableRecord
100
AcDbLinetypeTableRecord
  2
CENTER_DASH_DASH
 70
            64
  3
Center_Dash_Dash
 72
            65
 73
             6
 40
14.0
 49
9.0
 74
             0
 49
-1.0
 74
             0
 49
1.0
 74
             0
 49
-1.0
 74
             0
 49
1.0
 74
             0
 49
-1.0
 74
             0
  0
LTYPE
  5
24
100
AcDbSymbolTableRecord
100
AcDbLinetypeTableRecord
  2
DASHDOT
 70
            64
  3
DASHDOT
 72
            65
 73
             4
 40
16.0
 49
10.0
 74
             0
 49
-3.0
 74
             0
 49
0.0
 74
             0
 49
-3.0
 74
             0
  0
ENDTAB
  0
TABLE
  2
LAYER
  5
2
100
AcDbSymbolTable
 70
             5
  0
LAYER
  5
14
100
AcDbSymbolTableRecord
100
AcDbLayerTableRecord
  2
0
 70
             0
 62
             7
  6
CONTINUOUS
  0
LAYER
  5
25
100
AcDbSymbolTableRecord
100
AcDbLayerTableRecord
  2
1
 70
             0
 62
             7
  6
CONTINUOUS
  0
LAYER
  5
26
100
AcDbSymbolTableRecord
100
AcDbLayerTableRecord
  2
LC-001-002-----0
 70
             0
 62
             7
  6
CONTINUOUS
  0
LAYER
  5
27
100
AcDbSymbolTableRecord
100
AcDbLayerTableRecord
  2
LC-006-002-RND-0
 70
             0
 62
             7
  6
CONTINUOUS
  0
LAYER
  5
28
100
AcDbSymbolTableRecord
100
AcDbLayerTableRecord
  2
LC-008-006-MLN-0
 70
             0
 62
             7
  6
CONTINUOUS
  0
ENDTAB
  0
TABLE
  2
STYLE
  5
3
100
AcDbSymbolTable
 70
             2
  0
STYLE
  5
17
100
AcDbSymbolTableRecord
100
AcDbTextStyleTableRecord
  2
STANDARD
 70
             0
 40
0.0
 41
1.0
 50
0.0
 71
             0
 42
0.0
  3
txt
  4

  0
STYLE
  5
B5
100
AcDbSymbolTableRecord
100
AcDbTextStyleTableRecord
  2
CONVERTER_1
 70
             0
 40
0.0
 41
0.9
 50
0.0
 71
             0
 42
0.0
  3
txt.shx
  4

  0
ENDTAB
  0
TABLE
  2
VIEW
  5
5
100
AcDbSymbolTable
 70
             0
  0
ENDTAB
  0
TABLE
  2
UCS
  5
6
100
AcDbSymbolTable
 70
             0
  0
ENDTAB
  0
TABLE
  2
APPID
  5
8
100
AcDbSymbolTable
 70
             1
  0
APPID
  5
16
100
AcDbSymbolTableRecord
100
AcDbRegAppTableRecord
  2
ACAD
 70
             0
  0
ENDTAB
  0
TABLE
  2
DIMSTYLE
  5
9
100
AcDbSymbolTable
 70
            11
  0
DIMSTYLE
105
18
100
AcDbSymbolTableRecord
100
AcDbDimStyleTableRecord
  2
STANDARD
 70
             0
  3

  4

  5

  6

  7

 40
1.0
 41
0.18
 42
0.0625
 43
0.38
 44
0.18
 45
0.0
 46
0.0
 47
0.0
 48
0.0
 71
             0
 72
             0
 73
             1
 74
             1
 75
             0
 76
             0
 77
             0
 78
             0
140
0.18
141
0.09
142
0.0
143
25.4
144
1.0
145
0.0
146
1.0
147
0.09
170
             0
171
             2
172
             0
173
             0
174
             0
175
             0
176
             0
177
             0
178
             0
270
             2
271
             4
272
             4
273
             2
274
             2
275
             0
280
             0
281
             0
282
             0
283
             1
284
             0
285
             0
286
             0
287
             3
288
             0
340
17
  0
DIMSTYLE
105
B8
100
AcDbSymbolTableRecord
100
AcDbDimStyleTableRecord
  2
ME10_DIM_0
 70
             0
  3

  4

  5

  6

  7

 40
1.0
 41
7.0
 42
0.0
 43
0.38
 44
2.0
 45
0.0
 46
0.0
 47
0.0
 48
0.0
 71
             0
 72
             0
 73
             0
 74
             0
 75
             0
 76
             0
 77
             1
 78
             8
140
7.0
141
0.09
142
0.0
143
25.4
144
1.0
145
0.0
146
1.0
147
0.625
170
             0
171
             2
172
             1
173
             1
174
             0
175
             0
176
             4
177
             4
178
             1
270
             2
271
             2
272
             4
273
             2
274
             2
275
             0
280
             0
281
             0
282
             0
283
             1
284
             0
285
             0
286
             0
287
             3
288
             0
340
B5
  0
DIMSTYLE
105
C3
100
AcDbSymbolTableRecord
100
AcDbDimStyleTableRecord
  2
ME10_DIM_1
 70
             0
  3

  4

  5

  6

  7

 40
1.0
 41
7.0
 42
0.0
 43
0.38
 44
2.0
 45
0.0
 46
0.0
 47
0.0
 48
0.0
 71
             0
 72
             0
 73
             0
 74
             0
 75
             0
 76
             0
 77
             1
 78
             8
140
7.0
141
0.09
142
0.0
143
25.4
144
1.0
145
0.0
146
1.0
147
0.625
170
             0
171
             2
172
             1
173
             1
174
             0
175
             0
176
             4
177
             4
178
             1
270
             2
271
             2
272
             4
273
             2
274
             2
275
             0
280
             0
281
             0
282
             0
283
             1
284
             0
285
             0
286
             0
287
             3
288
             0
340
B5
  0
DIMSTYLE
105
CF
100
AcDbSymbolTableRecord
100
AcDbDimStyleTableRecord
  2
ME10_DIM_2
 70
             0
  3
DN<>
  4

  5

  6

  7

 40
1.0
 41
7.0
 42
0.0
 43
0.38
 44
2.0
 45
0.0
 46
0.0
 47
0.0
 48
0.0
 71
             0
 72
             0
 73
             0
 74
             0
 75
             0
 76
             0
 77
             1
 78
             8
140
7.0
141
0.09
142
0.0
143
25.4
144
1.0
145
0.0
146
1.0
147
0.625
170
             0
171
             2
172
             1
173
             1
174
             0
175
             0
176
             4
177
             4
178
             1
270
             2
271
             2
272
             4
273
             2
274
             2
275
             0
280
             0
281
             0
282
             0
283
             1
284
             0
285
             0
286
             0
287
             3
288
             0
340
B5
  0
DIMSTYLE
105
DA
100
AcDbSymbolTableRecord
100
AcDbDimStyleTableRecord
  2
ME10_DIM_3
 70
             0
  3

  4

  5

  6

  7

 40
1.0
 41
7.0
 42
0.0
 43
0.38
 44
2.0
 45
0.0
 46
0.0
 47
0.0
 48
0.0
 71
             0
 72
             0
 73
             0
 74
             0
 75
             0
 76
             0
 77
             1
 78
             8
140
7.0
141
0.09
142
0.0
143
25.4
144
1.0
145
0.0
146
1.0
147
0.625
170
             0
171
             2
172
             1
173
             1
174
             0
175
             0
176
             4
177
             4
178
             1
270
             2
271
             0
272
             4
273
             2
274
             2
275
             0
280
             0
281
             0
282
             0
283
             1
284
             0
285
             0
286
             0
287
             3
288
             0
340
B5
  0
DIMSTYLE
105
E5
100
AcDbSymbolTableRecord
100
AcDbDimStyleTableRecord
  2
ME10_DIM_4
 70
             0
  3

  4

  5

  6

  7

 40
1.0
 41
7.0
 42
0.0
 43
0.38
 44
2.0
 45
0.0
 46
0.0
 47
0.0
 48
0.0
 71
             0
 72
             0
 73
             0
 74
             0
 75
             0
 76
             0
 77
             1
 78
             8
140
7.0
141
0.09
142
0.0
143
25.4
144
1.0
145
0.0
146
1.0
147
0.625
170
             0
171
             2
172
             1
173
             1
174
             0
175
             0
176
             4
177
             4
178
             1
270
             2
271
             2
272
             4
273
             2
274
             2
275
             0
280
             0
281
             0
282
             0
283
             1
284
             0
285
             0
286
             0
287
             3
288
             0
340
B5
  0
DIMSTYLE
105
F0
100
AcDbSymbolTableRecord
100
AcDbDimStyleTableRecord
  2
ME10_DIM_5
 70
             0
  3
DN<>
  4

  5

  6

  7

 40
1.0
 41
7.0
 42
0.0
 43
0.38
 44
2.0
 45
0.0
 46
0.0
 47
0.0
 48
0.0
 71
             0
 72
             0
 73
             0
 74
             0
 75
             0
 76
             0
 77
             1
 78
             8
140
7.0
141
0.09
142
0.0
143
25.4
144
1.0
145
0.0
146
1.0
147
0.625
170
             0
171
             2
172
             1
173
             1
174
             0
175
             0
176
             4
177
             4
178
             1
270
             2
271
             2
272
             4
273
             2
274
             2
275
             0
280
             0
281
             0
282
             0
283
             1
284
             0
285
             0
286
             0
287
             3
288
             0
340
B5
  0
DIMSTYLE
105
FB
100
AcDbSymbolTableRecord
100
AcDbDimStyleTableRecord
  2
ME10_DIM_6
 70
             0
  3

  4

  5

  6

  7

 40
1.0
 41
7.0
 42
0.0
 43
0.38
 44
2.0
 45
0.0
 46
0.0
 47
0.0
 48
0.0
 71
             0
 72
             0
 73
             0
 74
             0
 75
             0
 76
             0
 77
             1
 78
             8
140
7.0
141
0.09
142
0.0
143
25.4
144
1.0
145
0.0
146
1.0
147
0.625
170
             0
171
             2
172
             1
173
             1
174
             0
175
             0
176
             4
177
             4
178
             1
270
             2
271
             1
272
             4
273
             2
274
             2
275
             0
280
             0
281
             0
282
             0
283
             1
284
             0
285
             0
286
             0
287
             3
288
             0
340
B5
  0
DIMSTYLE
105
106
100
AcDbSymbolTableRecord
100
AcDbDimStyleTableRecord
  2
ME10_DIM_7
 70
             0
  3

  4

  5

  6

  7

 40
1.0
 41
7.0
 42
0.0
 43
0.38
 44
2.0
 45
0.0
 46
0.0
 47
0.0
 48
0.0
 71
             0
 72
             0
 73
             0
 74
             0
 75
             0
 76
             0
 77
             1
 78
             8
140
7.0
141
0.09
142
0.0
143
25.4
144
1.0
145
0.0
146
1.0
147
0.625
170
             0
171
             2
172
             1
173
             1
174
             0
175
             0
176
             4
177
             4
178
             1
270
             2
271
             2
272
             4
273
             2
274
             2
275
             0
280
             0
281
             0
282
             0
283
             1
284
             0
285
             0
286
             0
287
             3
288
             0
340
B5
  0
DIMSTYLE
105
111
100
AcDbSymbolTableRecord
100
AcDbDimStyleTableRecord
  2
ME10_DIM_8
 70
             0
  3

  4

  5

  6

  7

 40
1.0
 41
7.0
 42
0.0
 43
0.38
 44
2.0
 45
0.0
 46
0.0
 47
0.0
 48
0.0
 71
             0
 72
             0
 73
             0
 74
             0
 75
             0
 76
             0
 77
             1
 78
             8
140
7.0
141
0.09
142
0.0
143
25.4
144
1.0
145
0.0
146
1.0
147
0.625
170
             0
171
             2
172
             1
173
             1
174
             0
175
             0
176
             4
177
             4
178
             1
270
             2
271
             1
272
             4
273
             2
274
             2
275
             0
280
             0
281
             0
282
             0
283
             1
284
             0
285
             0
286
             0
287
             3
288
             0
340
B5
  0
DIMSTYLE
105
11C
100
AcDbSymbolTableRecord
100
AcDbDimStyleTableRecord
  2
ME10_DIM_9
 70
             0
  3

  4

  5

  6

  7

 40
1.0
 41
7.0
 42
0.0
 43
0.38
 44
2.0
 45
0.0
 46
0.0
 47
0.0
 48
0.0
 71
             0
 72
             0
 73
             0
 74
             0
 75
             0
 76
             0
 77
             1
 78
             8
140
7.0
141
0.09
142
0.0
143
25.4
144
1.0
145
0.0
146
1.0
147
0.625
170
             0
171
             2
172
             1
173
             1
174
             0
175
             0
176
             4
177
             4
178
             1
270
             2
271
             1
272
             4
273
             2
274
             2
275
             0
280
             0
281
             0
282
             0
283
             1
284
             0
285
             0
286
             0
287
             3
288
             0
340
B5
  0
ENDTAB
  0
TABLE
  2
BLOCK_RECORD
  5
1
100
AcDbSymbolTable
 70
            13
  0
BLOCK_RECORD
  5
A
100
AcDbSymbolTableRecord
100
AcDbBlockTableRecord
  2
*MODEL_SPACE
  0
BLOCK_RECORD
  5
B
100
AcDbSymbolTableRecord
100
AcDbBlockTableRecord
  2
*PAPER_SPACE
  0
BLOCK_RECORD
  5
29
100
AcDbSymbolTableRecord
100
AcDbBlockTableRecord
  2
EINBAUSIFON__1
  0
BLOCK_RECORD
  5
2B
100
AcDbSymbolTableRecord
100
AcDbBlockTableRecord
  2
EINBAUSIFON__2
  0
BLOCK_RECORD
  5
2D
100
AcDbSymbolTableRecord
100
AcDbBlockTableRecord
  2
SIFONEINSATZ
  0
BLOCK_RECORD
  5
AE
100
AcDbSymbolTableRecord
100
AcDbBlockTableRecord
  2
*D3
  0
BLOCK_RECORD
  5
BA
100
AcDbSymbolTableRecord
100
AcDbBlockTableRecord
  2
*D4
  0
BLOCK_RECORD
  5
C5
100
AcDbSymbolTableRecord
100
AcDbBlockTableRecord
  2
*D5
  0
BLOCK_RECORD
  5
D1
100
AcDbSymbolTableRecord
100
AcDbBlockTableRecord
  2
*D6
  0
BLOCK_RECORD
  5
DC
100
AcDbSymbolTableRecord
100
AcDbBlockTableRecord
  2
*D7
  0
BLOCK_RECORD
  5
E7
100
AcDbSymbolTableRecord
100
AcDbBlockTableRecord
  2
*D8
  0
BLOCK_RECORD
  5
F2
100
AcDbSymbolTableRecord
100
AcDbBlockTableRecord
  2
*D9
  0
BLOCK_RECORD
  5
FD
100
AcDbSymbolTableRecord
100
AcDbBlockTableRecord
  2
*D10
  0
BLOCK_RECORD
  5
108
100
AcDbSymbolTableRecord
100
AcDbBlockTableRecord
  2
*D11
  0
BLOCK_RECORD
  5
113
100
AcDbSymbolTableRecord
100
AcDbBlockTableRecord
  2
*D12
  0
ENDTAB
  0
ENDSEC
  0
SECTION
  2
BLOCKS
  0
BLOCK
  5
D
100
AcDbEntity
  8
0
100
AcDbBlockBegin
  2
*MODEL_SPACE
 70
             0
 10
0.0
 20
0.0
 30
0.0
  3
*MODEL_SPACE
  1

  0
ENDBLK
  5
E
100
AcDbEntity
  8
0
100
AcDbBlockEnd
  0
BLOCK
  5
F
100
AcDbEntity
 67
             1
  8
0
100
AcDbBlockBegin
  2
*PAPER_SPACE
 70
             0
 10
0.0
 20
0.0
 30
0.0
  3
*PAPER_SPACE
  1

  0
ENDBLK
  5
10
100
AcDbEntity
 67
             1
  8
0
100
AcDbBlockEnd
  0
BLOCK
  5
2A
100
AcDbEntity
  8
0
100
AcDbBlockBegin
  2
EINBAUSIFON__1
 70
             0
 10
-365.26777079006399
 20
-186.04372993843589
 30
0.0
  3
EINBAUSIFON__1
  1

  0
ARC
  5
6E
100
AcDbEntity
  8
LC-006-002-RND-0
  6
CONTINUOUS
 62
             7
100
AcDbCircle
 10
-267.16600100000011
 20
-112.379042
 40
3.5
100
AcDbArc
 50
180.0
 51
-90.0
  0
ARC
  5
6D
100
AcDbEntity
  8
LC-006-002-RND-0
  6
CONTINUOUS
 62
             7
100
AcDbCircle
 10
-267.16600100000011
 20
26.61577600000004
 40
3.50000000000028
100
AcDbArc
 50
92.12592001696044
 51
168.4985761864441
  0
LINE
  5
6C
100
AcDbEntity
  8
1
  6
PHANTOM
 62
             2
100
AcDbLine
 10
-222.66298300000011
 20
-9.93612299999995
 11
-245.06661833546499
 21
-9.93612299999995
  0
LINE
  5
6B
100
AcDbEntity
  8
1
  6
CONTINUOUS
 62
             7
100
AcDbLine
 10
-222.66298300000011
 20
-14.43612299999995
 11
-243.16298300000011
 21
-14.43612299999995
  0
LINE
  5
6A
100
AcDbEntity
  8
1
  6
CONTINUOUS
 62
             7
100
AcDbLine
 10
-243.66298300000011
 20
-14.93612299999995
 11
-243.66298300000011
 21
-9.93612299999995
  0
LINE
  5
69
100
AcDbEntity
  8
1
  6
CONTINUOUS
 62
             7
100
AcDbLine
 10
-243.16298300000011
 20
-14.93612299999995
 11
-243.66298300000011
 21
-14.93612299999995
  0
LINE
  5
68
100
AcDbEntity
  8
1
  6
CONTINUOUS
 62
             7
100
AcDbLine
 10
-243.16298300000011
 20
-14.43612299999995
 11
-243.16298300000011
 21
-14.93612299999995
  0
LINE
  5
67
100
AcDbEntity
  8
1
  6
CONTINUOUS
 62
             7
100
AcDbLine
 10
-243.16298300000011
 20
-9.93612299999995
 11
-243.16298300000011
 21
-14.43612299999995
  0
LINE
  5
66
100
AcDbEntity
  8
1
  6
CONTINUOUS
 62
             7
100
AcDbLine
 10
-243.16298300000011
 20
-5.43612299999995
 11
-243.16298300000011
 21
-9.93612299999995
  0
LINE
  5
65
100
AcDbEntity
  8
LC-001-002-----0
  6
CONTINUOUS
 62
             7
100
AcDbLine
 10
-222.66298300000011
 20
-5.43612299999995
 11
-222.66298300000011
 21
30.11336700000004
  0
LINE
  5
64
100
AcDbEntity
  8
1
  6
CONTINUOUS
 62
             7
100
AcDbLine
 10
-243.16298300000011
 20
-5.43612299999995
 11
-222.66298300000011
 21
-5.43612299999995
  0
LINE
  5
63
100
AcDbEntity
  8
1
  6
CONTINUOUS
 62
             7
100
AcDbLine
 10
-243.16298300000011
 20
-4.93612299999995
 11
-243.16298300000011
 21
-5.43612299999995
  0
LINE
  5
62
100
AcDbEntity
  8
1
  6
CONTINUOUS
 62
             7
100
AcDbLine
 10
-243.66298300000011
 20
-4.93612299999995
 11
-243.16298300000011
 21
-4.93612299999995
  0
LINE
  5
61
100
AcDbEntity
  8
1
  6
CONTINUOUS
 62
             7
100
AcDbLine
 10
-243.66298300000011
 20
-9.93612299999995
 11
-243.66298300000011
 21
-4.93612299999995
  0
LINE
  5
60
100
AcDbEntity
  8
1
  6
CONTINUOUS
 62
             7
100
AcDbLine
 10
-286.59571999999997
 20
-26.68593600020228
 11
-286.59571999999997
 21
27.31368000000003
  0
LINE
  5
5F
100
AcDbEntity
  8
LC-001-002-----0
  6
CONTINUOUS
 62
             7
100
AcDbLine
 10
-266.66600100000011
 20
30.11336700000004
 11
-222.66298300000011
 21
30.11336700000004
  0
LINE
  5
5E
100
AcDbEntity
  8
LC-001-002-----0
  6
CONTINUOUS
 62
             7
100
AcDbLine
 10
-266.66600100000011
 20
-115.879042
 11
-263.76298300000002
 21
-115.879042
  0
LINE
  5
5D
100
AcDbEntity
  8
1
  6
CONTINUOUS
 62
             7
100
AcDbLine
 10
-266.66600100000011
 20
30.11336700000004
 11
-266.66600100000011
 21
-115.879042
  0
LINE
  5
5C
100
AcDbEntity
  8
1
  6
CONTINUOUS
 62
             7
100
AcDbLine
 10
-270.59572012492458
 20
27.31364900000023
 11
-270.59572012492458
 21
-26.6859671260634
  0
LINE
  5
5B
100
AcDbEntity
  8
1
  6
CONTINUOUS
 62
             7
100
AcDbLine
 10
-223.66298300000011
 20
-167.379042
 11
-263.76298300000002
 21
-167.379042
  0
LINE
  5
5A
100
AcDbEntity
  8
1
  6
CONTINUOUS
 62
             7
100
AcDbLine
 10
-263.76298300000002
 20
-115.879042
 11
-223.66298300000011
 21
-115.879042
  0
LINE
  5
59
100
AcDbEntity
  8
LC-001-002-----0
  6
CONTINUOUS
 62
             7
100
AcDbLine
 10
-270.66600100000011
 20
-26.68596698934135
 11
-270.66600100000011
 21
-112.379042
  0
LINE
  5
58
100
AcDbEntity
  8
LC-001-002-----0
  6
CONTINUOUS
 62
             7
100
AcDbLine
 10
-222.66298300000011
 20
30.11336700000004
 11
-222.66298300000011
 21
31.81388300000003
  0
LINE
  5
57
100
AcDbEntity
  8
LC-001-002-----0
  6
CONTINUOUS
 62
             7
100
AcDbLine
 10
-267.29583626763173
 20
30.11336700000004
 11
-266.66600100000011
 21
30.11336700000004
  0
LINE
  5
56
100
AcDbEntity
  8
LC-001-002-----0
  6
CONTINUOUS
 62
             7
100
AcDbLine
 10
-222.66298300000011
 20
-115.879042
 11
-222.66298300000011
 21
-5.43612299999995
  0
LINE
  5
55
100
AcDbEntity
  8
LC-001-002-----0
  6
CONTINUOUS
 62
             7
100
AcDbLine
 10
-223.66298300000011
 20
-115.879042
 11
-223.66298300000011
 21
-167.379042
  0
LINE
  5
54
100
AcDbEntity
  8
LC-001-002-----0
  6
CONTINUOUS
 62
             7
100
AcDbLine
 10
-224.60080500000001
 20
-170.879042
 11
-261.76298300000002
 21
-170.879042
  0
LINE
  5
53
100
AcDbEntity
  8
LC-001-002-----0
  6
CONTINUOUS
 62
             7
100
AcDbLine
 10
-261.76298300000002
 20
-170.879042
 11
-262.82515999999998
 21
-170.879042
  0
LINE
  5
52
100
AcDbEntity
  8
LC-001-002-----0
  6
CONTINUOUS
 62
             7
100
AcDbLine
 10
-326.59571999999997
 20
0.06387699999999
 11
-326.59571999999997
 21
-37.43612300000001
  0
LINE
  5
51
100
AcDbEntity
  8
LC-001-002-----0
  6
CONTINUOUS
 62
             7
100
AcDbLine
 10
-326.59571999999997
 20
36.56387699999999
 11
-326.59571999999997
 21
0.06387699999999
  0
LINE
  5
50
100
AcDbEntity
  8
1
  6
DOT_CENTER
 62
             2
100
AcDbLine
 10
-328.59571999999997
 20
-15.93612300000001
 11
-322.59571999999997
 21
-15.93612300000001
  0
LINE
  5
4F
100
AcDbEntity
  8
1
  6
DOT_CENTER
 62
             2
100
AcDbLine
 10
-328.59571999999997
 20
16.06387699999999
 11
-322.59571999999997
 21
16.06387699999999
  0
LINE
  5
4E
100
AcDbEntity
  8
LC-001-002-----0
  6
CONTINUOUS
 62
             7
100
AcDbLine
 10
-244.66298300000011
 20
30.11336700000004
 11
-244.66298300000011
 21
31.81388300000003
  0
LINE
  5
4D
100
AcDbEntity
  8
LC-001-002-----0
  6
CONTINUOUS
 62
             7
100
AcDbLine
 10
-222.66298300000011
 20
-115.879042
 11
-223.66298300000011
 21
-115.879042
  0
LINE
  5
4C
100
AcDbEntity
  8
LC-001-002-----0
  6
DASHDOT
 62
             2
100
AcDbLine
 10
-247.59572
 20
0.06387699999999
 11
-247.59572
 21
-110.116123
  0
LINE
  5
4B
100
AcDbEntity
  8
LC-001-002-----0
  6
DASHDOT
 62
             2
100
AcDbLine
 10
-292.59571999999997
 20
0.06387699999999
 11
-247.59572
 21
0.06387699999999
  0
LINE
  5
4A
100
AcDbEntity
  8
LC-001-002-----0
  6
CONTINUOUS
 62
             7
100
AcDbLine
 10
-244.66298300000011
 20
31.81388300000003
 11
-222.66298300000011
 21
31.81388300000003
  0
LINE
  5
49
100
AcDbEntity
  8
LC-001-002-----0
  6
CONTINUOUS
 62
             7
100
AcDbLine
 10
-286.59571999999997
 20
-26.68593600020228
 11
-270.66600100000011
 21
-26.68596698934135
  0
LINE
  5
48
100
AcDbEntity
  8
LC-001-002-----0
  6
CONTINUOUS
 62
             7
100
AcDbLine
 10
-286.59571999999997
 20
27.31368000000003
 11
-270.59572012492458
 21
27.31364900000023
  0
LINE
  5
47
100
AcDbEntity
  8
LC-001-002-----0
  6
CONTINUOUS
 62
             7
100
AcDbLine
 10
-267.16600100000011
 20
-115.879042
 11
-266.66600100000011
 21
-115.879042
  0
LINE
  5
46
100
AcDbEntity
  8
LC-001-002-----0
  6
CONTINUOUS
 62
             7
100
AcDbLine
 10
-263.76298300000002
 20
-115.879042
 11
-263.76298300000002
 21
-167.379042
  0
LINE
  5
45
100
AcDbEntity
  8
LC-001-002-----0
  6
CONTINUOUS
 62
             7
100
AcDbLine
 10
-263.76298300000002
 20
-167.379042
 11
-262.82515999999998
 21
-170.879042
  0
LINE
  5
44
100
AcDbEntity
  8
LC-001-002-----0
  6
DASHDOT
 62
             2
100
AcDbLine
 10
-243.71298300000009
 20
-112.879042
 11
-243.71298300000009
 21
-170.879042
  0
LINE
  5
43
100
AcDbEntity
  8
LC-001-002-----0
  6
CONTINUOUS
 62
             7
100
AcDbLine
 10
-286.59571999999997
 20
-37.43612300000001
 11
-286.59571999999997
 21
-26.68593600020228
  0
LINE
  5
42
100
AcDbEntity
  8
LC-001-002-----0
  6
CONTINUOUS
 62
             7
100
AcDbLine
 10
-326.59571999999997
 20
-37.43612300000001
 11
-286.59571999999997
 21
-37.43612300000001
  0
LINE
  5
41
100
AcDbEntity
  8
LC-001-002-----0
  6
DASHDOT
 62
             2
100
AcDbLine
 10
-326.59571999999997
 20
0.06387699999999
 11
-292.59571999999997
 21
0.06387699999999
  0
LINE
  5
40
100
AcDbEntity
  8
LC-001-002-----0
  6
CONTINUOUS
 62
             7
100
AcDbLine
 10
-326.59571999999997
 20
37.56387699999999
 11
-326.59571999999997
 21
36.56387699999999
  0
LINE
  5
3F
100
AcDbEntity
  8
LC-001-002-----0
  6
CONTINUOUS
 62
             7
100
AcDbLine
 10
-326.59571999999997
 20
37.56387699999999
 11
-286.59571999999997
 21
37.56387699999999
  0
LINE
  5
3E
100
AcDbEntity
  8
LC-001-002-----0
  6
CONTINUOUS
 62
             7
100
AcDbLine
 10
-223.66298300000011
 20
-167.379042
 11
-224.60080500000001
 21
-170.879042
  0
LINE
  5
3D
100
AcDbEntity
  8
LC-001-002-----0
  6
CONTINUOUS
 62
             7
100
AcDbLine
 10
-286.59571999999997
 20
37.56387699999999
 11
-286.59571999999997
 21
27.31368000000003
  0
POINT
  5
3C
100
AcDbEntity
  8
0
 62
             7
100
AcDbPoint
 10
-326.59571999999997
 20
-37.43612300000001
  0
POINT
  5
3B
100
AcDbEntity
  8
0
 62
             7
100
AcDbPoint
 10
-326.59571999999997
 20
37.56387699999999
  0
POINT
  5
3A
100
AcDbEntity
  8
0
 62
             7
100
AcDbPoint
 10
-286.59571999999997
 20
37.56387699999999
  0
POINT
  5
39
100
AcDbEntity
  8
0
 62
             7
100
AcDbPoint
 10
-326.59571999999997
 20
37.56387699999999
  0
POINT
  5
38
100
AcDbEntity
  8
0
 62
             7
100
AcDbPoint
 10
-223.66298300000011
 20
-167.379042
  0
POINT
  5
37
100
AcDbEntity
  8
0
 62
             7
100
AcDbPoint
 10
-222.66298300000011
 20
-115.879042
  0
POINT
  5
36
100
AcDbEntity
  8
0
 62
             7
100
AcDbPoint
 10
-222.66298300000011
 20
30.11336700000004
  0
POINT
  5
35
100
AcDbEntity
  8
0
 62
             7
100
AcDbPoint
 10
-222.66298300000011
 20
31.81388300000003
  0
POINT
  5
34
100
AcDbEntity
  8
0
 62
             7
100
AcDbPoint
 10
-286.59571999999997
 20
37.56387699999999
  0
ENDBLK
  5
6F
100
AcDbEntity
  8
0
100
AcDbBlockEnd
  0
BLOCK
  5
2C
100
AcDbEntity
  8
0
100
AcDbBlockBegin
  2
EINBAUSIFON__2
 70
             0
 10
-187.58947943432611
 20
-170.92853199999999
 30
0.0
  3
EINBAUSIFON__2
  1

  0
CIRCLE
  5
A0
100
AcDbEntity
  8
LC-001-002-----0
  6
CONTINUOUS
 62
             7
100
AcDbCircle
 10
-100.0
 20
0.0
 40
37.5
  0
CIRCLE
  5
9F
100
AcDbEntity
  8
LC-001-002-----0
  6
CONTINUOUS
 62
             7
100
AcDbCircle
 10
-100.0
 20
0.0
 40
36.5
  0
CIRCLE
  5
9E
100
AcDbEntity
  8
LC-001-002-----0
  6
CONTINUOUS
 62
             7
100
AcDbCircle
 10
-154.99000000000009
 20
-9.93612299999995
 40
5.0
  0
CIRCLE
  5
9D
100
AcDbEntity
  8
LC-001-002-----0
  6
CONTINUOUS
 62
             7
100
AcDbCircle
 10
-154.99000000000009
 20
-9.93612299999995
 40
3.0
  0
ARC
  5
9C
100
AcDbEntity
  8
LC-001-002-----0
  6
CONTINUOUS
 62
             7
100
AcDbCircle
 10
-94.69795299999993
 20
0.99877100000003
 40
30.00000000000006
100
AcDbArc
 50
178.58563609345089
 51
-158.34039238407698
  0
ARC
  5
9B
100
AcDbEntity
  8
LC-001-002-----0
  6
CONTINUOUS
 62
             7
100
AcDbCircle
 10
-100.0
 20
0.06387700000005
 40
30.0000000000003
100
AcDbArc
 50
178.58563500000042
 51
-158.34039299999935
  0
ARC
  5
9A
100
AcDbEntity
  8
LC-006-002-RND-0
  6
CONTINUOUS
 62
             7
100
AcDbCircle
 10
-76.95000000000005
 20
-97.67273799999998
 40
2.0
100
AcDbArc
 50
90.0
 51
180.0
  0
ARC
  5
99
100
AcDbEntity
  8
LC-006-002-RND-0
  6
CONTINUOUS
 62
             7
100
AcDbCircle
 10
-74.31090300000005
 20
-77.67273799999998
 40
18.0
100
AcDbArc
 50
-90.0
 51
10.00000000000056
  0
ARC
  5
98
100
AcDbEntity
  8
LC-001-002-----0
  6
CONTINUOUS
 62
             7
100
AcDbCircle
 10
-117.546426
 20
-91.578532
 40
24.55000000000037
100
AcDbArc
 50
-170.00000000000063
 51
-90.0
  0
ARC
  5
97
100
AcDbEntity
  8
LC-001-002-----0
  6
CONTINUOUS
 62
             7
100
AcDbCircle
 10
-91.39974900000004
 20
-29.93184199999996
 40
60.99999999999996
100
AcDbArc
 50
136.20456300000041
 51
-168.40532300000032
  0
ARC
  5
96
100
AcDbEntity
  8
LC-001-002-----0
  6
CONTINUOUS
 62
             7
100
AcDbCircle
 10
-126.99000000000009
 20
27.06387700000005
 40
3.00000000000036
100
AcDbArc
 50
28.8043779999935
 51
-118.96099399999788
  0
ARC
  5
95
100
AcDbEntity
  8
LC-001-002-----0
  6
CONTINUOUS
 62
             7
100
AcDbCircle
 10
-126.99000000000009
 20
27.06387700000005
 40
4.99999999999989
100
AcDbArc
 50
32.89169300000476
 51
-123.04830899999945
  0
ARC
  5
94
100
AcDbEntity
  8
LC-001-002-----0
  6
CONTINUOUS
 62
             7
100
AcDbCircle
 10
-61.99000000000001
 20
-9.93612299999995
 40
4.99999999999952
100
AcDbArc
 50
-129.04004799999896
 51
99.74052499999741
  0
ARC
  5
93
100
AcDbEntity
  8
LC-001-002-----0
  6
CONTINUOUS
 62
             7
100
AcDbCircle
 10
-61.99000000000001
 20
-9.93612299999995
 40
3.00000000000035
100
AcDbArc
 50
-142.99320499999627
 51
113.69368200001068
  0
LINE
  5
92
100
AcDbEntity
  8
1
  6
PHANTOM
 62
             2
100
AcDbLine
 10
-61.99000000000001
 20
-4.43612300000029
 11
-61.99000000000001
 21
-15.43612299999972
  0
LINE
  5
91
100
AcDbEntity
  8
1
  6
PHANTOM
 62
             2
100
AcDbLine
 10
-56.49000000000024
 20
-9.93612299999995
 11
-67.48999999999978
 21
-9.93612299999995
  0
LINE
  5
90
100
AcDbEntity
  8
1
  6
PHANTOM
 62
             2
100
AcDbLine
 10
-126.99000000000009
 20
32.56387700000005
 11
-126.99000000000009
 21
21.56387699999993
  0
LINE
  5
8F
100
AcDbEntity
  8
1
  6
PHANTOM
 62
             2
100
AcDbLine
 10
-121.48999999999999
 20
27.06387700000005
 11
-132.49000000000009
 21
27.06387700000005
  0
LINE
  5
8E
100
AcDbEntity
  8
1
  6
PHANTOM
 62
             2
100
AcDbLine
 10
-154.99000000000009
 20
-4.43612299999995
 11
-154.99000000000009
 21
-15.43612299999995
  0
LINE
  5
8D
100
AcDbEntity
  8
1
  6
PHANTOM
 62
             2
100
AcDbLine
 10
-149.49000000000009
 20
-9.93612299999995
 11
-160.49000000000009
 21
-9.93612299999995
  0
LINE
  5
8C
100
AcDbEntity
  8
LC-001-002-----0
  6
DASHDOT
 62
             2
100
AcDbLine
 10
-100.0
 20
37.5
 11
-100.0
 21
-170.92853199999999
  0
LINE
  5
8B
100
AcDbEntity
  8
LC-001-002-----0
  6
CONTINUOUS
 62
             7
100
AcDbLine
 10
-56.58436400000005
 20
-74.54707099999996
 11
-66.69136100000003
 21
-17.22743800000001
  0
LINE
  5
8A
100
AcDbEntity
  8
LC-001-002-----0
  6
CONTINUOUS
 62
             7
100
AcDbLine
 10
-120.0500000000001
 20
-167.42853199999999
 11
-79.95000000000005
 21
-167.42853199999999
  0
LINE
  5
89
100
AcDbEntity
  8
LC-001-002-----0
  6
CONTINUOUS
 62
             7
100
AcDbLine
 10
-80.88782200000003
 20
-170.92853199999999
 11
-119.1121780000001
 21
-170.92853199999999
  0
LINE
  5
88
100
AcDbEntity
  8
LC-001-002-----0
  6
CONTINUOUS
 62
             7
100
AcDbLine
 10
-120.0500000000001
 20
-167.42853199999999
 11
-119.1121780000001
 21
-170.92853199999999
  0
LINE
  5
87
100
AcDbEntity
  8
LC-001-002-----0
  6
CONTINUOUS
 62
             7
100
AcDbLine
 10
-79.95000000000005
 20
-167.42853199999999
 11
-80.88782200000003
 21
-170.92853199999999
  0
LINE
  5
86
100
AcDbEntity
  8
LC-001-002-----0
  6
DASHDOT
 62
             2
100
AcDbLine
 10
-132.43612200000001
 20
0.06387700000005
 11
-67.56387700000005
 21
0.06387700000005
  0
LINE
  5
85
100
AcDbEntity
  8
LC-001-002-----0
  6
CONTINUOUS
 62
             7
100
AcDbLine
 10
-124.6888129984284
 20
1.73925500027701
 11
-129.99086000000011
 21
0.80436099999997
  0
LINE
  5
84
100
AcDbEntity
  8
LC-001-002-----0
  6
CONTINUOUS
 62
             7
100
AcDbLine
 10
-122.57974314185429
 20
-10.07397836434473
 11
-127.88179
 21
-11.008872
  0
LINE
  5
83
100
AcDbEntity
  8
LC-001-002-----0
  6
CONTINUOUS
 62
             7
100
AcDbLine
 10
-78.95000000000005
 20
-97.67273799999998
 11
-78.95000000000005
 21
-116.12853200000001
  0
LINE
  5
82
100
AcDbEntity
  8
LC-001-002-----0
  6
CONTINUOUS
 62
             7
100
AcDbLine
 10
-117.546426
 20
-116.12853200000001
 11
-78.95000000000005
 21
-116.12853200000001
  0
LINE
  5
81
100
AcDbEntity
  8
LC-001-002-----0
  6
CONTINUOUS
 62
             7
100
AcDbLine
 10
-151.18246500000001
 20
-42.19688999999994
 11
-141.72345600000011
 21
-95.84159499999998
  0
LINE
  5
80
100
AcDbEntity
  8
LC-001-002-----0
  6
CONTINUOUS
 62
             7
100
AcDbLine
 10
-74.31090300000005
 20
-95.67273799999998
 11
-76.95000000000005
 21
-95.67273799999998
  0
LINE
  5
7F
100
AcDbEntity
  8
LC-001-002-----0
  6
CONTINUOUS
 62
             7
100
AcDbLine
 10
-120.0500000000001
 20
-116.12853200000001
 11
-120.0500000000001
 21
-167.42853199999999
  0
LINE
  5
7E
100
AcDbEntity
  8
LC-001-002-----0
  6
CONTINUOUS
 62
             7
100
AcDbLine
 10
-79.95000000000005
 20
-116.12853200000001
 11
-79.95000000000005
 21
-167.42853199999999
  0
LINE
  5
7D
100
AcDbEntity
  8
LC-001-002-----0
  6
CONTINUOUS
 62
             7
100
AcDbLine
 10
-151.18260000000001
 20
-42.19612499999994
 11
-141.72345600000011
 21
-95.84159499999998
  0
LINE
  5
7C
100
AcDbEntity
  8
LC-008-006-MLN-0
  6
DASHDOT
 62
             2
100
AcDbLine
 10
-112.39
 20
27.06387700000005
 11
-141.59
 21
27.06387700000005
  0
LINE
  5
7B
100
AcDbEntity
  8
LC-001-002-----0
  6
DASHED
 62
             2
100
AcDbLine
 10
-150.65295
 20
-8.93612299999995
 11
-150.09101999999999
 21
-8.93612299999995
  0
LINE
  5
7A
100
AcDbEntity
  8
LC-001-002-----0
  6
DASHED
 62
             2
100
AcDbLine
 10
-150.65295
 20
-10.93612299999995
 11
-150.136135
 21
-10.93612299999995
  0
LINE
  5
79
100
AcDbEntity
  8
LC-001-002-----0
  6
CONTINUOUS
 62
             7
100
AcDbLine
 10
-150.09101999999999
 20
-8.93612299999995
 11
-148.66260299999999
 21
-8.93612299999995
  0
LINE
  5
78
100
AcDbEntity
  8
LC-001-002-----0
  6
CONTINUOUS
 62
             7
100
AcDbLine
 10
-150.136135
 20
-10.93612299999995
 11
-149.35665900000001
 21
-10.93612299999995
  0
POINT
  5
77
100
AcDbEntity
  8
0
 62
             7
100
AcDbPoint
 10
-154.99000000000009
 20
-9.93612299999995
  0
POINT
  5
76
100
AcDbEntity
  8
0
 62
             7
100
AcDbPoint
 10
-61.99000000000001
 20
-9.93612299999995
  0
POINT
  5
75
100
AcDbEntity
  8
0
 62
             7
100
AcDbPoint
 10
-119.10217800000009
 20
-170.92853199999999
  0
POINT
  5
74
100
AcDbEntity
  8
0
 62
             7
100
AcDbPoint
 10
-159.99000000000009
 20
-9.93612299999995
  0
POINT
  5
73
100
AcDbEntity
  8
0
 62
             7
100
AcDbPoint
 10
-131.99000000000009
 20
27.06387700000005
  0
POINT
  5
72
100
AcDbEntity
  8
0
 62
             7
100
AcDbPoint
 10
-118.04000000000011
 20
-170.92853199999999
  0
POINT
  5
71
100
AcDbEntity
  8
0
 62
             7
100
AcDbPoint
 10
-99.99000000000001
 20
29.863877
  0
POINT
  5
70
100
AcDbEntity
  8
0
 62
             7
100
AcDbPoint
 10
-126.99000000000009
 20
32.06387700000005
  0
ENDBLK
  5
A1
100
AcDbEntity
  8
0
100
AcDbBlockEnd
  0
BLOCK
  5
2E
100
AcDbEntity
  8
0
100
AcDbBlockBegin
  2
SIFONEINSATZ
 70
             0
 10
-131.4202647000001
 20
-78.11612299999996
 30
0.0
  3
SIFONEINSATZ
  1

  0
CIRCLE
  5
AB
100
AcDbEntity
  8
LC-001-002-----0
  6
CONTINUOUS
 62
             7
100
AcDbCircle
 10
-99.99000000000001
 20
0.12775400000004
 40
16.50000299999999
  0
CIRCLE
  5
AA
100
AcDbEntity
  8
LC-001-002-----0
  6
CONTINUOUS
 62
             7
100
AcDbCircle
 10
-100.0
 20
0.06387700000005
 40
24.75
  0
ARC
  5
A9
100
AcDbEntity
  8
1
  6
CONTINUOUS
 62
             7
100
AcDbCircle
 10
-100.0
 20
0.06387700000005
 40
28.56387700000007
100
AcDbArc
 50
-157.87439307428127
 51
0.0
  0
ARC
  5
A8
100
AcDbEntity
  8
1
  6
CONTINUOUS
 62
             7
100
AcDbCircle
 10
-100.0
 20
0.06387700000005
 40
28.56387700000005
100
AcDbArc
 50
0.0
 51
177.87439593916602
  0
LINE
  5
A7
100
AcDbEntity
  8
1
  6
PHANTOM
 62
             2
100
AcDbLine
 10
-100.0
 20
31.4841417000001
 11
-100.0
 21
-31.3563877
  0
LINE
  5
A6
100
AcDbEntity
  8
1
  6
PHANTOM
 62
             2
100
AcDbLine
 10
-68.57973529999993
 20
0.06387700000005
 11
-131.4202647000001
 21
0.06387700000005
  0
LINE
  5
A5
100
AcDbEntity
  8
LC-001-002-----0
  6
CONTINUOUS
 62
             7
100
AcDbLine
 10
-83.66851000000008
 20
2.54830800000008
 11
-80.95572500000003
 21
-15.74365699999993
  0
LINE
  5
A4
100
AcDbEntity
  8
LC-001-002-----0
  6
CONTINUOUS
 62
             7
100
AcDbLine
 10
-116.15903900000001
 20
-3.16044899999991
 11
-112.46662999999999
 21
-21.31708699999996
  0
LINE
  5
A3
100
AcDbEntity
  8
LC-001-002-----0
  6
CONTINUOUS
 62
             7
100
AcDbLine
 10
-122.605035
 20
-10.01456099999996
 11
-126.4604443591179
 21
-10.69437348923651
  0
LINE
  5
A2
100
AcDbEntity
  8
LC-001-002-----0
  6
CONTINUOUS
 62
             7
100
AcDbLine
 10
-124.688813
 20
1.80313200000006
 11
-128.5442227342152
 21
1.12331919787678
  0
ENDBLK
  5
AC
100
AcDbEntity
  8
0
100
AcDbBlockEnd
  0
BLOCK
  5
AF
100
AcDbEntity
  8
0
100
AcDbBlockBegin
  2
*D3
 70
             1
 10
0.0
 20
0.0
 30
0.0
  3
*D3
  1

  0
LINE
  5
B0
100
AcDbEntity
  8
0
  6
CONTINUOUS
 62
             4
100
AcDbLine
 10
-286.59571999999997
 20
47.56387699999999
 11
-222.66298300000011
 21
47.56387699999999
  0
LINE
  5
B1
100
AcDbEntity
  8
0
  6
CONTINUOUS
 62
             4
100
AcDbLine
 10
-286.59571999999997
 20
27.31368000000003
 11
-286.59571999999997
 21
49.56387699999999
  0
LINE
  5
B2
100
AcDbEntity
  8
0
  6
CONTINUOUS
 62
             4
100
AcDbLine
 10
-222.66298300000011
 20
31.81388300000003
 11
-222.66298300000011
 21
49.56387699999999
  0
SOLID
  5
B3
100
AcDbEntity
  8
0
 62
             4
100
AcDbTrace
 10
-229.66298300000011
 20
46.64230951688822
 11
-229.66298300000011
 21
48.48544448311176
 12
-222.66298300000011
 22
47.56387699999999
 13
-222.66298300000011
 23
47.56387699999999
  0
SOLID
  5
B4
100
AcDbEntity
  8
0
 62
             4
100
AcDbTrace
 10
-279.59571999999997
 20
48.48544448311176
 11
-279.59571999999997
 21
46.64230951688822
 12
-286.59571999999997
 22
47.56387699999999
 13
-286.59571999999997
 23
47.56387699999999
  0
MTEXT
  5
B6
100
AcDbEntity
  8
0
 62
             1
100
AcDbMText
 10
-263.34836395591202
 20
49.56387699999999
 30
0.0
 40
7.0
 41
0.0
 71
             7
 72
             1
  1
64
  7
CONVERTER_1
 11
0.99999999999706
 21
0.00000242406841
 31
0.0
  0
ENDBLK
  5
B7
100
AcDbEntity
  8
0
100
AcDbBlockEnd
  0
BLOCK
  5
BB
100
AcDbEntity
  8
0
100
AcDbBlockBegin
  2
*D4
 70
             1
 10
0.0
 20
0.0
 30
0.0
  3
*D4
  1

  0
LINE
  5
BC
100
AcDbEntity
  8
0
  6
CONTINUOUS
 62
             4
100
AcDbLine
 10
-326.59571999999997
 20
47.56387699999999
 11
-286.59571999999997
 21
47.56387699999999
  0
LINE
  5
BD
100
AcDbEntity
  8
0
  6
CONTINUOUS
 62
             4
100
AcDbLine
 10
-326.59571999999997
 20
37.56387699999999
 11
-326.59571999999997
 21
49.56387699999999
  0
LINE
  5
BE
100
AcDbEntity
  8
0
  6
CONTINUOUS
 62
             4
100
AcDbLine
 10
-286.59571999999997
 20
37.56387699999999
 11
-286.59571999999997
 21
49.56387699999999
  0
SOLID
  5
BF
100
AcDbEntity
  8
0
 62
             4
100
AcDbTrace
 10
-319.59571999999997
 20
48.48544448311176
 11
-319.59571999999997
 21
46.64230951688822
 12
-326.59571999999997
 22
47.56387699999999
 13
-326.59571999999997
 23
47.56387699999999
  0
SOLID
  5
C0
100
AcDbEntity
  8
0
 62
             4
100
AcDbTrace
 10
-293.59571999999997
 20
46.64230951688822
 11
-293.59571999999997
 21
48.48544448311176
 12
-286.59571999999997
 22
47.56387699999999
 13
-286.59571999999997
 23
47.56387699999999
  0
MTEXT
  5
C1
100
AcDbEntity
  8
0
 62
             1
100
AcDbMText
 10
-310.93871027452298
 20
49.56387699999999
 30
0.0
 40
7.0
 41
0.0
 71
             7
 72
             1
  1
40
  7
CONVERTER_1
 11
0.99999999999706
 21
0.00000242406841
 31
0.0
  0
ENDBLK
  5
C2
100
AcDbEntity
  8
0
100
AcDbBlockEnd
  0
BLOCK
  5
C6
100
AcDbEntity
  8
0
100
AcDbBlockBegin
  2
*D5
 70
             1
 10
0.0
 20
0.0
 30
0.0
  3
*D5
  1

  0
LINE
  5
C7
100
AcDbEntity
  8
0
  6
CONTINUOUS
 62
             4
100
AcDbLine
 10
-338.59571999999997
 20
-15.93612300000001
 11
-338.59571999999997
 21
-46.8177664377229
  0
LINE
  5
C8
100
AcDbEntity
  8
0
  6
CONTINUOUS
 62
             4
100
AcDbLine
 10
-338.59571999999997
 20
16.06387699999999
 11
-338.59571999999997
 21
-15.93612300000001
  0
LINE
  5
C9
100
AcDbEntity
  8
0
  6
CONTINUOUS
 62
             4
100
AcDbLine
 10
-328.59571999999997
 20
-15.93612300000001
 11
-340.59571999999997
 21
-15.93612300000001
  0
LINE
  5
CA
100
AcDbEntity
  8
0
  6
CONTINUOUS
 62
             4
100
AcDbLine
 10
-328.59571999999997
 20
16.06387699999999
 11
-340.59571999999997
 21
16.06387699999999
  0
SOLID
  5
CB
100
AcDbEntity
  8
0
 62
             4
100
AcDbTrace
 10
-337.67415251688823
 20
9.06387699999999
 11
-339.51728748311172
 21
9.06387699999999
 12
-338.59571999999997
 22
16.06387699999999
 13
-338.59571999999997
 23
16.06387699999999
  0
SOLID
  5
CC
100
AcDbEntity
  8
0
 62
             4
100
AcDbTrace
 10
-339.51728748311172
 20
-8.93612300000001
 11
-337.67415251688823
 21
-8.93612300000001
 12
-338.59571999999997
 22
-15.93612300000001
 13
-338.59571999999997
 23
-15.93612300000001
  0
MTEXT
  5
CD
100
AcDbEntity
  8
0
 62
             1
100
AcDbMText
 10
-340.59571999999997
 20
-42.89776643772289
 30
0.0
 40
7.0
 41
0.0
 71
             7
 72
             1
  1
\C1;DN\C1;32\C1;
  7
CONVERTER_1
 11
0.0
 21
1.0
 31
0.0
  0
ENDBLK
  5
CE
100
AcDbEntity
  8
0
100
AcDbBlockEnd
  0
BLOCK
  5
D2
100
AcDbEntity
  8
0
100
AcDbBlockBegin
  2
*D6
 70
             1
 10
0.0
 20
0.0
 30
0.0
  3
*D6
  1

  0
LINE
  5
D3
100
AcDbEntity
  8
0
  6
CONTINUOUS
 62
             4
100
AcDbLine
 10
-356.26777079006399
 20
-115.87904200000003
 11
-356.26777079006399
 21
0.06387699999999
  0
LINE
  5
D4
100
AcDbEntity
  8
0
  6
CONTINUOUS
 62
             4
100
AcDbLine
 10
-267.16600100000011
 20
-115.87904200000003
 11
-358.26777079006399
 21
-115.87904200000003
  0
LINE
  5
D5
100
AcDbEntity
  8
0
  6
CONTINUOUS
 62
             4
100
AcDbLine
 10
-326.59571999999997
 20
0.06387699999999
 11
-358.26777079006399
 21
0.06387699999999
  0
SOLID
  5
D6
100
AcDbEntity
  8
0
 62
             4
100
AcDbTrace
 10
-355.34620330695225
 20
-6.93612300000001
 11
-357.18933827317574
 21
-6.93612300000001
 12
-356.26777079006399
 22
0.06387699999999
 13
-356.26777079006399
 23
0.06387699999999
  0
SOLID
  5
D7
100
AcDbEntity
  8
0
 62
             4
100
AcDbTrace
 10
-357.18933827317574
 20
-108.87904200000003
 11
-355.34620330695225
 21
-108.87904200000003
 12
-356.26777079006399
 22
-115.87904200000003
 13
-356.26777079006399
 23
-115.87904200000003
  0
MTEXT
  5
D8
100
AcDbEntity
  8
0
 62
             1
100
AcDbMText
 10
-358.26777079006399
 20
-58.91952305057798
 30
0.0
 40
7.0
 41
0.0
 71
             7
 72
             1
  1
116
  7
CONVERTER_1
 11
0.0
 21
1.0
 31
0.0
  0
ENDBLK
  5
D9
100
AcDbEntity
  8
0
100
AcDbBlockEnd
  0
BLOCK
  5
DD
100
AcDbEntity
  8
0
100
AcDbBlockBegin
  2
*D7
 70
             1
 10
0.0
 20
0.0
 30
0.0
  3
*D7
  1

  0
LINE
  5
DE
100
AcDbEntity
  8
0
  6
CONTINUOUS
 62
             4
100
AcDbLine
 10
-276.16298300000011
 20
-170.879042
 11
-276.16298300000011
 21
-115.879042
  0
LINE
  5
DF
100
AcDbEntity
  8
0
  6
CONTINUOUS
 62
             4
100
AcDbLine
 10
-262.82515999999998
 20
-170.879042
 11
-278.16298300000011
 21
-170.879042
  0
LINE
  5
E0
100
AcDbEntity
  8
0
  6
CONTINUOUS
 62
             4
100
AcDbLine
 10
-267.16600100000011
 20
-115.879042
 11
-278.16298300000011
 21
-115.879042
  0
SOLID
  5
E1
100
AcDbEntity
  8
0
 62
             4
100
AcDbTrace
 10
-277.08455048311185
 20
-163.879042
 11
-275.24141551688837
 21
-163.879042
 12
-276.16298300000011
 22
-170.879042
 13
-276.16298300000011
 23
-170.879042
  0
SOLID
  5
E2
100
AcDbEntity
  8
0
 62
             4
100
AcDbTrace
 10
-275.24141551688837
 20
-122.879042
 11
-277.08455048311185
 21
-122.879042
 12
-276.16298300000011
 22
-115.879042
 13
-276.16298300000011
 23
-115.879042
  0
MTEXT
  5
E3
100
AcDbEntity
  8
0
 62
             1
100
AcDbMText
 10
-278.16298300000011
 20
-149.15083191872199
 30
0.0
 40
7.0
 41
0.0
 71
             7
 72
             1
  1
55
  7
CONVERTER_1
 11
0.0
 21
1.0
 31
0.0
  0
ENDBLK
  5
E4
100
AcDbEntity
  8
0
100
AcDbBlockEnd
  0
BLOCK
  5
E8
100
AcDbEntity
  8
0
100
AcDbBlockBegin
  2
*D8
 70
             1
 10
0.0
 20
0.0
 30
0.0
  3
*D8
  1

  0
LINE
  5
E9
100
AcDbEntity
  8
0
  6
CONTINUOUS
 62
             4
100
AcDbLine
 10
-263.76298300000002
 20
-184.04372993843589
 11
-223.66298300000011
 21
-184.04372993843589
  0
LINE
  5
EA
100
AcDbEntity
  8
0
  6
CONTINUOUS
 62
             4
100
AcDbLine
 10
-263.76298300000002
 20
-167.37904199999997
 11
-263.76298300000002
 21
-186.04372993843589
  0
LINE
  5
EB
100
AcDbEntity
  8
0
  6
CONTINUOUS
 62
             4
100
AcDbLine
 10
-223.66298300000011
 20
-167.37904199999997
 11
-223.66298300000011
 21
-186.04372993843589
  0
SOLID
  5
EC
100
AcDbEntity
  8
0
 62
             4
100
AcDbTrace
 10
-230.66298300000011
 20
-184.96529742154766
 11
-230.66298300000011
 21
-183.12216245532412
 12
-223.66298300000011
 22
-184.04372993843589
 13
-223.66298300000011
 23
-184.04372993843589
  0
SOLID
  5
ED
100
AcDbEntity
  8
0
 62
             4
100
AcDbTrace
 10
-256.76298300000002
 20
-183.12216245532412
 11
-256.76298300000002
 21
-184.96529742154766
 12
-263.76298300000002
 22
-184.04372993843589
 13
-263.76298300000002
 23
-184.04372993843589
  0
MTEXT
  5
EE
100
AcDbEntity
  8
0
 62
             1
100
AcDbMText
 10
-254.32555381815729
 20
-182.04375776674118
 30
0.0
 40
7.0
 41
0.0
 71
             7
 72
             1
  1
\C1;DN\C1;40
  7
CONVERTER_1
 11
0.99999999999706
 21
0.00000242406841
 31
0.0
  0
ENDBLK
  5
EF
100
AcDbEntity
  8
0
100
AcDbBlockEnd
  0
BLOCK
  5
F3
100
AcDbEntity
  8
0
100
AcDbBlockBegin
  2
*D9
 70
             1
 10
0.0
 20
0.0
 30
0.0
  3
*D9
  1

  0
LINE
  5
F4
100
AcDbEntity
  8
0
  6
CONTINUOUS
 62
             4
100
AcDbLine
 10
-126.99000000000011
 20
47.5
 11
-100.00000000000004
 21
47.5
  0
LINE
  5
F5
100
AcDbEntity
  8
0
  6
CONTINUOUS
 62
             4
100
AcDbLine
 10
-126.99000000000011
 20
32.56387700000005
 11
-126.99000000000011
 21
49.5
  0
LINE
  5
F6
100
AcDbEntity
  8
0
  6
CONTINUOUS
 62
             4
100
AcDbLine
 10
-100.00000000000004
 20
37.5
 11
-100.00000000000004
 21
49.5
  0
SOLID
  5
F7
100
AcDbEntity
  8
0
 62
             4
100
AcDbTrace
 10
-107.00000000000004
 20
46.57843251688823
 11
-107.00000000000004
 21
48.42156748311177
 12
-100.00000000000004
 22
47.5
 13
-100.00000000000004
 23
47.5
  0
SOLID
  5
F8
100
AcDbEntity
  8
0
 62
             4
100
AcDbTrace
 10
-119.99000000000011
 20
48.42156748311177
 11
-119.99000000000011
 21
46.57843251688823
 12
-126.99000000000011
 22
47.5
 13
-126.99000000000011
 23
47.5
  0
MTEXT
  5
F9
100
AcDbEntity
  8
0
 62
             1
100
AcDbMText
 10
-119.0320045930561
 20
49.5
 30
0.0
 40
7.0
 41
0.0
 71
             7
 72
             1
  1
27
  7
CONVERTER_1
 11
0.99999999999706
 21
0.00000242406841
 31
0.0
  0
ENDBLK
  5
FA
100
AcDbEntity
  8
0
100
AcDbBlockEnd
  0
BLOCK
  5
FE
100
AcDbEntity
  8
0
100
AcDbBlockBegin
  2
*D10
 70
             1
 10
0.0
 20
0.0
 30
0.0
  3
*D10
  1

  0
LINE
  5
FF
100
AcDbEntity
  8
0
  6
CONTINUOUS
 62
             4
100
AcDbLine
 10
-154.99000000000004
 20
62.69008343770724
 11
-61.98999999999997
 21
62.69008343770724
  0
LINE
  5
100
100
AcDbEntity
  8
0
  6
CONTINUOUS
 62
             4
100
AcDbLine
 10
-154.99000000000004
 20
-4.43612299999995
 11
-154.99000000000004
 21
64.69008343770724
  0
LINE
  5
101
100
AcDbEntity
  8
0
  6
CONTINUOUS
 62
             4
100
AcDbLine
 10
-61.98999999999997
 20
-4.43612300000029
 11
-61.98999999999997
 21
64.69008343770724
  0
SOLID
  5
102
100
AcDbEntity
  8
0
 62
             4
100
AcDbTrace
 10
-68.98999999999998
 20
61.76851595459547
 11
-68.98999999999998
 21
63.61165092081902
 12
-61.98999999999997
 22
62.69008343770724
 13
-61.98999999999997
 23
62.69008343770724
  0
SOLID
  5
103
100
AcDbEntity
  8
0
 62
             4
100
AcDbTrace
 10
-147.99000000000004
 20
63.61165092081902
 11
-147.99000000000004
 21
61.76851595459547
 12
-154.99000000000004
 22
62.69008343770724
 13
-154.99000000000004
 23
62.69008343770724
  0
MTEXT
  5
104
100
AcDbEntity
  8
0
 62
             1
100
AcDbMText
 10
-114.771159639316
 20
64.69008343770724
 30
0.0
 40
7.0
 41
0.0
 71
             7
 72
             1
  1
93
  7
CONVERTER_1
 11
0.99999999999706
 21
0.00000242406841
 31
0.0
  0
ENDBLK
  5
105
100
AcDbEntity
  8
0
100
AcDbBlockEnd
  0
BLOCK
  5
109
100
AcDbEntity
  8
0
100
AcDbBlockBegin
  2
*D11
 70
             1
 10
0.0
 20
0.0
 30
0.0
  3
*D11
  1

  0
LINE
  5
10A
100
AcDbEntity
  8
0
  6
CONTINUOUS
 62
             4
100
AcDbLine
 10
-164.99000000000009
 20
-170.92853200000002
 11
-164.99000000000009
 21
-9.93612299999995
  0
LINE
  5
10B
100
AcDbEntity
  8
0
  6
CONTINUOUS
 62
             4
100
AcDbLine
 10
-119.11217800000011
 20
-170.92853200000002
 11
-166.99000000000009
 21
-170.92853200000002
  0
LINE
  5
10C
100
AcDbEntity
  8
0
  6
CONTINUOUS
 62
             4
100
AcDbLine
 10
-154.99000000000009
 20
-9.93612299999995
 11
-166.99000000000009
 21
-9.93612299999995
  0
SOLID
  5
10D
100
AcDbEntity
  8
0
 62
             4
100
AcDbTrace
 10
-165.91156748311187
 20
-163.92853200000002
 11
-164.06843251688832
 21
-163.92853200000002
 12
-164.99000000000009
 22
-170.92853200000002
 13
-164.99000000000009
 23
-170.92853200000002
  0
SOLID
  5
10E
100
AcDbEntity
  8
0
 62
             4
100
AcDbTrace
 10
-164.06843251688832
 20
-16.93612299999995
 11
-165.91156748311187
 21
-16.93612299999995
 12
-164.99000000000009
 22
-9.93612299999995
 13
-164.99000000000009
 23
-9.93612299999995
  0
MTEXT
  5
10F
100
AcDbEntity
  8
0
 62
             1
100
AcDbMText
 10
-166.99000000000009
 20
-100.06575452893598
 30
0.0
 40
7.0
 41
0.0
 71
             7
 72
             1
  1
161
  7
CONVERTER_1
 11
0.0
 21
1.0
 31
0.0
  0
ENDBLK
  5
110
100
AcDbEntity
  8
0
100
AcDbBlockEnd
  0
BLOCK
  5
114
100
AcDbEntity
  8
0
100
AcDbBlockBegin
  2
*D12
 70
             1
 10
0.0
 20
0.0
 30
0.0
  3
*D12
  1

  0
LINE
  5
115
100
AcDbEntity
  8
0
  6
CONTINUOUS
 62
             4
100
AcDbLine
 10
-178.58947943432611
 20
-170.92853200000002
 11
-178.58947943432611
 21
27.06387700000005
  0
LINE
  5
116
100
AcDbEntity
  8
0
  6
CONTINUOUS
 62
             4
100
AcDbLine
 10
-119.11217800000013
 20
-170.92853200000002
 11
-180.58947943432611
 21
-170.92853200000002
  0
LINE
  5
117
100
AcDbEntity
  8
0
  6
CONTINUOUS
 62
             4
100
AcDbLine
 10
-141.59000000000009
 20
27.06387700000005
 11
-180.58947943432611
 21
27.06387700000005
  0
SOLID
  5
118
100
AcDbEntity
  8
0
 62
             4
100
AcDbTrace
 10
-179.51104691743788
 20
-163.92853200000002
 11
-177.66791195121434
 21
-163.92853200000002
 12
-178.58947943432611
 22
-170.92853200000002
 13
-178.58947943432611
 23
-170.92853200000002
  0
SOLID
  5
119
100
AcDbEntity
  8
0
 62
             4
100
AcDbTrace
 10
-177.66791195121434
 20
20.06387700000005
 11
-179.51104691743788
 21
20.06387700000005
 12
-178.58947943432611
 22
27.06387700000005
 13
-178.58947943432611
 23
27.06387700000005
  0
MTEXT
  5
11A
100
AcDbEntity
  8
0
 62
             1
100
AcDbMText
 10
-180.58947943432611
 20
-78.11840452861893
 30
0.0
 40
7.0
 41
0.0
 71
             7
 72
             1
  1
198
  7
CONVERTER_1
 11
0.0
 21
1.0
 31
0.0
  0
ENDBLK
  5
11B
100
AcDbEntity
  8
0
100
AcDbBlockEnd
  0
ENDSEC
  0
SECTION
  2
ENTITIES
  0
DIMENSION
  5
11D
100
AcDbEntity
  8
1
100
AcDbDimension
  2
*D12
 10
-178.58947943432611
 20
-170.92853200000002
 11
-184.08947943432611
 21
-70.76840452861892
 31
0.0
 53
-90.00000000000003
  1
<>
  3
ME10_DIM_9
100
AcDbAlignedDimension
 13
-141.59
 23
27.06387700000005
 14
-119.1121780000001
 24
-170.92853199999999
 50
-90.00000000000003
100
AcDbRotatedDimension
  0
DIMENSION
  5
112
100
AcDbEntity
  8
1
100
AcDbDimension
  2
*D11
 10
-164.99000000000009
 20
-170.92853200000002
 11
-170.49000000000009
 21
-93.76575452893599
 31
0.0
 53
90.00000000000003
  1
<>
  3
ME10_DIM_8
100
AcDbAlignedDimension
 13
-154.99000000000009
 23
-9.93612299999995
 14
-119.1121780000001
 24
-170.92853199999999
 50
90.00000000000003
100
AcDbRotatedDimension
  0
DIMENSION
  5
107
100
AcDbEntity
  8
1
100
AcDbDimension
  2
*D10
 10
-61.98999999999997
 20
62.69008343770724
 11
-109.521159639316
 21
68.19008343770724
 31
0.0
 53
180.0
  1
<>
  3
ME10_DIM_7
100
AcDbAlignedDimension
 13
-154.99000000000009
 23
-4.43612299999995
 14
-61.99000000000001
 24
-4.43612300000029
 50
180.0
100
AcDbRotatedDimension
  0
DIMENSION
  5
FC
100
AcDbEntity
  8
1
100
AcDbDimension
  2
*D9
 10
-100.00000000000004
 20
47.5
 11
-113.7820045930561
 21
53.0
 31
0.0
 53
0.00013888888889
  1
<>
  3
ME10_DIM_6
100
AcDbAlignedDimension
 13
-126.99000000000009
 23
32.56387700000005
 14
-100.0
 24
37.5
100
AcDbRotatedDimension
  0
DIMENSION
  5
F1
100
AcDbEntity
  8
1
100
AcDbDimension
  2
*D8
 10
-223.66298300000011
 20
-184.04372993843589
 11
-245.295553818191
 21
-178.54372993843589
 31
0.0
 53
180.0
  1
DN40
  3
ME10_DIM_5
100
AcDbAlignedDimension
 13
-263.76298300000002
 23
-167.379042
 14
-223.66298300000011
 24
-167.379042
 50
180.0
100
AcDbRotatedDimension
  0
DIMENSION
  5
E6
100
AcDbEntity
  8
1
100
AcDbDimension
  2
*D7
 10
-276.16298300000011
 20
-170.879042
 11
-281.66298300000011
 21
-143.90083191872199
 31
0.0
 53
90.00000000000003
  1
<>
  3
ME10_DIM_4
100
AcDbAlignedDimension
 13
-267.16600100000011
 23
-115.879042
 14
-262.82515999999998
 24
-170.879042
 50
90.00000000000003
100
AcDbRotatedDimension
  0
DIMENSION
  5
DB
100
AcDbEntity
  8
1
100
AcDbDimension
  2
*D6
 10
-356.26777079006399
 20
0.06387699999999
 11
-361.76777079006399
 21
-52.61952305057798
 31
0.0
 53
90.00000000000003
  1
<>
  3
ME10_DIM_3
100
AcDbAlignedDimension
 13
-267.16600100000011
 23
-115.879042
 14
-326.59571999999997
 24
0.06387699999999
 50
90.00000000000003
100
AcDbRotatedDimension
  0
DIMENSION
  5
D0
100
AcDbEntity
  8
1
100
AcDbDimension
  2
*D5
 10
-338.59571999999997
 20
16.06387699999999
 11
-344.09571999999997
 21
-33.8677664377229
 31
0.0
 53
90.00000000000003
  1
<>
  3
ME10_DIM_2
100
AcDbAlignedDimension
 13
-328.59571999999997
 23
-15.93612300000001
 14
-328.59571999999997
 24
16.06387699999999
 50
90.00000000000003
100
AcDbRotatedDimension
  0
DIMENSION
  5
C4
100
AcDbEntity
  8
1
100
AcDbDimension
  2
*D4
 10
-326.59571999999997
 20
47.56387699999999
 11
-305.68871027452298
 21
53.06387699999999
 31
0.0
 53
180.0
  1
<>
  3
ME10_DIM_1
100
AcDbAlignedDimension
 13
-286.59571999999997
 23
37.56387699999999
 14
-326.59571999999997
 24
37.56387699999999
 50
180.0
100
AcDbRotatedDimension
  0
DIMENSION
  5
B9
100
AcDbEntity
  8
1
100
AcDbDimension
  2
*D3
 10
-222.66298300000011
 20
47.56387699999999
 11
-258.09836395591202
 21
53.06387699999999
 31
0.0
 53
180.0
  1
64
  3
ME10_DIM_0
100
AcDbAlignedDimension
 13
-286.59571999999997
 23
27.31368000000003
 14
-222.66298300000011
 24
31.81388300000003
 50
180.0
100
AcDbRotatedDimension
  0
INSERT
  5
31
100
AcDbEntity
  8
1
100
AcDbBlockReference
  2
EINBAUSIFON__1
 10
-365.26777079006399
 20
-186.04372993843589
  0
INSERT
  5
32
100
AcDbEntity
  8
1
100
AcDbBlockReference
  2
EINBAUSIFON__2
 10
-187.58947943432611
 20
-170.92853199999999
  0
INSERT
  5
33
100
AcDbEntity
  8
1
100
AcDbBlockReference
  2
SIFONEINSATZ
 10
-131.4202647000001
 20
-78.11612299999996
  0
ENDSEC
  0
SECTION
  2
OBJECTS
  0
DICTIONARY
  5
19
100
AcDbDictionary
  3
ACAD_GROUP
350
1A
  3
ACAD_MLINESTYLE
350
1B
  0
DICTIONARY
  5
1A
102
{ACAD_REACTORS
330
19
102
}
100
AcDbDictionary
  0
DICTIONARY
  5
1B
102
{ACAD_REACTORS
330
19
102
}
100
AcDbDictionary
  3
STANDARD
350
1C
  0
MLINESTYLE
  5
1C
102
{ACAD_REACTORS
330
1B
102
}
100
AcDbMlineStyle
  2
STANDARD
 70
             0
  3

 62
             0
 51
90.0
 52
90.0
 71
             2
 49
0.5
 62
           256
  6
BYLAYER
 49
-0.5
 62
           256
  6
BYLAYER
  0
ENDSEC
  0
EOF
