  0
SECTION
  2
HEADER
  9
$ACADVER
  1
AC1014
  9
$ACADMAINTVER
 70
             0
  9
$DWGCODEPAGE
  3
ANSI_1252
  9
$INSBASE
 10
0.0
 20
0.0
 30
0.0
  9
$EXTMIN
 10
-326.37376569140002
 20
-196.08750212677191
 30
0.0
  9
$EXTMAX
 10
149.98391651677201
 20
75.3426221676221
 30
0.0
  9
$LIMMIN
 10
0.0
 20
0.0
  9
$LIMMAX
 10
0.0
 20
0.0
  9
$ORTHOMODE
 70
             0
  9
$REGENMODE
 70
             1
  9
$FILLMODE
 70
             1
  9
$QTEXTMODE
 70
             0
  9
$MIRRTEXT
 70
             1
  9
$DRAGMODE
 70
             2
  9
$LTSCALE
 40
1.0
  9
$OSMODE
 70
             0
  9
$ATTMODE
 70
             1
  9
$TEXTSIZE
 40
0.2
  9
$TRACEWID
 40
0.05
  9
$TEXTSTYLE
  7
STANDARD
  9
$CLAYER
  8
0
  9
$CELTYPE
  6
CONTINUOUS
  9
$CECOLOR
 62
           256
  9
$CELTSCALE
 40
1.0
  9
$DELOBJ
 70
             1
  9
$DISPSILH
 70
             0
  9
$DIMSCALE
 40
1.0
  9
$DIMASZ
 40
0.18
  9
$DIMEXO
 40
0.0625
  9
$DIMDLI
 40
0.38
  9
$DIMRND
 40
0.0
  9
$DIMDLE
 40
0.0
  9
$DIMEXE
 40
0.18
  9
$DIMTP
 40
0.0
  9
$DIMTM
 40
0.0
  9
$DIMTXT
 40
0.18
  9
$DIMCEN
 40
0.09
  9
$DIMTSZ
 40
0.0
  9
$DIMTOL
 70
             0
  9
$DIMLIM
 70
             0
  9
$DIMTIH
 70
             1
  9
$DIMTOH
 70
             1
  9
$DIMSE1
 70
             0
  9
$DIMSE2
 70
             0
  9
$DIMTAD
 70
             0
  9
$DIMZIN
 70
             0
  9
$DIMBLK
  1

  9
$DIMASO
 70
             1
  9
$DIMSHO
 70
             1
  9
$DIMPOST
  1

  9
$DIMAPOST
  1

  9
$DIMALT
 70
             0
  9
$DIMALTD
 70
             2
  9
$DIMALTF
 40
25.4
  9
$DIMLFAC
 40
1.0
  9
$DIMTOFL
 70
             0
  9
$DIMTVP
 40
0.0
  9
$DIMTIX
 70
             0
  9
$DIMSOXD
 70
             0
  9
$DIMSAH
 70
             0
  9
$DIMBLK1
  1

  9
$DIMBLK2
  1

  9
$DIMSTYLE
  2
STANDARD
  9
$DIMCLRD
 70
             0
  9
$DIMCLRE
 70
             0
  9
$DIMCLRT
 70
             0
  9
$DIMTFAC
 40
1.0
  9
$DIMGAP
 40
0.09
  9
$DIMJUST
 70
             0
  9
$DIMSD1
 70
             0
  9
$DIMSD2
 70
             0
  9
$DIMTOLJ
 70
             1
  9
$DIMTZIN
 70
             0
  9
$DIMALTZ
 70
             0
  9
$DIMALTTZ
 70
             0
  9
$DIMFIT
 70
             3
  9
$DIMUPT
 70
             0
  9
$DIMUNIT
 70
             2
  9
$DIMDEC
 70
             4
  9
$DIMTDEC
 70
             4
  9
$DIMALTU
 70
             2
  9
$DIMALTTD
 70
             2
  9
$DIMTXSTY
  7
STANDARD
  9
$DIMAUNIT
 70
             0
  9
$LUNITS
 70
             2
  9
$LUPREC
 70
             4
  9
$SKETCHINC
 40
0.1
  9
$FILLETRAD
 40
0.0
  9
$AUNITS
 70
             0
  9
$AUPREC
 70
             0
  9
$MENU
  1
acad
  9
$ELEVATION
 40
0.0
  9
$PELEVATION
 40
0.0
  9
$THICKNESS
 40
0.0
  9
$LIMCHECK
 70
             0
  9
$BLIPMODE
 70
             1
  9
$CHAMFERA
 40
0.0
  9
$CHAMFERB
 40
0.0
  9
$CHAMFERC
 40
0.0
  9
$CHAMFERD
 40
0.0
  9
$SKPOLY
 70
             0
  9
$TDCREATE
 40
0.000000000
  9
$TDUPDATE
 40
0.000000000
  9
$TDINDWG
 40
0.0000000000
  9
$TDUSRTIMER
 40
0.0000000000
  9
$USRTIMER
 70
             1
  9
$ANGBASE
 50
0.0
  9
$ANGDIR
 70
             0
  9
$PDMODE
 70
             0
  9
$PDSIZE
 40
0.0
  9
$PLINEWID
 40
0.0
  9
$COORDS
 70
             0
  9
$SPLFRAME
 70
             0
  9
$SPLINETYPE
 70
             6
  9
$SPLINESEGS
 70
             8
  9
$ATTDIA
 70
             0
  9
$ATTREQ
 70
             1
  9
$HANDLING
 70
             1
  9
$HANDSEED
  5
308
  9
$SURFTAB1
 70
             6
  9
$SURFTAB2
 70
             6
  9
$SURFTYPE
 70
             6
  9
$SURFU
 70
             6
  9
$SURFV
 70
             6
  9
$UCSNAME
  2

  9
$UCSORG
 10
0.0
 20
0.0
 30
0.0
  9
$UCSXDIR
 10
1.0
 20
0.0
 30
0.0
  9
$UCSYDIR
 10
0.0
 20
1.0
 30
0.0
  9
$PUCSNAME
  2

  9
$PUCSORG
 10
0.0
 20
0.0
 30
0.0
  9
$PUCSXDIR
 10
1.0
 20
0.0
 30
0.0
  9
$PUCSYDIR
 10
0.0
 20
1.0
 30
0.0
  9
$USERI1
 70
             0
  9
$USERI2
 70
             0
  9
$USERI3
 70
             0
  9
$USERI4
 70
             0
  9
$USERI5
 70
             0
  9
$USERR1
 40
12.01
  9
$USERR2
 40
0.0
  9
$USERR3
 40
0.0
  9
$USERR4
 40
0.0
  9
$USERR5
 40
0.0
  9
$WORLDVIEW
 70
             1
  9
$SHADEDGE
 70
             3
  9
$SHADEDIF
 70
            70
  9
$TILEMODE
 70
             1
  9
$MAXACTVP
 70
            16
  9
$PINSBASE
 10
0.0
 20
0.0
 30
0.0
  9
$PLIMCHECK
 70
             0
  9
$PEXTMIN
 10
1.00000000000000E+20
 20
1.00000000000000E+20
 30
1.00000000000000E+20
  9
$PEXTMAX
 10
-1.00000000000000E+20
 20
-1.00000000000000E+20
 30
-1.00000000000000E+20
  9
$PLIMMIN
 10
0.0
 20
0.0
  9
$PLIMMAX
 10
12.0
 20
9.0
  9
$UNITMODE
 70
             0
  9
$VISRETAIN
 70
             0
  9
$PLINEGEN
 70
             1
  9
$PSLTSCALE
 70
             0
  9
$TREEDEPTH
 70
          3020
  9
$PICKSTYLE
 70
             1
  9
$CMLSTYLE
  2
STANDARD
  9
$CMLJUST
 70
             0
  9
$CMLSCALE
 40
1.0
  9
$PROXYGRAPHICS
 70
             0
  9
$MEASUREMENT
 70
             1
  0
ENDSEC
  0
SECTION
  2
CLASSES
  0
CLASS
  1
LWPOLYLINE
  2
AcDbPolyline
  3
"AutoCAD"
 90
        0
280
             0
281
             1
  0
CLASS
  1
IMAGE
  2
AcDbRasterImage
  3
ISM
 90
      127
280
             0
281
             1
  0
CLASS
  1
OLE2FRAME
  2
AcDbOle2Frame
  3
""
 90
        0
280
             0
281
             1
  0
CLASS
  1
HATCH
  2
AcDbHatch
  3
"ACAD_SEDONA"
 90
        0
280
             0
281
             1
  0
CLASS
  1
DICTIONARYVAR
  2
AcDbDictionaryVar
  3
"AutoCAD"
 90
        0
280
             0
281
             0
  0
CLASS
  1
RASTERVARIABLES
  2
AcDbRasterVariables
  3
ISM
 90
        0
280
             0
281
             0
  0
CLASS
  1
IMAGEDEF
  2
AcDbRasterImageDef
  3
ISM
 90
        0
280
             0
281
             0
  0
CLASS
  1
IMAGEDEF_REACTOR
  2
AcDbRasterImageDefReactor
  3
ISM
 90
        1
280
             0
281
             0
  0
CLASS
  1
IDBUFFER
  2
AcDbIdBuffer
  3
"Acad"
 90
        0
280
             0
281
             0
  0
CLASS
  1
SPATIAL_FILTER
  2
AcDbSpatialFilter
  3
"Acad"
 90
        0
280
             0
281
             0
  0
CLASS
  1
XRECORD
  2
AcDbXrecord
  3
"<Built In>"
 90
        0
280
             0
281
             0
  0
CLASS
  1
SORTENTSTABLE
  2
AcDbSortentsTable
  3
"AutoCAD"
 90
        0
280
             0
281
             0
  0
CLASS
  1
LAYER_INDEX
  2
AcDbLayerIndex
  3
"Acad"
 90
        0
280
             0
281
             0
  0
CLASS
  1
SPATIAL_INDEX
  2
AcDbSpatialIndex
  3
"Acad"
 90
        0
280
             0
281
             0
  0
CLASS
  1
OBJECT_PTR
  2
CAseDLPNTableRecord
  3
"ASE-LPNTableRecord"
 90
        1
280
             0
281
             0
  0
CLASS
  1
LAYOUT
  2
AcDbLayout
  3
"AutoCAD 2000"
 90
        0
280
             0
281
             0
  0
CLASS
  1
PLOTSETTINGS
  2
AcDbPlotSettings
  3
"AutoCAD 2000"
 90
        0
280
             0
281
             0
  0
CLASS
  1
ACDBDICTIONARYWDFLT
  2
AcDbDictionaryWithDefault
  3
"AutoCAD 2000"
 90
        0
280
             0
281
             0
  0
CLASS
  1
ACDBPLACEHOLDER
  2
AcDbPlaceHolder
  3
"AutoCAD 2000"
 90
        0
280
             0
281
             0
  0
ENDSEC
  0
SECTION
  2
TABLES
  0
TABLE
  2
VPORT
  5
7
100
AcDbSymbolTable
 70
             1
  0
VPORT
  5
15
100
AcDbSymbolTableRecord
100
AcDbViewportTableRecord
  2
*ACTIVE
 70
             0
 10
0.0
 20
0.0
 11
1.0
 21
1.0
 12
-88.19492458731401
 22
-60.37243997957491
 13
0.0
 23
0.0
 14
1.0
 24
1.0
 15
0.0
 25
0.0
 16
0.0
 26
0.0
 36
1.0
 17
0.0
 27
0.0
 37
0.0
 40
326.94855959914668
 41
1.60267857142857
 42
50.0
 43
0.0
 44
0.0
 50
0.0
 51
0.0
 71
             0
 72
           100
 73
             1
 74
             1
 75
             0
 76
             0
 77
             0
 78
             0
  0
ENDTAB
  0
TABLE
  2
LTYPE
  5
4
100
AcDbSymbolTable
 70
            11
  0
LTYPE
  5
11
100
AcDbSymbolTableRecord
100
AcDbLinetypeTableRecord
  2
BYBLOCK
 70
            64
  3

 72
            65
 73
             0
 40
0.0
  0
LTYPE
  5
12
100
AcDbSymbolTableRecord
100
AcDbLinetypeTableRecord
  2
BYLAYER
 70
            64
  3

 72
            65
 73
             0
 40
0.0
  0
LTYPE
  5
13
100
AcDbSymbolTableRecord
100
AcDbLinetypeTableRecord
  2
CONTINUOUS
 70
            64
  3
Solid line
 72
            65
 73
             0
 40
0.0
  0
LTYPE
  5
1D
100
AcDbSymbolTableRecord
100
AcDbLinetypeTableRecord
  2
DASHED
 70
            64
  3
Dashed
 72
            65
 73
             2
 40
15.0
 49
7.0
 74
             0
 49
-8.0
 74
             0
  0
LTYPE
  5
1E
100
AcDbSymbolTableRecord
100
AcDbLinetypeTableRecord
  2
DOTTED
 70
            64
  3
Dotted
 72
            65
 73
             2
 40
1.0
 49
0.0
 74
             0
 49
-1.0
 74
             0
  0
LTYPE
  5
1F
100
AcDbSymbolTableRecord
100
AcDbLinetypeTableRecord
  2
DOT_CENTER
 70
            64
  3
Dot_Center
 72
            65
 73
             4
 40
14.0
 49
12.0
 74
             0
 49
-1.0
 74
             0
 49
0.0
 74
             0
 49
-1.0
 74
             0
  0
LTYPE
  5
20
100
AcDbSymbolTableRecord
100
AcDbLinetypeTableRecord
  2
LONG_DASHED
 70
            64
  3
Long_Dashed
 72
            65
 73
             2
 40
15.0
 49
10.0
 74
             0
 49
-5.0
 74
             0
  0
LTYPE
  5
21
100
AcDbSymbolTableRecord
100
AcDbLinetypeTableRecord
  2
DASH_CENTER
 70
            64
  3
Dash_Center
 72
            65
 73
             4
 40
14.0
 49
11.0
 74
             0
 49
-1.0
 74
             0
 49
1.0
 74
             0
 49
-1.0
 74
             0
  0
LTYPE
  5
22
100
AcDbSymbolTableRecord
100
AcDbLinetypeTableRecord
  2
PHANTOM
 70
            64
  3
Phantom
 72
            65
 73
             6
 40
13.0
 49
10.0
 74
             0
 49
-1.0
 74
             0
 49
0.0
 74
             0
 49
-1.0
 74
             0
 49
0.0
 74
             0
 49
-1.0
 74
             0
  0
LTYPE
  5
23
100
AcDbSymbolTableRecord
100
AcDbLinetypeTableRecord
  2
CENTER_DASH_DASH
 70
            64
  3
Center_Dash_Dash
 72
            65
 73
             6
 40
14.0
 49
9.0
 74
             0
 49
-1.0
 74
             0
 49
1.0
 74
             0
 49
-1.0
 74
             0
 49
1.0
 74
             0
 49
-1.0
 74
             0
  0
LTYPE
  5
24
100
AcDbSymbolTableRecord
100
AcDbLinetypeTableRecord
  2
DASHDOT
 70
            64
  3
DASHDOT
 72
            65
 73
             4
 40
16.0
 49
10.0
 74
             0
 49
-3.0
 74
             0
 49
0.0
 74
             0
 49
-3.0
 74
             0
  0
ENDTAB
  0
TABLE
  2
LAYER
  5
2
100
AcDbSymbolTable
 70
             4
  0
LAYER
  5
14
100
AcDbSymbolTableRecord
100
AcDbLayerTableRecord
  2
0
 70
             0
 62
             7
  6
CONTINUOUS
  0
LAYER
  5
25
100
AcDbSymbolTableRecord
100
AcDbLayerTableRecord
  2
1
 70
             0
 62
             7
  6
CONTINUOUS
  0
LAYER
  5
26
100
AcDbSymbolTableRecord
100
AcDbLayerTableRecord
  2
LC-001-002-----0
 70
             0
 62
             7
  6
CONTINUOUS
  0
LAYER
  5
27
100
AcDbSymbolTableRecord
100
AcDbLayerTableRecord
  2
LC-006-002-RND-0
 70
             0
 62
             7
  6
CONTINUOUS
  0
ENDTAB
  0
TABLE
  2
STYLE
  5
3
100
AcDbSymbolTable
 70
             3
  0
STYLE
  5
17
100
AcDbSymbolTableRecord
100
AcDbTextStyleTableRecord
  2
STANDARD
 70
             0
 40
0.0
 41
1.0
 50
0.0
 71
             0
 42
0.0
  3
txt
  4

  0
STYLE
  5
1A9
100
AcDbSymbolTableRecord
100
AcDbTextStyleTableRecord
  2
CONVERTER_1
 70
             0
 40
0.0
 41
0.95
 50
0.0
 71
             0
 42
0.0
  3
complex.shx
  4

  0
STYLE
  5
263
100
AcDbSymbolTableRecord
100
AcDbTextStyleTableRecord
  2
CONVERTER_2
 70
             0
 40
0.0
 41
0.9
 50
0.0
 71
             0
 42
0.0
  3
txt.shx
  4

  0
ENDTAB
  0
TABLE
  2
VIEW
  5
5
100
AcDbSymbolTable
 70
             0
  0
ENDTAB
  0
TABLE
  2
UCS
  5
6
100
AcDbSymbolTable
 70
             0
  0
ENDTAB
  0
TABLE
  2
APPID
  5
8
100
AcDbSymbolTable
 70
             1
  0
APPID
  5
16
100
AcDbSymbolTableRecord
100
AcDbRegAppTableRecord
  2
ACAD
 70
             0
  0
ENDTAB
  0
TABLE
  2
DIMSTYLE
  5
9
100
AcDbSymbolTable
 70
            16
  0
DIMSTYLE
105
18
100
AcDbSymbolTableRecord
100
AcDbDimStyleTableRecord
  2
STANDARD
 70
             0
  3

  4

  5

  6

  7

 40
1.0
 41
0.18
 42
0.0625
 43
0.38
 44
0.18
 45
0.0
 46
0.0
 47
0.0
 48
0.0
 71
             0
 72
             0
 73
             1
 74
             1
 75
             0
 76
             0
 77
             0
 78
             0
140
0.18
141
0.09
142
0.0
143
25.4
144
1.0
145
0.0
146
1.0
147
0.09
170
             0
171
             2
172
             0
173
             0
174
             0
175
             0
176
             0
177
             0
178
             0
270
             2
271
             4
272
             4
273
             2
274
             2
275
             0
280
             0
281
             0
282
             0
283
             1
284
             0
285
             0
286
             0
287
             3
288
             0
340
17
  0
DIMSTYLE
105
266
100
AcDbSymbolTableRecord
100
AcDbDimStyleTableRecord
  2
ME10_DIM_0
 70
             0
  3

  4

  5

  6

  7

 40
1.0
 41
7.0
 42
0.0
 43
0.38
 44
2.0
 45
0.0
 46
0.0
 47
0.0
 48
0.0
 71
             0
 72
             0
 73
             0
 74
             0
 75
             0
 76
             0
 77
             1
 78
             8
140
7.0
141
0.09
142
0.0
143
25.4
144
1.0
145
0.0
146
1.0
147
0.625
170
             0
171
             2
172
             1
173
             1
174
             0
175
             0
176
             4
177
             4
178
             1
270
             2
271
             2
272
             4
273
             2
274
             2
275
             0
280
             0
281
             0
282
             0
283
             1
284
             0
285
             0
286
             0
287
             3
288
             0
340
263
  0
DIMSTYLE
105
271
100
AcDbSymbolTableRecord
100
AcDbDimStyleTableRecord
  2
ME10_DIM_1
 70
             0
  3

  4

  5

  6

  7

 40
1.0
 41
7.0
 42
0.0
 43
0.38
 44
2.0
 45
0.0
 46
0.0
 47
0.0
 48
0.0
 71
             0
 72
             0
 73
             0
 74
             0
 75
             0
 76
             0
 77
             1
 78
             8
140
7.0
141
0.09
142
0.0
143
25.4
144
1.0
145
0.0
146
1.0
147
0.625
170
             0
171
             2
172
             1
173
             1
174
             0
175
             0
176
             4
177
             4
178
             1
270
             2
271
             2
272
             4
273
             2
274
             2
275
             0
280
             0
281
             0
282
             0
283
             1
284
             0
285
             0
286
             0
287
             3
288
             0
340
263
  0
DIMSTYLE
105
27C
100
AcDbSymbolTableRecord
100
AcDbDimStyleTableRecord
  2
ME10_DIM_2
 70
             0
  3

  4

  5

  6

  7

 40
1.0
 41
7.0
 42
0.0
 43
0.38
 44
2.0
 45
0.0
 46
0.0
 47
0.0
 48
0.0
 71
             0
 72
             0
 73
             0
 74
             0
 75
             0
 76
             0
 77
             1
 78
             8
140
7.0
141
0.09
142
0.0
143
25.4
144
1.0
145
0.0
146
1.0
147
0.625
170
             0
171
             2
172
             1
173
             1
174
             0
175
             0
176
             4
177
             4
178
             1
270
             2
271
             2
272
             4
273
             2
274
             2
275
             0
280
             0
281
             0
282
             0
283
             1
284
             0
285
             0
286
             0
287
             3
288
             0
340
263
  0
DIMSTYLE
105
287
100
AcDbSymbolTableRecord
100
AcDbDimStyleTableRecord
  2
ME10_DIM_3
 70
             0
  3

  4

  5

  6

  7

 40
1.0
 41
7.0
 42
0.0
 43
0.38
 44
2.0
 45
0.0
 46
0.0
 47
0.0
 48
0.0
 71
             0
 72
             0
 73
             0
 74
             0
 75
             0
 76
             0
 77
             1
 78
             8
140
7.0
141
0.09
142
0.0
143
25.4
144
1.0
145
0.0
146
1.0
147
0.625
170
             0
171
             2
172
             1
173
             1
174
             0
175
             0
176
             4
177
             4
178
             1
270
             2
271
             2
272
             4
273
             2
274
             2
275
             0
280
             0
281
             0
282
             0
283
             1
284
             0
285
             0
286
             0
287
             3
288
             0
340
263
  0
DIMSTYLE
105
293
100
AcDbSymbolTableRecord
100
AcDbDimStyleTableRecord
  2
ME10_DIM_4
 70
             0
  3

  4

  5

  6

  7

 40
1.0
 41
7.0
 42
0.0
 43
0.38
 44
2.0
 45
0.0
 46
0.0
 47
0.0
 48
0.0
 71
             0
 72
             0
 73
             0
 74
             0
 75
             0
 76
             0
 77
             1
 78
             8
140
7.0
141
0.09
142
0.0
143
25.4
144
1.0
145
0.0
146
1.0
147
0.625
170
             0
171
             2
172
             1
173
             1
174
             0
175
             0
176
             4
177
             4
178
             1
270
             2
271
             2
272
             4
273
             2
274
             2
275
             0
280
             0
281
             0
282
             0
283
             1
284
             0
285
             0
286
             0
287
             3
288
             0
340
263
  0
DIMSTYLE
105
29E
100
AcDbSymbolTableRecord
100
AcDbDimStyleTableRecord
  2
ME10_DIM_5
 70
             0
  3

  4

  5

  6

  7

 40
1.0
 41
7.0
 42
0.0
 43
0.38
 44
2.0
 45
0.0
 46
0.0
 47
0.0
 48
0.0
 71
             0
 72
             0
 73
             0
 74
             0
 75
             0
 76
             0
 77
             1
 78
             8
140
7.0
141
0.09
142
0.0
143
25.4
144
1.0
145
0.0
146
1.0
147
0.625
170
             0
171
             2
172
             1
173
             1
174
             0
175
             0
176
             4
177
             4
178
             1
270
             2
271
             2
272
             4
273
             2
274
             2
275
             0
280
             0
281
             0
282
             0
283
             1
284
             0
285
             0
286
             0
287
             3
288
             0
340
263
  0
DIMSTYLE
105
2A9
100
AcDbSymbolTableRecord
100
AcDbDimStyleTableRecord
  2
ME10_DIM_6
 70
             0
  3

  4

  5

  6

  7

 40
1.0
 41
7.0
 42
0.0
 43
0.38
 44
2.0
 45
0.0
 46
0.0
 47
0.0
 48
0.0
 71
             0
 72
             0
 73
             0
 74
             0
 75
             0
 76
             0
 77
             1
 78
             8
140
7.0
141
0.09
142
0.0
143
25.4
144
1.0
145
0.0
146
1.0
147
0.625
170
             0
171
             2
172
             1
173
             1
174
             0
175
             0
176
             4
177
             4
178
             1
270
             2
271
             2
272
             4
273
             2
274
             2
275
             0
280
             0
281
             0
282
             0
283
             1
284
             0
285
             0
286
             0
287
             3
288
             0
340
263
  0
DIMSTYLE
105
2B5
100
AcDbSymbolTableRecord
100
AcDbDimStyleTableRecord
  2
ME10_DIM_7
 70
             0
  3

  4

  5

  6

  7

 40
1.0
 41
7.0
 42
0.0
 43
0.38
 44
2.0
 45
0.0
 46
0.0
 47
0.0
 48
0.0
 71
             0
 72
             0
 73
             0
 74
             0
 75
             0
 76
             0
 77
             1
 78
             8
140
7.0
141
0.09
142
0.0
143
25.4
144
1.0
145
0.0
146
1.0
147
0.625
170
             0
171
             2
172
             1
173
             1
174
             0
175
             0
176
             4
177
             4
178
             1
270
             2
271
             0
272
             4
273
             2
274
             2
275
             0
280
             0
281
             0
282
             0
283
             1
284
             0
285
             0
286
             0
287
             3
288
             0
340
263
  0
DIMSTYLE
105
2C0
100
AcDbSymbolTableRecord
100
AcDbDimStyleTableRecord
  2
ME10_DIM_8
 70
             0
  3

  4

  5

  6

  7

 40
1.0
 41
7.0
 42
0.0
 43
0.38
 44
2.0
 45
0.0
 46
0.0
 47
0.0
 48
0.0
 71
             0
 72
             0
 73
             0
 74
             0
 75
             0
 76
             0
 77
             1
 78
             8
140
7.0
141
0.09
142
0.0
143
25.4
144
1.0
145
0.0
146
1.0
147
0.625
170
             0
171
             2
172
             1
173
             1
174
             0
175
             0
176
             4
177
             4
178
             1
270
             2
271
             2
272
             4
273
             2
274
             2
275
             0
280
             0
281
             0
282
             0
283
             1
284
             0
285
             0
286
             0
287
             3
288
             0
340
263
  0
DIMSTYLE
105
2CB
100
AcDbSymbolTableRecord
100
AcDbDimStyleTableRecord
  2
ME10_DIM_9
 70
             0
  3

  4

  5

  6

  7

 40
1.0
 41
7.0
 42
0.0
 43
0.38
 44
2.0
 45
0.0
 46
0.0
 47
0.0
 48
0.0
 71
             0
 72
             0
 73
             0
 74
             0
 75
             0
 76
             0
 77
             1
 78
             8
140
7.0
141
0.09
142
0.0
143
25.4
144
1.0
145
0.0
146
1.0
147
0.625
170
             0
171
             2
172
             1
173
             1
174
             0
175
             0
176
             4
177
             4
178
             1
270
             2
271
             2
272
             4
273
             2
274
             2
275
             0
280
             0
281
             0
282
             0
283
             1
284
             0
285
             0
286
             0
287
             3
288
             0
340
263
  0
DIMSTYLE
105
2D7
100
AcDbSymbolTableRecord
100
AcDbDimStyleTableRecord
  2
ME10_DIM_10
 70
             0
  3
DN<>
  4

  5

  6

  7

 40
1.0
 41
7.0
 42
0.0
 43
0.38
 44
2.0
 45
0.0
 46
0.0
 47
0.0
 48
0.0
 71
             0
 72
             0
 73
             0
 74
             0
 75
             0
 76
             0
 77
             1
 78
             8
140
7.0
141
0.09
142
0.0
143
25.4
144
1.0
145
0.0
146
1.0
147
0.625
170
             0
171
             2
172
             1
173
             1
174
             0
175
             0
176
             4
177
             4
178
             1
270
             2
271
             2
272
             4
273
             2
274
             2
275
             0
280
             0
281
             0
282
             0
283
             1
284
             0
285
             0
286
             0
287
             3
288
             0
340
263
  0
DIMSTYLE
105
2E2
100
AcDbSymbolTableRecord
100
AcDbDimStyleTableRecord
  2
ME10_DIM_11
 70
             0
  3

  4

  5

  6

  7

 40
1.0
 41
7.0
 42
0.0
 43
0.38
 44
2.0
 45
0.0
 46
0.0
 47
0.0
 48
0.0
 71
             0
 72
             0
 73
             0
 74
             0
 75
             0
 76
             0
 77
             1
 78
             8
140
7.0
141
0.09
142
0.0
143
25.4
144
1.0
145
0.0
146
1.0
147
0.625
170
             0
171
             2
172
             1
173
             1
174
             0
175
             0
176
             4
177
             4
178
             1
270
             2
271
             0
272
             4
273
             2
274
             2
275
             0
280
             0
281
             0
282
             0
283
             1
284
             0
285
             0
286
             0
287
             3
288
             0
340
263
  0
DIMSTYLE
105
2ED
100
AcDbSymbolTableRecord
100
AcDbDimStyleTableRecord
  2
ME10_DIM_12
 70
             0
  3
DN<>
  4

  5

  6

  7

 40
1.0
 41
7.0
 42
0.0
 43
0.38
 44
2.0
 45
0.0
 46
0.0
 47
0.0
 48
0.0
 71
             0
 72
             0
 73
             0
 74
             0
 75
             0
 76
             0
 77
             1
 78
             8
140
7.0
141
0.09
142
0.0
143
25.4
144
1.0
145
0.0
146
1.0
147
0.625
170
             0
171
             2
172
             1
173
             1
174
             0
175
             0
176
             4
177
             4
178
             1
270
             2
271
             0
272
             4
273
             2
274
             2
275
             0
280
             0
281
             0
282
             0
283
             1
284
             0
285
             0
286
             0
287
             3
288
             0
340
263
  0
DIMSTYLE
105
2FA
100
AcDbSymbolTableRecord
100
AcDbDimStyleTableRecord
  2
ME10_DIM_13
 70
             0
  3

  4

  5

  6

  7

 40
1.0
 41
7.0
 42
0.0
 43
0.38
 44
2.0
 45
0.0
 46
0.0
 47
0.0
 48
0.0
 71
             0
 72
             0
 73
             0
 74
             0
 75
             0
 76
             0
 77
             1
 78
             8
140
7.0
141
0.09
142
0.0
143
25.4
144
1.0
145
0.0
146
1.0
147
0.625
170
             0
171
             2
172
             1
173
             1
174
             0
175
             0
176
             4
177
             4
178
             1
270
             2
271
             2
272
             4
273
             2
274
             2
275
             0
280
             0
281
             0
282
             0
283
             1
284
             0
285
             0
286
             0
287
             3
288
             0
340
263
  0
DIMSTYLE
105
305
100
AcDbSymbolTableRecord
100
AcDbDimStyleTableRecord
  2
ME10_DIM_14
 70
             0
  3

  4

  5

  6

  7

 40
1.0
 41
7.0
 42
0.0
 43
0.38
 44
2.0
 45
0.0
 46
0.0
 47
0.0
 48
0.0
 71
             0
 72
             0
 73
             0
 74
             0
 75
             0
 76
             0
 77
             1
 78
             8
140
7.0
141
0.09
142
0.0
143
25.4
144
1.0
145
0.0
146
1.0
147
0.625
170
             0
171
             2
172
             1
173
             1
174
             0
175
             0
176
             4
177
             4
178
             1
270
             2
271
             0
272
             4
273
             2
274
             2
275
             0
280
             0
281
             0
282
             0
283
             1
284
             0
285
             0
286
             0
287
             3
288
             0
340
263
  0
ENDTAB
  0
TABLE
  2
BLOCK_RECORD
  5
1
100
AcDbSymbolTable
 70
            20
  0
BLOCK_RECORD
  5
A
100
AcDbSymbolTableRecord
100
AcDbBlockTableRecord
  2
*MODEL_SPACE
  0
BLOCK_RECORD
  5
B
100
AcDbSymbolTableRecord
100
AcDbBlockTableRecord
  2
*PAPER_SPACE
  0
BLOCK_RECORD
  5
28
100
AcDbSymbolTableRecord
100
AcDbBlockTableRecord
  2
HL_44_MONTAGEPLATTE__1
  0
BLOCK_RECORD
  5
2A
100
AcDbSymbolTableRecord
100
AcDbBlockTableRecord
  2
HL_44_MONTAGEPLATTE__2
  0
BLOCK_RECORD
  5
2C
100
AcDbSymbolTableRecord
100
AcDbBlockTableRecord
  2
EINBAUSIFON__3
  0
BLOCK_RECORD
  5
2E
100
AcDbSymbolTableRecord
100
AcDbBlockTableRecord
  2
SIFONEINSATZ
  0
BLOCK_RECORD
  5
30
100
AcDbSymbolTableRecord
100
AcDbBlockTableRecord
  2
EINBAUSIFON__4
  0
BLOCK_RECORD
  5
25C
100
AcDbSymbolTableRecord
100
AcDbBlockTableRecord
  2
*D5
  0
BLOCK_RECORD
  5
268
100
AcDbSymbolTableRecord
100
AcDbBlockTableRecord
  2
*D6
  0
BLOCK_RECORD
  5
273
100
AcDbSymbolTableRecord
100
AcDbBlockTableRecord
  2
*D7
  0
BLOCK_RECORD
  5
27E
100
AcDbSymbolTableRecord
100
AcDbBlockTableRecord
  2
*D8
  0
BLOCK_RECORD
  5
289
100
AcDbSymbolTableRecord
100
AcDbBlockTableRecord
  2
*D9
  0
BLOCK_RECORD
  5
295
100
AcDbSymbolTableRecord
100
AcDbBlockTableRecord
  2
*D10
  0
BLOCK_RECORD
  5
2A0
100
AcDbSymbolTableRecord
100
AcDbBlockTableRecord
  2
*D11
  0
BLOCK_RECORD
  5
2AB
100
AcDbSymbolTableRecord
100
AcDbBlockTableRecord
  2
*D12
  0
BLOCK_RECORD
  5
2B7
100
AcDbSymbolTableRecord
100
AcDbBlockTableRecord
  2
*D13
  0
BLOCK_RECORD
  5
2C2
100
AcDbSymbolTableRecord
100
AcDbBlockTableRecord
  2
*D14
  0
BLOCK_RECORD
  5
2CD
100
AcDbSymbolTableRecord
100
AcDbBlockTableRecord
  2
*D15
  0
BLOCK_RECORD
  5
2D9
100
AcDbSymbolTableRecord
100
AcDbBlockTableRecord
  2
*D16
  0
BLOCK_RECORD
  5
2E4
100
AcDbSymbolTableRecord
100
AcDbBlockTableRecord
  2
*D17
  0
BLOCK_RECORD
  5
2EF
100
AcDbSymbolTableRecord
100
AcDbBlockTableRecord
  2
*D18
  0
BLOCK_RECORD
  5
2FC
100
AcDbSymbolTableRecord
100
AcDbBlockTableRecord
  2
*D19
  0
ENDTAB
  0
ENDSEC
  0
SECTION
  2
BLOCKS
  0
BLOCK
  5
D
100
AcDbEntity
  8
0
100
AcDbBlockBegin
  2
*MODEL_SPACE
 70
             0
 10
0.0
 20
0.0
 30
0.0
  3
*MODEL_SPACE
  1

  0
ENDBLK
  5
E
100
AcDbEntity
  8
0
100
AcDbBlockEnd
  0
BLOCK
  5
F
100
AcDbEntity
 67
             1
  8
0
100
AcDbBlockBegin
  2
*PAPER_SPACE
 70
             0
 10
0.0
 20
0.0
 30
0.0
  3
*PAPER_SPACE
  1

  0
ENDBLK
  5
10
100
AcDbEntity
 67
             1
  8
0
100
AcDbBlockEnd
  0
BLOCK
  5
29
100
AcDbEntity
  8
0
100
AcDbBlockBegin
  2
HL_44_MONTAGEPLATTE__1
 70
             0
 10
8.5
 20
-624.96127683002692
 30
0.0
  3
HL_44_MONTAGEPLATTE__1
  1

  0
TEXT
  5
1AA
100
AcDbEntity
  8
1
 62
             1
100
AcDbText
 10
90.99907250546386
 20
20.32417303485948
 40
6.0
  1
HL
 41
0.95
  7
CONVERTER_1
100
AcDbText
  0
ARC
  5
1A8
100
AcDbEntity
  8
1
  6
DASHED
 62
             7
100
AcDbCircle
 10
37.99999999999994
 20
-72.37941100001092
 40
6.0
100
AcDbArc
 50
-90.0
 51
-24.33892219861524
  0
ARC
  5
1A7
100
AcDbEntity
  8
1
  6
CONTINUOUS
 62
             7
100
AcDbCircle
 10
37.99999999999994
 20
-72.37941100001092
 40
6.0
100
AcDbArc
 50
-24.33892219861524
 51
0.0
  0
ARC
  5
1A6
100
AcDbEntity
  8
1
  6
DASHED
 62
             7
100
AcDbCircle
 10
-38.00000000000006
 20
-72.37941100001092
 40
6.0
100
AcDbArc
 50
180.0
 51
-90.0
  0
ARC
  5
1A5
100
AcDbEntity
  8
1
  6
CONTINUOUS
 62
             7
100
AcDbCircle
 10
48.99999999999994
 20
-30.37941100001092
 40
5.0
100
AcDbArc
 50
90.0
 51
180.0
  0
ARC
  5
1A4
100
AcDbEntity
  8
1
  6
DASHED
 62
             7
100
AcDbCircle
 10
-49.00000000000006
 20
-30.37941100001092
 40
5.0
100
AcDbArc
 50
0.0
 51
90.0
  0
ARC
  5
1A3
100
AcDbEntity
  8
1
  6
CONTINUOUS
 62
             7
100
AcDbCircle
 10
122.4999999999999
 20
8.62058899998908
 40
9.61769203083566
100
AcDbArc
 50
8.9726266148964
 51
98.9726266148964
  0
ARC
  5
1A2
100
AcDbEntity
  8
1
  6
CONTINUOUS
 62
             7
100
AcDbCircle
 10
123.9999999999999
 20
-3.87941100001092
 40
8.0
100
AcDbArc
 50
-90.0
 51
0.0
  0
ARC
  5
1A1
100
AcDbEntity
  8
1
  6
CONTINUOUS
 62
             7
100
AcDbCircle
 10
112.9999999999999
 20
-16.87941100001092
 40
5.0
100
AcDbArc
 50
90.0
 51
180.0
  0
ARC
  5
1A0
100
AcDbEntity
  8
1
  6
CONTINUOUS
 62
             7
100
AcDbCircle
 10
112.9999999999999
 20
23.12058899998908
 40
5.0
100
AcDbArc
 50
180.0
 51
-90.0
  0
ARC
  5
19F
100
AcDbEntity
  8
1
  6
CONTINUOUS
 62
             7
100
AcDbCircle
 10
-113.0000000000001
 20
-16.87941100001092
 40
5.0
100
AcDbArc
 50
0.0
 51
90.0
  0
ARC
  5
19E
100
AcDbEntity
  8
1
  6
CONTINUOUS
 62
             7
100
AcDbCircle
 10
-113.0000000000001
 20
23.12058899998908
 40
5.0
100
AcDbArc
 50
-90.0
 51
0.0
  0
ARC
  5
19D
100
AcDbEntity
  8
1
  6
CONTINUOUS
 62
             7
100
AcDbCircle
 10
-100.0000000000001
 20
23.62058899998908
 40
8.0
100
AcDbArc
 50
90.0
 51
180.0
  0
ARC
  5
19C
100
AcDbEntity
  8
1
  6
CONTINUOUS
 62
             7
100
AcDbCircle
 10
99.99999999999994
 20
23.62058899998908
 40
7.99999999999996
100
AcDbArc
 50
0.0
 51
90.0
  0
ARC
  5
19B
100
AcDbEntity
  8
1
  6
CONTINUOUS
 62
             7
100
AcDbCircle
 10
99.99999999999994
 20
-17.37941100001092
 40
8.0
100
AcDbArc
 50
-90.0
 51
0.0
  0
ARC
  5
19A
100
AcDbEntity
  8
1
  6
CONTINUOUS
 62
             7
100
AcDbCircle
 10
-100.0000000000001
 20
-17.37941100001092
 40
8.0
100
AcDbArc
 50
180.0
 51
-90.0
  0
ARC
  5
199
100
AcDbEntity
  8
1
  6
CONTINUOUS
 62
             7
100
AcDbCircle
 10
-124.0000000000001
 20
-3.87941100001092
 40
8.00000000000001
100
AcDbArc
 50
180.0
 51
-90.0
  0
ARC
  5
198
100
AcDbEntity
  8
1
  6
CONTINUOUS
 62
             7
100
AcDbCircle
 10
-124.0000000000001
 20
10.12058899998908
 40
8.0
100
AcDbArc
 50
90.0
 51
180.0
  0
CIRCLE
  5
197
100
AcDbEntity
  8
1
  6
DASHED
 62
             7
100
AcDbCircle
 10
-0.00000000000006
 20
21.12058899998908
 40
5.0
  0
CIRCLE
  5
196
100
AcDbEntity
  8
1
  6
DASHED
 62
             7
100
AcDbCircle
 10
-0.00000000000006
 20
21.12058899998908
 40
3.0
  0
CIRCLE
  5
195
100
AcDbEntity
  8
1
  6
CONTINUOUS
 62
             7
100
AcDbCircle
 10
-70.00000000000006
 20
3.12058899998908
 40
1.5
  0
CIRCLE
  5
194
100
AcDbEntity
  8
1
  6
CONTINUOUS
 62
             7
100
AcDbCircle
 10
-80.00000000000006
 20
3.12058899998908
 40
1.5
  0
CIRCLE
  5
193
100
AcDbEntity
  8
1
  6
CONTINUOUS
 62
             7
100
AcDbCircle
 10
-56.50000000000006
 20
3.12058899998908
 40
1.5
  0
CIRCLE
  5
192
100
AcDbEntity
  8
1
  6
CONTINUOUS
 62
             7
100
AcDbCircle
 10
-96.50000000000006
 20
3.12058899998908
 40
1.5
  0
CIRCLE
  5
191
100
AcDbEntity
  8
1
  6
CONTINUOUS
 62
             7
100
AcDbCircle
 10
-67.50000000000006
 20
12.12058899998908
 40
1.5
  0
CIRCLE
  5
190
100
AcDbEntity
  8
1
  6
CONTINUOUS
 62
             7
100
AcDbCircle
 10
-42.50000000000006
 20
12.12058899998908
 40
1.5
  0
CIRCLE
  5
18F
100
AcDbEntity
  8
1
  6
CONTINUOUS
 62
             7
100
AcDbCircle
 10
-94.00000000000006
 20
12.12058899998908
 40
1.5
  0
CIRCLE
  5
18E
100
AcDbEntity
  8
1
  6
CONTINUOUS
 62
             7
100
AcDbCircle
 10
-67.50000000000006
 20
-5.87941100001092
 40
1.5
  0
CIRCLE
  5
18D
100
AcDbEntity
  8
1
  6
CONTINUOUS
 62
             7
100
AcDbCircle
 10
-94.00000000000006
 20
-5.87941100001092
 40
1.5
  0
CIRCLE
  5
18C
100
AcDbEntity
  8
1
  6
CONTINUOUS
 62
             7
100
AcDbCircle
 10
67.49999999999994
 20
12.12058899998908
 40
1.5
  0
CIRCLE
  5
18B
100
AcDbEntity
  8
1
  6
CONTINUOUS
 62
             7
100
AcDbCircle
 10
42.49999999999994
 20
12.12058899998908
 40
1.5
  0
CIRCLE
  5
18A
100
AcDbEntity
  8
1
  6
CONTINUOUS
 62
             7
100
AcDbCircle
 10
77.49999999999994
 20
12.12058899998908
 40
1.5
  0
CIRCLE
  5
189
100
AcDbEntity
  8
1
  6
CONTINUOUS
 62
             7
100
AcDbCircle
 10
93.99999999999994
 20
12.12058899998908
 40
1.5
  0
CIRCLE
  5
188
100
AcDbEntity
  8
1
  6
CONTINUOUS
 62
             7
100
AcDbCircle
 10
76.49999999999994
 20
-18.87941100001092
 40
1.5
  0
CIRCLE
  5
187
100
AcDbEntity
  8
1
  6
CONTINUOUS
 62
             7
100
AcDbCircle
 10
59.99999999999994
 20
-18.87941100001092
 40
1.5
  0
CIRCLE
  5
186
100
AcDbEntity
  8
1
  6
CONTINUOUS
 62
             7
100
AcDbCircle
 10
49.99999999999994
 20
-18.87941100001092
 40
1.5
  0
CIRCLE
  5
185
100
AcDbEntity
  8
1
  6
CONTINUOUS
 62
             7
100
AcDbCircle
 10
39.99999999999994
 20
-18.87941100001092
 40
1.5
  0
CIRCLE
  5
184
100
AcDbEntity
  8
1
  6
CONTINUOUS
 62
             7
100
AcDbCircle
 10
58.99999999999994
 20
-5.87941100001092
 40
1.5
  0
CIRCLE
  5
183
100
AcDbEntity
  8
1
  6
CONTINUOUS
 62
             7
100
AcDbCircle
 10
67.49999999999994
 20
-5.87941100001092
 40
1.5
  0
CIRCLE
  5
182
100
AcDbEntity
  8
1
  6
CONTINUOUS
 62
             7
100
AcDbCircle
 10
77.49999999999994
 20
-5.87941100001092
 40
1.5
  0
CIRCLE
  5
181
100
AcDbEntity
  8
1
  6
CONTINUOUS
 62
             7
100
AcDbCircle
 10
58.99999999999994
 20
-5.87941100001092
 40
1.5
  0
CIRCLE
  5
180
100
AcDbEntity
  8
1
  6
CONTINUOUS
 62
             7
100
AcDbCircle
 10
93.99999999999994
 20
-5.87941100001092
 40
1.5
  0
CIRCLE
  5
17F
100
AcDbEntity
  8
1
  6
CONTINUOUS
 62
             7
100
AcDbCircle
 10
76.49999999999994
 20
25.12058899998908
 40
1.5
  0
CIRCLE
  5
17E
100
AcDbEntity
  8
1
  6
CONTINUOUS
 62
             7
100
AcDbCircle
 10
59.99999999999994
 20
25.12058899998908
 40
1.5
  0
CIRCLE
  5
17D
100
AcDbEntity
  8
1
  6
CONTINUOUS
 62
             7
100
AcDbCircle
 10
49.99999999999994
 20
25.12058899998908
 40
1.5
  0
CIRCLE
  5
17C
100
AcDbEntity
  8
1
  6
CONTINUOUS
 62
             7
100
AcDbCircle
 10
39.99999999999994
 20
25.12058899998908
 40
1.5
  0
CIRCLE
  5
17B
100
AcDbEntity
  8
1
  6
CONTINUOUS
 62
             7
100
AcDbCircle
 10
63.49999999999994
 20
8.12058899998908
 40
1.5
  0
CIRCLE
  5
17A
100
AcDbEntity
  8
1
  6
CONTINUOUS
 62
             7
100
AcDbCircle
 10
73.49999999999994
 20
8.12058899998908
 40
1.5
  0
CIRCLE
  5
179
100
AcDbEntity
  8
1
  6
CONTINUOUS
 62
             7
100
AcDbCircle
 10
83.49999999999994
 20
8.12058899998908
 40
1.5
  0
CIRCLE
  5
178
100
AcDbEntity
  8
1
  6
CONTINUOUS
 62
             7
100
AcDbCircle
 10
52.99999999999994
 20
8.12058899998908
 40
1.5
  0
CIRCLE
  5
177
100
AcDbEntity
  8
1
  6
CONTINUOUS
 62
             7
100
AcDbCircle
 10
99.99999999999994
 20
8.12058899998908
 40
1.49999999999996
  0
CIRCLE
  5
176
100
AcDbEntity
  8
1
  6
CONTINUOUS
 62
             7
100
AcDbCircle
 10
-63.50000000000006
 20
8.12058899998908
 40
1.5
  0
CIRCLE
  5
175
100
AcDbEntity
  8
1
  6
CONTINUOUS
 62
             7
100
AcDbCircle
 10
-73.50000000000006
 20
8.12058899998908
 40
1.5
  0
CIRCLE
  5
174
100
AcDbEntity
  8
1
  6
CONTINUOUS
 62
             7
100
AcDbCircle
 10
-83.50000000000006
 20
8.12058899998908
 40
1.5
  0
CIRCLE
  5
173
100
AcDbEntity
  8
1
  6
CONTINUOUS
 62
             7
100
AcDbCircle
 10
-53.00000000000006
 20
8.12058899998908
 40
1.5
  0
CIRCLE
  5
172
100
AcDbEntity
  8
1
  6
CONTINUOUS
 62
             7
100
AcDbCircle
 10
-100.0000000000001
 20
8.12058899998908
 40
1.5
  0
CIRCLE
  5
171
100
AcDbEntity
  8
1
  6
CONTINUOUS
 62
             7
100
AcDbCircle
 10
-46.99999999999996
 20
3.12058899998908
 40
1.5000000000001
  0
CIRCLE
  5
170
100
AcDbEntity
  8
1
  6
DASHED
 62
             7
100
AcDbCircle
 10
-27.00000000000006
 20
27.120589
 40
1.5
  0
CIRCLE
  5
16F
100
AcDbEntity
  8
1
  6
DASHED
 62
             7
100
AcDbCircle
 10
37.99999999999994
 20
-9.879411
 40
1.50000000000063
  0
CIRCLE
  5
16E
100
AcDbEntity
  8
1
  6
DASHED
 62
             7
100
AcDbCircle
 10
-27.00000000000006
 20
-34.87941100000001
 40
1.5
  0
CIRCLE
  5
16D
100
AcDbEntity
  8
1
  6
DASHED
 62
             7
100
AcDbCircle
 10
37.99999999999994
 20
-71.87941100000001
 40
1.5
  0
ARC
  5
16C
100
AcDbEntity
  8
1
  6
CONTINUOUS
 62
             7
100
AcDbCircle
 10
-59.00000000000006
 20
-5.87941100001092
 40
1.50000000000001
100
AcDbArc
 50
-131.81031489577813
 51
-100.447119978156
  0
ARC
  5
16B
100
AcDbEntity
  8
1
  6
CONTINUOUS
 62
             7
100
AcDbCircle
 10
42.49999999999994
 20
-5.87941100001092
 40
1.5
100
AcDbArc
 50
0.0
 51
-178.0955263305884
  0
ARC
  5
16A
100
AcDbEntity
  8
1
  6
CONTINUOUS
 62
             7
100
AcDbCircle
 10
42.49999999999994
 20
-5.87941100001092
 40
1.5
100
AcDbArc
 50
-97.70889018183679
 51
0.0
  0
ARC
  5
169
100
AcDbEntity
  8
1
  6
CONTINUOUS
 62
             7
100
AcDbCircle
 10
36.49999999999994
 20
8.12058899998908
 40
1.5
100
AcDbArc
 50
0.0
 51
99.57616360967529
  0
ARC
  5
168
100
AcDbEntity
  8
1
  6
CONTINUOUS
 62
             7
100
AcDbCircle
 10
34.99999999999994
 20
-28.87941100001092
 40
1.5
100
AcDbArc
 50
0.0
 51
86.20478779374031
  0
ARC
  5
167
100
AcDbEntity
  8
1
  6
CONTINUOUS
 62
             7
100
AcDbCircle
 10
34.99999999999994
 20
-28.87941100001092
 40
1.5
100
AcDbArc
 50
-66.20478974883173
 51
0.0
  0
ARC
  5
166
100
AcDbEntity
  8
1
  6
CONTINUOUS
 62
             7
100
AcDbCircle
 10
117.9999999999999
 20
3.12058899998908
 40
5.0
100
AcDbArc
 50
90.0
 51
-90.0
  0
ARC
  5
165
100
AcDbEntity
  8
1
  6
CONTINUOUS
 62
             7
100
AcDbCircle
 10
121.9999999999999
 20
3.12058899998908
 40
5.0
100
AcDbArc
 50
-90.0
 51
90.0
  0
ARC
  5
164
100
AcDbEntity
  8
LC-001-002-----0
  6
CONTINUOUS
 62
             7
100
AcDbCircle
 10
117.9999999999999
 20
3.12058899998908
 40
3.0
100
AcDbArc
 50
90.0
 51
-90.0
  0
ARC
  5
163
100
AcDbEntity
  8
LC-001-002-----0
  6
CONTINUOUS
 62
             7
100
AcDbCircle
 10
121.9999999999999
 20
3.12058899998908
 40
3.0
100
AcDbArc
 50
-90.0
 51
90.0
  0
ARC
  5
162
100
AcDbEntity
  8
LC-001-002-----0
  6
CONTINUOUS
 62
             7
100
AcDbCircle
 10
-120.0000000000001
 20
1.12058899998908
 40
5.0
100
AcDbArc
 50
180.0
 51
0.0
  0
ARC
  5
161
100
AcDbEntity
  8
LC-001-002-----0
  6
CONTINUOUS
 62
             7
100
AcDbCircle
 10
-120.0000000000001
 20
5.12058899998908
 40
3.0
100
AcDbArc
 50
0.0
 51
180.0
  0
ARC
  5
160
100
AcDbEntity
  8
LC-001-002-----0
  6
CONTINUOUS
 62
             7
100
AcDbCircle
 10
-120.0000000000001
 20
1.12058899998908
 40
3.0
100
AcDbArc
 50
180.0
 51
0.0
  0
ARC
  5
15F
100
AcDbEntity
  8
LC-001-002-----0
  6
CONTINUOUS
 62
             7
100
AcDbCircle
 10
-120.0000000000001
 20
5.12058899998908
 40
5.0
100
AcDbArc
 50
0.0
 51
180.0
  0
ARC
  5
15E
100
AcDbEntity
  8
LC-001-002-----0
  6
DASHED
 62
             7
100
AcDbCircle
 10
-1.99999999999935
 20
-58.87941100001092
 40
5.0
100
AcDbArc
 50
90.0
 51
-90.0
  0
ARC
  5
15D
100
AcDbEntity
  8
LC-001-002-----0
  6
DASHED
 62
             7
100
AcDbCircle
 10
1.99999999999994
 20
-58.87941100001092
 40
3.0
100
AcDbArc
 50
-89.99999999998643
 51
89.99999999998643
  0
ARC
  5
15C
100
AcDbEntity
  8
LC-001-002-----0
  6
DASHED
 62
             7
100
AcDbCircle
 10
-1.99999999999935
 20
-58.87941100001092
 40
3.0
100
AcDbArc
 50
90.0
 51
-90.0
  0
ARC
  5
15B
100
AcDbEntity
  8
LC-001-002-----0
  6
DASHED
 62
             7
100
AcDbCircle
 10
1.99999999999994
 20
-58.87941100001092
 40
5.0
100
AcDbArc
 50
-89.99999999999186
 51
89.99999999999186
  0
ARC
  5
15A
100
AcDbEntity
  8
1
  6
CONTINUOUS
 62
             7
100
AcDbCircle
 10
-77.50000000000006
 20
12.12058899998908
 40
1.50000000000002
100
AcDbArc
 50
48.18968510422204
 51
-48.18968510422177
  0
ARC
  5
159
100
AcDbEntity
  8
1
  6
CONTINUOUS
 62
             7
100
AcDbCircle
 10
-77.50000000000006
 20
12.12058899998908
 40
1.50000000000001
100
AcDbArc
 50
-48.18968510422177
 51
48.18968510422204
  0
ARC
  5
158
100
AcDbEntity
  8
1
  6
CONTINUOUS
 62
             7
100
AcDbCircle
 10
-77.50000000000006
 20
-5.87941100001092
 40
1.50000000000002
100
AcDbArc
 50
48.18968510422192
 51
-48.18968510422188
  0
ARC
  5
157
100
AcDbEntity
  8
1
  6
CONTINUOUS
 62
             7
100
AcDbCircle
 10
-77.50000000000006
 20
-5.87941100001092
 40
1.50000000000001
100
AcDbArc
 50
-48.18968510422188
 51
48.18968510422192
  0
ARC
  5
156
100
AcDbEntity
  8
1
  6
CONTINUOUS
 62
             7
100
AcDbCircle
 10
-76.50000000000006
 20
25.12058899998908
 40
1.5
100
AcDbArc
 50
0.0
 51
90.0
  0
ARC
  5
155
100
AcDbEntity
  8
1
  6
CONTINUOUS
 62
             7
100
AcDbCircle
 10
-76.50000000000006
 20
25.12058899998908
 40
1.5
100
AcDbArc
 50
-90.0
 51
0.0
  0
ARC
  5
154
100
AcDbEntity
  8
1
  6
CONTINUOUS
 62
             7
100
AcDbCircle
 10
-76.50000000000006
 20
-18.87941100001092
 40
1.5
100
AcDbArc
 50
90.0
 51
-90.0
  0
ARC
  5
153
100
AcDbEntity
  8
1
  6
CONTINUOUS
 62
             7
100
AcDbCircle
 10
-76.50000000000006
 20
-18.87941100001092
 40
1.5
100
AcDbArc
 50
-90.0
 51
90.0
  0
ARC
  5
152
100
AcDbEntity
  8
1
  6
CONTINUOUS
 62
             7
100
AcDbCircle
 10
-76.50000000000006
 20
25.12058899998908
 40
1.5
100
AcDbArc
 50
90.0
 51
-90.0
  0
ARC
  5
151
100
AcDbEntity
  8
1
  6
CONTINUOUS
 62
             7
100
AcDbCircle
 10
-59.00000000000006
 20
12.12058899998908
 40
1.50000000000001
100
AcDbArc
 50
-131.81031489577822
 51
131.81031489577796
  0
ARC
  5
150
100
AcDbEntity
  8
1
  6
CONTINUOUS
 62
             7
100
AcDbCircle
 10
-59.00000000000006
 20
12.12058899998908
 40
1.50000000000002
100
AcDbArc
 50
131.81031489577796
 51
180.0
  0
ARC
  5
14F
100
AcDbEntity
  8
1
  6
CONTINUOUS
 62
             7
100
AcDbCircle
 10
-59.00000000000006
 20
12.12058899998908
 40
1.50000000000001
100
AcDbArc
 50
-131.81031489577822
 51
131.81031489577796
  0
ARC
  5
14E
100
AcDbEntity
  8
1
  6
CONTINUOUS
 62
             7
100
AcDbCircle
 10
-59.00000000000006
 20
12.12058899998908
 40
1.50000000000002
100
AcDbArc
 50
131.81031489577796
 51
180.0
  0
ARC
  5
14D
100
AcDbEntity
  8
1
  6
CONTINUOUS
 62
             7
100
AcDbCircle
 10
-60.00000000000006
 20
25.12058899998908
 40
1.5
100
AcDbArc
 50
90.0
 51
-90.0
  0
ARC
  5
14C
100
AcDbEntity
  8
1
  6
CONTINUOUS
 62
             7
100
AcDbCircle
 10
-60.00000000000006
 20
25.12058899998908
 40
1.5
100
AcDbArc
 50
-90.0
 51
90.0
  0
ARC
  5
14B
100
AcDbEntity
  8
1
  6
CONTINUOUS
 62
             7
100
AcDbCircle
 10
-50.00000000000006
 20
25.12058899998908
 40
1.5
100
AcDbArc
 50
90.0
 51
-90.0
  0
ARC
  5
14A
100
AcDbEntity
  8
1
  6
CONTINUOUS
 62
             7
100
AcDbCircle
 10
-50.00000000000006
 20
25.12058899998908
 40
1.5
100
AcDbArc
 50
-90.0
 51
90.0
  0
ARC
  5
149
100
AcDbEntity
  8
1
  6
CONTINUOUS
 62
             7
100
AcDbCircle
 10
-40.00000000000006
 20
25.12058899998908
 40
1.5
100
AcDbArc
 50
90.0
 51
-90.0
  0
ARC
  5
148
100
AcDbEntity
  8
1
  6
CONTINUOUS
 62
             7
100
AcDbCircle
 10
-40.00000000000006
 20
25.12058899998908
 40
1.5
100
AcDbArc
 50
-90.0
 51
90.0
  0
ARC
  5
147
100
AcDbEntity
  8
1
  6
CONTINUOUS
 62
             7
100
AcDbCircle
 10
-60.00000000000006
 20
-18.87941100001092
 40
1.5
100
AcDbArc
 50
-90.0
 51
90.0
  0
ARC
  5
146
100
AcDbEntity
  8
1
  6
CONTINUOUS
 62
             7
100
AcDbCircle
 10
-60.00000000000006
 20
-18.87941100001092
 40
1.5
100
AcDbArc
 50
90.0
 51
-90.0
  0
ARC
  5
145
100
AcDbEntity
  8
1
  6
CONTINUOUS
 62
             7
100
AcDbCircle
 10
-59.00000000000006
 20
-5.87941100001092
 40
1.5
100
AcDbArc
 50
180.0
 51
-131.81031489577813
  0
ARC
  5
144
100
AcDbEntity
  8
1
  6
CONTINUOUS
 62
             7
100
AcDbCircle
 10
-59.00000000000006
 20
-5.87941100001092
 40
1.50000000000002
100
AcDbArc
 50
131.81031489577808
 51
180.0
  0
ARC
  5
143
100
AcDbEntity
  8
1
  6
CONTINUOUS
 62
             7
100
AcDbCircle
 10
-59.00000000000006
 20
-5.87941100001092
 40
1.5
100
AcDbArc
 50
180.0
 51
-131.81031489577813
  0
ARC
  5
142
100
AcDbEntity
  8
1
  6
CONTINUOUS
 62
             7
100
AcDbCircle
 10
-59.00000000000006
 20
-5.87941100001092
 40
1.50000000000002
100
AcDbArc
 50
131.81031489577808
 51
180.0
  0
ARC
  5
141
100
AcDbEntity
  8
1
  6
CONTINUOUS
 62
             7
100
AcDbCircle
 10
-59.00000000000006
 20
12.12058899998908
 40
1.5
100
AcDbArc
 50
180.0
 51
-131.81031489577822
  0
ARC
  5
140
100
AcDbEntity
  8
1
  6
CONTINUOUS
 62
             7
100
AcDbCircle
 10
-59.00000000000006
 20
12.12058899998908
 40
1.5
100
AcDbArc
 50
180.0
 51
-131.81031489577822
  0
ARC
  5
13F
100
AcDbEntity
  8
1
  6
CONTINUOUS
 62
             7
100
AcDbCircle
 10
-59.00000000000006
 20
-5.87941100001092
 40
1.50000000000002
100
AcDbArc
 50
9.78356076412159
 51
131.81031489577808
  0
ARC
  5
13E
100
AcDbEntity
  8
1
  6
CONTINUOUS
 62
             7
100
AcDbCircle
 10
-60.00000000000006
 20
3.12058899998908
 40
1.5
100
AcDbArc
 50
90.0
 51
-90.0
  0
ARC
  5
13D
100
AcDbEntity
  8
1
  6
CONTINUOUS
 62
             7
100
AcDbCircle
 10
-60.00000000000006
 20
3.12058899998908
 40
1.5
100
AcDbArc
 50
0.0
 51
90.0
  0
ARC
  5
13C
100
AcDbEntity
  8
1
  6
CONTINUOUS
 62
             7
100
AcDbCircle
 10
58.99999999999994
 20
12.12058899998908
 40
1.5
100
AcDbArc
 50
0.0
 51
-48.18968510422177
  0
ARC
  5
13B
100
AcDbEntity
  8
1
  6
CONTINUOUS
 62
             7
100
AcDbCircle
 10
58.99999999999994
 20
12.12058899998908
 40
1.50000000000001
100
AcDbArc
 50
-48.18968510422177
 51
0.0
  0
ARC
  5
13A
100
AcDbEntity
  8
1
  6
CONTINUOUS
 62
             7
100
AcDbCircle
 10
58.99999999999994
 20
12.12058899998908
 40
1.5
100
AcDbArc
 50
0.0
 51
-48.18968510422177
  0
ARC
  5
139
100
AcDbEntity
  8
1
  6
CONTINUOUS
 62
             7
100
AcDbCircle
 10
58.99999999999994
 20
12.12058899998908
 40
1.50000000000001
100
AcDbArc
 50
-48.18968510422177
 51
0.0
  0
ARC
  5
138
100
AcDbEntity
  8
1
  6
CONTINUOUS
 62
             7
100
AcDbCircle
 10
36.49999999999994
 20
8.12058899998908
 40
1.5
100
AcDbArc
 50
-74.4901942406708
 51
0.0
  0
ARC
  5
137
100
AcDbEntity
  8
1
  6
CONTINUOUS
 62
             7
100
AcDbCircle
 10
39.99999999999994
 20
3.12058899998908
 40
1.5
100
AcDbArc
 50
90.0
 51
180.0
  0
ARC
  5
136
100
AcDbEntity
  8
1
  6
CONTINUOUS
 62
             7
100
AcDbCircle
 10
39.99999999999994
 20
3.12058899998908
 40
1.5
100
AcDbArc
 50
0.0
 51
90.0
  0
ARC
  5
135
100
AcDbEntity
  8
1
  6
CONTINUOUS
 62
             7
100
AcDbCircle
 10
46.99999999999994
 20
3.12058899998908
 40
1.5
100
AcDbArc
 50
0.0
 51
180.0
  0
ARC
  5
134
100
AcDbEntity
  8
1
  6
CONTINUOUS
 62
             7
100
AcDbCircle
 10
46.99999999999994
 20
3.12058899998908
 40
1.5
100
AcDbArc
 50
180.0
 51
0.0
  0
ARC
  5
133
100
AcDbEntity
  8
1
  6
CONTINUOUS
 62
             7
100
AcDbCircle
 10
56.49999999999994
 20
3.12058899998908
 40
1.5
100
AcDbArc
 50
90.0
 51
180.0
  0
ARC
  5
132
100
AcDbEntity
  8
1
  6
CONTINUOUS
 62
             7
100
AcDbCircle
 10
56.49999999999994
 20
3.12058899998908
 40
1.5
100
AcDbArc
 50
0.0
 51
90.0
  0
ARC
  5
131
100
AcDbEntity
  8
1
  6
CONTINUOUS
 62
             7
100
AcDbCircle
 10
59.99999999999994
 20
3.12058899998908
 40
1.5
100
AcDbArc
 50
180.0
 51
0.0
  0
ARC
  5
130
100
AcDbEntity
  8
1
  6
CONTINUOUS
 62
             7
100
AcDbCircle
 10
59.99999999999994
 20
3.12058899998908
 40
1.5
100
AcDbArc
 50
0.0
 51
90.0
  0
ARC
  5
12F
100
AcDbEntity
  8
1
  6
CONTINUOUS
 62
             7
100
AcDbCircle
 10
69.99999999999994
 20
3.12058899998908
 40
1.5
100
AcDbArc
 50
90.0
 51
180.0
  0
ARC
  5
12E
100
AcDbEntity
  8
1
  6
CONTINUOUS
 62
             7
100
AcDbCircle
 10
69.99999999999994
 20
3.12058899998908
 40
1.5
100
AcDbArc
 50
0.0
 51
90.0
  0
ARC
  5
12D
100
AcDbEntity
  8
1
  6
CONTINUOUS
 62
             7
100
AcDbCircle
 10
79.99999999999994
 20
3.12058899998908
 40
1.5
100
AcDbArc
 50
90.0
 51
180.0
  0
ARC
  5
12C
100
AcDbEntity
  8
1
  6
CONTINUOUS
 62
             7
100
AcDbCircle
 10
79.99999999999994
 20
3.12058899998908
 40
1.5
100
AcDbArc
 50
0.0
 51
90.0
  0
ARC
  5
12B
100
AcDbEntity
  8
1
  6
CONTINUOUS
 62
             7
100
AcDbCircle
 10
39.99999999999994
 20
3.12058899998908
 40
1.5
100
AcDbArc
 50
180.0
 51
0.0
  0
ARC
  5
12A
100
AcDbEntity
  8
1
  6
CONTINUOUS
 62
             7
100
AcDbCircle
 10
69.99999999999994
 20
3.12058899998908
 40
1.5
100
AcDbArc
 50
180.0
 51
0.0
  0
ARC
  5
129
100
AcDbEntity
  8
1
  6
CONTINUOUS
 62
             7
100
AcDbCircle
 10
79.99999999999994
 20
3.12058899998908
 40
1.5
100
AcDbArc
 50
180.0
 51
0.0
  0
ARC
  5
128
100
AcDbEntity
  8
1
  6
CONTINUOUS
 62
             7
100
AcDbCircle
 10
56.49999999999994
 20
3.12058899998908
 40
1.5
100
AcDbArc
 50
180.0
 51
0.0
  0
ARC
  5
127
100
AcDbEntity
  8
1
  6
CONTINUOUS
 62
             7
100
AcDbCircle
 10
59.99999999999994
 20
3.12058899998908
 40
1.5
100
AcDbArc
 50
90.0
 51
180.0
  0
ARC
  5
126
100
AcDbEntity
  8
1
  6
CONTINUOUS
 62
             7
100
AcDbCircle
 10
96.49999999999994
 20
3.12058899998908
 40
1.5
100
AcDbArc
 50
90.0
 51
180.0
  0
ARC
  5
125
100
AcDbEntity
  8
1
  6
CONTINUOUS
 62
             7
100
AcDbCircle
 10
96.49999999999994
 20
3.12058899998908
 40
1.5
100
AcDbArc
 50
0.0
 51
90.0
  0
ARC
  5
124
100
AcDbEntity
  8
1
  6
CONTINUOUS
 62
             7
100
AcDbCircle
 10
96.49999999999994
 20
3.12058899998908
 40
1.5
100
AcDbArc
 50
180.0
 51
0.0
  0
ARC
  5
123
100
AcDbEntity
  8
1
  6
CONTINUOUS
 62
             7
100
AcDbCircle
 10
-60.00000000000006
 20
3.12058899998908
 40
1.5
100
AcDbArc
 50
-90.0
 51
0.0
  0
LINE
  5
122
100
AcDbEntity
  8
1
  6
CONTINUOUS
 62
             7
100
AcDbLine
 10
-29.04824579415502
 20
31.62058899998908
 11
-75.00000000000006
 21
31.62058899998908
  0
LINE
  5
121
100
AcDbEntity
  8
1
  6
CONTINUOUS
 62
             7
100
AcDbLine
 10
-20.15907615179245
 20
31.62058899998908
 11
-24.93175420584538
 21
31.62058899998908
  0
LINE
  5
120
100
AcDbEntity
  8
1
  6
CONTINUOUS
 62
             7
100
AcDbLine
 10
-42.66900689389732
 20
3.12058899998908
 11
-45.50000000000017
 21
3.12058899998908
  0
LINE
  5
11F
100
AcDbEntity
  8
1
  6
CONTINUOUS
 62
             7
100
AcDbLine
 10
39.99999999999994
 20
-5.34919592405928
 11
39.99999999999994
 21
1.62058899998908
  0
LINE
  5
11E
100
AcDbEntity
  8
1
  6
DASHED
 62
             7
100
AcDbLine
 10
-52.22963780468491
 20
-25.37941100001092
 11
-49.00000000000006
 21
-25.37941100001092
  0
LINE
  5
11D
100
AcDbEntity
  8
1
  6
PHANTOM
 62
             2
100
AcDbLine
 10
-0.00000000000006
 20
26.62058899998908
 11
-0.00000000000006
 21
15.62058899998908
  0
LINE
  5
11C
100
AcDbEntity
  8
1
  6
PHANTOM
 62
             2
100
AcDbLine
 10
5.49999999999994
 20
21.12058899998908
 11
-5.50000000000006
 21
21.12058899998908
  0
LINE
  5
11B
100
AcDbEntity
  8
0
  6
DASH_CENTER
 62
             2
100
AcDbLine
 10
-0.00000000000006
 20
-67.37941100001092
 11
0.0
 21
-52.44859146092493
  0
LINE
  5
11A
100
AcDbEntity
  8
1
  6
CONTINUOUS
 62
             7
100
AcDbLine
 10
37.36993342639437
 20
3.12058899998908
 11
38.49999999999994
 21
3.12058899998908
  0
LINE
  5
119
100
AcDbEntity
  8
0
  6
DASH_CENTER
 62
             2
100
AcDbLine
 10
8.00862159851894
 20
-58.87941100001092
 11
-8.33416943142305
 21
-58.87941100001092
  0
LINE
  5
118
100
AcDbEntity
  8
LC-001-002-----0
  6
DASHED
 62
             7
100
AcDbLine
 10
2.00000000000065
 20
-63.87941100001092
 11
-1.99999999999935
 21
-63.87941100001092
  0
LINE
  5
117
100
AcDbEntity
  8
1
  6
DASH_CENTER
 62
             2
100
AcDbLine
 10
59.99999999999994
 20
4.7705889999869
 11
59.99999999999994
 21
1.47058899998757
  0
LINE
  5
116
100
AcDbEntity
  8
1
  6
DASH_CENTER
 62
             2
100
AcDbLine
 10
61.64999999999952
 20
3.12058899998908
 11
58.35000000000036
 21
3.12058899998908
  0
LINE
  5
115
100
AcDbEntity
  8
1
  6
DASH_CENTER
 62
             2
100
AcDbLine
 10
69.99999999999994
 20
4.7705889999869
 11
69.99999999999994
 21
1.47058899998757
  0
LINE
  5
114
100
AcDbEntity
  8
1
  6
DASH_CENTER
 62
             2
100
AcDbLine
 10
71.64999999999952
 20
3.12058899998908
 11
68.35000000000036
 21
3.12058899998908
  0
LINE
  5
113
100
AcDbEntity
  8
1
  6
DASH_CENTER
 62
             2
100
AcDbLine
 10
39.99999999999994
 20
4.7705889999869
 11
39.99999999999994
 21
1.47058899998757
  0
LINE
  5
112
100
AcDbEntity
  8
1
  6
DASH_CENTER
 62
             2
100
AcDbLine
 10
41.64999999999952
 20
3.12058899998908
 11
38.35000000000036
 21
3.12058899998908
  0
LINE
  5
111
100
AcDbEntity
  8
1
  6
DASH_CENTER
 62
             2
100
AcDbLine
 10
79.99999999999994
 20
4.7705889999869
 11
79.99999999999994
 21
1.47058899998757
  0
LINE
  5
110
100
AcDbEntity
  8
1
  6
DASH_CENTER
 62
             2
100
AcDbLine
 10
81.64999999999952
 20
3.12058899998908
 11
78.35000000000036
 21
3.12058899998908
  0
LINE
  5
10F
100
AcDbEntity
  8
1
  6
DASH_CENTER
 62
             2
100
AcDbLine
 10
56.49999999999994
 20
4.7705889999869
 11
56.49999999999994
 21
1.47058899998757
  0
LINE
  5
10E
100
AcDbEntity
  8
1
  6
DASH_CENTER
 62
             2
100
AcDbLine
 10
58.14999999999952
 20
3.12058899998908
 11
54.85000000000036
 21
3.12058899998908
  0
LINE
  5
10D
100
AcDbEntity
  8
1
  6
DASH_CENTER
 62
             2
100
AcDbLine
 10
96.49999999999994
 20
4.7705889999869
 11
96.49999999999994
 21
1.47058899998757
  0
LINE
  5
10C
100
AcDbEntity
  8
1
  6
DASH_CENTER
 62
             2
100
AcDbLine
 10
98.14999999999952
 20
3.12058899998908
 11
94.85000000000036
 21
3.12058899998908
  0
LINE
  5
10B
100
AcDbEntity
  8
1
  6
DASH_CENTER
 62
             2
100
AcDbLine
 10
-60.00000000000006
 20
1.47058899998757
 11
-60.00000000000006
 21
4.7705889999869
  0
LINE
  5
10A
100
AcDbEntity
  8
1
  6
DASH_CENTER
 62
             2
100
AcDbLine
 10
-58.35000000000045
 20
3.12058899998908
 11
-61.64999999999967
 21
3.12058899998908
  0
LINE
  5
109
100
AcDbEntity
  8
1
  6
DASH_CENTER
 62
             2
100
AcDbLine
 10
-70.00000000000006
 20
1.47058899998757
 11
-70.00000000000006
 21
4.7705889999869
  0
LINE
  5
108
100
AcDbEntity
  8
1
  6
DASH_CENTER
 62
             2
100
AcDbLine
 10
-68.35000000000045
 20
3.12058899998908
 11
-71.64999999999967
 21
3.12058899998908
  0
LINE
  5
107
100
AcDbEntity
  8
1
  6
DASH_CENTER
 62
             2
100
AcDbLine
 10
-80.00000000000006
 20
1.47058899998757
 11
-80.00000000000006
 21
4.7705889999869
  0
LINE
  5
106
100
AcDbEntity
  8
1
  6
DASH_CENTER
 62
             2
100
AcDbLine
 10
-78.35000000000045
 20
3.12058899998908
 11
-81.64999999999967
 21
3.12058899998908
  0
LINE
  5
105
100
AcDbEntity
  8
1
  6
DASH_CENTER
 62
             2
100
AcDbLine
 10
-56.50000000000006
 20
1.47058899998757
 11
-56.50000000000006
 21
4.7705889999869
  0
LINE
  5
104
100
AcDbEntity
  8
1
  6
DASH_CENTER
 62
             2
100
AcDbLine
 10
-54.85000000000045
 20
3.12058899998908
 11
-58.14999999999967
 21
3.12058899998908
  0
LINE
  5
103
100
AcDbEntity
  8
1
  6
DASH_CENTER
 62
             2
100
AcDbLine
 10
-96.50000000000006
 20
1.47058899998757
 11
-96.50000000000006
 21
4.7705889999869
  0
LINE
  5
102
100
AcDbEntity
  8
1
  6
DASH_CENTER
 62
             2
100
AcDbLine
 10
-94.85000000000045
 20
3.12058899998908
 11
-98.14999999999967
 21
3.12058899998908
  0
LINE
  5
101
100
AcDbEntity
  8
1
  6
DASH_CENTER
 62
             2
100
AcDbLine
 10
-67.50000000000006
 20
10.47058899998757
 11
-67.50000000000006
 21
13.7705889999869
  0
LINE
  5
100
100
AcDbEntity
  8
1
  6
DASH_CENTER
 62
             2
100
AcDbLine
 10
-65.85000000000045
 20
12.12058899998908
 11
-69.14999999999967
 21
12.12058899998908
  0
LINE
  5
FF
100
AcDbEntity
  8
1
  6
DASH_CENTER
 62
             2
100
AcDbLine
 10
-42.50000000000006
 20
10.47058899998757
 11
-42.50000000000006
 21
13.7705889999869
  0
LINE
  5
FE
100
AcDbEntity
  8
1
  6
DASH_CENTER
 62
             2
100
AcDbLine
 10
-40.85000000000045
 20
12.12058899998908
 11
-44.14999999999967
 21
12.12058899998908
  0
LINE
  5
FD
100
AcDbEntity
  8
1
  6
DASH_CENTER
 62
             2
100
AcDbLine
 10
-77.50000000000006
 20
10.47058899998757
 11
-77.50000000000006
 21
13.7705889999869
  0
LINE
  5
FC
100
AcDbEntity
  8
1
  6
DASH_CENTER
 62
             2
100
AcDbLine
 10
-75.85000000000045
 20
12.12058899998908
 11
-79.14999999999967
 21
12.12058899998908
  0
LINE
  5
FB
100
AcDbEntity
  8
1
  6
DASH_CENTER
 62
             2
100
AcDbLine
 10
-59.00000000000006
 20
10.47058899998757
 11
-59.00000000000006
 21
13.7705889999869
  0
LINE
  5
FA
100
AcDbEntity
  8
1
  6
DASH_CENTER
 62
             2
100
AcDbLine
 10
-60.64999999999967
 20
12.12058899998908
 11
-57.35000000000045
 21
12.12058899998908
  0
LINE
  5
F9
100
AcDbEntity
  8
1
  6
DASH_CENTER
 62
             2
100
AcDbLine
 10
-94.00000000000006
 20
10.47058899998757
 11
-94.00000000000006
 21
13.7705889999869
  0
LINE
  5
F8
100
AcDbEntity
  8
1
  6
DASH_CENTER
 62
             2
100
AcDbLine
 10
-92.35000000000045
 20
12.12058899998908
 11
-95.64999999999967
 21
12.12058899998908
  0
LINE
  5
F7
100
AcDbEntity
  8
1
  6
DASH_CENTER
 62
             2
100
AcDbLine
 10
-76.50000000000006
 20
-17.2294110000131
 11
-76.50000000000006
 21
-20.52941100001243
  0
LINE
  5
F6
100
AcDbEntity
  8
1
  6
DASH_CENTER
 62
             2
100
AcDbLine
 10
-74.85000000000045
 20
-18.87941100001092
 11
-78.14999999999967
 21
-18.87941100001092
  0
LINE
  5
F5
100
AcDbEntity
  8
1
  6
DASH_CENTER
 62
             2
100
AcDbLine
 10
-60.00000000000006
 20
-17.2294110000131
 11
-60.00000000000006
 21
-20.52941100001243
  0
LINE
  5
F4
100
AcDbEntity
  8
1
  6
DASH_CENTER
 62
             2
100
AcDbLine
 10
-58.35000000000045
 20
-18.87941100001092
 11
-61.64999999999967
 21
-18.87941100001092
  0
LINE
  5
F3
100
AcDbEntity
  8
1
  6
DASH_CENTER
 62
             2
100
AcDbLine
 10
-67.50000000000006
 20
-7.52941100001243
 11
-67.50000000000006
 21
-4.2294110000131
  0
LINE
  5
F2
100
AcDbEntity
  8
1
  6
DASH_CENTER
 62
             2
100
AcDbLine
 10
-69.14999999999967
 20
-5.87941100001092
 11
-65.85000000000045
 21
-5.87941100001092
  0
LINE
  5
F1
100
AcDbEntity
  8
1
  6
DASH_CENTER
 62
             2
100
AcDbLine
 10
-77.50000000000006
 20
-7.52941100001243
 11
-77.50000000000006
 21
-4.2294110000131
  0
LINE
  5
F0
100
AcDbEntity
  8
1
  6
DASH_CENTER
 62
             2
100
AcDbLine
 10
-79.14999999999967
 20
-5.87941100001092
 11
-75.85000000000045
 21
-5.87941100001092
  0
LINE
  5
EF
100
AcDbEntity
  8
1
  6
DASH_CENTER
 62
             2
100
AcDbLine
 10
-59.00000000000006
 20
-7.52941100001243
 11
-59.00000000000006
 21
-4.2294110000131
  0
LINE
  5
EE
100
AcDbEntity
  8
1
  6
DASH_CENTER
 62
             2
100
AcDbLine
 10
-57.35000000000045
 20
-5.87941100001092
 11
-60.64999999999967
 21
-5.87941100001092
  0
LINE
  5
ED
100
AcDbEntity
  8
1
  6
DASH_CENTER
 62
             2
100
AcDbLine
 10
-94.00000000000006
 20
-7.52941100001243
 11
-94.00000000000006
 21
-4.2294110000131
  0
LINE
  5
EC
100
AcDbEntity
  8
1
  6
DASH_CENTER
 62
             2
100
AcDbLine
 10
-95.64999999999967
 20
-5.87941100001092
 11
-92.35000000000045
 21
-5.87941100001092
  0
LINE
  5
EB
100
AcDbEntity
  8
1
  6
DASH_CENTER
 62
             2
100
AcDbLine
 10
-76.50000000000006
 20
26.7705889999869
 11
-76.50000000000006
 21
23.47058899998757
  0
LINE
  5
EA
100
AcDbEntity
  8
1
  6
DASH_CENTER
 62
             2
100
AcDbLine
 10
-78.14999999999967
 20
25.12058899998908
 11
-74.85000000000045
 21
25.12058899998908
  0
LINE
  5
E9
100
AcDbEntity
  8
1
  6
DASH_CENTER
 62
             2
100
AcDbLine
 10
-60.00000000000006
 20
26.7705889999869
 11
-60.00000000000006
 21
23.47058899998757
  0
LINE
  5
E8
100
AcDbEntity
  8
1
  6
DASH_CENTER
 62
             2
100
AcDbLine
 10
-61.64999999999967
 20
25.12058899998908
 11
-58.35000000000045
 21
25.12058899998908
  0
LINE
  5
E7
100
AcDbEntity
  8
1
  6
DASH_CENTER
 62
             2
100
AcDbLine
 10
-50.00000000000006
 20
26.7705889999869
 11
-50.00000000000006
 21
23.47058899998757
  0
LINE
  5
E6
100
AcDbEntity
  8
1
  6
DASH_CENTER
 62
             2
100
AcDbLine
 10
-51.64999999999967
 20
25.12058899998908
 11
-48.35000000000045
 21
25.12058899998908
  0
LINE
  5
E5
100
AcDbEntity
  8
1
  6
DASH_CENTER
 62
             2
100
AcDbLine
 10
-40.00000000000006
 20
26.7705889999869
 11
-40.00000000000006
 21
23.47058899998757
  0
LINE
  5
E4
100
AcDbEntity
  8
1
  6
DASH_CENTER
 62
             2
100
AcDbLine
 10
-41.64999999999967
 20
25.12058899998908
 11
-38.35000000000045
 21
25.12058899998908
  0
LINE
  5
E3
100
AcDbEntity
  8
1
  6
DASH_CENTER
 62
             2
100
AcDbLine
 10
67.49999999999994
 20
13.7705889999869
 11
67.49999999999994
 21
10.47058899998757
  0
LINE
  5
E2
100
AcDbEntity
  8
1
  6
DASH_CENTER
 62
             2
100
AcDbLine
 10
69.14999999999952
 20
12.12058899998908
 11
65.85000000000036
 21
12.12058899998908
  0
LINE
  5
E1
100
AcDbEntity
  8
1
  6
DASH_CENTER
 62
             2
100
AcDbLine
 10
42.49999999999994
 20
13.7705889999869
 11
42.49999999999994
 21
10.47058899998757
  0
LINE
  5
E0
100
AcDbEntity
  8
1
  6
DASH_CENTER
 62
             2
100
AcDbLine
 10
44.14999999999952
 20
12.12058899998908
 11
40.85000000000036
 21
12.12058899998908
  0
LINE
  5
DF
100
AcDbEntity
  8
1
  6
DASH_CENTER
 62
             2
100
AcDbLine
 10
77.49999999999994
 20
13.7705889999869
 11
77.49999999999994
 21
10.47058899998757
  0
LINE
  5
DE
100
AcDbEntity
  8
1
  6
DASH_CENTER
 62
             2
100
AcDbLine
 10
79.14999999999952
 20
12.12058899998908
 11
75.85000000000036
 21
12.12058899998908
  0
LINE
  5
DD
100
AcDbEntity
  8
1
  6
DASH_CENTER
 62
             2
100
AcDbLine
 10
58.99999999999994
 20
13.7705889999869
 11
58.99999999999994
 21
10.47058899998757
  0
LINE
  5
DC
100
AcDbEntity
  8
1
  6
DASH_CENTER
 62
             2
100
AcDbLine
 10
57.35000000000036
 20
12.12058899998908
 11
60.64999999999952
 21
12.12058899998908
  0
LINE
  5
DB
100
AcDbEntity
  8
1
  6
DASH_CENTER
 62
             2
100
AcDbLine
 10
93.99999999999994
 20
13.7705889999869
 11
93.99999999999994
 21
10.47058899998757
  0
LINE
  5
DA
100
AcDbEntity
  8
1
  6
DASH_CENTER
 62
             2
100
AcDbLine
 10
95.64999999999952
 20
12.12058899998908
 11
92.35000000000036
 21
12.12058899998908
  0
LINE
  5
D9
100
AcDbEntity
  8
1
  6
DASH_CENTER
 62
             2
100
AcDbLine
 10
76.49999999999994
 20
-20.52941100001243
 11
76.49999999999994
 21
-17.2294110000131
  0
LINE
  5
D8
100
AcDbEntity
  8
1
  6
DASH_CENTER
 62
             2
100
AcDbLine
 10
78.14999999999952
 20
-18.87941100001092
 11
74.85000000000036
 21
-18.87941100001092
  0
LINE
  5
D7
100
AcDbEntity
  8
1
  6
DASH_CENTER
 62
             2
100
AcDbLine
 10
59.99999999999994
 20
-20.52941100001243
 11
59.99999999999994
 21
-17.2294110000131
  0
LINE
  5
D6
100
AcDbEntity
  8
1
  6
DASH_CENTER
 62
             2
100
AcDbLine
 10
61.64999999999952
 20
-18.87941100001092
 11
58.35000000000036
 21
-18.87941100001092
  0
LINE
  5
D5
100
AcDbEntity
  8
1
  6
DASH_CENTER
 62
             2
100
AcDbLine
 10
49.99999999999994
 20
-20.52941100001243
 11
49.99999999999994
 21
-17.2294110000131
  0
LINE
  5
D4
100
AcDbEntity
  8
1
  6
DASH_CENTER
 62
             2
100
AcDbLine
 10
51.64999999999952
 20
-18.87941100001092
 11
48.35000000000036
 21
-18.87941100001092
  0
LINE
  5
D3
100
AcDbEntity
  8
1
  6
DASH_CENTER
 62
             2
100
AcDbLine
 10
39.99999999999994
 20
-20.52941100001243
 11
39.99999999999994
 21
-17.2294110000131
  0
LINE
  5
D2
100
AcDbEntity
  8
1
  6
DASH_CENTER
 62
             2
100
AcDbLine
 10
41.64999999999952
 20
-18.87941100001092
 11
38.35000000000036
 21
-18.87941100001092
  0
LINE
  5
D1
100
AcDbEntity
  8
1
  6
DASH_CENTER
 62
             2
100
AcDbLine
 10
67.49999999999994
 20
-4.2294110000131
 11
67.49999999999994
 21
-7.52941100001243
  0
LINE
  5
D0
100
AcDbEntity
  8
1
  6
DASH_CENTER
 62
             2
100
AcDbLine
 10
65.85000000000036
 20
-5.87941100001092
 11
69.14999999999952
 21
-5.87941100001092
  0
LINE
  5
CF
100
AcDbEntity
  8
1
  6
DASH_CENTER
 62
             2
100
AcDbLine
 10
42.49999999999994
 20
-4.2294110000131
 11
42.49999999999994
 21
-7.52941100001243
  0
LINE
  5
CE
100
AcDbEntity
  8
1
  6
DASH_CENTER
 62
             2
100
AcDbLine
 10
40.85000000000036
 20
-5.87941100001092
 11
44.14999999999952
 21
-5.87941100001092
  0
LINE
  5
CD
100
AcDbEntity
  8
1
  6
DASH_CENTER
 62
             2
100
AcDbLine
 10
77.49999999999994
 20
-4.2294110000131
 11
77.49999999999994
 21
-7.52941100001243
  0
LINE
  5
CC
100
AcDbEntity
  8
1
  6
DASH_CENTER
 62
             2
100
AcDbLine
 10
75.85000000000036
 20
-5.87941100001092
 11
79.14999999999952
 21
-5.87941100001092
  0
LINE
  5
CB
100
AcDbEntity
  8
1
  6
DASH_CENTER
 62
             2
100
AcDbLine
 10
58.99999999999994
 20
-4.2294110000131
 11
58.99999999999994
 21
-7.52941100001243
  0
LINE
  5
CA
100
AcDbEntity
  8
1
  6
DASH_CENTER
 62
             2
100
AcDbLine
 10
60.64999999999952
 20
-5.87941100001092
 11
57.35000000000036
 21
-5.87941100001092
  0
LINE
  5
C9
100
AcDbEntity
  8
1
  6
DASH_CENTER
 62
             2
100
AcDbLine
 10
93.99999999999994
 20
-4.2294110000131
 11
93.99999999999994
 21
-7.52941100001243
  0
LINE
  5
C8
100
AcDbEntity
  8
1
  6
DASH_CENTER
 62
             2
100
AcDbLine
 10
92.35000000000036
 20
-5.87941100001092
 11
95.64999999999952
 21
-5.87941100001092
  0
LINE
  5
C7
100
AcDbEntity
  8
1
  6
DASH_CENTER
 62
             2
100
AcDbLine
 10
76.49999999999994
 20
23.47058899998757
 11
76.49999999999994
 21
26.7705889999869
  0
LINE
  5
C6
100
AcDbEntity
  8
1
  6
DASH_CENTER
 62
             2
100
AcDbLine
 10
74.85000000000036
 20
25.12058899998908
 11
78.14999999999952
 21
25.12058899998908
  0
LINE
  5
C5
100
AcDbEntity
  8
1
  6
DASH_CENTER
 62
             2
100
AcDbLine
 10
59.99999999999994
 20
23.47058899998757
 11
59.99999999999994
 21
26.7705889999869
  0
LINE
  5
C4
100
AcDbEntity
  8
1
  6
DASH_CENTER
 62
             2
100
AcDbLine
 10
58.35000000000036
 20
25.12058899998908
 11
61.64999999999952
 21
25.12058899998908
  0
LINE
  5
C3
100
AcDbEntity
  8
1
  6
DASH_CENTER
 62
             2
100
AcDbLine
 10
49.99999999999994
 20
23.47058899998757
 11
49.99999999999994
 21
26.7705889999869
  0
LINE
  5
C2
100
AcDbEntity
  8
1
  6
DASH_CENTER
 62
             2
100
AcDbLine
 10
48.35000000000036
 20
25.12058899998908
 11
51.64999999999952
 21
25.12058899998908
  0
LINE
  5
C1
100
AcDbEntity
  8
1
  6
DASH_CENTER
 62
             2
100
AcDbLine
 10
39.99999999999994
 20
23.47058899998757
 11
39.99999999999994
 21
26.7705889999869
  0
LINE
  5
C0
100
AcDbEntity
  8
1
  6
DASH_CENTER
 62
             2
100
AcDbLine
 10
38.35000000000036
 20
25.12058899998908
 11
41.64999999999952
 21
25.12058899998908
  0
LINE
  5
BF
100
AcDbEntity
  8
1
  6
DASH_CENTER
 62
             2
100
AcDbLine
 10
63.49999999999994
 20
9.77058899998326
 11
63.49999999999994
 21
6.47058899998757
  0
LINE
  5
BE
100
AcDbEntity
  8
1
  6
DASH_CENTER
 62
             2
100
AcDbLine
 10
65.15000000000146
 20
8.12058899998908
 11
61.84999999999843
 21
8.12058899998908
  0
LINE
  5
BD
100
AcDbEntity
  8
1
  6
DASH_CENTER
 62
             2
100
AcDbLine
 10
73.49999999999994
 20
9.77058899998326
 11
73.49999999999994
 21
6.47058899998757
  0
LINE
  5
BC
100
AcDbEntity
  8
1
  6
DASH_CENTER
 62
             2
100
AcDbLine
 10
75.15000000000146
 20
8.12058899998908
 11
71.84999999999843
 21
8.12058899998908
  0
LINE
  5
BB
100
AcDbEntity
  8
1
  6
DASH_CENTER
 62
             2
100
AcDbLine
 10
36.49999999999994
 20
9.77058899998326
 11
36.49999999999994
 21
6.47058899998757
  0
LINE
  5
BA
100
AcDbEntity
  8
1
  6
DASH_CENTER
 62
             2
100
AcDbLine
 10
38.15000000000146
 20
8.12058899998908
 11
34.84999999999843
 21
8.12058899998908
  0
LINE
  5
B9
100
AcDbEntity
  8
1
  6
DASH_CENTER
 62
             2
100
AcDbLine
 10
83.49999999999994
 20
9.77058899998326
 11
83.49999999999994
 21
6.47058899998757
  0
LINE
  5
B8
100
AcDbEntity
  8
1
  6
DASH_CENTER
 62
             2
100
AcDbLine
 10
85.15000000000146
 20
8.12058899998908
 11
81.84999999999843
 21
8.12058899998908
  0
LINE
  5
B7
100
AcDbEntity
  8
1
  6
DASH_CENTER
 62
             2
100
AcDbLine
 10
52.99999999999994
 20
9.77058899998326
 11
52.99999999999994
 21
6.47058899998757
  0
LINE
  5
B6
100
AcDbEntity
  8
1
  6
DASH_CENTER
 62
             2
100
AcDbLine
 10
54.65000000000146
 20
8.12058899998908
 11
51.34999999999921
 21
8.12058899998908
  0
LINE
  5
B5
100
AcDbEntity
  8
1
  6
DASH_CENTER
 62
             2
100
AcDbLine
 10
99.99999999999994
 20
9.77058899998326
 11
99.99999999999994
 21
6.47058899998757
  0
LINE
  5
B4
100
AcDbEntity
  8
1
  6
DASH_CENTER
 62
             2
100
AcDbLine
 10
101.6500000000014
 20
8.12058899998908
 11
98.34999999999843
 21
8.12058899998908
  0
LINE
  5
B3
100
AcDbEntity
  8
1
  6
DASH_CENTER
 62
             2
100
AcDbLine
 10
-63.50000000000006
 20
6.47058899998757
 11
-63.50000000000006
 21
9.77058899998326
  0
LINE
  5
B2
100
AcDbEntity
  8
1
  6
DASH_CENTER
 62
             2
100
AcDbLine
 10
-61.84999999999855
 20
8.12058899998908
 11
-65.15000000000157
 21
8.12058899998908
  0
LINE
  5
B1
100
AcDbEntity
  8
1
  6
DASH_CENTER
 62
             2
100
AcDbLine
 10
-73.50000000000006
 20
6.47058899998757
 11
-73.50000000000006
 21
9.77058899998326
  0
LINE
  5
B0
100
AcDbEntity
  8
1
  6
DASH_CENTER
 62
             2
100
AcDbLine
 10
-71.84999999999855
 20
8.12058899998908
 11
-75.15000000000157
 21
8.12058899998908
  0
LINE
  5
AF
100
AcDbEntity
  8
1
  6
DASH_CENTER
 62
             2
100
AcDbLine
 10
-83.50000000000006
 20
6.47058899998757
 11
-83.50000000000006
 21
9.77058899998326
  0
LINE
  5
AE
100
AcDbEntity
  8
1
  6
DASH_CENTER
 62
             2
100
AcDbLine
 10
-81.84999999999855
 20
8.12058899998908
 11
-85.15000000000157
 21
8.12058899998908
  0
LINE
  5
AD
100
AcDbEntity
  8
1
  6
DASH_CENTER
 62
             2
100
AcDbLine
 10
-53.00000000000006
 20
6.47058899998757
 11
-53.00000000000006
 21
9.77058899998326
  0
LINE
  5
AC
100
AcDbEntity
  8
1
  6
DASH_CENTER
 62
             2
100
AcDbLine
 10
-51.34999999999855
 20
8.12058899998908
 11
-54.65000000000157
 21
8.12058899998908
  0
LINE
  5
AB
100
AcDbEntity
  8
1
  6
DASH_CENTER
 62
             2
100
AcDbLine
 10
-100.0000000000001
 20
6.47058899998757
 11
-100.0000000000001
 21
9.77058899998326
  0
LINE
  5
AA
100
AcDbEntity
  8
1
  6
DASH_CENTER
 62
             2
100
AcDbLine
 10
-98.34999999999857
 20
8.12058899998908
 11
-101.6500000000016
 21
8.12058899998908
  0
LINE
  5
A9
100
AcDbEntity
  8
1
  6
DASHED
 62
             7
100
AcDbLine
 10
37.99999999999994
 20
-78.37941100001092
 11
-38.00000000000006
 21
-78.37941100001092
  0
LINE
  5
A8
100
AcDbEntity
  8
1
  6
DASH_CENTER
 62
             2
100
AcDbLine
 10
-120.0000000000001
 20
11.88075832688361
 11
-120.0000000000001
 21
-8.11924167311639
  0
LINE
  5
A7
100
AcDbEntity
  8
1
  6
CONTINUOUS
 62
             7
100
AcDbLine
 10
-132.00000000000011
 20
3.12058899998908
 11
-132.00000000000011
 21
10.12058899998908
  0
LINE
  5
A6
100
AcDbEntity
  8
1
  6
CONTINUOUS
 62
             7
100
AcDbLine
 10
131.99999999999989
 20
3.12058899998908
 11
131.99999999999989
 21
-3.87941100001092
  0
LINE
  5
A5
100
AcDbEntity
  8
1
  6
DASH_CENTER
 62
             2
100
AcDbLine
 10
119.9999999999999
 20
8.6510118694909
 11
119.9999999999999
 21
-3.3489881305091
  0
LINE
  5
A4
100
AcDbEntity
  8
LC-001-002-----0
  6
CONTINUOUS
 62
             7
100
AcDbLine
 10
117.9999999999999
 20
8.12058899998908
 11
121.9999999999999
 21
8.12058899998908
  0
LINE
  5
A3
100
AcDbEntity
  8
LC-001-002-----0
  6
CONTINUOUS
 62
             7
100
AcDbLine
 10
117.9999999999999
 20
-1.87941100001092
 11
117.9949999999989
 21
-1.87941100001092
  0
LINE
  5
A2
100
AcDbEntity
  8
LC-001-002-----0
  6
CONTINUOUS
 62
             7
100
AcDbLine
 10
121.9999999999999
 20
-1.87941100001092
 11
117.9999999999999
 21
-1.87941100001092
  0
LINE
  5
A1
100
AcDbEntity
  8
LC-001-002-----0
  6
CONTINUOUS
 62
             7
100
AcDbLine
 10
121.9999999999999
 20
0.12058899998908
 11
117.9999999999999
 21
0.12058899998908
  0
LINE
  5
A0
100
AcDbEntity
  8
LC-001-002-----0
  6
CONTINUOUS
 62
             7
100
AcDbLine
 10
121.9999999999999
 20
6.12058899998908
 11
117.9999999999999
 21
6.12058899998908
  0
LINE
  5
9F
100
AcDbEntity
  8
LC-001-002-----0
  6
CONTINUOUS
 62
             7
100
AcDbLine
 10
-115.0000000000001
 20
5.12058899998908
 11
-115.0000000000001
 21
1.12058899998908
  0
LINE
  5
9E
100
AcDbEntity
  8
LC-001-002-----0
  6
CONTINUOUS
 62
             7
100
AcDbLine
 10
-117.0000000000001
 20
5.12058899998908
 11
-117.0000000000001
 21
1.12058899998908
  0
LINE
  5
9D
100
AcDbEntity
  8
LC-001-002-----0
  6
CONTINUOUS
 62
             7
100
AcDbLine
 10
-123.0000000000001
 20
5.12058899998908
 11
-123.0000000000001
 21
1.12058899998908
  0
LINE
  5
9C
100
AcDbEntity
  8
LC-001-002-----0
  6
CONTINUOUS
 62
             7
100
AcDbLine
 10
-125.0000000000001
 20
5.12058899998908
 11
-125.0000000000001
 21
1.12058899998908
  0
LINE
  5
9B
100
AcDbEntity
  8
1
  6
DOT_CENTER
 62
             2
100
AcDbLine
 10
106.4120762372329
 20
3.12058899998908
 11
106.9999999999999
 21
3.12058899998908
  0
LINE
  5
9A
100
AcDbEntity
  8
1
  6
DASH_CENTER
 62
             2
100
AcDbLine
 10
-132.00000000000011
 20
3.12058899998908
 11
-106.41947170108109
 21
3.12058899998908
  0
LINE
  5
99
100
AcDbEntity
  8
1
  6
DASH_CENTER
 62
             2
100
AcDbLine
 10
-46.99999999999996
 20
1.4705889999891
 11
-46.99999999999996
 21
4.77058899998906
  0
LINE
  5
98
100
AcDbEntity
  8
1
  6
DASH_CENTER
 62
             2
100
AcDbLine
 10
-45.35000000000005
 20
3.12058899998908
 11
-48.64999999999995
 21
3.12058899998908
  0
LINE
  5
97
100
AcDbEntity
  8
1
  6
DASH_CENTER
 62
             2
100
AcDbLine
 10
46.99999999999994
 20
4.77058899998906
 11
46.99999999999994
 21
1.4705889999891
  0
LINE
  5
96
100
AcDbEntity
  8
1
  6
DASH_CENTER
 62
             2
100
AcDbLine
 10
48.64999999999992
 20
3.12058899998908
 11
45.34999999999921
 21
3.12058899998908
  0
LINE
  5
95
100
AcDbEntity
  8
1
  6
CONTINUOUS
 62
             7
100
AcDbLine
 10
74.99999999999994
 20
31.62058899998908
 11
20.15907615179247
 21
31.62058899998908
  0
LINE
  5
94
100
AcDbEntity
  8
1
  6
DASH_CENTER
 62
             2
100
AcDbLine
 10
-27.00000000000006
 20
28.77058899999997
 11
-27.00000000000006
 21
25.47058899999996
  0
LINE
  5
93
100
AcDbEntity
  8
1
  6
DASH_CENTER
 62
             2
100
AcDbLine
 10
-25.35000000000005
 20
27.120589
 11
-28.65000000000007
 21
27.120589
  0
LINE
  5
92
100
AcDbEntity
  8
1
  6
DASH_CENTER
 62
             2
100
AcDbLine
 10
37.99999999999994
 20
-8.22941099999929
 11
37.99999999999994
 21
-11.52941100000072
  0
LINE
  5
91
100
AcDbEntity
  8
1
  6
DASH_CENTER
 62
             2
100
AcDbLine
 10
39.65000000000066
 20
-9.879411
 11
36.34999999999921
 21
-9.879411
  0
LINE
  5
90
100
AcDbEntity
  8
1
  6
DASH_CENTER
 62
             2
100
AcDbLine
 10
-27.00000000000006
 20
-33.22941100000003
 11
-27.00000000000006
 21
-36.52941100000004
  0
LINE
  5
8F
100
AcDbEntity
  8
1
  6
DASH_CENTER
 62
             2
100
AcDbLine
 10
-25.35000000000005
 20
-34.87941100000001
 11
-28.65000000000007
 21
-34.87941100000001
  0
LINE
  5
8E
100
AcDbEntity
  8
1
  6
DASH_CENTER
 62
             2
100
AcDbLine
 10
37.99999999999994
 20
-70.22941100000003
 11
37.99999999999994
 21
-73.52941100000004
  0
LINE
  5
8D
100
AcDbEntity
  8
1
  6
DASH_CENTER
 62
             2
100
AcDbLine
 10
39.64999999999992
 20
-71.87941100000001
 11
36.34999999999997
 21
-71.87941100000001
  0
LINE
  5
8C
100
AcDbEntity
  8
1
  6
CONTINUOUS
 62
             7
100
AcDbLine
 10
-108.0000000000001
 20
-16.87941100001092
 11
-108.0000000000001
 21
-17.37941100001092
  0
LINE
  5
8B
100
AcDbEntity
  8
1
  6
CONTINUOUS
 62
             7
100
AcDbLine
 10
-108.0000000000001
 20
23.12058899998908
 11
-108.0000000000001
 21
23.62058899998908
  0
LINE
  5
8A
100
AcDbEntity
  8
1
  6
CONTINUOUS
 62
             7
100
AcDbLine
 10
107.9999999999999
 20
23.12058899998908
 11
107.9999999999999
 21
23.62058899998908
  0
LINE
  5
89
100
AcDbEntity
  8
1
  6
CONTINUOUS
 62
             7
100
AcDbLine
 10
107.9999999999999
 20
-16.87941100001092
 11
107.9999999999999
 21
-17.37941100001092
  0
LINE
  5
88
100
AcDbEntity
  8
1
  6
DASHED
 62
             7
100
AcDbLine
 10
-44.00000000000006
 20
-30.37941100001092
 11
-44.00000000000006
 21
-72.37941100001092
  0
LINE
  5
87
100
AcDbEntity
  8
1
  6
CONTINUOUS
 62
             7
100
AcDbLine
 10
43.99999999999994
 20
-30.37941100001092
 11
43.99999999999994
 21
-72.37941100001092
  0
LINE
  5
86
100
AcDbEntity
  8
1
  6
CONTINUOUS
 62
             7
100
AcDbLine
 10
-100.0000000000001
 20
-25.37941100001092
 11
-75.00000000000006
 21
-25.37941100001092
  0
LINE
  5
85
100
AcDbEntity
  8
1
  6
CONTINUOUS
 62
             7
100
AcDbLine
 10
99.99999999999994
 20
31.62058899998908
 11
74.99999999999994
 21
31.62058899998908
  0
LINE
  5
84
100
AcDbEntity
  8
1
  6
CONTINUOUS
 62
             7
100
AcDbLine
 10
-75.00000000000006
 20
31.62058899998908
 11
-100.0000000000001
 21
31.62058899998908
  0
LINE
  5
83
100
AcDbEntity
  8
1
  6
CONTINUOUS
 62
             7
100
AcDbLine
 10
-75.00000000000006
 20
-25.37941100001092
 11
-52.22963780468491
 21
-25.37941100001092
  0
LINE
  5
82
100
AcDbEntity
  8
1
  6
CONTINUOUS
 62
             7
100
AcDbLine
 10
48.99999999999994
 20
-25.37941100001092
 11
74.99999999999994
 21
-25.37941100001092
  0
LINE
  5
81
100
AcDbEntity
  8
1
  6
CONTINUOUS
 62
             7
100
AcDbLine
 10
74.99999999999994
 20
-25.37941100001092
 11
99.99999999999994
 21
-25.37941100001092
  0
LINE
  5
80
100
AcDbEntity
  8
1
  6
CONTINUOUS
 62
             7
100
AcDbLine
 10
112.9999999999999
 20
18.12058899998908
 11
120.9999999999999
 21
18.12058899998908
  0
LINE
  5
7F
100
AcDbEntity
  8
1
  6
CONTINUOUS
 62
             7
100
AcDbLine
 10
123.9999999999999
 20
-11.87941100001092
 11
112.9999999999999
 21
-11.87941100001092
  0
LINE
  5
7E
100
AcDbEntity
  8
1
  6
CONTINUOUS
 62
             7
100
AcDbLine
 10
131.99999999999989
 20
10.12058899998908
 11
131.99999999999989
 21
3.12058899998908
  0
LINE
  5
7D
100
AcDbEntity
  8
1
  6
CONTINUOUS
 62
             7
100
AcDbLine
 10
-113.0000000000001
 20
-11.87941100001092
 11
-124.0000000000001
 21
-11.87941100001092
  0
LINE
  5
7C
100
AcDbEntity
  8
1
  6
CONTINUOUS
 62
             7
100
AcDbLine
 10
-132.00000000000011
 20
-3.87941100001092
 11
-132.00000000000011
 21
3.12058899998908
  0
LINE
  5
7B
100
AcDbEntity
  8
1
  6
CONTINUOUS
 62
             7
100
AcDbLine
 10
-124.0000000000001
 20
18.12058899998908
 11
-113.0000000000001
 21
18.12058899998908
  0
LINE
  5
7A
100
AcDbEntity
  8
1
  6
DASH_CENTER
 62
             2
100
AcDbLine
 10
36.64999999999992
 20
-28.87941100001092
 11
33.34999999999997
 21
-28.87941100001092
  0
LINE
  5
79
100
AcDbEntity
  8
1
  6
DASH_CENTER
 62
             2
100
AcDbLine
 10
34.99999999999994
 20
-27.22941100001094
 11
34.99999999999994
 21
-30.5294110000109
  0
LINE
  5
78
100
AcDbEntity
  8
LC-001-002-----0
  6
DASHED
 62
             7
100
AcDbLine
 10
2.00000000000065
 20
-61.87941100001092
 11
-1.99999999999935
 21
-61.87941100001092
  0
LINE
  5
77
100
AcDbEntity
  8
LC-001-002-----0
  6
DASHED
 62
             7
100
AcDbLine
 10
2.00000000000065
 20
-55.87941100001092
 11
-1.99999999999935
 21
-55.87941100001092
  0
LINE
  5
76
100
AcDbEntity
  8
LC-001-002-----0
  6
DASHED
 62
             7
100
AcDbLine
 10
2.00000000000065
 20
-53.87941100001092
 11
-1.99999999999935
 21
-53.87941100001092
  0
LINE
  5
75
100
AcDbEntity
  8
1
  6
CONTINUOUS
 62
             7
100
AcDbLine
 10
-76.50000000000006
 20
30.62058899998908
 11
-76.50000000000006
 21
26.62058899998908
  0
LINE
  5
74
100
AcDbEntity
  8
1
  6
CONTINUOUS
 62
             7
100
AcDbLine
 10
-76.50000000000006
 20
23.62058899998908
 11
-76.50000000000006
 21
13.238622988739
  0
LINE
  5
73
100
AcDbEntity
  8
1
  6
CONTINUOUS
 62
             7
100
AcDbLine
 10
-76.50000000000006
 20
-6.99744498876083
 11
-76.50000000000006
 21
-17.37941100001092
  0
LINE
  5
72
100
AcDbEntity
  8
1
  6
CONTINUOUS
 62
             7
100
AcDbLine
 10
-76.50000000000006
 20
-24.37941100001092
 11
-76.50000000000006
 21
-20.37941100001092
  0
LINE
  5
71
100
AcDbEntity
  8
1
  6
CONTINUOUS
 62
             7
100
AcDbLine
 10
-76.50000000000006
 20
11.00255501123917
 11
-76.50000000000006
 21
-4.761377011261
  0
LINE
  5
70
100
AcDbEntity
  8
1
  6
CONTINUOUS
 62
             7
100
AcDbLine
 10
-60.00000000000006
 20
-24.37941100001092
 11
-60.00000000000006
 21
-20.37941100001092
  0
LINE
  5
6F
100
AcDbEntity
  8
1
  6
CONTINUOUS
 62
             7
100
AcDbLine
 10
-60.00000000000006
 20
30.62058899998908
 11
-60.00000000000006
 21
26.62058899998908
  0
LINE
  5
6E
100
AcDbEntity
  8
1
  6
CONTINUOUS
 62
             7
100
AcDbLine
 10
-50.00000000000006
 20
30.62058899998908
 11
-50.00000000000006
 21
26.62058899998908
  0
LINE
  5
6D
100
AcDbEntity
  8
1
  6
CONTINUOUS
 62
             7
100
AcDbLine
 10
-40.00000000000006
 20
30.62058899998908
 11
-40.00000000000006
 21
26.62058899998908
  0
LINE
  5
6C
100
AcDbEntity
  8
1
  6
CONTINUOUS
 62
             7
100
AcDbLine
 10
-60.00000000000006
 20
23.62058899998908
 11
-60.00000000000006
 21
13.238622988739
  0
LINE
  5
6B
100
AcDbEntity
  8
1
  6
CONTINUOUS
 62
             7
100
AcDbLine
 10
-50.00000000000006
 20
23.62058899998908
 11
-50.00000000000006
 21
13.238622988739
  0
LINE
  5
6A
100
AcDbEntity
  8
1
  6
CONTINUOUS
 62
             7
100
AcDbLine
 10
-40.00000000000006
 20
23.62058899998908
 11
-40.00000000000005
 21
6.93298680384751
  0
LINE
  5
69
100
AcDbEntity
  8
1
  6
CONTINUOUS
 62
             7
100
AcDbLine
 10
-60.00000000000006
 20
-6.99744498876083
 11
-60.00000000000006
 21
-17.37941100001092
  0
LINE
  5
68
100
AcDbEntity
  8
1
  6
CONTINUOUS
 62
             7
100
AcDbLine
 10
-50.00000000000006
 20
13.238622988739
 11
-50.00000000000005
 21
-8.879411
  0
LINE
  5
67
100
AcDbEntity
  8
1
  6
CONTINUOUS
 62
             7
100
AcDbLine
 10
-60.00000000000006
 20
1.62058899998908
 11
-60.00000000000006
 21
-4.761377011261
  0
LINE
  5
66
100
AcDbEntity
  8
1
  6
CONTINUOUS
 62
             7
100
AcDbLine
 10
76.49999999999994
 20
-20.37941100001092
 11
76.49999999999994
 21
-24.37941100001092
  0
LINE
  5
65
100
AcDbEntity
  8
1
  6
CONTINUOUS
 62
             7
100
AcDbLine
 10
59.99999999999994
 20
-20.37941100001092
 11
59.99999999999994
 21
-24.37941100001092
  0
LINE
  5
64
100
AcDbEntity
  8
1
  6
CONTINUOUS
 62
             7
100
AcDbLine
 10
49.99999999999994
 20
-20.37941100001092
 11
49.99999999999994
 21
-24.37941100001092
  0
LINE
  5
63
100
AcDbEntity
  8
1
  6
CONTINUOUS
 62
             7
100
AcDbLine
 10
39.99999999999994
 20
-20.37941100001092
 11
39.99999999999994
 21
-24.37941100001092
  0
LINE
  5
62
100
AcDbEntity
  8
1
  6
CONTINUOUS
 62
             7
100
AcDbLine
 10
39.99999999999994
 20
-17.37941100001092
 11
39.99999999999994
 21
-14.52305007594062
  0
LINE
  5
61
100
AcDbEntity
  8
1
  6
CONTINUOUS
 62
             7
100
AcDbLine
 10
49.99999999999994
 20
-17.37941100001092
 11
49.99999999999994
 21
23.47058899998757
  0
LINE
  5
60
100
AcDbEntity
  8
1
  6
CONTINUOUS
 62
             7
100
AcDbLine
 10
59.99999999999994
 20
-17.37941100001092
 11
59.99999999999994
 21
-6.99744498876083
  0
LINE
  5
5F
100
AcDbEntity
  8
1
  6
CONTINUOUS
 62
             7
100
AcDbLine
 10
76.49999999999994
 20
-17.37941100001092
 11
76.49999999999994
 21
-6.99744498876083
  0
LINE
  5
5E
100
AcDbEntity
  8
1
  6
CONTINUOUS
 62
             7
100
AcDbLine
 10
76.49999999999994
 20
-4.761377011261
 11
76.49999999999994
 21
11.00255501123917
  0
LINE
  5
5D
100
AcDbEntity
  8
1
  6
CONTINUOUS
 62
             7
100
AcDbLine
 10
59.99999999999994
 20
-4.761377011261
 11
59.99999999999994
 21
1.62058899998908
  0
LINE
  5
5C
100
AcDbEntity
  8
1
  6
CONTINUOUS
 62
             7
100
AcDbLine
 10
76.49999999999994
 20
26.62058899998908
 11
76.49999999999994
 21
30.62058899998908
  0
LINE
  5
5B
100
AcDbEntity
  8
1
  6
CONTINUOUS
 62
             7
100
AcDbLine
 10
59.99999999999994
 20
26.62058899998908
 11
59.99999999999994
 21
30.62058899998908
  0
LINE
  5
5A
100
AcDbEntity
  8
1
  6
CONTINUOUS
 62
             7
100
AcDbLine
 10
49.99999999999994
 20
26.62058899998908
 11
49.99999999999994
 21
30.62058899998908
  0
LINE
  5
59
100
AcDbEntity
  8
1
  6
CONTINUOUS
 62
             7
100
AcDbLine
 10
39.99999999999994
 20
26.62058899998908
 11
39.99999999999994
 21
30.62058899998908
  0
LINE
  5
58
100
AcDbEntity
  8
1
  6
CONTINUOUS
 62
             7
100
AcDbLine
 10
39.99999999999994
 20
4.62058899998908
 11
39.99999999999994
 21
23.62058899998908
  0
LINE
  5
57
100
AcDbEntity
  8
1
  6
CONTINUOUS
 62
             7
100
AcDbLine
 10
59.99999999999994
 20
13.238622988739
 11
59.99999999999994
 21
23.62058899998908
  0
LINE
  5
56
100
AcDbEntity
  8
1
  6
CONTINUOUS
 62
             7
100
AcDbLine
 10
76.49999999999994
 20
13.238622988739
 11
76.49999999999994
 21
23.62058899998908
  0
LINE
  5
55
100
AcDbEntity
  8
1
  6
CONTINUOUS
 62
             7
100
AcDbLine
 10
-60.00000000000006
 20
11.00255501123917
 11
-60.00000000000006
 21
4.62058899998908
  0
LINE
  5
54
100
AcDbEntity
  8
1
  6
CONTINUOUS
 62
             7
100
AcDbLine
 10
59.99999999999994
 20
11.00255501123917
 11
59.99999999999994
 21
4.62058899998908
  0
LINE
  5
53
100
AcDbEntity
  8
1
  6
CONTINUOUS
 62
             7
100
AcDbLine
 10
106.9999999999999
 20
8.12058899998908
 11
101.4999999999999
 21
8.12058899998908
  0
LINE
  5
52
100
AcDbEntity
  8
1
  6
CONTINUOUS
 62
             7
100
AcDbLine
 10
98.34999999999843
 20
8.12058899998908
 11
84.99999999999994
 21
8.12058899998908
  0
LINE
  5
51
100
AcDbEntity
  8
1
  6
CONTINUOUS
 62
             7
100
AcDbLine
 10
81.84999999999843
 20
8.12058899998908
 11
75.15000000000146
 21
8.12058899998908
  0
LINE
  5
50
100
AcDbEntity
  8
1
  6
CONTINUOUS
 62
             7
100
AcDbLine
 10
65.15000000000146
 20
8.12058899998908
 11
71.84999999999843
 21
8.12058899998908
  0
LINE
  5
4F
100
AcDbEntity
  8
1
  6
CONTINUOUS
 62
             7
100
AcDbLine
 10
36.49999999999994
 20
8.12058899998908
 11
37.99999999999994
 21
8.12058899998908
  0
LINE
  5
4E
100
AcDbEntity
  8
1
  6
CONTINUOUS
 62
             7
100
AcDbLine
 10
54.65000000000146
 20
8.12058899998908
 11
61.84999999999843
 21
8.12058899998908
  0
LINE
  5
4D
100
AcDbEntity
  8
1
  6
CONTINUOUS
 62
             7
100
AcDbLine
 10
37.99999999999994
 20
8.12058899998908
 11
51.34999999999921
 21
8.12058899998908
  0
LINE
  5
4C
100
AcDbEntity
  8
1
  6
CONTINUOUS
 62
             7
100
AcDbLine
 10
81.49999999999994
 20
3.12058899998908
 11
94.99999999999994
 21
3.12058899998908
  0
LINE
  5
4B
100
AcDbEntity
  8
1
  6
CONTINUOUS
 62
             7
100
AcDbLine
 10
106.9999999999999
 20
3.12058899998908
 11
97.99999999999994
 21
3.12058899998908
  0
LINE
  5
4A
100
AcDbEntity
  8
1
  6
DASH_CENTER
 62
             2
100
AcDbLine
 10
106.9999999999999
 20
3.12058899998908
 11
134.99999999999989
 21
3.12058899998908
  0
LINE
  5
49
100
AcDbEntity
  8
1
  6
CONTINUOUS
 62
             7
100
AcDbLine
 10
71.49999999999994
 20
3.12058899998908
 11
78.49999999999994
 21
3.12058899998908
  0
LINE
  5
48
100
AcDbEntity
  8
1
  6
CONTINUOUS
 62
             7
100
AcDbLine
 10
61.49999999999994
 20
3.12058899998908
 11
68.49999999999994
 21
3.12058899998908
  0
LINE
  5
47
100
AcDbEntity
  8
1
  6
CONTINUOUS
 62
             7
100
AcDbLine
 10
54.99999999999994
 20
3.12058899998908
 11
48.49999999999994
 21
3.12058899998908
  0
LINE
  5
46
100
AcDbEntity
  8
1
  6
CONTINUOUS
 62
             7
100
AcDbLine
 10
45.49999999999994
 20
3.12058899998908
 11
41.49999999999994
 21
3.12058899998908
  0
LINE
  5
45
100
AcDbEntity
  8
1
  6
CONTINUOUS
 62
             7
100
AcDbLine
 10
58.49999999999994
 20
3.12058899998908
 11
57.99999999999994
 21
3.12058899998908
  0
LINE
  5
44
100
AcDbEntity
  8
1
  6
CONTINUOUS
 62
             7
100
AcDbLine
 10
-51.34999999999855
 20
8.12058899998908
 11
-39.0758698047704
 21
8.12058899998908
  0
LINE
  5
43
100
AcDbEntity
  8
1
  6
CONTINUOUS
 62
             7
100
AcDbLine
 10
-48.50000000000006
 20
3.12058899998908
 11
-55.00000000000017
 21
3.12058899998908
  0
LINE
  5
42
100
AcDbEntity
  8
1
  6
CONTINUOUS
 62
             7
100
AcDbLine
 10
-61.84999999999855
 20
8.12058899998908
 11
-54.65000000000157
 21
8.12058899998908
  0
LINE
  5
41
100
AcDbEntity
  8
1
  6
CONTINUOUS
 62
             7
100
AcDbLine
 10
-68.50000000000006
 20
3.12058899998908
 11
-61.50000000000017
 21
3.12058899998908
  0
LINE
  5
40
100
AcDbEntity
  8
1
  6
CONTINUOUS
 62
             7
100
AcDbLine
 10
-71.84999999999855
 20
8.12058899998908
 11
-65.15000000000157
 21
8.12058899998908
  0
LINE
  5
3F
100
AcDbEntity
  8
1
  6
CONTINUOUS
 62
             7
100
AcDbLine
 10
-78.50000000000006
 20
3.12058899998908
 11
-71.50000000000017
 21
3.12058899998908
  0
LINE
  5
3E
100
AcDbEntity
  8
1
  6
CONTINUOUS
 62
             7
100
AcDbLine
 10
-75.15000000000157
 20
8.12058899998908
 11
-81.84999999999855
 21
8.12058899998908
  0
LINE
  5
3D
100
AcDbEntity
  8
1
  6
CONTINUOUS
 62
             7
100
AcDbLine
 10
-95.00000000000014
 20
3.12058899998908
 11
-81.50000000000017
 21
3.12058899998908
  0
LINE
  5
3C
100
AcDbEntity
  8
1
  6
CONTINUOUS
 62
             7
100
AcDbLine
 10
-85.00000000000006
 20
8.12058899998908
 11
-98.34999999999857
 21
8.12058899998908
  0
LINE
  5
3B
100
AcDbEntity
  8
1
  6
CONTINUOUS
 62
             7
100
AcDbLine
 10
-101.5000000000001
 20
8.12058899998908
 11
-107.0000000000002
 21
8.12058899998908
  0
LINE
  5
3A
100
AcDbEntity
  8
1
  6
CONTINUOUS
 62
             7
100
AcDbLine
 10
-98.00000000000014
 20
3.12058899998908
 11
-107.0000000000002
 21
3.12058899998908
  0
LINE
  5
39
100
AcDbEntity
  8
1
  6
CONTINUOUS
 62
             7
100
AcDbLine
 10
-58.00000000000006
 20
3.12058899998908
 11
-58.50000000000006
 21
3.12058899998908
  0
ENDBLK
  5
1AB
100
AcDbEntity
  8
0
100
AcDbBlockEnd
  0
BLOCK
  5
2B
100
AcDbEntity
  8
0
100
AcDbBlockBegin
  2
HL_44_MONTAGEPLATTE__2
 70
             0
 10
-158.72252116025439
 20
-224.68954488202701
 30
0.0
  3
HL_44_MONTAGEPLATTE__2
  1

  0
ARC
  5
1D6
100
AcDbEntity
  8
1
  6
CONTINUOUS
 62
             7
100
AcDbCircle
 10
-175.16298300000011
 20
-10.87941100001092
 40
1.0
100
AcDbArc
 50
-90.0
 51
0.0
  0
ARC
  5
1D5
100
AcDbEntity
  8
1
  6
CONTINUOUS
 62
             7
100
AcDbCircle
 10
-175.16298300000011
 20
17.12058899998908
 40
1.0
100
AcDbArc
 50
0.0
 51
90.0
  0
ARC
  5
1D4
100
AcDbEntity
  8
1
  6
CONTINUOUS
 62
             7
100
AcDbCircle
 10
-183.66298300000011
 20
-10.87941100001092
 40
1.0
100
AcDbArc
 50
180.0
 51
-90.0
  0
ARC
  5
1D3
100
AcDbEntity
  8
1
  6
CONTINUOUS
 62
             7
100
AcDbCircle
 10
-183.66298300000011
 20
17.12058899998908
 40
1.0
100
AcDbArc
 50
90.0
 51
180.0
  0
ARC
  5
1D2
100
AcDbEntity
  8
1
  6
CONTINUOUS
 62
             7
100
AcDbCircle
 10
-173.16298300000011
 20
-24.37941100001092
 40
1.0
100
AcDbArc
 50
-90.0
 51
0.0
  0
ARC
  5
1D1
100
AcDbEntity
  8
1
  6
CONTINUOUS
 62
             7
100
AcDbCircle
 10
-183.66298300000011
 20
-24.37941100001092
 40
1.0
100
AcDbArc
 50
180.0
 51
-90.0
  0
ARC
  5
1D0
100
AcDbEntity
  8
1
  6
CONTINUOUS
 62
             7
100
AcDbCircle
 10
-173.16298300000011
 20
-23.87941100001092
 40
1.0
100
AcDbArc
 50
0.0
 51
90.0
  0
ARC
  5
1CF
100
AcDbEntity
  8
1
  6
CONTINUOUS
 62
             7
100
AcDbCircle
 10
-173.16298300000011
 20
30.12058899998908
 40
1.0
100
AcDbArc
 50
-90.0
 51
0.0
  0
ARC
  5
1CE
100
AcDbEntity
  8
1
  6
CONTINUOUS
 62
             7
100
AcDbCircle
 10
-183.66298300000011
 20
30.62058899998908
 40
1.0
100
AcDbArc
 50
90.0
 51
180.0
  0
ARC
  5
1CD
100
AcDbEntity
  8
1
  6
CONTINUOUS
 62
             7
100
AcDbCircle
 10
-173.16298300000011
 20
30.62058899998908
 40
1.0
100
AcDbArc
 50
0.0
 51
90.0
  0
ARC
  5
1CC
100
AcDbEntity
  8
1
  6
CONTINUOUS
 62
             7
100
AcDbCircle
 10
-173.16298300000011
 20
-77.37941100001092
 40
1.0
100
AcDbArc
 50
-90.0
 51
0.0
  0
ARC
  5
1CB
100
AcDbEntity
  8
1
  6
CONTINUOUS
 62
             7
100
AcDbCircle
 10
-183.66298300000011
 20
-77.37941100001092
 40
1.0
100
AcDbArc
 50
180.0
 51
-90.0
  0
LINE
  5
1CA
100
AcDbEntity
  8
1
  6
CONTINUOUS
 62
             7
100
AcDbLine
 10
-184.66298300000011
 20
30.62058899998908
 11
-184.91298300000011
 21
30.62058899998908
  0
LINE
  5
1C9
100
AcDbEntity
  8
1
  6
CONTINUOUS
 62
             7
100
AcDbLine
 10
-184.91298300000011
 20
30.62058899998908
 11
-184.91298300000011
 21
-77.37941100001092
  0
LINE
  5
1C8
100
AcDbEntity
  8
1
  6
CONTINUOUS
 62
             7
100
AcDbLine
 10
-184.91298300000011
 20
-77.37941100001092
 11
-184.66298300000011
 21
-77.37941100001092
  0
LINE
  5
1C7
100
AcDbEntity
  8
1
  6
CONTINUOUS
 62
             7
100
AcDbLine
 10
-184.66298300000011
 20
2.97625143269204
 11
-184.66298300000011
 21
3.26492656728613
  0
LINE
  5
1C6
100
AcDbEntity
  8
1
  6
CONTINUOUS
 62
             7
100
AcDbLine
 10
-184.66298300000011
 20
3.26492656728613
 11
-184.91298300000011
 21
3.12058899998908
  0
LINE
  5
1C5
100
AcDbEntity
  8
1
  6
CONTINUOUS
 62
             7
100
AcDbLine
 10
-184.66298300000011
 20
-11.87941100001092
 11
-184.66298300000011
 21
2.97625143269204
  0
LINE
  5
1C4
100
AcDbEntity
  8
1
  6
DOT_CENTER
 62
             2
100
AcDbLine
 10
-170.33836074457389
 20
3.12058899998908
 11
-184.91298300000011
 21
3.12058899998908
  0
LINE
  5
1C3
100
AcDbEntity
  8
1
  6
CONTINUOUS
 62
             7
100
AcDbLine
 10
-184.66298300000011
 20
2.97625143269204
 11
-184.91298300000011
 21
3.12058899998908
  0
LINE
  5
1C2
100
AcDbEntity
  8
1
  6
CONTINUOUS
 62
             7
100
AcDbLine
 10
-184.66298300000011
 20
4.62058899998908
 11
-184.66298300000011
 21
7.97625143269204
  0
LINE
  5
1C1
100
AcDbEntity
  8
1
  6
CONTINUOUS
 62
             7
100
AcDbLine
 10
-184.66298300000011
 20
3.26492656728613
 11
-184.66298300000011
 21
7.97625143269204
  0
LINE
  5
1C0
100
AcDbEntity
  8
1
  6
CONTINUOUS
 62
             7
100
AcDbLine
 10
-184.66298300000011
 20
7.97625143269204
 11
-184.91298300000011
 21
8.12058899998908
  0
LINE
  5
1BF
100
AcDbEntity
  8
1
  6
CONTINUOUS
 62
             7
100
AcDbLine
 10
-184.66298300000011
 20
7.97625143269204
 11
-184.66298300000011
 21
8.26492656728612
  0
LINE
  5
1BE
100
AcDbEntity
  8
1
  6
CONTINUOUS
 62
             7
100
AcDbLine
 10
-184.66298300000011
 20
7.97625143269204
 11
-184.66298300000011
 21
8.26492656728612
  0
LINE
  5
1BD
100
AcDbEntity
  8
1
  6
CONTINUOUS
 62
             7
100
AcDbLine
 10
-184.66298300000011
 20
8.26492656728612
 11
-184.91298300000011
 21
8.12058899998908
  0
LINE
  5
1BC
100
AcDbEntity
  8
1
  6
CONTINUOUS
 62
             7
100
AcDbLine
 10
-184.66298300000011
 20
8.26492656728612
 11
-184.66298300000011
 21
17.12058899998908
  0
LINE
  5
1BB
100
AcDbEntity
  8
1
  6
CONTINUOUS
 62
             7
100
AcDbLine
 10
-183.66298300000011
 20
-25.37941100001092
 11
-173.16298300000011
 21
-25.37941100001092
  0
LINE
  5
1BA
100
AcDbEntity
  8
1
  6
DOT_CENTER
 62
             2
100
AcDbLine
 10
-184.91298300000011
 20
3.12058899998908
 11
-186.33836074457389
 21
3.12058899998908
  0
LINE
  5
1B9
100
AcDbEntity
  8
1
  6
CONTINUOUS
 62
             7
100
AcDbLine
 10
-174.16298300000011
 20
-22.87941100001092
 11
-174.16298300000011
 21
-11.87941100001092
  0
LINE
  5
1B8
100
AcDbEntity
  8
1
  6
CONTINUOUS
 62
             7
100
AcDbLine
 10
-184.66298300000011
 20
-77.37941100001092
 11
-184.66298300000011
 21
-11.87941100001092
  0
LINE
  5
1B7
100
AcDbEntity
  8
1
  6
CONTINUOUS
 62
             7
100
AcDbLine
 10
-183.66298300000011
 20
-11.87941100001092
 11
-175.16298300000011
 21
-11.87941100001092
  0
LINE
  5
1B6
100
AcDbEntity
  8
1
  6
CONTINUOUS
 62
             7
100
AcDbLine
 10
-174.16298300000011
 20
-11.87941100001092
 11
-174.16298300000011
 21
18.12058899998908
  0
LINE
  5
1B5
100
AcDbEntity
  8
1
  6
CONTINUOUS
 62
             7
100
AcDbLine
 10
-184.66298300000011
 20
8.26492656728612
 11
-184.66298300000011
 21
18.12058899998908
  0
LINE
  5
1B4
100
AcDbEntity
  8
1
  6
CONTINUOUS
 62
             7
100
AcDbLine
 10
-183.66298300000011
 20
18.12058899998908
 11
-175.16298300000011
 21
18.12058899998908
  0
LINE
  5
1B3
100
AcDbEntity
  8
1
  6
CONTINUOUS
 62
             7
100
AcDbLine
 10
-173.16298300000011
 20
-22.87941100001092
 11
-174.16298300000011
 21
-22.87941100001092
  0
LINE
  5
1B2
100
AcDbEntity
  8
1
  6
CONTINUOUS
 62
             7
100
AcDbLine
 10
-172.16298300000011
 20
30.62058899998908
 11
-172.16298300000011
 21
30.12058899998908
  0
LINE
  5
1B1
100
AcDbEntity
  8
1
  6
CONTINUOUS
 62
             7
100
AcDbLine
 10
-174.16298300000011
 20
29.12058899998908
 11
-173.16298300000011
 21
29.12058899998908
  0
LINE
  5
1B0
100
AcDbEntity
  8
1
  6
CONTINUOUS
 62
             7
100
AcDbLine
 10
-174.16298300000011
 20
18.12058899998908
 11
-174.16298300000011
 21
29.12058899998908
  0
LINE
  5
1AF
100
AcDbEntity
  8
1
  6
CONTINUOUS
 62
             7
100
AcDbLine
 10
-172.16298300000011
 20
-23.87941100001092
 11
-172.16298300000011
 21
-77.37941100001092
  0
LINE
  5
1AE
100
AcDbEntity
  8
1
  6
CONTINUOUS
 62
             7
100
AcDbLine
 10
-173.16298300000011
 20
-78.37941100001092
 11
-183.66298300000011
 21
-78.37941100001092
  0
LINE
  5
1AD
100
AcDbEntity
  8
1
  6
CONTINUOUS
 62
             7
100
AcDbLine
 10
-184.66298300000011
 20
18.12058899998908
 11
-184.66298300000011
 21
30.62058899998908
  0
LINE
  5
1AC
100
AcDbEntity
  8
1
  6
CONTINUOUS
 62
             7
100
AcDbLine
 10
-183.66298300000011
 20
31.62058899998908
 11
-173.16298300000011
 21
31.62058899998908
  0
ENDBLK
  5
1D7
100
AcDbEntity
  8
0
100
AcDbBlockEnd
  0
BLOCK
  5
2D
100
AcDbEntity
  8
0
100
AcDbBlockBegin
  2
EINBAUSIFON__3
 70
             0
 10
-344.18519943432608
 20
-170.864655
 30
0.0
  3
EINBAUSIFON__3
  1

  0
CIRCLE
  5
209
100
AcDbEntity
  8
LC-001-002-----0
  6
CONTINUOUS
 62
             7
100
AcDbCircle
 10
-54.9900000000002
 20
-9.93612299999995
 40
3.0
  0
CIRCLE
  5
208
100
AcDbEntity
  8
LC-001-002-----0
  6
CONTINUOUS
 62
             7
100
AcDbCircle
 10
-54.9900000000002
 20
-9.93612299999995
 40
5.0
  0
CIRCLE
  5
207
100
AcDbEntity
  8
LC-001-002-----0
  6
CONTINUOUS
 62
             7
100
AcDbCircle
 10
0.00000000000001
 20
0.0
 40
36.49999999999997
  0
CIRCLE
  5
206
100
AcDbEntity
  8
LC-001-002-----0
  6
CONTINUOUS
 62
             7
100
AcDbCircle
 10
0.00000000000001
 20
0.0
 40
37.49999999999997
  0
ARC
  5
205
100
AcDbEntity
  8
LC-001-002-----0
  6
CONTINUOUS
 62
             7
100
AcDbCircle
 10
38.01000000000003
 20
-9.93612299999995
 40
3.00000000000041
100
AcDbArc
 50
-142.99320499999709
 51
113.69368200001092
  0
ARC
  5
204
100
AcDbEntity
  8
LC-001-002-----0
  6
CONTINUOUS
 62
             7
100
AcDbCircle
 10
38.01000000000003
 20
-9.93612299999995
 40
4.99999999999959
100
AcDbArc
 50
-129.04004800000001
 51
99.74052499999806
  0
ARC
  5
203
100
AcDbEntity
  8
LC-001-002-----0
  6
CONTINUOUS
 62
             7
100
AcDbCircle
 10
-26.9900000000002
 20
27.06387700000005
 40
4.99999999999998
100
AcDbArc
 50
32.89169300000408
 51
-123.04830899999835
  0
ARC
  5
202
100
AcDbEntity
  8
LC-001-002-----0
  6
CONTINUOUS
 62
             7
100
AcDbCircle
 10
-26.9900000000002
 20
27.06387700000005
 40
3.00000000000046
100
AcDbArc
 50
28.80437799999256
 51
-118.96099399999592
  0
ARC
  5
201
100
AcDbEntity
  8
LC-001-002-----0
  6
CONTINUOUS
 62
             7
100
AcDbCircle
 10
8.60025099999991
 20
-29.93184199999996
 40
60.99999999999998
100
AcDbArc
 50
136.20456300000041
 51
-168.40532300000032
  0
ARC
  5
200
100
AcDbEntity
  8
LC-001-002-----0
  6
CONTINUOUS
 62
             7
100
AcDbCircle
 10
-17.54642599999999
 20
-91.578532
 40
24.55000000000038
100
AcDbArc
 50
-170.00000000000063
 51
-90.0
  0
ARC
  5
1FF
100
AcDbEntity
  8
LC-006-002-RND-0
  6
CONTINUOUS
 62
             7
100
AcDbCircle
 10
25.6890969999999
 20
-77.67273799999998
 40
18.0
100
AcDbArc
 50
-90.0
 51
10.00000000000051
  0
ARC
  5
1FE
100
AcDbEntity
  8
LC-006-002-RND-0
  6
CONTINUOUS
 62
             7
100
AcDbCircle
 10
23.0499999999999
 20
-97.67273799999998
 40
2.0
100
AcDbArc
 50
90.0
 51
180.0
  0
ARC
  5
1FD
100
AcDbEntity
  8
LC-001-002-----0
  6
CONTINUOUS
 62
             7
100
AcDbCircle
 10
0.00000000000001
 20
0.06387700000005
 40
30.0000000000003
100
AcDbArc
 50
178.58563500000042
 51
-158.34039299999935
  0
ARC
  5
1FC
100
AcDbEntity
  8
LC-001-002-----0
  6
CONTINUOUS
 62
             7
100
AcDbCircle
 10
5.30204699999999
 20
0.99877100000003
 40
30.00000000000006
100
AcDbArc
 50
178.58563609345089
 51
-158.34039238407692
  0
LINE
  5
1FB
100
AcDbEntity
  8
LC-001-002-----0
  6
CONTINUOUS
 62
             7
100
AcDbLine
 10
-50.1361350000001
 20
-10.93612299999995
 11
-49.35665900000009
 21
-10.93612299999995
  0
LINE
  5
1FA
100
AcDbEntity
  8
LC-001-002-----0
  6
CONTINUOUS
 62
             7
100
AcDbLine
 10
-50.09101999999998
 20
-8.93612299999995
 11
-48.66260299999998
 21
-8.93612299999995
  0
LINE
  5
1F9
100
AcDbEntity
  8
LC-001-002-----0
  6
CONTINUOUS
 62
             7
100
AcDbLine
 10
-51.18260000000009
 20
-42.19612499999994
 11
-41.72345600000011
 21
-95.84159499999998
  0
LINE
  5
1F8
100
AcDbEntity
  8
LC-001-002-----0
  6
CONTINUOUS
 62
             7
100
AcDbLine
 10
20.0499999999999
 20
-116.12853200000001
 11
20.0499999999999
 21
-120.636959
  0
LINE
  5
1F7
100
AcDbEntity
  8
LC-001-002-----0
  6
CONTINUOUS
 62
             7
100
AcDbLine
 10
-20.0500000000002
 20
-116.12853200000001
 11
-20.04999999999989
 21
-120.636959
  0
LINE
  5
1F6
100
AcDbEntity
  8
LC-001-002-----0
  6
CONTINUOUS
 62
             7
100
AcDbLine
 10
25.6890969999999
 20
-95.67273799999998
 11
23.0499999999999
 21
-95.67273799999998
  0
LINE
  5
1F5
100
AcDbEntity
  8
LC-001-002-----0
  6
CONTINUOUS
 62
             7
100
AcDbLine
 10
-51.18246500000009
 20
-42.19688999999994
 11
-41.72345600000011
 21
-95.84159499999998
  0
LINE
  5
1F4
100
AcDbEntity
  8
LC-001-002-----0
  6
CONTINUOUS
 62
             7
100
AcDbLine
 10
-17.54642599999999
 20
-116.12853200000001
 11
21.0499999999999
 21
-116.12853200000001
  0
LINE
  5
1F3
100
AcDbEntity
  8
LC-001-002-----0
  6
CONTINUOUS
 62
             7
100
AcDbLine
 10
21.0499999999999
 20
-97.67273799999998
 11
21.0499999999999
 21
-116.12853200000001
  0
LINE
  5
1F2
100
AcDbEntity
  8
LC-001-002-----0
  6
CONTINUOUS
 62
             7
100
AcDbLine
 10
-22.57974314185429
 20
-10.07397836434473
 11
-27.8817900000001
 21
-11.008872
  0
LINE
  5
1F1
100
AcDbEntity
  8
LC-001-002-----0
  6
CONTINUOUS
 62
             7
100
AcDbLine
 10
-24.68881299842848
 20
1.73925500027701
 11
-29.9908600000001
 21
0.80436099999997
  0
LINE
  5
1F0
100
AcDbEntity
  8
LC-001-002-----0
  6
DASHDOT
 62
             2
100
AcDbLine
 10
-32.436122
 20
0.06387700000005
 11
32.43612299999993
 21
0.06387700000005
  0
LINE
  5
1EF
100
AcDbEntity
  8
LC-001-002-----0
  6
CONTINUOUS
 62
             7
100
AcDbLine
 10
43.41563599999993
 20
-74.54707099999996
 11
33.30863899999989
 21
-17.22743800000001
  0
LINE
  5
1EE
100
AcDbEntity
  8
LC-001-002-----0
  6
DASHDOT
 62
             2
100
AcDbLine
 10
0.00000000000001
 20
37.5
 11
0.00000000000001
 21
-180.879411
  0
LINE
  5
1ED
100
AcDbEntity
  8
1
  6
PHANTOM
 62
             2
100
AcDbLine
 10
-49.4900000000002
 20
-9.93612299999995
 11
-60.4900000000002
 21
-9.93612299999995
  0
LINE
  5
1EC
100
AcDbEntity
  8
1
  6
PHANTOM
 62
             2
100
AcDbLine
 10
-54.9900000000002
 20
-4.43612299999995
 11
-54.9900000000002
 21
-15.43612299999995
  0
LINE
  5
1EB
100
AcDbEntity
  8
1
  6
PHANTOM
 62
             2
100
AcDbLine
 10
-21.49
 20
27.06387700000005
 11
-32.4900000000002
 21
27.06387700000005
  0
LINE
  5
1EA
100
AcDbEntity
  8
1
  6
PHANTOM
 62
             2
100
AcDbLine
 10
-26.9900000000002
 20
32.56387700000005
 11
-26.9900000000002
 21
21.56387699999993
  0
LINE
  5
1E9
100
AcDbEntity
  8
1
  6
PHANTOM
 62
             2
100
AcDbLine
 10
43.50999999999969
 20
-9.93612299999995
 11
32.5100000000002
 21
-9.93612299999995
  0
LINE
  5
1E8
100
AcDbEntity
  8
1
  6
PHANTOM
 62
             2
100
AcDbLine
 10
38.01000000000003
 20
-4.43612300000029
 11
38.01000000000003
 21
-15.43612299999972
  0
LINE
  5
1E7
100
AcDbEntity
  8
1
  6
CONTINUOUS
 62
             7
100
AcDbLine
 10
-20.04999999999989
 20
-120.636959
 11
-25.0999999999999
 21
-125.686959
  0
LINE
  5
1E6
100
AcDbEntity
  8
1
  6
CONTINUOUS
 62
             7
100
AcDbLine
 10
-25.0999999999999
 20
-125.686959
 11
-25.0999999999999
 21
-177.379411
  0
LINE
  5
1E5
100
AcDbEntity
  8
1
  6
CONTINUOUS
 62
             7
100
AcDbLine
 10
-25.0999999999999
 20
-177.379411
 11
-24.16217700000001
 21
-180.879411
  0
LINE
  5
1E4
100
AcDbEntity
  8
1
  6
CONTINUOUS
 62
             7
100
AcDbLine
 10
-24.16217700000001
 20
-180.879411
 11
24.1621780000001
 21
-180.879411
  0
LINE
  5
1E3
100
AcDbEntity
  8
1
  6
CONTINUOUS
 62
             7
100
AcDbLine
 10
24.1621780000001
 20
-180.879411
 11
25.10000000000012
 21
-177.379411
  0
LINE
  5
1E2
100
AcDbEntity
  8
1
  6
CONTINUOUS
 62
             7
100
AcDbLine
 10
25.10000000000012
 20
-177.379411
 11
25.10000000000012
 21
-125.686959
  0
LINE
  5
1E1
100
AcDbEntity
  8
1
  6
CONTINUOUS
 62
             7
100
AcDbLine
 10
25.10000000000012
 20
-125.686959
 11
20.0499999999999
 21
-120.636959
  0
LINE
  5
1E0
100
AcDbEntity
  8
1
  6
CONTINUOUS
 62
             7
100
AcDbLine
 10
-25.0999999999999
 20
-125.686959
 11
25.10000000000012
 21
-125.686959
  0
LINE
  5
1DF
100
AcDbEntity
  8
1
  6
CONTINUOUS
 62
             7
100
AcDbLine
 10
25.10000000000012
 20
-177.379411
 11
-25.0999999999999
 21
-177.379411
  0
LINE
  5
1DE
100
AcDbEntity
  8
1
  6
CONTINUOUS
 62
             7
100
AcDbLine
 10
-20.04999999999989
 20
-120.636959
 11
20.0499999999999
 21
-120.636959
  0
POINT
  5
1DD
100
AcDbEntity
  8
0
 62
             7
100
AcDbPoint
 10
-26.9900000000002
 20
32.06387700000005
  0
POINT
  5
1DC
100
AcDbEntity
  8
0
 62
             7
100
AcDbPoint
 10
0.01
 20
29.863877
  0
POINT
  5
1DB
100
AcDbEntity
  8
0
 62
             7
100
AcDbPoint
 10
-31.9900000000002
 20
27.06387700000005
  0
POINT
  5
1DA
100
AcDbEntity
  8
0
 62
             7
100
AcDbPoint
 10
-59.9900000000002
 20
-9.93612299999995
  0
POINT
  5
1D9
100
AcDbEntity
  8
0
 62
             7
100
AcDbPoint
 10
38.01000000000003
 20
-9.93612299999995
  0
POINT
  5
1D8
100
AcDbEntity
  8
0
 62
             7
100
AcDbPoint
 10
-54.9900000000002
 20
-9.93612299999995
  0
ENDBLK
  5
20A
100
AcDbEntity
  8
0
100
AcDbBlockEnd
  0
BLOCK
  5
2F
100
AcDbEntity
  8
0
100
AcDbBlockBegin
  2
SIFONEINSATZ
 70
             0
 10
-288.0159847000001
 20
-78.05224599999997
 30
0.0
  3
SIFONEINSATZ
  1

  0
CIRCLE
  5
214
100
AcDbEntity
  8
LC-001-002-----0
  6
CONTINUOUS
 62
             7
100
AcDbCircle
 10
0.00000000000001
 20
0.0
 40
24.75
  0
CIRCLE
  5
213
100
AcDbEntity
  8
LC-001-002-----0
  6
CONTINUOUS
 62
             7
100
AcDbCircle
 10
0.01
 20
0.06387699999999
 40
16.50000300000002
  0
ARC
  5
212
100
AcDbEntity
  8
1
  6
CONTINUOUS
 62
             7
100
AcDbCircle
 10
0.00000000000001
 20
0.0
 40
28.56387699999999
100
AcDbArc
 50
0.0
 51
177.87439593916611
  0
ARC
  5
211
100
AcDbEntity
  8
1
  6
CONTINUOUS
 62
             7
100
AcDbCircle
 10
0.00000000000001
 20
0.0
 40
28.56387700000007
100
AcDbArc
 50
-157.87439307428124
 51
0.0
  0
LINE
  5
210
100
AcDbEntity
  8
LC-001-002-----0
  6
CONTINUOUS
 62
             7
100
AcDbLine
 10
-24.688813
 20
1.73925500000001
 11
-28.5442227342153
 21
1.05944219787671
  0
LINE
  5
20F
100
AcDbEntity
  8
LC-001-002-----0
  6
CONTINUOUS
 62
             7
100
AcDbLine
 10
-22.60503499999998
 20
-10.07843800000001
 11
-26.46044435911789
 21
-10.75825048923656
  0
LINE
  5
20E
100
AcDbEntity
  8
LC-001-002-----0
  6
CONTINUOUS
 62
             7
100
AcDbLine
 10
-16.159039
 20
-3.22432599999996
 11
-12.46663
 21
-21.38096400000001
  0
LINE
  5
20D
100
AcDbEntity
  8
LC-001-002-----0
  6
CONTINUOUS
 62
             7
100
AcDbLine
 10
16.3314899999999
 20
2.48443100000003
 11
19.04427499999992
 21
-15.80753399999998
  0
LINE
  5
20C
100
AcDbEntity
  8
1
  6
PHANTOM
 62
             2
100
AcDbLine
 10
31.4202647
 20
0.0
 11
-31.42026470000018
 21
0.0
  0
LINE
  5
20B
100
AcDbEntity
  8
1
  6
PHANTOM
 62
             2
100
AcDbLine
 10
0.00000000000001
 20
31.42026470000008
 11
0.00000000000001
 21
-31.42026470000008
  0
ENDBLK
  5
215
100
AcDbEntity
  8
0
100
AcDbBlockEnd
  0
BLOCK
  5
31
100
AcDbEntity
  8
0
100
AcDbBlockBegin
  2
EINBAUSIFON__4
 70
             0
 10
-583.86349079006391
 20
-182.92314093844681
 30
0.0
  3
EINBAUSIFON__4
  1

  0
ARC
  5
259
100
AcDbEntity
  8
LC-006-002-RND-0
  6
CONTINUOUS
 62
             7
100
AcDbCircle
 10
-229.16600100000011
 20
-109.32233000001089
 40
3.5
100
AcDbArc
 50
180.0
 51
-90.0
  0
ARC
  5
258
100
AcDbEntity
  8
LC-006-002-RND-0
  6
CONTINUOUS
 62
             7
100
AcDbCircle
 10
-229.16600100000011
 20
29.67248799998913
 40
3.50000000000026
100
AcDbArc
 50
81.78678929826243
 51
168.49857618644421
  0
LINE
  5
257
100
AcDbEntity
  8
1
  6
PHANTOM
 62
             2
100
AcDbLine
 10
-184.662983
 20
-6.87941100001086
 11
-207.1231651540686
 21
-6.87941100001086
  0
LINE
  5
256
100
AcDbEntity
  8
1
  6
CONTINUOUS
 62
             7
100
AcDbLine
 10
-184.662983
 20
-11.37941100001086
 11
-205.16298300000011
 21
-11.37941100001086
  0
LINE
  5
255
100
AcDbEntity
  8
1
  6
CONTINUOUS
 62
             7
100
AcDbLine
 10
-205.16298300000011
 20
-11.87941100001058
 11
-205.66298300000011
 21
-11.87941100001058
  0
LINE
  5
254
100
AcDbEntity
  8
1
  6
CONTINUOUS
 62
             7
100
AcDbLine
 10
-205.16298300000011
 20
-11.37941100001086
 11
-205.16298300000011
 21
-11.87941100001058
  0
LINE
  5
253
100
AcDbEntity
  8
1
  6
CONTINUOUS
 62
             7
100
AcDbLine
 10
-205.66298300000011
 20
-6.87941100001086
 11
-205.66298300000011
 21
-11.87941100001058
  0
LINE
  5
252
100
AcDbEntity
  8
1
  6
CONTINUOUS
 62
             7
100
AcDbLine
 10
-205.16298300000011
 20
-6.87941100001086
 11
-205.16298300000011
 21
-11.37941100001086
  0
LINE
  5
251
100
AcDbEntity
  8
1
  6
CONTINUOUS
 62
             7
100
AcDbLine
 10
-205.16298300000011
 20
-2.37941100001086
 11
-205.16298300000011
 21
-6.87941100001086
  0
LINE
  5
250
100
AcDbEntity
  8
1
  6
CONTINUOUS
 62
             7
100
AcDbLine
 10
-205.66298300000011
 20
-1.87941100001115
 11
-205.66298300000011
 21
-6.87941100001086
  0
LINE
  5
24F
100
AcDbEntity
  8
LC-001-002-----0
  6
CONTINUOUS
 62
             7
100
AcDbLine
 10
-184.662983
 20
-2.37941100001086
 11
-184.662983
 21
33.17007899998913
  0
LINE
  5
24E
100
AcDbEntity
  8
1
  6
CONTINUOUS
 62
             7
100
AcDbLine
 10
-205.16298300000011
 20
-2.37941100001086
 11
-184.662983
 21
-2.37941100001086
  0
LINE
  5
24D
100
AcDbEntity
  8
1
  6
CONTINUOUS
 62
             7
100
AcDbLine
 10
-205.16298300000011
 20
-1.87941100001115
 11
-205.16298300000011
 21
-2.37941100001086
  0
LINE
  5
24C
100
AcDbEntity
  8
1
  6
CONTINUOUS
 62
             7
100
AcDbLine
 10
-205.66298300000011
 20
-1.87941100001115
 11
-205.16298300000011
 21
-1.87941100001115
  0
LINE
  5
24B
100
AcDbEntity
  8
LC-001-002-----0
  6
CONTINUOUS
 62
             7
100
AcDbLine
 10
-228.66600100000011
 20
-112.82233000001089
 11
-225.76298299999999
 21
-112.82233000001089
  0
LINE
  5
24A
100
AcDbEntity
  8
LC-001-002-----0
  6
CONTINUOUS
 62
             7
100
AcDbLine
 10
-232.66600100000011
 20
-92.61602600001089
 11
-232.66600100000011
 21
-109.32233000001089
  0
LINE
  5
249
100
AcDbEntity
  8
LC-001-002-----0
  6
CONTINUOUS
 62
             7
100
AcDbLine
 10
-184.662983
 20
-92.61602600001089
 11
-184.662983
 21
-2.37941100001086
  0
LINE
  5
248
100
AcDbEntity
  8
1
  6
CONTINUOUS
 62
             7
100
AcDbLine
 10
-184.662983
 20
-92.61602600001089
 11
-232.66600100000011
 21
-92.61602600001089
  0
LINE
  5
247
100
AcDbEntity
  8
1
  6
CONTINUOUS
 62
             7
100
AcDbLine
 10
-228.66600100000011
 20
33.13658961512715
 11
-228.66600100000011
 21
-112.82233000001089
  0
LINE
  5
246
100
AcDbEntity
  8
1
  6
CONTINUOUS
 62
             7
100
AcDbLine
 10
-232.59572012492461
 20
30.37036099998932
 11
-232.59572012492461
 21
-23.62925512607433
  0
LINE
  5
245
100
AcDbEntity
  8
1
  6
CONTINUOUS
 62
             7
100
AcDbLine
 10
-225.76298299999999
 20
-112.82233000001089
 11
-185.662983
 21
-112.82233000001089
  0
LINE
  5
244
100
AcDbEntity
  8
1
  6
CONTINUOUS
 62
             7
100
AcDbLine
 10
-180.61298300000001
 20
-122.6302470000109
 11
-230.812983
 21
-122.6302470000109
  0
LINE
  5
243
100
AcDbEntity
  8
1
  6
CONTINUOUS
 62
             7
100
AcDbLine
 10
-225.76298299999991
 20
-117.5802470000109
 11
-185.66298300000011
 21
-117.5802470000109
  0
LINE
  5
242
100
AcDbEntity
  8
1
  6
CONTINUOUS
 62
             7
100
AcDbLine
 10
-248.59571999999989
 20
30.37039199998912
 11
-248.59571999999989
 21
-23.62922400021318
  0
LINE
  5
241
100
AcDbEntity
  8
LC-001-002-----0
  6
CONTINUOUS
 62
             7
100
AcDbLine
 10
-228.812983
 20
-177.82269900001091
 11
-229.87515999999999
 21
-177.82269900001091
  0
LINE
  5
240
100
AcDbEntity
  8
LC-001-002-----0
  6
CONTINUOUS
 62
             7
100
AcDbLine
 10
-181.55080499999991
 20
-177.82269900001091
 11
-228.812983
 21
-177.82269900001091
  0
LINE
  5
23F
100
AcDbEntity
  8
LC-001-002-----0
  6
DASHDOT
 62
             2
100
AcDbLine
 10
-205.71298300000009
 20
-109.82233000001089
 11
-205.71298300000009
 21
-177.82269900001091
  0
LINE
  5
23E
100
AcDbEntity
  8
LC-001-002-----0
  6
CONTINUOUS
 62
             7
100
AcDbLine
 10
-230.812983
 20
-122.6302470000109
 11
-230.812983
 21
-174.32269900001091
  0
LINE
  5
23D
100
AcDbEntity
  8
LC-001-002-----0
  6
CONTINUOUS
 62
             7
100
AcDbLine
 10
-180.61298300000001
 20
-122.6302470000109
 11
-180.61298300000001
 21
-174.32269900001091
  0
LINE
  5
23C
100
AcDbEntity
  8
LC-001-002-----0
  6
CONTINUOUS
 62
             7
100
AcDbLine
 10
-230.812983
 20
-174.32269900001091
 11
-229.87515999999999
 21
-177.82269900001091
  0
LINE
  5
23B
100
AcDbEntity
  8
LC-001-002-----0
  6
CONTINUOUS
 62
             7
100
AcDbLine
 10
-180.61298300000001
 20
-174.32269900001091
 11
-181.55080499999991
 21
-177.82269900001091
  0
LINE
  5
23A
100
AcDbEntity
  8
LC-001-002-----0
  6
CONTINUOUS
 62
             7
100
AcDbLine
 10
-225.76298299999991
 20
-117.5802470000109
 11
-230.812983
 21
-122.6302470000109
  0
LINE
  5
239
100
AcDbEntity
  8
LC-001-002-----0
  6
CONTINUOUS
 62
             7
100
AcDbLine
 10
-185.66298300000011
 20
-117.5802470000109
 11
-180.61298300000001
 21
-122.6302470000109
  0
LINE
  5
238
100
AcDbEntity
  8
LC-001-002-----0
  6
CONTINUOUS
 62
             7
100
AcDbLine
 10
-232.66600100000011
 20
-23.62925498935226
 11
-232.66600100000011
 21
-92.61602600001089
  0
LINE
  5
237
100
AcDbEntity
  8
LC-001-002-----0
  6
CONTINUOUS
 62
             7
100
AcDbLine
 10
-184.662983
 20
33.17007899998913
 11
-184.662983
 21
34.87059499998912
  0
LINE
  5
236
100
AcDbEntity
  8
LC-001-002-----0
  6
CONTINUOUS
 62
             7
100
AcDbLine
 10
-228.66600100000011
 20
33.17007899998913
 11
-184.662983
 21
33.17007899998913
  0
LINE
  5
235
100
AcDbEntity
  8
LC-001-002-----0
  6
CONTINUOUS
 62
             7
100
AcDbLine
 10
-184.662983
 20
-112.82233000001089
 11
-184.662983
 21
-92.61602600001089
  0
LINE
  5
234
100
AcDbEntity
  8
LC-001-002-----0
  6
CONTINUOUS
 62
             7
100
AcDbLine
 10
-185.662983
 20
-112.82233000001089
 11
-185.66298300000011
 21
-117.5802470000109
  0
LINE
  5
233
100
AcDbEntity
  8
LC-001-002-----0
  6
CONTINUOUS
 62
             7
100
AcDbLine
 10
-288.59571999999991
 20
3.12058899998908
 11
-288.59571999999991
 21
-34.37941100001092
  0
LINE
  5
232
100
AcDbEntity
  8
LC-001-002-----0
  6
CONTINUOUS
 62
             7
100
AcDbLine
 10
-288.59571999999991
 20
39.62058899998908
 11
-288.59571999999991
 21
3.12058899998908
  0
LINE
  5
231
100
AcDbEntity
  8
1
  6
DOT_CENTER
 62
             2
100
AcDbLine
 10
-290.59571999999991
 20
-12.87941100001092
 11
-284.59571999999991
 21
-12.87941100001092
  0
LINE
  5
230
100
AcDbEntity
  8
1
  6
DOT_CENTER
 62
             2
100
AcDbLine
 10
-290.59571999999991
 20
19.12058899998908
 11
-284.59571999999991
 21
19.12058899998908
  0
LINE
  5
22F
100
AcDbEntity
  8
LC-001-002-----0
  6
CONTINUOUS
 62
             7
100
AcDbLine
 10
-206.66298300000011
 20
33.17007899998913
 11
-206.66298300000011
 21
34.87059499998912
  0
LINE
  5
22E
100
AcDbEntity
  8
LC-001-002-----0
  6
CONTINUOUS
 62
             7
100
AcDbLine
 10
-184.662983
 20
-112.82233000001089
 11
-185.662983
 21
-112.82233000001089
  0
LINE
  5
22D
100
AcDbEntity
  8
LC-001-002-----0
  6
DASHDOT
 62
             2
100
AcDbLine
 10
-254.59571999999989
 20
3.12058899998908
 11
-180.59572000000011
 21
3.12058899998908
  0
LINE
  5
22C
100
AcDbEntity
  8
LC-001-002-----0
  6
CONTINUOUS
 62
             7
100
AcDbLine
 10
-206.66298300000011
 20
34.87059499998912
 11
-184.662983
 21
34.87059499998912
  0
LINE
  5
22B
100
AcDbEntity
  8
LC-001-002-----0
  6
CONTINUOUS
 62
             7
100
AcDbLine
 10
-248.59571999999989
 20
-23.62922400021318
 11
-232.66600100000011
 21
-23.62925498935226
  0
LINE
  5
22A
100
AcDbEntity
  8
LC-001-002-----0
  6
CONTINUOUS
 62
             7
100
AcDbLine
 10
-248.59571999999989
 20
30.37039199998912
 11
-232.59572012492461
 21
30.37036099998932
  0
LINE
  5
229
100
AcDbEntity
  8
LC-001-002-----0
  6
CONTINUOUS
 62
             7
100
AcDbLine
 10
-229.16600100000011
 20
-112.82233000001089
 11
-228.66600100000011
 21
-112.82233000001089
  0
LINE
  5
228
100
AcDbEntity
  8
LC-001-002-----0
  6
CONTINUOUS
 62
             7
100
AcDbLine
 10
-225.76298299999999
 20
-112.82233000001089
 11
-225.76298299999991
 21
-117.5802470000109
  0
LINE
  5
227
100
AcDbEntity
  8
LC-001-002-----0
  6
DASHDOT
 62
             2
100
AcDbLine
 10
-205.71298300000009
 20
-109.82233000001089
 11
-205.71298300000009
 21
-167.82233000001091
  0
LINE
  5
226
100
AcDbEntity
  8
LC-001-002-----0
  6
CONTINUOUS
 62
             7
100
AcDbLine
 10
-248.59571999999989
 20
-34.37941100001092
 11
-248.59571999999989
 21
-23.62922400021318
  0
LINE
  5
225
100
AcDbEntity
  8
LC-001-002-----0
  6
CONTINUOUS
 62
             7
100
AcDbLine
 10
-288.59571999999991
 20
-34.37941100001092
 11
-248.59571999999989
 21
-34.37941100001092
  0
LINE
  5
224
100
AcDbEntity
  8
LC-001-002-----0
  6
DASHDOT
 62
             2
100
AcDbLine
 10
-288.59571999999991
 20
3.12058899998908
 11
-254.59571999999989
 21
3.12058899998908
  0
LINE
  5
223
100
AcDbEntity
  8
LC-001-002-----0
  6
CONTINUOUS
 62
             7
100
AcDbLine
 10
-288.59571999999991
 20
40.62058899998908
 11
-288.59571999999991
 21
39.62058899998908
  0
LINE
  5
222
100
AcDbEntity
  8
LC-001-002-----0
  6
CONTINUOUS
 62
             7
100
AcDbLine
 10
-288.59571999999991
 20
40.62058899998908
 11
-248.59571999999989
 21
40.62058899998908
  0
LINE
  5
221
100
AcDbEntity
  8
LC-001-002-----0
  6
CONTINUOUS
 62
             7
100
AcDbLine
 10
-248.59571999999989
 20
40.62058899998908
 11
-248.59571999999989
 21
30.37039199998912
  0
LINE
  5
220
100
AcDbEntity
  8
LC-001-002-----0
  6
DASHDOT
 62
             2
100
AcDbLine
 10
-209.59572
 20
11.75745918151949
 11
-209.59572
 21
-107.0594110000109
  0
POINT
  5
21F
100
AcDbEntity
  8
0
 62
             7
100
AcDbPoint
 10
-230.812983
 20
-174.32269900001091
  0
POINT
  5
21E
100
AcDbEntity
  8
0
 62
             7
100
AcDbPoint
 10
-180.61298300000001
 20
-174.32269900001091
  0
POINT
  5
21D
100
AcDbEntity
  8
0
 62
             7
100
AcDbPoint
 10
-288.59571999999991
 20
-34.37941100001092
  0
POINT
  5
21C
100
AcDbEntity
  8
0
 62
             7
100
AcDbPoint
 10
-288.59571999999991
 20
40.62058899998908
  0
POINT
  5
21B
100
AcDbEntity
  8
0
 62
             7
100
AcDbPoint
 10
-248.59571999999989
 20
40.62058899998908
  0
POINT
  5
21A
100
AcDbEntity
  8
0
 62
             7
100
AcDbPoint
 10
-288.59571999999991
 20
40.62058899998908
  0
POINT
  5
219
100
AcDbEntity
  8
0
 62
             7
100
AcDbPoint
 10
-184.662983
 20
-112.82233000001089
  0
POINT
  5
218
100
AcDbEntity
  8
0
 62
             7
100
AcDbPoint
 10
-184.662983
 20
33.17007899998913
  0
POINT
  5
217
100
AcDbEntity
  8
0
 62
             7
100
AcDbPoint
 10
-184.662983
 20
34.87059499998912
  0
POINT
  5
216
100
AcDbEntity
  8
0
 62
             7
100
AcDbPoint
 10
-248.59571999999989
 20
40.62058899998908
  0
ENDBLK
  5
25A
100
AcDbEntity
  8
0
100
AcDbBlockEnd
  0
BLOCK
  5
25D
100
AcDbEntity
  8
0
100
AcDbBlockBegin
  2
*D5
 70
             1
 10
0.0
 20
0.0
 30
0.0
  3
*D5
  1

  0
LINE
  5
25E
100
AcDbEntity
  8
0
  6
CONTINUOUS
 62
             4
100
AcDbLine
 10
-132.00000000000006
 20
-64.3086131790338
 11
131.99999999999989
 21
-64.3086131790338
  0
LINE
  5
25F
100
AcDbEntity
  8
0
  6
CONTINUOUS
 62
             4
100
AcDbLine
 10
-132.00000000000006
 20
-3.87941100001092
 11
-132.00000000000006
 21
-66.3086131790338
  0
LINE
  5
260
100
AcDbEntity
  8
0
  6
CONTINUOUS
 62
             4
100
AcDbLine
 10
131.99999999999989
 20
-3.87941100001092
 11
131.99999999999989
 21
-66.3086131790338
  0
SOLID
  5
261
100
AcDbEntity
  8
0
 62
             4
100
AcDbTrace
 10
-125.00000000000006
 20
-63.38704569592203
 11
-125.00000000000006
 21
-65.23018066214557
 12
-132.00000000000006
 22
-64.3086131790338
 13
-132.00000000000006
 23
-64.3086131790338
  0
SOLID
  5
262
100
AcDbEntity
  8
0
 62
             4
100
AcDbTrace
 10
124.99999999999989
 20
-65.23018066214557
 11
124.99999999999989
 21
-63.38704569592203
 12
131.99999999999989
 22
-64.3086131790338
 13
131.99999999999989
 23
-64.3086131790338
  0
MTEXT
  5
264
100
AcDbEntity
  8
0
 62
             1
100
AcDbMText
 10
-108.97852026571
 20
-62.3086131790338
 30
0.0
 40
7.0
 41
0.0
 71
             7
 72
             1
  1
264
  7
CONVERTER_2
 11
0.99999999999706
 21
0.00000242406841
 31
0.0
  0
ENDBLK
  5
265
100
AcDbEntity
  8
0
100
AcDbBlockEnd
  0
BLOCK
  5
269
100
AcDbEntity
  8
0
100
AcDbBlockBegin
  2
*D6
 70
             1
 10
0.0
 20
0.0
 30
0.0
  3
*D6
  1

  0
LINE
  5
26A
100
AcDbEntity
  8
0
  6
CONTINUOUS
 62
             4
100
AcDbLine
 10
-40.00000000000006
 20
41.5012166595499
 11
39.99999999999994
 21
41.5012166595499
  0
LINE
  5
26B
100
AcDbEntity
  8
0
  6
CONTINUOUS
 62
             4
100
AcDbLine
 10
-40.00000000000006
 20
30.62058899998908
 11
-40.00000000000006
 21
43.5012166595499
  0
LINE
  5
26C
100
AcDbEntity
  8
0
  6
CONTINUOUS
 62
             4
100
AcDbLine
 10
39.99999999999994
 20
30.62058899998908
 11
39.99999999999994
 21
43.5012166595499
  0
SOLID
  5
26D
100
AcDbEntity
  8
0
 62
             4
100
AcDbTrace
 10
-33.00000000000006
 20
42.42278414266167
 11
-33.00000000000006
 21
40.57964917643812
 12
-40.00000000000006
 22
41.5012166595499
 13
-40.00000000000006
 23
41.5012166595499
  0
SOLID
  5
26E
100
AcDbEntity
  8
0
 62
             4
100
AcDbTrace
 10
32.99999999999994
 20
40.57964917643812
 11
32.99999999999994
 21
42.42278414266167
 12
39.99999999999994
 22
41.5012166595499
 13
39.99999999999994
 23
41.5012166595499
  0
MTEXT
  5
26F
100
AcDbEntity
  8
0
 62
             1
100
AcDbMText
 10
-9.67301605682756
 20
43.5012166595499
 30
0.0
 40
7.0
 41
0.0
 71
             7
 72
             1
  1
80
  7
CONVERTER_2
 11
0.99999999999706
 21
0.00000242406841
 31
0.0
  0
ENDBLK
  5
270
100
AcDbEntity
  8
0
100
AcDbBlockEnd
  0
BLOCK
  5
274
100
AcDbEntity
  8
0
100
AcDbBlockBegin
  2
*D7
 70
             1
 10
0.0
 20
0.0
 30
0.0
  3
*D7
  1

  0
LINE
  5
275
100
AcDbEntity
  8
0
  6
CONTINUOUS
 62
             4
100
AcDbLine
 10
-50.00000000000006
 20
54.3502195085527
 11
49.99999999999994
 21
54.3502195085527
  0
LINE
  5
276
100
AcDbEntity
  8
0
  6
CONTINUOUS
 62
             4
100
AcDbLine
 10
-50.00000000000006
 20
30.62058899998908
 11
-50.00000000000006
 21
56.3502195085527
  0
LINE
  5
277
100
AcDbEntity
  8
0
  6
CONTINUOUS
 62
             4
100
AcDbLine
 10
49.99999999999994
 20
30.62058899998908
 11
49.99999999999994
 21
56.3502195085527
  0
SOLID
  5
278
100
AcDbEntity
  8
0
 62
             4
100
AcDbTrace
 10
-43.00000000000006
 20
55.27178699166447
 11
-43.00000000000006
 21
53.42865202544093
 12
-50.00000000000006
 22
54.3502195085527
 13
-50.00000000000006
 23
54.3502195085527
  0
SOLID
  5
279
100
AcDbEntity
  8
0
 62
             4
100
AcDbTrace
 10
42.99999999999994
 20
53.42865202544093
 11
42.99999999999994
 21
55.27178699166447
 12
49.99999999999994
 22
54.3502195085527
 13
49.99999999999994
 23
54.3502195085527
  0
MTEXT
  5
27A
100
AcDbEntity
  8
0
 62
             1
100
AcDbMText
 10
12.21178926131115
 20
56.3502195085527
 30
0.0
 40
7.0
 41
0.0
 71
             7
 72
             1
  1
100
  7
CONVERTER_2
 11
0.99999999999706
 21
0.00000242406841
 31
0.0
  0
ENDBLK
  5
27B
100
AcDbEntity
  8
0
100
AcDbBlockEnd
  0
BLOCK
  5
27F
100
AcDbEntity
  8
0
100
AcDbBlockBegin
  2
*D8
 70
             1
 10
0.0
 20
0.0
 30
0.0
  3
*D8
  1

  0
LINE
  5
280
100
AcDbEntity
  8
0
  6
CONTINUOUS
 62
             4
100
AcDbLine
 10
-60.00000000000006
 20
66.3426221676221
 11
59.99999999999994
 21
66.3426221676221
  0
LINE
  5
281
100
AcDbEntity
  8
0
  6
CONTINUOUS
 62
             4
100
AcDbLine
 10
-60.00000000000006
 20
30.62058899998907
 11
-60.00000000000006
 21
68.3426221676221
  0
LINE
  5
282
100
AcDbEntity
  8
0
  6
CONTINUOUS
 62
             4
100
AcDbLine
 10
59.99999999999994
 20
30.62058899998907
 11
59.99999999999994
 21
68.3426221676221
  0
SOLID
  5
283
100
AcDbEntity
  8
0
 62
             4
100
AcDbTrace
 10
-53.00000000000006
 20
67.26418965073387
 11
-53.00000000000006
 21
65.42105468451032
 12
-60.00000000000006
 22
66.3426221676221
 13
-60.00000000000006
 23
66.3426221676221
  0
SOLID
  5
284
100
AcDbEntity
  8
0
 62
             4
100
AcDbTrace
 10
52.99999999999994
 20
65.42105468451032
 11
52.99999999999994
 21
67.26418965073387
 12
59.99999999999994
 22
66.3426221676221
 13
59.99999999999994
 23
66.3426221676221
  0
MTEXT
  5
285
100
AcDbEntity
  8
0
 62
             1
100
AcDbMText
 10
-12.20131615179433
 20
68.3426221676221
 30
0.0
 40
7.0
 41
0.0
 71
             7
 72
             1
  1
120
  7
CONVERTER_2
 11
0.99999999999706
 21
0.00000242406841
 31
0.0
  0
ENDBLK
  5
286
100
AcDbEntity
  8
0
100
AcDbBlockEnd
  0
BLOCK
  5
28A
100
AcDbEntity
  8
0
100
AcDbBlockBegin
  2
*D9
 70
             1
 10
0.0
 20
0.0
 30
0.0
  3
*D9
  1

  0
LINE
  5
28B
100
AcDbEntity
  8
0
  6
CONTINUOUS
 62
             4
100
AcDbLine
 10
-96.1522264414416
 20
-50.3043718744987
 11
-76.50000000000006
 21
-50.3043718744987
  0
LINE
  5
28C
100
AcDbEntity
  8
0
  6
CONTINUOUS
 62
             4
100
AcDbLine
 10
-76.50000000000006
 20
-50.3043718744987
 11
76.5
 21
-50.3043718744987
  0
LINE
  5
28D
100
AcDbEntity
  8
0
  6
CONTINUOUS
 62
             4
100
AcDbLine
 10
-76.50000000000006
 20
-20.37941100001092
 11
-76.50000000000006
 21
-52.3043718744987
  0
LINE
  5
28E
100
AcDbEntity
  8
0
  6
CONTINUOUS
 62
             4
100
AcDbLine
 10
76.5
 20
-24.37941100001092
 11
76.5
 21
-52.3043718744987
  0
SOLID
  5
28F
100
AcDbEntity
  8
0
 62
             4
100
AcDbTrace
 10
-69.50000000000006
 20
-49.38280439138693
 11
-69.50000000000006
 21
-51.22593935761047
 12
-76.50000000000006
 22
-50.3043718744987
 13
-76.50000000000006
 23
-50.3043718744987
  0
SOLID
  5
290
100
AcDbEntity
  8
0
 62
             4
100
AcDbTrace
 10
69.5
 20
-51.22593935761047
 11
69.5
 21
-49.38280439138693
 12
76.5
 22
-50.3043718744987
 13
76.5
 23
-50.3043718744987
  0
MTEXT
  5
291
100
AcDbEntity
  8
0
 62
             1
100
AcDbMText
 10
-96.1522264414416
 20
-48.3043718744987
 30
0.0
 40
7.0
 41
0.0
 71
             7
 72
             1
  1
153
  7
CONVERTER_2
 11
0.99999999999706
 21
0.00000242406841
 31
0.0
  0
ENDBLK
  5
292
100
AcDbEntity
  8
0
100
AcDbBlockEnd
  0
BLOCK
  5
296
100
AcDbEntity
  8
0
100
AcDbBlockBegin
  2
*D10
 70
             1
 10
0.0
 20
0.0
 30
0.0
  3
*D10
  1

  0
LINE
  5
297
100
AcDbEntity
  8
0
  6
CONTINUOUS
 62
             4
100
AcDbLine
 10
147.98391651677201
 20
-25.37941100001092
 11
147.98391651677201
 21
31.62058899998908
  0
LINE
  5
298
100
AcDbEntity
  8
0
  6
CONTINUOUS
 62
             4
100
AcDbLine
 10
100.0
 20
-25.37941100001092
 11
149.98391651677201
 21
-25.37941100001092
  0
LINE
  5
299
100
AcDbEntity
  8
0
  6
CONTINUOUS
 62
             4
100
AcDbLine
 10
75.0
 20
31.62058899998908
 11
149.98391651677201
 21
31.62058899998908
  0
SOLID
  5
29A
100
AcDbEntity
  8
0
 62
             4
100
AcDbTrace
 10
148.90548399988378
 20
24.62058899998908
 11
147.06234903366024
 21
24.62058899998908
 12
147.98391651677201
 22
31.62058899998908
 13
147.98391651677201
 23
31.62058899998908
  0
SOLID
  5
29B
100
AcDbEntity
  8
0
 62
             4
100
AcDbTrace
 10
147.06234903366024
 20
-18.37941100001092
 11
148.90548399988378
 21
-18.37941100001092
 12
147.98391651677201
 22
-25.37941100001092
 13
147.98391651677201
 23
-25.37941100001092
  0
MTEXT
  5
29C
100
AcDbEntity
  8
0
 62
             1
100
AcDbMText
 10
145.98391651677201
 20
-1.93539302705983
 30
0.0
 40
7.0
 41
0.0
 71
             7
 72
             1
  1
57
  7
CONVERTER_2
 11
0.0
 21
1.0
 31
0.0
  0
ENDBLK
  5
29D
100
AcDbEntity
  8
0
100
AcDbBlockEnd
  0
BLOCK
  5
2A1
100
AcDbEntity
  8
0
100
AcDbBlockBegin
  2
*D11
 70
             1
 10
0.0
 20
0.0
 30
0.0
  3
*D11
  1

  0
LINE
  5
2A2
100
AcDbEntity
  8
0
  6
CONTINUOUS
 62
             4
100
AcDbLine
 10
-157.630409839431
 20
-78.37941100001092
 11
-157.630409839431
 21
31.62058899998908
  0
LINE
  5
2A3
100
AcDbEntity
  8
0
  6
CONTINUOUS
 62
             4
100
AcDbLine
 10
-173.16298300000011
 20
-78.37941100001092
 11
-155.630409839431
 21
-78.37941100001092
  0
LINE
  5
2A4
100
AcDbEntity
  8
0
  6
CONTINUOUS
 62
             4
100
AcDbLine
 10
-173.16298300000011
 20
31.62058899998908
 11
-155.630409839431
 21
31.62058899998908
  0
SOLID
  5
2A5
100
AcDbEntity
  8
0
 62
             4
100
AcDbTrace
 10
-156.70884235631922
 20
24.62058899998908
 11
-158.55197732254277
 21
24.62058899998908
 12
-157.630409839431
 22
31.62058899998908
 13
-157.630409839431
 23
31.62058899998908
  0
SOLID
  5
2A6
100
AcDbEntity
  8
0
 62
             4
100
AcDbTrace
 10
-158.55197732254277
 20
-71.37941100001092
 11
-156.70884235631922
 21
-71.37941100001092
 12
-157.630409839431
 22
-78.37941100001092
 13
-157.630409839431
 23
-78.37941100001092
  0
MTEXT
  5
2A7
100
AcDbEntity
  8
0
 62
             1
100
AcDbMText
 10
-159.630409839431
 20
-26.6052336702155
 30
0.0
 40
7.0
 41
0.0
 71
             7
 72
             1
  1
110
  7
CONVERTER_2
 11
0.0
 21
1.0
 31
0.0
  0
ENDBLK
  5
2A8
100
AcDbEntity
  8
0
100
AcDbBlockEnd
  0
BLOCK
  5
2AC
100
AcDbEntity
  8
0
100
AcDbBlockBegin
  2
*D12
 70
             1
 10
0.0
 20
0.0
 30
0.0
  3
*D12
  1

  0
LINE
  5
2AD
100
AcDbEntity
  8
0
  6
CONTINUOUS
 62
             4
100
AcDbLine
 10
-68.70769124657511
 20
-34.87941100000001
 11
-68.70769124657511
 21
27.06387700000005
  0
LINE
  5
2AE
100
AcDbEntity
  8
0
  6
CONTINUOUS
 62
             4
100
AcDbLine
 10
-68.70769124657511
 20
27.06387700000005
 11
-68.70769124657511
 21
49.5665063935285
  0
LINE
  5
2AF
100
AcDbEntity
  8
0
  6
CONTINUOUS
 62
             4
100
AcDbLine
 10
-28.65000000000007
 20
-34.87941100000001
 11
-70.70769124657511
 21
-34.87941100000001
  0
LINE
  5
2B0
100
AcDbEntity
  8
0
  6
CONTINUOUS
 62
             4
100
AcDbLine
 10
-32.4900000000002
 20
27.06387700000005
 11
-70.70769124657511
 21
27.06387700000005
  0
SOLID
  5
2B1
100
AcDbEntity
  8
0
 62
             4
100
AcDbTrace
 10
-67.78612376346334
 20
20.06387700000005
 11
-69.62925872968688
 21
20.06387700000005
 12
-68.70769124657511
 22
27.06387700000005
 13
-68.70769124657511
 23
27.06387700000005
  0
SOLID
  5
2B2
100
AcDbEntity
  8
0
 62
             4
100
AcDbTrace
 10
-69.62925872968688
 20
-27.87941100000001
 11
-67.78612376346334
 21
-27.87941100000001
 12
-68.70769124657511
 22
-34.87941100000001
 13
-68.70769124657511
 23
-34.87941100000001
  0
MTEXT
  5
2B3
100
AcDbEntity
  8
0
 62
             1
100
AcDbMText
 10
-70.70769124657511
 20
39.0665063935285
 30
0.0
 40
7.0
 41
0.0
 71
             7
 72
             1
  1
62
  7
CONVERTER_2
 11
0.0
 21
1.0
 31
0.0
  0
ENDBLK
  5
2B4
100
AcDbEntity
  8
0
100
AcDbBlockEnd
  0
BLOCK
  5
2B8
100
AcDbEntity
  8
0
100
AcDbBlockBegin
  2
*D13
 70
             1
 10
0.0
 20
0.0
 30
0.0
  3
*D13
  1

  0
LINE
  5
2B9
100
AcDbEntity
  8
0
  6
CONTINUOUS
 62
             4
100
AcDbLine
 10
-248.59571999999994
 20
50.62058899998908
 11
-184.66298300000008
 21
50.62058899998908
  0
LINE
  5
2BA
100
AcDbEntity
  8
0
  6
CONTINUOUS
 62
             4
100
AcDbLine
 10
-248.59571999999994
 20
30.37039199998912
 11
-248.59571999999994
 21
52.62058899998908
  0
LINE
  5
2BB
100
AcDbEntity
  8
0
  6
CONTINUOUS
 62
             4
100
AcDbLine
 10
-184.66298300000008
 20
34.87059499998912
 11
-184.66298300000008
 21
52.62058899998908
  0
SOLID
  5
2BC
100
AcDbEntity
  8
0
 62
             4
100
AcDbTrace
 10
-191.66298300000008
 20
49.69902151687731
 11
-191.66298300000008
 21
51.54215648310085
 12
-184.66298300000008
 22
50.62058899998908
 13
-184.66298300000008
 23
50.62058899998908
  0
SOLID
  5
2BD
100
AcDbEntity
  8
0
 62
             4
100
AcDbTrace
 10
-241.59571999999994
 20
51.54215648310085
 11
-241.59571999999994
 21
49.69902151687731
 12
-248.59571999999994
 22
50.62058899998908
 13
-248.59571999999994
 23
50.62058899998908
  0
MTEXT
  5
2BE
100
AcDbEntity
  8
0
 62
             1
100
AcDbMText
 10
-225.34836395591199
 20
52.62058899998908
 30
0.0
 40
7.0
 41
0.0
 71
             7
 72
             1
  1
64
  7
CONVERTER_2
 11
0.99999999999706
 21
0.00000242406841
 31
0.0
  0
ENDBLK
  5
2BF
100
AcDbEntity
  8
0
100
AcDbBlockEnd
  0
BLOCK
  5
2C3
100
AcDbEntity
  8
0
100
AcDbBlockBegin
  2
*D14
 70
             1
 10
0.0
 20
0.0
 30
0.0
  3
*D14
  1

  0
LINE
  5
2C4
100
AcDbEntity
  8
0
  6
CONTINUOUS
 62
             4
100
AcDbLine
 10
-288.59571999999991
 20
50.62058899998908
 11
-248.59571999999991
 21
50.62058899998908
  0
LINE
  5
2C5
100
AcDbEntity
  8
0
  6
CONTINUOUS
 62
             4
100
AcDbLine
 10
-288.59571999999991
 20
40.62058899998908
 11
-288.59571999999991
 21
52.62058899998908
  0
LINE
  5
2C6
100
AcDbEntity
  8
0
  6
CONTINUOUS
 62
             4
100
AcDbLine
 10
-248.59571999999991
 20
40.62058899998908
 11
-248.59571999999991
 21
52.62058899998908
  0
SOLID
  5
2C7
100
AcDbEntity
  8
0
 62
             4
100
AcDbTrace
 10
-281.59571999999991
 20
51.54215648310085
 11
-281.59571999999991
 21
49.69902151687731
 12
-288.59571999999991
 22
50.62058899998908
 13
-288.59571999999991
 23
50.62058899998908
  0
SOLID
  5
2C8
100
AcDbEntity
  8
0
 62
             4
100
AcDbTrace
 10
-255.59571999999991
 20
49.69902151687731
 11
-255.59571999999991
 21
51.54215648310085
 12
-248.59571999999991
 22
50.62058899998908
 13
-248.59571999999991
 23
50.62058899998908
  0
MTEXT
  5
2C9
100
AcDbEntity
  8
0
 62
             1
100
AcDbMText
 10
-272.93871027452292
 20
52.62058899998908
 30
0.0
 40
7.0
 41
0.0
 71
             7
 72
             1
  1
40
  7
CONVERTER_2
 11
0.99999999999706
 21
0.00000242406841
 31
0.0
  0
ENDBLK
  5
2CA
100
AcDbEntity
  8
0
100
AcDbBlockEnd
  0
BLOCK
  5
2CE
100
AcDbEntity
  8
0
100
AcDbBlockBegin
  2
*D15
 70
             1
 10
0.0
 20
0.0
 30
0.0
  3
*D15
  1

  0
LINE
  5
2CF
100
AcDbEntity
  8
0
  6
CONTINUOUS
 62
             4
100
AcDbLine
 10
-300.59571999999991
 20
-12.87941100001092
 11
-300.59571999999991
 21
-43.65772989344271
  0
LINE
  5
2D0
100
AcDbEntity
  8
0
  6
CONTINUOUS
 62
             4
100
AcDbLine
 10
-300.59571999999991
 20
19.12058899998909
 11
-300.59571999999991
 21
-12.87941100001092
  0
LINE
  5
2D1
100
AcDbEntity
  8
0
  6
CONTINUOUS
 62
             4
100
AcDbLine
 10
-290.59571999999991
 20
-12.87941100001092
 11
-302.59571999999991
 21
-12.87941100001092
  0
LINE
  5
2D2
100
AcDbEntity
  8
0
  6
CONTINUOUS
 62
             4
100
AcDbLine
 10
-290.59571999999991
 20
19.12058899998909
 11
-302.59571999999991
 21
19.12058899998909
  0
SOLID
  5
2D3
100
AcDbEntity
  8
0
 62
             4
100
AcDbTrace
 10
-299.67415251688817
 20
12.12058899998909
 11
-301.51728748311166
 21
12.12058899998909
 12
-300.59571999999991
 22
19.12058899998909
 13
-300.59571999999991
 23
19.12058899998909
  0
SOLID
  5
2D4
100
AcDbEntity
  8
0
 62
             4
100
AcDbTrace
 10
-301.51728748311166
 20
-5.87941100001092
 11
-299.67415251688817
 21
-5.87941100001092
 12
-300.59571999999991
 22
-12.87941100001092
 13
-300.59571999999991
 23
-12.87941100001092
  0
MTEXT
  5
2D5
100
AcDbEntity
  8
0
 62
             1
100
AcDbMText
 10
-302.59571999999991
 20
-39.7377298934427
 30
0.0
 40
7.0
 41
0.0
 71
             7
 72
             1
  1
\C1;DN\C1;32\C1;
  7
CONVERTER_2
 11
0.0
 21
1.0
 31
0.0
  0
ENDBLK
  5
2D6
100
AcDbEntity
  8
0
100
AcDbBlockEnd
  0
BLOCK
  5
2DA
100
AcDbEntity
  8
0
100
AcDbBlockBegin
  2
*D16
 70
             1
 10
0.0
 20
0.0
 30
0.0
  3
*D16
  1

  0
LINE
  5
2DB
100
AcDbEntity
  8
0
  6
CONTINUOUS
 62
             4
100
AcDbLine
 10
-317.37376569140002
 20
-122.63024700001091
 11
-317.37376569140002
 21
3.12058899998908
  0
LINE
  5
2DC
100
AcDbEntity
  8
0
  6
CONTINUOUS
 62
             4
100
AcDbLine
 10
-230.81298300000003
 20
-122.63024700001091
 11
-319.37376569140002
 21
-122.63024700001091
  0
LINE
  5
2DD
100
AcDbEntity
  8
0
  6
CONTINUOUS
 62
             4
100
AcDbLine
 10
-288.59571999999997
 20
3.12058899998908
 11
-319.37376569140002
 21
3.12058899998908
  0
SOLID
  5
2DE
100
AcDbEntity
  8
0
 62
             4
100
AcDbTrace
 10
-316.45219820828828
 20
-3.87941100001092
 11
-318.29533317451177
 21
-3.87941100001092
 12
-317.37376569140002
 22
3.12058899998908
 13
-317.37376569140002
 23
3.12058899998908
  0
SOLID
  5
2DF
100
AcDbEntity
  8
0
 62
             4
100
AcDbTrace
 10
-318.29533317451177
 20
-115.63024700001091
 11
-316.45219820828828
 21
-115.63024700001091
 12
-317.37376569140002
 22
-122.63024700001091
 13
-317.37376569140002
 23
-122.63024700001091
  0
MTEXT
  5
2E0
100
AcDbEntity
  8
0
 62
             1
100
AcDbMText
 10
-319.37376569140002
 20
-66.4555413060431
 30
0.0
 40
7.0
 41
0.0
 71
             7
 72
             1
  1
126
  7
CONVERTER_2
 11
0.0
 21
1.0
 31
0.0
  0
ENDBLK
  5
2E1
100
AcDbEntity
  8
0
100
AcDbBlockEnd
  0
BLOCK
  5
2E5
100
AcDbEntity
  8
0
100
AcDbBlockBegin
  2
*D17
 70
             1
 10
0.0
 20
0.0
 30
0.0
  3
*D17
  1

  0
LINE
  5
2E6
100
AcDbEntity
  8
0
  6
CONTINUOUS
 62
             4
100
AcDbLine
 10
-230.812983
 20
-194.08750212677191
 11
-180.61298299999996
 21
-194.08750212677191
  0
LINE
  5
2E7
100
AcDbEntity
  8
0
  6
CONTINUOUS
 62
             4
100
AcDbLine
 10
-230.812983
 20
-174.32269900001091
 11
-230.812983
 21
-196.08750212677191
  0
LINE
  5
2E8
100
AcDbEntity
  8
0
  6
CONTINUOUS
 62
             4
100
AcDbLine
 10
-180.61298299999996
 20
-174.32269900001091
 11
-180.61298299999996
 21
-196.08750212677191
  0
SOLID
  5
2E9
100
AcDbEntity
  8
0
 62
             4
100
AcDbTrace
 10
-223.812983
 20
-193.16593464366014
 11
-223.812983
 21
-195.00906960988368
 12
-230.812983
 22
-194.08750212677191
 13
-230.812983
 23
-194.08750212677191
  0
SOLID
  5
2EA
100
AcDbEntity
  8
0
 62
             4
100
AcDbTrace
 10
-187.61298299999996
 20
-195.00906960988368
 11
-187.61298299999996
 21
-193.16593464366014
 12
-180.61298299999996
 22
-194.08750212677191
 13
-180.61298299999996
 23
-194.08750212677191
  0
MTEXT
  5
2EB
100
AcDbEntity
  8
0
 62
             1
100
AcDbMText
 10
-213.47469104065129
 20
-192.0875299550772
 30
0.0
 40
7.0
 41
0.0
 71
             7
 72
             1
  1
\C1;DN\C1;50
  7
CONVERTER_2
 11
0.99999999999706
 21
0.00000242406841
 31
0.0
  0
ENDBLK
  5
2EC
100
AcDbEntity
  8
0
100
AcDbBlockEnd
  0
BLOCK
  5
2F0
100
AcDbEntity
  8
0
100
AcDbBlockBegin
  2
*D18
 70
             1
 10
0.0
 20
0.0
 30
0.0
  3
*D18
  1

  0
LINE
  5
2F1
100
AcDbEntity
  8
0
  6
CONTINUOUS
 62
             4
100
AcDbLine
 10
-198.66298300000003
 20
50.645591501517
 11
-184.66298300000003
 21
50.645591501517
  0
LINE
  5
2F2
100
AcDbEntity
  8
0
  6
CONTINUOUS
 62
             4
100
AcDbLine
 10
-184.66298300000003
 20
50.645591501517
 11
-172.16298300000011
 21
50.645591501517
  0
LINE
  5
2F3
100
AcDbEntity
  8
0
  6
CONTINUOUS
 62
             4
100
AcDbLine
 10
-172.16298300000011
 20
50.645591501517
 11
-146.49955533264301
 21
50.645591501517
  0
LINE
  5
2F4
100
AcDbEntity
  8
0
  6
CONTINUOUS
 62
             4
100
AcDbLine
 10
-184.66298300000003
 20
33.17007899998913
 11
-184.66298300000003
 21
52.645591501517
  0
LINE
  5
2F5
100
AcDbEntity
  8
0
  6
CONTINUOUS
 62
             4
100
AcDbLine
 10
-172.16298300000011
 20
-23.87941100001092
 11
-172.16298300000011
 21
52.645591501517
  0
SOLID
  5
2F6
100
AcDbEntity
  8
0
 62
             4
100
AcDbTrace
 10
-165.16298300000011
 20
51.56715898462877
 11
-165.16298300000011
 21
49.72402401840522
 12
-172.16298300000011
 22
50.645591501517
 13
-172.16298300000011
 23
50.645591501517
  0
SOLID
  5
2F7
100
AcDbEntity
  8
0
 62
             4
100
AcDbTrace
 10
-191.66298300000003
 20
49.72402401840522
 11
-191.66298300000003
 21
51.56715898462877
 12
-184.66298300000003
 22
50.645591501517
 13
-184.66298300000003
 23
50.645591501517
  0
MTEXT
  5
2F8
100
AcDbEntity
  8
0
 62
             1
100
AcDbMText
 10
-163.64955533264299
 20
53.345591501517
 30
0.0
 40
7.0
 41
0.0
 71
             7
 72
             1
  1
12,5
  7
CONVERTER_2
 11
0.99999999999706
 21
0.00000242406841
 31
0.0
  0
ENDBLK
  5
2F9
100
AcDbEntity
  8
0
100
AcDbBlockEnd
  0
BLOCK
  5
2FD
100
AcDbEntity
  8
0
100
AcDbBlockBegin
  2
*D19
 70
             1
 10
0.0
 20
0.0
 30
0.0
  3
*D19
  1

  0
LINE
  5
2FE
100
AcDbEntity
  8
0
  6
CONTINUOUS
 62
             4
100
AcDbLine
 10
-317.37376569140002
 20
-177.82269900001091
 11
-317.37376569140002
 21
-122.63024700001091
  0
LINE
  5
2FF
100
AcDbEntity
  8
0
  6
CONTINUOUS
 62
             4
100
AcDbLine
 10
-229.87516000000005
 20
-177.82269900001091
 11
-319.37376569140002
 21
-177.82269900001091
  0
LINE
  5
300
100
AcDbEntity
  8
0
  6
CONTINUOUS
 62
             4
100
AcDbLine
 10
-230.81298300000003
 20
-122.63024700001091
 11
-319.37376569140002
 21
-122.63024700001091
  0
SOLID
  5
301
100
AcDbEntity
  8
0
 62
             4
100
AcDbTrace
 10
-318.29533317451177
 20
-170.82269900001091
 11
-316.45219820828828
 21
-170.82269900001091
 12
-317.37376569140002
 22
-177.82269900001091
 13
-317.37376569140002
 23
-177.82269900001091
  0
SOLID
  5
302
100
AcDbEntity
  8
0
 62
             4
100
AcDbTrace
 10
-316.45219820828828
 20
-129.63024700001091
 11
-318.29533317451177
 21
-129.63024700001091
 12
-317.37376569140002
 22
-122.63024700001091
 13
-317.37376569140002
 23
-122.63024700001091
  0
MTEXT
  5
303
100
AcDbEntity
  8
0
 62
             1
100
AcDbMText
 10
-319.37376569140002
 20
-153.4847084089489
 30
0.0
 40
7.0
 41
0.0
 71
             7
 72
             1
  1
55
  7
CONVERTER_2
 11
0.0
 21
1.0
 31
0.0
  0
ENDBLK
  5
304
100
AcDbEntity
  8
0
100
AcDbBlockEnd
  0
ENDSEC
  0
SECTION
  2
ENTITIES
  0
DIMENSION
  5
306
100
AcDbEntity
  8
1
100
AcDbDimension
  2
*D19
 10
-317.37376569140002
 20
-177.82269900001091
 11
-322.87376569140002
 21
-148.2347084089489
 31
0.0
 53
-90.00000000000003
  1
<>
  3
ME10_DIM_14
100
AcDbAlignedDimension
 13
-230.812983
 23
-122.6302470000109
 14
-229.87515999999999
 24
-177.82269900001091
 50
-90.00000000000003
100
AcDbRotatedDimension
  0
DIMENSION
  5
2FB
100
AcDbEntity
  8
1
100
AcDbDimension
  2
*D18
 10
-172.16298300000011
 20
50.645591501517
 11
-155.074555332643
 21
56.495591501517
 31
0.0
 53
0.00013888888889
  1
<>
  3
ME10_DIM_13
100
AcDbAlignedDimension
 13
-184.662983
 23
33.17007899998913
 14
-172.16298300000011
 24
-23.87941100001092
100
AcDbRotatedDimension
  0
DIMENSION
  5
2EE
100
AcDbEntity
  8
1
100
AcDbDimension
  2
*D17
 10
-230.812983
 20
-194.08750212677191
 11
-204.444691040685
 21
-188.58750212677191
 31
0.0
 53
0.00013888888889
  1
<>
  3
ME10_DIM_12
100
AcDbAlignedDimension
 13
-180.61298300000001
 23
-174.32269900001091
 14
-230.812983
 24
-174.32269900001091
100
AcDbRotatedDimension
  0
DIMENSION
  5
2E3
100
AcDbEntity
  8
1
100
AcDbDimension
  2
*D16
 10
-317.37376569140002
 20
3.12058899998908
 11
-322.87376569140002
 21
-59.10554130604311
 31
0.0
 53
-90.00000000000003
  1
<>
  3
ME10_DIM_11
100
AcDbAlignedDimension
 13
-230.812983
 23
-122.6302470000109
 14
-288.59571999999991
 24
3.12058899998908
 50
-90.00000000000003
100
AcDbRotatedDimension
  0
DIMENSION
  5
2D8
100
AcDbEntity
  8
1
100
AcDbDimension
  2
*D15
 10
-300.59571999999991
 20
19.12058899998909
 11
-306.09571999999991
 21
-30.7077298934427
 31
0.0
 53
90.00000000000003
  1
<>
  3
ME10_DIM_10
100
AcDbAlignedDimension
 13
-290.59571999999991
 23
-12.87941100001092
 14
-290.59571999999991
 24
19.12058899998908
 50
90.00000000000003
100
AcDbRotatedDimension
  0
DIMENSION
  5
2CC
100
AcDbEntity
  8
1
100
AcDbDimension
  2
*D14
 10
-288.59571999999991
 20
50.62058899998908
 11
-267.68871027452292
 21
56.12058899998908
 31
0.0
 53
0.00013888888889
  1
<>
  3
ME10_DIM_9
100
AcDbAlignedDimension
 13
-248.59571999999989
 23
40.62058899998908
 14
-288.59571999999991
 24
40.62058899998908
100
AcDbRotatedDimension
  0
DIMENSION
  5
2C1
100
AcDbEntity
  8
1
100
AcDbDimension
  2
*D13
 10
-184.66298300000008
 20
50.62058899998908
 11
-220.09836395591199
 21
56.12058899998908
 31
0.0
 53
0.00013888888889
  1
64
  3
ME10_DIM_8
100
AcDbAlignedDimension
 13
-248.59571999999989
 23
30.37039199998912
 14
-184.662983
 24
34.87059499998912
100
AcDbRotatedDimension
  0
DIMENSION
  5
2B6
100
AcDbEntity
  8
1
100
AcDbDimension
  2
*D12
 10
-68.70769124657511
 20
27.06387700000005
 11
-74.20769124657511
 21
44.3165063935285
 31
0.0
 53
90.0
  1
<>
  3
ME10_DIM_7
100
AcDbAlignedDimension
 13
-28.65000000000007
 23
-34.87941100000001
 14
-32.4900000000002
 24
27.06387700000005
 50
90.0
100
AcDbRotatedDimension
  0
DIMENSION
  5
2AA
100
AcDbEntity
  8
1
100
AcDbDimension
  2
*D11
 10
-157.630409839431
 20
31.62058899998908
 11
-163.130409839431
 21
-20.3052336702155
 31
0.0
 53
90.0
  1
<>
  3
ME10_DIM_6
100
AcDbAlignedDimension
 13
-173.16298300000011
 23
-78.37941100001092
 14
-173.16298300000011
 24
31.62058899998908
 50
90.0
100
AcDbRotatedDimension
  0
DIMENSION
  5
29F
100
AcDbEntity
  8
1
100
AcDbDimension
  2
*D10
 10
147.98391651677201
 20
31.62058899998908
 11
142.48391651677201
 21
3.31460697294017
 31
0.0
 53
89.99999999999977
  1
<>
  3
ME10_DIM_5
100
AcDbAlignedDimension
 13
99.99999999999994
 23
-25.37941100001092
 14
74.99999999999994
 24
31.62058899998908
 50
89.99999999999977
100
AcDbRotatedDimension
  0
DIMENSION
  5
294
100
AcDbEntity
  8
1
100
AcDbDimension
  2
*D9
 10
-76.50000000000006
 20
-50.3043718744987
 11
-88.8022264414416
 21
-44.8043718744987
 31
0.0
 53
179.9999999999998
  1
<>
  3
ME10_DIM_4
100
AcDbAlignedDimension
 13
76.49999999999994
 23
-24.37941100001092
 14
-76.50000000000006
 24
-20.37941100001092
 50
179.9999999999998
100
AcDbRotatedDimension
  0
DIMENSION
  5
288
100
AcDbEntity
  8
1
100
AcDbDimension
  2
*D8
 10
-60.00000000000006
 20
66.3426221676221
 11
-4.85131615179432
 21
71.8426221676221
 31
0.0
 53
179.9999999999998
  1
<>
  3
ME10_DIM_3
100
AcDbAlignedDimension
 13
59.99999999999994
 23
30.62058899998908
 14
-60.00000000000006
 24
30.62058899998908
 50
179.9999999999998
100
AcDbRotatedDimension
  0
DIMENSION
  5
27D
100
AcDbEntity
  8
1
100
AcDbDimension
  2
*D7
 10
-50.00000000000006
 20
54.3502195085527
 11
19.56178926131115
 21
59.8502195085527
 31
0.0
 53
179.9999999999998
  1
<>
  3
ME10_DIM_2
100
AcDbAlignedDimension
 13
49.99999999999994
 23
30.62058899998908
 14
-50.00000000000006
 24
30.62058899998908
 50
179.9999999999998
100
AcDbRotatedDimension
  0
DIMENSION
  5
272
100
AcDbEntity
  8
1
100
AcDbDimension
  2
*D6
 10
-40.00000000000006
 20
41.5012166595499
 11
-4.42301605682756
 21
47.0012166595499
 31
0.0
 53
179.9999999999998
  1
<>
  3
ME10_DIM_1
100
AcDbAlignedDimension
 13
39.99999999999994
 23
30.62058899998908
 14
-40.00000000000006
 24
30.62058899998908
 50
179.9999999999998
100
AcDbRotatedDimension
  0
DIMENSION
  5
267
100
AcDbEntity
  8
1
100
AcDbDimension
  2
*D5
 10
-132.00000000000006
 20
-64.3086131790338
 11
-100.57852026571
 21
-58.8086131790338
 31
0.0
 53
179.9999999999998
  1
<>
  3
ME10_DIM_0
100
AcDbAlignedDimension
 13
131.99999999999989
 23
-3.87941100001092
 14
-132.00000000000011
 24
-3.87941100001092
 50
179.9999999999998
100
AcDbRotatedDimension
  0
INSERT
  5
34
100
AcDbEntity
  8
1
100
AcDbBlockReference
  2
HL_44_MONTAGEPLATTE__1
 10
8.5
 20
-624.96127683002692
  0
INSERT
  5
35
100
AcDbEntity
  8
1
100
AcDbBlockReference
  2
HL_44_MONTAGEPLATTE__2
 10
-158.72252116025439
 20
-224.68954488202701
  0
INSERT
  5
36
100
AcDbEntity
  8
1
100
AcDbBlockReference
  2
EINBAUSIFON__3
 10
-344.18519943432608
 20
-170.864655
  0
INSERT
  5
37
100
AcDbEntity
  8
1
100
AcDbBlockReference
  2
SIFONEINSATZ
 10
-288.0159847000001
 20
-78.05224599999997
  0
INSERT
  5
38
100
AcDbEntity
  8
1
100
AcDbBlockReference
  2
EINBAUSIFON__4
 10
-583.86349079006391
 20
-182.92314093844681
  0
ENDSEC
  0
SECTION
  2
OBJECTS
  0
DICTIONARY
  5
19
100
AcDbDictionary
  3
ACAD_GROUP
350
1A
  3
ACAD_MLINESTYLE
350
1B
  0
DICTIONARY
  5
1A
102
{ACAD_REACTORS
330
19
102
}
100
AcDbDictionary
  0
DICTIONARY
  5
1B
102
{ACAD_REACTORS
330
19
102
}
100
AcDbDictionary
  3
STANDARD
350
1C
  0
MLINESTYLE
  5
1C
102
{ACAD_REACTORS
330
1B
102
}
100
AcDbMlineStyle
  2
STANDARD
 70
             0
  3

 62
             0
 51
90.0
 52
90.0
 71
             2
 49
0.5
 62
           256
  6
BYLAYER
 49
-0.5
 62
           256
  6
BYLAYER
  0
ENDSEC
  0
EOF
