  0
SECTION
  2
HEADER
  9
$ACADVER
  1
AC1015
  9
$ACADMAINTVER
 70
     6
  9
$DWGCODEPAGE
  3
ANSI_1252
  9
$INSBASE
 10
0.0
 20
0.0
 30
0.0
  9
$EXTMIN
 10
-180.7500000189185
 20
92.7508258424699
 30
0.0
  9
$EXTMAX
 10
8.92541501126692
 20
236.153730344312
 30
0.0
  9
$LIMMIN
 10
0.0
 20
0.0
  9
$LIMMAX
 10
12.0
 20
9.0
  9
$ORTHOMODE
 70
     0
  9
$REGENMODE
 70
     1
  9
$FILLMODE
 70
     1
  9
$QTEXTMODE
 70
     0
  9
$MIRRTEXT
 70
     1
  9
$LTSCALE
 40
1.0
  9
$ATTMODE
 70
     1
  9
$TEXTSIZE
 40
0.2
  9
$TRACEWID
 40
0.05
  9
$TEXTSTYLE
  7
Standard
  9
$CLAYER
  8
0
  9
$CELTYPE
  6
ByLayer
  9
$CECOLOR
 62
   256
  9
$CELTSCALE
 40
1.0
  9
$DISPSILH
 70
     0
  9
$DIMSCALE
 40
1.0
  9
$DIMASZ
 40
0.18
  9
$DIMEXO
 40
0.0625
  9
$DIMDLI
 40
0.38
  9
$DIMRND
 40
0.0
  9
$DIMDLE
 40
0.0
  9
$DIMEXE
 40
0.18
  9
$DIMTP
 40
0.0
  9
$DIMTM
 40
0.0
  9
$DIMTXT
 40
0.18
  9
$DIMCEN
 40
0.09
  9
$DIMTSZ
 40
0.0
  9
$DIMTOL
 70
     0
  9
$DIMLIM
 70
     0
  9
$DIMTIH
 70
     1
  9
$DIMTOH
 70
     1
  9
$DIMSE1
 70
     0
  9
$DIMSE2
 70
     0
  9
$DIMTAD
 70
     0
  9
$DIMZIN
 70
     0
  9
$DIMBLK
  1

  9
$DIMASO
 70
     1
  9
$DIMSHO
 70
     1
  9
$DIMPOST
  1

  9
$DIMAPOST
  1

  9
$DIMALT
 70
     0
  9
$DIMALTD
 70
     2
  9
$DIMALTF
 40
25.4
  9
$DIMLFAC
 40
1.0
  9
$DIMTOFL
 70
     0
  9
$DIMTVP
 40
0.0
  9
$DIMTIX
 70
     0
  9
$DIMSOXD
 70
     0
  9
$DIMSAH
 70
     0
  9
$DIMBLK1
  1

  9
$DIMBLK2
  1

  9
$DIMSTYLE
  2
Standard
  9
$DIMCLRD
 70
     0
  9
$DIMCLRE
 70
     0
  9
$DIMCLRT
 70
     0
  9
$DIMTFAC
 40
1.0
  9
$DIMGAP
 40
0.09
  9
$DIMJUST
 70
     0
  9
$DIMSD1
 70
     0
  9
$DIMSD2
 70
     0
  9
$DIMTOLJ
 70
     1
  9
$DIMTZIN
 70
     0
  9
$DIMALTZ
 70
     0
  9
$DIMALTTZ
 70
     0
  9
$DIMUPT
 70
     0
  9
$DIMDEC
 70
     4
  9
$DIMTDEC
 70
     4
  9
$DIMALTU
 70
     2
  9
$DIMALTTD
 70
     2
  9
$DIMTXSTY
  7
Standard
  9
$DIMAUNIT
 70
     0
  9
$DIMADEC
 70
     0
  9
$DIMALTRND
 40
0.0
  9
$DIMAZIN
 70
     0
  9
$DIMDSEP
 70
    46
  9
$DIMATFIT
 70
     3
  9
$DIMFRAC
 70
     0
  9
$DIMLDRBLK
  1

  9
$DIMLUNIT
 70
     2
  9
$DIMLWD
 70
    -2
  9
$DIMLWE
 70
    -2
  9
$DIMTMOVE
 70
     0
  9
$LUNITS
 70
     2
  9
$LUPREC
 70
     4
  9
$SKETCHINC
 40
0.1
  9
$FILLETRAD
 40
0.5
  9
$AUNITS
 70
     0
  9
$AUPREC
 70
     0
  9
$MENU
  1
.
  9
$ELEVATION
 40
0.0
  9
$PELEVATION
 40
0.0
  9
$THICKNESS
 40
0.0
  9
$LIMCHECK
 70
     0
  9
$CHAMFERA
 40
0.5
  9
$CHAMFERB
 40
0.5
  9
$CHAMFERC
 40
1.0
  9
$CHAMFERD
 40
0.0
  9
$SKPOLY
 70
     0
  9
$TDCREATE
 40
2455252.590129965
  9
$TDUCREATE
 40
2455252.548463298
  9
$TDUPDATE
 40
2455252.590129977
  9
$TDUUPDATE
 40
2455252.54846331
  9
$TDINDWG
 40
0.0000000116
  9
$TDUSRTIMER
 40
0.0000000116
  9
$USRTIMER
 70
     1
  9
$ANGBASE
 50
0.0
  9
$ANGDIR
 70
     0
  9
$PDMODE
 70
     0
  9
$PDSIZE
 40
0.0
  9
$PLINEWID
 40
0.0
  9
$SPLFRAME
 70
     0
  9
$SPLINETYPE
 70
     6
  9
$SPLINESEGS
 70
     8
  9
$HANDSEED
  5
567
  9
$SURFTAB1
 70
     6
  9
$SURFTAB2
 70
     6
  9
$SURFTYPE
 70
     6
  9
$SURFU
 70
     6
  9
$SURFV
 70
     6
  9
$UCSBASE
  2

  9
$UCSNAME
  2

  9
$UCSORG
 10
0.0
 20
0.0
 30
0.0
  9
$UCSXDIR
 10
1.0
 20
0.0
 30
0.0
  9
$UCSYDIR
 10
0.0
 20
1.0
 30
0.0
  9
$UCSORTHOREF
  2

  9
$UCSORTHOVIEW
 70
     0
  9
$UCSORGTOP
 10
0.0
 20
0.0
 30
0.0
  9
$UCSORGBOTTOM
 10
0.0
 20
0.0
 30
0.0
  9
$UCSORGLEFT
 10
0.0
 20
0.0
 30
0.0
  9
$UCSORGRIGHT
 10
0.0
 20
0.0
 30
0.0
  9
$UCSORGFRONT
 10
0.0
 20
0.0
 30
0.0
  9
$UCSORGBACK
 10
0.0
 20
0.0
 30
0.0
  9
$PUCSBASE
  2

  9
$PUCSNAME
  2

  9
$PUCSORG
 10
0.0
 20
0.0
 30
0.0
  9
$PUCSXDIR
 10
1.0
 20
0.0
 30
0.0
  9
$PUCSYDIR
 10
0.0
 20
1.0
 30
0.0
  9
$PUCSORTHOREF
  2

  9
$PUCSORTHOVIEW
 70
     0
  9
$PUCSORGTOP
 10
0.0
 20
0.0
 30
0.0
  9
$PUCSORGBOTTOM
 10
0.0
 20
0.0
 30
0.0
  9
$PUCSORGLEFT
 10
0.0
 20
0.0
 30
0.0
  9
$PUCSORGRIGHT
 10
0.0
 20
0.0
 30
0.0
  9
$PUCSORGFRONT
 10
0.0
 20
0.0
 30
0.0
  9
$PUCSORGBACK
 10
0.0
 20
0.0
 30
0.0
  9
$USERI1
 70
     0
  9
$USERI2
 70
     0
  9
$USERI3
 70
     0
  9
$USERI4
 70
     0
  9
$USERI5
 70
     0
  9
$USERR1
 40
15.5
  9
$USERR2
 40
0.0
  9
$USERR3
 40
0.0
  9
$USERR4
 40
0.0
  9
$USERR5
 40
0.0
  9
$WORLDVIEW
 70
     1
  9
$SHADEDGE
 70
     3
  9
$SHADEDIF
 70
    70
  9
$TILEMODE
 70
     1
  9
$MAXACTVP
 70
    64
  9
$PINSBASE
 10
0.0
 20
0.0
 30
0.0
  9
$PLIMCHECK
 70
     0
  9
$PEXTMIN
 10
1.00000000000000E+20
 20
1.00000000000000E+20
 30
1.00000000000000E+20
  9
$PEXTMAX
 10
-1.00000000000000E+20
 20
-1.00000000000000E+20
 30
-1.00000000000000E+20
  9
$PLIMMIN
 10
0.0
 20
0.0
  9
$PLIMMAX
 10
12.0
 20
9.0
  9
$UNITMODE
 70
     0
  9
$VISRETAIN
 70
     1
  9
$PLINEGEN
 70
     0
  9
$PSLTSCALE
 70
     1
  9
$TREEDEPTH
 70
  3020
  9
$CMLSTYLE
  2
Standard
  9
$CMLJUST
 70
     0
  9
$CMLSCALE
 40
1.0
  9
$PROXYGRAPHICS
 70
     1
  9
$MEASUREMENT
 70
     1
  9
$CELWEIGHT
370
    -1
  9
$ENDCAPS
280
     0
  9
$JOINSTYLE
280
     0
  9
$LWDISPLAY
290
     0
  9
$INSUNITS
 70
     1
  9
$HYPERLINKBASE
  1

  9
$STYLESHEET
  1

  9
$XEDIT
290
     1
  9
$CEPSNTYPE
380
     0
  9
$PSTYLEMODE
290
     1
  9
$FINGERPRINTGUID
  2
{3FABEAFF-8566-4DB1-82BA-054D3D193366}
  9
$VERSIONGUID
  2
{FAEB1C32-E019-11D5-929B-00C0DF256EC4}
  9
$EXTNAMES
290
     1
  9
$PSVPSCALE
 40
0.0
  9
$OLESTARTUP
290
     0
  0
ENDSEC
  0
SECTION
  2
CLASSES
  0
CLASS
  1
ACDBDICTIONARYWDFLT
  2
AcDbDictionaryWithDefault
  3
ObjectDBX Classes
 90
        0
280
     0
281
     0
  0
CLASS
  1
VISUALSTYLE
  2
AcDbVisualStyle
  3
ObjectDBX Classes
 90
     4095
280
     0
281
     0
  0
CLASS
  1

  2
exOdDbSpline
  3

 90
        0
280
     0
281
     1
  0
CLASS
  1
ACDBPLACEHOLDER
  2
AcDbPlaceHolder
  3
ObjectDBX Classes
 90
        0
280
     0
281
     0
  0
CLASS
  1
LAYOUT
  2
AcDbLayout
  3
ObjectDBX Classes
 90
        0
280
     0
281
     0
  0
ENDSEC
  0
SECTION
  2
TABLES
  0
TABLE
  2
VPORT
  5
8
330
0
100
AcDbSymbolTable
 70
     1
  0
VPORT
  5
29
330
8
100
AcDbSymbolTableRecord
100
AcDbViewportTableRecord
  2
*Active
 70
     0
 10
0.0
 20
0.0
 11
1.0
 21
1.0
 12
-85.9122925038258
 22
164.452278093391
 13
0.0
 23
0.0
 14
0.5
 24
0.5
 15
0.5
 25
0.5
 16
0.0
 26
0.0
 36
1.0
 17
0.0
 27
0.0
 37
0.0
 40
157.7431949520263
 41
1.60267857142857
 42
50.0
 43
0.0
 44
0.0
 50
0.0
 51
0.0
 71
     0
 72
   100
 73
     1
 74
     3
 75
     0
 76
     0
 77
     0
 78
     0
281
     0
 65
     1
110
0.0
120
0.0
130
0.0
111
1.0
121
0.0
131
0.0
112
0.0
122
1.0
132
0.0
 79
     0
146
0.0
  0
ENDTAB
  0
TABLE
  2
LTYPE
  5
5
330
0
100
AcDbSymbolTable
 70
     8
  0
LTYPE
  5
14
330
5
100
AcDbSymbolTableRecord
100
AcDbLinetypeTableRecord
  2
ByBlock
 70
     0
  3

 72
    65
 73
     0
 40
0.0
  0
LTYPE
  5
15
330
5
100
AcDbSymbolTableRecord
100
AcDbLinetypeTableRecord
  2
ByLayer
 70
     0
  3

 72
    65
 73
     0
 40
0.0
  0
LTYPE
  5
16
330
5
100
AcDbSymbolTableRecord
100
AcDbLinetypeTableRecord
  2
Continuous
 70
     0
  3
Solid line
 72
    65
 73
     0
 40
0.0
  0
LTYPE
  5
3B
330
5
100
AcDbSymbolTableRecord
100
AcDbLinetypeTableRecord
  2
DASHED
 70
     0
  3
Dashed
 72
    65
 73
     2
 40
15.0
 49
7.0
 74
     0
 49
-8.0
 74
     0
  0
LTYPE
  5
3C
330
5
100
AcDbSymbolTableRecord
100
AcDbLinetypeTableRecord
  2
DOTTED
 70
     0
  3
Dotted
 72
    65
 73
     2
 40
1.0
 49
0.0
 74
     0
 49
-1.0
 74
     0
  0
LTYPE
  5
3D
330
5
100
AcDbSymbolTableRecord
100
AcDbLinetypeTableRecord
  2
DOT_CENTER
 70
     0
  3
Dot_Center
 72
    65
 73
     4
 40
14.0
 49
12.0
 74
     0
 49
-1.0
 74
     0
 49
0.0
 74
     0
 49
-1.0
 74
     0
  0
LTYPE
  5
3E
330
5
100
AcDbSymbolTableRecord
100
AcDbLinetypeTableRecord
  2
LONG_DASHED
 70
     0
  3
Long_Dashed
 72
    65
 73
     2
 40
15.0
 49
10.0
 74
     0
 49
-5.0
 74
     0
  0
LTYPE
  5
3F
330
5
100
AcDbSymbolTableRecord
100
AcDbLinetypeTableRecord
  2
DASH_CENTER
 70
     0
  3
Dash_Center
 72
    65
 73
     4
 40
14.0
 49
11.0
 74
     0
 49
-1.0
 74
     0
 49
1.0
 74
     0
 49
-1.0
 74
     0
  0
LTYPE
  5
40
330
5
100
AcDbSymbolTableRecord
100
AcDbLinetypeTableRecord
  2
PHANTOM
 70
     0
  3
Phantom
 72
    65
 73
     6
 40
13.0
 49
10.0
 74
     0
 49
-1.0
 74
     0
 49
0.0
 74
     0
 49
-1.0
 74
     0
 49
0.0
 74
     0
 49
-1.0
 74
     0
  0
LTYPE
  5
41
330
5
100
AcDbSymbolTableRecord
100
AcDbLinetypeTableRecord
  2
CENTER_DASH_DASH
 70
     0
  3
Center_Dash_Dash
 72
    65
 73
     6
 40
14.0
 49
9.0
 74
     0
 49
-1.0
 74
     0
 49
1.0
 74
     0
 49
-1.0
 74
     0
 49
1.0
 74
     0
 49
-1.0
 74
     0
  0
ENDTAB
  0
TABLE
  2
LAYER
  5
2
330
0
100
AcDbSymbolTable
 70
     2
  0
LAYER
  5
10
330
2
100
AcDbSymbolTableRecord
100
AcDbLayerTableRecord
  2
0
 70
     0
 62
     7
  6
Continuous
370
    -3
390
F
  0
LAYER
  5
42
330
2
100
AcDbSymbolTableRecord
100
AcDbLayerTableRecord
  2
1
 70
     0
 62
     7
  6
Continuous
370
    -3
390
F
  0
ENDTAB
  0
TABLE
  2
STYLE
  5
3
330
0
100
AcDbSymbolTable
 70
     2
  0
STYLE
  5
11
330
3
100
AcDbSymbolTableRecord
100
AcDbTextStyleTableRecord
  2
Standard
 70
     0
 40
0.0
 41
1.0
 50
0.0
 71
     0
 42
0.2
  3
txt
  4

  0
STYLE
  5
479
330
3
100
AcDbSymbolTableRecord
100
AcDbTextStyleTableRecord
  2
CONVERTER_11
 70
     0
 40
0.0
 41
0.9
 50
0.0
 71
     0
 42
0.2
  3
txt.shx
  4

  0
ENDTAB
  0
TABLE
  2
VIEW
  5
6
330
0
100
AcDbSymbolTable
 70
     0
  0
ENDTAB
  0
TABLE
  2
UCS
  5
7
330
0
100
AcDbSymbolTable
 70
     0
  0
ENDTAB
  0
TABLE
  2
APPID
  5
9
330
0
100
AcDbSymbolTable
 70
     1
  0
APPID
  5
12
330
9
100
AcDbSymbolTableRecord
100
AcDbRegAppTableRecord
  2
ACAD
 70
     0
  0
ENDTAB
  0
TABLE
  2
DIMSTYLE
  5
A
330
0
100
AcDbSymbolTable
 70
    15
100
AcDbDimStyleTable
  0
DIMSTYLE
105
27
330
A
100
AcDbSymbolTableRecord
100
AcDbDimStyleTableRecord
  2
Standard
 70
     0
340
11
  0
DIMSTYLE
105
47D
102
{ACAD_REACTORS
330
47E
102
}
330
A
100
AcDbSymbolTableRecord
100
AcDbDimStyleTableRecord
  2
ME10_DIM_10
 70
     0
 41
7.0
 42
0.0
 44
4.0
 73
     0
 74
     0
 77
     1
 78
     8
140
7.0
147
4.0
172
     1
173
     1
176
     7
177
     7
178
     7
271
     2
340
479
  0
DIMSTYLE
105
488
102
{ACAD_REACTORS
330
489
102
}
330
A
100
AcDbSymbolTableRecord
100
AcDbDimStyleTableRecord
  2
ME10_DIM_11
 70
     0
  3
0-<>
 41
7.0
 42
0.0
 44
4.0
 73
     0
 74
     0
 77
     1
 78
     8
140
7.0
147
4.0
172
     1
173
     1
176
     7
177
     7
178
     7
271
     2
340
479
  0
DIMSTYLE
105
495
102
{ACAD_REACTORS
330
496
102
}
330
A
100
AcDbSymbolTableRecord
100
AcDbDimStyleTableRecord
  2
ME10_DIM_12
 70
     0
 41
7.0
 42
0.0
 44
4.0
 73
     0
 74
     0
 77
     1
 78
     8
140
7.0
147
4.0
172
     1
173
     1
176
     7
177
     7
178
     7
271
     2
340
479
  0
DIMSTYLE
105
4A1
102
{ACAD_REACTORS
330
4A2
102
}
330
A
100
AcDbSymbolTableRecord
100
AcDbDimStyleTableRecord
  2
ME10_DIM_13
 70
     0
  3
{\Fgdt;n}20-{\Fgdt;n}<>
 41
7.0
 42
0.0
 44
4.0
 73
     0
 74
     0
 77
     1
 78
     8
140
7.0
147
4.0
172
     1
173
     1
176
     7
177
     7
178
     7
271
     2
340
479
  0
DIMSTYLE
105
4AC
102
{ACAD_REACTORS
330
4AD
102
}
330
A
100
AcDbSymbolTableRecord
100
AcDbDimStyleTableRecord
  2
ME10_DIM_14
 70
     0
 41
7.0
 42
0.0
 44
4.0
 73
     0
 74
     0
 77
     1
 78
     8
140
7.0
147
4.0
172
     1
173
     1
176
     7
177
     7
178
     7
271
     2
340
479
  0
DIMSTYLE
105
4B8
102
{ACAD_REACTORS
330
4B9
102
}
330
A
100
AcDbSymbolTableRecord
100
AcDbDimStyleTableRecord
  2
ME10_DIM_15
 70
     0
  3
DN<>
 41
7.0
 42
0.0
 44
4.0
 73
     0
 74
     0
 77
     1
 78
     8
140
7.0
147
4.0
172
     1
173
     1
176
     7
177
     7
178
     7
271
     2
340
479
  0
DIMSTYLE
105
4C4
102
{ACAD_REACTORS
330
4C5
102
}
330
A
100
AcDbSymbolTableRecord
100
AcDbDimStyleTableRecord
  2
ME10_DIM_16
 70
     0
 41
7.0
 42
0.0
 44
4.0
 73
     0
 74
     0
 77
     1
 78
     8
140
7.0
147
4.0
172
     1
173
     1
176
     7
177
     7
178
     7
271
     2
340
479
  0
DIMSTYLE
105
4CF
102
{ACAD_REACTORS
330
4D0
102
}
330
A
100
AcDbSymbolTableRecord
100
AcDbDimStyleTableRecord
  2
ME10_DIM_17
 70
     0
 41
7.0
 42
0.0
 44
4.0
 73
     0
 74
     0
 77
     1
 78
     8
140
7.0
147
4.0
172
     1
173
     1
176
     7
177
     7
178
     7
271
     2
340
479
  0
DIMSTYLE
105
4DA
102
{ACAD_REACTORS
330
4DB
102
}
330
A
100
AcDbSymbolTableRecord
100
AcDbDimStyleTableRecord
  2
ME10_DIM_18
 70
     0
 41
7.0
 42
0.0
 44
4.0
 73
     0
 74
     0
 77
     1
 78
     8
140
7.0
147
4.0
172
     1
173
     1
176
     7
177
     7
178
     7
271
     2
340
479
  0
DIMSTYLE
105
4E5
102
{ACAD_REACTORS
330
4E6
102
}
330
A
100
AcDbSymbolTableRecord
100
AcDbDimStyleTableRecord
  2
ME10_DIM_19
 70
     0
  3
x100
 41
7.0
 42
0.0
 44
4.0
 73
     0
 74
     0
 77
     1
 78
     8
140
7.0
147
4.0
172
     1
173
     1
176
     7
177
     7
178
     7
271
     2
340
479
  0
DIMSTYLE
105
543
102
{ACAD_REACTORS
330
544
102
}
330
A
100
AcDbSymbolTableRecord
100
AcDbDimStyleTableRecord
  2
ME10_DIM_20
 70
     0
 41
7.0
 42
0.0
 44
4.0
 73
     0
 74
     0
 77
     1
 78
     8
140
7.0
147
4.0
172
     1
173
     1
176
     7
177
     7
178
     7
271
     2
340
479
  0
DIMSTYLE
105
54E
102
{ACAD_REACTORS
330
54F
102
}
330
A
100
AcDbSymbolTableRecord
100
AcDbDimStyleTableRecord
  2
ME10_DIM_21
 70
     0
 41
7.0
 42
0.0
 44
4.0
 73
     0
 74
     0
 77
     1
 78
     8
140
7.0
147
4.0
172
     1
173
     1
176
     7
177
     7
178
     7
271
     2
340
479
  0
DIMSTYLE
105
559
102
{ACAD_REACTORS
330
55A
102
}
330
A
100
AcDbSymbolTableRecord
100
AcDbDimStyleTableRecord
  2
ME10_DIM_22
 70
     0
 41
7.0
 42
0.0
 44
4.0
 73
     0
 74
     0
 77
     1
 78
     8
140
7.0
147
4.0
172
     1
173
     1
176
     7
177
     7
178
     7
271
     2
340
479
  0
DIMSTYLE
105
564
102
{ACAD_REACTORS
330
565
102
}
330
A
100
AcDbSymbolTableRecord
100
AcDbDimStyleTableRecord
  2
ME10_DIM_23
 70
     0
 41
7.0
 42
0.0
 44
4.0
 73
     0
 74
     0
 77
     1
 78
     8
140
7.0
147
4.0
172
     1
173
     1
176
     7
177
     7
178
     7
271
     2
340
479
  0
ENDTAB
  0
TABLE
  2
BLOCK_RECORD
  5
1
330
0
100
AcDbSymbolTable
 70
    27
  0
BLOCK_RECORD
  5
1F
330
1
100
AcDbSymbolTableRecord
100
AcDbBlockTableRecord
  2
*Model_Space
340
22
  0
BLOCK_RECORD
  5
1B
330
1
100
AcDbSymbolTableRecord
100
AcDbBlockTableRecord
  2
*Paper_Space
340
1E
  0
BLOCK_RECORD
  5
23
330
1
100
AcDbSymbolTableRecord
100
AcDbBlockTableRecord
  2
*Paper_Space0
340
26
  0
BLOCK_RECORD
  5
43
330
1
100
AcDbSymbolTableRecord
100
AcDbBlockTableRecord
  2
01096D_Steckdichtung_20-32__1
340
0
102
{BLKREFS
331
50
102
}
  0
BLOCK_RECORD
  5
46
330
1
100
AcDbSymbolTableRecord
100
AcDbBlockTableRecord
  2
10995_Abdeckplatte__2
340
0
102
{BLKREFS
331
51
102
}
  0
BLOCK_RECORD
  5
49
330
1
100
AcDbSymbolTableRecord
100
AcDbBlockTableRecord
  2
10996_Bauschutz
340
0
102
{BLKREFS
331
52
102
}
  0
BLOCK_RECORD
  5
4C
330
1
100
AcDbSymbolTableRecord
100
AcDbBlockTableRecord
  2
10953_Koerper__3
340
0
102
{BLKREFS
331
53
102
}
  0
BLOCK_RECORD
  5
4F
330
1
100
AcDbSymbolTableRecord
100
AcDbBlockTableRecord
  2
Bgr_Zusammenstellung__4
340
0
102
{BLKREFS
331
57
102
}
  0
BLOCK_RECORD
  5
56
330
1
100
AcDbSymbolTableRecord
100
AcDbBlockTableRecord
  2
SA_rechts1
340
0
102
{BLKREFS
331
6E
102
}
  0
BLOCK_RECORD
  5
5A
330
1
100
AcDbSymbolTableRecord
100
AcDbBlockTableRecord
  2
01096D_Steckdichtung_20-32__5
340
0
102
{BLKREFS
331
64
102
}
  0
BLOCK_RECORD
  5
5D
330
1
100
AcDbSymbolTableRecord
100
AcDbBlockTableRecord
  2
10995_Abdeckplatte__6
340
0
102
{BLKREFS
331
65
102
}
  0
BLOCK_RECORD
  5
60
330
1
100
AcDbSymbolTableRecord
100
AcDbBlockTableRecord
  2
10953_Koerper__7
340
0
102
{BLKREFS
331
66
102
}
  0
BLOCK_RECORD
  5
63
330
1
100
AcDbSymbolTableRecord
100
AcDbBlockTableRecord
  2
Bgr_Zusammenstellung__8
340
0
102
{BLKREFS
331
6A
102
}
  0
BLOCK_RECORD
  5
69
330
1
100
AcDbSymbolTableRecord
100
AcDbBlockTableRecord
  2
Vordans1
340
0
102
{BLKREFS
331
6F
102
}
  0
BLOCK_RECORD
  5
6D
330
1
100
AcDbSymbolTableRecord
100
AcDbBlockTableRecord
  2
2
340
0
102
{BLKREFS
331
72
102
}
  0
BLOCK_RECORD
  5
473
330
1
100
AcDbSymbolTableRecord
100
AcDbBlockTableRecord
  2
*D13
340
0
  0
BLOCK_RECORD
  5
47F
330
1
100
AcDbSymbolTableRecord
100
AcDbBlockTableRecord
  2
*D14
340
0
  0
BLOCK_RECORD
  5
48A
330
1
100
AcDbSymbolTableRecord
100
AcDbBlockTableRecord
  2
*D15
340
0
  0
BLOCK_RECORD
  5
497
330
1
100
AcDbSymbolTableRecord
100
AcDbBlockTableRecord
  2
*D16
340
0
  0
BLOCK_RECORD
  5
4A3
330
1
100
AcDbSymbolTableRecord
100
AcDbBlockTableRecord
  2
*D17
340
0
  0
BLOCK_RECORD
  5
4AE
330
1
100
AcDbSymbolTableRecord
100
AcDbBlockTableRecord
  2
*D18
340
0
  0
BLOCK_RECORD
  5
4BA
330
1
100
AcDbSymbolTableRecord
100
AcDbBlockTableRecord
  2
*D19
340
0
  0
BLOCK_RECORD
  5
4C6
330
1
100
AcDbSymbolTableRecord
100
AcDbBlockTableRecord
  2
*D20
340
0
  0
BLOCK_RECORD
  5
4D1
330
1
100
AcDbSymbolTableRecord
100
AcDbBlockTableRecord
  2
*D21
340
0
  0
BLOCK_RECORD
  5
4DC
330
1
100
AcDbSymbolTableRecord
100
AcDbBlockTableRecord
  2
*D22
340
0
  0
BLOCK_RECORD
  5
538
330
1
100
AcDbSymbolTableRecord
100
AcDbBlockTableRecord
  2
*D23
340
0
  0
BLOCK_RECORD
  5
545
330
1
100
AcDbSymbolTableRecord
100
AcDbBlockTableRecord
  2
*D24
340
0
  0
BLOCK_RECORD
  5
550
330
1
100
AcDbSymbolTableRecord
100
AcDbBlockTableRecord
  2
*D25
340
0
  0
BLOCK_RECORD
  5
55B
330
1
100
AcDbSymbolTableRecord
100
AcDbBlockTableRecord
  2
*D26
340
0
  0
ENDTAB
  0
ENDSEC
  0
SECTION
  2
BLOCKS
  0
BLOCK
  5
20
330
1F
100
AcDbEntity
  8
0
100
AcDbBlockBegin
  2
*Model_Space
 70
     0
 71
     0
 10
0.0
 20
0.0
 30
0.0
  3
*Model_Space
  1

  0
ENDBLK
  5
21
330
1F
100
AcDbEntity
  8
0
100
AcDbBlockEnd
  0
BLOCK
  5
1C
330
1B
100
AcDbEntity
 67
     1
  8
0
100
AcDbBlockBegin
  2
*Paper_Space
 70
     0
 71
     0
 10
0.0
 20
0.0
 30
0.0
  3
*Paper_Space
  1

  0
ENDBLK
  5
1D
330
1B
100
AcDbEntity
 67
     1
  8
0
100
AcDbBlockEnd
  0
BLOCK
  5
24
330
23
100
AcDbEntity
  8
0
100
AcDbBlockBegin
  2
*Paper_Space0
 70
     0
 71
     0
 10
0.0
 20
0.0
 30
0.0
  3
*Paper_Space0
  1

  0
ENDBLK
  5
25
330
23
100
AcDbEntity
  8
0
100
AcDbBlockEnd
  0
BLOCK
  5
44
330
43
100
AcDbEntity
  8
0
100
AcDbBlockBegin
  2
01096D_Steckdichtung_20-32__1
 70
     0
 71
     0
 10
-266.7000000378368
 20
416.5000077391445
 30
0.0
  3
01096D_Steckdichtung_20-32__1
  1

  0
LINE
  5
73
330
43
100
AcDbEntity
  8
0
  6
Continuous
 62
     3
100
AcDbLine
 10
-260.7000000378368
 20
430.5000077391445
 30
0.0
 11
-262.0000000378368
 21
430.5000077391444
 31
0.0
  0
LINE
  5
74
330
43
100
AcDbEntity
  8
0
  6
Continuous
 62
     7
100
AcDbLine
 10
-266.7000000378368
 20
430.5000077391445
 30
0.0
 11
-266.7000000378368
 21
416.5000077391445
 31
0.0
  0
LINE
  5
75
330
43
100
AcDbEntity
  8
0
  6
Continuous
 62
     3
100
AcDbLine
 10
-216.3000000378368
 20
430.5000077391445
 30
0.0
 11
-260.7000000378368
 21
430.5000077391445
 31
0.0
  0
LINE
  5
76
330
43
100
AcDbEntity
  8
0
  6
Continuous
 62
     3
100
AcDbLine
 10
-215.0000000378368
 20
430.5000077391444
 30
0.0
 11
-216.3000000378368
 21
430.5000077391445
 31
0.0
  0
LINE
  5
77
330
43
100
AcDbEntity
  8
0
  6
Continuous
 62
     3
100
AcDbLine
 10
-262.0000000378368
 20
430.5000077391444
 30
0.0
 11
-266.7000000378368
 21
430.5000077391445
 31
0.0
  0
LINE
  5
78
330
43
100
AcDbEntity
  8
0
  6
Continuous
 62
     3
100
AcDbLine
 10
-210.3000000378368
 20
430.5000077391445
 30
0.0
 11
-215.0000000378368
 21
430.5000077391444
 31
0.0
  0
LINE
  5
79
330
43
100
AcDbEntity
  8
0
  6
Continuous
 62
     7
100
AcDbLine
 10
-212.3000000378368
 20
432.5000077391445
 30
0.0
 11
-264.7000000378368
 21
432.5000077391445
 31
0.0
  0
LINE
  5
7A
330
43
100
AcDbEntity
  8
0
  6
Continuous
 62
     7
100
AcDbLine
 10
-210.3000000378368
 20
416.5000077391445
 30
0.0
 11
-266.7000000378368
 21
416.5000077391445
 31
0.0
  0
LINE
  5
7B
330
43
100
AcDbEntity
  8
0
  6
Continuous
 62
     7
100
AcDbLine
 10
-210.3000000378368
 20
430.5000077391445
 30
0.0
 11
-210.3000000378368
 21
416.5000077391445
 31
0.0
  0
LINE
  5
7C
330
43
100
AcDbEntity
  8
1
  6
DOT_CENTER
 62
     2
100
AcDbLine
 10
-238.5000000378368
 20
430.5000077391445
 30
0.0
 11
-238.5000000378367
 21
387.5000077391455
 31
0.0
  0
ARC
  5
7D
330
43
100
AcDbEntity
  8
0
  6
Continuous
 62
     7
100
AcDbCircle
 10
-264.7000000378368
 20
430.5000077391445
 30
0.0
 40
2.0
100
AcDbArc
 50
90.0
 51
180.0
  0
ARC
  5
7E
330
43
100
AcDbEntity
  8
0
  6
Continuous
 62
     7
100
AcDbCircle
 10
-212.3000000378368
 20
430.5000077391445
 30
0.0
 40
2.0
100
AcDbArc
 50
0.0
 51
90.0
  0
ENDBLK
  5
45
330
43
100
AcDbEntity
  8
0
100
AcDbBlockEnd
  0
BLOCK
  5
47
330
46
100
AcDbEntity
  8
0
100
AcDbBlockBegin
  2
10995_Abdeckplatte__2
 70
     0
 71
     0
 10
-361.5000000378369
 20
281.5000077391456
 30
0.0
  3
10995_Abdeckplatte__2
  1

  0
LINE
  5
7F
330
46
100
AcDbEntity
  8
0
  6
Continuous
 62
     7
100
AcDbLine
 10
-359.5000000378369
 20
316.5433663902345
 30
0.0
 11
-359.5000000378369
 21
309.0640081591455
 31
0.0
  0
LINE
  5
80
330
46
100
AcDbEntity
  8
0
  6
Continuous
 62
     7
100
AcDbLine
 10
-359.500000037837
 20
281.5000077391456
 30
0.0
 11
-359.500000037837
 21
291.5000077391456
 31
0.0
  0
LINE
  5
81
330
46
100
AcDbEntity
  8
0
  6
Continuous
 62
     7
100
AcDbLine
 10
-359.5000000378369
 20
324.3531706464775
 30
0.0
 11
-359.5000000378369
 21
324.3000077391456
 31
0.0
  0
LINE
  5
82
330
46
100
AcDbEntity
  8
0
  6
Continuous
 62
     7
100
AcDbLine
 10
-359.5000000378369
 20
324.1307494987887
 30
0.0
 11
-359.5000000378369
 21
324.0439217401049
 31
0.0
  0
LINE
  5
83
330
46
100
AcDbEntity
  8
0
  6
Continuous
 62
     7
100
AcDbLine
 10
-359.5000000378369
 20
316.7183663902424
 30
0.0
 11
-359.5000000378369
 21
316.5433663902345
 31
0.0
  0
LINE
  5
84
330
46
100
AcDbEntity
  8
0
  6
Continuous
 62
     7
100
AcDbLine
 10
-359.5000000378369
 20
320.1701613094003
 30
0.0
 11
-359.5000000378369
 21
320.1165714709282
 31
0.0
  0
LINE
  5
85
330
46
100
AcDbEntity
  8
0
  6
Continuous
 62
     7
100
AcDbLine
 10
-359.5000000378369
 20
320.1165714709282
 30
0.0
 11
-359.5000000378369
 21
318.615460771015
 31
0.0
  0
LINE
  5
86
330
46
100
AcDbEntity
  8
0
  6
Continuous
 62
     7
100
AcDbLine
 10
-359.5000000378369
 20
318.615460771015
 30
0.0
 11
-359.5000000378369
 21
316.7183663902424
 31
0.0
  0
LINE
  5
87
330
46
100
AcDbEntity
  8
0
  6
Continuous
 62
     7
100
AcDbLine
 10
-359.5000000378369
 20
309.0640081591455
 30
0.0
 11
-359.5000000378369
 21
308.4390081591455
 31
0.0
  0
LINE
  5
88
330
46
100
AcDbEntity
  8
0
  6
Continuous
 62
     7
100
AcDbLine
 10
-359.5000000378369
 20
306.8140081591455
 30
0.0
 11
-359.5000000378369
 21
306.1890081591455
 31
0.0
  0
LINE
  5
89
330
46
100
AcDbEntity
  8
0
  6
Continuous
 62
     7
100
AcDbLine
 10
-359.5000000378369
 20
308.4390081591455
 30
0.0
 11
-359.5000000378369
 21
306.8140081591455
 31
0.0
  0
LINE
  5
8A
330
46
100
AcDbEntity
  8
0
  6
Continuous
 62
     7
100
AcDbLine
 10
-359.5000000378369
 20
306.1890081591455
 30
0.0
 11
-359.5000000378369
 21
304.6890081591455
 31
0.0
  0
LINE
  5
8B
330
46
100
AcDbEntity
  8
0
  6
Continuous
 62
     7
100
AcDbLine
 10
-359.5000000378369
 20
304.6890081591455
 30
0.0
 11
-359.5000000378369
 21
304.0640081591455
 31
0.0
  0
LINE
  5
8C
330
46
100
AcDbEntity
  8
0
  6
Continuous
 62
     7
100
AcDbLine
 10
-359.3000000378369
 20
324.8337799731331
 30
0.0
 11
-359.3000000378369
 21
324.935834903348
 31
0.0
  0
LINE
  5
8D
330
46
100
AcDbEntity
  8
0
  6
Continuous
 62
     7
100
AcDbLine
 10
-359.3000000378369
 20
324.935834903348
 30
0.0
 11
-359.3000000378369
 21
325.0113100953545
 31
0.0
  0
LINE
  5
8E
330
46
100
AcDbEntity
  8
0
  6
Continuous
 62
     7
100
AcDbLine
 10
-359.3000000378369
 20
325.3613100953527
 30
0.0
 11
-359.3000000378369
 21
325.4778967136376
 31
0.0
  0
LINE
  5
8F
330
46
100
AcDbEntity
  8
0
  6
Continuous
 62
     7
100
AcDbLine
 10
-359.3000000378369
 20
325.0113100953545
 30
0.0
 11
-359.3000000378369
 21
325.3613100953527
 31
0.0
  0
LINE
  5
90
330
46
100
AcDbEntity
  8
0
  6
Continuous
 62
     7
100
AcDbLine
 10
-359.3000000378369
 20
325.4778967136376
 30
0.0
 11
-359.3000000378369
 21
325.655680377619
 31
0.0
  0
LINE
  5
91
330
46
100
AcDbEntity
  8
0
  6
Continuous
 62
     7
100
AcDbLine
 10
-359.3000000378369
 20
325.966235505165
 30
0.0
 11
-359.3000000378369
 21
326.14433510068
 31
0.0
  0
LINE
  5
92
330
46
100
AcDbEntity
  8
0
  6
Continuous
 62
     7
100
AcDbLine
 10
-359.3000000378369
 20
325.655680377619
 30
0.0
 11
-359.3000000378369
 21
325.8337799731336
 31
0.0
  0
LINE
  5
93
330
46
100
AcDbEntity
  8
0
  6
Continuous
 62
     7
100
AcDbLine
 10
-359.3000000378369
 20
325.8337799731336
 30
0.0
 11
-359.3000000378369
 21
325.966235505165
 31
0.0
  0
LINE
  5
94
330
46
100
AcDbEntity
  8
0
  6
Continuous
 62
     7
100
AcDbLine
 10
-359.3000000378369
 20
326.4441861356035
 30
0.0
 11
-359.3000000378369
 21
326.5000077391455
 31
0.0
  0
LINE
  5
95
330
46
100
AcDbEntity
  8
0
  6
Continuous
 62
     7
100
AcDbLine
 10
-359.3000000378369
 20
326.14433510068
 30
0.0
 11
-359.3000000378369
 21
326.3221187646569
 31
0.0
  0
LINE
  5
96
330
46
100
AcDbEntity
  8
0
  6
Continuous
 62
     7
100
AcDbLine
 10
-359.3000000378369
 20
326.3221187646569
 30
0.0
 11
-359.3000000378369
 21
326.4441861356035
 31
0.0
  0
LINE
  5
97
330
46
100
AcDbEntity
  8
0
  6
Continuous
 62
     7
100
AcDbLine
 10
-359.5000000378369
 20
325.0113100953545
 30
0.0
 11
-359.3000000378369
 21
325.0113100953545
 31
0.0
  0
LINE
  5
98
330
46
100
AcDbEntity
  8
0
  6
Continuous
 62
     7
100
AcDbLine
 10
-359.5000000378369
 20
324.935834903348
 30
0.0
 11
-359.3000000378369
 21
324.935834903348
 31
0.0
  0
LINE
  5
99
330
46
100
AcDbEntity
  8
0
  6
Continuous
 62
     7
100
AcDbLine
 10
-359.5000000378369
 20
324.7662355051648
 30
0.0
 11
-359.3000000378369
 21
324.7662355051648
 31
0.0
  0
LINE
  5
9A
330
46
100
AcDbEntity
  8
0
  6
Continuous
 62
     7
100
AcDbLine
 10
-359.3000000378369
 20
324.8337799731331
 30
0.0
 11
-359.5000000378369
 21
324.8337799731331
 31
0.0
  0
LINE
  5
9B
330
46
100
AcDbEntity
  8
0
  6
Continuous
 62
     7
100
AcDbLine
 10
-359.3000000378369
 20
308.4390081591455
 30
0.0
 11
-359.3000000378369
 21
309.0640081591455
 31
0.0
  0
LINE
  5
9C
330
46
100
AcDbEntity
  8
0
  6
Continuous
 62
     7
100
AcDbLine
 10
-359.5000000378369
 20
309.0640081591455
 30
0.0
 11
-359.3000000378369
 21
309.0640081591455
 31
0.0
  0
LINE
  5
9D
330
46
100
AcDbEntity
  8
0
  6
Continuous
 62
     7
100
AcDbLine
 10
-359.3000000378369
 20
308.4390081591455
 30
0.0
 11
-359.5000000378369
 21
308.4390081591455
 31
0.0
  0
LINE
  5
9E
330
46
100
AcDbEntity
  8
0
  6
Continuous
 62
     7
100
AcDbLine
 10
-359.3000000378369
 20
306.8140081591455
 30
0.0
 11
-359.5000000378369
 21
306.8140081591455
 31
0.0
  0
LINE
  5
9F
330
46
100
AcDbEntity
  8
0
  6
Continuous
 62
     7
100
AcDbLine
 10
-359.3000000378369
 20
306.1890081591455
 30
0.0
 11
-359.3000000378369
 21
306.8140081591455
 31
0.0
  0
LINE
  5
A0
330
46
100
AcDbEntity
  8
0
  6
Continuous
 62
     7
100
AcDbLine
 10
-359.3000000378369
 20
306.1890081591455
 30
0.0
 11
-359.5000000378369
 21
306.1890081591455
 31
0.0
  0
LINE
  5
A1
330
46
100
AcDbEntity
  8
0
  6
Continuous
 62
     7
100
AcDbLine
 10
-359.5000000378369
 20
316.5433663902345
 30
0.0
 11
-359.3000000378369
 21
316.5433663902345
 31
0.0
  0
LINE
  5
A2
330
46
100
AcDbEntity
  8
0
  6
Continuous
 62
     3
100
AcDbLine
 10
-359.5000000378369
 20
316.7183663902424
 30
0.0
 11
-359.3000000378369
 21
316.7183663902424
 31
0.0
  0
LINE
  5
A3
330
46
100
AcDbEntity
  8
0
  6
Continuous
 62
     7
100
AcDbLine
 10
-359.3000000378369
 20
324.0439217401049
 30
0.0
 11
-359.5000000378369
 21
324.0439217401049
 31
0.0
  0
LINE
  5
A4
330
46
100
AcDbEntity
  8
0
  6
Continuous
 62
     7
100
AcDbLine
 10
-359.5000000378369
 20
324.3531706464775
 30
0.0
 11
-359.3000000378369
 21
324.3531706464775
 31
0.0
  0
LINE
  5
A5
330
46
100
AcDbEntity
  8
0
  6
Continuous
 62
     7
100
AcDbLine
 10
-359.3000000378369
 20
324.4093742709856
 30
0.0
 11
-359.5000000378369
 21
324.4093742709856
 31
0.0
  0
LINE
  5
A6
330
46
100
AcDbEntity
  8
0
  6
Continuous
 62
     7
100
AcDbLine
 10
-359.3000000378369
 20
324.5000077391455
 30
0.0
 11
-359.5000000378369
 21
324.5168027097164
 31
0.0
  0
LINE
  5
A7
330
46
100
AcDbEntity
  8
0
  6
Continuous
 62
     7
100
AcDbLine
 10
-359.3000000378369
 20
324.4093742709856
 30
0.0
 11
-359.3000000378369
 21
324.5000077391455
 31
0.0
  0
LINE
  5
A8
330
46
100
AcDbEntity
  8
0
  6
Continuous
 62
     7
100
AcDbLine
 10
-359.3000000378369
 20
324.1307494987887
 30
0.0
 11
-359.5000000378369
 21
324.1307494987887
 31
0.0
  0
LINE
  5
A9
330
46
100
AcDbEntity
  8
0
  6
Continuous
 62
     7
100
AcDbLine
 10
-359.5000000378369
 20
324.3000077391456
 30
0.0
 11
-359.3000000378369
 21
324.3000077391456
 31
0.0
  0
LINE
  5
AA
330
46
100
AcDbEntity
  8
0
  6
Continuous
 62
     7
100
AcDbLine
 10
-359.3000000378369
 20
324.3000077391456
 30
0.0
 11
-359.3000000378369
 21
324.3531706464775
 31
0.0
  0
LINE
  5
AB
330
46
100
AcDbEntity
  8
0
  6
Continuous
 62
     7
100
AcDbLine
 10
-359.3000000378369
 20
324.3531706464775
 30
0.0
 11
-359.3000000378369
 21
324.4093742709856
 31
0.0
  0
LINE
  5
AC
330
46
100
AcDbEntity
  8
0
  6
Continuous
 62
     7
100
AcDbLine
 10
-359.5000000378369
 20
323.3933663901557
 30
0.0
 11
-359.3000000378369
 21
323.3933663901557
 31
0.0
  0
LINE
  5
AD
330
46
100
AcDbEntity
  8
0
  6
Continuous
 62
     7
100
AcDbLine
 10
-359.3000000378369
 20
324.1307494987887
 30
0.0
 11
-359.3000000378369
 21
324.3000077391456
 31
0.0
  0
LINE
  5
AE
330
46
100
AcDbEntity
  8
0
  6
Continuous
 62
     7
100
AcDbLine
 10
-359.3000000378369
 20
322.8683663901475
 30
0.0
 11
-359.3000000378369
 21
323.3933663901557
 31
0.0
  0
LINE
  5
AF
330
46
100
AcDbEntity
  8
0
  6
Continuous
 62
     3
100
AcDbLine
 10
-359.5000000378369
 20
322.8683663901475
 30
0.0
 11
-359.3000000378369
 21
322.8683663901475
 31
0.0
  0
LINE
  5
B0
330
46
100
AcDbEntity
  8
0
  6
Continuous
 62
     7
100
AcDbLine
 10
-359.5000000378369
 20
320.1701613094003
 30
0.0
 11
-359.3000000378369
 21
320.1701613094003
 31
0.0
  0
LINE
  5
B1
330
46
100
AcDbEntity
  8
0
  6
Continuous
 62
     7
100
AcDbLine
 10
-359.3000000378369
 20
320.2933663901564
 30
0.0
 11
-359.5000000378369
 21
320.2933663901564
 31
0.0
  0
LINE
  5
B2
330
46
100
AcDbEntity
  8
0
  6
Continuous
 62
     7
100
AcDbLine
 10
-359.3000000378369
 20
320.1165714709282
 30
0.0
 11
-359.5000000378369
 21
320.1165714709282
 31
0.0
  0
LINE
  5
B3
330
46
100
AcDbEntity
  8
0
  6
Continuous
 62
     7
100
AcDbLine
 10
-359.5000000378369
 20
318.615460771015
 30
0.0
 11
-359.3000000378369
 21
318.615460771015
 31
0.0
  0
LINE
  5
B4
330
46
100
AcDbEntity
  8
0
  6
Continuous
 62
     7
100
AcDbLine
 10
-359.3000000378369
 20
316.7183663902424
 30
0.0
 11
-359.3000000378369
 21
316.5433663902345
 31
0.0
  0
LINE
  5
B5
330
46
100
AcDbEntity
  8
0
  6
Continuous
 62
     7
100
AcDbLine
 10
-359.3000000378369
 20
304.6890081591455
 30
0.0
 11
-359.3000000378369
 21
306.1890081591455
 31
0.0
  0
LINE
  5
B6
330
46
100
AcDbEntity
  8
0
  6
Continuous
 62
     7
100
AcDbLine
 10
-359.3000000378369
 20
304.0640081591455
 30
0.0
 11
-359.5000000378369
 21
304.0640081591455
 31
0.0
  0
LINE
  5
B7
330
46
100
AcDbEntity
  8
0
  6
Continuous
 62
     7
100
AcDbLine
 10
-359.5000000378369
 20
325.3613100953527
 30
0.0
 11
-359.3000000378369
 21
325.3613100953527
 31
0.0
  0
LINE
  5
B8
330
46
100
AcDbEntity
  8
0
  6
Continuous
 62
     7
100
AcDbLine
 10
-359.3000000378369
 20
325.4778967136376
 30
0.0
 11
-359.5000000378369
 21
325.4778967136376
 31
0.0
  0
LINE
  5
B9
330
46
100
AcDbEntity
  8
0
  6
Continuous
 62
     7
100
AcDbLine
 10
-359.3000000378369
 20
333.0000077391455
 30
0.0
 11
-359.3000000378369
 21
334.794135528222
 31
0.0
  0
LINE
  5
BA
330
46
100
AcDbEntity
  8
0
  6
Continuous
 62
     7
100
AcDbLine
 10
-359.3000000378369
 20
333.0000077391455
 30
0.0
 11
-359.5000000378369
 21
333.0000077391455
 31
0.0
  0
LINE
  5
BB
330
46
100
AcDbEntity
  8
0
  6
Continuous
 62
     7
100
AcDbLine
 10
-359.3000000378369
 20
326.5000077391455
 30
0.0
 11
-359.5000000378369
 21
326.5000077391455
 31
0.0
  0
LINE
  5
BC
330
46
100
AcDbEntity
  8
0
  6
Continuous
 62
     7
100
AcDbLine
 10
-359.5000000378369
 20
326.4441861356035
 30
0.0
 11
-359.3000000378369
 21
326.4441861356035
 31
0.0
  0
LINE
  5
BD
330
46
100
AcDbEntity
  8
0
  6
Continuous
 62
     7
100
AcDbLine
 10
-359.5000000378369
 20
325.655680377619
 30
0.0
 11
-359.3000000378369
 21
325.655680377619
 31
0.0
  0
LINE
  5
BE
330
46
100
AcDbEntity
  8
0
  6
Continuous
 62
     7
100
AcDbLine
 10
-359.3000000378369
 20
325.8337799731336
 30
0.0
 11
-359.5000000378369
 21
325.8337799731336
 31
0.0
  0
LINE
  5
BF
330
46
100
AcDbEntity
  8
0
  6
Continuous
 62
     7
100
AcDbLine
 10
-359.5000000378369
 20
325.966235505165
 30
0.0
 11
-359.3000000378369
 21
325.966235505165
 31
0.0
  0
LINE
  5
C0
330
46
100
AcDbEntity
  8
0
  6
Continuous
 62
     7
100
AcDbLine
 10
-359.3000000378369
 20
326.14433510068
 30
0.0
 11
-359.5000000378369
 21
326.14433510068
 31
0.0
  0
LINE
  5
C1
330
46
100
AcDbEntity
  8
0
  6
Continuous
 62
     7
100
AcDbLine
 10
-359.5000000378369
 20
326.3221187646569
 30
0.0
 11
-359.3000000378369
 21
326.3221187646569
 31
0.0
  0
LINE
  5
C2
330
46
100
AcDbEntity
  8
0
  6
Continuous
 62
     7
100
AcDbLine
 10
-359.3000000378369
 20
324.6832127685835
 30
0.0
 11
-359.3000000378369
 21
324.7662355051648
 31
0.0
  0
LINE
  5
C3
330
46
100
AcDbEntity
  8
0
  6
Continuous
 62
     7
100
AcDbLine
 10
-359.3000000378369
 20
324.7662355051648
 30
0.0
 11
-359.3000000378369
 21
324.8337799731331
 31
0.0
  0
LINE
  5
C4
330
46
100
AcDbEntity
  8
0
  6
Continuous
 62
     7
100
AcDbLine
 10
-359.3000000378369
 20
316.7183663902424
 30
0.0
 11
-359.3000000378369
 21
318.615460771015
 31
0.0
  0
LINE
  5
C5
330
46
100
AcDbEntity
  8
0
  6
Continuous
 62
     7
100
AcDbLine
 10
-359.3000000378369
 20
318.615460771015
 30
0.0
 11
-359.3000000378369
 21
320.1165714709282
 31
0.0
  0
LINE
  5
C6
330
46
100
AcDbEntity
  8
0
  6
Continuous
 62
     7
100
AcDbLine
 10
-359.3000000378369
 20
320.1701613094003
 30
0.0
 11
-359.3000000378369
 21
320.2933663901564
 31
0.0
  0
LINE
  5
C7
330
46
100
AcDbEntity
  8
0
  6
Continuous
 62
     7
100
AcDbLine
 10
-359.3000000378369
 20
320.2933663901564
 30
0.0
 11
-359.3000000378369
 21
322.8683663901475
 31
0.0
  0
LINE
  5
C8
330
46
100
AcDbEntity
  8
0
  6
Continuous
 62
     7
100
AcDbLine
 10
-359.3000000378369
 20
323.3933663901557
 30
0.0
 11
-359.3000000378369
 21
324.0439217401049
 31
0.0
  0
LINE
  5
C9
330
46
100
AcDbEntity
  8
0
  6
Continuous
 62
     7
100
AcDbLine
 10
-359.3000000378369
 20
306.8140081591455
 30
0.0
 11
-359.3000000378369
 21
308.4390081591455
 31
0.0
  0
LINE
  5
CA
330
46
100
AcDbEntity
  8
0
  6
Continuous
 62
     7
100
AcDbLine
 10
-359.3000000378369
 20
304.0640081591455
 30
0.0
 11
-359.3000000378369
 21
304.6890081591455
 31
0.0
  0
LINE
  5
CB
330
46
100
AcDbEntity
  8
0
  6
Continuous
 62
     7
100
AcDbLine
 10
-359.3000000378369
 20
304.6890081591455
 30
0.0
 11
-359.5000000378369
 21
304.6890081591455
 31
0.0
  0
LINE
  5
CC
330
46
100
AcDbEntity
  8
0
  6
Continuous
 62
     7
100
AcDbLine
 10
-359.5000000378369
 20
324.6832127685835
 30
0.0
 11
-359.3000000378369
 21
324.6832127685835
 31
0.0
  0
LINE
  5
CD
330
46
100
AcDbEntity
  8
0
  6
Continuous
 62
     7
100
AcDbLine
 10
-359.3000000378369
 20
324.5000077391455
 30
0.0
 11
-359.3000000378369
 21
324.6832127685835
 31
0.0
  0
LINE
  5
CE
330
46
100
AcDbEntity
  8
0
  6
Continuous
 62
     3
100
AcDbLine
 10
-356.3189943749545
 20
299.5000077391456
 30
0.0
 11
-356.3189943749545
 21
291.5000077391456
 31
0.0
  0
LINE
  5
CF
330
46
100
AcDbEntity
  8
0
  6
Continuous
 62
     7
100
AcDbLine
 10
-360.6961524605435
 20
281.5000077391456
 30
0.0
 11
-360.6961524605435
 21
291.5000077391456
 31
0.0
  0
LINE
  5
D0
330
46
100
AcDbEntity
  8
0
  6
Continuous
 62
     3
100
AcDbLine
 10
-357.4428141552023
 20
299.5000077391456
 30
0.0
 11
-357.4428141552023
 21
291.5000077391456
 31
0.0
  0
LINE
  5
D1
330
46
100
AcDbEntity
  8
0
  6
Continuous
 62
     7
100
AcDbLine
 10
-357.4428141552023
 20
299.5000077391456
 30
0.0
 11
-359.500000037837
 21
299.5000077391456
 31
0.0
  0
LINE
  5
D2
330
46
100
AcDbEntity
  8
0
  6
Continuous
 62
     7
100
AcDbLine
 10
-357.4428141552023
 20
299.5000077391456
 30
0.0
 11
-356.3189943749545
 21
299.5000077391456
 31
0.0
  0
LINE
  5
D3
330
46
100
AcDbEntity
  8
0
  6
Continuous
 62
     7
100
AcDbLine
 10
-357.4428141552023
 20
291.5000077391456
 30
0.0
 11
-356.3189943749545
 21
291.5000077391456
 31
0.0
  0
LINE
  5
D4
330
46
100
AcDbEntity
  8
0
  6
Continuous
 62
     7
100
AcDbLine
 10
-360.6961524605434
 20
381.5000077391455
 30
0.0
 11
-360.6961524605435
 21
291.5000077391456
 31
0.0
  0
LINE
  5
D5
330
46
100
AcDbEntity
  8
0
  6
Continuous
 62
     7
100
AcDbLine
 10
-360.6961524605434
 20
381.5000077391455
 30
0.0
 11
-360.6961524605434
 21
391.5000077391455
 31
0.0
  0
LINE
  5
D6
330
46
100
AcDbEntity
  8
0
  6
Continuous
 62
     7
100
AcDbLine
 10
-334.5000000378369
 20
291.5000077391456
 30
0.0
 11
-334.5000000378369
 21
299.5000077391456
 31
0.0
  0
LINE
  5
D7
330
46
100
AcDbEntity
  8
0
  6
Continuous
 62
     7
100
AcDbLine
 10
-342.1381557625523
 20
291.5000077391456
 30
0.0
 11
-356.3189943749545
 21
291.5000077391456
 31
0.0
  0
LINE
  5
D8
330
46
100
AcDbEntity
  8
0
  6
Continuous
 62
     3
100
AcDbLine
 10
-335.5541036711999
 20
299.5000077391456
 30
0.0
 11
-335.5541036711999
 21
291.5000077391456
 31
0.0
  0
LINE
  5
D9
330
46
100
AcDbEntity
  8
0
  6
Continuous
 62
     3
100
AcDbLine
 10
-335.0000000378369
 20
291.5000077391456
 30
0.0
 11
-335.0000000378369
 21
299.5000077391456
 31
0.0
  0
LINE
  5
DA
330
46
100
AcDbEntity
  8
0
  6
Continuous
 62
     3
100
AcDbLine
 10
-361.5000000378369
 20
291.5000077391456
 30
0.0
 11
-360.6961524605435
 21
291.5000077391456
 31
0.0
  0
LINE
  5
DB
330
46
100
AcDbEntity
  8
0
  6
Continuous
 62
     3
100
AcDbLine
 10
-359.500000037837
 20
291.5000077391456
 30
0.0
 11
-360.6961524605435
 21
291.5000077391456
 31
0.0
  0
LINE
  5
DC
330
46
100
AcDbEntity
  8
0
  6
Continuous
 62
     7
100
AcDbLine
 10
-337.2748329802531
 20
291.5000077391456
 30
0.0
 11
-335.5541036711999
 21
291.5000077391456
 31
0.0
  0
LINE
  5
DD
330
46
100
AcDbEntity
  8
0
  6
Continuous
 62
     3
100
AcDbLine
 10
-337.2748329802531
 20
299.5000077391456
 30
0.0
 11
-337.2748329802531
 21
291.5000077391456
 31
0.0
  0
LINE
  5
DE
330
46
100
AcDbEntity
  8
0
  6
Continuous
 62
     7
100
AcDbLine
 10
-342.1381557625523
 20
291.5000077391456
 30
0.0
 11
-337.2748329802531
 21
291.5000077391456
 31
0.0
  0
LINE
  5
DF
330
46
100
AcDbEntity
  8
0
  6
Continuous
 62
     7
100
AcDbLine
 10
-357.4428141552023
 20
291.5000077391456
 30
0.0
 11
-359.500000037837
 21
291.5000077391456
 31
0.0
  0
LINE
  5
E0
330
46
100
AcDbEntity
  8
0
  6
Continuous
 62
     7
100
AcDbLine
 10
-335.0000000378369
 20
291.5000077391456
 30
0.0
 11
-334.5000000378369
 21
291.5000077391456
 31
0.0
  0
LINE
  5
E1
330
46
100
AcDbEntity
  8
0
  6
Continuous
 62
     7
100
AcDbLine
 10
-335.0000000378369
 20
299.5000077391456
 30
0.0
 11
-335.5541036711999
 21
299.5000077391456
 31
0.0
  0
LINE
  5
E2
330
46
100
AcDbEntity
  8
0
  6
Continuous
 62
     7
100
AcDbLine
 10
-335.0000000378369
 20
291.5000077391456
 30
0.0
 11
-335.5541036711999
 21
291.5000077391456
 31
0.0
  0
LINE
  5
E3
330
46
100
AcDbEntity
  8
0
  6
Continuous
 62
     7
100
AcDbLine
 10
-335.0000000378369
 20
299.5000077391456
 30
0.0
 11
-334.5000000378369
 21
299.5000077391456
 31
0.0
  0
LINE
  5
E4
330
46
100
AcDbEntity
  8
0
  6
Continuous
 62
     7
100
AcDbLine
 10
-337.2748329802531
 20
299.5000077391456
 30
0.0
 11
-335.5541036711999
 21
299.5000077391456
 31
0.0
  0
LINE
  5
E5
330
46
100
AcDbEntity
  8
0
  6
Continuous
 62
     7
100
AcDbLine
 10
-342.1381557625523
 20
299.5000077391456
 30
0.0
 11
-356.3189943749545
 21
299.5000077391456
 31
0.0
  0
LINE
  5
E6
330
46
100
AcDbEntity
  8
0
  6
Continuous
 62
     7
100
AcDbLine
 10
-342.1381557625523
 20
299.5000077391456
 30
0.0
 11
-337.2748329802531
 21
299.5000077391456
 31
0.0
  0
LINE
  5
E7
330
46
100
AcDbEntity
  8
0
  6
Continuous
 62
     7
100
AcDbLine
 10
-342.1381557625523
 20
291.5000077391456
 30
0.0
 11
-342.1381557625523
 21
299.5000077391456
 31
0.0
  0
LINE
  5
E8
330
46
100
AcDbEntity
  8
0
  6
Continuous
 62
     7
100
AcDbLine
 10
-361.5000000378369
 20
284.5000077391456
 30
0.0
 11
-361.5000000378369
 21
291.5000077391456
 31
0.0
  0
LINE
  5
E9
330
46
100
AcDbEntity
  8
0
  6
Continuous
 62
     7
100
AcDbLine
 10
-361.5000000378368
 20
381.5000077391455
 30
0.0
 11
-361.5000000378369
 21
291.5000077391456
 31
0.0
  0
LINE
  5
EA
330
46
100
AcDbEntity
  8
0
  6
Continuous
 62
     7
100
AcDbLine
 10
-361.5000000378368
 20
381.5000077391455
 30
0.0
 11
-361.5000000378368
 21
388.5000077391455
 31
0.0
  0
LINE
  5
EB
330
46
100
AcDbEntity
  8
0
  6
Continuous
 62
     3
100
AcDbLine
 10
-356.3189943749544
 20
381.5000077391455
 30
0.0
 11
-356.3189943749544
 21
373.5000077391455
 31
0.0
  0
LINE
  5
EC
330
46
100
AcDbEntity
  8
0
  6
Continuous
 62
     7
100
AcDbLine
 10
-342.1381557625522
 20
381.5000077391455
 30
0.0
 11
-356.3189943749544
 21
381.5000077391455
 31
0.0
  0
LINE
  5
ED
330
46
100
AcDbEntity
  8
0
  6
Continuous
 62
     7
100
AcDbLine
 10
-342.1381557625522
 20
381.5000077391455
 30
0.0
 11
-342.1381557625522
 21
373.5000077391455
 31
0.0
  0
LINE
  5
EE
330
46
100
AcDbEntity
  8
0
  6
Continuous
 62
     3
100
AcDbLine
 10
-361.5000000378368
 20
381.5000077391455
 30
0.0
 11
-360.6961524605434
 21
381.5000077391455
 31
0.0
  0
LINE
  5
EF
330
46
100
AcDbEntity
  8
0
  6
Continuous
 62
     3
100
AcDbLine
 10
-359.5000000378369
 20
381.5000077391455
 30
0.0
 11
-360.6961524605434
 21
381.5000077391455
 31
0.0
  0
LINE
  5
F0
330
46
100
AcDbEntity
  8
0
  6
Continuous
 62
     7
100
AcDbLine
 10
-357.4428141552022
 20
373.5000077391455
 30
0.0
 11
-359.5000000378369
 21
373.5000077391455
 31
0.0
  0
LINE
  5
F1
330
46
100
AcDbEntity
  8
0
  6
Continuous
 62
     7
100
AcDbLine
 10
-359.5000000378369
 20
381.5000077391455
 30
0.0
 11
-359.5000000378369
 21
373.5000077391455
 31
0.0
  0
LINE
  5
F2
330
46
100
AcDbEntity
  8
0
  6
Continuous
 62
     3
100
AcDbLine
 10
-357.4428141552021
 20
381.5000077391455
 30
0.0
 11
-357.4428141552022
 21
373.5000077391455
 31
0.0
  0
LINE
  5
F3
330
46
100
AcDbEntity
  8
0
  6
Continuous
 62
     7
100
AcDbLine
 10
-357.4428141552021
 20
381.5000077391455
 30
0.0
 11
-359.5000000378369
 21
381.5000077391455
 31
0.0
  0
LINE
  5
F4
330
46
100
AcDbEntity
  8
0
  6
Continuous
 62
     7
100
AcDbLine
 10
-342.1381557625522
 20
373.5000077391455
 30
0.0
 11
-356.3189943749544
 21
373.5000077391455
 31
0.0
  0
LINE
  5
F5
330
46
100
AcDbEntity
  8
0
  6
Continuous
 62
     7
100
AcDbLine
 10
-357.4428141552022
 20
373.5000077391455
 30
0.0
 11
-356.3189943749544
 21
373.5000077391455
 31
0.0
  0
LINE
  5
F6
330
46
100
AcDbEntity
  8
0
  6
Continuous
 62
     7
100
AcDbLine
 10
-357.4428141552021
 20
381.5000077391455
 30
0.0
 11
-356.3189943749544
 21
381.5000077391455
 31
0.0
  0
LINE
  5
F7
330
46
100
AcDbEntity
  8
0
  6
Continuous
 62
     7
100
AcDbLine
 10
-335.0000000378367
 20
373.5000077391455
 30
0.0
 11
-335.5541036711999
 21
373.5000077391455
 31
0.0
  0
LINE
  5
F8
330
46
100
AcDbEntity
  8
0
  6
Continuous
 62
     7
100
AcDbLine
 10
-342.1381557625522
 20
373.5000077391455
 30
0.0
 11
-337.274832980253
 21
373.5000077391455
 31
0.0
  0
LINE
  5
F9
330
46
100
AcDbEntity
  8
0
  6
Continuous
 62
     7
100
AcDbLine
 10
-337.274832980253
 20
373.5000077391455
 30
0.0
 11
-335.5541036711999
 21
373.5000077391455
 31
0.0
  0
LINE
  5
FA
330
46
100
AcDbEntity
  8
0
  6
Continuous
 62
     7
100
AcDbLine
 10
-342.1381557625522
 20
381.5000077391455
 30
0.0
 11
-337.274832980253
 21
381.5000077391455
 31
0.0
  0
LINE
  5
FB
330
46
100
AcDbEntity
  8
0
  6
Continuous
 62
     3
100
AcDbLine
 10
-335.0000000378367
 20
373.5000077391455
 30
0.0
 11
-335.0000000378367
 21
381.5000077391455
 31
0.0
  0
LINE
  5
FC
330
46
100
AcDbEntity
  8
0
  6
Continuous
 62
     3
100
AcDbLine
 10
-337.274832980253
 20
373.5000077391455
 30
0.0
 11
-337.274832980253
 21
381.5000077391455
 31
0.0
  0
LINE
  5
FD
330
46
100
AcDbEntity
  8
0
  6
Continuous
 62
     3
100
AcDbLine
 10
-335.5541036711999
 20
373.5000077391455
 30
0.0
 11
-335.5541036711999
 21
381.5000077391455
 31
0.0
  0
LINE
  5
FE
330
46
100
AcDbEntity
  8
0
  6
Continuous
 62
     7
100
AcDbLine
 10
-335.5541036711999
 20
381.5000077391455
 30
0.0
 11
-337.274832980253
 21
381.5000077391455
 31
0.0
  0
LINE
  5
FF
330
46
100
AcDbEntity
  8
0
  6
Continuous
 62
     7
100
AcDbLine
 10
-335.0000000378367
 20
381.5000077391455
 30
0.0
 11
-335.5541036711999
 21
381.5000077391455
 31
0.0
  0
LINE
  5
100
330
46
100
AcDbEntity
  8
0
  6
Continuous
 62
     7
100
AcDbLine
 10
-335.0000000378367
 20
373.5000077391455
 30
0.0
 11
-334.5000000378367
 21
373.5000077391455
 31
0.0
  0
LINE
  5
101
330
46
100
AcDbEntity
  8
0
  6
Continuous
 62
     7
100
AcDbLine
 10
-334.5000000378367
 20
373.5000077391455
 30
0.0
 11
-334.5000000378367
 21
381.5000077391455
 31
0.0
  0
LINE
  5
102
330
46
100
AcDbEntity
  8
0
  6
Continuous
 62
     7
100
AcDbLine
 10
-335.0000000378367
 20
381.5000077391455
 30
0.0
 11
-334.5000000378367
 21
381.5000077391455
 31
0.0
  0
LINE
  5
103
330
46
100
AcDbEntity
  8
0
  6
Continuous
 62
     7
100
AcDbLine
 10
-361.5000000378368
 20
388.5000077391455
 30
0.0
 11
-360.6961524605434
 21
391.5000077391455
 31
0.0
  0
LINE
  5
104
330
46
100
AcDbEntity
  8
0
  6
Continuous
 62
     7
100
AcDbLine
 10
-359.5000000378369
 20
391.5000077391455
 30
0.0
 11
-360.6961524605434
 21
391.5000077391455
 31
0.0
  0
LINE
  5
105
330
46
100
AcDbEntity
  8
0
  6
Continuous
 62
     7
100
AcDbLine
 10
-359.5000000378369
 20
381.5000077391455
 30
0.0
 11
-359.5000000378369
 21
391.5000077391455
 31
0.0
  0
LINE
  5
106
330
46
100
AcDbEntity
  8
0
  6
Continuous
 62
     7
100
AcDbLine
 10
-359.5000000378368
 20
371.0032398691865
 30
0.0
 11
-359.3000000378368
 21
371.0032398691865
 31
0.0
  0
LINE
  5
107
330
46
100
AcDbEntity
  8
0
  6
Continuous
 62
     7
100
AcDbLine
 10
-359.5000000378369
 20
373.5000077391455
 30
0.0
 11
-359.5000000378368
 21
371.0032398691865
 31
0.0
  0
LINE
  5
108
330
46
100
AcDbEntity
  8
0
  6
Continuous
 62
     7
100
AcDbLine
 10
-359.5000000378368
 20
371.0032398691865
 30
0.0
 11
-359.5000000378368
 21
362.0032248263311
 31
0.0
  0
LINE
  5
109
330
46
100
AcDbEntity
  8
0
  6
Continuous
 62
     7
100
AcDbLine
 10
-359.3000000378368
 20
362.0032248263311
 30
0.0
 11
-359.3000000378368
 21
366.9829361416273
 31
0.0
  0
LINE
  5
10A
330
46
100
AcDbEntity
  8
0
  6
Continuous
 62
     7
100
AcDbLine
 10
-359.3000000378368
 20
366.9829361416273
 30
0.0
 11
-359.3000000378368
 21
371.0032398691865
 31
0.0
  0
LINE
  5
10B
330
46
100
AcDbEntity
  8
0
  6
Continuous
 62
     7
100
AcDbLine
 10
-359.3000000378369
 20
338.2058799500692
 30
0.0
 11
-359.3000000378369
 21
340.0000077391455
 31
0.0
  0
LINE
  5
10C
330
46
100
AcDbEntity
  8
0
  6
Continuous
 62
     7
100
AcDbLine
 10
-359.3000000378369
 20
336.5000077391455
 30
0.0
 11
-359.3000000378369
 21
338.2058799500692
 31
0.0
  0
LINE
  5
10D
330
46
100
AcDbEntity
  8
0
  6
Continuous
 62
     7
100
AcDbLine
 10
-359.5000000378368
 20
362.0032248263311
 30
0.0
 11
-359.3000000378368
 21
362.0032248263311
 31
0.0
  0
LINE
  5
10E
330
46
100
AcDbEntity
  8
0
  6
Continuous
 62
     7
100
AcDbLine
 10
-359.5000000378368
 20
362.0032248263311
 30
0.0
 11
-359.5000000378369
 21
340.0000077391455
 31
0.0
  0
LINE
  5
10F
330
46
100
AcDbEntity
  8
0
  6
Continuous
 62
     7
100
AcDbLine
 10
-359.5000000378369
 20
304.0640081591455
 30
0.0
 11
-359.500000037837
 21
299.5000077391456
 31
0.0
  0
LINE
  5
110
330
46
100
AcDbEntity
  8
0
  6
Continuous
 62
     7
100
AcDbLine
 10
-359.5000000378369
 20
336.5000077391455
 30
0.0
 11
-359.5000000378369
 21
333.0000077391455
 31
0.0
  0
LINE
  5
111
330
46
100
AcDbEntity
  8
0
  6
Continuous
 62
     7
100
AcDbLine
 10
-359.5000000378369
 20
340.0000077391455
 30
0.0
 11
-359.5000000378369
 21
336.5000077391455
 31
0.0
  0
LINE
  5
112
330
46
100
AcDbEntity
  8
0
  6
Continuous
 62
     7
100
AcDbLine
 10
-359.500000037837
 20
299.5000077391456
 30
0.0
 11
-359.500000037837
 21
291.5000077391456
 31
0.0
  0
LINE
  5
113
330
46
100
AcDbEntity
  8
0
  6
Continuous
 62
     7
100
AcDbLine
 10
-359.5000000378369
 20
333.0000077391455
 30
0.0
 11
-359.5000000378369
 21
326.5000077391455
 31
0.0
  0
LINE
  5
114
330
46
100
AcDbEntity
  8
0
  6
Continuous
 62
     7
100
AcDbLine
 10
-359.5000000378369
 20
325.966235505165
 30
0.0
 11
-359.5000000378369
 21
325.8337799731336
 31
0.0
  0
LINE
  5
115
330
46
100
AcDbEntity
  8
0
  6
Continuous
 62
     7
100
AcDbLine
 10
-359.5000000378369
 20
325.8337799731336
 30
0.0
 11
-359.5000000378369
 21
325.655680377619
 31
0.0
  0
LINE
  5
116
330
46
100
AcDbEntity
  8
0
  6
Continuous
 62
     7
100
AcDbLine
 10
-359.5000000378369
 20
326.14433510068
 30
0.0
 11
-359.5000000378369
 21
325.966235505165
 31
0.0
  0
LINE
  5
117
330
46
100
AcDbEntity
  8
0
  6
Continuous
 62
     7
100
AcDbLine
 10
-359.5000000378369
 20
326.3221187646569
 30
0.0
 11
-359.5000000378369
 21
326.14433510068
 31
0.0
  0
LINE
  5
118
330
46
100
AcDbEntity
  8
0
  6
Continuous
 62
     7
100
AcDbLine
 10
-359.5000000378369
 20
326.4441861356035
 30
0.0
 11
-359.5000000378369
 21
326.3221187646569
 31
0.0
  0
LINE
  5
119
330
46
100
AcDbEntity
  8
0
  6
Continuous
 62
     7
100
AcDbLine
 10
-359.5000000378369
 20
326.5000077391455
 30
0.0
 11
-359.5000000378369
 21
326.4441861356035
 31
0.0
  0
LINE
  5
11A
330
46
100
AcDbEntity
  8
0
  6
Continuous
 62
     7
100
AcDbLine
 10
-359.5000000378369
 20
325.3613100953527
 30
0.0
 11
-359.5000000378369
 21
325.0113100953545
 31
0.0
  0
LINE
  5
11B
330
46
100
AcDbEntity
  8
0
  6
Continuous
 62
     7
100
AcDbLine
 10
-359.5000000378369
 20
325.655680377619
 30
0.0
 11
-359.5000000378369
 21
325.4778967136376
 31
0.0
  0
LINE
  5
11C
330
46
100
AcDbEntity
  8
0
  6
Continuous
 62
     7
100
AcDbLine
 10
-359.5000000378369
 20
324.7662355051648
 30
0.0
 11
-359.5000000378369
 21
324.6832127685835
 31
0.0
  0
LINE
  5
11D
330
46
100
AcDbEntity
  8
0
  6
Continuous
 62
     7
100
AcDbLine
 10
-359.5000000378369
 20
324.8337799731331
 30
0.0
 11
-359.5000000378369
 21
324.7662355051648
 31
0.0
  0
LINE
  5
11E
330
46
100
AcDbEntity
  8
0
  6
Continuous
 62
     7
100
AcDbLine
 10
-359.5000000378369
 20
324.935834903348
 30
0.0
 11
-359.5000000378369
 21
324.8337799731331
 31
0.0
  0
LINE
  5
11F
330
46
100
AcDbEntity
  8
0
  6
Continuous
 62
     7
100
AcDbLine
 10
-359.5000000378369
 20
325.4778967136376
 30
0.0
 11
-359.5000000378369
 21
325.3613100953527
 31
0.0
  0
LINE
  5
120
330
46
100
AcDbEntity
  8
0
  6
Continuous
 62
     7
100
AcDbLine
 10
-359.5000000378369
 20
325.0113100953545
 30
0.0
 11
-359.5000000378369
 21
324.935834903348
 31
0.0
  0
LINE
  5
121
330
46
100
AcDbEntity
  8
0
  6
Continuous
 62
     7
100
AcDbLine
 10
-359.5000000378369
 20
324.5168027097164
 30
0.0
 11
-359.5000000378369
 21
324.4093742709856
 31
0.0
  0
LINE
  5
122
330
46
100
AcDbEntity
  8
0
  6
Continuous
 62
     7
100
AcDbLine
 10
-359.5000000378369
 20
324.6832127685835
 30
0.0
 11
-359.5000000378369
 21
324.5168027097164
 31
0.0
  0
LINE
  5
123
330
46
100
AcDbEntity
  8
0
  6
Continuous
 62
     7
100
AcDbLine
 10
-359.5000000378369
 20
324.3000077391456
 30
0.0
 11
-359.5000000378369
 21
324.1307494987887
 31
0.0
  0
LINE
  5
124
330
46
100
AcDbEntity
  8
0
  6
Continuous
 62
     7
100
AcDbLine
 10
-359.5000000378369
 20
324.4093742709856
 30
0.0
 11
-359.5000000378369
 21
324.3531706464775
 31
0.0
  0
LINE
  5
125
330
46
100
AcDbEntity
  8
0
  6
Continuous
 62
     7
100
AcDbLine
 10
-359.5000000378369
 20
324.0439217401049
 30
0.0
 11
-359.5000000378369
 21
323.3933663901557
 31
0.0
  0
LINE
  5
126
330
46
100
AcDbEntity
  8
0
  6
Continuous
 62
     7
100
AcDbLine
 10
-359.5000000378369
 20
323.3933663901557
 30
0.0
 11
-359.5000000378369
 21
322.8683663901475
 31
0.0
  0
LINE
  5
127
330
46
100
AcDbEntity
  8
0
  6
Continuous
 62
     7
100
AcDbLine
 10
-359.5000000378369
 20
322.8683663901475
 30
0.0
 11
-359.5000000378369
 21
320.2933663901564
 31
0.0
  0
LINE
  5
128
330
46
100
AcDbEntity
  8
0
  6
Continuous
 62
     7
100
AcDbLine
 10
-359.5000000378369
 20
320.2933663901564
 30
0.0
 11
-359.5000000378369
 21
320.1701613094003
 31
0.0
  0
LINE
  5
129
330
46
100
AcDbEntity
  8
0
  6
Continuous
 62
     7
100
AcDbLine
 10
-359.5000000378369
 20
336.5000077391455
 30
0.0
 11
-359.3000000378369
 21
336.5000077391455
 31
0.0
  0
LINE
  5
12A
330
46
100
AcDbEntity
  8
0
  6
Continuous
 62
     7
100
AcDbLine
 10
-359.3000000378369
 20
334.794135528222
 30
0.0
 11
-359.3000000378369
 21
336.5000077391455
 31
0.0
  0
LINE
  5
12B
330
46
100
AcDbEntity
  8
0
  6
Continuous
 62
     7
100
AcDbLine
 10
-359.5000000378369
 20
340.0000077391455
 30
0.0
 11
-359.3000000378369
 21
340.0000077391455
 31
0.0
  0
LINE
  5
12C
330
46
100
AcDbEntity
  8
0
  6
Continuous
 62
     7
100
AcDbLine
 10
-361.5000000378369
 20
284.5000077391456
 30
0.0
 11
-360.6961524605435
 21
281.5000077391456
 31
0.0
  0
LINE
  5
12D
330
46
100
AcDbEntity
  8
0
  6
Continuous
 62
     7
100
AcDbLine
 10
-359.500000037837
 20
281.5000077391456
 30
0.0
 11
-360.6961524605435
 21
281.5000077391456
 31
0.0
  0
ARC
  5
12E
330
46
100
AcDbEntity
  8
0
  6
Continuous
 62
     7
100
AcDbCircle
 10
-364.0000000378368
 20
336.5000077391455
 30
0.0
 40
4.999999999999977
100
AcDbArc
 50
-19.94844358880615
 51
0.0
  0
ARC
  5
12F
330
46
100
AcDbEntity
  8
0
  6
Continuous
 62
     7
100
AcDbCircle
 10
-364.0000000378368
 20
336.5000077391455
 30
0.0
 40
5.0
100
AcDbArc
 50
0.0
 51
19.9484435888086
  0
ENDBLK
  5
48
330
46
100
AcDbEntity
  8
0
100
AcDbBlockEnd
  0
BLOCK
  5
4A
330
49
100
AcDbEntity
  8
0
100
AcDbBlockBegin
  2
10996_Bauschutz
 70
     0
 71
     0
 10
-319.8000000378368
 20
285.0000077391456
 30
0.0
  3
10996_Bauschutz
  1

  0
LINE
  5
130
330
49
100
AcDbEntity
  8
0
  6
Continuous
 62
     7
100
AcDbLine
 10
-309.1715390687542
 20
290.0000077391456
 30
0.0
 11
-309.1715390687542
 21
335.727944354739
 31
0.0
  0
LINE
  5
131
330
49
100
AcDbEntity
  8
0
  6
Continuous
 62
     7
100
AcDbLine
 10
-310.3284610069194
 20
335.727944354739
 30
0.0
 11
-310.3284610069194
 21
290.0000077391456
 31
0.0
  0
LINE
  5
132
330
49
100
AcDbEntity
  8
0
  6
Continuous
 62
     7
100
AcDbLine
 10
-298.3284610069194
 20
335.727944354739
 30
0.0
 11
-298.3284610069194
 21
290.0000077391456
 31
0.0
  0
LINE
  5
133
330
49
100
AcDbEntity
  8
0
  6
Continuous
 62
     7
100
AcDbLine
 10
-300.1715390687542
 20
290.0000077391456
 30
0.0
 11
-300.1715390687542
 21
335.727944354739
 31
0.0
  0
LINE
  5
134
330
49
100
AcDbEntity
  8
0
  6
Continuous
 62
     7
100
AcDbLine
 10
-301.3284610069194
 20
335.727944354739
 30
0.0
 11
-301.3284610069194
 21
290.0000077391456
 31
0.0
  0
LINE
  5
135
330
49
100
AcDbEntity
  8
0
  6
Continuous
 62
     7
100
AcDbLine
 10
-306.1715390687542
 20
290.0000077391456
 30
0.0
 11
-306.1715390687542
 21
335.727944354739
 31
0.0
  0
LINE
  5
136
330
49
100
AcDbEntity
  8
0
  6
Continuous
 62
     7
100
AcDbLine
 10
-307.3284610069194
 20
335.727944354739
 30
0.0
 11
-307.3284610069194
 21
290.0000077391456
 31
0.0
  0
LINE
  5
137
330
49
100
AcDbEntity
  8
0
  6
Continuous
 62
     7
100
AcDbLine
 10
-312.1715390687542
 20
290.0000077391456
 30
0.0
 11
-312.1715390687542
 21
335.727944354739
 31
0.0
  0
LINE
  5
138
330
49
100
AcDbEntity
  8
0
  6
Continuous
 62
     7
100
AcDbLine
 10
-313.3284610069194
 20
335.727944354739
 30
0.0
 11
-313.3284610069194
 21
290.0000077391456
 31
0.0
  0
LINE
  5
139
330
49
100
AcDbEntity
  8
0
  6
Continuous
 62
     7
100
AcDbLine
 10
-315.1715390687542
 20
290.0000077391456
 30
0.0
 11
-315.1715390687542
 21
335.727944354739
 31
0.0
  0
LINE
  5
13A
330
49
100
AcDbEntity
  8
0
  6
Continuous
 62
     7
100
AcDbLine
 10
-316.3284610069195
 20
335.727944354739
 30
0.0
 11
-316.3284610069194
 21
290.0000077391456
 31
0.0
  0
LINE
  5
13B
330
49
100
AcDbEntity
  8
0
  6
Continuous
 62
     7
100
AcDbLine
 10
-319.5000000378368
 20
324.0000077391459
 30
0.0
 11
-319.5000000378368
 21
314.0000077391459
 31
0.0
  0
LINE
  5
13C
330
49
100
AcDbEntity
  8
0
  6
Continuous
 62
     7
100
AcDbLine
 10
-319.8000000378368
 20
314.0000077391459
 30
0.0
 11
-319.8000000378368
 21
324.0000077391459
 31
0.0
  0
LINE
  5
13D
330
49
100
AcDbEntity
  8
0
  6
Continuous
 62
     7
100
AcDbLine
 10
-319.8000000378368
 20
324.0000077391459
 30
0.0
 11
-319.8000000378368
 21
332.0000002177305
 31
0.0
  0
LINE
  5
13E
330
49
100
AcDbEntity
  8
0
  6
Continuous
 62
     7
100
AcDbLine
 10
-318.1715390687535
 20
335.727944354739
 30
0.0
 11
-317.9571797148093
 21
335.7558809703323
 31
0.0
  0
LINE
  5
13F
330
49
100
AcDbEntity
  8
0
  6
Continuous
 62
     7
100
AcDbLine
 10
-319.5000000378368
 20
335.7279443547391
 30
0.0
 11
-318.1715390687535
 21
335.727944354739
 31
0.0
  0
LINE
  5
140
330
49
100
AcDbEntity
  8
0
  6
Continuous
 62
     7
100
AcDbLine
 10
-317.9571797148093
 20
335.7558809703323
 30
0.0
 11
-319.5000000378368
 21
335.7558809703323
 31
0.0
  0
LINE
  5
141
330
49
100
AcDbEntity
  8
0
  6
Continuous
 62
     7
100
AcDbLine
 10
-319.5000000378368
 20
332.0000002177305
 30
0.0
 11
-319.8000000378368
 21
332.0000002177305
 31
0.0
  0
LINE
  5
142
330
49
100
AcDbEntity
  8
0
  6
Continuous
 62
     7
100
AcDbLine
 10
-319.5000000378368
 20
324.0000077391459
 30
0.0
 11
-319.8000000378368
 21
324.0000077391459
 31
0.0
  0
LINE
  5
143
330
49
100
AcDbEntity
  8
0
  6
Continuous
 62
     7
100
AcDbLine
 10
-319.5000000378368
 20
332.0000002177305
 30
0.0
 11
-319.5000000378368
 21
324.0000077391459
 31
0.0
  0
LINE
  5
144
330
49
100
AcDbEntity
  8
0
  6
Continuous
 62
     7
100
AcDbLine
 10
-319.5000000378368
 20
335.7279443547391
 30
0.0
 11
-319.5000000378368
 21
335.7558809703323
 31
0.0
  0
LINE
  5
145
330
49
100
AcDbEntity
  8
0
  6
Continuous
 62
     7
100
AcDbLine
 10
-319.5000000378368
 20
335.7279443547391
 30
0.0
 11
-319.5000000378368
 21
332.0000002177305
 31
0.0
  0
LINE
  5
146
330
49
100
AcDbEntity
  8
0
  6
Continuous
 62
     7
100
AcDbLine
 10
-319.5000000378368
 20
314.0000077391459
 30
0.0
 11
-319.5000000378368
 21
309.0000077391456
 31
0.0
  0
LINE
  5
147
330
49
100
AcDbEntity
  8
0
  6
Continuous
 62
     7
100
AcDbLine
 10
-319.5000000378368
 20
309.0000077391456
 30
0.0
 11
-319.8000000378368
 21
309.0000077391456
 31
0.0
  0
LINE
  5
148
330
49
100
AcDbEntity
  8
0
  6
Continuous
 62
     7
100
AcDbLine
 10
-319.5000000378368
 20
314.0000077391459
 30
0.0
 11
-319.8000000378368
 21
314.0000077391459
 31
0.0
  0
LINE
  5
149
330
49
100
AcDbEntity
  8
0
  6
Continuous
 62
     7
100
AcDbLine
 10
-318.1715390687535
 20
335.727944354739
 30
0.0
 11
-318.1715390687542
 21
290.0000077391456
 31
0.0
  0
LINE
  5
14A
330
49
100
AcDbEntity
  8
0
  6
Continuous
 62
     7
100
AcDbLine
 10
-319.8000000378368
 20
309.0000077391456
 30
0.0
 11
-319.8000000378368
 21
304.0000077391456
 31
0.0
  0
LINE
  5
14B
330
49
100
AcDbEntity
  8
0
  6
Continuous
 62
     7
100
AcDbLine
 10
-319.5000000378368
 20
304.0000077391456
 30
0.0
 11
-319.5000000378368
 21
290.0000077391456
 31
0.0
  0
LINE
  5
14C
330
49
100
AcDbEntity
  8
0
  6
Continuous
 62
     7
100
AcDbLine
 10
-319.5000000378368
 20
304.0000077391456
 30
0.0
 11
-319.8000000378368
 21
304.0000077391456
 31
0.0
  0
LINE
  5
14D
330
49
100
AcDbEntity
  8
0
  6
Continuous
 62
     7
100
AcDbLine
 10
-319.5000000378368
 20
309.0000077391456
 30
0.0
 11
-319.5000000378368
 21
304.0000077391456
 31
0.0
  0
LINE
  5
14E
330
49
100
AcDbEntity
  8
0
  6
Continuous
 62
     7
100
AcDbLine
 10
-319.8000000378368
 20
336.0203039452898
 30
0.0
 11
-319.8000000378368
 21
332.0000002177305
 31
0.0
  0
LINE
  5
14F
330
49
100
AcDbEntity
  8
0
  6
Continuous
 62
     7
100
AcDbLine
 10
-313.5428203608644
 20
335.7558809703323
 30
0.0
 11
-313.3284610069194
 21
335.727944354739
 31
0.0
  0
LINE
  5
150
330
49
100
AcDbEntity
  8
0
  6
Continuous
 62
     7
100
AcDbLine
 10
-309.1715390687542
 20
335.727944354739
 30
0.0
 11
-308.9571797148093
 21
335.7558809703323
 31
0.0
  0
LINE
  5
151
330
49
100
AcDbEntity
  8
0
  6
Continuous
 62
     7
100
AcDbLine
 10
-312.1715390687542
 20
335.727944354739
 30
0.0
 11
-311.9571797148093
 21
335.7558809703323
 31
0.0
  0
LINE
  5
152
330
49
100
AcDbEntity
  8
0
  6
Continuous
 62
     7
100
AcDbLine
 10
-310.5428203608644
 20
335.7558809703323
 30
0.0
 11
-310.3284610069194
 21
335.727944354739
 31
0.0
  0
LINE
  5
153
330
49
100
AcDbEntity
  8
0
  6
Continuous
 62
     7
100
AcDbLine
 10
-307.5428203608644
 20
335.7558809703323
 30
0.0
 11
-307.3284610069194
 21
335.727944354739
 31
0.0
  0
LINE
  5
154
330
49
100
AcDbEntity
  8
0
  6
Continuous
 62
     7
100
AcDbLine
 10
-311.9571797148093
 20
335.7558809703323
 30
0.0
 11
-313.5428203608644
 21
335.7558809703323
 31
0.0
  0
LINE
  5
155
330
49
100
AcDbEntity
  8
0
  6
Continuous
 62
     7
100
AcDbLine
 10
-309.1715390687542
 20
335.727944354739
 30
0.0
 11
-310.3284610069194
 21
335.727944354739
 31
0.0
  0
LINE
  5
156
330
49
100
AcDbEntity
  8
0
  6
Continuous
 62
     7
100
AcDbLine
 10
-308.9571797148093
 20
335.7558809703323
 30
0.0
 11
-310.5428203608644
 21
335.7558809703323
 31
0.0
  0
LINE
  5
157
330
49
100
AcDbEntity
  8
0
  6
Continuous
 62
     7
100
AcDbLine
 10
-301.5428203608644
 20
335.7558809703323
 30
0.0
 11
-301.3284610069194
 21
335.727944354739
 31
0.0
  0
LINE
  5
158
330
49
100
AcDbEntity
  8
0
  6
Continuous
 62
     7
100
AcDbLine
 10
-304.5428203608644
 20
335.7558809703323
 30
0.0
 11
-304.3284610069194
 21
335.727944354739
 31
0.0
  0
LINE
  5
159
330
49
100
AcDbEntity
  8
0
  6
Continuous
 62
     7
100
AcDbLine
 10
-306.1715390687542
 20
335.727944354739
 30
0.0
 11
-305.9571797148093
 21
335.7558809703323
 31
0.0
  0
LINE
  5
15A
330
49
100
AcDbEntity
  8
0
  6
Continuous
 62
     7
100
AcDbLine
 10
-304.3284610069194
 20
335.727944354739
 30
0.0
 11
-304.3284610069194
 21
290.0000077391456
 31
0.0
  0
LINE
  5
15B
330
49
100
AcDbEntity
  8
0
  6
Continuous
 62
     7
100
AcDbLine
 10
-303.1715390687542
 20
335.727944354739
 30
0.0
 11
-302.9571797148092
 21
335.7558809703323
 31
0.0
  0
LINE
  5
15C
330
49
100
AcDbEntity
  8
0
  6
Continuous
 62
     7
100
AcDbLine
 10
-303.1715390687542
 20
290.0000077391456
 30
0.0
 11
-303.1715390687542
 21
335.727944354739
 31
0.0
  0
LINE
  5
15D
330
49
100
AcDbEntity
  8
0
  6
Continuous
 62
     7
100
AcDbLine
 10
-303.1715390687542
 20
335.727944354739
 30
0.0
 11
-304.3284610069194
 21
335.727944354739
 31
0.0
  0
LINE
  5
15E
330
49
100
AcDbEntity
  8
0
  6
Continuous
 62
     7
100
AcDbLine
 10
-304.5428203608644
 20
335.7558809703323
 30
0.0
 11
-302.9571797148092
 21
335.7558809703323
 31
0.0
  0
LINE
  5
15F
330
49
100
AcDbEntity
  8
0
  6
Continuous
 62
     7
100
AcDbLine
 10
-305.9571797148093
 20
335.7558809703323
 30
0.0
 11
-307.5428203608644
 21
335.7558809703323
 31
0.0
  0
LINE
  5
160
330
49
100
AcDbEntity
  8
0
  6
Continuous
 62
     7
100
AcDbLine
 10
-294.1715390687542
 20
290.0000077391456
 30
0.0
 11
-294.1715390687542
 21
335.727944354739
 31
0.0
  0
LINE
  5
161
330
49
100
AcDbEntity
  8
0
  6
Continuous
 62
     7
100
AcDbLine
 10
-297.1715390687542
 20
290.0000077391456
 30
0.0
 11
-297.1715390687542
 21
335.727944354739
 31
0.0
  0
LINE
  5
162
330
49
100
AcDbEntity
  8
0
  6
Continuous
 62
     7
100
AcDbLine
 10
-295.3284610069194
 20
335.727944354739
 30
0.0
 11
-295.3284610069194
 21
290.0000077391456
 31
0.0
  0
LINE
  5
163
330
49
100
AcDbEntity
  8
0
  6
Continuous
 62
     7
100
AcDbLine
 10
-294.1715390687542
 20
335.727944354739
 30
0.0
 11
-295.3284610069194
 21
335.727944354739
 31
0.0
  0
LINE
  5
164
330
49
100
AcDbEntity
  8
0
  6
Continuous
 62
     7
100
AcDbLine
 10
-295.5428203608644
 20
335.7558809703323
 30
0.0
 11
-293.9571797148092
 21
335.7558809703323
 31
0.0
  0
LINE
  5
165
330
49
100
AcDbEntity
  8
0
  6
Continuous
 62
     7
100
AcDbLine
 10
-292.5428203608644
 20
335.7558809703323
 30
0.0
 11
-290.9571797148092
 21
335.7558809703323
 31
0.0
  0
LINE
  5
166
330
49
100
AcDbEntity
  8
0
  6
Continuous
 62
     7
100
AcDbLine
 10
-294.1715390687542
 20
335.727944354739
 30
0.0
 11
-293.9571797148092
 21
335.7558809703323
 31
0.0
  0
LINE
  5
167
330
49
100
AcDbEntity
  8
0
  6
Continuous
 62
     7
100
AcDbLine
 10
-292.5428203608644
 20
335.7558809703323
 30
0.0
 11
-292.3284610069194
 21
335.727944354739
 31
0.0
  0
LINE
  5
168
330
49
100
AcDbEntity
  8
0
  6
Continuous
 62
     7
100
AcDbLine
 10
-291.1715390687542
 20
335.727944354739
 30
0.0
 11
-290.9571797148092
 21
335.7558809703323
 31
0.0
  0
LINE
  5
169
330
49
100
AcDbEntity
  8
0
  6
Continuous
 62
     7
100
AcDbLine
 10
-288.1715390687542
 20
290.0000077391456
 30
0.0
 11
-288.1715390687542
 21
335.727944354739
 31
0.0
  0
LINE
  5
16A
330
49
100
AcDbEntity
  8
0
  6
Continuous
 62
     7
100
AcDbLine
 10
-289.3284610069194
 20
335.727944354739
 30
0.0
 11
-289.3284610069194
 21
290.0000077391456
 31
0.0
  0
LINE
  5
16B
330
49
100
AcDbEntity
  8
0
  6
Continuous
 62
     7
100
AcDbLine
 10
-289.5428203608644
 20
335.7558809703323
 30
0.0
 11
-289.3284610069194
 21
335.727944354739
 31
0.0
  0
LINE
  5
16C
330
49
100
AcDbEntity
  8
0
  6
Continuous
 62
     7
100
AcDbLine
 10
-292.3284610069194
 20
335.727944354739
 30
0.0
 11
-292.3284610069194
 21
290.0000077391456
 31
0.0
  0
LINE
  5
16D
330
49
100
AcDbEntity
  8
0
  6
Continuous
 62
     7
100
AcDbLine
 10
-291.1715390687542
 20
290.0000077391456
 30
0.0
 11
-291.1715390687542
 21
335.727944354739
 31
0.0
  0
LINE
  5
16E
330
49
100
AcDbEntity
  8
0
  6
Continuous
 62
     7
100
AcDbLine
 10
-291.1715390687542
 20
335.727944354739
 30
0.0
 11
-292.3284610069194
 21
335.727944354739
 31
0.0
  0
LINE
  5
16F
330
49
100
AcDbEntity
  8
0
  6
Continuous
 62
     7
100
AcDbLine
 10
-289.5428203608644
 20
335.7558809703323
 30
0.0
 11
-287.9571797148092
 21
335.7558809703323
 31
0.0
  0
LINE
  5
170
330
49
100
AcDbEntity
  8
0
  6
Continuous
 62
     7
100
AcDbLine
 10
-288.1715390687542
 20
335.727944354739
 30
0.0
 11
-289.3284610069194
 21
335.727944354739
 31
0.0
  0
LINE
  5
171
330
49
100
AcDbEntity
  8
0
  6
Continuous
 62
     7
100
AcDbLine
 10
-288.1715390687542
 20
335.727944354739
 30
0.0
 11
-287.9571797148092
 21
335.7558809703323
 31
0.0
  0
LINE
  5
172
330
49
100
AcDbEntity
  8
0
  6
Continuous
 62
     7
100
AcDbLine
 10
-286.3284610069194
 20
335.727944354739
 30
0.0
 11
-286.3284610069194
 21
290.0000077391456
 31
0.0
  0
LINE
  5
173
330
49
100
AcDbEntity
  8
0
  6
Continuous
 62
     7
100
AcDbLine
 10
-286.5428203608644
 20
335.7558809703323
 30
0.0
 11
-286.3284610069194
 21
335.727944354739
 31
0.0
  0
LINE
  5
174
330
49
100
AcDbEntity
  8
0
  6
Continuous
 62
     7
100
AcDbLine
 10
-301.5428203608644
 20
335.7558809703323
 30
0.0
 11
-299.9571797148093
 21
335.7558809703323
 31
0.0
  0
LINE
  5
175
330
49
100
AcDbEntity
  8
0
  6
Continuous
 62
     7
100
AcDbLine
 10
-298.5428203608644
 20
335.7558809703323
 30
0.0
 11
-296.9571797148092
 21
335.7558809703323
 31
0.0
  0
LINE
  5
176
330
49
100
AcDbEntity
  8
0
  6
Continuous
 62
     7
100
AcDbLine
 10
-300.1715390687542
 20
335.727944354739
 30
0.0
 11
-299.9571797148093
 21
335.7558809703323
 31
0.0
  0
LINE
  5
177
330
49
100
AcDbEntity
  8
0
  6
Continuous
 62
     7
100
AcDbLine
 10
-298.5428203608644
 20
335.7558809703323
 30
0.0
 11
-298.3284610069194
 21
335.727944354739
 31
0.0
  0
LINE
  5
178
330
49
100
AcDbEntity
  8
0
  6
Continuous
 62
     7
100
AcDbLine
 10
-295.5428203608644
 20
335.7558809703323
 30
0.0
 11
-295.3284610069194
 21
335.727944354739
 31
0.0
  0
LINE
  5
179
330
49
100
AcDbEntity
  8
0
  6
Continuous
 62
     7
100
AcDbLine
 10
-297.1715390687542
 20
335.727944354739
 30
0.0
 11
-296.9571797148092
 21
335.7558809703323
 31
0.0
  0
LINE
  5
17A
330
49
100
AcDbEntity
  8
0
  6
Continuous
 62
     7
100
AcDbLine
 10
-297.1715390687542
 20
335.727944354739
 30
0.0
 11
-298.3284610069194
 21
335.727944354739
 31
0.0
  0
LINE
  5
17B
330
49
100
AcDbEntity
  8
0
  6
Continuous
 62
     7
100
AcDbLine
 10
-285.1715390687542
 20
290.0000077391456
 30
0.0
 11
-285.1715390687542
 21
335.727944354739
 31
0.0
  0
LINE
  5
17C
330
49
100
AcDbEntity
  8
0
  6
Continuous
 62
     7
100
AcDbLine
 10
-280.3284610069194
 20
335.727944354739
 30
0.0
 11
-280.3284610069194
 21
290.0000077391456
 31
0.0
  0
LINE
  5
17D
330
49
100
AcDbEntity
  8
0
  6
Continuous
 62
     7
100
AcDbLine
 10
-280.5428203608644
 20
335.7558809703323
 30
0.0
 11
-280.3284610069194
 21
335.727944354739
 31
0.0
  0
LINE
  5
17E
330
49
100
AcDbEntity
  8
0
  6
Continuous
 62
     7
100
AcDbLine
 10
-283.3284610069194
 20
335.727944354739
 30
0.0
 11
-283.3284610069194
 21
290.0000077391456
 31
0.0
  0
LINE
  5
17F
330
49
100
AcDbEntity
  8
0
  6
Continuous
 62
     7
100
AcDbLine
 10
-279.1715390687542
 20
335.727944354739
 30
0.0
 11
-280.3284610069194
 21
335.727944354739
 31
0.0
  0
LINE
  5
180
330
49
100
AcDbEntity
  8
0
  6
Continuous
 62
     7
100
AcDbLine
 10
-283.5428203608644
 20
335.7558809703323
 30
0.0
 11
-281.9571797148092
 21
335.7558809703323
 31
0.0
  0
LINE
  5
181
330
49
100
AcDbEntity
  8
0
  6
Continuous
 62
     7
100
AcDbLine
 10
-282.1715390687542
 20
335.727944354739
 30
0.0
 11
-283.3284610069194
 21
335.727944354739
 31
0.0
  0
LINE
  5
182
330
49
100
AcDbEntity
  8
0
  6
Continuous
 62
     7
100
AcDbLine
 10
-283.5428203608644
 20
335.7558809703323
 30
0.0
 11
-283.3284610069194
 21
335.727944354739
 31
0.0
  0
LINE
  5
183
330
49
100
AcDbEntity
  8
0
  6
Continuous
 62
     7
100
AcDbLine
 10
-279.1715390687542
 20
290.0000077391456
 30
0.0
 11
-279.1715390687542
 21
335.727944354739
 31
0.0
  0
LINE
  5
184
330
49
100
AcDbEntity
  8
0
  6
Continuous
 62
     7
100
AcDbLine
 10
-282.1715390687542
 20
335.727944354739
 30
0.0
 11
-281.9571797148092
 21
335.7558809703323
 31
0.0
  0
LINE
  5
185
330
49
100
AcDbEntity
  8
0
  6
Continuous
 62
     7
100
AcDbLine
 10
-282.1715390687542
 20
290.0000077391456
 30
0.0
 11
-282.1715390687542
 21
335.727944354739
 31
0.0
  0
LINE
  5
186
330
49
100
AcDbEntity
  8
0
  6
Continuous
 62
     7
100
AcDbLine
 10
-286.5428203608644
 20
335.7558809703323
 30
0.0
 11
-284.9571797148092
 21
335.7558809703323
 31
0.0
  0
LINE
  5
187
330
49
100
AcDbEntity
  8
0
  6
Continuous
 62
     7
100
AcDbLine
 10
-285.1715390687542
 20
335.727944354739
 30
0.0
 11
-284.9571797148092
 21
335.7558809703323
 31
0.0
  0
LINE
  5
188
330
49
100
AcDbEntity
  8
0
  6
Continuous
 62
     3
100
AcDbLine
 10
-269.0000000378368
 20
290.5000077391456
 30
0.0
 11
-270.0000000378368
 21
290.5000077391456
 31
0.0
  0
LINE
  5
189
330
49
100
AcDbEntity
  8
0
  6
Continuous
 62
     7
100
AcDbLine
 10
-304.6500000378368
 20
383.0000077391455
 30
0.0
 11
-304.6500000378368
 21
290.0000077391456
 31
0.0
  0
LINE
  5
18A
330
49
100
AcDbEntity
  8
0
  6
Continuous
 62
     7
100
AcDbLine
 10
-298.6500000378368
 20
383.0000077391455
 30
0.0
 11
-298.6500000378368
 21
290.0000077391456
 31
0.0
  0
LINE
  5
18B
330
49
100
AcDbEntity
  8
0
  6
Continuous
 62
     7
100
AcDbLine
 10
-301.3284610069194
 20
383.0000077391455
 30
0.0
 11
-301.3284610069194
 21
337.2720711235522
 31
0.0
  0
LINE
  5
18C
330
49
100
AcDbEntity
  8
0
  6
Continuous
 62
     7
100
AcDbLine
 10
-300.1715390687542
 20
337.2720711235522
 30
0.0
 11
-300.1715390687542
 21
383.0000077391455
 31
0.0
  0
LINE
  5
18D
330
49
100
AcDbEntity
  8
0
  6
Continuous
 62
     7
100
AcDbLine
 10
-306.1715390687542
 20
337.2720711235522
 30
0.0
 11
-306.1715390687542
 21
383.0000077391455
 31
0.0
  0
LINE
  5
18E
330
49
100
AcDbEntity
  8
0
  6
Continuous
 62
     7
100
AcDbLine
 10
-313.3284610069194
 20
383.0000077391455
 30
0.0
 11
-313.3284610069194
 21
337.2720711235522
 31
0.0
  0
LINE
  5
18F
330
49
100
AcDbEntity
  8
0
  6
Continuous
 62
     7
100
AcDbLine
 10
-312.1715390687542
 20
337.2720711235522
 30
0.0
 11
-312.1715390687542
 21
383.0000077391455
 31
0.0
  0
LINE
  5
190
330
49
100
AcDbEntity
  8
0
  6
Continuous
 62
     7
100
AcDbLine
 10
-315.1715390687542
 20
337.2720711235522
 30
0.0
 11
-315.1715390687542
 21
383.0000077391455
 31
0.0
  0
LINE
  5
191
330
49
100
AcDbEntity
  8
0
  6
Continuous
 62
     7
100
AcDbLine
 10
-316.3284610069194
 20
383.0000077391455
 30
0.0
 11
-316.3284610069195
 21
337.2720711235522
 31
0.0
  0
LINE
  5
192
330
49
100
AcDbEntity
  8
0
  6
Continuous
 62
     7
100
AcDbLine
 10
-297.1715390687542
 20
337.2720711235522
 30
0.0
 11
-297.1715390687542
 21
383.0000077391455
 31
0.0
  0
LINE
  5
193
330
49
100
AcDbEntity
  8
0
  6
Continuous
 62
     7
100
AcDbLine
 10
-303.1715390687542
 20
337.2720711235522
 30
0.0
 11
-303.1715390687542
 21
383.0000077391455
 31
0.0
  0
LINE
  5
194
330
49
100
AcDbEntity
  8
0
  6
Continuous
 62
     7
100
AcDbLine
 10
-309.1715390687542
 20
337.2720711235522
 30
0.0
 11
-309.1715390687542
 21
383.0000077391455
 31
0.0
  0
LINE
  5
195
330
49
100
AcDbEntity
  8
0
  6
Continuous
 62
     7
100
AcDbLine
 10
-318.1715390687542
 20
383.0000077391455
 30
0.0
 11
-318.1715390687535
 21
337.2720711235522
 31
0.0
  0
LINE
  5
196
330
49
100
AcDbEntity
  8
0
  6
Continuous
 62
     7
100
AcDbLine
 10
-319.5000000378368
 20
383.0000077391455
 30
0.0
 11
-319.5000000378368
 21
369.0000077391456
 31
0.0
  0
LINE
  5
197
330
49
100
AcDbEntity
  8
0
  6
Continuous
 62
     7
100
AcDbLine
 10
-310.3284610069194
 20
383.0000077391455
 30
0.0
 11
-310.3284610069194
 21
337.2720711235522
 31
0.0
  0
LINE
  5
198
330
49
100
AcDbEntity
  8
0
  6
Continuous
 62
     7
100
AcDbLine
 10
-304.3284610069194
 20
383.0000077391455
 30
0.0
 11
-304.3284610069194
 21
337.2720711235522
 31
0.0
  0
LINE
  5
199
330
49
100
AcDbEntity
  8
0
  6
Continuous
 62
     7
100
AcDbLine
 10
-307.3284610069194
 20
383.0000077391455
 30
0.0
 11
-307.3284610069194
 21
337.2720711235522
 31
0.0
  0
LINE
  5
19A
330
49
100
AcDbEntity
  8
0
  6
Continuous
 62
     7
100
AcDbLine
 10
-298.3284610069194
 20
383.0000077391455
 30
0.0
 11
-298.3284610069194
 21
337.2720711235522
 31
0.0
  0
LINE
  5
19B
330
49
100
AcDbEntity
  8
0
  6
Continuous
 62
     7
100
AcDbLine
 10
-295.3284610069194
 20
383.0000077391455
 30
0.0
 11
-295.3284610069194
 21
337.2720711235522
 31
0.0
  0
LINE
  5
19C
330
49
100
AcDbEntity
  8
0
  6
Continuous
 62
     7
100
AcDbLine
 10
-294.1715390687542
 20
337.2720711235522
 30
0.0
 11
-294.1715390687542
 21
383.0000077391455
 31
0.0
  0
LINE
  5
19D
330
49
100
AcDbEntity
  8
0
  6
Continuous
 62
     7
100
AcDbLine
 10
-292.3284610069194
 20
383.0000077391455
 30
0.0
 11
-292.3284610069194
 21
337.2720711235522
 31
0.0
  0
LINE
  5
19E
330
49
100
AcDbEntity
  8
0
  6
Continuous
 62
     7
100
AcDbLine
 10
-291.1715390687542
 20
337.2720711235522
 30
0.0
 11
-291.1715390687542
 21
383.0000077391455
 31
0.0
  0
LINE
  5
19F
330
49
100
AcDbEntity
  8
0
  6
Continuous
 62
     7
100
AcDbLine
 10
-289.3284610069194
 20
383.0000077391455
 30
0.0
 11
-289.3284610069194
 21
337.2720711235522
 31
0.0
  0
LINE
  5
1A0
330
49
100
AcDbEntity
  8
0
  6
Continuous
 62
     7
100
AcDbLine
 10
-288.1715390687542
 20
337.2720711235522
 30
0.0
 11
-288.1715390687542
 21
383.0000077391455
 31
0.0
  0
LINE
  5
1A1
330
49
100
AcDbEntity
  8
0
  6
Continuous
 62
     7
100
AcDbLine
 10
-283.3284610069194
 20
383.0000077391455
 30
0.0
 11
-283.3284610069194
 21
337.2720711235522
 31
0.0
  0
LINE
  5
1A2
330
49
100
AcDbEntity
  8
0
  6
Continuous
 62
     7
100
AcDbLine
 10
-286.3284610069194
 20
383.0000077391455
 30
0.0
 11
-286.3284610069194
 21
337.2720711235522
 31
0.0
  0
LINE
  5
1A3
330
49
100
AcDbEntity
  8
0
  6
Continuous
 62
     7
100
AcDbLine
 10
-285.1715390687542
 20
337.2720711235522
 30
0.0
 11
-285.1715390687542
 21
383.0000077391455
 31
0.0
  0
LINE
  5
1A4
330
49
100
AcDbEntity
  8
0
  6
Continuous
 62
     7
100
AcDbLine
 10
-282.1715390687542
 20
337.2720711235522
 30
0.0
 11
-282.1715390687542
 21
383.0000077391455
 31
0.0
  0
LINE
  5
1A5
330
49
100
AcDbEntity
  8
0
  6
Continuous
 62
     7
100
AcDbLine
 10
-280.3284610069194
 20
383.0000077391455
 30
0.0
 11
-280.3284610069194
 21
337.2720711235522
 31
0.0
  0
LINE
  5
1A6
330
49
100
AcDbEntity
  8
0
  6
Continuous
 62
     7
100
AcDbLine
 10
-279.1715390687542
 20
337.2720711235522
 30
0.0
 11
-279.1715390687542
 21
383.0000077391455
 31
0.0
  0
LINE
  5
1A7
330
49
100
AcDbEntity
  8
0
  6
Continuous
 62
     7
100
AcDbLine
 10
-277.3284610069194
 20
383.0000077391455
 30
0.0
 11
-277.3284610069194
 21
337.2720711235522
 31
0.0
  0
LINE
  5
1A8
330
49
100
AcDbEntity
  8
0
  6
Continuous
 62
     7
100
AcDbLine
 10
-276.1715390687542
 20
337.2720711235522
 30
0.0
 11
-276.1715390687542
 21
383.0000077391455
 31
0.0
  0
LINE
  5
1A9
330
49
100
AcDbEntity
  8
0
  6
Continuous
 62
     7
100
AcDbLine
 10
-275.9571797148092
 20
382.6000077391456
 30
0.0
 11
-275.9571797148092
 21
337.2441345079587
 31
0.0
  0
LINE
  5
1AA
330
49
100
AcDbEntity
  8
0
  6
Continuous
 62
     7
100
AcDbLine
 10
-276.1715390687542
 20
290.0000077391456
 30
0.0
 11
-276.1715390687542
 21
335.727944354739
 31
0.0
  0
LINE
  5
1AB
330
49
100
AcDbEntity
  8
0
  6
Continuous
 62
     7
100
AcDbLine
 10
-278.8500000378368
 20
383.0000077391455
 30
0.0
 11
-278.8500000378368
 21
290.0000077391456
 31
0.0
  0
LINE
  5
1AC
330
49
100
AcDbEntity
  8
0
  6
Continuous
 62
     7
100
AcDbLine
 10
-277.3284610069194
 20
335.727944354739
 30
0.0
 11
-277.3284610069194
 21
290.0000077391456
 31
0.0
  0
LINE
  5
1AD
330
49
100
AcDbEntity
  8
0
  6
Continuous
 62
     7
100
AcDbLine
 10
-277.6500000378368
 20
383.0000077391455
 30
0.0
 11
-277.6500000378368
 21
290.0000077391456
 31
0.0
  0
LINE
  5
1AE
330
49
100
AcDbEntity
  8
0
  6
Continuous
 62
     7
100
AcDbLine
 10
-275.9571797148092
 20
335.7558809703323
 30
0.0
 11
-275.9571797148092
 21
290.4000077391456
 31
0.0
  0
LINE
  5
1AF
330
49
100
AcDbEntity
  8
0
  6
Continuous
 62
     7
100
AcDbLine
 10
-293.8500000378368
 20
383.0000077391455
 30
0.0
 11
-293.8500000378368
 21
290.0000077391456
 31
0.0
  0
LINE
  5
1B0
330
49
100
AcDbEntity
  8
0
  6
Continuous
 62
     7
100
AcDbLine
 10
-292.6500000378368
 20
383.0000077391455
 30
0.0
 11
-292.6500000378368
 21
290.0000077391456
 31
0.0
  0
LINE
  5
1B1
330
49
100
AcDbEntity
  8
0
  6
Continuous
 62
     7
100
AcDbLine
 10
-290.8500000378368
 20
383.0000077391455
 30
0.0
 11
-290.8500000378368
 21
290.0000077391456
 31
0.0
  0
LINE
  5
1B2
330
49
100
AcDbEntity
  8
0
  6
Continuous
 62
     7
100
AcDbLine
 10
-283.6500000378368
 20
383.0000077391455
 30
0.0
 11
-283.6500000378368
 21
290.0000077391456
 31
0.0
  0
LINE
  5
1B3
330
49
100
AcDbEntity
  8
0
  6
Continuous
 62
     7
100
AcDbLine
 10
-284.8500000378368
 20
383.0000077391455
 30
0.0
 11
-284.8500000378368
 21
290.0000077391456
 31
0.0
  0
LINE
  5
1B4
330
49
100
AcDbEntity
  8
0
  6
Continuous
 62
     7
100
AcDbLine
 10
-286.6500000378368
 20
383.0000077391455
 30
0.0
 11
-286.6500000378368
 21
290.0000077391456
 31
0.0
  0
LINE
  5
1B5
330
49
100
AcDbEntity
  8
0
  6
Continuous
 62
     7
100
AcDbLine
 10
-287.8500000378368
 20
383.0000077391455
 30
0.0
 11
-287.8500000378368
 21
290.0000077391456
 31
0.0
  0
LINE
  5
1B6
330
49
100
AcDbEntity
  8
0
  6
Continuous
 62
     7
100
AcDbLine
 10
-289.6500000378368
 20
383.0000077391455
 30
0.0
 11
-289.6500000378368
 21
290.0000077391456
 31
0.0
  0
LINE
  5
1B7
330
49
100
AcDbEntity
  8
0
  6
Continuous
 62
     7
100
AcDbLine
 10
-317.8500000378368
 20
383.0000077391455
 30
0.0
 11
-317.8500000378368
 21
290.0000077391456
 31
0.0
  0
LINE
  5
1B8
330
49
100
AcDbEntity
  8
0
  6
Continuous
 62
     7
100
AcDbLine
 10
-316.6500000378368
 20
383.0000077391455
 30
0.0
 11
-316.6500000378368
 21
290.0000077391456
 31
0.0
  0
LINE
  5
1B9
330
49
100
AcDbEntity
  8
0
  6
Continuous
 62
     7
100
AcDbLine
 10
-314.8500000378368
 20
383.0000077391455
 30
0.0
 11
-314.8500000378368
 21
290.0000077391456
 31
0.0
  0
LINE
  5
1BA
330
49
100
AcDbEntity
  8
0
  6
Continuous
 62
     7
100
AcDbLine
 10
-313.6500000378368
 20
383.0000077391455
 30
0.0
 11
-313.6500000378368
 21
290.0000077391456
 31
0.0
  0
LINE
  5
1BB
330
49
100
AcDbEntity
  8
0
  6
Continuous
 62
     7
100
AcDbLine
 10
-308.8500000378368
 20
383.0000077391455
 30
0.0
 11
-308.8500000378368
 21
290.0000077391456
 31
0.0
  0
LINE
  5
1BC
330
49
100
AcDbEntity
  8
0
  6
Continuous
 62
     7
100
AcDbLine
 10
-305.8500000378368
 20
383.0000077391455
 30
0.0
 11
-305.8500000378368
 21
290.0000077391456
 31
0.0
  0
LINE
  5
1BD
330
49
100
AcDbEntity
  8
0
  6
Continuous
 62
     7
100
AcDbLine
 10
-302.8500000378368
 20
383.0000077391455
 30
0.0
 11
-302.8500000378368
 21
290.0000077391456
 31
0.0
  0
LINE
  5
1BE
330
49
100
AcDbEntity
  8
0
  6
Continuous
 62
     7
100
AcDbLine
 10
-301.6500000378368
 20
383.0000077391455
 30
0.0
 11
-301.6500000378368
 21
290.0000077391456
 31
0.0
  0
LINE
  5
1BF
330
49
100
AcDbEntity
  8
0
  6
Continuous
 62
     7
100
AcDbLine
 10
-295.6500000378368
 20
383.0000077391455
 30
0.0
 11
-295.6500000378368
 21
290.0000077391456
 31
0.0
  0
LINE
  5
1C0
330
49
100
AcDbEntity
  8
0
  6
Continuous
 62
     7
100
AcDbLine
 10
-299.8500000378368
 20
383.0000077391455
 30
0.0
 11
-299.8500000378368
 21
290.0000077391456
 31
0.0
  0
LINE
  5
1C1
330
49
100
AcDbEntity
  8
0
  6
Continuous
 62
     7
100
AcDbLine
 10
-296.8500000378368
 20
383.0000077391455
 30
0.0
 11
-296.8500000378368
 21
290.0000077391456
 31
0.0
  0
LINE
  5
1C2
330
49
100
AcDbEntity
  8
0
  6
Continuous
 62
     7
100
AcDbLine
 10
-307.6500000378368
 20
383.0000077391455
 30
0.0
 11
-307.6500000378368
 21
290.0000077391456
 31
0.0
  0
LINE
  5
1C3
330
49
100
AcDbEntity
  8
0
  6
Continuous
 62
     7
100
AcDbLine
 10
-311.8500000378368
 20
383.0000077391455
 30
0.0
 11
-311.8500000378368
 21
290.0000077391456
 31
0.0
  0
LINE
  5
1C4
330
49
100
AcDbEntity
  8
0
  6
Continuous
 62
     7
100
AcDbLine
 10
-310.6500000378368
 20
383.0000077391455
 30
0.0
 11
-310.6500000378368
 21
290.0000077391456
 31
0.0
  0
LINE
  5
1C5
330
49
100
AcDbEntity
  8
0
  6
Continuous
 62
     7
100
AcDbLine
 10
-281.8500000378368
 20
383.0000077391455
 30
0.0
 11
-281.8500000378368
 21
290.0000077391456
 31
0.0
  0
LINE
  5
1C6
330
49
100
AcDbEntity
  8
0
  6
Continuous
 62
     7
100
AcDbLine
 10
-280.6500000378368
 20
383.0000077391455
 30
0.0
 11
-280.6500000378368
 21
290.0000077391456
 31
0.0
  0
LINE
  5
1C7
330
49
100
AcDbEntity
  8
0
  6
Continuous
 62
     3
100
AcDbLine
 10
-270.5000000378368
 20
290.4000077391456
 30
0.0
 11
-270.5000000378368
 21
382.6000077391456
 31
0.0
  0
LINE
  5
1C8
330
49
100
AcDbEntity
  8
0
  6
Continuous
 62
     7
100
AcDbLine
 10
-251.5000000378368
 20
386.5000077391455
 30
0.0
 11
-251.5000000378368
 21
382.5000077391455
 31
0.0
  0
LINE
  5
1C9
330
49
100
AcDbEntity
  8
0
  6
Continuous
 62
     7
100
AcDbLine
 10
-251.5000000378368
 20
388.0000077391455
 30
0.0
 11
-251.5000000378368
 21
386.5000077391455
 31
0.0
  0
LINE
  5
1CA
330
49
100
AcDbEntity
  8
0
  6
Continuous
 62
     3
100
AcDbLine
 10
-299.8500000378368
 20
383.0000077391455
 30
0.0
 11
-298.6500000378368
 21
383.0000077391455
 31
0.0
  0
LINE
  5
1CB
330
49
100
AcDbEntity
  8
0
  6
Continuous
 62
     3
100
AcDbLine
 10
-314.8500000378368
 20
383.0000077391455
 30
0.0
 11
-313.6500000378368
 21
383.0000077391455
 31
0.0
  0
LINE
  5
1CC
330
49
100
AcDbEntity
  8
0
  6
Continuous
 62
     3
100
AcDbLine
 10
-315.1715390687542
 20
383.0000077391455
 30
0.0
 11
-316.3284610069194
 21
383.0000077391455
 31
0.0
  0
LINE
  5
1CD
330
49
100
AcDbEntity
  8
0
  6
Continuous
 62
     3
100
AcDbLine
 10
-313.6500000378368
 20
383.0000077391455
 30
0.0
 11
-313.3284610069194
 21
383.0000077391455
 31
0.0
  0
LINE
  5
1CE
330
49
100
AcDbEntity
  8
0
  6
Continuous
 62
     3
100
AcDbLine
 10
-315.1715390687542
 20
383.0000077391455
 30
0.0
 11
-314.8500000378368
 21
383.0000077391455
 31
0.0
  0
LINE
  5
1CF
330
49
100
AcDbEntity
  8
0
  6
Continuous
 62
     3
100
AcDbLine
 10
-292.6500000378368
 20
383.0000077391455
 30
0.0
 11
-292.3284610069194
 21
383.0000077391455
 31
0.0
  0
LINE
  5
1D0
330
49
100
AcDbEntity
  8
0
  6
Continuous
 62
     3
100
AcDbLine
 10
-290.8500000378368
 20
383.0000077391455
 30
0.0
 11
-289.6500000378368
 21
383.0000077391455
 31
0.0
  0
LINE
  5
1D1
330
49
100
AcDbEntity
  8
0
  6
Continuous
 62
     3
100
AcDbLine
 10
-291.1715390687542
 20
383.0000077391455
 30
0.0
 11
-292.3284610069194
 21
383.0000077391455
 31
0.0
  0
LINE
  5
1D2
330
49
100
AcDbEntity
  8
0
  6
Continuous
 62
     3
100
AcDbLine
 10
-288.1715390687542
 20
383.0000077391455
 30
0.0
 11
-289.3284610069194
 21
383.0000077391455
 31
0.0
  0
LINE
  5
1D3
330
49
100
AcDbEntity
  8
0
  6
Continuous
 62
     3
100
AcDbLine
 10
-289.6500000378368
 20
383.0000077391455
 30
0.0
 11
-289.3284610069194
 21
383.0000077391455
 31
0.0
  0
LINE
  5
1D4
330
49
100
AcDbEntity
  8
0
  6
Continuous
 62
     3
100
AcDbLine
 10
-291.1715390687542
 20
383.0000077391455
 30
0.0
 11
-290.8500000378368
 21
383.0000077391455
 31
0.0
  0
LINE
  5
1D5
330
49
100
AcDbEntity
  8
0
  6
Continuous
 62
     3
100
AcDbLine
 10
-288.1715390687542
 20
383.0000077391455
 30
0.0
 11
-287.8500000378368
 21
383.0000077391455
 31
0.0
  0
LINE
  5
1D6
330
49
100
AcDbEntity
  8
0
  6
Continuous
 62
     3
100
AcDbLine
 10
-302.8500000378368
 20
383.0000077391455
 30
0.0
 11
-301.6500000378368
 21
383.0000077391455
 31
0.0
  0
LINE
  5
1D7
330
49
100
AcDbEntity
  8
0
  6
Continuous
 62
     3
100
AcDbLine
 10
-301.6500000378368
 20
383.0000077391455
 30
0.0
 11
-301.3284610069194
 21
383.0000077391455
 31
0.0
  0
LINE
  5
1D8
330
49
100
AcDbEntity
  8
0
  6
Continuous
 62
     3
100
AcDbLine
 10
-300.1715390687542
 20
383.0000077391455
 30
0.0
 11
-299.8500000378368
 21
383.0000077391455
 31
0.0
  0
LINE
  5
1D9
330
49
100
AcDbEntity
  8
0
  6
Continuous
 62
     3
100
AcDbLine
 10
-300.1715390687542
 20
383.0000077391455
 30
0.0
 11
-301.3284610069194
 21
383.0000077391455
 31
0.0
  0
LINE
  5
1DA
330
49
100
AcDbEntity
  8
0
  6
Continuous
 62
     3
100
AcDbLine
 10
-298.6500000378368
 20
383.0000077391455
 30
0.0
 11
-298.3284610069194
 21
383.0000077391455
 31
0.0
  0
LINE
  5
1DB
330
49
100
AcDbEntity
  8
0
  6
Continuous
 62
     3
100
AcDbLine
 10
-317.8500000378368
 20
383.0000077391455
 30
0.0
 11
-316.6500000378368
 21
383.0000077391455
 31
0.0
  0
LINE
  5
1DC
330
49
100
AcDbEntity
  8
0
  6
Continuous
 62
     3
100
AcDbLine
 10
-318.1715390687542
 20
383.0000077391455
 30
0.0
 11
-319.5000000378368
 21
383.0000077391455
 31
0.0
  0
LINE
  5
1DD
330
49
100
AcDbEntity
  8
0
  6
Continuous
 62
     3
100
AcDbLine
 10
-316.6500000378368
 20
383.0000077391455
 30
0.0
 11
-316.3284610069194
 21
383.0000077391455
 31
0.0
  0
LINE
  5
1DE
330
49
100
AcDbEntity
  8
0
  6
Continuous
 62
     3
100
AcDbLine
 10
-318.1715390687542
 20
383.0000077391455
 30
0.0
 11
-317.8500000378368
 21
383.0000077391455
 31
0.0
  0
LINE
  5
1DF
330
49
100
AcDbEntity
  8
0
  6
Continuous
 62
     3
100
AcDbLine
 10
-287.8500000378368
 20
383.0000077391455
 30
0.0
 11
-286.6500000378368
 21
383.0000077391455
 31
0.0
  0
LINE
  5
1E0
330
49
100
AcDbEntity
  8
0
  6
Continuous
 62
     3
100
AcDbLine
 10
-286.6500000378368
 20
383.0000077391455
 30
0.0
 11
-286.3284610069194
 21
383.0000077391455
 31
0.0
  0
LINE
  5
1E1
330
49
100
AcDbEntity
  8
0
  6
Continuous
 62
     3
100
AcDbLine
 10
-284.8500000378368
 20
383.0000077391455
 30
0.0
 11
-283.6500000378368
 21
383.0000077391455
 31
0.0
  0
LINE
  5
1E2
330
49
100
AcDbEntity
  8
0
  6
Continuous
 62
     3
100
AcDbLine
 10
-282.1715390687542
 20
383.0000077391455
 30
0.0
 11
-283.3284610069194
 21
383.0000077391455
 31
0.0
  0
LINE
  5
1E3
330
49
100
AcDbEntity
  8
0
  6
Continuous
 62
     3
100
AcDbLine
 10
-283.6500000378368
 20
383.0000077391455
 30
0.0
 11
-283.3284610069194
 21
383.0000077391455
 31
0.0
  0
LINE
  5
1E4
330
49
100
AcDbEntity
  8
0
  6
Continuous
 62
     3
100
AcDbLine
 10
-285.1715390687542
 20
383.0000077391455
 30
0.0
 11
-286.3284610069194
 21
383.0000077391455
 31
0.0
  0
LINE
  5
1E5
330
49
100
AcDbEntity
  8
0
  6
Continuous
 62
     3
100
AcDbLine
 10
-285.1715390687542
 20
383.0000077391455
 30
0.0
 11
-284.8500000378368
 21
383.0000077391455
 31
0.0
  0
LINE
  5
1E6
330
49
100
AcDbEntity
  8
0
  6
Continuous
 62
     3
100
AcDbLine
 10
-308.8500000378368
 20
383.0000077391455
 30
0.0
 11
-307.6500000378368
 21
383.0000077391455
 31
0.0
  0
LINE
  5
1E7
330
49
100
AcDbEntity
  8
0
  6
Continuous
 62
     3
100
AcDbLine
 10
-311.8500000378368
 20
383.0000077391455
 30
0.0
 11
-310.6500000378368
 21
383.0000077391455
 31
0.0
  0
LINE
  5
1E8
330
49
100
AcDbEntity
  8
0
  6
Continuous
 62
     3
100
AcDbLine
 10
-309.1715390687542
 20
383.0000077391455
 30
0.0
 11
-310.3284610069194
 21
383.0000077391455
 31
0.0
  0
LINE
  5
1E9
330
49
100
AcDbEntity
  8
0
  6
Continuous
 62
     3
100
AcDbLine
 10
-310.6500000378368
 20
383.0000077391455
 30
0.0
 11
-310.3284610069194
 21
383.0000077391455
 31
0.0
  0
LINE
  5
1EA
330
49
100
AcDbEntity
  8
0
  6
Continuous
 62
     3
100
AcDbLine
 10
-312.1715390687542
 20
383.0000077391455
 30
0.0
 11
-313.3284610069194
 21
383.0000077391455
 31
0.0
  0
LINE
  5
1EB
330
49
100
AcDbEntity
  8
0
  6
Continuous
 62
     3
100
AcDbLine
 10
-312.1715390687542
 20
383.0000077391455
 30
0.0
 11
-311.8500000378368
 21
383.0000077391455
 31
0.0
  0
LINE
  5
1EC
330
49
100
AcDbEntity
  8
0
  6
Continuous
 62
     3
100
AcDbLine
 10
-309.1715390687542
 20
383.0000077391455
 30
0.0
 11
-308.8500000378368
 21
383.0000077391455
 31
0.0
  0
LINE
  5
1ED
330
49
100
AcDbEntity
  8
0
  6
Continuous
 62
     3
100
AcDbLine
 10
-278.8500000378368
 20
383.0000077391455
 30
0.0
 11
-277.6500000378368
 21
383.0000077391455
 31
0.0
  0
LINE
  5
1EE
330
49
100
AcDbEntity
  8
0
  6
Continuous
 62
     3
100
AcDbLine
 10
-277.6500000378368
 20
383.0000077391455
 30
0.0
 11
-277.3284610069194
 21
383.0000077391455
 31
0.0
  0
LINE
  5
1EF
330
49
100
AcDbEntity
  8
0
  6
Continuous
 62
     3
100
AcDbLine
 10
-276.1715390687542
 20
383.0000077391455
 30
0.0
 11
-277.3284610069194
 21
383.0000077391455
 31
0.0
  0
LINE
  5
1F0
330
49
100
AcDbEntity
  8
0
  6
Continuous
 62
     3
100
AcDbLine
 10
-293.8500000378368
 20
383.0000077391455
 30
0.0
 11
-292.6500000378368
 21
383.0000077391455
 31
0.0
  0
LINE
  5
1F1
330
49
100
AcDbEntity
  8
0
  6
Continuous
 62
     3
100
AcDbLine
 10
-294.1715390687542
 20
383.0000077391455
 30
0.0
 11
-293.8500000378368
 21
383.0000077391455
 31
0.0
  0
LINE
  5
1F2
330
49
100
AcDbEntity
  8
0
  6
Continuous
 62
     3
100
AcDbLine
 10
-296.8500000378368
 20
383.0000077391455
 30
0.0
 11
-295.6500000378368
 21
383.0000077391455
 31
0.0
  0
LINE
  5
1F3
330
49
100
AcDbEntity
  8
0
  6
Continuous
 62
     3
100
AcDbLine
 10
-294.1715390687542
 20
383.0000077391455
 30
0.0
 11
-295.3284610069194
 21
383.0000077391455
 31
0.0
  0
LINE
  5
1F4
330
49
100
AcDbEntity
  8
0
  6
Continuous
 62
     3
100
AcDbLine
 10
-295.6500000378368
 20
383.0000077391455
 30
0.0
 11
-295.3284610069194
 21
383.0000077391455
 31
0.0
  0
LINE
  5
1F5
330
49
100
AcDbEntity
  8
0
  6
Continuous
 62
     3
100
AcDbLine
 10
-297.1715390687542
 20
383.0000077391455
 30
0.0
 11
-298.3284610069194
 21
383.0000077391455
 31
0.0
  0
LINE
  5
1F6
330
49
100
AcDbEntity
  8
0
  6
Continuous
 62
     3
100
AcDbLine
 10
-297.1715390687542
 20
383.0000077391455
 30
0.0
 11
-296.8500000378368
 21
383.0000077391455
 31
0.0
  0
LINE
  5
1F7
330
49
100
AcDbEntity
  8
0
  6
Continuous
 62
     3
100
AcDbLine
 10
-307.6500000378368
 20
383.0000077391455
 30
0.0
 11
-307.3284610069194
 21
383.0000077391455
 31
0.0
  0
LINE
  5
1F8
330
49
100
AcDbEntity
  8
0
  6
Continuous
 62
     3
100
AcDbLine
 10
-305.8500000378368
 20
383.0000077391455
 30
0.0
 11
-304.6500000378368
 21
383.0000077391455
 31
0.0
  0
LINE
  5
1F9
330
49
100
AcDbEntity
  8
0
  6
Continuous
 62
     3
100
AcDbLine
 10
-306.1715390687542
 20
383.0000077391455
 30
0.0
 11
-307.3284610069194
 21
383.0000077391455
 31
0.0
  0
LINE
  5
1FA
330
49
100
AcDbEntity
  8
0
  6
Continuous
 62
     3
100
AcDbLine
 10
-303.1715390687542
 20
383.0000077391455
 30
0.0
 11
-304.3284610069194
 21
383.0000077391455
 31
0.0
  0
LINE
  5
1FB
330
49
100
AcDbEntity
  8
0
  6
Continuous
 62
     3
100
AcDbLine
 10
-304.6500000378368
 20
383.0000077391455
 30
0.0
 11
-304.3284610069194
 21
383.0000077391455
 31
0.0
  0
LINE
  5
1FC
330
49
100
AcDbEntity
  8
0
  6
Continuous
 62
     3
100
AcDbLine
 10
-306.1715390687542
 20
383.0000077391455
 30
0.0
 11
-305.8500000378368
 21
383.0000077391455
 31
0.0
  0
LINE
  5
1FD
330
49
100
AcDbEntity
  8
0
  6
Continuous
 62
     3
100
AcDbLine
 10
-303.1715390687542
 20
383.0000077391455
 30
0.0
 11
-302.8500000378368
 21
383.0000077391455
 31
0.0
  0
LINE
  5
1FE
330
49
100
AcDbEntity
  8
0
  6
Continuous
 62
     3
100
AcDbLine
 10
-282.1715390687542
 20
383.0000077391455
 30
0.0
 11
-281.8500000378368
 21
383.0000077391455
 31
0.0
  0
LINE
  5
1FF
330
49
100
AcDbEntity
  8
0
  6
Continuous
 62
     3
100
AcDbLine
 10
-281.8500000378368
 20
383.0000077391455
 30
0.0
 11
-280.6500000378368
 21
383.0000077391455
 31
0.0
  0
LINE
  5
200
330
49
100
AcDbEntity
  8
0
  6
Continuous
 62
     3
100
AcDbLine
 10
-280.6500000378368
 20
383.0000077391455
 30
0.0
 11
-280.3284610069194
 21
383.0000077391455
 31
0.0
  0
LINE
  5
201
330
49
100
AcDbEntity
  8
0
  6
Continuous
 62
     3
100
AcDbLine
 10
-279.1715390687542
 20
383.0000077391455
 30
0.0
 11
-278.8500000378368
 21
383.0000077391455
 31
0.0
  0
LINE
  5
202
330
49
100
AcDbEntity
  8
0
  6
Continuous
 62
     3
100
AcDbLine
 10
-279.1715390687542
 20
383.0000077391455
 30
0.0
 11
-280.3284610069194
 21
383.0000077391455
 31
0.0
  0
LINE
  5
203
330
49
100
AcDbEntity
  8
0
  6
Continuous
 62
     3
100
AcDbLine
 10
-269.0000000378368
 20
382.5000077391455
 30
0.0
 11
-270.0000000378368
 21
382.5000077391455
 31
0.0
  0
LINE
  5
204
330
49
100
AcDbEntity
  8
0
  6
Continuous
 62
     3
100
AcDbLine
 10
-276.1715390687542
 20
383.0000077391455
 30
0.0
 11
-275.9643570690095
 21
383.0000077391568
 31
0.0
  0
LINE
  5
205
330
49
100
AcDbEntity
  8
0
  6
Continuous
 62
     3
100
AcDbLine
 10
-270.5000000378368
 20
382.6000077391456
 30
0.0
 11
-275.9571797148092
 21
382.6000077391456
 31
0.0
  0
LINE
  5
206
330
49
100
AcDbEntity
  8
0
  6
Continuous
 62
     3
100
AcDbLine
 10
-270.0000000378368
 20
382.6000077391456
 30
0.0
 11
-270.5000000378368
 21
382.6000077391456
 31
0.0
  0
LINE
  5
207
330
49
100
AcDbEntity
  8
0
  6
Continuous
 62
     3
100
AcDbLine
 10
-269.0000000378368
 20
382.5000077391455
 30
0.0
 11
-251.5000000378368
 21
382.5000077391455
 31
0.0
  0
LINE
  5
208
330
49
100
AcDbEntity
  8
0
  6
Continuous
 62
     7
100
AcDbLine
 10
-303.1715390687542
 20
384.8000077391456
 30
0.0
 11
-302.9571797148092
 21
385.6000077391456
 31
0.0
  0
LINE
  5
209
330
49
100
AcDbEntity
  8
0
  6
Continuous
 62
     7
100
AcDbLine
 10
-300.1715390687542
 20
384.8000077391456
 30
0.0
 11
-299.9571797148093
 21
385.6000077391456
 31
0.0
  0
LINE
  5
20A
330
49
100
AcDbEntity
  8
0
  6
Continuous
 62
     7
100
AcDbLine
 10
-312.1715390687542
 20
384.8000077391456
 30
0.0
 11
-311.9571797148092
 21
385.6000077391456
 31
0.0
  0
LINE
  5
20B
330
49
100
AcDbEntity
  8
0
  6
Continuous
 62
     7
100
AcDbLine
 10
-300.1715390687542
 20
383.0000077391455
 30
0.0
 11
-300.1715390687542
 21
384.8000077391456
 31
0.0
  0
LINE
  5
20C
330
49
100
AcDbEntity
  8
0
  6
Continuous
 62
     7
100
AcDbLine
 10
-301.3284610069194
 20
383.0000077391455
 30
0.0
 11
-301.3284610069195
 21
384.8000077391456
 31
0.0
  0
LINE
  5
20D
330
49
100
AcDbEntity
  8
0
  6
Continuous
 62
     7
100
AcDbLine
 10
-318.1715390687542
 20
384.8000077391456
 30
0.0
 11
-319.5000000378368
 21
384.8000077391456
 31
0.0
  0
LINE
  5
20E
330
49
100
AcDbEntity
  8
0
  6
Continuous
 62
     7
100
AcDbLine
 10
-319.5000000378368
 20
383.0000077391455
 30
0.0
 11
-319.5000000378368
 21
384.8000077391456
 31
0.0
  0
LINE
  5
20F
330
49
100
AcDbEntity
  8
0
  6
Continuous
 62
     7
100
AcDbLine
 10
-318.1715390687542
 20
384.8000077391456
 30
0.0
 11
-318.1715390687542
 21
383.0000077391455
 31
0.0
  0
LINE
  5
210
330
49
100
AcDbEntity
  8
0
  6
Continuous
 62
     7
100
AcDbLine
 10
-307.3284610069194
 20
383.0000077391455
 30
0.0
 11
-307.3284610069194
 21
384.8000077391456
 31
0.0
  0
LINE
  5
211
330
49
100
AcDbEntity
  8
0
  6
Continuous
 62
     7
100
AcDbLine
 10
-309.1715390687542
 20
383.0000077391455
 30
0.0
 11
-309.1715390687542
 21
384.8000077391456
 31
0.0
  0
LINE
  5
212
330
49
100
AcDbEntity
  8
0
  6
Continuous
 62
     7
100
AcDbLine
 10
-316.3284610069194
 20
383.0000077391455
 30
0.0
 11
-316.3284610069194
 21
384.8000077391456
 31
0.0
  0
LINE
  5
213
330
49
100
AcDbEntity
  8
0
  6
Continuous
 62
     7
100
AcDbLine
 10
-306.1715390687542
 20
384.8000077391456
 30
0.0
 11
-307.3284610069194
 21
384.8000077391456
 31
0.0
  0
LINE
  5
214
330
49
100
AcDbEntity
  8
0
  6
Continuous
 62
     7
100
AcDbLine
 10
-309.1715390687542
 20
384.8000077391456
 30
0.0
 11
-310.3284610069194
 21
384.8000077391456
 31
0.0
  0
LINE
  5
215
330
49
100
AcDbEntity
  8
0
  6
Continuous
 62
     7
100
AcDbLine
 10
-306.1715390687542
 20
383.0000077391455
 30
0.0
 11
-306.1715390687542
 21
384.8000077391456
 31
0.0
  0
LINE
  5
216
330
49
100
AcDbEntity
  8
0
  6
Continuous
 62
     7
100
AcDbLine
 10
-304.3284610069194
 20
383.0000077391455
 30
0.0
 11
-304.3284610069194
 21
384.8000077391456
 31
0.0
  0
LINE
  5
217
330
49
100
AcDbEntity
  8
0
  6
Continuous
 62
     7
100
AcDbLine
 10
-310.3284610069194
 20
383.0000077391455
 30
0.0
 11
-310.3284610069194
 21
384.8000077391456
 31
0.0
  0
LINE
  5
218
330
49
100
AcDbEntity
  8
0
  6
Continuous
 62
     7
100
AcDbLine
 10
-303.1715390687542
 20
383.0000077391455
 30
0.0
 11
-303.1715390687542
 21
384.8000077391456
 31
0.0
  0
LINE
  5
219
330
49
100
AcDbEntity
  8
0
  6
Continuous
 62
     7
100
AcDbLine
 10
-303.1715390687542
 20
384.8000077391456
 30
0.0
 11
-304.3284610069194
 21
384.8000077391456
 31
0.0
  0
LINE
  5
21A
330
49
100
AcDbEntity
  8
0
  6
Continuous
 62
     7
100
AcDbLine
 10
-312.1715390687542
 20
383.0000077391455
 30
0.0
 11
-312.1715390687542
 21
384.8000077391456
 31
0.0
  0
LINE
  5
21B
330
49
100
AcDbEntity
  8
0
  6
Continuous
 62
     7
100
AcDbLine
 10
-313.3284610069194
 20
383.0000077391455
 30
0.0
 11
-313.3284610069194
 21
384.8000077391456
 31
0.0
  0
LINE
  5
21C
330
49
100
AcDbEntity
  8
0
  6
Continuous
 62
     7
100
AcDbLine
 10
-312.1715390687542
 20
384.8000077391456
 30
0.0
 11
-313.3284610069194
 21
384.8000077391456
 31
0.0
  0
LINE
  5
21D
330
49
100
AcDbEntity
  8
0
  6
Continuous
 62
     7
100
AcDbLine
 10
-315.1715390687542
 20
383.0000077391455
 30
0.0
 11
-315.1715390687542
 21
384.8000077391456
 31
0.0
  0
LINE
  5
21E
330
49
100
AcDbEntity
  8
0
  6
Continuous
 62
     7
100
AcDbLine
 10
-315.1715390687542
 20
384.8000077391456
 30
0.0
 11
-316.3284610069194
 21
384.8000077391456
 31
0.0
  0
LINE
  5
21F
330
49
100
AcDbEntity
  8
0
  6
Continuous
 62
     7
100
AcDbLine
 10
-300.1715390687542
 20
384.8000077391456
 30
0.0
 11
-301.3284610069195
 21
384.8000077391456
 31
0.0
  0
LINE
  5
220
330
49
100
AcDbEntity
  8
0
  6
Continuous
 62
     7
100
AcDbLine
 10
-301.3284610069195
 20
384.8000077391456
 30
0.0
 11
-301.5428203608644
 21
385.6000077391456
 31
0.0
  0
LINE
  5
221
330
49
100
AcDbEntity
  8
0
  6
Continuous
 62
     7
100
AcDbLine
 10
-304.3284610069194
 20
384.8000077391456
 30
0.0
 11
-304.5428203608644
 21
385.6000077391456
 31
0.0
  0
LINE
  5
222
330
49
100
AcDbEntity
  8
0
  6
Continuous
 62
     7
100
AcDbLine
 10
-306.1715390687542
 20
384.8000077391456
 30
0.0
 11
-305.9571797148092
 21
385.6000077391456
 31
0.0
  0
LINE
  5
223
330
49
100
AcDbEntity
  8
0
  6
Continuous
 62
     7
100
AcDbLine
 10
-307.3284610069194
 20
384.8000077391456
 30
0.0
 11
-307.5428203608644
 21
385.6000077391456
 31
0.0
  0
LINE
  5
224
330
49
100
AcDbEntity
  8
0
  6
Continuous
 62
     7
100
AcDbLine
 10
-311.9571797148092
 20
385.6000077391456
 30
0.0
 11
-313.5428203608644
 21
385.6000077391456
 31
0.0
  0
LINE
  5
225
330
49
100
AcDbEntity
  8
0
  6
Continuous
 62
     7
100
AcDbLine
 10
-313.3284610069194
 20
384.8000077391456
 30
0.0
 11
-313.5428203608644
 21
385.6000077391456
 31
0.0
  0
LINE
  5
226
330
49
100
AcDbEntity
  8
0
  6
Continuous
 62
     7
100
AcDbLine
 10
-315.1715390687542
 20
384.8000077391456
 30
0.0
 11
-314.9571797148092
 21
385.6000077391456
 31
0.0
  0
LINE
  5
227
330
49
100
AcDbEntity
  8
0
  6
Continuous
 62
     7
100
AcDbLine
 10
-314.9571797148092
 20
385.6000077391456
 30
0.0
 11
-316.5428203608644
 21
385.6000077391456
 31
0.0
  0
LINE
  5
228
330
49
100
AcDbEntity
  8
0
  6
Continuous
 62
     7
100
AcDbLine
 10
-317.9571797148092
 20
385.6000077391456
 30
0.0
 11
-319.5000000378368
 21
385.6000077391456
 31
0.0
  0
LINE
  5
229
330
49
100
AcDbEntity
  8
0
  6
Continuous
 62
     7
100
AcDbLine
 10
-302.9571797148092
 20
385.6000077391456
 30
0.0
 11
-304.5428203608644
 21
385.6000077391456
 31
0.0
  0
LINE
  5
22A
330
49
100
AcDbEntity
  8
0
  6
Continuous
 62
     7
100
AcDbLine
 10
-308.9571797148092
 20
385.6000077391456
 30
0.0
 11
-310.5428203608644
 21
385.6000077391456
 31
0.0
  0
LINE
  5
22B
330
49
100
AcDbEntity
  8
0
  6
Continuous
 62
     7
100
AcDbLine
 10
-305.9571797148092
 20
385.6000077391456
 30
0.0
 11
-307.5428203608644
 21
385.6000077391456
 31
0.0
  0
LINE
  5
22C
330
49
100
AcDbEntity
  8
0
  6
Continuous
 62
     7
100
AcDbLine
 10
-309.1715390687542
 20
384.8000077391456
 30
0.0
 11
-308.9571797148092
 21
385.6000077391456
 31
0.0
  0
LINE
  5
22D
330
49
100
AcDbEntity
  8
0
  6
Continuous
 62
     7
100
AcDbLine
 10
-310.3284610069194
 20
384.8000077391456
 30
0.0
 11
-310.5428203608644
 21
385.6000077391456
 31
0.0
  0
LINE
  5
22E
330
49
100
AcDbEntity
  8
0
  6
Continuous
 62
     7
100
AcDbLine
 10
-319.5000000378368
 20
385.6000077391456
 30
0.0
 11
-319.5000000378368
 21
384.8000077391456
 31
0.0
  0
LINE
  5
22F
330
49
100
AcDbEntity
  8
0
  6
Continuous
 62
     7
100
AcDbLine
 10
-318.1715390687542
 20
384.8000077391456
 30
0.0
 11
-317.9571797148092
 21
385.6000077391456
 31
0.0
  0
LINE
  5
230
330
49
100
AcDbEntity
  8
0
  6
Continuous
 62
     7
100
AcDbLine
 10
-316.3284610069194
 20
384.8000077391456
 30
0.0
 11
-316.5428203608644
 21
385.6000077391456
 31
0.0
  0
LINE
  5
231
330
49
100
AcDbEntity
  8
0
  6
Continuous
 62
     7
100
AcDbLine
 10
-299.9571797148093
 20
385.6000077391456
 30
0.0
 11
-301.5428203608644
 21
385.6000077391456
 31
0.0
  0
LINE
  5
232
330
49
100
AcDbEntity
  8
0
  6
Continuous
 62
     7
100
AcDbLine
 10
-301.5428203608644
 20
385.6000077391456
 30
0.0
 11
-301.6500000378368
 21
386.0000077391455
 31
0.0
  0
LINE
  5
233
330
49
100
AcDbEntity
  8
0
  6
Continuous
 62
     7
100
AcDbLine
 10
-301.6500000378368
 20
386.0000077391455
 30
0.0
 11
-301.6500000378368
 21
383.0000077391455
 31
0.0
  0
LINE
  5
234
330
49
100
AcDbEntity
  8
0
  6
Continuous
 62
     7
100
AcDbLine
 10
-314.9571797148092
 20
385.6000077391456
 30
0.0
 11
-314.8500000378368
 21
386.0000077391455
 31
0.0
  0
LINE
  5
235
330
49
100
AcDbEntity
  8
0
  6
Continuous
 62
     7
100
AcDbLine
 10
-311.9571797148092
 20
385.6000077391456
 30
0.0
 11
-311.8500000378368
 21
386.0000077391455
 31
0.0
  0
LINE
  5
236
330
49
100
AcDbEntity
  8
0
  6
Continuous
 62
     7
100
AcDbLine
 10
-302.9571797148092
 20
385.6000077391456
 30
0.0
 11
-302.8500000378368
 21
386.0000077391455
 31
0.0
  0
LINE
  5
237
330
49
100
AcDbEntity
  8
0
  6
Continuous
 62
     7
100
AcDbLine
 10
-301.6500000378368
 20
386.0000077391455
 30
0.0
 11
-302.8500000378368
 21
386.0000077391455
 31
0.0
  0
LINE
  5
238
330
49
100
AcDbEntity
  8
0
  6
Continuous
 62
     7
100
AcDbLine
 10
-310.6500000378368
 20
386.0000077391455
 30
0.0
 11
-311.8500000378368
 21
386.0000077391455
 31
0.0
  0
LINE
  5
239
330
49
100
AcDbEntity
  8
0
  6
Continuous
 62
     7
100
AcDbLine
 10
-313.5428203608644
 20
385.6000077391456
 30
0.0
 11
-313.6500000378368
 21
386.0000077391455
 31
0.0
  0
LINE
  5
23A
330
49
100
AcDbEntity
  8
0
  6
Continuous
 62
     7
100
AcDbLine
 10
-313.6500000378368
 20
386.0000077391455
 30
0.0
 11
-314.8500000378368
 21
386.0000077391455
 31
0.0
  0
LINE
  5
23B
330
49
100
AcDbEntity
  8
0
  6
Continuous
 62
     7
100
AcDbLine
 10
-302.8500000378368
 20
386.0000077391455
 30
0.0
 11
-302.8500000378368
 21
383.0000077391455
 31
0.0
  0
LINE
  5
23C
330
49
100
AcDbEntity
  8
0
  6
Continuous
 62
     7
100
AcDbLine
 10
-317.8500000378368
 20
386.0000077391455
 30
0.0
 11
-317.8500000378368
 21
383.0000077391455
 31
0.0
  0
LINE
  5
23D
330
49
100
AcDbEntity
  8
0
  6
Continuous
 62
     7
100
AcDbLine
 10
-314.8500000378368
 20
386.0000077391455
 30
0.0
 11
-314.8500000378368
 21
383.0000077391455
 31
0.0
  0
LINE
  5
23E
330
49
100
AcDbEntity
  8
0
  6
Continuous
 62
     7
100
AcDbLine
 10
-313.6500000378368
 20
386.0000077391455
 30
0.0
 11
-313.6500000378368
 21
383.0000077391455
 31
0.0
  0
LINE
  5
23F
330
49
100
AcDbEntity
  8
0
  6
Continuous
 62
     7
100
AcDbLine
 10
-308.8500000378368
 20
386.0000077391455
 30
0.0
 11
-308.8500000378368
 21
383.0000077391455
 31
0.0
  0
LINE
  5
240
330
49
100
AcDbEntity
  8
0
  6
Continuous
 62
     7
100
AcDbLine
 10
-305.8500000378368
 20
386.0000077391455
 30
0.0
 11
-305.8500000378368
 21
383.0000077391455
 31
0.0
  0
LINE
  5
241
330
49
100
AcDbEntity
  8
0
  6
Continuous
 62
     7
100
AcDbLine
 10
-307.6500000378368
 20
386.0000077391455
 30
0.0
 11
-307.6500000378368
 21
383.0000077391455
 31
0.0
  0
LINE
  5
242
330
49
100
AcDbEntity
  8
0
  6
Continuous
 62
     7
100
AcDbLine
 10
-311.8500000378368
 20
386.0000077391455
 30
0.0
 11
-311.8500000378368
 21
383.0000077391455
 31
0.0
  0
LINE
  5
243
330
49
100
AcDbEntity
  8
0
  6
Continuous
 62
     7
100
AcDbLine
 10
-310.6500000378368
 20
386.0000077391455
 30
0.0
 11
-310.6500000378368
 21
383.0000077391455
 31
0.0
  0
LINE
  5
244
330
49
100
AcDbEntity
  8
0
  6
Continuous
 62
     7
100
AcDbLine
 10
-316.6500000378368
 20
386.0000077391455
 30
0.0
 11
-316.6500000378368
 21
383.0000077391455
 31
0.0
  0
LINE
  5
245
330
49
100
AcDbEntity
  8
0
  6
Continuous
 62
     7
100
AcDbLine
 10
-304.5428203608644
 20
385.6000077391456
 30
0.0
 11
-304.6500000378368
 21
386.0000077391455
 31
0.0
  0
LINE
  5
246
330
49
100
AcDbEntity
  8
0
  6
Continuous
 62
     7
100
AcDbLine
 10
-304.6500000378368
 20
386.0000077391455
 30
0.0
 11
-304.6500000378368
 21
383.0000077391455
 31
0.0
  0
LINE
  5
247
330
49
100
AcDbEntity
  8
0
  6
Continuous
 62
     7
100
AcDbLine
 10
-317.9571797148092
 20
385.6000077391456
 30
0.0
 11
-317.8500000378368
 21
386.0000077391455
 31
0.0
  0
LINE
  5
248
330
49
100
AcDbEntity
  8
0
  6
Continuous
 62
     7
100
AcDbLine
 10
-308.9571797148092
 20
385.6000077391456
 30
0.0
 11
-308.8500000378368
 21
386.0000077391455
 31
0.0
  0
LINE
  5
249
330
49
100
AcDbEntity
  8
0
  6
Continuous
 62
     7
100
AcDbLine
 10
-307.6500000378368
 20
386.0000077391455
 30
0.0
 11
-308.8500000378368
 21
386.0000077391455
 31
0.0
  0
LINE
  5
24A
330
49
100
AcDbEntity
  8
0
  6
Continuous
 62
     7
100
AcDbLine
 10
-304.6500000378368
 20
386.0000077391455
 30
0.0
 11
-305.8500000378368
 21
386.0000077391455
 31
0.0
  0
LINE
  5
24B
330
49
100
AcDbEntity
  8
0
  6
Continuous
 62
     7
100
AcDbLine
 10
-307.5428203608644
 20
385.6000077391456
 30
0.0
 11
-307.6500000378368
 21
386.0000077391455
 31
0.0
  0
LINE
  5
24C
330
49
100
AcDbEntity
  8
0
  6
Continuous
 62
     7
100
AcDbLine
 10
-305.9571797148092
 20
385.6000077391456
 30
0.0
 11
-305.8500000378368
 21
386.0000077391455
 31
0.0
  0
LINE
  5
24D
330
49
100
AcDbEntity
  8
0
  6
Continuous
 62
     7
100
AcDbLine
 10
-316.5428203608644
 20
385.6000077391456
 30
0.0
 11
-316.6500000378368
 21
386.0000077391455
 31
0.0
  0
LINE
  5
24E
330
49
100
AcDbEntity
  8
0
  6
Continuous
 62
     7
100
AcDbLine
 10
-316.6500000378368
 20
386.0000077391455
 30
0.0
 11
-317.8500000378368
 21
386.0000077391455
 31
0.0
  0
LINE
  5
24F
330
49
100
AcDbEntity
  8
0
  6
Continuous
 62
     7
100
AcDbLine
 10
-310.5428203608644
 20
385.6000077391456
 30
0.0
 11
-310.6500000378368
 21
386.0000077391455
 31
0.0
  0
LINE
  5
250
330
49
100
AcDbEntity
  8
0
  6
Continuous
 62
     7
100
AcDbLine
 10
-299.9571797148093
 20
385.6000077391456
 30
0.0
 11
-299.8500000378368
 21
386.0000077391455
 31
0.0
  0
LINE
  5
251
330
49
100
AcDbEntity
  8
0
  6
Continuous
 62
     7
100
AcDbLine
 10
-299.8500000378368
 20
386.0000077391455
 30
0.0
 11
-299.8500000378368
 21
383.0000077391455
 31
0.0
  0
LINE
  5
252
330
49
100
AcDbEntity
  8
0
  6
Continuous
 62
     7
100
AcDbLine
 10
-298.6500000378368
 20
386.0000077391455
 30
0.0
 11
-299.8500000378368
 21
386.0000077391455
 31
0.0
  0
LINE
  5
253
330
49
100
AcDbEntity
  8
0
  6
Continuous
 62
     7
100
AcDbLine
 10
-270.0000000378368
 20
386.1000077391456
 30
0.0
 11
-270.0000000378368
 21
382.6000077391456
 31
0.0
  0
LINE
  5
254
330
49
100
AcDbEntity
  8
0
  6
Continuous
 62
     7
100
AcDbLine
 10
-270.0000000378368
 20
382.6000077391456
 30
0.0
 11
-270.0000000378368
 21
382.5000077391455
 31
0.0
  0
LINE
  5
255
330
49
100
AcDbEntity
  8
0
  6
Continuous
 62
     3
100
AcDbLine
 10
-269.0000000378368
 20
388.0000077391455
 30
0.0
 11
-269.0000000378368
 21
382.5000077391455
 31
0.0
  0
LINE
  5
256
330
49
100
AcDbEntity
  8
0
  6
Continuous
 62
     7
100
AcDbLine
 10
-270.0000000378368
 20
387.0000077391455
 30
0.0
 11
-270.0000000378368
 21
386.1000077391456
 31
0.0
  0
LINE
  5
257
330
49
100
AcDbEntity
  8
0
  6
Continuous
 62
     3
100
AcDbLine
 10
-270.5000000378368
 20
382.6000077391456
 30
0.0
 11
-270.5000000378368
 21
385.6000077391456
 31
0.0
  0
LINE
  5
258
330
49
100
AcDbEntity
  8
0
  6
Continuous
 62
     7
100
AcDbLine
 10
-276.1715390687542
 20
384.8000077391456
 30
0.0
 11
-275.9643570690087
 21
385.5732214886093
 31
0.0
  0
LINE
  5
259
330
49
100
AcDbEntity
  8
0
  6
Continuous
 62
     7
100
AcDbLine
 10
-277.6500000378368
 20
386.0000077391455
 30
0.0
 11
-277.6500000378368
 21
383.0000077391455
 31
0.0
  0
LINE
  5
25A
330
49
100
AcDbEntity
  8
0
  6
Continuous
 62
     7
100
AcDbLine
 10
-275.9571797148092
 20
385.6000077391456
 30
0.0
 11
-277.5428203608644
 21
385.6000077391456
 31
0.0
  0
LINE
  5
25B
330
49
100
AcDbEntity
  8
0
  6
Continuous
 62
     7
100
AcDbLine
 10
-277.3284610069194
 20
384.8000077391456
 30
0.0
 11
-277.5428203608644
 21
385.6000077391456
 31
0.0
  0
LINE
  5
25C
330
49
100
AcDbEntity
  8
0
  6
Continuous
 62
     7
100
AcDbLine
 10
-270.5000000378368
 20
385.6000077391456
 30
0.0
 11
-275.9571797148092
 21
385.6000077391456
 31
0.0
  0
LINE
  5
25D
330
49
100
AcDbEntity
  8
0
  6
Continuous
 62
     7
100
AcDbLine
 10
-275.9643570690087
 20
385.5732214886093
 30
0.0
 11
-275.9571797148092
 21
385.6000077391456
 31
0.0
  0
LINE
  5
25E
330
49
100
AcDbEntity
  8
0
  6
Continuous
 62
     7
100
AcDbLine
 10
-277.5428203608644
 20
385.6000077391456
 30
0.0
 11
-277.6500000378368
 21
386.0000077391455
 31
0.0
  0
LINE
  5
25F
330
49
100
AcDbEntity
  8
0
  6
Continuous
 62
     7
100
AcDbLine
 10
-297.1715390687542
 20
384.8000077391456
 30
0.0
 11
-296.9571797148092
 21
385.6000077391456
 31
0.0
  0
LINE
  5
260
330
49
100
AcDbEntity
  8
0
  6
Continuous
 62
     7
100
AcDbLine
 10
-294.1715390687542
 20
384.8000077391456
 30
0.0
 11
-293.9571797148092
 21
385.6000077391456
 31
0.0
  0
LINE
  5
261
330
49
100
AcDbEntity
  8
0
  6
Continuous
 62
     7
100
AcDbLine
 10
-288.1715390687542
 20
384.8000077391456
 30
0.0
 11
-287.9571797148092
 21
385.6000077391456
 31
0.0
  0
LINE
  5
262
330
49
100
AcDbEntity
  8
0
  6
Continuous
 62
     7
100
AcDbLine
 10
-291.1715390687542
 20
384.8000077391456
 30
0.0
 11
-290.9571797148092
 21
385.6000077391456
 31
0.0
  0
LINE
  5
263
330
49
100
AcDbEntity
  8
0
  6
Continuous
 62
     7
100
AcDbLine
 10
-282.1715390687542
 20
384.8000077391456
 30
0.0
 11
-281.9571797148092
 21
385.6000077391456
 31
0.0
  0
LINE
  5
264
330
49
100
AcDbEntity
  8
0
  6
Continuous
 62
     7
100
AcDbLine
 10
-285.1715390687542
 20
384.8000077391456
 30
0.0
 11
-284.9571797148092
 21
385.6000077391456
 31
0.0
  0
LINE
  5
265
330
49
100
AcDbEntity
  8
0
  6
Continuous
 62
     7
100
AcDbLine
 10
-279.1715390687542
 20
384.8000077391456
 30
0.0
 11
-278.9571797148092
 21
385.6000077391456
 31
0.0
  0
LINE
  5
266
330
49
100
AcDbEntity
  8
0
  6
Continuous
 62
     7
100
AcDbLine
 10
-280.3284610069194
 20
384.8000077391456
 30
0.0
 11
-280.5428203608644
 21
385.6000077391456
 31
0.0
  0
LINE
  5
267
330
49
100
AcDbEntity
  8
0
  6
Continuous
 62
     7
100
AcDbLine
 10
-281.8500000378368
 20
386.0000077391455
 30
0.0
 11
-281.8500000378368
 21
383.0000077391455
 31
0.0
  0
LINE
  5
268
330
49
100
AcDbEntity
  8
0
  6
Continuous
 62
     7
100
AcDbLine
 10
-280.5428203608644
 20
385.6000077391456
 30
0.0
 11
-280.6500000378368
 21
386.0000077391455
 31
0.0
  0
LINE
  5
269
330
49
100
AcDbEntity
  8
0
  6
Continuous
 62
     7
100
AcDbLine
 10
-278.9571797148092
 20
385.6000077391456
 30
0.0
 11
-278.8500000378368
 21
386.0000077391455
 31
0.0
  0
LINE
  5
26A
330
49
100
AcDbEntity
  8
0
  6
Continuous
 62
     7
100
AcDbLine
 10
-278.8500000378368
 20
386.0000077391455
 30
0.0
 11
-278.8500000378368
 21
383.0000077391455
 31
0.0
  0
LINE
  5
26B
330
49
100
AcDbEntity
  8
0
  6
Continuous
 62
     7
100
AcDbLine
 10
-280.6500000378368
 20
386.0000077391455
 30
0.0
 11
-280.6500000378368
 21
383.0000077391455
 31
0.0
  0
LINE
  5
26C
330
49
100
AcDbEntity
  8
0
  6
Continuous
 62
     7
100
AcDbLine
 10
-278.9571797148092
 20
385.6000077391456
 30
0.0
 11
-280.5428203608644
 21
385.6000077391456
 31
0.0
  0
LINE
  5
26D
330
49
100
AcDbEntity
  8
0
  6
Continuous
 62
     7
100
AcDbLine
 10
-280.6500000378368
 20
386.0000077391455
 30
0.0
 11
-281.8500000378368
 21
386.0000077391455
 31
0.0
  0
LINE
  5
26E
330
49
100
AcDbEntity
  8
0
  6
Continuous
 62
     7
100
AcDbLine
 10
-283.6500000378368
 20
386.0000077391455
 30
0.0
 11
-283.6500000378368
 21
383.0000077391455
 31
0.0
  0
LINE
  5
26F
330
49
100
AcDbEntity
  8
0
  6
Continuous
 62
     7
100
AcDbLine
 10
-281.9571797148092
 20
385.6000077391456
 30
0.0
 11
-283.5428203608644
 21
385.6000077391456
 31
0.0
  0
LINE
  5
270
330
49
100
AcDbEntity
  8
0
  6
Continuous
 62
     7
100
AcDbLine
 10
-281.9571797148092
 20
385.6000077391456
 30
0.0
 11
-281.8500000378368
 21
386.0000077391455
 31
0.0
  0
LINE
  5
271
330
49
100
AcDbEntity
  8
0
  6
Continuous
 62
     7
100
AcDbLine
 10
-283.5428203608644
 20
385.6000077391456
 30
0.0
 11
-283.6500000378368
 21
386.0000077391455
 31
0.0
  0
LINE
  5
272
330
49
100
AcDbEntity
  8
0
  6
Continuous
 62
     7
100
AcDbLine
 10
-283.3284610069194
 20
384.8000077391456
 30
0.0
 11
-283.5428203608644
 21
385.6000077391456
 31
0.0
  0
LINE
  5
273
330
49
100
AcDbEntity
  8
0
  6
Continuous
 62
     7
100
AcDbLine
 10
-284.8500000378368
 20
386.0000077391455
 30
0.0
 11
-284.8500000378368
 21
383.0000077391455
 31
0.0
  0
LINE
  5
274
330
49
100
AcDbEntity
  8
0
  6
Continuous
 62
     7
100
AcDbLine
 10
-283.6500000378368
 20
386.0000077391455
 30
0.0
 11
-284.8500000378368
 21
386.0000077391455
 31
0.0
  0
LINE
  5
275
330
49
100
AcDbEntity
  8
0
  6
Continuous
 62
     7
100
AcDbLine
 10
-284.9571797148092
 20
385.6000077391456
 30
0.0
 11
-284.8500000378368
 21
386.0000077391455
 31
0.0
  0
LINE
  5
276
330
49
100
AcDbEntity
  8
0
  6
Continuous
 62
     7
100
AcDbLine
 10
-286.6500000378368
 20
386.0000077391455
 30
0.0
 11
-286.6500000378368
 21
383.0000077391455
 31
0.0
  0
LINE
  5
277
330
49
100
AcDbEntity
  8
0
  6
Continuous
 62
     7
100
AcDbLine
 10
-284.9571797148092
 20
385.6000077391456
 30
0.0
 11
-286.5428203608644
 21
385.6000077391456
 31
0.0
  0
LINE
  5
278
330
49
100
AcDbEntity
  8
0
  6
Continuous
 62
     7
100
AcDbLine
 10
-286.5428203608644
 20
385.6000077391456
 30
0.0
 11
-286.6500000378368
 21
386.0000077391455
 31
0.0
  0
LINE
  5
279
330
49
100
AcDbEntity
  8
0
  6
Continuous
 62
     7
100
AcDbLine
 10
-286.3284610069194
 20
384.8000077391456
 30
0.0
 11
-286.5428203608644
 21
385.6000077391456
 31
0.0
  0
LINE
  5
27A
330
49
100
AcDbEntity
  8
0
  6
Continuous
 62
     7
100
AcDbLine
 10
-289.6500000378368
 20
386.0000077391455
 30
0.0
 11
-290.8500000378368
 21
386.0000077391455
 31
0.0
  0
LINE
  5
27B
330
49
100
AcDbEntity
  8
0
  6
Continuous
 62
     7
100
AcDbLine
 10
-289.6500000378368
 20
386.0000077391455
 30
0.0
 11
-289.6500000378368
 21
383.0000077391455
 31
0.0
  0
LINE
  5
27C
330
49
100
AcDbEntity
  8
0
  6
Continuous
 62
     7
100
AcDbLine
 10
-290.8500000378368
 20
386.0000077391455
 30
0.0
 11
-290.8500000378368
 21
383.0000077391455
 31
0.0
  0
LINE
  5
27D
330
49
100
AcDbEntity
  8
0
  6
Continuous
 62
     7
100
AcDbLine
 10
-287.8500000378368
 20
386.0000077391455
 30
0.0
 11
-287.8500000378368
 21
383.0000077391455
 31
0.0
  0
LINE
  5
27E
330
49
100
AcDbEntity
  8
0
  6
Continuous
 62
     7
100
AcDbLine
 10
-286.6500000378368
 20
386.0000077391455
 30
0.0
 11
-287.8500000378368
 21
386.0000077391455
 31
0.0
  0
LINE
  5
27F
330
49
100
AcDbEntity
  8
0
  6
Continuous
 62
     7
100
AcDbLine
 10
-289.3284610069194
 20
384.8000077391456
 30
0.0
 11
-289.5428203608644
 21
385.6000077391456
 31
0.0
  0
LINE
  5
280
330
49
100
AcDbEntity
  8
0
  6
Continuous
 62
     7
100
AcDbLine
 10
-289.5428203608644
 20
385.6000077391456
 30
0.0
 11
-289.6500000378368
 21
386.0000077391455
 31
0.0
  0
LINE
  5
281
330
49
100
AcDbEntity
  8
0
  6
Continuous
 62
     7
100
AcDbLine
 10
-287.9571797148092
 20
385.6000077391456
 30
0.0
 11
-289.5428203608644
 21
385.6000077391456
 31
0.0
  0
LINE
  5
282
330
49
100
AcDbEntity
  8
0
  6
Continuous
 62
     7
100
AcDbLine
 10
-287.9571797148092
 20
385.6000077391456
 30
0.0
 11
-287.8500000378368
 21
386.0000077391455
 31
0.0
  0
LINE
  5
283
330
49
100
AcDbEntity
  8
0
  6
Continuous
 62
     7
100
AcDbLine
 10
-290.9571797148092
 20
385.6000077391456
 30
0.0
 11
-290.8500000378368
 21
386.0000077391455
 31
0.0
  0
LINE
  5
284
330
49
100
AcDbEntity
  8
0
  6
Continuous
 62
     7
100
AcDbLine
 10
-292.6500000378368
 20
386.0000077391455
 30
0.0
 11
-292.6500000378368
 21
383.0000077391455
 31
0.0
  0
LINE
  5
285
330
49
100
AcDbEntity
  8
0
  6
Continuous
 62
     7
100
AcDbLine
 10
-292.3284610069194
 20
384.8000077391456
 30
0.0
 11
-292.5428203608644
 21
385.6000077391456
 31
0.0
  0
LINE
  5
286
330
49
100
AcDbEntity
  8
0
  6
Continuous
 62
     7
100
AcDbLine
 10
-292.5428203608644
 20
385.6000077391456
 30
0.0
 11
-292.6500000378368
 21
386.0000077391455
 31
0.0
  0
LINE
  5
287
330
49
100
AcDbEntity
  8
0
  6
Continuous
 62
     7
100
AcDbLine
 10
-290.9571797148092
 20
385.6000077391456
 30
0.0
 11
-292.5428203608644
 21
385.6000077391456
 31
0.0
  0
LINE
  5
288
330
49
100
AcDbEntity
  8
0
  6
Continuous
 62
     7
100
AcDbLine
 10
-295.6500000378368
 20
386.0000077391455
 30
0.0
 11
-295.6500000378368
 21
383.0000077391455
 31
0.0
  0
LINE
  5
289
330
49
100
AcDbEntity
  8
0
  6
Continuous
 62
     7
100
AcDbLine
 10
-295.3284610069194
 20
384.8000077391456
 30
0.0
 11
-295.5428203608644
 21
385.6000077391456
 31
0.0
  0
LINE
  5
28A
330
49
100
AcDbEntity
  8
0
  6
Continuous
 62
     7
100
AcDbLine
 10
-295.5428203608644
 20
385.6000077391456
 30
0.0
 11
-295.6500000378368
 21
386.0000077391455
 31
0.0
  0
LINE
  5
28B
330
49
100
AcDbEntity
  8
0
  6
Continuous
 62
     7
100
AcDbLine
 10
-293.8500000378368
 20
386.0000077391455
 30
0.0
 11
-293.8500000378368
 21
383.0000077391455
 31
0.0
  0
LINE
  5
28C
330
49
100
AcDbEntity
  8
0
  6
Continuous
 62
     7
100
AcDbLine
 10
-292.6500000378368
 20
386.0000077391455
 30
0.0
 11
-293.8500000378368
 21
386.0000077391455
 31
0.0
  0
LINE
  5
28D
330
49
100
AcDbEntity
  8
0
  6
Continuous
 62
     7
100
AcDbLine
 10
-293.9571797148092
 20
385.6000077391456
 30
0.0
 11
-295.5428203608644
 21
385.6000077391456
 31
0.0
  0
LINE
  5
28E
330
49
100
AcDbEntity
  8
0
  6
Continuous
 62
     7
100
AcDbLine
 10
-293.9571797148092
 20
385.6000077391456
 30
0.0
 11
-293.8500000378368
 21
386.0000077391455
 31
0.0
  0
LINE
  5
28F
330
49
100
AcDbEntity
  8
0
  6
Continuous
 62
     7
100
AcDbLine
 10
-298.6500000378368
 20
386.0000077391455
 30
0.0
 11
-298.6500000378368
 21
383.0000077391455
 31
0.0
  0
LINE
  5
290
330
49
100
AcDbEntity
  8
0
  6
Continuous
 62
     7
100
AcDbLine
 10
-298.3284610069194
 20
384.8000077391456
 30
0.0
 11
-298.5428203608644
 21
385.6000077391456
 31
0.0
  0
LINE
  5
291
330
49
100
AcDbEntity
  8
0
  6
Continuous
 62
     7
100
AcDbLine
 10
-298.5428203608644
 20
385.6000077391456
 30
0.0
 11
-298.6500000378368
 21
386.0000077391455
 31
0.0
  0
LINE
  5
292
330
49
100
AcDbEntity
  8
0
  6
Continuous
 62
     7
100
AcDbLine
 10
-296.8500000378368
 20
386.0000077391455
 30
0.0
 11
-296.8500000378368
 21
383.0000077391455
 31
0.0
  0
LINE
  5
293
330
49
100
AcDbEntity
  8
0
  6
Continuous
 62
     7
100
AcDbLine
 10
-295.6500000378368
 20
386.0000077391455
 30
0.0
 11
-296.8500000378368
 21
386.0000077391455
 31
0.0
  0
LINE
  5
294
330
49
100
AcDbEntity
  8
0
  6
Continuous
 62
     7
100
AcDbLine
 10
-296.9571797148092
 20
385.6000077391456
 30
0.0
 11
-298.5428203608644
 21
385.6000077391456
 31
0.0
  0
LINE
  5
295
330
49
100
AcDbEntity
  8
0
  6
Continuous
 62
     7
100
AcDbLine
 10
-296.9571797148092
 20
385.6000077391456
 30
0.0
 11
-296.8500000378368
 21
386.0000077391455
 31
0.0
  0
LINE
  5
296
330
49
100
AcDbEntity
  8
0
  6
Continuous
 62
     7
100
AcDbLine
 10
-298.3284610069194
 20
383.0000077391455
 30
0.0
 11
-298.3284610069194
 21
384.8000077391456
 31
0.0
  0
LINE
  5
297
330
49
100
AcDbEntity
  8
0
  6
Continuous
 62
     7
100
AcDbLine
 10
-286.3284610069194
 20
383.0000077391455
 30
0.0
 11
-286.3284610069194
 21
384.8000077391456
 31
0.0
  0
LINE
  5
298
330
49
100
AcDbEntity
  8
0
  6
Continuous
 62
     7
100
AcDbLine
 10
-297.1715390687542
 20
383.0000077391455
 30
0.0
 11
-297.1715390687542
 21
384.8000077391456
 31
0.0
  0
LINE
  5
299
330
49
100
AcDbEntity
  8
0
  6
Continuous
 62
     7
100
AcDbLine
 10
-289.3284610069194
 20
383.0000077391455
 30
0.0
 11
-289.3284610069194
 21
384.8000077391456
 31
0.0
  0
LINE
  5
29A
330
49
100
AcDbEntity
  8
0
  6
Continuous
 62
     7
100
AcDbLine
 10
-283.3284610069194
 20
383.0000077391455
 30
0.0
 11
-283.3284610069194
 21
384.8000077391456
 31
0.0
  0
LINE
  5
29B
330
49
100
AcDbEntity
  8
0
  6
Continuous
 62
     7
100
AcDbLine
 10
-282.1715390687542
 20
383.0000077391455
 30
0.0
 11
-282.1715390687542
 21
384.8000077391456
 31
0.0
  0
LINE
  5
29C
330
49
100
AcDbEntity
  8
0
  6
Continuous
 62
     7
100
AcDbLine
 10
-280.3284610069194
 20
383.0000077391455
 30
0.0
 11
-280.3284610069194
 21
384.8000077391456
 31
0.0
  0
LINE
  5
29D
330
49
100
AcDbEntity
  8
0
  6
Continuous
 62
     7
100
AcDbLine
 10
-279.1715390687542
 20
383.0000077391455
 30
0.0
 11
-279.1715390687542
 21
384.8000077391456
 31
0.0
  0
LINE
  5
29E
330
49
100
AcDbEntity
  8
0
  6
Continuous
 62
     7
100
AcDbLine
 10
-276.1715390687542
 20
383.0000077391455
 30
0.0
 11
-276.1715390687542
 21
384.8000077391456
 31
0.0
  0
LINE
  5
29F
330
49
100
AcDbEntity
  8
0
  6
Continuous
 62
     7
100
AcDbLine
 10
-277.3284610069194
 20
383.0000077391455
 30
0.0
 11
-277.3284610069194
 21
384.8000077391456
 31
0.0
  0
LINE
  5
2A0
330
49
100
AcDbEntity
  8
0
  6
Continuous
 62
     7
100
AcDbLine
 10
-276.1715390687542
 20
384.8000077391456
 30
0.0
 11
-277.3284610069194
 21
384.8000077391456
 31
0.0
  0
LINE
  5
2A1
330
49
100
AcDbEntity
  8
0
  6
Continuous
 62
     7
100
AcDbLine
 10
-279.1715390687542
 20
384.8000077391456
 30
0.0
 11
-280.3284610069194
 21
384.8000077391456
 31
0.0
  0
LINE
  5
2A2
330
49
100
AcDbEntity
  8
0
  6
Continuous
 62
     7
100
AcDbLine
 10
-282.1715390687542
 20
384.8000077391456
 30
0.0
 11
-283.3284610069194
 21
384.8000077391456
 31
0.0
  0
LINE
  5
2A3
330
49
100
AcDbEntity
  8
0
  6
Continuous
 62
     7
100
AcDbLine
 10
-288.1715390687542
 20
383.0000077391455
 30
0.0
 11
-288.1715390687542
 21
384.8000077391456
 31
0.0
  0
LINE
  5
2A4
330
49
100
AcDbEntity
  8
0
  6
Continuous
 62
     7
100
AcDbLine
 10
-288.1715390687542
 20
384.8000077391456
 30
0.0
 11
-289.3284610069194
 21
384.8000077391456
 31
0.0
  0
LINE
  5
2A5
330
49
100
AcDbEntity
  8
0
  6
Continuous
 62
     7
100
AcDbLine
 10
-285.1715390687542
 20
383.0000077391455
 30
0.0
 11
-285.1715390687542
 21
384.8000077391456
 31
0.0
  0
LINE
  5
2A6
330
49
100
AcDbEntity
  8
0
  6
Continuous
 62
     7
100
AcDbLine
 10
-285.1715390687542
 20
384.8000077391456
 30
0.0
 11
-286.3284610069194
 21
384.8000077391456
 31
0.0
  0
LINE
  5
2A7
330
49
100
AcDbEntity
  8
0
  6
Continuous
 62
     7
100
AcDbLine
 10
-291.1715390687542
 20
383.0000077391455
 30
0.0
 11
-291.1715390687542
 21
384.8000077391456
 31
0.0
  0
LINE
  5
2A8
330
49
100
AcDbEntity
  8
0
  6
Continuous
 62
     7
100
AcDbLine
 10
-291.1715390687542
 20
384.8000077391456
 30
0.0
 11
-292.3284610069194
 21
384.8000077391456
 31
0.0
  0
LINE
  5
2A9
330
49
100
AcDbEntity
  8
0
  6
Continuous
 62
     7
100
AcDbLine
 10
-292.3284610069194
 20
383.0000077391455
 30
0.0
 11
-292.3284610069194
 21
384.8000077391456
 31
0.0
  0
LINE
  5
2AA
330
49
100
AcDbEntity
  8
0
  6
Continuous
 62
     7
100
AcDbLine
 10
-295.3284610069194
 20
383.0000077391455
 30
0.0
 11
-295.3284610069194
 21
384.8000077391456
 31
0.0
  0
LINE
  5
2AB
330
49
100
AcDbEntity
  8
0
  6
Continuous
 62
     7
100
AcDbLine
 10
-294.1715390687542
 20
383.0000077391455
 30
0.0
 11
-294.1715390687542
 21
384.8000077391456
 31
0.0
  0
LINE
  5
2AC
330
49
100
AcDbEntity
  8
0
  6
Continuous
 62
     7
100
AcDbLine
 10
-294.1715390687542
 20
384.8000077391456
 30
0.0
 11
-295.3284610069194
 21
384.8000077391456
 31
0.0
  0
LINE
  5
2AD
330
49
100
AcDbEntity
  8
0
  6
Continuous
 62
     7
100
AcDbLine
 10
-297.1715390687542
 20
384.8000077391456
 30
0.0
 11
-298.3284610069194
 21
384.8000077391456
 31
0.0
  0
LINE
  5
2AE
330
49
100
AcDbEntity
  8
0
  6
Continuous
 62
     7
100
AcDbLine
 10
-277.6500000378368
 20
386.0000077391455
 30
0.0
 11
-278.8500000378368
 21
386.0000077391455
 31
0.0
  0
LINE
  5
2AF
330
49
100
AcDbEntity
  8
0
  6
Continuous
 62
     7
100
AcDbLine
 10
-269.0000000378368
 20
388.0000077391455
 30
0.0
 11
-251.5000000378368
 21
388.0000077391455
 31
0.0
  0
LINE
  5
2B0
330
49
100
AcDbEntity
  8
0
  6
Continuous
 62
     7
100
AcDbLine
 10
-270.0000000378368
 20
382.5000077391455
 30
0.0
 11
-270.0000000378368
 21
290.5000077391456
 31
0.0
  0
LINE
  5
2B1
330
49
100
AcDbEntity
  8
0
  6
Continuous
 62
     7
100
AcDbLine
 10
-319.8000000378368
 20
341.000015260586
 30
0.0
 11
-319.8000000378368
 21
359.0000077391459
 31
0.0
  0
LINE
  5
2B2
330
49
100
AcDbEntity
  8
0
  6
Continuous
 62
     7
100
AcDbLine
 10
-319.5000000378368
 20
359.0000077391459
 30
0.0
 11
-319.5000000378368
 21
341.000015260586
 31
0.0
  0
LINE
  5
2B3
330
49
100
AcDbEntity
  8
0
  6
Continuous
 62
     7
100
AcDbLine
 10
-319.5000000378368
 20
364.0000077391456
 30
0.0
 11
-319.5000000378368
 21
359.0000077391459
 31
0.0
  0
LINE
  5
2B4
330
49
100
AcDbEntity
  8
0
  6
Continuous
 62
     7
100
AcDbLine
 10
-319.5000000378368
 20
335.7558809703323
 30
0.0
 11
-319.5000000378368
 21
337.2441345079587
 31
0.0
  0
LINE
  5
2B5
330
49
100
AcDbEntity
  8
0
  6
Continuous
 62
     7
100
AcDbLine
 10
-319.5000000378368
 20
368.5000077391456
 30
0.0
 11
-319.8000000378368
 21
368.5000077391456
 31
0.0
  0
LINE
  5
2B6
330
49
100
AcDbEntity
  8
0
  6
Continuous
 62
     7
100
AcDbLine
 10
-319.5000000378368
 20
368.7500077391456
 30
0.0
 11
-319.8000000378368
 21
368.7500077391456
 31
0.0
  0
LINE
  5
2B7
330
49
100
AcDbEntity
  8
0
  6
Continuous
 62
     7
100
AcDbLine
 10
-319.5000000378368
 20
369.0000077391456
 30
0.0
 11
-319.8000000378368
 21
369.0000077391456
 31
0.0
  0
LINE
  5
2B8
330
49
100
AcDbEntity
  8
0
  6
Continuous
 62
     7
100
AcDbLine
 10
-319.5000000378368
 20
368.9375077391456
 30
0.0
 11
-319.8000000378368
 21
368.9375077391456
 31
0.0
  0
LINE
  5
2B9
330
49
100
AcDbEntity
  8
0
  6
Continuous
 62
     7
100
AcDbLine
 10
-319.5000000378368
 20
369.0000077391456
 30
0.0
 11
-319.5000000378368
 21
368.9375077391456
 31
0.0
  0
LINE
  5
2BA
330
49
100
AcDbEntity
  8
0
  6
Continuous
 62
     7
100
AcDbLine
 10
-319.8000000378368
 20
369.0000077391456
 30
0.0
 11
-319.8000000378368
 21
368.9375077391456
 31
0.0
  0
LINE
  5
2BB
330
49
100
AcDbEntity
  8
0
  6
Continuous
 62
     7
100
AcDbLine
 10
-319.8000000378368
 20
368.9375077391456
 30
0.0
 11
-319.8000000378368
 21
368.7500077391456
 31
0.0
  0
LINE
  5
2BC
330
49
100
AcDbEntity
  8
0
  6
Continuous
 62
     7
100
AcDbLine
 10
-319.5000000378368
 20
368.9375077391456
 30
0.0
 11
-319.5000000378368
 21
368.7500077391456
 31
0.0
  0
LINE
  5
2BD
330
49
100
AcDbEntity
  8
0
  6
Continuous
 62
     7
100
AcDbLine
 10
-319.5000000378368
 20
368.7500077391456
 30
0.0
 11
-319.5000000378368
 21
368.5000077391456
 31
0.0
  0
LINE
  5
2BE
330
49
100
AcDbEntity
  8
0
  6
Continuous
 62
     7
100
AcDbLine
 10
-319.8000000378368
 20
368.7500077391456
 30
0.0
 11
-319.8000000378368
 21
368.5000077391456
 31
0.0
  0
LINE
  5
2BF
330
49
100
AcDbEntity
  8
0
  6
Continuous
 62
     7
100
AcDbLine
 10
-319.5000000378368
 20
367.3125077391456
 30
0.0
 11
-319.5000000378368
 21
366.8750077391456
 31
0.0
  0
LINE
  5
2C0
330
49
100
AcDbEntity
  8
0
  6
Continuous
 62
     7
100
AcDbLine
 10
-319.8000000378368
 20
367.6875077391456
 30
0.0
 11
-319.8000000378368
 21
367.3125077391456
 31
0.0
  0
LINE
  5
2C1
330
49
100
AcDbEntity
  8
0
  6
Continuous
 62
     7
100
AcDbLine
 10
-319.8000000378368
 20
367.3125077391456
 30
0.0
 11
-319.8000000378368
 21
366.8750077391456
 31
0.0
  0
LINE
  5
2C2
330
49
100
AcDbEntity
  8
0
  6
Continuous
 62
     7
100
AcDbLine
 10
-319.5000000378368
 20
368.1250077391456
 30
0.0
 11
-319.5000000378368
 21
367.6875077391456
 31
0.0
  0
LINE
  5
2C3
330
49
100
AcDbEntity
  8
0
  6
Continuous
 62
     7
100
AcDbLine
 10
-319.8000000378368
 20
366.8750077391456
 30
0.0
 11
-319.8000000378368
 21
366.5000077391456
 31
0.0
  0
LINE
  5
2C4
330
49
100
AcDbEntity
  8
0
  6
Continuous
 62
     7
100
AcDbLine
 10
-319.5000000378368
 20
364.0000077391456
 30
0.0
 11
-319.8000000378368
 21
364.0000077391456
 31
0.0
  0
LINE
  5
2C5
330
49
100
AcDbEntity
  8
0
  6
Continuous
 62
     7
100
AcDbLine
 10
-319.5000000378368
 20
366.5000077391456
 30
0.0
 11
-319.8000000378368
 21
366.5000077391456
 31
0.0
  0
LINE
  5
2C6
330
49
100
AcDbEntity
  8
0
  6
Continuous
 62
     7
100
AcDbLine
 10
-319.8000000378368
 20
366.5000077391456
 30
0.0
 11
-319.8000000378368
 21
366.2500077391456
 31
0.0
  0
LINE
  5
2C7
330
49
100
AcDbEntity
  8
0
  6
Continuous
 62
     7
100
AcDbLine
 10
-319.5000000378368
 20
366.2500077391456
 30
0.0
 11
-319.8000000378368
 21
366.2500077391456
 31
0.0
  0
LINE
  5
2C8
330
49
100
AcDbEntity
  8
0
  6
Continuous
 62
     7
100
AcDbLine
 10
-319.5000000378368
 20
366.5000077391456
 30
0.0
 11
-319.5000000378368
 21
366.2500077391456
 31
0.0
  0
LINE
  5
2C9
330
49
100
AcDbEntity
  8
0
  6
Continuous
 62
     7
100
AcDbLine
 10
-319.8000000378368
 20
366.2500077391456
 30
0.0
 11
-319.8000000378368
 21
366.0625077391456
 31
0.0
  0
LINE
  5
2CA
330
49
100
AcDbEntity
  8
0
  6
Continuous
 62
     7
100
AcDbLine
 10
-319.8000000378368
 20
366.0000077391456
 30
0.0
 11
-319.8000000378368
 21
364.0000077391456
 31
0.0
  0
LINE
  5
2CB
330
49
100
AcDbEntity
  8
0
  6
Continuous
 62
     7
100
AcDbLine
 10
-319.8000000378368
 20
366.0625077391456
 30
0.0
 11
-319.8000000378368
 21
366.0000077391456
 31
0.0
  0
LINE
  5
2CC
330
49
100
AcDbEntity
  8
0
  6
Continuous
 62
     7
100
AcDbLine
 10
-319.5000000378368
 20
366.0000077391456
 30
0.0
 11
-319.5000000378368
 21
364.0000077391456
 31
0.0
  0
LINE
  5
2CD
330
49
100
AcDbEntity
  8
0
  6
Continuous
 62
     7
100
AcDbLine
 10
-319.5000000378368
 20
366.0625077391456
 30
0.0
 11
-319.5000000378368
 21
366.0000077391456
 31
0.0
  0
LINE
  5
2CE
330
49
100
AcDbEntity
  8
0
  6
Continuous
 62
     7
100
AcDbLine
 10
-319.5000000378368
 20
366.2500077391456
 30
0.0
 11
-319.5000000378368
 21
366.0625077391456
 31
0.0
  0
LINE
  5
2CF
330
49
100
AcDbEntity
  8
0
  6
Continuous
 62
     7
100
AcDbLine
 10
-319.5000000378368
 20
366.0000077391456
 30
0.0
 11
-319.8000000378368
 21
366.0000077391456
 31
0.0
  0
LINE
  5
2D0
330
49
100
AcDbEntity
  8
0
  6
Continuous
 62
     7
100
AcDbLine
 10
-319.5000000378368
 20
366.0625077391456
 30
0.0
 11
-319.8000000378368
 21
366.0625077391456
 31
0.0
  0
LINE
  5
2D1
330
49
100
AcDbEntity
  8
0
  6
Continuous
 62
     7
100
AcDbLine
 10
-319.5000000378368
 20
367.3125077391456
 30
0.0
 11
-319.8000000378368
 21
367.3125077391456
 31
0.0
  0
LINE
  5
2D2
330
49
100
AcDbEntity
  8
0
  6
Continuous
 62
     7
100
AcDbLine
 10
-319.5000000378368
 20
366.8750077391456
 30
0.0
 11
-319.8000000378368
 21
366.8750077391456
 31
0.0
  0
LINE
  5
2D3
330
49
100
AcDbEntity
  8
0
  6
Continuous
 62
     7
100
AcDbLine
 10
-319.5000000378368
 20
366.8750077391456
 30
0.0
 11
-319.5000000378368
 21
366.5000077391456
 31
0.0
  0
LINE
  5
2D4
330
49
100
AcDbEntity
  8
0
  6
Continuous
 62
     7
100
AcDbLine
 10
-319.5000000378368
 20
368.1250077391456
 30
0.0
 11
-319.8000000378368
 21
368.1250077391456
 31
0.0
  0
LINE
  5
2D5
330
49
100
AcDbEntity
  8
0
  6
Continuous
 62
     7
100
AcDbLine
 10
-319.5000000378368
 20
367.6875077391456
 30
0.0
 11
-319.8000000378368
 21
367.6875077391456
 31
0.0
  0
LINE
  5
2D6
330
49
100
AcDbEntity
  8
0
  6
Continuous
 62
     7
100
AcDbLine
 10
-319.5000000378368
 20
367.6875077391456
 30
0.0
 11
-319.5000000378368
 21
367.3125077391456
 31
0.0
  0
LINE
  5
2D7
330
49
100
AcDbEntity
  8
0
  6
Continuous
 62
     7
100
AcDbLine
 10
-319.8000000378368
 20
368.1250077391456
 30
0.0
 11
-319.8000000378368
 21
367.6875077391456
 31
0.0
  0
LINE
  5
2D8
330
49
100
AcDbEntity
  8
0
  6
Continuous
 62
     7
100
AcDbLine
 10
-319.8000000378368
 20
368.5000077391456
 30
0.0
 11
-319.8000000378368
 21
368.1250077391456
 31
0.0
  0
LINE
  5
2D9
330
49
100
AcDbEntity
  8
0
  6
Continuous
 62
     7
100
AcDbLine
 10
-319.5000000378368
 20
368.5000077391456
 30
0.0
 11
-319.5000000378368
 21
368.1250077391456
 31
0.0
  0
LINE
  5
2DA
330
49
100
AcDbEntity
  8
0
  6
Continuous
 62
     7
100
AcDbLine
 10
-319.5000000378368
 20
341.000015260586
 30
0.0
 11
-319.8000000378368
 21
341.000015260586
 31
0.0
  0
LINE
  5
2DB
330
49
100
AcDbEntity
  8
0
  6
Continuous
 62
     7
100
AcDbLine
 10
-319.5000000378368
 20
359.0000077391459
 30
0.0
 11
-319.8000000378368
 21
359.0000077391459
 31
0.0
  0
LINE
  5
2DC
330
49
100
AcDbEntity
  8
0
  6
Continuous
 62
     7
100
AcDbLine
 10
-319.5000000378368
 20
341.000015260586
 30
0.0
 11
-319.5000000378368
 21
337.2720711235521
 31
0.0
  0
LINE
  5
2DD
330
49
100
AcDbEntity
  8
0
  6
Continuous
 62
     7
100
AcDbLine
 10
-319.8000000378368
 20
341.000015260586
 30
0.0
 11
-319.8000000378368
 21
336.0203039452898
 31
0.0
  0
LINE
  5
2DE
330
49
100
AcDbEntity
  8
0
  6
Continuous
 62
     7
100
AcDbLine
 10
-308.9571797148092
 20
337.2441345079587
 30
0.0
 11
-310.5428203608644
 21
337.2441345079587
 31
0.0
  0
LINE
  5
2DF
330
49
100
AcDbEntity
  8
0
  6
Continuous
 62
     7
100
AcDbLine
 10
-311.9571797148092
 20
337.2441345079587
 30
0.0
 11
-313.5428203608644
 21
337.2441345079587
 31
0.0
  0
LINE
  5
2E0
330
49
100
AcDbEntity
  8
0
  6
Continuous
 62
     7
100
AcDbLine
 10
-314.9571797148093
 20
335.7558809703323
 30
0.0
 11
-316.5428203608644
 21
335.7558809703323
 31
0.0
  0
LINE
  5
2E1
330
49
100
AcDbEntity
  8
0
  6
Continuous
 62
     7
100
AcDbLine
 10
-308.9571797148093
 20
335.7558809703323
 30
0.0
 11
-308.9571797148092
 21
337.2441345079587
 31
0.0
  0
LINE
  5
2E2
330
49
100
AcDbEntity
  8
0
  6
Continuous
 62
     7
100
AcDbLine
 10
-314.9571797148093
 20
335.7558809703323
 30
0.0
 11
-314.9571797148092
 21
337.2441345079587
 31
0.0
  0
LINE
  5
2E3
330
49
100
AcDbEntity
  8
0
  6
Continuous
 62
     7
100
AcDbLine
 10
-315.1715390687542
 20
335.727944354739
 30
0.0
 11
-314.9571797148093
 21
335.7558809703323
 31
0.0
  0
LINE
  5
2E4
330
49
100
AcDbEntity
  8
0
  6
Continuous
 62
     7
100
AcDbLine
 10
-312.1715390687542
 20
335.727944354739
 30
0.0
 11
-313.3284610069194
 21
335.727944354739
 31
0.0
  0
LINE
  5
2E5
330
49
100
AcDbEntity
  8
0
  6
Continuous
 62
     7
100
AcDbLine
 10
-310.3284610069194
 20
337.2720711235522
 30
0.0
 11
-309.1715390687542
 21
337.2720711235522
 31
0.0
  0
LINE
  5
2E6
330
49
100
AcDbEntity
  8
0
  6
Continuous
 62
     7
100
AcDbLine
 10
-316.3284610069195
 20
337.2720711235522
 30
0.0
 11
-315.1715390687542
 21
337.2720711235522
 31
0.0
  0
LINE
  5
2E7
330
49
100
AcDbEntity
  8
0
  6
Continuous
 62
     7
100
AcDbLine
 10
-315.1715390687542
 20
335.727944354739
 30
0.0
 11
-316.3284610069195
 21
335.727944354739
 31
0.0
  0
LINE
  5
2E8
330
49
100
AcDbEntity
  8
0
  6
Continuous
 62
     7
100
AcDbLine
 10
-313.5428203608644
 20
337.2441345079587
 30
0.0
 11
-313.5428203608644
 21
335.7558809703323
 31
0.0
  0
LINE
  5
2E9
330
49
100
AcDbEntity
  8
0
  6
Continuous
 62
     7
100
AcDbLine
 10
-311.9571797148093
 20
335.7558809703323
 30
0.0
 11
-311.9571797148092
 21
337.2441345079587
 31
0.0
  0
LINE
  5
2EA
330
49
100
AcDbEntity
  8
0
  6
Continuous
 62
     7
100
AcDbLine
 10
-310.5428203608644
 20
337.2441345079587
 30
0.0
 11
-310.5428203608644
 21
335.7558809703323
 31
0.0
  0
LINE
  5
2EB
330
49
100
AcDbEntity
  8
0
  6
Continuous
 62
     7
100
AcDbLine
 10
-307.5428203608644
 20
337.2441345079587
 30
0.0
 11
-307.5428203608644
 21
335.7558809703323
 31
0.0
  0
LINE
  5
2EC
330
49
100
AcDbEntity
  8
0
  6
Continuous
 62
     7
100
AcDbLine
 10
-307.3284610069194
 20
337.2720711235522
 30
0.0
 11
-307.5428203608644
 21
337.2441345079587
 31
0.0
  0
LINE
  5
2ED
330
49
100
AcDbEntity
  8
0
  6
Continuous
 62
     7
100
AcDbLine
 10
-316.5428203608644
 20
335.7558809703323
 30
0.0
 11
-316.3284610069195
 21
335.727944354739
 31
0.0
  0
LINE
  5
2EE
330
49
100
AcDbEntity
  8
0
  6
Continuous
 62
     7
100
AcDbLine
 10
-316.3284610069195
 20
337.2720711235522
 30
0.0
 11
-316.5428203608644
 21
337.2441345079587
 31
0.0
  0
LINE
  5
2EF
330
49
100
AcDbEntity
  8
0
  6
Continuous
 62
     7
100
AcDbLine
 10
-314.9571797148092
 20
337.2441345079587
 30
0.0
 11
-316.5428203608644
 21
337.2441345079587
 31
0.0
  0
LINE
  5
2F0
330
49
100
AcDbEntity
  8
0
  6
Continuous
 62
     7
100
AcDbLine
 10
-316.5428203608644
 20
337.2441345079587
 30
0.0
 11
-316.5428203608644
 21
335.7558809703323
 31
0.0
  0
LINE
  5
2F1
330
49
100
AcDbEntity
  8
0
  6
Continuous
 62
     7
100
AcDbLine
 10
-317.9571797148093
 20
335.7558809703323
 30
0.0
 11
-317.9571797148092
 21
337.2441345079587
 31
0.0
  0
LINE
  5
2F2
330
49
100
AcDbEntity
  8
0
  6
Continuous
 62
     3
100
AcDbLine
 10
-269.0000000378368
 20
382.5000077391455
 30
0.0
 11
-269.0000000378368
 21
290.5000077391456
 31
0.0
  0
LINE
  5
2F3
330
49
100
AcDbEntity
  8
0
  6
Continuous
 62
     7
100
AcDbLine
 10
-296.9571797148092
 20
337.2441345079587
 30
0.0
 11
-298.5428203608644
 21
337.2441345079587
 31
0.0
  0
LINE
  5
2F4
330
49
100
AcDbEntity
  8
0
  6
Continuous
 62
     7
100
AcDbLine
 10
-302.9571797148092
 20
337.2441345079587
 30
0.0
 11
-304.5428203608644
 21
337.2441345079587
 31
0.0
  0
LINE
  5
2F5
330
49
100
AcDbEntity
  8
0
  6
Continuous
 62
     7
100
AcDbLine
 10
-306.1715390687542
 20
335.727944354739
 30
0.0
 11
-307.3284610069194
 21
335.727944354739
 31
0.0
  0
LINE
  5
2F6
330
49
100
AcDbEntity
  8
0
  6
Continuous
 62
     7
100
AcDbLine
 10
-305.9571797148093
 20
337.2441345079587
 30
0.0
 11
-306.1715390687542
 21
337.2720711235522
 31
0.0
  0
LINE
  5
2F7
330
49
100
AcDbEntity
  8
0
  6
Continuous
 62
     7
100
AcDbLine
 10
-300.1715390687542
 20
335.727944354739
 30
0.0
 11
-301.3284610069194
 21
335.727944354739
 31
0.0
  0
LINE
  5
2F8
330
49
100
AcDbEntity
  8
0
  6
Continuous
 62
     7
100
AcDbLine
 10
-301.3284610069194
 20
337.2720711235522
 30
0.0
 11
-301.5428203608644
 21
337.2441345079587
 31
0.0
  0
LINE
  5
2F9
330
49
100
AcDbEntity
  8
0
  6
Continuous
 62
     7
100
AcDbLine
 10
-304.5428203608644
 20
337.2441345079587
 30
0.0
 11
-304.5428203608644
 21
335.7558809703323
 31
0.0
  0
LINE
  5
2FA
330
49
100
AcDbEntity
  8
0
  6
Continuous
 62
     7
100
AcDbLine
 10
-304.3284610069194
 20
337.2720711235522
 30
0.0
 11
-304.5428203608644
 21
337.2441345079587
 31
0.0
  0
LINE
  5
2FB
330
49
100
AcDbEntity
  8
0
  6
Continuous
 62
     7
100
AcDbLine
 10
-305.9571797148093
 20
335.7558809703323
 30
0.0
 11
-305.9571797148093
 21
337.2441345079587
 31
0.0
  0
LINE
  5
2FC
330
49
100
AcDbEntity
  8
0
  6
Continuous
 62
     7
100
AcDbLine
 10
-302.9571797148092
 20
337.2441345079587
 30
0.0
 11
-303.1715390687542
 21
337.2720711235522
 31
0.0
  0
LINE
  5
2FD
330
49
100
AcDbEntity
  8
0
  6
Continuous
 62
     7
100
AcDbLine
 10
-302.9571797148092
 20
335.7558809703323
 30
0.0
 11
-302.9571797148092
 21
337.2441345079587
 31
0.0
  0
LINE
  5
2FE
330
49
100
AcDbEntity
  8
0
  6
Continuous
 62
     7
100
AcDbLine
 10
-301.3284610069194
 20
337.2720711235522
 30
0.0
 11
-300.1715390687542
 21
337.2720711235522
 31
0.0
  0
LINE
  5
2FF
330
49
100
AcDbEntity
  8
0
  6
Continuous
 62
     7
100
AcDbLine
 10
-301.5428203608644
 20
337.2441345079587
 30
0.0
 11
-301.5428203608644
 21
335.7558809703323
 31
0.0
  0
LINE
  5
300
330
49
100
AcDbEntity
  8
0
  6
Continuous
 62
     7
100
AcDbLine
 10
-285.1715390687542
 20
335.727944354739
 30
0.0
 11
-286.3284610069194
 21
335.727944354739
 31
0.0
  0
LINE
  5
301
330
49
100
AcDbEntity
  8
0
  6
Continuous
 62
     7
100
AcDbLine
 10
-286.5428203608644
 20
337.2441345079587
 30
0.0
 11
-286.5428203608644
 21
335.7558809703323
 31
0.0
  0
LINE
  5
302
330
49
100
AcDbEntity
  8
0
  6
Continuous
 62
     7
100
AcDbLine
 10
-286.3284610069194
 20
337.2720711235522
 30
0.0
 11
-286.5428203608644
 21
337.2441345079587
 31
0.0
  0
LINE
  5
303
330
49
100
AcDbEntity
  8
0
  6
Continuous
 62
     7
100
AcDbLine
 10
-290.9571797148092
 20
337.2441345079587
 30
0.0
 11
-292.5428203608644
 21
337.2441345079587
 31
0.0
  0
LINE
  5
304
330
49
100
AcDbEntity
  8
0
  6
Continuous
 62
     7
100
AcDbLine
 10
-292.5428203608644
 20
337.2441345079587
 30
0.0
 11
-292.5428203608644
 21
335.7558809703323
 31
0.0
  0
LINE
  5
305
330
49
100
AcDbEntity
  8
0
  6
Continuous
 62
     7
100
AcDbLine
 10
-290.9571797148092
 20
335.7558809703323
 30
0.0
 11
-290.9571797148092
 21
337.2441345079587
 31
0.0
  0
LINE
  5
306
330
49
100
AcDbEntity
  8
0
  6
Continuous
 62
     7
100
AcDbLine
 10
-293.9571797148092
 20
335.7558809703323
 30
0.0
 11
-293.9571797148092
 21
337.2441345079587
 31
0.0
  0
LINE
  5
307
330
49
100
AcDbEntity
  8
0
  6
Continuous
 62
     7
100
AcDbLine
 10
-287.9571797148092
 20
335.7558809703323
 30
0.0
 11
-287.9571797148092
 21
337.2441345079587
 31
0.0
  0
LINE
  5
308
330
49
100
AcDbEntity
  8
0
  6
Continuous
 62
     7
100
AcDbLine
 10
-289.5428203608644
 20
337.2441345079587
 30
0.0
 11
-289.5428203608644
 21
335.7558809703323
 31
0.0
  0
LINE
  5
309
330
49
100
AcDbEntity
  8
0
  6
Continuous
 62
     7
100
AcDbLine
 10
-299.9571797148093
 20
337.2441345079587
 30
0.0
 11
-301.5428203608644
 21
337.2441345079587
 31
0.0
  0
LINE
  5
30A
330
49
100
AcDbEntity
  8
0
  6
Continuous
 62
     7
100
AcDbLine
 10
-299.9571797148093
 20
337.2441345079587
 30
0.0
 11
-300.1715390687542
 21
337.2720711235522
 31
0.0
  0
LINE
  5
30B
330
49
100
AcDbEntity
  8
0
  6
Continuous
 62
     7
100
AcDbLine
 10
-298.3284610069194
 20
337.2720711235522
 30
0.0
 11
-298.5428203608644
 21
337.2441345079587
 31
0.0
  0
LINE
  5
30C
330
49
100
AcDbEntity
  8
0
  6
Continuous
 62
     7
100
AcDbLine
 10
-293.9571797148092
 20
337.2441345079587
 30
0.0
 11
-294.1715390687542
 21
337.2720711235522
 31
0.0
  0
LINE
  5
30D
330
49
100
AcDbEntity
  8
0
  6
Continuous
 62
     7
100
AcDbLine
 10
-290.9571797148092
 20
337.2441345079587
 30
0.0
 11
-291.1715390687542
 21
337.2720711235522
 31
0.0
  0
LINE
  5
30E
330
49
100
AcDbEntity
  8
0
  6
Continuous
 62
     7
100
AcDbLine
 10
-292.3284610069194
 20
337.2720711235522
 30
0.0
 11
-292.5428203608644
 21
337.2441345079587
 31
0.0
  0
LINE
  5
30F
330
49
100
AcDbEntity
  8
0
  6
Continuous
 62
     7
100
AcDbLine
 10
-295.3284610069194
 20
337.2720711235522
 30
0.0
 11
-295.5428203608644
 21
337.2441345079587
 31
0.0
  0
LINE
  5
310
330
49
100
AcDbEntity
  8
0
  6
Continuous
 62
     7
100
AcDbLine
 10
-296.9571797148092
 20
337.2441345079587
 30
0.0
 11
-297.1715390687542
 21
337.2720711235522
 31
0.0
  0
LINE
  5
311
330
49
100
AcDbEntity
  8
0
  6
Continuous
 62
     7
100
AcDbLine
 10
-293.9571797148092
 20
337.2441345079587
 30
0.0
 11
-295.5428203608644
 21
337.2441345079587
 31
0.0
  0
LINE
  5
312
330
49
100
AcDbEntity
  8
0
  6
Continuous
 62
     7
100
AcDbLine
 10
-289.3284610069194
 20
337.2720711235522
 30
0.0
 11
-289.5428203608644
 21
337.2441345079587
 31
0.0
  0
LINE
  5
313
330
49
100
AcDbEntity
  8
0
  6
Continuous
 62
     7
100
AcDbLine
 10
-299.9571797148093
 20
335.7558809703323
 30
0.0
 11
-299.9571797148093
 21
337.2441345079587
 31
0.0
  0
LINE
  5
314
330
49
100
AcDbEntity
  8
0
  6
Continuous
 62
     7
100
AcDbLine
 10
-295.5428203608644
 20
337.2441345079587
 30
0.0
 11
-295.5428203608644
 21
335.7558809703323
 31
0.0
  0
LINE
  5
315
330
49
100
AcDbEntity
  8
0
  6
Continuous
 62
     7
100
AcDbLine
 10
-296.9571797148092
 20
335.7558809703323
 30
0.0
 11
-296.9571797148092
 21
337.2441345079587
 31
0.0
  0
LINE
  5
316
330
49
100
AcDbEntity
  8
0
  6
Continuous
 62
     7
100
AcDbLine
 10
-298.5428203608644
 20
337.2441345079587
 30
0.0
 11
-298.5428203608644
 21
335.7558809703323
 31
0.0
  0
LINE
  5
317
330
49
100
AcDbEntity
  8
0
  6
Continuous
 62
     7
100
AcDbLine
 10
-287.9571797148092
 20
337.2441345079587
 30
0.0
 11
-289.5428203608644
 21
337.2441345079587
 31
0.0
  0
LINE
  5
318
330
49
100
AcDbEntity
  8
0
  6
Continuous
 62
     7
100
AcDbLine
 10
-286.3284610069194
 20
337.2720711235522
 30
0.0
 11
-285.1715390687542
 21
337.2720711235522
 31
0.0
  0
LINE
  5
319
330
49
100
AcDbEntity
  8
0
  6
Continuous
 62
     7
100
AcDbLine
 10
-287.9571797148092
 20
337.2441345079587
 30
0.0
 11
-288.1715390687542
 21
337.2720711235522
 31
0.0
  0
LINE
  5
31A
330
49
100
AcDbEntity
  8
0
  6
Continuous
 62
     7
100
AcDbLine
 10
-278.9571797148092
 20
337.2441345079587
 30
0.0
 11
-280.5428203608644
 21
337.2441345079587
 31
0.0
  0
LINE
  5
31B
330
49
100
AcDbEntity
  8
0
  6
Continuous
 62
     7
100
AcDbLine
 10
-275.9571797148092
 20
337.2441345079587
 30
0.0
 11
-277.5428203608644
 21
337.2441345079587
 31
0.0
  0
LINE
  5
31C
330
49
100
AcDbEntity
  8
0
  6
Continuous
 62
     7
100
AcDbLine
 10
-275.9571797148092
 20
337.2441345079587
 30
0.0
 11
-276.1715390687542
 21
337.2720711235522
 31
0.0
  0
LINE
  5
31D
330
49
100
AcDbEntity
  8
0
  6
Continuous
 62
     7
100
AcDbLine
 10
-277.3284610069194
 20
337.2720711235522
 30
0.0
 11
-277.5428203608644
 21
337.2441345079587
 31
0.0
  0
LINE
  5
31E
330
49
100
AcDbEntity
  8
0
  6
Continuous
 62
     7
100
AcDbLine
 10
-278.9571797148092
 20
335.7558809703323
 30
0.0
 11
-278.9571797148092
 21
337.2441345079587
 31
0.0
  0
LINE
  5
31F
330
49
100
AcDbEntity
  8
0
  6
Continuous
 62
     7
100
AcDbLine
 10
-284.9571797148092
 20
337.2441345079587
 30
0.0
 11
-286.5428203608644
 21
337.2441345079587
 31
0.0
  0
LINE
  5
320
330
49
100
AcDbEntity
  8
0
  6
Continuous
 62
     7
100
AcDbLine
 10
-281.9571797148092
 20
337.2441345079587
 30
0.0
 11
-282.1715390687542
 21
337.2720711235522
 31
0.0
  0
LINE
  5
321
330
49
100
AcDbEntity
  8
0
  6
Continuous
 62
     7
100
AcDbLine
 10
-283.3284610069194
 20
337.2720711235522
 30
0.0
 11
-283.5428203608644
 21
337.2441345079587
 31
0.0
  0
LINE
  5
322
330
49
100
AcDbEntity
  8
0
  6
Continuous
 62
     7
100
AcDbLine
 10
-280.3284610069194
 20
337.2720711235522
 30
0.0
 11
-280.5428203608644
 21
337.2441345079587
 31
0.0
  0
LINE
  5
323
330
49
100
AcDbEntity
  8
0
  6
Continuous
 62
     7
100
AcDbLine
 10
-278.9571797148092
 20
337.2441345079587
 30
0.0
 11
-279.1715390687542
 21
337.2720711235522
 31
0.0
  0
LINE
  5
324
330
49
100
AcDbEntity
  8
0
  6
Continuous
 62
     7
100
AcDbLine
 10
-284.9571797148092
 20
337.2441345079587
 30
0.0
 11
-285.1715390687542
 21
337.2720711235522
 31
0.0
  0
LINE
  5
325
330
49
100
AcDbEntity
  8
0
  6
Continuous
 62
     7
100
AcDbLine
 10
-251.5000000378368
 20
382.5000077391455
 30
0.0
 11
-251.5000000378368
 21
290.5000077391456
 31
0.0
  0
LINE
  5
326
330
49
100
AcDbEntity
  8
0
  6
Continuous
 62
     7
100
AcDbLine
 10
-281.9571797148092
 20
337.2441345079587
 30
0.0
 11
-283.5428203608644
 21
337.2441345079587
 31
0.0
  0
LINE
  5
327
330
49
100
AcDbEntity
  8
0
  6
Continuous
 62
     7
100
AcDbLine
 10
-283.5428203608644
 20
337.2441345079587
 30
0.0
 11
-283.5428203608644
 21
335.7558809703323
 31
0.0
  0
LINE
  5
328
330
49
100
AcDbEntity
  8
0
  6
Continuous
 62
     7
100
AcDbLine
 10
-280.5428203608644
 20
337.2441345079587
 30
0.0
 11
-280.5428203608644
 21
335.7558809703323
 31
0.0
  0
LINE
  5
329
330
49
100
AcDbEntity
  8
0
  6
Continuous
 62
     7
100
AcDbLine
 10
-281.9571797148092
 20
335.7558809703323
 30
0.0
 11
-281.9571797148092
 21
337.2441345079587
 31
0.0
  0
LINE
  5
32A
330
49
100
AcDbEntity
  8
0
  6
Continuous
 62
     7
100
AcDbLine
 10
-284.9571797148092
 20
335.7558809703323
 30
0.0
 11
-284.9571797148092
 21
337.2441345079587
 31
0.0
  0
LINE
  5
32B
330
49
100
AcDbEntity
  8
0
  6
Continuous
 62
     7
100
AcDbLine
 10
-277.5428203608644
 20
335.7558809703323
 30
0.0
 11
-277.3284610069194
 21
335.727944354739
 31
0.0
  0
LINE
  5
32C
330
49
100
AcDbEntity
  8
0
  6
Continuous
 62
     7
100
AcDbLine
 10
-280.5428203608644
 20
335.7558809703323
 30
0.0
 11
-278.9571797148092
 21
335.7558809703323
 31
0.0
  0
LINE
  5
32D
330
49
100
AcDbEntity
  8
0
  6
Continuous
 62
     7
100
AcDbLine
 10
-279.1715390687542
 20
335.727944354739
 30
0.0
 11
-278.9571797148092
 21
335.7558809703323
 31
0.0
  0
LINE
  5
32E
330
49
100
AcDbEntity
  8
0
  6
Continuous
 62
     7
100
AcDbLine
 10
-276.1715390687542
 20
335.727944354739
 30
0.0
 11
-277.3284610069194
 21
335.727944354739
 31
0.0
  0
LINE
  5
32F
330
49
100
AcDbEntity
  8
0
  6
Continuous
 62
     7
100
AcDbLine
 10
-276.1715390687542
 20
335.727944354739
 30
0.0
 11
-275.9571797148092
 21
335.7558809703323
 31
0.0
  0
LINE
  5
330
330
49
100
AcDbEntity
  8
0
  6
Continuous
 62
     7
100
AcDbLine
 10
-277.5428203608644
 20
335.7558809703323
 30
0.0
 11
-275.9571797148092
 21
335.7558809703323
 31
0.0
  0
LINE
  5
331
330
49
100
AcDbEntity
  8
0
  6
Continuous
 62
     7
100
AcDbLine
 10
-277.5428203608644
 20
337.2441345079587
 30
0.0
 11
-277.5428203608644
 21
335.7558809703323
 31
0.0
  0
LINE
  5
332
330
49
100
AcDbEntity
  8
0
  6
Continuous
 62
     7
100
AcDbLine
 10
-277.3284610069194
 20
337.2720711235522
 30
0.0
 11
-276.1715390687542
 21
337.2720711235522
 31
0.0
  0
LINE
  5
333
330
49
100
AcDbEntity
  8
0
  6
Continuous
 62
     7
100
AcDbLine
 10
-280.3284610069194
 20
337.2720711235522
 30
0.0
 11
-279.1715390687542
 21
337.2720711235522
 31
0.0
  0
LINE
  5
334
330
49
100
AcDbEntity
  8
0
  6
Continuous
 62
     7
100
AcDbLine
 10
-283.3284610069194
 20
337.2720711235522
 30
0.0
 11
-282.1715390687542
 21
337.2720711235522
 31
0.0
  0
LINE
  5
335
330
49
100
AcDbEntity
  8
0
  6
Continuous
 62
     7
100
AcDbLine
 10
-289.3284610069194
 20
337.2720711235522
 30
0.0
 11
-288.1715390687542
 21
337.2720711235522
 31
0.0
  0
LINE
  5
336
330
49
100
AcDbEntity
  8
0
  6
Continuous
 62
     7
100
AcDbLine
 10
-292.3284610069194
 20
337.2720711235522
 30
0.0
 11
-291.1715390687542
 21
337.2720711235522
 31
0.0
  0
LINE
  5
337
330
49
100
AcDbEntity
  8
0
  6
Continuous
 62
     7
100
AcDbLine
 10
-295.3284610069194
 20
337.2720711235522
 30
0.0
 11
-294.1715390687542
 21
337.2720711235522
 31
0.0
  0
LINE
  5
338
330
49
100
AcDbEntity
  8
0
  6
Continuous
 62
     7
100
AcDbLine
 10
-298.3284610069194
 20
337.2720711235522
 30
0.0
 11
-297.1715390687542
 21
337.2720711235522
 31
0.0
  0
LINE
  5
339
330
49
100
AcDbEntity
  8
0
  6
Continuous
 62
     7
100
AcDbLine
 10
-304.3284610069194
 20
337.2720711235522
 30
0.0
 11
-303.1715390687542
 21
337.2720711235522
 31
0.0
  0
LINE
  5
33A
330
49
100
AcDbEntity
  8
0
  6
Continuous
 62
     7
100
AcDbLine
 10
-307.5428203608644
 20
337.2441345079587
 30
0.0
 11
-305.9571797148093
 21
337.2441345079587
 31
0.0
  0
LINE
  5
33B
330
49
100
AcDbEntity
  8
0
  6
Continuous
 62
     7
100
AcDbLine
 10
-317.9571797148092
 20
337.2441345079587
 30
0.0
 11
-319.5000000378368
 21
337.2441345079587
 31
0.0
  0
LINE
  5
33C
330
49
100
AcDbEntity
  8
0
  6
Continuous
 62
     7
100
AcDbLine
 10
-313.3284610069194
 20
337.2720711235522
 30
0.0
 11
-312.1715390687542
 21
337.2720711235522
 31
0.0
  0
LINE
  5
33D
330
49
100
AcDbEntity
  8
0
  6
Continuous
 62
     7
100
AcDbLine
 10
-318.1715390687535
 20
337.2720711235522
 30
0.0
 11
-319.5000000378368
 21
337.2720711235521
 31
0.0
  0
LINE
  5
33E
330
49
100
AcDbEntity
  8
0
  6
Continuous
 62
     7
100
AcDbLine
 10
-307.3284610069194
 20
337.2720711235522
 30
0.0
 11
-306.1715390687542
 21
337.2720711235522
 31
0.0
  0
LINE
  5
33F
330
49
100
AcDbEntity
  8
0
  6
Continuous
 62
     7
100
AcDbLine
 10
-308.9571797148092
 20
337.2441345079587
 30
0.0
 11
-309.1715390687542
 21
337.2720711235522
 31
0.0
  0
LINE
  5
340
330
49
100
AcDbEntity
  8
0
  6
Continuous
 62
     7
100
AcDbLine
 10
-313.3284610069194
 20
337.2720711235522
 30
0.0
 11
-313.5428203608644
 21
337.2441345079587
 31
0.0
  0
LINE
  5
341
330
49
100
AcDbEntity
  8
0
  6
Continuous
 62
     7
100
AcDbLine
 10
-311.9571797148092
 20
337.2441345079587
 30
0.0
 11
-312.1715390687542
 21
337.2720711235522
 31
0.0
  0
LINE
  5
342
330
49
100
AcDbEntity
  8
0
  6
Continuous
 62
     7
100
AcDbLine
 10
-310.3284610069194
 20
337.2720711235522
 30
0.0
 11
-310.5428203608644
 21
337.2441345079587
 31
0.0
  0
LINE
  5
343
330
49
100
AcDbEntity
  8
0
  6
Continuous
 62
     7
100
AcDbLine
 10
-317.9571797148092
 20
337.2441345079587
 30
0.0
 11
-318.1715390687535
 21
337.2720711235522
 31
0.0
  0
LINE
  5
344
330
49
100
AcDbEntity
  8
0
  6
Continuous
 62
     7
100
AcDbLine
 10
-314.9571797148092
 20
337.2441345079587
 30
0.0
 11
-315.1715390687542
 21
337.2720711235522
 31
0.0
  0
LINE
  5
345
330
49
100
AcDbEntity
  8
0
  6
Continuous
 62
     7
100
AcDbLine
 10
-319.5000000378368
 20
337.2441345079587
 30
0.0
 11
-319.5000000378368
 21
337.2720711235521
 31
0.0
  0
LINE
  5
346
330
49
100
AcDbEntity
  8
0
  6
Continuous
 62
     7
100
AcDbLine
 10
-318.1715390687542
 20
288.2000077391456
 30
0.0
 11
-317.9571797148093
 21
287.4000077391456
 31
0.0
  0
LINE
  5
347
330
49
100
AcDbEntity
  8
0
  6
Continuous
 62
     7
100
AcDbLine
 10
-316.3284610069194
 20
288.2000077391456
 30
0.0
 11
-316.5428203608644
 21
287.4000077391456
 31
0.0
  0
LINE
  5
348
330
49
100
AcDbEntity
  8
0
  6
Continuous
 62
     7
100
AcDbLine
 10
-318.1715390687542
 20
290.0000077391456
 30
0.0
 11
-318.1715390687542
 21
288.2000077391456
 31
0.0
  0
LINE
  5
349
330
49
100
AcDbEntity
  8
0
  6
Continuous
 62
     7
100
AcDbLine
 10
-318.1715390687542
 20
288.2000077391456
 30
0.0
 11
-319.5000000378368
 21
288.2000077391456
 31
0.0
  0
LINE
  5
34A
330
49
100
AcDbEntity
  8
0
  6
Continuous
 62
     7
100
AcDbLine
 10
-319.5000000378368
 20
288.2000077391456
 30
0.0
 11
-319.5000000378368
 21
290.0000077391456
 31
0.0
  0
LINE
  5
34B
330
49
100
AcDbEntity
  8
0
  6
Continuous
 62
     7
100
AcDbLine
 10
-319.5000000378368
 20
288.2000077391456
 30
0.0
 11
-319.5000000378368
 21
287.4000077391456
 31
0.0
  0
LINE
  5
34C
330
49
100
AcDbEntity
  8
0
  6
Continuous
 62
     3
100
AcDbLine
 10
-318.1715390687542
 20
290.0000077391456
 30
0.0
 11
-319.5000000378368
 21
290.0000077391456
 31
0.0
  0
LINE
  5
34D
330
49
100
AcDbEntity
  8
0
  6
Continuous
 62
     7
100
AcDbLine
 10
-316.6500000378368
 20
287.0000077391456
 30
0.0
 11
-317.8500000378368
 21
287.0000077391456
 31
0.0
  0
LINE
  5
34E
330
49
100
AcDbEntity
  8
0
  6
Continuous
 62
     7
100
AcDbLine
 10
-316.5428203608644
 20
287.4000077391456
 30
0.0
 11
-316.6500000378368
 21
287.0000077391456
 31
0.0
  0
LINE
  5
34F
330
49
100
AcDbEntity
  8
0
  6
Continuous
 62
     3
100
AcDbLine
 10
-315.1715390687542
 20
290.0000077391456
 30
0.0
 11
-316.3284610069194
 21
290.0000077391456
 31
0.0
  0
LINE
  5
350
330
49
100
AcDbEntity
  8
0
  6
Continuous
 62
     7
100
AcDbLine
 10
-316.3284610069194
 20
288.2000077391456
 30
0.0
 11
-316.3284610069194
 21
290.0000077391456
 31
0.0
  0
LINE
  5
351
330
49
100
AcDbEntity
  8
0
  6
Continuous
 62
     7
100
AcDbLine
 10
-315.1715390687542
 20
288.2000077391456
 30
0.0
 11
-316.3284610069194
 21
288.2000077391456
 31
0.0
  0
LINE
  5
352
330
49
100
AcDbEntity
  8
0
  6
Continuous
 62
     7
100
AcDbLine
 10
-317.8500000378368
 20
290.0000077391456
 30
0.0
 11
-317.8500000378368
 21
287.0000077391456
 31
0.0
  0
LINE
  5
353
330
49
100
AcDbEntity
  8
0
  6
Continuous
 62
     3
100
AcDbLine
 10
-318.1715390687542
 20
290.0000077391456
 30
0.0
 11
-317.8500000378368
 21
290.0000077391456
 31
0.0
  0
LINE
  5
354
330
49
100
AcDbEntity
  8
0
  6
Continuous
 62
     7
100
AcDbLine
 10
-317.9571797148093
 20
287.4000077391456
 30
0.0
 11
-317.8500000378368
 21
287.0000077391456
 31
0.0
  0
LINE
  5
355
330
49
100
AcDbEntity
  8
0
  6
Continuous
 62
     7
100
AcDbLine
 10
-315.1715390687542
 20
288.2000077391456
 30
0.0
 11
-315.1715390687542
 21
290.0000077391456
 31
0.0
  0
LINE
  5
356
330
49
100
AcDbEntity
  8
0
  6
Continuous
 62
     3
100
AcDbLine
 10
-317.8500000378368
 20
290.0000077391456
 30
0.0
 11
-316.6500000378368
 21
290.0000077391456
 31
0.0
  0
LINE
  5
357
330
49
100
AcDbEntity
  8
0
  6
Continuous
 62
     3
100
AcDbLine
 10
-316.6500000378368
 20
290.0000077391456
 30
0.0
 11
-316.3284610069194
 21
290.0000077391456
 31
0.0
  0
LINE
  5
358
330
49
100
AcDbEntity
  8
0
  6
Continuous
 62
     7
100
AcDbLine
 10
-316.6500000378368
 20
290.0000077391456
 30
0.0
 11
-316.6500000378368
 21
287.0000077391456
 31
0.0
  0
LINE
  5
359
330
49
100
AcDbEntity
  8
0
  6
Continuous
 62
     7
100
AcDbLine
 10
-317.9571797148093
 20
287.4000077391456
 30
0.0
 11
-319.5000000378368
 21
287.4000077391456
 31
0.0
  0
LINE
  5
35A
330
49
100
AcDbEntity
  8
0
  6
Continuous
 62
     7
100
AcDbLine
 10
-314.9571797148092
 20
287.4000077391456
 30
0.0
 11
-316.5428203608644
 21
287.4000077391456
 31
0.0
  0
LINE
  5
35B
330
49
100
AcDbEntity
  8
0
  6
Continuous
 62
     7
100
AcDbLine
 10
-311.9571797148093
 20
287.4000077391456
 30
0.0
 11
-313.5428203608644
 21
287.4000077391456
 31
0.0
  0
LINE
  5
35C
330
49
100
AcDbEntity
  8
0
  6
Continuous
 62
     3
100
AcDbLine
 10
-312.1715390687542
 20
290.0000077391456
 30
0.0
 11
-313.3284610069194
 21
290.0000077391456
 31
0.0
  0
LINE
  5
35D
330
49
100
AcDbEntity
  8
0
  6
Continuous
 62
     7
100
AcDbLine
 10
-312.1715390687542
 20
288.2000077391456
 30
0.0
 11
-313.3284610069194
 21
288.2000077391456
 31
0.0
  0
LINE
  5
35E
330
49
100
AcDbEntity
  8
0
  6
Continuous
 62
     7
100
AcDbLine
 10
-312.1715390687542
 20
288.2000077391456
 30
0.0
 11
-312.1715390687542
 21
290.0000077391456
 31
0.0
  0
LINE
  5
35F
330
49
100
AcDbEntity
  8
0
  6
Continuous
 62
     7
100
AcDbLine
 10
-313.6500000378368
 20
287.0000077391456
 30
0.0
 11
-314.8500000378368
 21
287.0000077391456
 31
0.0
  0
LINE
  5
360
330
49
100
AcDbEntity
  8
0
  6
Continuous
 62
     7
100
AcDbLine
 10
-313.5428203608644
 20
287.4000077391456
 30
0.0
 11
-313.6500000378368
 21
287.0000077391456
 31
0.0
  0
LINE
  5
361
330
49
100
AcDbEntity
  8
0
  6
Continuous
 62
     7
100
AcDbLine
 10
-313.3284610069194
 20
288.2000077391456
 30
0.0
 11
-313.5428203608644
 21
287.4000077391456
 31
0.0
  0
LINE
  5
362
330
49
100
AcDbEntity
  8
0
  6
Continuous
 62
     7
100
AcDbLine
 10
-313.3284610069194
 20
288.2000077391456
 30
0.0
 11
-313.3284610069194
 21
290.0000077391456
 31
0.0
  0
LINE
  5
363
330
49
100
AcDbEntity
  8
0
  6
Continuous
 62
     3
100
AcDbLine
 10
-315.1715390687542
 20
290.0000077391456
 30
0.0
 11
-314.8500000378368
 21
290.0000077391456
 31
0.0
  0
LINE
  5
364
330
49
100
AcDbEntity
  8
0
  6
Continuous
 62
     3
100
AcDbLine
 10
-314.8500000378368
 20
290.0000077391456
 30
0.0
 11
-313.6500000378368
 21
290.0000077391456
 31
0.0
  0
LINE
  5
365
330
49
100
AcDbEntity
  8
0
  6
Continuous
 62
     3
100
AcDbLine
 10
-313.6500000378368
 20
290.0000077391456
 30
0.0
 11
-313.3284610069194
 21
290.0000077391456
 31
0.0
  0
LINE
  5
366
330
49
100
AcDbEntity
  8
0
  6
Continuous
 62
     7
100
AcDbLine
 10
-313.6500000378368
 20
290.0000077391456
 30
0.0
 11
-313.6500000378368
 21
287.0000077391456
 31
0.0
  0
LINE
  5
367
330
49
100
AcDbEntity
  8
0
  6
Continuous
 62
     7
100
AcDbLine
 10
-315.1715390687542
 20
288.2000077391456
 30
0.0
 11
-314.9571797148092
 21
287.4000077391456
 31
0.0
  0
LINE
  5
368
330
49
100
AcDbEntity
  8
0
  6
Continuous
 62
     7
100
AcDbLine
 10
-314.9571797148092
 20
287.4000077391456
 30
0.0
 11
-314.8500000378368
 21
287.0000077391456
 31
0.0
  0
LINE
  5
369
330
49
100
AcDbEntity
  8
0
  6
Continuous
 62
     7
100
AcDbLine
 10
-314.8500000378368
 20
290.0000077391456
 30
0.0
 11
-314.8500000378368
 21
287.0000077391456
 31
0.0
  0
LINE
  5
36A
330
49
100
AcDbEntity
  8
0
  6
Continuous
 62
     7
100
AcDbLine
 10
-303.1715390687542
 20
288.2000077391456
 30
0.0
 11
-302.9571797148093
 21
287.4000077391456
 31
0.0
  0
LINE
  5
36B
330
49
100
AcDbEntity
  8
0
  6
Continuous
 62
     7
100
AcDbLine
 10
-304.3284610069194
 20
288.2000077391456
 30
0.0
 11
-304.5428203608644
 21
287.4000077391456
 31
0.0
  0
LINE
  5
36C
330
49
100
AcDbEntity
  8
0
  6
Continuous
 62
     7
100
AcDbLine
 10
-301.3284610069195
 20
288.2000077391456
 30
0.0
 11
-301.5428203608644
 21
287.4000077391456
 31
0.0
  0
LINE
  5
36D
330
49
100
AcDbEntity
  8
0
  6
Continuous
 62
     7
100
AcDbLine
 10
-301.3284610069195
 20
288.2000077391456
 30
0.0
 11
-301.3284610069194
 21
290.0000077391456
 31
0.0
  0
LINE
  5
36E
330
49
100
AcDbEntity
  8
0
  6
Continuous
 62
     7
100
AcDbLine
 10
-303.1715390687542
 20
288.2000077391456
 30
0.0
 11
-303.1715390687542
 21
290.0000077391456
 31
0.0
  0
LINE
  5
36F
330
49
100
AcDbEntity
  8
0
  6
Continuous
 62
     7
100
AcDbLine
 10
-302.8500000378368
 20
290.0000077391456
 30
0.0
 11
-302.8500000378368
 21
287.0000077391456
 31
0.0
  0
LINE
  5
370
330
49
100
AcDbEntity
  8
0
  6
Continuous
 62
     7
100
AcDbLine
 10
-302.9571797148093
 20
287.4000077391456
 30
0.0
 11
-302.8500000378368
 21
287.0000077391456
 31
0.0
  0
LINE
  5
371
330
49
100
AcDbEntity
  8
0
  6
Continuous
 62
     7
100
AcDbLine
 10
-301.6500000378368
 20
290.0000077391456
 30
0.0
 11
-301.6500000378368
 21
287.0000077391456
 31
0.0
  0
LINE
  5
372
330
49
100
AcDbEntity
  8
0
  6
Continuous
 62
     7
100
AcDbLine
 10
-304.6500000378368
 20
290.0000077391456
 30
0.0
 11
-304.6500000378368
 21
287.0000077391456
 31
0.0
  0
LINE
  5
373
330
49
100
AcDbEntity
  8
0
  6
Continuous
 62
     7
100
AcDbLine
 10
-302.9571797148093
 20
287.4000077391456
 30
0.0
 11
-304.5428203608644
 21
287.4000077391456
 31
0.0
  0
LINE
  5
374
330
49
100
AcDbEntity
  8
0
  6
Continuous
 62
     7
100
AcDbLine
 10
-304.5428203608644
 20
287.4000077391456
 30
0.0
 11
-304.6500000378368
 21
287.0000077391456
 31
0.0
  0
LINE
  5
375
330
49
100
AcDbEntity
  8
0
  6
Continuous
 62
     7
100
AcDbLine
 10
-304.6500000378368
 20
287.0000077391456
 30
0.0
 11
-305.8500000378368
 21
287.0000077391456
 31
0.0
  0
LINE
  5
376
330
49
100
AcDbEntity
  8
0
  6
Continuous
 62
     7
100
AcDbLine
 10
-270.5000000378368
 20
287.4000077391456
 30
0.0
 11
-275.9571797148092
 21
287.4000077391456
 31
0.0
  0
LINE
  5
377
330
49
100
AcDbEntity
  8
0
  6
Continuous
 62
     7
100
AcDbLine
 10
-275.9571797148092
 20
287.4000077391456
 30
0.0
 11
-275.9643570690095
 21
287.4267939896834
 31
0.0
  0
LINE
  5
378
330
49
100
AcDbEntity
  8
0
  6
Continuous
 62
     7
100
AcDbLine
 10
-275.9571797148092
 20
287.4000077391456
 30
0.0
 11
-277.5428203608644
 21
287.4000077391456
 31
0.0
  0
LINE
  5
379
330
49
100
AcDbEntity
  8
0
  6
Continuous
 62
     7
100
AcDbLine
 10
-300.1715390687542
 20
288.2000077391456
 30
0.0
 11
-299.9571797148093
 21
287.4000077391456
 31
0.0
  0
LINE
  5
37A
330
49
100
AcDbEntity
  8
0
  6
Continuous
 62
     7
100
AcDbLine
 10
-297.1715390687542
 20
288.2000077391456
 30
0.0
 11
-296.9571797148092
 21
287.4000077391456
 31
0.0
  0
LINE
  5
37B
330
49
100
AcDbEntity
  8
0
  6
Continuous
 62
     7
100
AcDbLine
 10
-300.1715390687542
 20
288.2000077391456
 30
0.0
 11
-301.3284610069195
 21
288.2000077391456
 31
0.0
  0
LINE
  5
37C
330
49
100
AcDbEntity
  8
0
  6
Continuous
 62
     7
100
AcDbLine
 10
-303.1715390687542
 20
288.2000077391456
 30
0.0
 11
-304.3284610069194
 21
288.2000077391456
 31
0.0
  0
LINE
  5
37D
330
49
100
AcDbEntity
  8
0
  6
Continuous
 62
     7
100
AcDbLine
 10
-283.3284610069194
 20
288.2000077391456
 30
0.0
 11
-283.5428203608644
 21
287.4000077391456
 31
0.0
  0
LINE
  5
37E
330
49
100
AcDbEntity
  8
0
  6
Continuous
 62
     7
100
AcDbLine
 10
-283.5428203608644
 20
287.4000077391456
 30
0.0
 11
-283.6500000378368
 21
287.0000077391456
 31
0.0
  0
LINE
  5
37F
330
49
100
AcDbEntity
  8
0
  6
Continuous
 62
     7
100
AcDbLine
 10
-301.5428203608644
 20
287.4000077391456
 30
0.0
 11
-301.6500000378368
 21
287.0000077391456
 31
0.0
  0
LINE
  5
380
330
49
100
AcDbEntity
  8
0
  6
Continuous
 62
     7
100
AcDbLine
 10
-299.9571797148093
 20
287.4000077391456
 30
0.0
 11
-301.5428203608644
 21
287.4000077391456
 31
0.0
  0
LINE
  5
381
330
49
100
AcDbEntity
  8
0
  6
Continuous
 62
     7
100
AcDbLine
 10
-301.6500000378368
 20
287.0000077391456
 30
0.0
 11
-302.8500000378368
 21
287.0000077391456
 31
0.0
  0
LINE
  5
382
330
49
100
AcDbEntity
  8
0
  6
Continuous
 62
     7
100
AcDbLine
 10
-287.9571797148092
 20
287.4000077391456
 30
0.0
 11
-287.8500000378368
 21
287.0000077391456
 31
0.0
  0
LINE
  5
383
330
49
100
AcDbEntity
  8
0
  6
Continuous
 62
     7
100
AcDbLine
 10
-284.9571797148092
 20
287.4000077391456
 30
0.0
 11
-286.5428203608644
 21
287.4000077391456
 31
0.0
  0
LINE
  5
384
330
49
100
AcDbEntity
  8
0
  6
Continuous
 62
     7
100
AcDbLine
 10
-287.9571797148092
 20
287.4000077391456
 30
0.0
 11
-289.5428203608644
 21
287.4000077391456
 31
0.0
  0
LINE
  5
385
330
49
100
AcDbEntity
  8
0
  6
Continuous
 62
     7
100
AcDbLine
 10
-288.1715390687542
 20
288.2000077391456
 30
0.0
 11
-287.9571797148092
 21
287.4000077391456
 31
0.0
  0
LINE
  5
386
330
49
100
AcDbEntity
  8
0
  6
Continuous
 62
     7
100
AcDbLine
 10
-286.3284610069194
 20
288.2000077391456
 30
0.0
 11
-286.5428203608644
 21
287.4000077391456
 31
0.0
  0
LINE
  5
387
330
49
100
AcDbEntity
  8
0
  6
Continuous
 62
     7
100
AcDbLine
 10
-289.3284610069194
 20
288.2000077391456
 30
0.0
 11
-289.5428203608644
 21
287.4000077391456
 31
0.0
  0
LINE
  5
388
330
49
100
AcDbEntity
  8
0
  6
Continuous
 62
     7
100
AcDbLine
 10
-298.5428203608644
 20
287.4000077391456
 30
0.0
 11
-298.6500000378368
 21
287.0000077391456
 31
0.0
  0
LINE
  5
389
330
49
100
AcDbEntity
  8
0
  6
Continuous
 62
     7
100
AcDbLine
 10
-296.9571797148092
 20
287.4000077391456
 30
0.0
 11
-298.5428203608644
 21
287.4000077391456
 31
0.0
  0
LINE
  5
38A
330
49
100
AcDbEntity
  8
0
  6
Continuous
 62
     7
100
AcDbLine
 10
-299.9571797148093
 20
287.4000077391456
 30
0.0
 11
-299.8500000378368
 21
287.0000077391456
 31
0.0
  0
LINE
  5
38B
330
49
100
AcDbEntity
  8
0
  6
Continuous
 62
     7
100
AcDbLine
 10
-298.6500000378368
 20
287.0000077391456
 30
0.0
 11
-299.8500000378368
 21
287.0000077391456
 31
0.0
  0
LINE
  5
38C
330
49
100
AcDbEntity
  8
0
  6
Continuous
 62
     7
100
AcDbLine
 10
-285.1715390687542
 20
288.2000077391456
 30
0.0
 11
-284.9571797148092
 21
287.4000077391456
 31
0.0
  0
LINE
  5
38D
330
49
100
AcDbEntity
  8
0
  6
Continuous
 62
     7
100
AcDbLine
 10
-294.1715390687542
 20
288.2000077391456
 30
0.0
 11
-293.9571797148092
 21
287.4000077391456
 31
0.0
  0
LINE
  5
38E
330
49
100
AcDbEntity
  8
0
  6
Continuous
 62
     7
100
AcDbLine
 10
-291.1715390687542
 20
288.2000077391456
 30
0.0
 11
-290.9571797148092
 21
287.4000077391456
 31
0.0
  0
LINE
  5
38F
330
49
100
AcDbEntity
  8
0
  6
Continuous
 62
     7
100
AcDbLine
 10
-292.3284610069194
 20
288.2000077391456
 30
0.0
 11
-292.5428203608644
 21
287.4000077391456
 31
0.0
  0
LINE
  5
390
330
49
100
AcDbEntity
  8
0
  6
Continuous
 62
     7
100
AcDbLine
 10
-292.5428203608644
 20
287.4000077391456
 30
0.0
 11
-292.6500000378368
 21
287.0000077391456
 31
0.0
  0
LINE
  5
391
330
49
100
AcDbEntity
  8
0
  6
Continuous
 62
     7
100
AcDbLine
 10
-290.9571797148092
 20
287.4000077391456
 30
0.0
 11
-292.5428203608644
 21
287.4000077391456
 31
0.0
  0
LINE
  5
392
330
49
100
AcDbEntity
  8
0
  6
Continuous
 62
     7
100
AcDbLine
 10
-293.9571797148092
 20
287.4000077391456
 30
0.0
 11
-295.5428203608644
 21
287.4000077391456
 31
0.0
  0
LINE
  5
393
330
49
100
AcDbEntity
  8
0
  6
Continuous
 62
     7
100
AcDbLine
 10
-292.6500000378368
 20
287.0000077391456
 30
0.0
 11
-293.8500000378368
 21
287.0000077391456
 31
0.0
  0
LINE
  5
394
330
49
100
AcDbEntity
  8
0
  6
Continuous
 62
     7
100
AcDbLine
 10
-295.3284610069194
 20
288.2000077391456
 30
0.0
 11
-295.5428203608644
 21
287.4000077391456
 31
0.0
  0
LINE
  5
395
330
49
100
AcDbEntity
  8
0
  6
Continuous
 62
     7
100
AcDbLine
 10
-298.3284610069194
 20
288.2000077391456
 30
0.0
 11
-298.5428203608644
 21
287.4000077391456
 31
0.0
  0
LINE
  5
396
330
49
100
AcDbEntity
  8
0
  6
Continuous
 62
     7
100
AcDbLine
 10
-276.1715390687542
 20
288.2000077391456
 30
0.0
 11
-275.9643570690095
 21
287.4267939896834
 31
0.0
  0
LINE
  5
397
330
49
100
AcDbEntity
  8
0
  6
Continuous
 62
     7
100
AcDbLine
 10
-277.3284610069194
 20
288.2000077391456
 30
0.0
 11
-277.5428203608644
 21
287.4000077391456
 31
0.0
  0
LINE
  5
398
330
49
100
AcDbEntity
  8
0
  6
Continuous
 62
     7
100
AcDbLine
 10
-277.5428203608644
 20
287.4000077391456
 30
0.0
 11
-277.6500000378368
 21
287.0000077391456
 31
0.0
  0
LINE
  5
399
330
49
100
AcDbEntity
  8
0
  6
Continuous
 62
     7
100
AcDbLine
 10
-278.9571797148092
 20
287.4000077391456
 30
0.0
 11
-280.5428203608644
 21
287.4000077391456
 31
0.0
  0
LINE
  5
39A
330
49
100
AcDbEntity
  8
0
  6
Continuous
 62
     7
100
AcDbLine
 10
-280.3284610069194
 20
288.2000077391456
 30
0.0
 11
-280.5428203608644
 21
287.4000077391456
 31
0.0
  0
LINE
  5
39B
330
49
100
AcDbEntity
  8
0
  6
Continuous
 62
     7
100
AcDbLine
 10
-279.1715390687542
 20
288.2000077391456
 30
0.0
 11
-278.9571797148092
 21
287.4000077391456
 31
0.0
  0
LINE
  5
39C
330
49
100
AcDbEntity
  8
0
  6
Continuous
 62
     7
100
AcDbLine
 10
-281.9571797148092
 20
287.4000077391456
 30
0.0
 11
-283.5428203608644
 21
287.4000077391456
 31
0.0
  0
LINE
  5
39D
330
49
100
AcDbEntity
  8
0
  6
Continuous
 62
     7
100
AcDbLine
 10
-282.1715390687542
 20
288.2000077391456
 30
0.0
 11
-281.9571797148092
 21
287.4000077391456
 31
0.0
  0
LINE
  5
39E
330
49
100
AcDbEntity
  8
0
  6
Continuous
 62
     7
100
AcDbLine
 10
-312.1715390687542
 20
288.2000077391456
 30
0.0
 11
-311.9571797148093
 21
287.4000077391456
 31
0.0
  0
LINE
  5
39F
330
49
100
AcDbEntity
  8
0
  6
Continuous
 62
     7
100
AcDbLine
 10
-309.1715390687542
 20
288.2000077391456
 30
0.0
 11
-308.9571797148093
 21
287.4000077391456
 31
0.0
  0
LINE
  5
3A0
330
49
100
AcDbEntity
  8
0
  6
Continuous
 62
     7
100
AcDbLine
 10
-310.3284610069194
 20
288.2000077391456
 30
0.0
 11
-310.5428203608644
 21
287.4000077391456
 31
0.0
  0
LINE
  5
3A1
330
49
100
AcDbEntity
  8
0
  6
Continuous
 62
     7
100
AcDbLine
 10
-311.8500000378368
 20
290.0000077391456
 30
0.0
 11
-311.8500000378368
 21
287.0000077391456
 31
0.0
  0
LINE
  5
3A2
330
49
100
AcDbEntity
  8
0
  6
Continuous
 62
     7
100
AcDbLine
 10
-310.5428203608644
 20
287.4000077391456
 30
0.0
 11
-310.6500000378368
 21
287.0000077391456
 31
0.0
  0
LINE
  5
3A3
330
49
100
AcDbEntity
  8
0
  6
Continuous
 62
     7
100
AcDbLine
 10
-308.9571797148093
 20
287.4000077391456
 30
0.0
 11
-308.8500000378368
 21
287.0000077391456
 31
0.0
  0
LINE
  5
3A4
330
49
100
AcDbEntity
  8
0
  6
Continuous
 62
     7
100
AcDbLine
 10
-307.3284610069194
 20
288.2000077391456
 30
0.0
 11
-307.5428203608644
 21
287.4000077391456
 31
0.0
  0
LINE
  5
3A5
330
49
100
AcDbEntity
  8
0
  6
Continuous
 62
     7
100
AcDbLine
 10
-307.3284610069194
 20
288.2000077391456
 30
0.0
 11
-307.3284610069194
 21
290.0000077391456
 31
0.0
  0
LINE
  5
3A6
330
49
100
AcDbEntity
  8
0
  6
Continuous
 62
     7
100
AcDbLine
 10
-305.9571797148092
 20
287.4000077391456
 30
0.0
 11
-307.5428203608644
 21
287.4000077391456
 31
0.0
  0
LINE
  5
3A7
330
49
100
AcDbEntity
  8
0
  6
Continuous
 62
     7
100
AcDbLine
 10
-306.1715390687542
 20
288.2000077391456
 30
0.0
 11
-307.3284610069194
 21
288.2000077391456
 31
0.0
  0
LINE
  5
3A8
330
49
100
AcDbEntity
  8
0
  6
Continuous
 62
     7
100
AcDbLine
 10
-306.1715390687542
 20
288.2000077391456
 30
0.0
 11
-306.1715390687542
 21
290.0000077391456
 31
0.0
  0
LINE
  5
3A9
330
49
100
AcDbEntity
  8
0
  6
Continuous
 62
     3
100
AcDbLine
 10
-306.1715390687542
 20
290.0000077391456
 30
0.0
 11
-307.3284610069194
 21
290.0000077391456
 31
0.0
  0
LINE
  5
3AA
330
49
100
AcDbEntity
  8
0
  6
Continuous
 62
     7
100
AcDbLine
 10
-309.1715390687542
 20
288.2000077391456
 30
0.0
 11
-309.1715390687542
 21
290.0000077391456
 31
0.0
  0
LINE
  5
3AB
330
49
100
AcDbEntity
  8
0
  6
Continuous
 62
     7
100
AcDbLine
 10
-305.9571797148092
 20
287.4000077391456
 30
0.0
 11
-305.8500000378368
 21
287.0000077391456
 31
0.0
  0
LINE
  5
3AC
330
49
100
AcDbEntity
  8
0
  6
Continuous
 62
     7
100
AcDbLine
 10
-305.8500000378368
 20
290.0000077391456
 30
0.0
 11
-305.8500000378368
 21
287.0000077391456
 31
0.0
  0
LINE
  5
3AD
330
49
100
AcDbEntity
  8
0
  6
Continuous
 62
     7
100
AcDbLine
 10
-307.6500000378368
 20
290.0000077391456
 30
0.0
 11
-307.6500000378368
 21
287.0000077391456
 31
0.0
  0
LINE
  5
3AE
330
49
100
AcDbEntity
  8
0
  6
Continuous
 62
     7
100
AcDbLine
 10
-307.5428203608644
 20
287.4000077391456
 30
0.0
 11
-307.6500000378368
 21
287.0000077391456
 31
0.0
  0
LINE
  5
3AF
330
49
100
AcDbEntity
  8
0
  6
Continuous
 62
     7
100
AcDbLine
 10
-306.1715390687542
 20
288.2000077391456
 30
0.0
 11
-305.9571797148092
 21
287.4000077391456
 31
0.0
  0
LINE
  5
3B0
330
49
100
AcDbEntity
  8
0
  6
Continuous
 62
     7
100
AcDbLine
 10
-308.8500000378368
 20
290.0000077391456
 30
0.0
 11
-308.8500000378368
 21
287.0000077391456
 31
0.0
  0
LINE
  5
3B1
330
49
100
AcDbEntity
  8
0
  6
Continuous
 62
     7
100
AcDbLine
 10
-307.6500000378368
 20
287.0000077391456
 30
0.0
 11
-308.8500000378368
 21
287.0000077391456
 31
0.0
  0
LINE
  5
3B2
330
49
100
AcDbEntity
  8
0
  6
Continuous
 62
     7
100
AcDbLine
 10
-310.6500000378368
 20
290.0000077391456
 30
0.0
 11
-310.6500000378368
 21
287.0000077391456
 31
0.0
  0
LINE
  5
3B3
330
49
100
AcDbEntity
  8
0
  6
Continuous
 62
     7
100
AcDbLine
 10
-308.9571797148093
 20
287.4000077391456
 30
0.0
 11
-310.5428203608644
 21
287.4000077391456
 31
0.0
  0
LINE
  5
3B4
330
49
100
AcDbEntity
  8
0
  6
Continuous
 62
     7
100
AcDbLine
 10
-310.6500000378368
 20
287.0000077391456
 30
0.0
 11
-311.8500000378368
 21
287.0000077391456
 31
0.0
  0
LINE
  5
3B5
330
49
100
AcDbEntity
  8
0
  6
Continuous
 62
     7
100
AcDbLine
 10
-311.9571797148093
 20
287.4000077391456
 30
0.0
 11
-311.8500000378368
 21
287.0000077391456
 31
0.0
  0
LINE
  5
3B6
330
49
100
AcDbEntity
  8
0
  6
Continuous
 62
     7
100
AcDbLine
 10
-296.9571797148092
 20
287.4000077391456
 30
0.0
 11
-296.8500000378368
 21
287.0000077391456
 31
0.0
  0
LINE
  5
3B7
330
49
100
AcDbEntity
  8
0
  6
Continuous
 62
     7
100
AcDbLine
 10
-290.9571797148092
 20
287.4000077391456
 30
0.0
 11
-290.8500000378368
 21
287.0000077391456
 31
0.0
  0
LINE
  5
3B8
330
49
100
AcDbEntity
  8
0
  6
Continuous
 62
     7
100
AcDbLine
 10
-297.1715390687542
 20
288.2000077391456
 30
0.0
 11
-298.3284610069194
 21
288.2000077391456
 31
0.0
  0
LINE
  5
3B9
330
49
100
AcDbEntity
  8
0
  6
Continuous
 62
     7
100
AcDbLine
 10
-295.5428203608644
 20
287.4000077391456
 30
0.0
 11
-295.6500000378368
 21
287.0000077391456
 31
0.0
  0
LINE
  5
3BA
330
49
100
AcDbEntity
  8
0
  6
Continuous
 62
     7
100
AcDbLine
 10
-293.9571797148092
 20
287.4000077391456
 30
0.0
 11
-293.8500000378368
 21
287.0000077391456
 31
0.0
  0
LINE
  5
3BB
330
49
100
AcDbEntity
  8
0
  6
Continuous
 62
     7
100
AcDbLine
 10
-281.9571797148092
 20
287.4000077391456
 30
0.0
 11
-281.8500000378368
 21
287.0000077391456
 31
0.0
  0
LINE
  5
3BC
330
49
100
AcDbEntity
  8
0
  6
Continuous
 62
     7
100
AcDbLine
 10
-280.6500000378368
 20
287.0000077391456
 30
0.0
 11
-281.8500000378368
 21
287.0000077391456
 31
0.0
  0
LINE
  5
3BD
330
49
100
AcDbEntity
  8
0
  6
Continuous
 62
     7
100
AcDbLine
 10
-295.6500000378368
 20
287.0000077391456
 30
0.0
 11
-296.8500000378368
 21
287.0000077391456
 31
0.0
  0
LINE
  5
3BE
330
49
100
AcDbEntity
  8
0
  6
Continuous
 62
     7
100
AcDbLine
 10
-289.6500000378368
 20
287.0000077391456
 30
0.0
 11
-290.8500000378368
 21
287.0000077391456
 31
0.0
  0
LINE
  5
3BF
330
49
100
AcDbEntity
  8
0
  6
Continuous
 62
     7
100
AcDbLine
 10
-280.5428203608644
 20
287.4000077391456
 30
0.0
 11
-280.6500000378368
 21
287.0000077391456
 31
0.0
  0
LINE
  5
3C0
330
49
100
AcDbEntity
  8
0
  6
Continuous
 62
     7
100
AcDbLine
 10
-286.6500000378368
 20
287.0000077391456
 30
0.0
 11
-287.8500000378368
 21
287.0000077391456
 31
0.0
  0
LINE
  5
3C1
330
49
100
AcDbEntity
  8
0
  6
Continuous
 62
     7
100
AcDbLine
 10
-289.5428203608644
 20
287.4000077391456
 30
0.0
 11
-289.6500000378368
 21
287.0000077391456
 31
0.0
  0
LINE
  5
3C2
330
49
100
AcDbEntity
  8
0
  6
Continuous
 62
     7
100
AcDbLine
 10
-278.9571797148092
 20
287.4000077391456
 30
0.0
 11
-278.8500000378368
 21
287.0000077391456
 31
0.0
  0
LINE
  5
3C3
330
49
100
AcDbEntity
  8
0
  6
Continuous
 62
     7
100
AcDbLine
 10
-277.6500000378368
 20
287.0000077391456
 30
0.0
 11
-278.8500000378368
 21
287.0000077391456
 31
0.0
  0
LINE
  5
3C4
330
49
100
AcDbEntity
  8
0
  6
Continuous
 62
     7
100
AcDbLine
 10
-286.5428203608644
 20
287.4000077391456
 30
0.0
 11
-286.6500000378368
 21
287.0000077391456
 31
0.0
  0
LINE
  5
3C5
330
49
100
AcDbEntity
  8
0
  6
Continuous
 62
     7
100
AcDbLine
 10
-284.9571797148092
 20
287.4000077391456
 30
0.0
 11
-284.8500000378368
 21
287.0000077391456
 31
0.0
  0
LINE
  5
3C6
330
49
100
AcDbEntity
  8
0
  6
Continuous
 62
     7
100
AcDbLine
 10
-283.6500000378368
 20
287.0000077391456
 30
0.0
 11
-284.8500000378368
 21
287.0000077391456
 31
0.0
  0
LINE
  5
3C7
330
49
100
AcDbEntity
  8
0
  6
Continuous
 62
     7
100
AcDbLine
 10
-280.6500000378368
 20
290.0000077391456
 30
0.0
 11
-280.6500000378368
 21
287.0000077391456
 31
0.0
  0
LINE
  5
3C8
330
49
100
AcDbEntity
  8
0
  6
Continuous
 62
     7
100
AcDbLine
 10
-278.8500000378368
 20
290.0000077391456
 30
0.0
 11
-278.8500000378368
 21
287.0000077391456
 31
0.0
  0
LINE
  5
3C9
330
49
100
AcDbEntity
  8
0
  6
Continuous
 62
     7
100
AcDbLine
 10
-281.8500000378368
 20
290.0000077391456
 30
0.0
 11
-281.8500000378368
 21
287.0000077391456
 31
0.0
  0
LINE
  5
3CA
330
49
100
AcDbEntity
  8
0
  6
Continuous
 62
     7
100
AcDbLine
 10
-277.6500000378368
 20
290.0000077391456
 30
0.0
 11
-277.6500000378368
 21
287.0000077391456
 31
0.0
  0
LINE
  5
3CB
330
49
100
AcDbEntity
  8
0
  6
Continuous
 62
     7
100
AcDbLine
 10
-283.6500000378368
 20
290.0000077391456
 30
0.0
 11
-283.6500000378368
 21
287.0000077391456
 31
0.0
  0
LINE
  5
3CC
330
49
100
AcDbEntity
  8
0
  6
Continuous
 62
     7
100
AcDbLine
 10
-284.8500000378368
 20
290.0000077391456
 30
0.0
 11
-284.8500000378368
 21
287.0000077391456
 31
0.0
  0
LINE
  5
3CD
330
49
100
AcDbEntity
  8
0
  6
Continuous
 62
     7
100
AcDbLine
 10
-286.6500000378368
 20
290.0000077391456
 30
0.0
 11
-286.6500000378368
 21
287.0000077391456
 31
0.0
  0
LINE
  5
3CE
330
49
100
AcDbEntity
  8
0
  6
Continuous
 62
     7
100
AcDbLine
 10
-287.8500000378368
 20
290.0000077391456
 30
0.0
 11
-287.8500000378368
 21
287.0000077391456
 31
0.0
  0
LINE
  5
3CF
330
49
100
AcDbEntity
  8
0
  6
Continuous
 62
     7
100
AcDbLine
 10
-296.8500000378368
 20
290.0000077391456
 30
0.0
 11
-296.8500000378368
 21
287.0000077391456
 31
0.0
  0
LINE
  5
3D0
330
49
100
AcDbEntity
  8
0
  6
Continuous
 62
     7
100
AcDbLine
 10
-295.6500000378368
 20
290.0000077391456
 30
0.0
 11
-295.6500000378368
 21
287.0000077391456
 31
0.0
  0
LINE
  5
3D1
330
49
100
AcDbEntity
  8
0
  6
Continuous
 62
     7
100
AcDbLine
 10
-293.8500000378368
 20
290.0000077391456
 30
0.0
 11
-293.8500000378368
 21
287.0000077391456
 31
0.0
  0
LINE
  5
3D2
330
49
100
AcDbEntity
  8
0
  6
Continuous
 62
     7
100
AcDbLine
 10
-290.8500000378368
 20
290.0000077391456
 30
0.0
 11
-290.8500000378368
 21
287.0000077391456
 31
0.0
  0
LINE
  5
3D3
330
49
100
AcDbEntity
  8
0
  6
Continuous
 62
     7
100
AcDbLine
 10
-289.6500000378368
 20
290.0000077391456
 30
0.0
 11
-289.6500000378368
 21
287.0000077391456
 31
0.0
  0
LINE
  5
3D4
330
49
100
AcDbEntity
  8
0
  6
Continuous
 62
     7
100
AcDbLine
 10
-292.6500000378368
 20
290.0000077391456
 30
0.0
 11
-292.6500000378368
 21
287.0000077391456
 31
0.0
  0
LINE
  5
3D5
330
49
100
AcDbEntity
  8
0
  6
Continuous
 62
     3
100
AcDbLine
 10
-311.8500000378368
 20
290.0000077391456
 30
0.0
 11
-310.6500000378368
 21
290.0000077391456
 31
0.0
  0
LINE
  5
3D6
330
49
100
AcDbEntity
  8
0
  6
Continuous
 62
     7
100
AcDbLine
 10
-310.3284610069194
 20
288.2000077391456
 30
0.0
 11
-310.3284610069194
 21
290.0000077391456
 31
0.0
  0
LINE
  5
3D7
330
49
100
AcDbEntity
  8
0
  6
Continuous
 62
     7
100
AcDbLine
 10
-304.3284610069194
 20
288.2000077391456
 30
0.0
 11
-304.3284610069194
 21
290.0000077391456
 31
0.0
  0
LINE
  5
3D8
330
49
100
AcDbEntity
  8
0
  6
Continuous
 62
     7
100
AcDbLine
 10
-309.1715390687542
 20
288.2000077391456
 30
0.0
 11
-310.3284610069194
 21
288.2000077391456
 31
0.0
  0
LINE
  5
3D9
330
49
100
AcDbEntity
  8
0
  6
Continuous
 62
     3
100
AcDbLine
 10
-310.6500000378368
 20
290.0000077391456
 30
0.0
 11
-310.3284610069194
 21
290.0000077391456
 31
0.0
  0
LINE
  5
3DA
330
49
100
AcDbEntity
  8
0
  6
Continuous
 62
     3
100
AcDbLine
 10
-312.1715390687542
 20
290.0000077391456
 30
0.0
 11
-311.8500000378368
 21
290.0000077391456
 31
0.0
  0
LINE
  5
3DB
330
49
100
AcDbEntity
  8
0
  6
Continuous
 62
     7
100
AcDbLine
 10
-276.1715390687542
 20
288.2000077391456
 30
0.0
 11
-276.1715390687542
 21
290.0000077391456
 31
0.0
  0
LINE
  5
3DC
330
49
100
AcDbEntity
  8
0
  6
Continuous
 62
     7
100
AcDbLine
 10
-297.1715390687542
 20
288.2000077391456
 30
0.0
 11
-297.1715390687542
 21
290.0000077391456
 31
0.0
  0
LINE
  5
3DD
330
49
100
AcDbEntity
  8
0
  6
Continuous
 62
     3
100
AcDbLine
 10
-282.1715390687542
 20
290.0000077391456
 30
0.0
 11
-283.3284610069194
 21
290.0000077391456
 31
0.0
  0
LINE
  5
3DE
330
49
100
AcDbEntity
  8
0
  6
Continuous
 62
     3
100
AcDbLine
 10
-278.8500000378368
 20
290.0000077391456
 30
0.0
 11
-277.6500000378368
 21
290.0000077391456
 31
0.0
  0
LINE
  5
3DF
330
49
100
AcDbEntity
  8
0
  6
Continuous
 62
     3
100
AcDbLine
 10
-276.1715390687542
 20
290.0000077391456
 30
0.0
 11
-277.3284610069194
 21
290.0000077391456
 31
0.0
  0
LINE
  5
3E0
330
49
100
AcDbEntity
  8
0
  6
Continuous
 62
     7
100
AcDbLine
 10
-282.1715390687542
 20
288.2000077391456
 30
0.0
 11
-282.1715390687542
 21
290.0000077391456
 31
0.0
  0
LINE
  5
3E1
330
49
100
AcDbEntity
  8
0
  6
Continuous
 62
     7
100
AcDbLine
 10
-280.3284610069194
 20
288.2000077391456
 30
0.0
 11
-280.3284610069194
 21
290.0000077391456
 31
0.0
  0
LINE
  5
3E2
330
49
100
AcDbEntity
  8
0
  6
Continuous
 62
     7
100
AcDbLine
 10
-277.3284610069194
 20
288.2000077391456
 30
0.0
 11
-277.3284610069194
 21
290.0000077391456
 31
0.0
  0
LINE
  5
3E3
330
49
100
AcDbEntity
  8
0
  6
Continuous
 62
     7
100
AcDbLine
 10
-279.1715390687542
 20
288.2000077391456
 30
0.0
 11
-280.3284610069194
 21
288.2000077391456
 31
0.0
  0
LINE
  5
3E4
330
49
100
AcDbEntity
  8
0
  6
Continuous
 62
     7
100
AcDbLine
 10
-279.1715390687542
 20
288.2000077391456
 30
0.0
 11
-279.1715390687542
 21
290.0000077391456
 31
0.0
  0
LINE
  5
3E5
330
49
100
AcDbEntity
  8
0
  6
Continuous
 62
     3
100
AcDbLine
 10
-279.1715390687542
 20
290.0000077391456
 30
0.0
 11
-280.3284610069194
 21
290.0000077391456
 31
0.0
  0
LINE
  5
3E6
330
49
100
AcDbEntity
  8
0
  6
Continuous
 62
     3
100
AcDbLine
 10
-279.1715390687542
 20
290.0000077391456
 30
0.0
 11
-278.8500000378368
 21
290.0000077391456
 31
0.0
  0
LINE
  5
3E7
330
49
100
AcDbEntity
  8
0
  6
Continuous
 62
     3
100
AcDbLine
 10
-277.6500000378368
 20
290.0000077391456
 30
0.0
 11
-277.3284610069194
 21
290.0000077391456
 31
0.0
  0
LINE
  5
3E8
330
49
100
AcDbEntity
  8
0
  6
Continuous
 62
     3
100
AcDbLine
 10
-280.6500000378368
 20
290.0000077391456
 30
0.0
 11
-280.3284610069194
 21
290.0000077391456
 31
0.0
  0
LINE
  5
3E9
330
49
100
AcDbEntity
  8
0
  6
Continuous
 62
     3
100
AcDbLine
 10
-281.8500000378368
 20
290.0000077391456
 30
0.0
 11
-280.6500000378368
 21
290.0000077391456
 31
0.0
  0
LINE
  5
3EA
330
49
100
AcDbEntity
  8
0
  6
Continuous
 62
     3
100
AcDbLine
 10
-282.1715390687542
 20
290.0000077391456
 30
0.0
 11
-281.8500000378368
 21
290.0000077391456
 31
0.0
  0
LINE
  5
3EB
330
49
100
AcDbEntity
  8
0
  6
Continuous
 62
     7
100
AcDbLine
 10
-283.3284610069194
 20
288.2000077391456
 30
0.0
 11
-283.3284610069194
 21
290.0000077391456
 31
0.0
  0
LINE
  5
3EC
330
49
100
AcDbEntity
  8
0
  6
Continuous
 62
     7
100
AcDbLine
 10
-288.1715390687542
 20
288.2000077391456
 30
0.0
 11
-288.1715390687542
 21
290.0000077391456
 31
0.0
  0
LINE
  5
3ED
330
49
100
AcDbEntity
  8
0
  6
Continuous
 62
     7
100
AcDbLine
 10
-285.1715390687542
 20
288.2000077391456
 30
0.0
 11
-285.1715390687542
 21
290.0000077391456
 31
0.0
  0
LINE
  5
3EE
330
49
100
AcDbEntity
  8
0
  6
Continuous
 62
     7
100
AcDbLine
 10
-286.3284610069194
 20
288.2000077391456
 30
0.0
 11
-286.3284610069194
 21
290.0000077391456
 31
0.0
  0
LINE
  5
3EF
330
49
100
AcDbEntity
  8
0
  6
Continuous
 62
     7
100
AcDbLine
 10
-285.1715390687542
 20
288.2000077391456
 30
0.0
 11
-286.3284610069194
 21
288.2000077391456
 31
0.0
  0
LINE
  5
3F0
330
49
100
AcDbEntity
  8
0
  6
Continuous
 62
     3
100
AcDbLine
 10
-285.1715390687542
 20
290.0000077391456
 30
0.0
 11
-286.3284610069194
 21
290.0000077391456
 31
0.0
  0
LINE
  5
3F1
330
49
100
AcDbEntity
  8
0
  6
Continuous
 62
     3
100
AcDbLine
 10
-286.6500000378368
 20
290.0000077391456
 30
0.0
 11
-286.3284610069194
 21
290.0000077391456
 31
0.0
  0
LINE
  5
3F2
330
49
100
AcDbEntity
  8
0
  6
Continuous
 62
     3
100
AcDbLine
 10
-287.8500000378368
 20
290.0000077391456
 30
0.0
 11
-286.6500000378368
 21
290.0000077391456
 31
0.0
  0
LINE
  5
3F3
330
49
100
AcDbEntity
  8
0
  6
Continuous
 62
     3
100
AcDbLine
 10
-288.1715390687542
 20
290.0000077391456
 30
0.0
 11
-287.8500000378368
 21
290.0000077391456
 31
0.0
  0
LINE
  5
3F4
330
49
100
AcDbEntity
  8
0
  6
Continuous
 62
     3
100
AcDbLine
 10
-283.6500000378368
 20
290.0000077391456
 30
0.0
 11
-283.3284610069194
 21
290.0000077391456
 31
0.0
  0
LINE
  5
3F5
330
49
100
AcDbEntity
  8
0
  6
Continuous
 62
     3
100
AcDbLine
 10
-284.8500000378368
 20
290.0000077391456
 30
0.0
 11
-283.6500000378368
 21
290.0000077391456
 31
0.0
  0
LINE
  5
3F6
330
49
100
AcDbEntity
  8
0
  6
Continuous
 62
     3
100
AcDbLine
 10
-285.1715390687542
 20
290.0000077391456
 30
0.0
 11
-284.8500000378368
 21
290.0000077391456
 31
0.0
  0
LINE
  5
3F7
330
49
100
AcDbEntity
  8
0
  6
Continuous
 62
     7
100
AcDbLine
 10
-294.1715390687542
 20
288.2000077391456
 30
0.0
 11
-294.1715390687542
 21
290.0000077391456
 31
0.0
  0
LINE
  5
3F8
330
49
100
AcDbEntity
  8
0
  6
Continuous
 62
     7
100
AcDbLine
 10
-282.1715390687542
 20
288.2000077391456
 30
0.0
 11
-283.3284610069194
 21
288.2000077391456
 31
0.0
  0
LINE
  5
3F9
330
49
100
AcDbEntity
  8
0
  6
Continuous
 62
     7
100
AcDbLine
 10
-276.1715390687542
 20
288.2000077391456
 30
0.0
 11
-277.3284610069194
 21
288.2000077391456
 31
0.0
  0
LINE
  5
3FA
330
49
100
AcDbEntity
  8
0
  6
Continuous
 62
     7
100
AcDbLine
 10
-295.3284610069194
 20
288.2000077391456
 30
0.0
 11
-295.3284610069194
 21
290.0000077391456
 31
0.0
  0
LINE
  5
3FB
330
49
100
AcDbEntity
  8
0
  6
Continuous
 62
     7
100
AcDbLine
 10
-289.3284610069194
 20
288.2000077391456
 30
0.0
 11
-289.3284610069194
 21
290.0000077391456
 31
0.0
  0
LINE
  5
3FC
330
49
100
AcDbEntity
  8
0
  6
Continuous
 62
     7
100
AcDbLine
 10
-291.1715390687542
 20
288.2000077391456
 30
0.0
 11
-291.1715390687542
 21
290.0000077391456
 31
0.0
  0
LINE
  5
3FD
330
49
100
AcDbEntity
  8
0
  6
Continuous
 62
     7
100
AcDbLine
 10
-292.3284610069194
 20
288.2000077391456
 30
0.0
 11
-292.3284610069194
 21
290.0000077391456
 31
0.0
  0
LINE
  5
3FE
330
49
100
AcDbEntity
  8
0
  6
Continuous
 62
     3
100
AcDbLine
 10
-291.1715390687542
 20
290.0000077391456
 30
0.0
 11
-292.3284610069194
 21
290.0000077391456
 31
0.0
  0
LINE
  5
3FF
330
49
100
AcDbEntity
  8
0
  6
Continuous
 62
     7
100
AcDbLine
 10
-288.1715390687542
 20
288.2000077391456
 30
0.0
 11
-289.3284610069194
 21
288.2000077391456
 31
0.0
  0
LINE
  5
400
330
49
100
AcDbEntity
  8
0
  6
Continuous
 62
     7
100
AcDbLine
 10
-291.1715390687542
 20
288.2000077391456
 30
0.0
 11
-292.3284610069194
 21
288.2000077391456
 31
0.0
  0
LINE
  5
401
330
49
100
AcDbEntity
  8
0
  6
Continuous
 62
     7
100
AcDbLine
 10
-294.1715390687542
 20
288.2000077391456
 30
0.0
 11
-295.3284610069194
 21
288.2000077391456
 31
0.0
  0
LINE
  5
402
330
49
100
AcDbEntity
  8
0
  6
Continuous
 62
     3
100
AcDbLine
 10
-296.8500000378368
 20
290.0000077391456
 30
0.0
 11
-295.6500000378368
 21
290.0000077391456
 31
0.0
  0
LINE
  5
403
330
49
100
AcDbEntity
  8
0
  6
Continuous
 62
     3
100
AcDbLine
 10
-295.6500000378368
 20
290.0000077391456
 30
0.0
 11
-295.3284610069194
 21
290.0000077391456
 31
0.0
  0
LINE
  5
404
330
49
100
AcDbEntity
  8
0
  6
Continuous
 62
     3
100
AcDbLine
 10
-290.8500000378368
 20
290.0000077391456
 30
0.0
 11
-289.6500000378368
 21
290.0000077391456
 31
0.0
  0
LINE
  5
405
330
49
100
AcDbEntity
  8
0
  6
Continuous
 62
     3
100
AcDbLine
 10
-294.1715390687542
 20
290.0000077391456
 30
0.0
 11
-295.3284610069194
 21
290.0000077391456
 31
0.0
  0
LINE
  5
406
330
49
100
AcDbEntity
  8
0
  6
Continuous
 62
     3
100
AcDbLine
 10
-289.6500000378368
 20
290.0000077391456
 30
0.0
 11
-289.3284610069194
 21
290.0000077391456
 31
0.0
  0
LINE
  5
407
330
49
100
AcDbEntity
  8
0
  6
Continuous
 62
     3
100
AcDbLine
 10
-288.1715390687542
 20
290.0000077391456
 30
0.0
 11
-289.3284610069194
 21
290.0000077391456
 31
0.0
  0
LINE
  5
408
330
49
100
AcDbEntity
  8
0
  6
Continuous
 62
     3
100
AcDbLine
 10
-291.1715390687542
 20
290.0000077391456
 30
0.0
 11
-290.8500000378368
 21
290.0000077391456
 31
0.0
  0
LINE
  5
409
330
49
100
AcDbEntity
  8
0
  6
Continuous
 62
     3
100
AcDbLine
 10
-294.1715390687542
 20
290.0000077391456
 30
0.0
 11
-293.8500000378368
 21
290.0000077391456
 31
0.0
  0
LINE
  5
40A
330
49
100
AcDbEntity
  8
0
  6
Continuous
 62
     3
100
AcDbLine
 10
-297.1715390687542
 20
290.0000077391456
 30
0.0
 11
-296.8500000378368
 21
290.0000077391456
 31
0.0
  0
LINE
  5
40B
330
49
100
AcDbEntity
  8
0
  6
Continuous
 62
     7
100
AcDbLine
 10
-298.6500000378368
 20
290.0000077391456
 30
0.0
 11
-298.6500000378368
 21
287.0000077391456
 31
0.0
  0
LINE
  5
40C
330
49
100
AcDbEntity
  8
0
  6
Continuous
 62
     7
100
AcDbLine
 10
-300.1715390687542
 20
288.2000077391456
 30
0.0
 11
-300.1715390687542
 21
290.0000077391456
 31
0.0
  0
LINE
  5
40D
330
49
100
AcDbEntity
  8
0
  6
Continuous
 62
     7
100
AcDbLine
 10
-298.3284610069194
 20
288.2000077391456
 30
0.0
 11
-298.3284610069194
 21
290.0000077391456
 31
0.0
  0
LINE
  5
40E
330
49
100
AcDbEntity
  8
0
  6
Continuous
 62
     3
100
AcDbLine
 10
-298.6500000378368
 20
290.0000077391456
 30
0.0
 11
-298.3284610069194
 21
290.0000077391456
 31
0.0
  0
LINE
  5
40F
330
49
100
AcDbEntity
  8
0
  6
Continuous
 62
     7
100
AcDbLine
 10
-299.8500000378368
 20
290.0000077391456
 30
0.0
 11
-299.8500000378368
 21
287.0000077391456
 31
0.0
  0
LINE
  5
410
330
49
100
AcDbEntity
  8
0
  6
Continuous
 62
     3
100
AcDbLine
 10
-302.8500000378368
 20
290.0000077391456
 30
0.0
 11
-301.6500000378368
 21
290.0000077391456
 31
0.0
  0
LINE
  5
411
330
49
100
AcDbEntity
  8
0
  6
Continuous
 62
     3
100
AcDbLine
 10
-299.8500000378368
 20
290.0000077391456
 30
0.0
 11
-298.6500000378368
 21
290.0000077391456
 31
0.0
  0
LINE
  5
412
330
49
100
AcDbEntity
  8
0
  6
Continuous
 62
     3
100
AcDbLine
 10
-303.1715390687542
 20
290.0000077391456
 30
0.0
 11
-304.3284610069194
 21
290.0000077391456
 31
0.0
  0
LINE
  5
413
330
49
100
AcDbEntity
  8
0
  6
Continuous
 62
     3
100
AcDbLine
 10
-297.1715390687542
 20
290.0000077391456
 30
0.0
 11
-298.3284610069194
 21
290.0000077391456
 31
0.0
  0
LINE
  5
414
330
49
100
AcDbEntity
  8
0
  6
Continuous
 62
     3
100
AcDbLine
 10
-300.1715390687542
 20
290.0000077391456
 30
0.0
 11
-301.3284610069194
 21
290.0000077391456
 31
0.0
  0
LINE
  5
415
330
49
100
AcDbEntity
  8
0
  6
Continuous
 62
     3
100
AcDbLine
 10
-301.6500000378368
 20
290.0000077391456
 30
0.0
 11
-301.3284610069194
 21
290.0000077391456
 31
0.0
  0
LINE
  5
416
330
49
100
AcDbEntity
  8
0
  6
Continuous
 62
     3
100
AcDbLine
 10
-300.1715390687542
 20
290.0000077391456
 30
0.0
 11
-299.8500000378368
 21
290.0000077391456
 31
0.0
  0
LINE
  5
417
330
49
100
AcDbEntity
  8
0
  6
Continuous
 62
     3
100
AcDbLine
 10
-303.1715390687542
 20
290.0000077391456
 30
0.0
 11
-302.8500000378368
 21
290.0000077391456
 31
0.0
  0
LINE
  5
418
330
49
100
AcDbEntity
  8
0
  6
Continuous
 62
     3
100
AcDbLine
 10
-309.1715390687542
 20
290.0000077391456
 30
0.0
 11
-310.3284610069194
 21
290.0000077391456
 31
0.0
  0
LINE
  5
419
330
49
100
AcDbEntity
  8
0
  6
Continuous
 62
     3
100
AcDbLine
 10
-308.8500000378368
 20
290.0000077391456
 30
0.0
 11
-307.6500000378368
 21
290.0000077391456
 31
0.0
  0
LINE
  5
41A
330
49
100
AcDbEntity
  8
0
  6
Continuous
 62
     3
100
AcDbLine
 10
-307.6500000378368
 20
290.0000077391456
 30
0.0
 11
-307.3284610069194
 21
290.0000077391456
 31
0.0
  0
LINE
  5
41B
330
49
100
AcDbEntity
  8
0
  6
Continuous
 62
     3
100
AcDbLine
 10
-309.1715390687542
 20
290.0000077391456
 30
0.0
 11
-308.8500000378368
 21
290.0000077391456
 31
0.0
  0
LINE
  5
41C
330
49
100
AcDbEntity
  8
0
  6
Continuous
 62
     3
100
AcDbLine
 10
-305.8500000378368
 20
290.0000077391456
 30
0.0
 11
-304.6500000378368
 21
290.0000077391456
 31
0.0
  0
LINE
  5
41D
330
49
100
AcDbEntity
  8
0
  6
Continuous
 62
     3
100
AcDbLine
 10
-306.1715390687542
 20
290.0000077391456
 30
0.0
 11
-305.8500000378368
 21
290.0000077391456
 31
0.0
  0
LINE
  5
41E
330
49
100
AcDbEntity
  8
0
  6
Continuous
 62
     3
100
AcDbLine
 10
-304.6500000378368
 20
290.0000077391456
 30
0.0
 11
-304.3284610069194
 21
290.0000077391456
 31
0.0
  0
LINE
  5
41F
330
49
100
AcDbEntity
  8
0
  6
Continuous
 62
     3
100
AcDbLine
 10
-276.1715390687542
 20
290.0000077391456
 30
0.0
 11
-275.9643570690087
 21
290.0000077391456
 31
0.0
  0
LINE
  5
420
330
49
100
AcDbEntity
  8
0
  6
Continuous
 62
     3
100
AcDbLine
 10
-293.8500000378368
 20
290.0000077391456
 30
0.0
 11
-292.6500000378368
 21
290.0000077391456
 31
0.0
  0
LINE
  5
421
330
49
100
AcDbEntity
  8
0
  6
Continuous
 62
     3
100
AcDbLine
 10
-292.6500000378368
 20
290.0000077391456
 30
0.0
 11
-292.3284610069194
 21
290.0000077391456
 31
0.0
  0
LINE
  5
422
330
49
100
AcDbEntity
  8
0
  6
Continuous
 62
     7
100
AcDbLine
 10
-270.0000000378368
 20
290.4000077391456
 30
0.0
 11
-270.0000000378368
 21
286.9000077391456
 31
0.0
  0
LINE
  5
423
330
49
100
AcDbEntity
  8
0
  6
Continuous
 62
     7
100
AcDbLine
 10
-270.0000000378368
 20
286.9000077391456
 30
0.0
 11
-270.0000000378368
 21
286.0000077391456
 31
0.0
  0
LINE
  5
424
330
49
100
AcDbEntity
  8
0
  6
Continuous
 62
     7
100
AcDbLine
 10
-270.0000000378368
 20
290.5000077391456
 30
0.0
 11
-270.0000000378368
 21
290.4000077391456
 31
0.0
  0
LINE
  5
425
330
49
100
AcDbEntity
  8
0
  6
Continuous
 62
     3
100
AcDbLine
 10
-269.0000000378368
 20
290.5000077391456
 30
0.0
 11
-269.0000000378368
 21
285.0000077391456
 31
0.0
  0
LINE
  5
426
330
49
100
AcDbEntity
  8
0
  6
Continuous
 62
     3
100
AcDbLine
 10
-270.5000000378368
 20
290.4000077391456
 30
0.0
 11
-275.9571797148092
 21
290.4000077391456
 31
0.0
  0
LINE
  5
427
330
49
100
AcDbEntity
  8
0
  6
Continuous
 62
     3
100
AcDbLine
 10
-270.5000000378368
 20
287.4000077391456
 30
0.0
 11
-270.5000000378368
 21
290.4000077391456
 31
0.0
  0
LINE
  5
428
330
49
100
AcDbEntity
  8
0
  6
Continuous
 62
     3
100
AcDbLine
 10
-270.0000000378368
 20
290.4000077391456
 30
0.0
 11
-270.5000000378368
 21
290.4000077391456
 31
0.0
  0
LINE
  5
429
330
49
100
AcDbEntity
  8
0
  6
Continuous
 62
     7
100
AcDbLine
 10
-251.5000000378368
 20
290.5000077391456
 30
0.0
 11
-251.5000000378368
 21
286.5000077391456
 31
0.0
  0
LINE
  5
42A
330
49
100
AcDbEntity
  8
0
  6
Continuous
 62
     7
100
AcDbLine
 10
-251.5000000378368
 20
286.5000077391456
 30
0.0
 11
-251.5000000378368
 21
285.0000077391456
 31
0.0
  0
LINE
  5
42B
330
49
100
AcDbEntity
  8
0
  6
Continuous
 62
     7
100
AcDbLine
 10
-269.0000000378368
 20
285.0000077391456
 30
0.0
 11
-251.5000000378368
 21
285.0000077391456
 31
0.0
  0
LINE
  5
42C
330
49
100
AcDbEntity
  8
0
  6
Continuous
 62
     3
100
AcDbLine
 10
-269.0000000378368
 20
290.5000077391456
 30
0.0
 11
-251.5000000378368
 21
290.5000077391456
 31
0.0
  0
ARC
  5
42D
330
49
100
AcDbEntity
  8
0
  6
Continuous
 62
     7
100
AcDbCircle
 10
-269.0000000378368
 20
387.0000077391455
 30
0.0
 40
1.0
100
AcDbArc
 50
90.0
 51
180.0
  0
ARC
  5
42E
330
49
100
AcDbEntity
  8
0
  6
Continuous
 62
     7
100
AcDbCircle
 10
-270.5000000378368
 20
386.1000077391456
 30
0.0
 40
0.5
100
AcDbArc
 50
-90.0
 51
0.0
  0
ARC
  5
42F
330
49
100
AcDbEntity
  8
0
  6
Continuous
 62
     7
100
AcDbCircle
 10
-269.0000000378368
 20
286.0000077391456
 30
0.0
 40
1.0
100
AcDbArc
 50
180.0
 51
-90.0
  0
ARC
  5
430
330
49
100
AcDbEntity
  8
0
  6
Continuous
 62
     7
100
AcDbCircle
 10
-270.5000000378368
 20
286.9000077391456
 30
0.0
 40
0.5
100
AcDbArc
 50
0.0
 51
90.0
  0
SPLINE
  5
431
330
49
100
AcDbEntity
  8
0
  6
Continuous
 62
     7
100
AcDbSpline
210
0.0
220
0.0
230
1.0
 70
     8
 71
     3
 72
     9
 73
     5
 74
     3
 42
0.0000000001
 43
0.0000000001
 44
0.00000001
 40
0.0
 40
0.0
 40
0.0
 40
0.0
 40
0.2004559868327836
 40
0.4000805864043046
 40
0.4000805864043046
 40
0.4000805864043046
 40
0.4000805864043046
 10
-275.9571797148092
 20
382.6000077391456
 30
0.0
 10
-275.9574772826427
 20
382.666829128873
 30
0.0
 10
-275.9580711841529
 20
382.8001947679282
 30
0.0
 10
-275.9622646788205
 20
382.9334957507607
 30
0.0
 10
-275.9643570690095
 20
383.0000077391568
 30
0.0
 11
-275.9571797148092
 21
382.6000077391456
 31
0.0
 11
-275.9589760605514
 21
382.8004556770225
 31
0.0
 11
-275.9643570690095
 21
383.0000077391568
 31
0.0
  0
SPLINE
  5
432
330
49
100
AcDbEntity
  8
0
  6
Continuous
 62
     7
100
AcDbSpline
210
0.0
220
0.0
230
1.0
 70
     8
 71
     3
 72
    20
 73
    16
 74
    14
 42
0.0000000001
 43
0.0000000001
 44
0.00000001
 40
0.0
 40
0.0
 40
0.0
 40
0.0
 40
0.2524589702997674
 40
0.4680556435004593
 40
0.9344452473725853
 40
1.353562633706334
 40
1.72180334303291
 40
1.945864452761779
 40
2.123403736040902
 40
2.259651165573167
 40
2.359827065375703
 40
2.429137145908281
 40
2.472764467656181
 40
2.537750306476644
 40
2.575468901756704
 40
2.575468901756704
 40
2.575468901756704
 40
2.575468901756704
 10
-275.9643570690095
 20
383.0000077391568
 30
0.0
 10
-275.9673138290048
 20
383.0841088600756
 30
0.0
 10
-275.9727956235341
 20
383.240031243123
 30
0.0
 10
-275.9825027716305
 20
383.5513621859315
 30
0.0
 10
-275.9921761880228
 20
383.918273068532
 30
0.0
 10
-275.9996254124081
 20
384.3361282344554
 30
0.0
 10
-276.0021305618794
 20
384.6732673234058
 30
0.0
 10
-276.0009683232537
 20
384.9298838441462
 30
0.0
 10
-275.9980271075645
 20
385.1091462136755
 30
0.0
 10
-275.9938669980534
 20
385.2470785808933
 30
0.0
 10
-275.9890975885609
 20
385.3488781509457
 30
0.0
 10
-275.9845122183823
 20
385.4197828342787
 30
0.0
 10
-275.9792313196575
 20
385.478837665516
 30
0.0
 10
-275.974245034616
 20
385.5274461107007
 30
0.0
 10
-275.9670130448449
 20
385.5609259060346
 30
0.0
 10
-275.9643570690087
 20
385.5732214886093
 30
0.0
 11
-275.9643570690095
 21
383.0000077391568
 31
0.0
 11
-275.9730470991556
 21
383.2523171029562
 31
0.0
 11
-275.9797882484903
 21
383.4678083612496
 31
0.0
 11
-275.9918929628228
 21
383.9340408552812
 31
0.0
 11
-275.9991547258481
 21
384.3530953270686
 31
0.0
 11
-276.001574990622
 21
384.7213280827052
 31
0.0
 11
-276.0004032085711
 21
384.9453861283536
 31
0.0
 11
-275.9973411382342
 21
385.1228990034712
 31
0.0
 11
-275.9930686933344
 21
385.2590794288954
 31
0.0
 11
-275.988265787595
 21
385.3591401254636
 31
0.0
 11
-275.9836123347392
 21
385.4282938140127
 31
0.0
 11
-275.9797882484903
 21
385.4717532153806
 31
0.0
 11
-275.9718215991968
 21
385.5362488876868
 31
0.0
 11
-275.9643570690087
 21
385.5732214886093
 31
0.0
  0
SPLINE
  5
433
330
49
100
AcDbEntity
  8
0
  6
Continuous
 62
     7
100
AcDbSpline
210
0.0
220
0.0
230
1.0
 70
     8
 71
     3
 72
    19
 73
    15
 74
    13
 42
0.0000000001
 43
0.0000000001
 44
0.00000001
 40
0.0
 40
0.0
 40
0.0
 40
0.0
 40
0.0421379495758086
 40
0.1027027674639528
 40
0.2861070056053965
 40
0.4977281019290153
 40
0.6996081653977735
 40
0.8536430801781697
 40
1.055248031261713
 40
1.328077538659301
 40
1.677124296000311
 40
2.107393018377138
 40
2.340794992138373
 40
2.575448662762585
 40
2.575448662762585
 40
2.575448662762585
 40
2.575448662762585
 10
-275.9643570690095
 20
287.4267939896834
 30
0.0
 10
-275.9672715302988
 20
287.440542267712
 30
0.0
 10
-275.9743749428539
 20
287.4740509271414
 30
0.0
 10
-275.9842472739127
 20
287.5690302269709
 30
0.0
 10
-275.9932903954079
 20
287.7206121851568
 30
0.0
 10
-275.9988093273316
 20
287.9195409500619
 30
0.0
 10
-276.0012153205754
 20
288.1087025965584
 30
0.0
 10
-276.0017822200357
 20
288.2945445048394
 30
0.0
 10
-276.0009247917949
 20
288.5040339711263
 30
0.0
 10
-275.9977051982031
 20
288.7785117398791
 30
0.0
 10
-275.9909545189064
 20
289.1291649386775
 30
0.0
 10
-275.9819695554166
 20
289.466620766808
 30
0.0
 10
-275.9725996736282
 20
289.7659161635331
 30
0.0
 10
-275.9671094979124
 20
289.9218382225242
 30
0.0
 10
-275.9643570690087
 20
290.0000077391456
 30
0.0
 11
-275.9643570690095
 21
287.4267939896834
 31
0.0
 11
-275.9725012400623
 21
287.4681374205076
 31
0.0
 11
-275.9797882484903
 21
287.5282622629107
 31
0.0
 11
-275.9918274186433
 21
287.7112709319684
 31
0.0
 11
-275.9983571677294
 21
287.9227912638187
 31
0.0
 11
-276.0010491427289
 21
288.124653378384
 31
0.0
 11
-276.001574990622
 21
288.278687395586
 31
0.0
 11
-276.0008038991874
 21
288.4802908720426
 31
0.0
 11
-275.9977031849522
 21
288.7531027590235
 31
0.0
 11
-275.991091688019
 21
289.1020868946494
 31
0.0
 11
-275.9797882484903
 21
289.5322071170415
 31
0.0
 11
-275.9724614993154
 21
289.7654940650308
 31
0.0
 11
-275.9643570690087
 21
290.0000077391456
 31
0.0
  0
SPLINE
  5
434
330
49
100
AcDbEntity
  8
0
  6
Continuous
 62
     7
100
AcDbSpline
210
0.0
220
0.0
230
1.0
 70
     8
 71
     3
 72
     9
 73
     5
 74
     3
 42
0.0000000001
 43
0.0000000001
 44
0.00000001
 40
0.0
 40
0.0
 40
0.0
 40
0.0
 40
0.199624599561729
 40
0.4000805863931474
 40
0.4000805863931474
 40
0.4000805863931474
 40
0.4000805863931474
 10
-275.9643570690087
 20
290.0000077391456
 30
0.0
 10
-275.96226467882
 20
290.0665197275384
 30
0.0
 10
-275.9580711841529
 20
290.1998207103671
 30
0.0
 10
-275.9574772826426
 20
290.3331863494188
 30
0.0
 10
-275.9571797148092
 20
290.4000077391456
 30
0.0
 11
-275.9643570690087
 21
290.0000077391456
 31
0.0
 11
-275.9589760605513
 21
290.1995598012701
 31
0.0
 11
-275.9571797148092
 21
290.4000077391456
 31
0.0
  0
ENDBLK
  5
4B
330
49
100
AcDbEntity
  8
0
100
AcDbBlockEnd
  0
BLOCK
  5
4D
330
4C
100
AcDbEntity
  8
0
100
AcDbBlockBegin
  2
10953_Koerper__3
 70
     0
 71
     0
 10
-262.5000000378368
 20
239.5000077391451
 30
0.0
  3
10953_Koerper__3
  1

  0
LINE
  5
435
330
4C
100
AcDbEntity
  8
0
  6
Continuous
 62
     7
100
AcDbLine
 10
-251.5000000378368
 20
286.5000077391456
 30
0.0
 11
-250.5000000378368
 21
286.5000077391451
 31
0.0
  0
LINE
  5
436
330
4C
100
AcDbEntity
  8
0
  6
Continuous
 62
     3
100
AcDbLine
 10
-244.0000000378368
 20
291.0000077391451
 30
0.0
 11
-231.5000000378367
 21
291.0000077391452
 31
0.0
  0
LINE
  5
437
330
4C
100
AcDbEntity
  8
0
  6
Continuous
 62
     7
100
AcDbLine
 10
-248.5621778643279
 20
239.5000077391451
 30
0.0
 11
-249.5000000378368
 21
243.0000077391451
 31
0.0
  0
LINE
  5
438
330
4C
100
AcDbEntity
  8
0
  6
Continuous
 62
     3
100
AcDbLine
 10
-230.5000000378367
 20
291.0000077391451
 30
0.0
 11
-231.5000000378367
 21
291.0000077391452
 31
0.0
  0
LINE
  5
439
330
4C
100
AcDbEntity
  8
0
  6
Continuous
 62
     7
100
AcDbLine
 10
-262.0000000378368
 20
388.0000077391455
 30
0.0
 11
-262.0000000378368
 21
390.360007739145
 31
0.0
  0
LINE
  5
43A
330
4C
100
AcDbEntity
  8
0
  6
Continuous
 62
     7
100
AcDbLine
 10
-262.5000000378368
 20
390.360007739145
 30
0.0
 11
-262.0000000378368
 21
390.360007739145
 31
0.0
  0
LINE
  5
43B
330
4C
100
AcDbEntity
  8
0
  6
Continuous
 62
     3
100
AcDbLine
 10
-260.7000000378368
 20
430.5000077391445
 30
0.0
 11
-262.0000000378368
 21
430.5000077391444
 31
0.0
  0
LINE
  5
43C
330
4C
100
AcDbEntity
  8
0
  6
Continuous
 62
     7
100
AcDbLine
 10
-262.5000000378368
 20
390.360007739145
 30
0.0
 11
-262.5000000378368
 21
400.360007739145
 31
0.0
  0
LINE
  5
43D
330
4C
100
AcDbEntity
  8
0
  6
Continuous
 62
     7
100
AcDbLine
 10
-261.914738985773
 20
400.360007739145
 30
0.0
 11
-261.914738985773
 21
416.5000077391445
 31
0.0
  0
LINE
  5
43E
330
4C
100
AcDbEntity
  8
0
  6
Continuous
 62
     7
100
AcDbLine
 10
-262.5000000378368
 20
400.360007739145
 30
0.0
 11
-262.5000000378368
 21
416.5000077391445
 31
0.0
  0
LINE
  5
43F
330
4C
100
AcDbEntity
  8
0
  6
Continuous
 62
     7
100
AcDbLine
 10
-262.5000000378368
 20
400.360007739145
 30
0.0
 11
-261.914738985773
 21
400.360007739145
 31
0.0
  0
LINE
  5
440
330
4C
100
AcDbEntity
  8
0
  6
Continuous
 62
     7
100
AcDbLine
 10
-261.914738985773
 20
400.360007739145
 30
0.0
 11
-261.6570723916556
 21
400.360007739145
 31
0.0
  0
LINE
  5
441
330
4C
100
AcDbEntity
  8
0
  6
Continuous
 62
     3
100
AcDbLine
 10
-251.5000000378368
 20
387.5000077391455
 30
0.0
 11
-215.0000000378368
 21
387.5000077391455
 31
0.0
  0
LINE
  5
442
330
4C
100
AcDbEntity
  8
0
  6
Continuous
 62
     3
100
AcDbLine
 10
-216.3000000378368
 20
430.5000077391445
 30
0.0
 11
-260.7000000378368
 21
430.5000077391445
 31
0.0
  0
LINE
  5
443
330
4C
100
AcDbEntity
  8
0
  6
Continuous
 62
     3
100
AcDbLine
 10
-215.0000000378368
 20
430.5000077391444
 30
0.0
 11
-216.3000000378368
 21
430.5000077391445
 31
0.0
  0
LINE
  5
444
330
4C
100
AcDbEntity
  8
0
  6
Continuous
 62
     7
100
AcDbLine
 10
-215.0000000378368
 20
387.5000077391455
 30
0.0
 11
-215.0000000378368
 21
416.5000077391445
 31
0.0
  0
LINE
  5
445
330
4C
100
AcDbEntity
  8
0
  6
Continuous
 62
     7
100
AcDbLine
 10
-251.5000000378368
 20
386.5000077391455
 30
0.0
 11
-214.0000000378368
 21
386.5000077391455
 31
0.0
  0
LINE
  5
446
330
4C
100
AcDbEntity
  8
0
  6
Continuous
 62
     7
100
AcDbLine
 10
-214.0000000378368
 20
386.5000077391455
 30
0.0
 11
-208.5000000378368
 21
386.5000077391451
 31
0.0
  0
LINE
  5
447
330
4C
100
AcDbEntity
  8
0
  6
Continuous
 62
     7
100
AcDbLine
 10
-208.5000000378368
 20
386.5000077391451
 30
0.0
 11
-208.5000000378368
 21
382.0000077391451
 31
0.0
  0
LINE
  5
448
330
4C
100
AcDbEntity
  8
0
  6
Continuous
 62
     3
100
AcDbLine
 10
-244.0000000378368
 20
382.000007739145
 30
0.0
 11
-208.5000000378368
 21
382.0000077391451
 31
0.0
  0
LINE
  5
449
330
4C
100
AcDbEntity
  8
0
  6
Continuous
 62
     7
100
AcDbLine
 10
-212.5000000378368
 20
345.700007739145
 30
0.0
 11
-214.5000000378368
 21
345.700007739145
 31
0.0
  0
LINE
  5
44A
330
4C
100
AcDbEntity
  8
0
  6
Continuous
 62
     3
100
AcDbLine
 10
-208.5000000378368
 20
342.5000077391451
 30
0.0
 11
-211.5000000378368
 21
342.5000077391451
 31
0.0
  0
LINE
  5
44B
330
4C
100
AcDbEntity
  8
0
  6
Continuous
 62
     7
100
AcDbLine
 10
-214.5000000378368
 20
347.5000077391451
 30
0.0
 11
-211.5000000378368
 21
347.5000077391451
 31
0.0
  0
LINE
  5
44C
330
4C
100
AcDbEntity
  8
0
  6
Continuous
 62
     7
100
AcDbLine
 10
-208.5000000378368
 20
347.5000077391451
 30
0.0
 11
-211.5000000378368
 21
347.5000077391451
 31
0.0
  0
LINE
  5
44D
330
4C
100
AcDbEntity
  8
0
  6
Continuous
 62
     7
100
AcDbLine
 10
-212.5000000378368
 20
327.300007739145
 30
0.0
 11
-214.5000000378368
 21
327.300007739145
 31
0.0
  0
LINE
  5
44E
330
4C
100
AcDbEntity
  8
0
  6
Continuous
 62
     3
100
AcDbLine
 10
-208.5000000378368
 20
330.5000077391451
 30
0.0
 11
-211.5000000378368
 21
330.5000077391451
 31
0.0
  0
LINE
  5
44F
330
4C
100
AcDbEntity
  8
0
  6
Continuous
 62
     7
100
AcDbLine
 10
-211.5000000378368
 20
327.300007739145
 30
0.0
 11
-212.5000000378368
 21
327.300007739145
 31
0.0
  0
LINE
  5
450
330
4C
100
AcDbEntity
  8
0
  6
Continuous
 62
     7
100
AcDbLine
 10
-208.5000000378368
 20
382.0000077391451
 30
0.0
 11
-208.5000000378368
 21
347.5000077391451
 31
0.0
  0
LINE
  5
451
330
4C
100
AcDbEntity
  8
0
  6
Continuous
 62
     7
100
AcDbLine
 10
-208.5000000378368
 20
342.5000077391451
 30
0.0
 11
-208.5000000378368
 21
347.5000077391451
 31
0.0
  0
LINE
  5
452
330
4C
100
AcDbEntity
  8
0
  6
Continuous
 62
     7
100
AcDbLine
 10
-208.5000000378368
 20
342.5000077391451
 30
0.0
 11
-208.5000000378368
 21
330.5000077391451
 31
0.0
  0
LINE
  5
453
330
4C
100
AcDbEntity
  8
0
  6
Continuous
 62
     7
100
AcDbLine
 10
-211.5000000378368
 20
342.5000077391451
 30
0.0
 11
-211.5000000378368
 21
345.700007739145
 31
0.0
  0
LINE
  5
454
330
4C
100
AcDbEntity
  8
0
  6
Continuous
 62
     7
100
AcDbLine
 10
-211.5000000378368
 20
345.700007739145
 30
0.0
 11
-212.5000000378368
 21
345.700007739145
 31
0.0
  0
LINE
  5
455
330
4C
100
AcDbEntity
  8
0
  6
Continuous
 62
     3
100
AcDbLine
 10
-212.5000000378368
 20
345.700007739145
 30
0.0
 11
-212.5000000378368
 21
327.300007739145
 31
0.0
  0
LINE
  5
456
330
4C
100
AcDbEntity
  8
0
  6
Continuous
 62
     7
100
AcDbLine
 10
-211.5000000378368
 20
345.700007739145
 30
0.0
 11
-211.5000000378368
 21
347.5000077391451
 31
0.0
  0
LINE
  5
457
330
4C
100
AcDbEntity
  8
0
  6
Continuous
 62
     7
100
AcDbLine
 10
-211.5000000378368
 20
327.300007739145
 30
0.0
 11
-211.5000000378368
 21
330.5000077391451
 31
0.0
  0
LINE
  5
458
330
4C
100
AcDbEntity
  8
0
  6
Continuous
 62
     7
100
AcDbLine
 10
-214.5000000378368
 20
325.5000077391451
 30
0.0
 11
-214.5000000378368
 21
327.300007739145
 31
0.0
  0
LINE
  5
459
330
4C
100
AcDbEntity
  8
0
  6
Continuous
 62
     7
100
AcDbLine
 10
-211.5000000378368
 20
342.5000077391451
 30
0.0
 11
-211.5000000378368
 21
330.5000077391451
 31
0.0
  0
LINE
  5
45A
330
4C
100
AcDbEntity
  8
0
  6
Continuous
 62
     7
100
AcDbLine
 10
-214.5000000378368
 20
325.5000077391451
 30
0.0
 11
-211.5000000378368
 21
325.5000077391451
 31
0.0
  0
LINE
  5
45B
330
4C
100
AcDbEntity
  8
0
  6
Continuous
 62
     7
100
AcDbLine
 10
-211.5000000378368
 20
325.5000077391451
 30
0.0
 11
-211.5000000378368
 21
327.300007739145
 31
0.0
  0
LINE
  5
45C
330
4C
100
AcDbEntity
  8
0
  6
Continuous
 62
     7
100
AcDbLine
 10
-214.5000000378368
 20
347.5000077391451
 30
0.0
 11
-214.5000000378368
 21
345.700007739145
 31
0.0
  0
LINE
  5
45D
330
4C
100
AcDbEntity
  8
0
  6
Continuous
 62
     7
100
AcDbLine
 10
-218.4378222113458
 20
239.5000077391451
 30
0.0
 11
-217.5000000378368
 21
243.0000077391451
 31
0.0
  0
LINE
  5
45E
330
4C
100
AcDbEntity
  8
0
  6
Continuous
 62
     7
100
AcDbLine
 10
-217.5000000378368
 20
285.5000077391451
 30
0.0
 11
-217.5000000378368
 21
243.0000077391451
 31
0.0
  0
LINE
  5
45F
330
4C
100
AcDbEntity
  8
0
  6
Continuous
 62
     3
100
AcDbLine
 10
-217.5000000378368
 20
285.5000077391451
 30
0.0
 11
-249.5000000378368
 21
285.5000077391451
 31
0.0
  0
LINE
  5
460
330
4C
100
AcDbEntity
  8
0
  6
Continuous
 62
     7
100
AcDbLine
 10
-250.5000000378368
 20
286.5000077391451
 30
0.0
 11
-216.5000000378368
 21
286.5000077391451
 31
0.0
  0
LINE
  5
461
330
4C
100
AcDbEntity
  8
0
  6
Continuous
 62
     3
100
AcDbLine
 10
-230.5000000378367
 20
291.0000077391451
 30
0.0
 11
-208.5000000378368
 21
291.0000077391451
 31
0.0
  0
LINE
  5
462
330
4C
100
AcDbEntity
  8
0
  6
Continuous
 62
     7
100
AcDbLine
 10
-216.5000000378368
 20
286.5000077391451
 30
0.0
 11
-208.5000000378368
 21
286.5000077391451
 31
0.0
  0
LINE
  5
463
330
4C
100
AcDbEntity
  8
0
  6
Continuous
 62
     7
100
AcDbLine
 10
-208.5000000378368
 20
325.5000077391451
 30
0.0
 11
-208.5000000378368
 21
291.0000077391451
 31
0.0
  0
LINE
  5
464
330
4C
100
AcDbEntity
  8
0
  6
Continuous
 62
     7
100
AcDbLine
 10
-208.5000000378368
 20
291.0000077391451
 30
0.0
 11
-208.5000000378368
 21
286.5000077391451
 31
0.0
  0
LINE
  5
465
330
4C
100
AcDbEntity
  8
0
  6
Continuous
 62
     7
100
AcDbLine
 10
-208.5000000378368
 20
325.5000077391451
 30
0.0
 11
-211.5000000378368
 21
325.5000077391451
 31
0.0
  0
LINE
  5
466
330
4C
100
AcDbEntity
  8
0
  6
Continuous
 62
     7
100
AcDbLine
 10
-208.5000000378368
 20
325.5000077391451
 30
0.0
 11
-208.5000000378368
 21
330.5000077391451
 31
0.0
  0
LINE
  5
467
330
4C
100
AcDbEntity
  8
0
  6
Continuous
 62
     7
100
AcDbLine
 10
-217.5000000378368
 20
243.0000077391451
 30
0.0
 11
-249.5000000378368
 21
243.0000077391451
 31
0.0
  0
LINE
  5
468
330
4C
100
AcDbEntity
  8
0
  6
Continuous
 62
     7
100
AcDbLine
 10
-249.5000000378368
 20
285.5000077391451
 30
0.0
 11
-249.5000000378368
 21
243.0000077391451
 31
0.0
  0
LINE
  5
469
330
4C
100
AcDbEntity
  8
0
  6
Continuous
 62
     7
100
AcDbLine
 10
-218.4378222113458
 20
239.5000077391451
 30
0.0
 11
-248.5621778643279
 21
239.5000077391451
 31
0.0
  0
LINE
  5
46A
330
4C
100
AcDbEntity
  8
1
  6
DOT_CENTER
 62
     2
100
AcDbLine
 10
-233.5000000378368
 20
239.500007739145
 30
0.0
 11
-233.5000000378368
 21
285.5000077391451
 31
0.0
  0
ARC
  5
46B
330
4C
100
AcDbEntity
  8
0
  6
Continuous
 62
     7
100
AcDbCircle
 10
-250.5000000378368
 20
285.5000077391451
 30
0.0
 40
1.0
100
AcDbArc
 50
0.0
 51
90.0
  0
ARC
  5
46C
330
4C
100
AcDbEntity
  8
0
  6
Continuous
 62
     7
100
AcDbCircle
 10
-116.9243095351966
 20
390.3908412014525
 30
0.0
 40
145.0756937792139
100
AcDbArc
 50
176.0597006926021
 51
-179.9878227205035
  0
ARC
  5
46D
330
4C
100
AcDbEntity
  8
0
  6
Continuous
 62
     7
100
AcDbCircle
 10
-214.0000000378368
 20
387.5000077391455
 30
0.0
 40
1.0
100
AcDbArc
 50
180.0
 51
-90.0
  0
ARC
  5
46E
330
4C
100
AcDbEntity
  8
0
  6
Continuous
 62
     7
100
AcDbCircle
 10
-216.5000000378368
 20
285.5000077391451
 30
0.0
 40
1.0
100
AcDbArc
 50
90.0
 51
180.0
  0
ENDBLK
  5
4E
330
4C
100
AcDbEntity
  8
0
100
AcDbBlockEnd
  0
BLOCK
  5
54
330
4F
100
AcDbEntity
  8
0
100
AcDbBlockBegin
  2
Bgr_Zusammenstellung__4
 70
     0
 71
     0
 10
-361.5000000378369
 20
239.5000077391451
 30
0.0
  3
Bgr_Zusammenstellung__4
  1

  0
INSERT
  5
50
330
4F
100
AcDbEntity
  8
0
100
AcDbBlockReference
  2
01096D_Steckdichtung_20-32__1
 10
-266.7000000378368
 20
416.5000077391445
 30
0.0
  0
INSERT
  5
51
330
4F
100
AcDbEntity
  8
0
100
AcDbBlockReference
  2
10995_Abdeckplatte__2
 10
-361.5000000378369
 20
281.5000077391456
 30
0.0
  0
INSERT
  5
52
330
4F
100
AcDbEntity
  8
0
100
AcDbBlockReference
  2
10996_Bauschutz
 10
-319.8000000378368
 20
285.0000077391456
 30
0.0
  0
INSERT
  5
53
330
4F
100
AcDbEntity
  8
0
100
AcDbBlockReference
  2
10953_Koerper__3
 10
-262.5000000378368
 20
239.5000077391451
 30
0.0
  0
ENDBLK
  5
55
330
4F
100
AcDbEntity
  8
0
100
AcDbBlockEnd
  0
BLOCK
  5
58
330
56
100
AcDbEntity
  8
0
100
AcDbBlockBegin
  2
SA_rechts1
 70
     0
 71
     0
 10
-265.0000000189203
 20
336.0000026539202
 30
0.0
  3
SA_rechts1
  1

  0
INSERT
  5
57
330
56
100
AcDbEntity
  8
0
100
AcDbBlockReference
  2
Bgr_Zusammenstellung__4
 10
-361.5000000378369
 20
239.5000077391451
 30
0.0
  0
LINE
  5
46F
330
56
100
AcDbEntity
  8
1
  6
Continuous
 62
     7
100
AcDbLine
 10
-318.5000000378368
 20
287.4000077391456
 30
0.0
 11
-318.5000000378368
 21
283.0000077391456
 31
0.0
  0
LINE
  5
470
330
56
100
AcDbEntity
  8
1
  6
Continuous
 62
     7
100
AcDbLine
 10
-268.5000000378368
 20
285.0000077391456
 30
0.0
 11
-268.5000000378368
 21
283.0000077391456
 31
0.0
  0
LINE
  5
471
330
56
100
AcDbEntity
  8
1
  6
Continuous
 62
     7
100
AcDbLine
 10
-222.5000000378368
 20
432.5000077391445
 30
0.0
 11
-222.5000000378368
 21
435.219188247918
 31
0.0
  0
LINE
  5
472
330
56
100
AcDbEntity
  8
1
  6
Continuous
 62
     7
100
AcDbLine
 10
-254.5000000378368
 20
432.5000077391445
 30
0.0
 11
-254.5000000378368
 21
435.219188247918
 31
0.0
  0
DIMENSION
  5
47E
330
56
100
AcDbEntity
  8
1
100
AcDbDimension
  2
*D13
 10
-171.386189268932
 20
239.5000077391451
 30
0.0
 11
-178.886189268932
 21
336.29657213979
 31
0.0
 70
    32
  1
<>
 71
     5
 42
-1.0
 53
90.0
  3
ME10_DIM_10
100
AcDbAlignedDimension
 13
-212.3000000378368
 23
432.5000077391445
 33
0.0
 14
-218.4378222113458
 24
239.5000077391451
 34
0.0
 50
90.0
100
AcDbRotatedDimension
  0
DIMENSION
  5
489
330
56
100
AcDbEntity
  8
1
100
AcDbDimension
  2
*D14
 10
-318.5000000378368
 20
260.731987954808
 30
0.0
 11
-293.995582306298
 21
268.231987954808
 31
0.0
 70
    32
  1
<>
 71
     5
 42
-1.0
 53
0.00013888888889
  3
ME10_DIM_11
100
AcDbAlignedDimension
 13
-268.5000000378368
 23
283.0000077391456
 33
0.0
 14
-318.5000000378368
 24
283.0000077391456
 34
0.0
100
AcDbRotatedDimension
  0
DIMENSION
  5
496
330
56
100
AcDbEntity
  8
1
100
AcDbDimension
  2
*D15
 10
-268.5000000378368
 20
189.5016516849398
 30
0.0
 11
-238.773269191138
 21
197.0016516849398
 31
0.0
 70
    32
  1
<>
 71
     5
 42
-1.0
 53
0.00013888888889
  3
ME10_DIM_12
100
AcDbAlignedDimension
 13
-208.5000000378368
 23
286.5000077391451
 33
0.0
 14
-268.5000000378368
 24
283.0000077391456
 34
0.0
100
AcDbRotatedDimension
  0
DIMENSION
  5
4A2
330
56
100
AcDbEntity
  8
1
100
AcDbDimension
  2
*D16
 10
-254.5000000378368
 20
446.089271128594
 30
0.0
 11
-287.645959566516
 21
453.589271128594
 31
0.0
 70
    32
  1
<>
 71
     5
 42
-1.0
 53
0.00013888888889
  3
ME10_DIM_13
100
AcDbAlignedDimension
 13
-222.5000000378368
 23
435.219188247918
 33
0.0
 14
-254.5000000378368
 24
435.219188247918
 34
0.0
100
AcDbRotatedDimension
  0
DIMENSION
  5
4AD
330
56
100
AcDbEntity
  8
1
100
AcDbDimension
  2
*D17
 10
-238.5000000378368
 20
461.307460688624
 30
0.0
 11
-223.287188053126
 21
468.807460688624
 31
0.0
 70
    32
  1
<>
 71
     5
 42
-1.0
 53
0.00013888888889
  3
ME10_DIM_14
100
AcDbAlignedDimension
 13
-208.5000000378368
 23
386.5000077391451
 33
0.0
 14
-238.5000000378368
 24
430.5000077391445
 34
0.0
100
AcDbRotatedDimension
  0
DIMENSION
  5
4B9
330
56
100
AcDbEntity
  8
1
100
AcDbDimension
  2
*D18
 10
-217.5000000378368
 20
225.536223362106
 30
0.0
 11
-286.63775314019
 21
233.036223362106
 31
0.0
 70
    32
  1
<>
 71
     5
 42
-1.0
 53
0.00013888888889
  3
ME10_DIM_15
100
AcDbAlignedDimension
 13
-249.5000000378368
 23
243.0000077391451
 33
0.0
 14
-217.5000000378368
 24
243.0000077391451
 34
0.0
100
AcDbRotatedDimension
  0
DIMENSION
  5
4C5
330
56
100
AcDbEntity
  8
1
100
AcDbDimension
  2
*D19
 10
-233.5000000378368
 20
207.127987142026
 30
0.0
 11
-221.089458293936
 21
214.627987142026
 31
0.0
 70
    32
  1
<>
 71
     5
 42
-1.0
 53
0.00013888888889
  3
ME10_DIM_16
100
AcDbAlignedDimension
 13
-208.5000000378368
 23
286.5000077391451
 33
0.0
 14
-233.5000000378368
 24
239.500007739145
 34
0.0
100
AcDbRotatedDimension
  0
DIMENSION
  5
4D0
330
56
100
AcDbEntity
  8
1
100
AcDbDimension
  2
*D20
 10
-188.5798511154806
 20
286.5000077391451
 30
0.0
 11
-196.0798511154806
 21
263.552828506118
 31
0.0
 70
    32
  1
<>
 71
     5
 42
-1.0
 53
90.0
  3
ME10_DIM_17
100
AcDbAlignedDimension
 13
-218.4378222113458
 23
239.5000077391451
 33
0.0
 14
-208.5000000378368
 24
286.5000077391451
 34
0.0
 50
90.0
100
AcDbRotatedDimension
  0
DIMENSION
  5
4DB
330
56
100
AcDbEntity
  8
1
100
AcDbDimension
  2
*D21
 10
-188.5798511154806
 20
432.5000077391445
 30
0.0
 11
-196.0798511154806
 21
408.497899134758
 31
0.0
 70
    32
  1
<>
 71
     5
 42
-1.0
 53
90.0
  3
ME10_DIM_18
100
AcDbAlignedDimension
 13
-208.5000000378368
 23
386.5000077391451
 33
0.0
 14
-212.3000000378368
 24
432.5000077391445
 34
0.0
 50
90.0
100
AcDbRotatedDimension
  0
DIMENSION
  5
4E6
330
56
100
AcDbEntity
  8
1
100
AcDbDimension
  2
*D22
 10
-188.5798511154806
 20
286.5000077391451
 30
0.0
 11
-196.0798511154806
 21
337.637639416552
 31
0.0
 70
    32
  1
<>
 71
     5
 42
-1.0
 53
90.0
  3
ME10_DIM_19
100
AcDbAlignedDimension
 13
-208.5000000378368
 23
386.5000077391451
 33
0.0
 14
-208.5000000378368
 24
286.5000077391451
 34
0.0
 50
90.0
100
AcDbRotatedDimension
  0
ENDBLK
  5
59
330
56
100
AcDbEntity
  8
0
100
AcDbBlockEnd
  0
BLOCK
  5
5B
330
5A
100
AcDbEntity
  8
0
100
AcDbBlockBegin
  2
01096D_Steckdichtung_20-32__5
 70
     0
 71
     0
 10
-101.6999998232136
 20
416.5000077391445
 30
0.0
  3
01096D_Steckdichtung_20-32__5
  1

  0
LINE
  5
4E7
330
5A
100
AcDbEntity
  8
0
  6
Continuous
 62
     7
100
AcDbLine
 10
-45.29999982321365
 20
430.5000077391445
 30
0.0
 11
-45.29999982321365
 21
416.5000077391445
 31
0.0
  0
LINE
  5
4E8
330
5A
100
AcDbEntity
  8
0
  6
Continuous
 62
     3
100
AcDbLine
 10
-45.29999982321365
 20
430.5000077391445
 30
0.0
 11
-49.99999982321364
 21
430.5000077391443
 31
0.0
  0
LINE
  5
4E9
330
5A
100
AcDbEntity
  8
0
  6
Continuous
 62
     3
100
AcDbLine
 10
-49.99999982321364
 20
430.5000077391443
 30
0.0
 11
-51.29999982321354
 21
430.5000077391445
 31
0.0
  0
LINE
  5
4EA
330
5A
100
AcDbEntity
  8
0
  6
Continuous
 62
     7
100
AcDbLine
 10
-45.29999982321365
 20
416.5000077391445
 30
0.0
 11
-101.6999998232136
 21
416.5000077391445
 31
0.0
  0
LINE
  5
4EB
330
5A
100
AcDbEntity
  8
0
  6
Continuous
 62
     3
100
AcDbLine
 10
-96.99999982321356
 20
430.5000077391445
 30
0.0
 11
-101.6999998232136
 21
430.5000077391445
 31
0.0
  0
LINE
  5
4EC
330
5A
100
AcDbEntity
  8
0
  6
Continuous
 62
     3
100
AcDbLine
 10
-95.69999982321355
 20
430.5000077391445
 30
0.0
 11
-96.99999982321356
 21
430.5000077391445
 31
0.0
  0
LINE
  5
4ED
330
5A
100
AcDbEntity
  8
0
  6
Continuous
 62
     7
100
AcDbLine
 10
-101.6999998232136
 20
430.5000077391445
 30
0.0
 11
-101.6999998232136
 21
416.5000077391445
 31
0.0
  0
LINE
  5
4EE
330
5A
100
AcDbEntity
  8
0
  6
Continuous
 62
     3
100
AcDbLine
 10
-51.29999982321354
 20
430.5000077391445
 30
0.0
 11
-95.69999982321355
 21
430.5000077391445
 31
0.0
  0
LINE
  5
4EF
330
5A
100
AcDbEntity
  8
0
  6
Continuous
 62
     7
100
AcDbLine
 10
-47.29999982321365
 20
432.5000077391445
 30
0.0
 11
-99.69999982321355
 21
432.5000077391445
 31
0.0
  0
LINE
  5
4F0
330
5A
100
AcDbEntity
  8
1
  6
DOT_CENTER
 62
     2
100
AcDbLine
 10
-73.4999998232136
 20
430.5000077391445
 30
0.0
 11
-73.49999982321327
 21
391.5000077391455
 31
0.0
  0
LINE
  5
4F1
330
5A
100
AcDbEntity
  8
1
  6
DOT_CENTER
 62
     2
100
AcDbLine
 10
-73.4999998232136
 20
430.5000077391445
 30
0.0
 11
-73.49999982321191
 21
391.5000077391455
 31
0.0
  0
ARC
  5
4F2
330
5A
100
AcDbEntity
  8
0
  6
Continuous
 62
     7
100
AcDbCircle
 10
-47.29999982321365
 20
430.5000077391445
 30
0.0
 40
2.0
100
AcDbArc
 50
0.0
 51
90.0
  0
ARC
  5
4F3
330
5A
100
AcDbEntity
  8
0
  6
Continuous
 62
     7
100
AcDbCircle
 10
-99.69999982321355
 20
430.5000077391445
 30
0.0
 40
2.0
100
AcDbArc
 50
90.0
 51
180.0
  0
ENDBLK
  5
5C
330
5A
100
AcDbEntity
  8
0
100
AcDbBlockEnd
  0
BLOCK
  5
5E
330
5D
100
AcDbEntity
  8
0
100
AcDbBlockBegin
  2
10995_Abdeckplatte__6
 70
     0
 71
     0
 10
-124.4999998232135
 20
281.5000077391456
 30
0.0
  3
10995_Abdeckplatte__6
  1

  0
LINE
  5
4F4
330
5D
100
AcDbEntity
  8
0
  6
Continuous
 62
     7
100
AcDbLine
 10
-124.4999998232135
 20
291.5000077391456
 30
0.0
 11
-124.4999998232135
 21
381.5000077391455
 31
0.0
  0
LINE
  5
4F5
330
5D
100
AcDbEntity
  8
0
  6
Continuous
 62
     7
100
AcDbLine
 10
-121.4999998232135
 20
291.5000077391456
 30
0.0
 11
-121.4999998232135
 21
381.5000077391455
 31
0.0
  0
LINE
  5
4F6
330
5D
100
AcDbEntity
  8
0
  6
Continuous
 62
     7
100
AcDbLine
 10
-14.49999982321356
 20
381.5000077391455
 30
0.0
 11
-14.49999982321356
 21
291.5000077391456
 31
0.0
  0
LINE
  5
4F7
330
5D
100
AcDbEntity
  8
0
  6
Continuous
 62
     7
100
AcDbLine
 10
-17.49999982321356
 20
381.5000077391455
 30
0.0
 11
-17.49999982321356
 21
291.5000077391456
 31
0.0
  0
LINE
  5
4F8
330
5D
100
AcDbEntity
  8
0
  6
Continuous
 62
     3
100
AcDbLine
 10
-121.4999998232135
 20
381.5000077391455
 30
0.0
 11
-124.4999998232135
 21
381.5000077391455
 31
0.0
  0
LINE
  5
4F9
330
5D
100
AcDbEntity
  8
0
  6
Continuous
 62
     3
100
AcDbLine
 10
-114.4999998232136
 20
388.5000077391455
 30
0.0
 11
-114.4999998232136
 21
391.5000077391455
 31
0.0
  0
LINE
  5
4FA
330
5D
100
AcDbEntity
  8
0
  6
Continuous
 62
     3
100
AcDbLine
 10
-24.49999982321356
 20
388.5000077391455
 30
0.0
 11
-24.49999982321356
 21
391.5000077391455
 31
0.0
  0
LINE
  5
4FB
330
5D
100
AcDbEntity
  8
0
  6
Continuous
 62
     3
100
AcDbLine
 10
-17.49999982321356
 20
381.5000077391455
 30
0.0
 11
-14.49999982321356
 21
381.5000077391455
 31
0.0
  0
LINE
  5
4FC
330
5D
100
AcDbEntity
  8
0
  6
Continuous
 62
     7
100
AcDbLine
 10
-114.4999998232136
 20
391.5000077391455
 30
0.0
 11
-24.49999982321356
 21
391.5000077391455
 31
0.0
  0
LINE
  5
4FD
330
5D
100
AcDbEntity
  8
0
  6
Continuous
 62
     7
100
AcDbLine
 10
-114.4999998232136
 20
388.5000077391455
 30
0.0
 11
-24.49999982321356
 21
388.5000077391455
 31
0.0
  0
LINE
  5
4FE
330
5D
100
AcDbEntity
  8
0
  6
Continuous
 62
     3
100
AcDbLine
 10
-17.49999982321356
 20
291.5000077391456
 30
0.0
 11
-14.49999982321356
 21
291.5000077391456
 31
0.0
  0
LINE
  5
4FF
330
5D
100
AcDbEntity
  8
0
  6
Continuous
 62
     3
100
AcDbLine
 10
-121.4999998232135
 20
291.5000077391456
 30
0.0
 11
-124.4999998232135
 21
291.5000077391456
 31
0.0
  0
LINE
  5
500
330
5D
100
AcDbEntity
  8
0
  6
Continuous
 62
     3
100
AcDbLine
 10
-24.49999982321356
 20
281.5000077391456
 30
0.0
 11
-24.49999982321356
 21
284.5000077391456
 31
0.0
  0
LINE
  5
501
330
5D
100
AcDbEntity
  8
0
  6
Continuous
 62
     7
100
AcDbLine
 10
-24.49999982321356
 20
284.5000077391456
 30
0.0
 11
-114.4999998232136
 21
284.5000077391456
 31
0.0
  0
LINE
  5
502
330
5D
100
AcDbEntity
  8
0
  6
Continuous
 62
     7
100
AcDbLine
 10
-24.49999982321356
 20
281.5000077391456
 30
0.0
 11
-114.4999998232136
 21
281.5000077391456
 31
0.0
  0
LINE
  5
503
330
5D
100
AcDbEntity
  8
0
  6
Continuous
 62
     3
100
AcDbLine
 10
-114.4999998232136
 20
284.5000077391456
 30
0.0
 11
-114.4999998232136
 21
281.5000077391456
 31
0.0
  0
LINE
  5
504
330
5D
100
AcDbEntity
  8
1
  6
DOT_CENTER
 62
     2
100
AcDbLine
 10
-69.49999982321324
 20
281.5000077391455
 30
0.0
 11
-69.49999982321324
 21
391.5000077391455
 31
0.0
  0
ARC
  5
505
330
5D
100
AcDbEntity
  8
0
  6
Continuous
 62
     7
100
AcDbCircle
 10
-114.4999998232136
 20
291.5000077391456
 30
0.0
 40
9.9999999999999
100
AcDbArc
 50
180.0
 51
-90.0
  0
ARC
  5
506
330
5D
100
AcDbEntity
  8
0
  6
Continuous
 62
     7
100
AcDbCircle
 10
-24.49999982321356
 20
291.5000077391456
 30
0.0
 40
10.0
100
AcDbArc
 50
-90.0
 51
0.0
  0
ARC
  5
507
330
5D
100
AcDbEntity
  8
0
  6
Continuous
 62
     7
100
AcDbCircle
 10
-24.49999982321356
 20
291.5000077391456
 30
0.0
 40
7.0
100
AcDbArc
 50
-90.0
 51
0.0
  0
ARC
  5
508
330
5D
100
AcDbEntity
  8
0
  6
Continuous
 62
     7
100
AcDbCircle
 10
-114.4999998232136
 20
381.5000077391455
 30
0.0
 40
10.0
100
AcDbArc
 50
90.0
 51
180.0
  0
ARC
  5
509
330
5D
100
AcDbEntity
  8
0
  6
Continuous
 62
     7
100
AcDbCircle
 10
-114.4999998232136
 20
381.5000077391455
 30
0.0
 40
7.0
100
AcDbArc
 50
90.0
 51
180.0
  0
ARC
  5
50A
330
5D
100
AcDbEntity
  8
0
  6
Continuous
 62
     7
100
AcDbCircle
 10
-24.49999982321356
 20
381.5000077391455
 30
0.0
 40
10.0
100
AcDbArc
 50
0.0
 51
90.0
  0
ARC
  5
50B
330
5D
100
AcDbEntity
  8
0
  6
Continuous
 62
     7
100
AcDbCircle
 10
-24.49999982321356
 20
381.5000077391455
 30
0.0
 40
7.0
100
AcDbArc
 50
0.0
 51
90.0
  0
ARC
  5
50C
330
5D
100
AcDbEntity
  8
0
  6
Continuous
 62
     7
100
AcDbCircle
 10
-114.4999998232136
 20
291.5000077391456
 30
0.0
 40
6.999999999999901
100
AcDbArc
 50
180.0
 51
-90.0
  0
ENDBLK
  5
5F
330
5D
100
AcDbEntity
  8
0
100
AcDbBlockEnd
  0
BLOCK
  5
61
330
60
100
AcDbEntity
  8
0
100
AcDbBlockBegin
  2
10953_Koerper__7
 70
     0
 71
     0
 10
-132.4999998232136
 20
239.5000077391451
 30
0.0
  3
10953_Koerper__7
  1

  0
LINE
  5
50D
330
60
100
AcDbEntity
  8
0
  6
Continuous
 62
     7
100
AcDbLine
 10
-125.4999998232135
 20
344.0000077391451
 30
0.0
 11
-126.4999998232135
 21
344.0000077391451
 31
0.0
  0
LINE
  5
50E
330
60
100
AcDbEntity
  8
0
  6
Continuous
 62
     7
100
AcDbLine
 10
-126.4999998232135
 20
329.0000077391451
 30
0.0
 11
-125.4999998232135
 21
329.0000077391451
 31
0.0
  0
LINE
  5
50F
330
60
100
AcDbEntity
  8
0
  6
Continuous
 62
     7
100
AcDbLine
 10
-128.9999998232136
 20
341.5000077391451
 30
0.0
 11
-128.9999998232136
 21
331.5000077391451
 31
0.0
  0
LINE
  5
510
330
60
100
AcDbEntity
  8
0
  6
Continuous
 62
     7
100
AcDbLine
 10
-124.4999998232135
 20
347.5000077391451
 30
0.0
 11
-127.4999998232135
 21
347.5000077391451
 31
0.0
  0
LINE
  5
511
330
60
100
AcDbEntity
  8
0
  6
Continuous
 62
     7
100
AcDbLine
 10
-127.4999998232135
 20
325.5000077391451
 30
0.0
 11
-124.4999998232135
 21
325.5000077391451
 31
0.0
  0
LINE
  5
512
330
60
100
AcDbEntity
  8
0
  6
Continuous
 62
     7
100
AcDbLine
 10
-132.4999998232136
 20
342.5000077391451
 30
0.0
 11
-132.4999998232136
 21
330.5000077391451
 31
0.0
  0
LINE
  5
513
330
60
100
AcDbEntity
  8
0
  6
Continuous
 62
     7
100
AcDbLine
 10
-9.99999982321364
 20
341.5000077391451
 30
0.0
 11
-9.99999982321364
 21
331.5000077391451
 31
0.0
  0
LINE
  5
514
330
60
100
AcDbEntity
  8
0
  6
Continuous
 62
     7
100
AcDbLine
 10
-12.49999982321364
 20
329.0000077391451
 30
0.0
 11
-13.49999982321364
 21
329.0000077391451
 31
0.0
  0
LINE
  5
515
330
60
100
AcDbEntity
  8
0
  6
Continuous
 62
     7
100
AcDbLine
 10
-13.49999982321364
 20
344.0000077391451
 30
0.0
 11
-12.49999982321364
 21
344.0000077391451
 31
0.0
  0
LINE
  5
516
330
60
100
AcDbEntity
  8
0
  6
Continuous
 62
     7
100
AcDbLine
 10
-11.49999982321364
 20
325.5000077391451
 30
0.0
 11
-14.49999982321356
 21
325.5000077391451
 31
0.0
  0
LINE
  5
517
330
60
100
AcDbEntity
  8
0
  6
Continuous
 62
     7
100
AcDbLine
 10
-14.49999982321356
 20
347.5000077391451
 30
0.0
 11
-11.49999982321364
 21
347.5000077391451
 31
0.0
  0
LINE
  5
518
330
60
100
AcDbEntity
  8
0
  6
Continuous
 62
     7
100
AcDbLine
 10
-6.49999982321364
 20
342.5000077391451
 30
0.0
 11
-6.49999982321364
 21
330.5000077391451
 31
0.0
  0
LINE
  5
519
330
60
100
AcDbEntity
  8
0
  6
Continuous
 62
     7
100
AcDbLine
 10
-49.99999982321356
 20
391.5000077391455
 30
0.0
 11
-49.99999982321356
 21
416.5000077391445
 31
0.0
  0
LINE
  5
51A
330
60
100
AcDbEntity
  8
0
  6
Continuous
 62
     3
100
AcDbLine
 10
-49.99999982321364
 20
430.5000077391443
 30
0.0
 11
-51.29999982321354
 21
430.5000077391445
 31
0.0
  0
LINE
  5
51B
330
60
100
AcDbEntity
  8
0
  6
Continuous
 62
     7
100
AcDbLine
 10
-77.49999982321356
 20
400.360007739145
 30
0.0
 11
-73.95599982321386
 21
391.5000077391455
 31
0.0
  0
LINE
  5
51C
330
60
100
AcDbEntity
  8
0
  6
Continuous
 62
     7
100
AcDbLine
 10
-73.04399982321334
 20
391.5000077391455
 30
0.0
 11
-69.49999982321356
 21
400.360007739145
 31
0.0
  0
LINE
  5
51D
330
60
100
AcDbEntity
  8
0
  6
Continuous
 62
     7
100
AcDbLine
 10
-71.49999982321356
 20
400.360007739145
 30
0.0
 11
-71.49999982321356
 21
416.5000077391445
 31
0.0
  0
LINE
  5
51E
330
60
100
AcDbEntity
  8
0
  6
Continuous
 62
     7
100
AcDbLine
 10
-75.49999982321356
 20
416.5000077391445
 30
0.0
 11
-75.49999982321356
 21
400.360007739145
 31
0.0
  0
LINE
  5
51F
330
60
100
AcDbEntity
  8
0
  6
Continuous
 62
     7
100
AcDbLine
 10
-69.49999982321356
 20
400.360007739145
 30
0.0
 11
-71.49999982321356
 21
400.360007739145
 31
0.0
  0
LINE
  5
520
330
60
100
AcDbEntity
  8
0
  6
Continuous
 62
     7
100
AcDbLine
 10
-75.49999982321356
 20
400.360007739145
 30
0.0
 11
-77.49999982321356
 21
400.360007739145
 31
0.0
  0
LINE
  5
521
330
60
100
AcDbEntity
  8
0
  6
Continuous
 62
     7
100
AcDbLine
 10
-96.99999982321356
 20
391.5000077391455
 30
0.0
 11
-96.99999982321356
 21
416.5000077391445
 31
0.0
  0
LINE
  5
522
330
60
100
AcDbEntity
  8
0
  6
Continuous
 62
     3
100
AcDbLine
 10
-95.69999982321355
 20
430.5000077391445
 30
0.0
 11
-96.99999982321356
 21
430.5000077391445
 31
0.0
  0
LINE
  5
523
330
60
100
AcDbEntity
  8
0
  6
Continuous
 62
     3
100
AcDbLine
 10
-51.29999982321354
 20
430.5000077391445
 30
0.0
 11
-95.69999982321355
 21
430.5000077391445
 31
0.0
  0
LINE
  5
524
330
60
100
AcDbEntity
  8
0
  6
Continuous
 62
     7
100
AcDbLine
 10
-110.5621776497048
 20
239.5000077391451
 30
0.0
 11
-111.4999998232136
 21
243.0000077391451
 31
0.0
  0
LINE
  5
525
330
60
100
AcDbEntity
  8
0
  6
Continuous
 62
     7
100
AcDbLine
 10
-79.49999982321364
 20
243.0000077391451
 30
0.0
 11
-111.4999998232136
 21
243.0000077391451
 31
0.0
  0
LINE
  5
526
330
60
100
AcDbEntity
  8
0
  6
Continuous
 62
     7
100
AcDbLine
 10
-80.43782199672253
 20
239.5000077391451
 30
0.0
 11
-79.49999982321364
 21
243.0000077391451
 31
0.0
  0
LINE
  5
527
330
60
100
AcDbEntity
  8
0
  6
Continuous
 62
     7
100
AcDbLine
 10
-80.43782199672253
 20
239.5000077391451
 30
0.0
 11
-110.5621776497048
 21
239.5000077391451
 31
0.0
  0
LINE
  5
528
330
60
100
AcDbEntity
  8
0
  6
Continuous
 62
     7
100
AcDbLine
 10
-111.4999998232136
 20
281.5000077391456
 30
0.0
 11
-111.4999998232136
 21
243.0000077391451
 31
0.0
  0
LINE
  5
529
330
60
100
AcDbEntity
  8
0
  6
Continuous
 62
     7
100
AcDbLine
 10
-79.49999982321364
 20
281.5000077391456
 30
0.0
 11
-79.49999982321364
 21
243.0000077391451
 31
0.0
  0
LINE
  5
52A
330
60
100
AcDbEntity
  8
1
  6
DOT_CENTER
 62
     2
100
AcDbLine
 10
-95.49999982321363
 20
239.5000077391451
 30
0.0
 11
-95.49999982321333
 21
281.5000077391455
 31
0.0
  0
LINE
  5
52B
330
60
100
AcDbEntity
  8
1
  6
DOT_CENTER
 62
     2
100
AcDbLine
 10
-95.49999982321363
 20
239.5000077391451
 30
0.0
 11
-95.49999982321197
 21
281.5000077391455
 31
0.0
  0
ARC
  5
52C
330
60
100
AcDbEntity
  8
0
  6
Continuous
 62
     7
100
AcDbCircle
 10
-127.4999998232135
 20
330.5000077391451
 30
0.0
 40
5.000000000000114
100
AcDbArc
 50
180.0
 51
-90.0
  0
ARC
  5
52D
330
60
100
AcDbEntity
  8
0
  6
Continuous
 62
     7
100
AcDbCircle
 10
-126.4999998232135
 20
331.5000077391451
 30
0.0
 40
2.500000000000114
100
AcDbArc
 50
180.0
 51
-90.0
  0
ARC
  5
52E
330
60
100
AcDbEntity
  8
0
  6
Continuous
 62
     7
100
AcDbCircle
 10
-125.4999998232135
 20
341.5000077391451
 30
0.0
 40
2.499999999999894
100
AcDbArc
 50
66.42182152179711
 51
90.0
  0
ARC
  5
52F
330
60
100
AcDbEntity
  8
0
  6
Continuous
 62
     7
100
AcDbCircle
 10
-125.4999998232135
 20
331.5000077391451
 30
0.0
 40
2.5
100
AcDbArc
 50
-90.0
 51
-66.42182152179868
  0
ARC
  5
530
330
60
100
AcDbEntity
  8
0
  6
Continuous
 62
     7
100
AcDbCircle
 10
-126.4999998232135
 20
341.5000077391451
 30
0.0
 40
2.5
100
AcDbArc
 50
90.0
 51
180.0
  0
ARC
  5
531
330
60
100
AcDbEntity
  8
0
  6
Continuous
 62
     7
100
AcDbCircle
 10
-127.4999998232135
 20
342.5000077391451
 30
0.0
 40
5.0
100
AcDbArc
 50
90.0
 51
180.0
  0
ARC
  5
532
330
60
100
AcDbEntity
  8
0
  6
Continuous
 62
     7
100
AcDbCircle
 10
-11.49999982321364
 20
342.5000077391451
 30
0.0
 40
4.999999999999998
100
AcDbArc
 50
0.0
 51
90.0
  0
ARC
  5
533
330
60
100
AcDbEntity
  8
0
  6
Continuous
 62
     7
100
AcDbCircle
 10
-12.49999982321364
 20
331.5000077391451
 30
0.0
 40
2.5
100
AcDbArc
 50
-90.0
 51
0.0
  0
ARC
  5
534
330
60
100
AcDbEntity
  8
0
  6
Continuous
 62
     7
100
AcDbCircle
 10
-13.49999982321364
 20
331.5000077391451
 30
0.0
 40
2.500000000000018
100
AcDbArc
 50
-113.5781784781997
 51
-90.0
  0
ARC
  5
535
330
60
100
AcDbEntity
  8
0
  6
Continuous
 62
     7
100
AcDbCircle
 10
-13.49999982321364
 20
341.5000077391451
 30
0.0
 40
2.5
100
AcDbArc
 50
90.0
 51
113.5781784782012
  0
ARC
  5
536
330
60
100
AcDbEntity
  8
0
  6
Continuous
 62
     7
100
AcDbCircle
 10
-12.49999982321364
 20
341.5000077391451
 30
0.0
 40
2.499999999999998
100
AcDbArc
 50
0.0
 51
90.0
  0
ARC
  5
537
330
60
100
AcDbEntity
  8
0
  6
Continuous
 62
     7
100
AcDbCircle
 10
-11.49999982321364
 20
330.5000077391451
 30
0.0
 40
5.0
100
AcDbArc
 50
-90.0
 51
0.0
  0
ENDBLK
  5
62
330
60
100
AcDbEntity
  8
0
100
AcDbBlockEnd
  0
BLOCK
  5
67
330
63
100
AcDbEntity
  8
0
100
AcDbBlockBegin
  2
Bgr_Zusammenstellung__8
 70
     0
 71
     0
 10
-132.4999998232136
 20
239.5000077391451
 30
0.0
  3
Bgr_Zusammenstellung__8
  1

  0
INSERT
  5
64
330
63
100
AcDbEntity
  8
0
100
AcDbBlockReference
  2
01096D_Steckdichtung_20-32__5
 10
-101.6999998232136
 20
416.5000077391445
 30
0.0
  0
INSERT
  5
65
330
63
100
AcDbEntity
  8
0
100
AcDbBlockReference
  2
10995_Abdeckplatte__6
 10
-124.4999998232135
 20
281.5000077391456
 30
0.0
  0
INSERT
  5
66
330
63
100
AcDbEntity
  8
0
100
AcDbBlockReference
  2
10953_Koerper__7
 10
-132.4999998232136
 20
239.5000077391451
 30
0.0
  0
ENDBLK
  5
68
330
63
100
AcDbEntity
  8
0
100
AcDbBlockEnd
  0
BLOCK
  5
6B
330
69
100
AcDbEntity
  8
0
100
AcDbBlockBegin
  2
Vordans1
 70
     0
 71
     0
 10
-69.50000000159176
 20
336.0000026539202
 30
0.0
  3
Vordans1
  1

  0
INSERT
  5
6A
330
69
100
AcDbEntity
  8
0
100
AcDbBlockReference
  2
Bgr_Zusammenstellung__8
 10
-132.4999998232136
 20
239.5000077391451
 30
0.0
  0
DIMENSION
  5
544
330
69
100
AcDbEntity
  8
1
100
AcDbDimension
  2
*D23
 10
-69.49999982321324
 20
446.16218099119
 30
0.0
 11
-92.37981071094671
 21
453.66218099119
 31
0.0
 70
    32
  1
<>
 71
     5
 42
-1.0
 53
0.00013888888889
  3
ME10_DIM_20
100
AcDbAlignedDimension
 13
-73.4999998232136
 23
430.5000077391445
 33
0.0
 14
-69.49999982321324
 24
391.5000077391455
 34
0.0
100
AcDbRotatedDimension
  0
DIMENSION
  5
54F
330
69
100
AcDbEntity
  8
1
100
AcDbDimension
  2
*D24
 10
-69.49999982321324
 20
219.5000077391455
 30
0.0
 11
-83.54998816685817
 21
227.0000077391455
 31
0.0
 70
    32
  1
<>
 71
     5
 42
-1.0
 53
0.00013888888889
  3
ME10_DIM_21
100
AcDbAlignedDimension
 13
-95.49999982321363
 23
239.5000077391451
 33
0.0
 14
-69.49999982321324
 24
281.5000077391455
 34
0.0
100
AcDbRotatedDimension
  0
DIMENSION
  5
55A
330
69
100
AcDbEntity
  8
1
100
AcDbDimension
  2
*D25
 10
-124.4999998232135
 20
197.7940448848911
 30
0.0
 11
-71.25912228564621
 21
205.2940448848911
 31
0.0
 70
    32
  1
<>
 71
     5
 42
-1.0
 53
0.00013888888889
  3
ME10_DIM_22
100
AcDbAlignedDimension
 13
-14.49999982321356
 23
291.5000077391456
 33
0.0
 14
-124.4999998232135
 24
291.5000077391456
 34
0.0
100
AcDbRotatedDimension
  0
DIMENSION
  5
565
330
69
100
AcDbEntity
  8
1
100
AcDbDimension
  2
*D26
 10
13.85083002253383
 20
281.5000077391456
 30
0.0
 11
6.35083002253384
 21
337.88239841833
 31
0.0
 70
    32
  1
<>
 71
     5
 42
-1.0
 53
90.0
  3
ME10_DIM_23
100
AcDbAlignedDimension
 13
-24.49999982321356
 23
391.5000077391455
 33
0.0
 14
-24.49999982321356
 24
281.5000077391456
 34
0.0
 50
90.0
100
AcDbRotatedDimension
  0
ENDBLK
  5
6C
330
69
100
AcDbEntity
  8
0
100
AcDbBlockEnd
  0
BLOCK
  5
70
330
6D
100
AcDbEntity
  8
0
100
AcDbBlockBegin
  2
2
 70
     0
 71
     0
 10
0.0
 20
0.0
 30
0.0
  3
2
  1

  0
INSERT
  5
6E
330
6D
100
AcDbEntity
  8
0
100
AcDbBlockReference
  2
SA_rechts1
 10
-132.5000000094601
 20
168.0000013269601
 30
0.0
 41
0.5
 42
0.5
 43
0.5
  0
INSERT
  5
6F
330
6D
100
AcDbEntity
  8
0
100
AcDbBlockReference
  2
Vordans1
 10
-34.75000000079588
 20
168.0000013269601
 30
0.0
 41
0.5
 42
0.5
 43
0.5
  0
ENDBLK
  5
71
330
6D
100
AcDbEntity
  8
0
100
AcDbBlockEnd
  0
BLOCK
  5
47B
330
473
100
AcDbEntity
  8
0
100
AcDbBlockBegin
  2
*D13
 70
     1
 71
     0
 10
0.0
 20
0.0
 30
0.0
  3
*D13
  1

  0
LINE
  5
474
330
473
100
AcDbEntity
  8
1
  6
Continuous
 62
     7
100
AcDbLine
 10
-171.386189268932
 20
239.5000077391451
 30
0.0
 11
-171.386189268932
 21
432.5000077391445
 31
0.0
  0
LINE
  5
475
330
473
100
AcDbEntity
  8
1
  6
Continuous
 62
     7
100
AcDbLine
 10
-212.3000000378368
 20
432.5000077391445
 30
0.0
 11
-167.386189268932
 21
432.5000077391445
 31
0.0
  0
LINE
  5
476
330
473
100
AcDbEntity
  8
1
  6
Continuous
 62
     7
100
AcDbLine
 10
-218.4378222113458
 20
239.5000077391451
 30
0.0
 11
-167.386189268932
 21
239.5000077391451
 31
0.0
  0
SOLID
  5
477
330
473
100
AcDbEntity
  8
1
 62
     7
100
AcDbTrace
 10
-172.3077567520438
 20
246.5000077391451
 30
0.0
 11
-170.4646217858202
 21
246.5000077391451
 31
0.0
 12
-171.386189268932
 22
239.5000077391451
 32
0.0
 13
-171.386189268932
 23
239.5000077391451
 33
0.0
  0
SOLID
  5
478
330
473
100
AcDbEntity
  8
1
 62
     7
100
AcDbTrace
 10
-170.4646217858202
 20
425.5000077391445
 30
0.0
 11
-172.3077567520438
 21
425.5000077391445
 31
0.0
 12
-171.386189268932
 22
432.5000077391445
 32
0.0
 13
-171.386189268932
 23
432.5000077391445
 33
0.0
  0
MTEXT
  5
47A
330
473
100
AcDbEntity
  8
1
 62
     7
100
AcDbMText
 10
-175.386189268932
 20
328.94657213979
 30
0.0
 40
7.0
 41
0.0
 71
     7
 72
     1
  1
193
  7
CONVERTER_11
 11
0.0
 21
1.0
 31
0.0
 73
     1
 44
0.60024009603842
  0
ENDBLK
  5
47C
330
473
100
AcDbEntity
  8
0
100
AcDbBlockEnd
  0
BLOCK
  5
486
330
47F
100
AcDbEntity
  8
0
100
AcDbBlockBegin
  2
*D14
 70
     1
 71
     0
 10
0.0
 20
0.0
 30
0.0
  3
*D14
  1

  0
LINE
  5
480
330
47F
100
AcDbEntity
  8
1
  6
Continuous
 62
     7
100
AcDbLine
 10
-318.5000000378368
 20
260.731987954808
 30
0.0
 11
-268.5000000378368
 21
260.731987954808
 31
0.0
  0
LINE
  5
481
330
47F
100
AcDbEntity
  8
1
  6
Continuous
 62
     7
100
AcDbLine
 10
-268.5000000378368
 20
283.0000077391456
 30
0.0
 11
-268.5000000378368
 21
256.731987954808
 31
0.0
  0
LINE
  5
482
330
47F
100
AcDbEntity
  8
1
  6
Continuous
 62
     7
100
AcDbLine
 10
-318.5000000378368
 20
283.0000077391456
 30
0.0
 11
-318.5000000378368
 21
256.731987954808
 31
0.0
  0
SOLID
  5
483
330
47F
100
AcDbEntity
  8
1
 62
     7
100
AcDbTrace
 10
-311.5000000378368
 20
261.6535554379197
 30
0.0
 11
-311.5000000378368
 21
259.8104204716963
 31
0.0
 12
-318.5000000378368
 22
260.731987954808
 32
0.0
 13
-318.5000000378368
 23
260.731987954808
 33
0.0
  0
SOLID
  5
484
330
47F
100
AcDbEntity
  8
1
 62
     7
100
AcDbTrace
 10
-275.5000000378368
 20
259.8104204716963
 30
0.0
 11
-275.5000000378368
 21
261.6535554379197
 31
0.0
 12
-268.5000000378368
 22
260.731987954808
 32
0.0
 13
-268.5000000378368
 23
260.731987954808
 33
0.0
  0
MTEXT
  5
485
330
47F
100
AcDbEntity
  8
1
 62
     7
100
AcDbMText
 10
-304.0755823062643
 20
264.7319601265027
 30
0.0
 40
7.0
 41
0.0
 71
     7
 72
     1
  1
\C7;0-\C7;50
  7
CONVERTER_11
 11
0.9999999999970619
 21
2.424068405545306E-6
 31
0.0
 73
     1
 44
0.60024009603842
  0
ENDBLK
  5
487
330
47F
100
AcDbEntity
  8
0
100
AcDbBlockEnd
  0
BLOCK
  5
493
330
48A
100
AcDbEntity
  8
0
100
AcDbBlockBegin
  2
*D15
 70
     1
 71
     0
 10
0.0
 20
0.0
 30
0.0
  3
*D15
  1

  0
LINE
  5
48B
330
48A
100
AcDbEntity
  8
1
  6
Continuous
 62
     7
100
AcDbLine
 10
-268.5000000378368
 20
189.5016516849398
 30
0.0
 11
-208.5000000378368
 21
189.5016516849398
 31
0.0
  0
LINE
  5
48C
330
48A
100
AcDbEntity
  8
1
  6
Continuous
 62
     7
100
AcDbLine
 10
-208.5000000378368
 20
286.5000077391451
 30
0.0
 11
-208.5000000378368
 21
240.699573857998
 31
0.0
  0
LINE
  5
48D
330
48A
100
AcDbEntity
  8
1
  6
Continuous
 62
     7
100
AcDbLine
 10
-208.5000000378368
 20
238.230554810262
 30
0.0
 11
-208.5000000378368
 21
185.5016516849398
 31
0.0
  0
LINE
  5
48E
330
48A
100
AcDbEntity
  8
1
  6
Continuous
 62
     7
100
AcDbLine
 10
-268.5000000378368
 20
283.0000077391456
 30
0.0
 11
-268.5000000378368
 21
227.311122425222
 31
0.0
  0
LINE
  5
48F
330
48A
100
AcDbEntity
  8
1
  6
Continuous
 62
     7
100
AcDbLine
 10
-268.5000000378368
 20
222.533869326914
 30
0.0
 11
-268.5000000378368
 21
185.5016516849398
 31
0.0
  0
SOLID
  5
490
330
48A
100
AcDbEntity
  8
1
 62
     7
100
AcDbTrace
 10
-261.5000000378368
 20
190.4232191680516
 30
0.0
 11
-261.5000000378368
 21
188.580084201828
 31
0.0
 12
-268.5000000378368
 22
189.5016516849398
 32
0.0
 13
-268.5000000378368
 23
189.5016516849398
 33
0.0
  0
SOLID
  5
491
330
48A
100
AcDbEntity
  8
1
 62
     7
100
AcDbTrace
 10
-215.5000000378368
 20
188.580084201828
 30
0.0
 11
-215.5000000378368
 21
190.4232191680516
 31
0.0
 12
-208.5000000378368
 22
189.5016516849398
 32
0.0
 13
-208.5000000378368
 23
189.5016516849398
 33
0.0
  0
MTEXT
  5
492
330
48A
100
AcDbEntity
  8
1
 62
     7
100
AcDbMText
 10
-244.023269191138
 20
193.5016516849398
 30
0.0
 40
7.0
 41
0.0
 71
     7
 72
     1
  1
60
  7
CONVERTER_11
 11
0.9999999999970619
 21
2.424068405545306E-6
 31
0.0
 73
     1
 44
0.60024009603842
  0
ENDBLK
  5
494
330
48A
100
AcDbEntity
  8
0
100
AcDbBlockEnd
  0
BLOCK
  5
49F
330
497
100
AcDbEntity
  8
0
100
AcDbBlockBegin
  2
*D16
 70
     1
 71
     0
 10
0.0
 20
0.0
 30
0.0
  3
*D16
  1

  0
LINE
  5
498
330
497
100
AcDbEntity
  8
1
  6
Continuous
 62
     7
100
AcDbLine
 10
-254.5000000378368
 20
446.089271128594
 30
0.0
 11
-222.5000000378368
 21
446.089271128594
 31
0.0
  0
LINE
  5
499
330
497
100
AcDbEntity
  8
1
  6
Continuous
 62
     7
100
AcDbLine
 10
-309.695959566516
 20
446.089271128594
 30
0.0
 11
-254.5000000378368
 21
446.089271128594
 31
0.0
  0
LINE
  5
49A
330
497
100
AcDbEntity
  8
1
  6
Continuous
 62
     7
100
AcDbLine
 10
-222.5000000378368
 20
435.219188247918
 30
0.0
 11
-222.5000000378368
 21
450.089271128594
 31
0.0
  0
LINE
  5
49B
330
497
100
AcDbEntity
  8
1
  6
Continuous
 62
     7
100
AcDbLine
 10
-254.5000000378368
 20
435.219188247918
 30
0.0
 11
-254.5000000378368
 21
450.089271128594
 31
0.0
  0
SOLID
  5
49C
330
497
100
AcDbEntity
  8
1
 62
     7
100
AcDbTrace
 10
-247.5000000378368
 20
447.0108386117058
 30
0.0
 11
-247.5000000378368
 21
445.1677036454823
 31
0.0
 12
-254.5000000378368
 22
446.089271128594
 32
0.0
 13
-254.5000000378368
 23
446.089271128594
 33
0.0
  0
SOLID
  5
49D
330
497
100
AcDbEntity
  8
1
 62
     7
100
AcDbTrace
 10
-229.5000000378368
 20
445.1677036454823
 30
0.0
 11
-229.5000000378368
 21
447.0108386117058
 31
0.0
 12
-222.5000000378368
 22
446.089271128594
 32
0.0
 13
-222.5000000378368
 23
446.089271128594
 33
0.0
  0
MTEXT
  5
49E
330
497
100
AcDbEntity
  8
1
 62
     7
100
AcDbMText
 10
-327.7559595663642
 20
450.0891459012202
 30
0.0
 40
7.0
 41
0.0
 71
     7
 72
     1
  1
\C7;{\Fgdt;n}20-{\Fgdt;n}\C7;32
  7
CONVERTER_11
 11
0.9999999999970619
 21
2.424068405545306E-6
 31
0.0
 73
     1
 44
0.60024009603842
  0
ENDBLK
  5
4A0
330
497
100
AcDbEntity
  8
0
100
AcDbBlockEnd
  0
BLOCK
  5
4AA
330
4A3
100
AcDbEntity
  8
0
100
AcDbBlockBegin
  2
*D17
 70
     1
 71
     0
 10
0.0
 20
0.0
 30
0.0
  3
*D17
  1

  0
LINE
  5
4A4
330
4A3
100
AcDbEntity
  8
1
  6
Continuous
 62
     7
100
AcDbLine
 10
-238.5000000378368
 20
461.307460688624
 30
0.0
 11
-208.5000000378368
 21
461.307460688624
 31
0.0
  0
LINE
  5
4A5
330
4A3
100
AcDbEntity
  8
1
  6
Continuous
 62
     7
100
AcDbLine
 10
-208.5000000378368
 20
386.5000077391451
 30
0.0
 11
-208.5000000378368
 21
465.307460688624
 31
0.0
  0
LINE
  5
4A6
330
4A3
100
AcDbEntity
  8
1
  6
Continuous
 62
     7
100
AcDbLine
 10
-238.5000000378368
 20
430.5000077391445
 30
0.0
 11
-238.5000000378368
 21
465.307460688624
 31
0.0
  0
SOLID
  5
4A7
330
4A3
100
AcDbEntity
  8
1
 62
     7
100
AcDbTrace
 10
-231.5000000378368
 20
462.2290281717358
 30
0.0
 11
-231.5000000378368
 21
460.3858932055123
 31
0.0
 12
-238.5000000378368
 22
461.307460688624
 32
0.0
 13
-238.5000000378368
 23
461.307460688624
 33
0.0
  0
SOLID
  5
4A8
330
4A3
100
AcDbEntity
  8
1
 62
     7
100
AcDbTrace
 10
-215.5000000378368
 20
460.3858932055123
 30
0.0
 11
-215.5000000378368
 21
462.2290281717358
 31
0.0
 12
-208.5000000378368
 22
461.307460688624
 32
0.0
 13
-208.5000000378368
 23
461.307460688624
 33
0.0
  0
MTEXT
  5
4A9
330
4A3
100
AcDbEntity
  8
1
 62
     7
100
AcDbMText
 10
-228.537188053126
 20
465.307460688624
 30
0.0
 40
7.0
 41
0.0
 71
     7
 72
     1
  1
30
  7
CONVERTER_11
 11
0.9999999999970619
 21
2.424068405545306E-6
 31
0.0
 73
     1
 44
0.60024009603842
  0
ENDBLK
  5
4AB
330
4A3
100
AcDbEntity
  8
0
100
AcDbBlockEnd
  0
BLOCK
  5
4B6
330
4AE
100
AcDbEntity
  8
0
100
AcDbBlockBegin
  2
*D18
 70
     1
 71
     0
 10
0.0
 20
0.0
 30
0.0
  3
*D18
  1

  0
LINE
  5
4AF
330
4AE
100
AcDbEntity
  8
1
  6
Continuous
 62
     7
100
AcDbLine
 10
-249.5000000378368
 20
225.536223362106
 30
0.0
 11
-299.58775314019
 21
225.536223362106
 31
0.0
  0
LINE
  5
4B0
330
4AE
100
AcDbEntity
  8
1
  6
Continuous
 62
     7
100
AcDbLine
 10
-217.5000000378368
 20
225.536223362106
 30
0.0
 11
-249.5000000378368
 21
225.536223362106
 31
0.0
  0
LINE
  5
4B1
330
4AE
100
AcDbEntity
  8
1
  6
Continuous
 62
     7
100
AcDbLine
 10
-249.5000000378368
 20
243.0000077391451
 30
0.0
 11
-249.5000000378368
 21
221.536223362106
 31
0.0
  0
LINE
  5
4B2
330
4AE
100
AcDbEntity
  8
1
  6
Continuous
 62
     7
100
AcDbLine
 10
-217.5000000378368
 20
243.0000077391451
 30
0.0
 11
-217.5000000378368
 21
221.536223362106
 31
0.0
  0
SOLID
  5
4B3
330
4AE
100
AcDbEntity
  8
1
 62
     7
100
AcDbTrace
 10
-224.5000000378368
 20
224.6146558789942
 30
0.0
 11
-224.5000000378368
 21
226.4577908452178
 31
0.0
 12
-217.5000000378368
 22
225.536223362106
 32
0.0
 13
-217.5000000378368
 23
225.536223362106
 33
0.0
  0
SOLID
  5
4B4
330
4AE
100
AcDbEntity
  8
1
 62
     7
100
AcDbTrace
 10
-242.5000000378368
 20
226.4577908452178
 30
0.0
 11
-242.5000000378368
 21
224.6146558789942
 31
0.0
 12
-249.5000000378368
 22
225.536223362106
 32
0.0
 13
-249.5000000378368
 23
225.536223362106
 33
0.0
  0
MTEXT
  5
4B5
330
4AE
100
AcDbEntity
  8
1
 62
     7
100
AcDbMText
 10
-295.6677531401563
 20
229.5361955338007
 30
0.0
 40
7.0
 41
0.0
 71
     7
 72
     1
  1
\C7;DN\C7;32
  7
CONVERTER_11
 11
0.9999999999970619
 21
2.424068405545306E-6
 31
0.0
 73
     1
 44
0.60024009603842
  0
ENDBLK
  5
4B7
330
4AE
100
AcDbEntity
  8
0
100
AcDbBlockEnd
  0
BLOCK
  5
4C2
330
4BA
100
AcDbEntity
  8
0
100
AcDbBlockBegin
  2
*D19
 70
     1
 71
     0
 10
0.0
 20
0.0
 30
0.0
  3
*D19
  1

  0
LINE
  5
4BB
330
4BA
100
AcDbEntity
  8
1
  6
Continuous
 62
     7
100
AcDbLine
 10
-233.5000000378368
 20
207.127987142026
 30
0.0
 11
-208.5000000378368
 21
207.127987142026
 31
0.0
  0
LINE
  5
4BC
330
4BA
100
AcDbEntity
  8
1
  6
Continuous
 62
     7
100
AcDbLine
 10
-208.5000000378368
 20
286.5000077391451
 30
0.0
 11
-208.5000000378368
 21
242.100565531434
 31
0.0
  0
LINE
  5
4BD
330
4BA
100
AcDbEntity
  8
1
  6
Continuous
 62
     7
100
AcDbLine
 10
-208.5000000378368
 20
235.95417559881
 30
0.0
 11
-208.5000000378368
 21
203.127987142026
 31
0.0
  0
LINE
  5
4BE
330
4BA
100
AcDbEntity
  8
1
  6
Continuous
 62
     7
100
AcDbLine
 10
-233.5000000378368
 20
239.500007739145
 30
0.0
 11
-233.5000000378368
 21
203.127987142026
 31
0.0
  0
SOLID
  5
4BF
330
4BA
100
AcDbEntity
  8
1
 62
     7
100
AcDbTrace
 10
-226.5000000378368
 20
208.0495546251378
 30
0.0
 11
-226.5000000378368
 21
206.2064196589142
 31
0.0
 12
-233.5000000378368
 22
207.127987142026
 32
0.0
 13
-233.5000000378368
 23
207.127987142026
 33
0.0
  0
SOLID
  5
4C0
330
4BA
100
AcDbEntity
  8
1
 62
     7
100
AcDbTrace
 10
-215.5000000378368
 20
206.2064196589142
 30
0.0
 11
-215.5000000378368
 21
208.0495546251378
 31
0.0
 12
-208.5000000378368
 22
207.127987142026
 32
0.0
 13
-208.5000000378368
 23
207.127987142026
 33
0.0
  0
MTEXT
  5
4C1
330
4BA
100
AcDbEntity
  8
1
 62
     7
100
AcDbMText
 10
-226.339458293936
 20
211.127987142026
 30
0.0
 40
7.0
 41
0.0
 71
     7
 72
     1
  1
25
  7
CONVERTER_11
 11
0.9999999999970619
 21
2.424068405545306E-6
 31
0.0
 73
     1
 44
0.60024009603842
  0
ENDBLK
  5
4C3
330
4BA
100
AcDbEntity
  8
0
100
AcDbBlockEnd
  0
BLOCK
  5
4CD
330
4C6
100
AcDbEntity
  8
0
100
AcDbBlockBegin
  2
*D20
 70
     1
 71
     0
 10
0.0
 20
0.0
 30
0.0
  3
*D20
  1

  0
LINE
  5
4C7
330
4C6
100
AcDbEntity
  8
1
  6
Continuous
 62
     7
100
AcDbLine
 10
-188.5798511154806
 20
286.5000077391451
 30
0.0
 11
-188.5798511154806
 21
239.5000077391451
 31
0.0
  0
LINE
  5
4C8
330
4C6
100
AcDbEntity
  8
1
  6
Continuous
 62
     7
100
AcDbLine
 10
-218.4378222113458
 20
239.5000077391451
 30
0.0
 11
-184.5798511154806
 21
239.5000077391451
 31
0.0
  0
LINE
  5
4C9
330
4C6
100
AcDbEntity
  8
1
  6
Continuous
 62
     7
100
AcDbLine
 10
-208.5000000378368
 20
286.5000077391451
 30
0.0
 11
-184.5798511154806
 21
286.5000077391451
 31
0.0
  0
SOLID
  5
4CA
330
4C6
100
AcDbEntity
  8
1
 62
     7
100
AcDbTrace
 10
-187.6582836323688
 20
279.5000077391451
 30
0.0
 11
-189.5014185985924
 21
279.5000077391451
 31
0.0
 12
-188.5798511154806
 22
286.5000077391451
 32
0.0
 13
-188.5798511154806
 23
286.5000077391451
 33
0.0
  0
SOLID
  5
4CB
330
4C6
100
AcDbEntity
  8
1
 62
     7
100
AcDbTrace
 10
-189.5014185985924
 20
246.5000077391451
 30
0.0
 11
-187.6582836323688
 21
246.5000077391451
 31
0.0
 12
-188.5798511154806
 22
239.5000077391451
 32
0.0
 13
-188.5798511154806
 23
239.5000077391451
 33
0.0
  0
MTEXT
  5
4CC
330
4C6
100
AcDbEntity
  8
1
 62
     7
100
AcDbMText
 10
-192.5798511154806
 20
258.302828506118
 30
0.0
 40
7.0
 41
0.0
 71
     7
 72
     1
  1
47
  7
CONVERTER_11
 11
0.0
 21
1.0
 31
0.0
 73
     1
 44
0.60024009603842
  0
ENDBLK
  5
4CE
330
4C6
100
AcDbEntity
  8
0
100
AcDbBlockEnd
  0
BLOCK
  5
4D8
330
4D1
100
AcDbEntity
  8
0
100
AcDbBlockBegin
  2
*D21
 70
     1
 71
     0
 10
0.0
 20
0.0
 30
0.0
  3
*D21
  1

  0
LINE
  5
4D2
330
4D1
100
AcDbEntity
  8
1
  6
Continuous
 62
     7
100
AcDbLine
 10
-188.5798511154806
 20
432.5000077391445
 30
0.0
 11
-188.5798511154806
 21
386.5000077391451
 31
0.0
  0
LINE
  5
4D3
330
4D1
100
AcDbEntity
  8
1
  6
Continuous
 62
     7
100
AcDbLine
 10
-208.5000000378368
 20
386.5000077391451
 30
0.0
 11
-184.5798511154806
 21
386.5000077391451
 31
0.0
  0
LINE
  5
4D4
330
4D1
100
AcDbEntity
  8
1
  6
Continuous
 62
     7
100
AcDbLine
 10
-212.3000000378368
 20
432.5000077391445
 30
0.0
 11
-184.5798511154806
 21
432.5000077391445
 31
0.0
  0
SOLID
  5
4D5
330
4D1
100
AcDbEntity
  8
1
 62
     7
100
AcDbTrace
 10
-187.6582836323688
 20
425.5000077391445
 30
0.0
 11
-189.5014185985924
 21
425.5000077391445
 31
0.0
 12
-188.5798511154806
 22
432.5000077391445
 32
0.0
 13
-188.5798511154806
 23
432.5000077391445
 33
0.0
  0
SOLID
  5
4D6
330
4D1
100
AcDbEntity
  8
1
 62
     7
100
AcDbTrace
 10
-189.5014185985924
 20
393.5000077391451
 30
0.0
 11
-187.6582836323688
 21
393.5000077391451
 31
0.0
 12
-188.5798511154806
 22
386.5000077391451
 32
0.0
 13
-188.5798511154806
 23
386.5000077391451
 33
0.0
  0
MTEXT
  5
4D7
330
4D1
100
AcDbEntity
  8
1
 62
     7
100
AcDbMText
 10
-192.5798511154806
 20
403.247899134758
 30
0.0
 40
7.0
 41
0.0
 71
     7
 72
     1
  1
46
  7
CONVERTER_11
 11
0.0
 21
1.0
 31
0.0
 73
     1
 44
0.60024009603842
  0
ENDBLK
  5
4D9
330
4D1
100
AcDbEntity
  8
0
100
AcDbBlockEnd
  0
BLOCK
  5
4E3
330
4DC
100
AcDbEntity
  8
0
100
AcDbBlockBegin
  2
*D22
 70
     1
 71
     0
 10
0.0
 20
0.0
 30
0.0
  3
*D22
  1

  0
LINE
  5
4DD
330
4DC
100
AcDbEntity
  8
1
  6
Continuous
 62
     7
100
AcDbLine
 10
-188.5798511154806
 20
286.5000077391451
 30
0.0
 11
-188.5798511154806
 21
386.5000077391451
 31
0.0
  0
LINE
  5
4DE
330
4DC
100
AcDbEntity
  8
1
  6
Continuous
 62
     7
100
AcDbLine
 10
-208.5000000378368
 20
386.5000077391451
 30
0.0
 11
-184.5798511154806
 21
386.5000077391451
 31
0.0
  0
LINE
  5
4DF
330
4DC
100
AcDbEntity
  8
1
  6
Continuous
 62
     7
100
AcDbLine
 10
-208.5000000378368
 20
286.5000077391451
 30
0.0
 11
-184.5798511154806
 21
286.5000077391451
 31
0.0
  0
SOLID
  5
4E0
330
4DC
100
AcDbEntity
  8
1
 62
     7
100
AcDbTrace
 10
-189.5014185985924
 20
293.5000077391451
 30
0.0
 11
-187.6582836323688
 21
293.5000077391451
 31
0.0
 12
-188.5798511154806
 22
286.5000077391451
 32
0.0
 13
-188.5798511154806
 23
286.5000077391451
 33
0.0
  0
SOLID
  5
4E1
330
4DC
100
AcDbEntity
  8
1
 62
     7
100
AcDbTrace
 10
-187.6582836323688
 20
379.5000077391451
 30
0.0
 11
-189.5014185985924
 21
379.5000077391451
 31
0.0
 12
-188.5798511154806
 22
386.5000077391451
 32
0.0
 13
-188.5798511154806
 23
386.5000077391451
 33
0.0
  0
MTEXT
  5
4E2
330
4DC
100
AcDbEntity
  8
1
 62
     7
100
AcDbMText
 10
-192.5798511154806
 20
318.037639416552
 30
0.0
 40
7.0
 41
0.0
 71
     7
 72
     1
  1
\C7;100\C7;x100
  7
CONVERTER_11
 11
0.0
 21
1.0
 31
0.0
 73
     1
 44
0.60024009603842
  0
ENDBLK
  5
4E4
330
4DC
100
AcDbEntity
  8
0
100
AcDbBlockEnd
  0
BLOCK
  5
541
330
538
100
AcDbEntity
  8
0
100
AcDbBlockBegin
  2
*D23
 70
     1
 71
     0
 10
0.0
 20
0.0
 30
0.0
  3
*D23
  1

  0
LINE
  5
539
330
538
100
AcDbEntity
  8
1
  6
Continuous
 62
     7
100
AcDbLine
 10
-73.49999982321359
 20
446.16218099119
 30
0.0
 11
-94.47981071094671
 21
446.16218099119
 31
0.0
  0
LINE
  5
53A
330
538
100
AcDbEntity
  8
1
  6
Continuous
 62
     7
100
AcDbLine
 10
-69.49999982321324
 20
446.16218099119
 30
0.0
 11
-73.49999982321359
 21
446.16218099119
 31
0.0
  0
LINE
  5
53B
330
538
100
AcDbEntity
  8
1
  6
Continuous
 62
     7
100
AcDbLine
 10
-55.49999982321324
 20
446.16218099119
 30
0.0
 11
-69.49999982321324
 21
446.16218099119
 31
0.0
  0
LINE
  5
53C
330
538
100
AcDbEntity
  8
1
  6
Continuous
 62
     7
100
AcDbLine
 10
-73.49999982321359
 20
430.5000077391445
 30
0.0
 11
-73.49999982321359
 21
450.16218099119
 31
0.0
  0
LINE
  5
53D
330
538
100
AcDbEntity
  8
1
  6
Continuous
 62
     7
100
AcDbLine
 10
-69.49999982321324
 20
391.5000077391455
 30
0.0
 11
-69.49999982321324
 21
450.16218099119
 31
0.0
  0
SOLID
  5
53E
330
538
100
AcDbEntity
  8
1
 62
     7
100
AcDbTrace
 10
-62.49999982321324
 20
447.0837484743017
 30
0.0
 11
-62.49999982321324
 21
445.2406135080782
 31
0.0
 12
-69.49999982321324
 22
446.16218099119
 32
0.0
 13
-69.49999982321324
 23
446.16218099119
 33
0.0
  0
SOLID
  5
53F
330
538
100
AcDbEntity
  8
1
 62
     7
100
AcDbTrace
 10
-80.49999982321359
 20
445.2406135080782
 30
0.0
 11
-80.49999982321359
 21
447.0837484743017
 31
0.0
 12
-73.49999982321359
 22
446.16218099119
 32
0.0
 13
-73.49999982321359
 23
446.16218099119
 33
0.0
  0
MTEXT
  5
540
330
538
100
AcDbEntity
  8
1
 62
     7
100
AcDbMText
 10
-94.47981071094671
 20
450.16218099119
 30
0.0
 40
7.0
 41
0.0
 71
     7
 72
     1
  1
4
  7
CONVERTER_11
 11
0.9999999999970619
 21
2.424068405545306E-6
 31
0.0
 73
     1
 44
0.60024009603842
  0
ENDBLK
  5
542
330
538
100
AcDbEntity
  8
0
100
AcDbBlockEnd
  0
BLOCK
  5
54C
330
545
100
AcDbEntity
  8
0
100
AcDbBlockBegin
  2
*D24
 70
     1
 71
     0
 10
0.0
 20
0.0
 30
0.0
  3
*D24
  1

  0
LINE
  5
546
330
545
100
AcDbEntity
  8
1
  6
Continuous
 62
     7
100
AcDbLine
 10
-69.49999982321324
 20
219.5000077391455
 30
0.0
 11
-95.49999982321363
 21
219.5000077391455
 31
0.0
  0
LINE
  5
547
330
545
100
AcDbEntity
  8
1
  6
Continuous
 62
     7
100
AcDbLine
 10
-95.49999982321363
 20
239.5000077391451
 30
0.0
 11
-95.49999982321363
 21
215.5000077391455
 31
0.0
  0
LINE
  5
548
330
545
100
AcDbEntity
  8
1
  6
Continuous
 62
     7
100
AcDbLine
 10
-69.49999982321324
 20
281.5000077391455
 30
0.0
 11
-69.49999982321324
 21
215.5000077391455
 31
0.0
  0
SOLID
  5
549
330
545
100
AcDbEntity
  8
1
 62
     7
100
AcDbTrace
 10
-76.49999982321324
 20
218.5784402560337
 30
0.0
 11
-76.49999982321324
 21
220.4215752222573
 31
0.0
 12
-69.49999982321324
 22
219.5000077391455
 32
0.0
 13
-69.49999982321324
 23
219.5000077391455
 33
0.0
  0
SOLID
  5
54A
330
545
100
AcDbEntity
  8
1
 62
     7
100
AcDbTrace
 10
-88.49999982321363
 20
220.4215752222573
 30
0.0
 11
-88.49999982321363
 21
218.5784402560337
 31
0.0
 12
-95.49999982321363
 22
219.5000077391455
 32
0.0
 13
-95.49999982321363
 23
219.5000077391455
 33
0.0
  0
MTEXT
  5
54B
330
545
100
AcDbEntity
  8
1
 62
     7
100
AcDbMText
 10
-88.79998816685817
 20
223.5000077391455
 30
0.0
 40
7.0
 41
0.0
 71
     7
 72
     1
  1
26
  7
CONVERTER_11
 11
0.9999999999970619
 21
2.424068405545306E-6
 31
0.0
 73
     1
 44
0.60024009603842
  0
ENDBLK
  5
54D
330
545
100
AcDbEntity
  8
0
100
AcDbBlockEnd
  0
BLOCK
  5
557
330
550
100
AcDbEntity
  8
0
100
AcDbBlockBegin
  2
*D25
 70
     1
 71
     0
 10
0.0
 20
0.0
 30
0.0
  3
*D25
  1

  0
LINE
  5
551
330
550
100
AcDbEntity
  8
1
  6
Continuous
 62
     7
100
AcDbLine
 10
-124.4999998232135
 20
197.7940448848911
 30
0.0
 11
-14.49999982321356
 21
197.7940448848911
 31
0.0
  0
LINE
  5
552
330
550
100
AcDbEntity
  8
1
  6
Continuous
 62
     7
100
AcDbLine
 10
-14.49999982321356
 20
291.5000077391456
 30
0.0
 11
-14.49999982321356
 21
193.7940448848911
 31
0.0
  0
LINE
  5
553
330
550
100
AcDbEntity
  8
1
  6
Continuous
 62
     7
100
AcDbLine
 10
-124.4999998232135
 20
291.5000077391456
 30
0.0
 11
-124.4999998232135
 21
193.7940448848911
 31
0.0
  0
SOLID
  5
554
330
550
100
AcDbEntity
  8
1
 62
     7
100
AcDbTrace
 10
-117.4999998232135
 20
198.7156123680029
 30
0.0
 11
-117.4999998232135
 21
196.8724774017793
 31
0.0
 12
-124.4999998232135
 22
197.7940448848911
 32
0.0
 13
-124.4999998232135
 23
197.7940448848911
 33
0.0
  0
SOLID
  5
555
330
550
100
AcDbEntity
  8
1
 62
     7
100
AcDbTrace
 10
-21.49999982321356
 20
196.8724774017793
 30
0.0
 11
-21.49999982321356
 21
198.7156123680029
 31
0.0
 12
-14.49999982321356
 22
197.7940448848911
 32
0.0
 13
-14.49999982321356
 23
197.7940448848911
 33
0.0
  0
MTEXT
  5
556
330
550
100
AcDbEntity
  8
1
 62
     7
100
AcDbMText
 10
-77.55912228564621
 20
201.7940448848911
 30
0.0
 40
7.0
 41
0.0
 71
     7
 72
     1
  1
110
  7
CONVERTER_11
 11
0.9999999999970619
 21
2.424068405545306E-6
 31
0.0
 73
     1
 44
0.60024009603842
  0
ENDBLK
  5
558
330
550
100
AcDbEntity
  8
0
100
AcDbBlockEnd
  0
BLOCK
  5
562
330
55B
100
AcDbEntity
  8
0
100
AcDbBlockBegin
  2
*D26
 70
     1
 71
     0
 10
0.0
 20
0.0
 30
0.0
  3
*D26
  1

  0
LINE
  5
55C
330
55B
100
AcDbEntity
  8
1
  6
Continuous
 62
     7
100
AcDbLine
 10
13.85083002253383
 20
281.5000077391456
 30
0.0
 11
13.85083002253383
 21
391.5000077391455
 31
0.0
  0
LINE
  5
55D
330
55B
100
AcDbEntity
  8
1
  6
Continuous
 62
     7
100
AcDbLine
 10
-24.49999982321356
 20
281.5000077391456
 30
0.0
 11
17.85083002253383
 21
281.5000077391456
 31
0.0
  0
LINE
  5
55E
330
55B
100
AcDbEntity
  8
1
  6
Continuous
 62
     7
100
AcDbLine
 10
-24.49999982321356
 20
391.5000077391455
 30
0.0
 11
17.85083002253383
 21
391.5000077391455
 31
0.0
  0
SOLID
  5
55F
330
55B
100
AcDbEntity
  8
1
 62
     7
100
AcDbTrace
 10
12.92926253942206
 20
288.5000077391456
 30
0.0
 11
14.77239750564561
 21
288.5000077391456
 31
0.0
 12
13.85083002253383
 22
281.5000077391456
 32
0.0
 13
13.85083002253383
 23
281.5000077391456
 33
0.0
  0
SOLID
  5
560
330
55B
100
AcDbEntity
  8
1
 62
     7
100
AcDbTrace
 10
14.7723975056456
 20
384.5000077391455
 30
0.0
 11
12.92926253942206
 21
384.5000077391455
 31
0.0
 12
13.85083002253383
 22
391.5000077391455
 32
0.0
 13
13.85083002253383
 23
391.5000077391455
 33
0.0
  0
MTEXT
  5
561
330
55B
100
AcDbEntity
  8
1
 62
     7
100
AcDbMText
 10
9.85083002253383
 20
331.58239841833
 30
0.0
 40
7.0
 41
0.0
 71
     7
 72
     1
  1
110
  7
CONVERTER_11
 11
0.0
 21
1.0
 31
0.0
 73
     1
 44
0.60024009603842
  0
ENDBLK
  5
563
330
55B
100
AcDbEntity
  8
0
100
AcDbBlockEnd
  0
ENDSEC
  0
SECTION
  2
ENTITIES
  0
INSERT
  5
72
330
1F
100
AcDbEntity
  8
1
100
AcDbBlockReference
  2
2
 10
0.0
 20
0.0
 30
0.0
  0
ENDSEC
  0
SECTION
  2
OBJECTS
  0
DICTIONARY
  5
C
330
0
100
AcDbDictionary
281
     1
  3
ACAD_GROUP
350
D
  3
ACAD_LAYOUT
350
1A
  3
ACAD_MLINESTYLE
350
17
  3
ACAD_PLOTSETTINGS
350
19
  3
ACAD_PLOTSTYLENAME
350
E
  3
ACAD_TABLESTYLE
350
566
  3
ACAD_VISUALSTYLE
350
2A
  0
DICTIONARY
  5
D
102
{ACAD_REACTORS
330
C
102
}
330
C
100
AcDbDictionary
281
     1
  0
DICTIONARY
  5
1A
102
{ACAD_REACTORS
330
C
102
}
330
C
100
AcDbDictionary
281
     1
  3
Layout1
350
1E
  3
Layout2
350
26
  3
Model
350
22
  0
DICTIONARY
  5
17
102
{ACAD_REACTORS
330
C
102
}
330
C
100
AcDbDictionary
281
     1
  3
Standard
350
18
  0
DICTIONARY
  5
19
102
{ACAD_REACTORS
330
C
102
}
330
C
100
AcDbDictionary
281
     1
  0
ACDBDICTIONARYWDFLT
  5
E
102
{ACAD_REACTORS
330
C
102
}
330
C
100
AcDbDictionary
281
     1
  3
Normal
350
F
100
AcDbDictionaryWithDefault
340
F
  0
DICTIONARY
  5
566
102
{ACAD_REACTORS
330
C
102
}
330
C
100
AcDbDictionary
281
     1
  0
DICTIONARY
  5
2A
102
{ACAD_REACTORS
330
C
102
}
330
C
100
AcDbDictionary
281
     1
  3
2dWireframe
350
2F
  3
3D Hidden
350
31
  3
3dWireframe
350
30
  3
Basic
350
32
  3
Brighten
350
36
  3
ColorChange
350
3A
  3
Conceptual
350
34
  3
Dim
350
35
  3
Facepattern
350
39
  3
Flat
350
2B
  3
FlatWithEdges
350
2C
  3
Gouraud
350
2D
  3
GouraudWithEdges
350
2E
  3
Linepattern
350
38
  3
Realistic
350
33
  3
Thicken
350
37
  0
LAYOUT
  5
1E
102
{ACAD_REACTORS
330
1A
102
}
330
1A
100
AcDbPlotSettings
  1

  2
none_device
  4

  6

 40
0.0
 41
0.0
 42
0.0
 43
0.0
 44
0.0
 45
0.0
 46
0.0
 47
0.0
 48
0.0
 49
0.0
140
0.0
141
0.0
142
1.0
143
1.0
 70
   688
 72
     0
 73
     0
 74
     5
  7

 75
    16
147
1.0
148
0.0
149
0.0
100
AcDbLayout
  1
Layout1
 70
     1
 71
     1
 10
0.0
 20
0.0
 11
12.0
 21
9.0
 12
0.0
 22
0.0
 32
0.0
 14
1.00000000000000E+20
 24
1.00000000000000E+20
 34
1.00000000000000E+20
 15
-1.00000000000000E+20
 25
-1.00000000000000E+20
 35
-1.00000000000000E+20
146
0.0
 13
0.0
 23
0.0
 33
0.0
 16
1.0
 26
0.0
 36
0.0
 17
0.0
 27
1.0
 37
0.0
 76
     0
330
1B
  0
LAYOUT
  5
26
102
{ACAD_REACTORS
330
1A
102
}
330
1A
100
AcDbPlotSettings
  1

  2
none_device
  4

  6

 40
0.0
 41
0.0
 42
0.0
 43
0.0
 44
0.0
 45
0.0
 46
0.0
 47
0.0
 48
0.0
 49
0.0
140
0.0
141
0.0
142
1.0
143
1.0
 70
   688
 72
     0
 73
     0
 74
     5
  7

 75
    16
147
1.0
148
0.0
149
0.0
100
AcDbLayout
  1
Layout2
 70
     1
 71
     2
 10
0.0
 20
0.0
 11
0.0
 21
0.0
 12
0.0
 22
0.0
 32
0.0
 14
0.0
 24
0.0
 34
0.0
 15
0.0
 25
0.0
 35
0.0
146
0.0
 13
0.0
 23
0.0
 33
0.0
 16
1.0
 26
0.0
 36
0.0
 17
0.0
 27
1.0
 37
0.0
 76
     0
330
23
  0
LAYOUT
  5
22
102
{ACAD_REACTORS
330
1A
102
}
330
1A
100
AcDbPlotSettings
  1

  2
none_device
  4

  6

 40
0.0
 41
0.0
 42
0.0
 43
0.0
 44
0.0
 45
0.0
 46
0.0
 47
0.0
 48
0.0
 49
0.0
140
0.0
141
0.0
142
1.0
143
1.0
 70
  1712
 72
     0
 73
     0
 74
     0
  7

 75
     0
147
1.0
148
0.0
149
0.0
100
AcDbLayout
  1
Model
 70
     1
 71
     0
 10
0.0
 20
0.0
 11
12.0
 21
9.0
 12
0.0
 22
0.0
 32
0.0
 14
-180.7500000189185
 24
92.7508258424699
 34
0.0
 15
8.92541501126692
 25
236.153730344312
 35
0.0
146
0.0
 13
0.0
 23
0.0
 33
0.0
 16
1.0
 26
0.0
 36
0.0
 17
0.0
 27
1.0
 37
0.0
 76
     0
330
1F
331
29
  0
MLINESTYLE
  5
18
102
{ACAD_REACTORS
330
17
102
}
330
17
100
AcDbMlineStyle
  2
Standard
 70
     0
  3

 62
   256
 51
90.0
 52
90.0
 71
     2
 49
0.5
 62
   256
  6
BYLAYER
 49
-0.5
 62
   256
  6
BYLAYER
  0
ACDBPLACEHOLDER
  5
F
102
{ACAD_REACTORS
330
E
102
}
330
E
  0
VISUALSTYLE
  5
2F
102
{ACAD_REACTORS
330
2A
102
}
330
2A
100
AcDbVisualStyle
  2
2dWireframe
 70
     4
 71
     0
 72
     2
 73
     0
 90
        0
 40
-0.6
 41
-30.0
 62
     5
 63
     7
 74
     1
 91
        4
 64
     7
 65
   257
 75
     1
175
     1
 42
1.0
 92
        0
 66
   257
 43
1.0
 76
     1
 77
     6
 78
     2
 67
     7
 79
     5
170
     0
171
     0
290
     0
174
     0
 93
        1
 44
0.0
173
     0
291
     0
 45
0.0
1001
ACAD
1000
AcDbSavedByObjectVersion
1070
     0
  0
VISUALSTYLE
  5
31
102
{ACAD_REACTORS
330
2A
102
}
330
2A
100
AcDbVisualStyle
  2
3D Hidden
 70
     6
 71
     1
 72
     2
 73
     2
 90
        0
 40
-0.6
 41
-30.0
 62
     5
 63
     7
 74
     2
 91
        2
 64
     7
 65
   257
 75
     2
175
     1
 42
40.0
 92
        0
 66
   257
 43
1.0
 76
     1
 77
     6
 78
     2
 67
     7
 79
     3
170
     0
171
     0
290
     0
174
     0
 93
        1
 44
0.0
173
     0
291
     0
 45
0.0
1001
ACAD
1000
AcDbSavedByObjectVersion
1070
     0
  0
VISUALSTYLE
  5
30
102
{ACAD_REACTORS
330
2A
102
}
330
2A
100
AcDbVisualStyle
  2
3dWireframe
 70
     5
 71
     0
 72
     2
 73
     0
 90
        0
 40
-0.6
 41
-30.0
 62
     5
 63
     7
 74
     1
 91
        4
 64
     7
 65
   257
 75
     1
175
     1
 42
1.0
 92
        0
 66
   257
 43
1.0
 76
     1
 77
     6
 78
     2
 67
     7
 79
     5
170
     0
171
     0
290
     0
174
     0
 93
        1
 44
0.0
173
     0
291
     0
 45
0.0
1001
ACAD
1000
AcDbSavedByObjectVersion
1070
     0
  0
VISUALSTYLE
  5
32
102
{ACAD_REACTORS
330
2A
102
}
330
2A
100
AcDbVisualStyle
  2
Basic
 70
     7
 71
     1
 72
     0
 73
     1
 90
        0
 40
-0.6
 41
-30.0
 62
     5
 63
     7
 74
     0
 91
        4
 64
     7
 65
   257
 75
     1
175
     1
 42
1.0
 92
        8
 66
     7
 43
1.0
 76
     1
 77
     6
 78
     2
 67
     7
 79
     5
170
     0
171
     0
290
     0
174
     0
 93
        1
 44
0.0
173
     0
291
     1
 45
0.0
1001
ACAD
1000
AcDbSavedByObjectVersion
1070
     0
  0
VISUALSTYLE
  5
36
102
{ACAD_REACTORS
330
2A
102
}
330
2A
100
AcDbVisualStyle
  2
Brighten
 70
    12
 71
     2
 72
     2
 73
     0
 90
        0
 40
-0.6
 41
-30.0
 62
     5
 63
     7
 74
     1
 91
        4
 64
     7
 65
   257
 75
     1
175
     1
 42
1.0
 92
        8
 66
     7
 43
1.0
 76
     1
 77
     6
 78
     2
 67
     7
 79
     5
170
     0
171
     0
290
     0
174
     0
 93
        1
 44
50.0
173
     0
291
     1
 45
0.0
1001
ACAD
1000
AcDbSavedByObjectVersion
1070
     0
  0
VISUALSTYLE
  5
3A
102
{ACAD_REACTORS
330
2A
102
}
330
2A
100
AcDbVisualStyle
  2
ColorChange
 70
    16
 71
     2
 72
     2
 73
     3
 90
        0
 40
-0.6
 41
-30.0
 62
     5
 63
     8
 74
     1
 91
        4
 64
     7
 65
   257
 75
     1
175
     1
 42
1.0
 92
        8
 66
     8
 43
1.0
 76
     1
 77
     6
 78
     2
 67
     7
 79
     5
170
     0
171
     0
290
     0
174
     0
 93
        1
 44
0.0
173
     0
291
     1
 45
0.0
1001
ACAD
1000
AcDbSavedByObjectVersion
1070
     0
  0
VISUALSTYLE
  5
34
102
{ACAD_REACTORS
330
2A
102
}
330
2A
100
AcDbVisualStyle
  2
Conceptual
 70
     9
 71
     3
 72
     2
 73
     0
 90
        0
 40
-0.6
 41
-30.0
 62
     5
 63
     7
 74
     2
 91
        2
 64
     7
 65
   257
 75
     1
175
     1
 42
40.0
 92
        8
 66
     7
 43
1.0
 76
     1
 77
     6
 78
     2
 67
     7
 79
     3
170
     0
171
     0
290
     0
174
     0
 93
        1
 44
0.0
173
     0
291
     0
 45
0.0
1001
ACAD
1000
AcDbSavedByObjectVersion
1070
     0
  0
VISUALSTYLE
  5
35
102
{ACAD_REACTORS
330
2A
102
}
330
2A
100
AcDbVisualStyle
  2
Dim
 70
    11
 71
     2
 72
     2
 73
     0
 90
        0
 40
-0.6
 41
-30.0
 62
     5
 63
     7
 74
     1
 91
        4
 64
     7
 65
   257
 75
     1
175
     1
 42
1.0
 92
        8
 66
     7
 43
1.0
 76
     1
 77
     6
 78
     2
 67
     7
 79
     5
170
     0
171
     0
290
     0
174
     0
 93
        1
 44
-50.0
173
     0
291
     1
 45
0.0
1001
ACAD
1000
AcDbSavedByObjectVersion
1070
     0
  0
VISUALSTYLE
  5
39
102
{ACAD_REACTORS
330
2A
102
}
330
2A
100
AcDbVisualStyle
  2
Facepattern
 70
    15
 71
     2
 72
     2
 73
     0
 90
        0
 40
-0.6
 41
-30.0
 62
     5
 63
     7
 74
     1
 91
        4
 64
     7
 65
   257
 75
     1
175
     1
 42
1.0
 92
        8
 66
     7
 43
1.0
 76
     1
 77
     6
 78
     2
 67
     7
 79
     5
170
     0
171
     0
290
     0
174
     0
 93
        1
 44
0.0
173
     0
291
     1
 45
0.0
1001
ACAD
1000
AcDbSavedByObjectVersion
1070
     0
  0
VISUALSTYLE
  5
2B
102
{ACAD_REACTORS
330
2A
102
}
330
2A
100
AcDbVisualStyle
  2
Flat
 70
     0
 71
     2
 72
     1
 73
     1
 90
        2
 40
-0.6
 41
30.0
 62
     5
 63
     7
 74
     0
 91
        4
 64
     7
 65
   257
 75
     1
175
     1
 42
1.0
 92
        8
 66
     7
 43
1.0
 76
     1
 77
     6
 78
     2
 67
     7
 79
     5
170
     0
171
     0
290
     0
174
     0
 93
       13
 44
0.0
173
     0
291
     1
 45
0.0
1001
ACAD
1000
AcDbSavedByObjectVersion
1070
     0
  0
VISUALSTYLE
  5
2C
102
{ACAD_REACTORS
330
2A
102
}
330
2A
100
AcDbVisualStyle
  2
FlatWithEdges
 70
     1
 71
     2
 72
     1
 73
     1
 90
        2
 40
-0.6
 41
30.0
 62
     5
 63
     7
 74
     1
 91
        4
 64
     7
 65
   257
 75
     1
175
     1
 42
1.0
 92
        0
 66
   257
 43
1.0
 76
     1
 77
     6
 78
     2
 67
     7
 79
     5
170
     0
171
     0
290
     0
174
     0
 93
       13
 44
0.0
173
     0
291
     1
 45
0.0
1001
ACAD
1000
AcDbSavedByObjectVersion
1070
     0
  0
VISUALSTYLE
  5
2D
102
{ACAD_REACTORS
330
2A
102
}
330
2A
100
AcDbVisualStyle
  2
Gouraud
 70
     2
 71
     2
 72
     2
 73
     1
 90
        2
 40
-0.6
 41
30.0
 62
     5
 63
     7
 74
     0
 91
        4
 64
     7
 65
   257
 75
     1
175
     1
 42
1.0
 92
        0
 66
     7
 43
1.0
 76
     1
 77
     6
 78
     2
 67
     7
 79
     5
170
     0
171
     0
290
     0
174
     0
 93
       13
 44
0.0
173
     0
291
     1
 45
0.0
1001
ACAD
1000
AcDbSavedByObjectVersion
1070
     0
  0
VISUALSTYLE
  5
2E
102
{ACAD_REACTORS
330
2A
102
}
330
2A
100
AcDbVisualStyle
  2
GouraudWithEdges
 70
     3
 71
     2
 72
     2
 73
     1
 90
        2
 40
-0.6
 41
30.0
 62
     5
 63
     7
 74
     1
 91
        4
 64
     7
 65
   257
 75
     1
175
     1
 42
1.0
 92
        0
 66
   257
 43
1.0
 76
     1
 77
     6
 78
     2
 67
     7
 79
     5
170
     0
171
     0
290
     0
174
     0
 93
       13
 44
0.0
173
     0
291
     1
 45
0.0
1001
ACAD
1000
AcDbSavedByObjectVersion
1070
     0
  0
VISUALSTYLE
  5
38
102
{ACAD_REACTORS
330
2A
102
}
330
2A
100
AcDbVisualStyle
  2
Linepattern
 70
    14
 71
     2
 72
     2
 73
     0
 90
        0
 40
-0.6
 41
-30.0
 62
     5
 63
     7
 74
     1
 91
        4
 64
     7
 65
   257
 75
     7
175
     7
 42
1.0
 92
        8
 66
     7
 43
1.0
 76
     1
 77
     6
 78
     2
 67
     7
 79
     5
170
     0
171
     0
290
     0
174
     0
 93
        1
 44
0.0
173
     0
291
     1
 45
0.0
1001
ACAD
1000
AcDbSavedByObjectVersion
1070
     0
  0
VISUALSTYLE
  5
33
102
{ACAD_REACTORS
330
2A
102
}
330
2A
100
AcDbVisualStyle
  2
Realistic
 70
     8
 71
     2
 72
     2
 73
     0
 90
        0
 40
-0.6
 41
-30.0
 62
     5
 63
     7
 74
     1
 91
        0
 64
     7
 65
   257
 75
     1
175
     1
 42
1.0
 92
        8
 66
     8
 43
1.0
 76
     1
 77
     6
 78
     2
 67
     7
 79
     5
170
     0
171
     0
290
     0
174
     0
 93
       13
 44
0.0
173
     0
291
     0
 45
0.0
1001
ACAD
1000
AcDbSavedByObjectVersion
1070
     0
  0
VISUALSTYLE
  5
37
102
{ACAD_REACTORS
330
2A
102
}
330
2A
100
AcDbVisualStyle
  2
Thicken
 70
    13
 71
     2
 72
     2
 73
     0
 90
        0
 40
-0.6
 41
-30.0
 62
     5
 63
     7
 74
     1
 91
        4
 64
     7
 65
   257
 75
     1
175
     1
 42
1.0
 92
       12
 66
     7
 43
1.0
 76
     1
 77
     6
 78
     2
 67
     7
 79
     5
170
     0
171
     0
290
     0
174
     0
 93
        1
 44
0.0
173
     0
291
     1
 45
0.0
1001
ACAD
1000
AcDbSavedByObjectVersion
1070
     0
  0
ENDSEC
  0
EOF
