  0
SECTION
  2
HEADER
  9
$ACADVER
  1
AC1015
  9
$ACADMAINTVER
 70
     6
  9
$DWGCODEPAGE
  3
ANSI_1252
  9
$INSBASE
 10
0.0
 20
0.0
 30
0.0
  9
$EXTMIN
 10
-131.8289969123103
 20
-200.5812843909312
 30
0.0
  9
$EXTMAX
 10
40.45860085063215
 20
25.17522823967354
 30
0.0
  9
$LIMMIN
 10
0.0
 20
0.0
  9
$LIMMAX
 10
12.0
 20
9.0
  9
$ORTHOMODE
 70
     0
  9
$REGENMODE
 70
     1
  9
$FILLMODE
 70
     1
  9
$QTEXTMODE
 70
     0
  9
$MIRRTEXT
 70
     1
  9
$LTSCALE
 40
1.0
  9
$ATTMODE
 70
     1
  9
$TEXTSIZE
 40
0.2
  9
$TRACEWID
 40
0.05
  9
$TEXTSTYLE
  7
Standard
  9
$CLAYER
  8
0
  9
$CELTYPE
  6
ByLayer
  9
$CECOLOR
 62
   256
  9
$CELTSCALE
 40
1.0
  9
$DISPSILH
 70
     0
  9
$DIMSCALE
 40
1.0
  9
$DIMASZ
 40
0.18
  9
$DIMEXO
 40
0.0625
  9
$DIMDLI
 40
0.38
  9
$DIMRND
 40
0.0
  9
$DIMDLE
 40
0.0
  9
$DIMEXE
 40
0.18
  9
$DIMTP
 40
0.0
  9
$DIMTM
 40
0.0
  9
$DIMTXT
 40
0.18
  9
$DIMCEN
 40
0.09
  9
$DIMTSZ
 40
0.0
  9
$DIMTOL
 70
     0
  9
$DIMLIM
 70
     0
  9
$DIMTIH
 70
     1
  9
$DIMTOH
 70
     1
  9
$DIMSE1
 70
     0
  9
$DIMSE2
 70
     0
  9
$DIMTAD
 70
     0
  9
$DIMZIN
 70
     0
  9
$DIMBLK
  1

  9
$DIMASO
 70
     1
  9
$DIMSHO
 70
     1
  9
$DIMPOST
  1

  9
$DIMAPOST
  1

  9
$DIMALT
 70
     0
  9
$DIMALTD
 70
     2
  9
$DIMALTF
 40
25.4
  9
$DIMLFAC
 40
1.0
  9
$DIMTOFL
 70
     0
  9
$DIMTVP
 40
0.0
  9
$DIMTIX
 70
     0
  9
$DIMSOXD
 70
     0
  9
$DIMSAH
 70
     0
  9
$DIMBLK1
  1

  9
$DIMBLK2
  1

  9
$DIMSTYLE
  2
Standard
  9
$DIMCLRD
 70
     0
  9
$DIMCLRE
 70
     0
  9
$DIMCLRT
 70
     0
  9
$DIMTFAC
 40
1.0
  9
$DIMGAP
 40
0.09
  9
$DIMJUST
 70
     0
  9
$DIMSD1
 70
     0
  9
$DIMSD2
 70
     0
  9
$DIMTOLJ
 70
     1
  9
$DIMTZIN
 70
     0
  9
$DIMALTZ
 70
     0
  9
$DIMALTTZ
 70
     0
  9
$DIMUPT
 70
     0
  9
$DIMDEC
 70
     4
  9
$DIMTDEC
 70
     4
  9
$DIMALTU
 70
     2
  9
$DIMALTTD
 70
     2
  9
$DIMTXSTY
  7
Standard
  9
$DIMAUNIT
 70
     0
  9
$DIMADEC
 70
     0
  9
$DIMALTRND
 40
0.0
  9
$DIMAZIN
 70
     0
  9
$DIMDSEP
 70
    46
  9
$DIMATFIT
 70
     3
  9
$DIMFRAC
 70
     0
  9
$DIMLDRBLK
  1

  9
$DIMLUNIT
 70
     2
  9
$DIMLWD
 70
    -2
  9
$DIMLWE
 70
    -2
  9
$DIMTMOVE
 70
     0
  9
$LUNITS
 70
     2
  9
$LUPREC
 70
     4
  9
$SKETCHINC
 40
0.1
  9
$FILLETRAD
 40
0.5
  9
$AUNITS
 70
     0
  9
$AUPREC
 70
     0
  9
$MENU
  1
.
  9
$ELEVATION
 40
0.0
  9
$PELEVATION
 40
0.0
  9
$THICKNESS
 40
0.0
  9
$LIMCHECK
 70
     0
  9
$CHAMFERA
 40
0.5
  9
$CHAMFERB
 40
0.5
  9
$CHAMFERC
 40
1.0
  9
$CHAMFERD
 40
0.0
  9
$SKPOLY
 70
     0
  9
$TDCREATE
 40
2456966.618671944
  9
$TDUCREATE
 40
2456966.577005278
  9
$TDUPDATE
 40
2456966.618671944
  9
$TDUUPDATE
 40
2456966.577005278
  9
$TDINDWG
 40
0.0000000116
  9
$TDUSRTIMER
 40
0.0000000116
  9
$USRTIMER
 70
     1
  9
$ANGBASE
 50
0.0
  9
$ANGDIR
 70
     0
  9
$PDMODE
 70
     0
  9
$PDSIZE
 40
0.0
  9
$PLINEWID
 40
0.0
  9
$SPLFRAME
 70
     0
  9
$SPLINETYPE
 70
     6
  9
$SPLINESEGS
 70
     8
  9
$HANDSEED
  5
185
  9
$SURFTAB1
 70
     6
  9
$SURFTAB2
 70
     6
  9
$SURFTYPE
 70
     6
  9
$SURFU
 70
     6
  9
$SURFV
 70
     6
  9
$UCSBASE
  2

  9
$UCSNAME
  2

  9
$UCSORG
 10
0.0
 20
0.0
 30
0.0
  9
$UCSXDIR
 10
1.0
 20
0.0
 30
0.0
  9
$UCSYDIR
 10
0.0
 20
1.0
 30
0.0
  9
$UCSORTHOREF
  2

  9
$UCSORTHOVIEW
 70
     0
  9
$UCSORGTOP
 10
0.0
 20
0.0
 30
0.0
  9
$UCSORGBOTTOM
 10
0.0
 20
0.0
 30
0.0
  9
$UCSORGLEFT
 10
0.0
 20
0.0
 30
0.0
  9
$UCSORGRIGHT
 10
0.0
 20
0.0
 30
0.0
  9
$UCSORGFRONT
 10
0.0
 20
0.0
 30
0.0
  9
$UCSORGBACK
 10
0.0
 20
0.0
 30
0.0
  9
$PUCSBASE
  2

  9
$PUCSNAME
  2

  9
$PUCSORG
 10
0.0
 20
0.0
 30
0.0
  9
$PUCSXDIR
 10
1.0
 20
0.0
 30
0.0
  9
$PUCSYDIR
 10
0.0
 20
1.0
 30
0.0
  9
$PUCSORTHOREF
  2

  9
$PUCSORTHOVIEW
 70
     0
  9
$PUCSORGTOP
 10
0.0
 20
0.0
 30
0.0
  9
$PUCSORGBOTTOM
 10
0.0
 20
0.0
 30
0.0
  9
$PUCSORGLEFT
 10
0.0
 20
0.0
 30
0.0
  9
$PUCSORGRIGHT
 10
0.0
 20
0.0
 30
0.0
  9
$PUCSORGFRONT
 10
0.0
 20
0.0
 30
0.0
  9
$PUCSORGBACK
 10
0.0
 20
0.0
 30
0.0
  9
$USERI1
 70
     0
  9
$USERI2
 70
     0
  9
$USERI3
 70
     0
  9
$USERI4
 70
     0
  9
$USERI5
 70
     0
  9
$USERR1
 40
18.1
  9
$USERR2
 40
0.0
  9
$USERR3
 40
0.0
  9
$USERR4
 40
0.0
  9
$USERR5
 40
0.0
  9
$WORLDVIEW
 70
     1
  9
$SHADEDGE
 70
     3
  9
$SHADEDIF
 70
    70
  9
$TILEMODE
 70
     1
  9
$MAXACTVP
 70
    64
  9
$PINSBASE
 10
0.0
 20
0.0
 30
0.0
  9
$PLIMCHECK
 70
     0
  9
$PEXTMIN
 10
1.00000000000000E+20
 20
1.00000000000000E+20
 30
1.00000000000000E+20
  9
$PEXTMAX
 10
-1.00000000000000E+20
 20
-1.00000000000000E+20
 30
-1.00000000000000E+20
  9
$PLIMMIN
 10
0.0
 20
0.0
  9
$PLIMMAX
 10
12.0
 20
9.0
  9
$UNITMODE
 70
     0
  9
$VISRETAIN
 70
     1
  9
$PLINEGEN
 70
     0
  9
$PSLTSCALE
 70
     1
  9
$TREEDEPTH
 70
  3020
  9
$CMLSTYLE
  2
Standard
  9
$CMLJUST
 70
     0
  9
$CMLSCALE
 40
1.0
  9
$PROXYGRAPHICS
 70
     1
  9
$MEASUREMENT
 70
     1
  9
$CELWEIGHT
370
    -1
  9
$ENDCAPS
280
     0
  9
$JOINSTYLE
280
     0
  9
$LWDISPLAY
290
     0
  9
$INSUNITS
 70
     1
  9
$HYPERLINKBASE
  1

  9
$STYLESHEET
  1

  9
$XEDIT
290
     1
  9
$CEPSNTYPE
380
     0
  9
$PSTYLEMODE
290
     1
  9
$FINGERPRINTGUID
  2
{599F5028-CAC5-4646-B575-1042FF78F34C}
  9
$VERSIONGUID
  2
{FAEB1C32-E019-11D5-929B-00C0DF256EC4}
  9
$EXTNAMES
290
     1
  9
$PSVPSCALE
 40
0.0
  9
$OLESTARTUP
290
     0
  0
ENDSEC
  0
SECTION
  2
CLASSES
  0
CLASS
  1
ACDBDICTIONARYWDFLT
  2
AcDbDictionaryWithDefault
  3
ObjectDBX Classes
 90
        0
280
     0
281
     0
  0
CLASS
  1
VISUALSTYLE
  2
AcDbVisualStyle
  3
ObjectDBX Classes
 90
     4095
280
     0
281
     0
  0
CLASS
  1
MATERIAL
  2
AcDbMaterial
  3
ObjectDBX Classes
 90
     1153
280
     0
281
     0
  0
CLASS
  1
DICTIONARYVAR
  2
AcDbDictionaryVar
  3
ObjectDBX Classes
 90
        0
280
     0
281
     0
  0
CLASS
  1
ACDBPLACEHOLDER
  2
AcDbPlaceHolder
  3
ObjectDBX Classes
 90
        0
280
     0
281
     0
  0
CLASS
  1
LAYOUT
  2
AcDbLayout
  3
ObjectDBX Classes
 90
        0
280
     0
281
     0
  0
ENDSEC
  0
SECTION
  2
TABLES
  0
TABLE
  2
VPORT
  5
8
330
0
100
AcDbSymbolTable
 70
     1
  0
VPORT
  5
29
330
8
100
AcDbSymbolTableRecord
100
AcDbViewportTableRecord
  2
*Active
 70
     0
 10
0.0
 20
0.0
 11
1.0
 21
1.0
 12
-45.68519803083907
 22
-87.70302807562882
 13
0.0
 23
0.0
 14
0.5
 24
0.5
 15
0.5
 25
0.5
 16
0.0
 26
0.0
 36
1.0
 17
0.0
 27
0.0
 37
0.0
 40
248.3321638936652
 41
1.60267857142857
 42
50.0
 43
0.0
 44
0.0
 50
0.0
 51
0.0
 71
     0
 72
   100
 73
     1
 74
     3
 75
     0
 76
     0
 77
     0
 78
     0
281
     0
 65
     1
110
0.0
120
0.0
130
0.0
111
1.0
121
0.0
131
0.0
112
0.0
122
1.0
132
0.0
 79
     0
146
0.0
  0
ENDTAB
  0
TABLE
  2
LTYPE
  5
5
330
0
100
AcDbSymbolTable
 70
     8
  0
LTYPE
  5
14
330
5
100
AcDbSymbolTableRecord
100
AcDbLinetypeTableRecord
  2
ByBlock
 70
     0
  3

 72
    65
 73
     0
 40
0.0
  0
LTYPE
  5
15
330
5
100
AcDbSymbolTableRecord
100
AcDbLinetypeTableRecord
  2
ByLayer
 70
     0
  3

 72
    65
 73
     0
 40
0.0
  0
LTYPE
  5
16
330
5
100
AcDbSymbolTableRecord
100
AcDbLinetypeTableRecord
  2
Continuous
 70
     0
  3
Solid line
 72
    65
 73
     0
 40
0.0
  0
LTYPE
  5
3F
330
5
100
AcDbSymbolTableRecord
100
AcDbLinetypeTableRecord
  2
DASHED
 70
     0
  3
Dashed
 72
    65
 73
     2
 40
15.0
 49
7.0
 74
     0
 49
-8.0
 74
     0
  0
LTYPE
  5
40
330
5
100
AcDbSymbolTableRecord
100
AcDbLinetypeTableRecord
  2
DOTTED
 70
     0
  3
Dotted
 72
    65
 73
     2
 40
1.0
 49
0.0
 74
     0
 49
-1.0
 74
     0
  0
LTYPE
  5
41
330
5
100
AcDbSymbolTableRecord
100
AcDbLinetypeTableRecord
  2
DOT_CENTER
 70
     0
  3
Dot_Center
 72
    65
 73
     4
 40
14.0
 49
12.0
 74
     0
 49
-1.0
 74
     0
 49
0.0
 74
     0
 49
-1.0
 74
     0
  0
LTYPE
  5
42
330
5
100
AcDbSymbolTableRecord
100
AcDbLinetypeTableRecord
  2
LONG_DASHED
 70
     0
  3
Long_Dashed
 72
    65
 73
     2
 40
15.0
 49
10.0
 74
     0
 49
-5.0
 74
     0
  0
LTYPE
  5
43
330
5
100
AcDbSymbolTableRecord
100
AcDbLinetypeTableRecord
  2
DASH_CENTER
 70
     0
  3
Dash_Center
 72
    65
 73
     4
 40
14.0
 49
11.0
 74
     0
 49
-1.0
 74
     0
 49
1.0
 74
     0
 49
-1.0
 74
     0
  0
LTYPE
  5
44
330
5
100
AcDbSymbolTableRecord
100
AcDbLinetypeTableRecord
  2
PHANTOM
 70
     0
  3
Phantom
 72
    65
 73
     6
 40
13.0
 49
10.0
 74
     0
 49
-1.0
 74
     0
 49
0.0
 74
     0
 49
-1.0
 74
     0
 49
0.0
 74
     0
 49
-1.0
 74
     0
  0
LTYPE
  5
45
330
5
100
AcDbSymbolTableRecord
100
AcDbLinetypeTableRecord
  2
CENTER_DASH_DASH
 70
     0
  3
Center_Dash_Dash
 72
    65
 73
     6
 40
14.0
 49
9.0
 74
     0
 49
-1.0
 74
     0
 49
1.0
 74
     0
 49
-1.0
 74
     0
 49
1.0
 74
     0
 49
-1.0
 74
     0
  0
ENDTAB
  0
TABLE
  2
LAYER
  5
2
330
0
100
AcDbSymbolTable
 70
     4
  0
LAYER
  5
10
330
2
100
AcDbSymbolTableRecord
100
AcDbLayerTableRecord
  2
0
 70
     0
 62
     7
  6
Continuous
370
    -3
390
F
  0
LAYER
  5
46
330
2
100
AcDbSymbolTableRecord
100
AcDbLayerTableRecord
  2
1
 70
     0
 62
     7
  6
Continuous
370
    -3
390
F
  0
LAYER
  5
47
330
2
100
AcDbSymbolTableRecord
100
AcDbLayerTableRecord
  2
LC-001-002-----0
 70
     0
 62
     7
  6
Continuous
370
    -3
390
F
  0
LAYER
  5
48
330
2
100
AcDbSymbolTableRecord
100
AcDbLayerTableRecord
  2
LC-004-002-----0
 70
     0
 62
     7
  6
Continuous
370
    -3
390
F
  0
ENDTAB
  0
TABLE
  2
STYLE
  5
3
330
0
100
AcDbSymbolTable
 70
     2
  0
STYLE
  5
11
330
3
100
AcDbSymbolTableRecord
100
AcDbTextStyleTableRecord
  2
Standard
 70
     0
 40
0.0
 41
1.0
 50
0.0
 71
     0
 42
0.2
  3
txt
  4

  0
STYLE
  5
D9
330
3
100
AcDbSymbolTableRecord
100
AcDbTextStyleTableRecord
  2
CONVERTER_11
 70
     0
 40
0.0
 41
0.9
 50
0.0
 71
     0
 42
0.2
  3
txt.shx
  4

  0
ENDTAB
  0
TABLE
  2
VIEW
  5
6
330
0
100
AcDbSymbolTable
 70
     0
  0
ENDTAB
  0
TABLE
  2
UCS
  5
7
330
0
100
AcDbSymbolTable
 70
     0
  0
ENDTAB
  0
TABLE
  2
APPID
  5
9
330
0
100
AcDbSymbolTable
 70
     1
  0
APPID
  5
12
330
9
100
AcDbSymbolTableRecord
100
AcDbRegAppTableRecord
  2
ACAD
 70
     0
  0
ENDTAB
  0
TABLE
  2
DIMSTYLE
  5
A
330
0
100
AcDbSymbolTable
 70
     5
100
AcDbDimStyleTable
  0
DIMSTYLE
105
27
330
A
100
AcDbSymbolTableRecord
100
AcDbDimStyleTableRecord
  2
Standard
 70
     0
178
     0
340
11
  0
DIMSTYLE
105
DD
102
{ACAD_REACTORS
330
DE
102
}
330
A
100
AcDbSymbolTableRecord
100
AcDbDimStyleTableRecord
  2
ME10_DIM_10
 70
     0
 41
10.0
 42
0.0
 44
2.0
 73
     0
 74
     0
 77
     1
 78
     8
140
10.0
147
2.0
172
     1
173
     1
174
     1
175
     1
176
     4
177
     4
271
     2
178
     1
271
     2
340
D9
  0
DIMSTYLE
105
E8
102
{ACAD_REACTORS
330
E9
102
}
330
A
100
AcDbSymbolTableRecord
100
AcDbDimStyleTableRecord
  2
ME10_DIM_11
 70
     0
 41
10.0
 42
0.0
 44
2.0
 73
     0
 74
     0
 77
     1
 78
     8
140
10.0
147
2.0
172
     1
173
     1
174
     1
175
     1
176
     4
177
     4
271
     2
178
     1
271
     2
340
D9
  0
DIMSTYLE
105
F3
102
{ACAD_REACTORS
330
F4
102
}
330
A
100
AcDbSymbolTableRecord
100
AcDbDimStyleTableRecord
  2
ME10_DIM_12
 70
     0
  3
DN<>
 41
10.0
 42
0.0
 44
2.0
 73
     0
 74
     0
 77
     1
 78
     8
140
10.0
147
2.0
172
     1
173
     1
174
     1
175
     1
176
     4
177
     4
271
     2
178
     1
271
     2
340
D9
  0
DIMSTYLE
105
100
102
{ACAD_REACTORS
330
101
102
}
330
A
100
AcDbSymbolTableRecord
100
AcDbDimStyleTableRecord
  2
ME10_DIM_13
 70
     0
 41
10.0
 42
0.0
 44
2.0
 73
     0
 74
     0
 77
     1
 78
     8
140
10.0
147
2.0
172
     1
173
     1
174
     1
175
     1
176
     4
177
     4
271
     2
178
     1
271
     2
340
D9
  0
ENDTAB
  0
TABLE
  2
BLOCK_RECORD
  5
1
330
0
100
AcDbSymbolTable
 70
    12
  0
BLOCK_RECORD
  5
1F
330
1
100
AcDbSymbolTableRecord
100
AcDbBlockTableRecord
  2
*Model_Space
340
22
  0
BLOCK_RECORD
  5
1B
330
1
100
AcDbSymbolTableRecord
100
AcDbBlockTableRecord
  2
*Paper_Space
340
1E
  0
BLOCK_RECORD
  5
23
330
1
100
AcDbSymbolTableRecord
100
AcDbBlockTableRecord
  2
*Paper_Space0
340
26
  0
BLOCK_RECORD
  5
49
330
1
100
AcDbSymbolTableRecord
100
AcDbBlockTableRecord
  2
HL19_ABS_10003_ABS
340
0
102
{BLKREFS
331
4D
102
}
  0
BLOCK_RECORD
  5
4C
330
1
100
AcDbSymbolTableRecord
100
AcDbBlockTableRecord
  2
HL19
340
0
102
{BLKREFS
331
57
102
}
  0
BLOCK_RECORD
  5
50
330
1
100
AcDbSymbolTableRecord
100
AcDbBlockTableRecord
  2
HL13_50_Tauchrohr__1
340
0
102
{BLKREFS
331
58
102
}
  0
BLOCK_RECORD
  5
53
330
1
100
AcDbSymbolTableRecord
100
AcDbBlockTableRecord
  2
Holländermutter_R_6_4
340
0
102
{BLKREFS
331
59
102
}
  0
BLOCK_RECORD
  5
56
330
1
100
AcDbSymbolTableRecord
100
AcDbBlockTableRecord
  2
HL13_50_Tauchrohr__2
340
0
102
{BLKREFS
331
62
102
}
  0
BLOCK_RECORD
  5
5C
330
1
100
AcDbSymbolTableRecord
100
AcDbBlockTableRecord
  2
Holländermutter_1
340
0
102
{BLKREFS
331
63
102
}
  0
BLOCK_RECORD
  5
5F
330
1
100
AcDbSymbolTableRecord
100
AcDbBlockTableRecord
  2
Dichtstopfen
340
0
102
{BLKREFS
331
64
102
}
  0
BLOCK_RECORD
  5
D3
330
1
100
AcDbSymbolTableRecord
100
AcDbBlockTableRecord
  2
*D8
340
0
  0
BLOCK_RECORD
  5
DF
330
1
100
AcDbSymbolTableRecord
100
AcDbBlockTableRecord
  2
*D9
340
0
  0
BLOCK_RECORD
  5
EA
330
1
100
AcDbSymbolTableRecord
100
AcDbBlockTableRecord
  2
*D10
340
0
  0
BLOCK_RECORD
  5
F5
330
1
100
AcDbSymbolTableRecord
100
AcDbBlockTableRecord
  2
*D11
340
0
  0
ENDTAB
  0
ENDSEC
  0
SECTION
  2
BLOCKS
  0
BLOCK
  5
20
330
1F
100
AcDbEntity
  8
0
100
AcDbBlockBegin
  2
*Model_Space
 70
     0
 10
0.0
 20
0.0
 30
0.0
  3
*Model_Space
  1

  0
ENDBLK
  5
21
330
1F
100
AcDbEntity
  8
0
100
AcDbBlockEnd
  0
BLOCK
  5
1C
330
1B
100
AcDbEntity
 67
     1
  8
0
100
AcDbBlockBegin
  2
*Paper_Space
 70
     0
 10
0.0
 20
0.0
 30
0.0
  3
*Paper_Space
  1

  0
ENDBLK
  5
1D
330
1B
100
AcDbEntity
 67
     1
  8
0
100
AcDbBlockEnd
  0
BLOCK
  5
24
330
23
100
AcDbEntity
  8
0
100
AcDbBlockBegin
  2
*Paper_Space0
 70
     0
 10
0.0
 20
0.0
 30
0.0
  3
*Paper_Space0
  1

  0
ENDBLK
  5
25
330
23
100
AcDbEntity
  8
0
100
AcDbBlockEnd
  0
BLOCK
  5
4A
330
49
100
AcDbEntity
  8
0
100
AcDbBlockBegin
  2
HL19_ABS_10003_ABS
 70
     0
 10
-83.41241679278153
 20
-44.21481525587976
 30
0.0
  3
HL19_ABS_10003_ABS
  1

  0
LINE
  5
65
330
49
100
AcDbEntity
  8
1
  6
DOT_CENTER
 62
     2
100
AcDbLine
 10
-98.9604298973471
 20
-75.31296352045914
 30
0.0
 11
-90.21232453800783
 21
-42.66467638894315
 31
0.0
  0
LINE
  5
66
330
49
100
AcDbEntity
  8
1
  6
DOT_CENTER
 62
     2
100
AcDbLine
 10
-86.40767516575102
 20
-28.4655692636982
 30
0.0
 11
-90.08291469541419
 21
-42.18171356155395
 31
0.0
  0
LINE
  5
67
330
49
100
AcDbEntity
  8
1
  6
DOT_CENTER
 62
     2
100
AcDbLine
 10
-74.77259443607286
 20
-21.74806255258341
 30
0.0
 11
-62.09902369395428
 21
-25.14394459945706
 31
0.0
  0
LINE
  5
68
330
49
100
AcDbEntity
  8
0
  6
Continuous
 62
     7
100
AcDbLine
 10
-84.77157798133814
 20
-58.09875481643874
 30
0.0
 11
-81.39888013175658
 21
-52.2731725094562
 31
0.0
  0
LINE
  5
69
330
49
100
AcDbEntity
  8
0
  6
Continuous
 62
     7
100
AcDbLine
 10
-88.74860655875932
 20
-71.00934131335575
 30
0.0
 11
-86.10035295026171
 21
-64.98964424248257
 31
0.0
  0
LINE
  5
6A
330
49
100
AcDbEntity
  8
0
  6
Continuous
 62
     7
100
AcDbLine
 10
-102.6412025947418
 20
-53.31059064046914
 30
0.0
 11
-84.77157798133814
 21
-58.09875481643874
 31
0.0
  0
LINE
  5
6B
330
49
100
AcDbEntity
  8
0
  6
Continuous
 62
     7
100
AcDbLine
 10
-86.82479719134562
 20
-64.79552947859187
 30
0.0
 11
-83.80565232655957
 21
-58.35757450162632
 31
0.0
  0
LINE
  5
6C
330
49
100
AcDbEntity
  8
0
  6
Continuous
 62
     7
100
AcDbLine
 10
-99.87158108579379
 20
-40.07647953706774
 30
0.0
 11
-80.55306799022222
 21
-45.25287324081867
 31
0.0
  0
LINE
  5
6D
330
49
100
AcDbEntity
  8
0
  6
Continuous
 62
     7
100
AcDbLine
 10
-80.55306799022222
 20
-45.25287324081867
 30
0.0
 11
-78.86269809435981
 21
-45.70580768989689
 31
0.0
  0
LINE
  5
6E
330
49
100
AcDbEntity
  8
0
  6
Continuous
 62
     7
100
AcDbLine
 10
-82.84776861392444
 20
-51.88494298167487
 30
0.0
 11
-78.86269809435981
 21
-45.70580768989689
 31
0.0
  0
LINE
  5
6F
330
49
100
AcDbEntity
  8
0
  6
Continuous
 62
     3
100
AcDbLine
 10
-99.25920841581072
 20
-39.72292655227224
 30
0.0
 11
-80.90662097501774
 21
-44.64050057083566
 31
0.0
  0
LINE
  5
70
330
49
100
AcDbEntity
  8
0
  6
Continuous
 62
     7
100
AcDbLine
 10
-104.9359032184439
 20
-59.9426603813254
 30
0.0
 11
-104.21145897736
 21
-60.13677514521604
 31
0.0
  0
LINE
  5
71
330
49
100
AcDbEntity
  8
0
  6
Continuous
 62
     7
100
AcDbLine
 10
-104.21145897736
 20
-60.13677514521604
 30
0.0
 11
-86.82479719134562
 21
-64.79552947859187
 31
0.0
  0
LINE
  5
72
330
49
100
AcDbEntity
  8
0
  6
Continuous
 62
     7
100
AcDbLine
 10
-86.82479719134562
 20
-64.79552947859187
 30
0.0
 11
-86.10035295026171
 21
-64.98964424248257
 31
0.0
  0
LINE
  5
73
330
49
100
AcDbEntity
  8
0
  6
Continuous
 62
     7
100
AcDbLine
 10
-84.77157798133814
 20
-58.09875481643874
 30
0.0
 11
-83.80565232655957
 21
-58.35757450162632
 31
0.0
  0
LINE
  5
74
330
49
100
AcDbEntity
  8
0
  6
Continuous
 62
     7
100
AcDbLine
 10
-101.2003560547174
 20
-46.96736896311151
 30
0.0
 11
-82.84776861392444
 21
-51.88494298167487
 31
0.0
  0
LINE
  5
75
330
49
100
AcDbEntity
  8
0
  6
Continuous
 62
     7
100
AcDbLine
 10
-82.84776861392444
 20
-51.88494298167487
 30
0.0
 11
-81.39888013175658
 21
-52.2731725094562
 31
0.0
  0
LINE
  5
76
330
49
100
AcDbEntity
  8
0
  6
Continuous
 62
     7
100
AcDbLine
 10
-105.6523055173844
 20
-66.47999682257367
 30
0.0
 11
-104.9359032184439
 21
-59.9426603813254
 31
0.0
  0
LINE
  5
77
330
49
100
AcDbEntity
  8
0
  6
Continuous
 62
     7
100
AcDbLine
 10
-105.893786931079
 20
-66.41529190127679
 30
0.0
 11
-105.6523055173844
 21
-66.47999682257367
 31
0.0
  0
LINE
  5
78
330
49
100
AcDbEntity
  8
0
  6
Continuous
 62
     7
100
AcDbLine
 10
-105.6523055173844
 20
-66.47999682257367
 30
0.0
 11
-88.74860655875932
 21
-71.00934131335575
 31
0.0
  0
LINE
  5
79
330
49
100
AcDbEntity
  8
0
  6
Continuous
 62
     7
100
AcDbLine
 10
-88.74860655875932
 20
-71.00934131335575
 30
0.0
 11
-88.50712514506469
 21
-71.07404623465263
 31
0.0
  0
LINE
  5
7A
330
49
100
AcDbEntity
  8
0
  6
Continuous
 62
     7
100
AcDbLine
 10
-107.1845969008905
 20
-73.10929877229077
 30
0.0
 11
-105.893786931079
 21
-66.41529190127679
 31
0.0
  0
LINE
  5
7B
330
49
100
AcDbEntity
  8
0
  6
Continuous
 62
     7
100
AcDbLine
 10
-106.2048723081865
 20
-73.37181588155241
 30
0.0
 11
-91.71598748650788
 21
-77.25411115936564
 31
0.0
  0
LINE
  5
7C
330
49
100
AcDbEntity
  8
0
  6
Continuous
 62
     7
100
AcDbLine
 10
-107.1845969008905
 20
-73.10929877229077
 30
0.0
 11
-106.2048723081865
 21
-73.37181588155241
 31
0.0
  0
LINE
  5
7D
330
49
100
AcDbEntity
  8
0
  6
Continuous
 62
     7
100
AcDbLine
 10
-91.71598748650788
 20
-77.25411115936564
 30
0.0
 11
-90.73626289380397
 21
-77.51662826862727
 31
0.0
  0
LINE
  5
7E
330
49
100
AcDbEntity
  8
0
  6
Continuous
 62
     7
100
AcDbLine
 10
-90.73626289380397
 20
-77.51662826862727
 30
0.0
 11
-88.50712514506469
 21
-71.07404623465263
 31
0.0
  0
LINE
  5
7F
330
49
100
AcDbEntity
  8
0
  6
Continuous
 62
     7
100
AcDbLine
 10
-102.6412025947418
 20
-53.31059064046914
 30
0.0
 11
-102.6492445368853
 21
-46.57913943533018
 31
0.0
  0
LINE
  5
80
330
49
100
AcDbEntity
  8
0
  6
Continuous
 62
     7
100
AcDbLine
 10
-101.2003560547174
 20
-46.96736896311151
 30
0.0
 11
-101.5619509816563
 21
-39.62354508798953
 31
0.0
  0
LINE
  5
81
330
49
100
AcDbEntity
  8
0
  6
Continuous
 62
     7
100
AcDbLine
 10
-95.58396888614755
 20
-26.00678225441649
 30
0.0
 11
-99.25920841581072
 21
-39.72292655227224
 31
0.0
  0
LINE
  5
82
330
49
100
AcDbEntity
  8
0
  6
Continuous
 62
     7
100
AcDbLine
 10
-95.58396888614755
 20
-26.00678225441649
 30
0.0
 11
-94.4192803028036
 21
-21.66011680791289
 31
0.0
  0
LINE
  5
83
330
49
100
AcDbEntity
  8
0
  6
Continuous
 62
     3
100
AcDbLine
 10
-95.55137455526676
 20
-26.01551590220365
 30
0.0
 11
-95.58396888614755
 21
-26.00678225441649
 31
0.0
  0
LINE
  5
84
330
49
100
AcDbEntity
  8
0
  6
Continuous
 62
     7
100
AcDbLine
 10
-101.5619509816563
 20
-39.62354508798953
 30
0.0
 11
-99.87158108579379
 21
-40.07647953706774
 31
0.0
  0
LINE
  5
85
330
49
100
AcDbEntity
  8
0
  6
Continuous
 62
     7
100
AcDbLine
 10
-102.6492445368853
 20
-46.57913943533018
 30
0.0
 11
-101.2003560547174
 21
-46.96736896311151
 31
0.0
  0
LINE
  5
86
330
49
100
AcDbEntity
  8
0
  6
Continuous
 62
     7
100
AcDbLine
 10
-104.21145897736
 20
-60.13677514521604
 30
0.0
 11
-103.6071282495204
 21
-53.05177095528157
 31
0.0
  0
LINE
  5
87
330
49
100
AcDbEntity
  8
0
  6
Continuous
 62
     7
100
AcDbLine
 10
-103.6071282495204
 20
-53.05177095528157
 30
0.0
 11
-102.6412025947418
 21
-53.31059064046914
 31
0.0
  0
LINE
  5
88
330
49
100
AcDbEntity
  8
0
  6
Continuous
 62
     7
100
AcDbLine
 10
-77.23138144535457
 20
-30.92435627297991
 30
0.0
 11
-64.55781070323599
 21
-34.32023831985353
 31
0.0
  0
LINE
  5
89
330
49
100
AcDbEntity
  8
0
  6
Continuous
 62
     7
100
AcDbLine
 10
-77.23138144535457
 20
-30.92435627297991
 30
0.0
 11
-80.90662097501774
 21
-44.64050057083566
 31
0.0
  0
LINE
  5
8A
330
49
100
AcDbEntity
  8
0
  6
Continuous
 62
     7
100
AcDbLine
 10
-72.31380742679116
 20
-12.57176883218696
 30
0.0
 11
-59.64023668467257
 21
-15.96765087906059
 31
0.0
  0
LINE
  5
8B
330
49
100
AcDbEntity
  8
0
  6
Continuous
 62
     7
100
AcDbLine
 10
-72.31380742679116
 20
-12.57176883218696
 30
0.0
 11
-76.66047287329476
 21
-11.40708024884296
 31
0.0
  0
LINE
  5
8C
330
49
100
AcDbEntity
  8
0
  6
Continuous
 62
     3
100
AcDbLine
 10
-72.32254107457837
 20
-12.60436316306775
 30
0.0
 11
-72.31380742679116
 21
-12.57176883218696
 31
0.0
  0
LINE
  5
8D
330
49
100
AcDbEntity
  8
0
  6
Continuous
 62
     3
100
AcDbLine
 10
-77.23138144535457
 20
-30.92435627297991
 30
0.0
 11
-72.32254107457837
 21
-12.60436316306775
 31
0.0
  0
LINE
  5
8E
330
49
100
AcDbEntity
  8
0
  6
Continuous
 62
     3
100
AcDbLine
 10
-77.23138144535457
 20
-30.92435627297991
 30
0.0
 11
-95.55137455526676
 21
-26.01551590220365
 31
0.0
  0
ARC
  5
8F
330
49
100
AcDbEntity
  8
0
  6
Continuous
 62
     7
100
AcDbCircle
 10
-77.23138144535457
 20
-30.92435627297991
 30
0.0
 40
19.00000000000003
100
AcDbArc
 50
74.9999620321014
 51
164.9999620321014
  0
ARC
  5
90
330
49
100
AcDbEntity
  8
0
  6
Continuous
 62
     7
100
AcDbCircle
 10
-80.42365814762846
 20
-44.76991041342942
 30
0.0
 40
0.4999999999999953
100
AcDbArc
 50
164.999962032103
 51
254.999962032102
  0
ARC
  5
91
330
49
100
AcDbEntity
  8
0
  6
Continuous
 62
     7
100
AcDbCircle
 10
-99.7421712432
 20
-39.59351670967843
 30
0.0
 40
0.5000000000000232
100
AcDbArc
 50
254.9999620321005
 51
344.9999620320975
  0
ARC
  5
92
330
49
100
AcDbEntity
  8
0
  6
Continuous
 62
     3
100
AcDbCircle
 10
-77.23138144535457
 20
-30.92435627297991
 30
0.0
 40
18.96625585963111
100
AcDbArc
 50
74.99996203210141
 51
164.9999620321013
  0
ARC
  5
93
330
49
100
AcDbEntity
  8
0
  6
Continuous
 62
     7
100
AcDbCircle
 10
-80.4133583085142
 20
-25.4130022431323
 30
0.0
 40
14.5
100
AcDbArc
 50
74.99996203210141
 51
164.9999620321016
  0
ARC
  5
94
330
49
100
AcDbEntity
  8
0
  6
Continuous
 62
     3
100
AcDbCircle
 10
-83.94888815646945
 20
-19.28927554330167
 30
0.0
 40
1.543712436559642
100
AcDbArc
 50
17.77573910296182
 51
222.2241849612905
  0
ARC
  5
95
330
49
100
AcDbEntity
  8
0
  6
Continuous
 62
     3
100
AcDbCircle
 10
-83.94888815646945
 20
-19.28927554330167
 30
0.0
 40
1.248270110646875
100
AcDbArc
 50
342.391506938699
 51
257.6084171255096
  0
ARC
  5
96
330
49
100
AcDbEntity
  8
0
  6
Continuous
 62
     7
100
AcDbCircle
 10
-77.23138144535457
 20
-30.92435627297991
 30
0.0
 40
12.54138126514929
100
AcDbArc
 50
116.1523009824304
 51
123.8476230817724
  0
SPLINE
  5
97
330
49
100
AcDbEntity
  8
0
  6
Continuous
 62
     7
100
AcDbSpline
210
0.0
220
0.0
230
1.0
 70
     8
 71
     3
 72
    39
 73
    35
 74
    33
 42
0.000000001
 43
0.0000000001
 44
0.00000001
 40
0.0
 40
0.0
 40
0.0
 40
0.0
 40
0.1177780265596323
 40
0.2222550528378744
 40
0.3321237506740589
 40
0.4420271691150321
 40
0.6583162300859096
 40
0.8744988184189476
 40
1.075473671947007
 40
1.276107302124909
 40
1.382657404056822
 40
1.477979307854265
 40
1.586291329373859
 40
1.682967782486859
 40
1.847099949043719
 40
2.010887696227333
 40
2.164669111040583
 40
2.349911604059283
 40
2.516372850420314
 40
2.656543559203919
 40
2.825844903446803
 40
2.96816055472884
 40
3.276648930834597
 40
3.585585405744018
 40
3.918976346677209
 40
4.25369993944101
 40
4.656889969852141
 40
5.061814371535566
 40
5.175544521161957
 40
5.276771486303939
 40
5.390698334713268
 40
5.492065070682748
 40
5.711951743565443
 40
5.931619272746645
 40
5.931619272746645
 40
5.931619272746645
 40
5.931619272746645
 10
-82.47887448324852
 20
-18.81799230857715
 30
0.0
 10
-82.48888028877451
 20
-18.78001122342017
 30
0.0
 10
-82.5077619256164
 20
-18.70833836538399
 30
0.0
 10
-82.54524630120396
 20
-18.60404484185217
 30
0.0
 10
-82.58794535862583
 20
-18.50468049486279
 30
0.0
 10
-82.65437977996406
 20
-18.37528593433566
 30
0.0
 10
-82.75280306442532
 20
-18.22295942758691
 30
0.0
 10
-82.89018850864905
 20
-18.06181072159022
 30
0.0
 10
-83.04301202638966
 20
-17.9230279163929
 30
0.0
 10
-83.1818431827345
 20
-17.82517005025109
 30
0.0
 10
-83.29839838258985
 20
-17.75854753319908
 30
0.0
 10
-83.39124191521282
 20
-17.71290955481305
 30
0.0
 10
-83.48376236214153
 20
-17.67448035273073
 30
0.0
 10
-83.60023014556529
 20
-17.6346083191293
 30
0.0
 10
-83.73768225134882
 20
-17.59976181915709
 30
0.0
 10
-83.89684898555184
 20
-17.57652194390287
 30
0.0
 10
-84.06454325872994
 20
-17.56908694874915
 30
0.0
 10
-84.2331061084837
 20
-17.57987367225699
 30
0.0
 10
-84.39481574705611
 20
-17.60880093058631
 30
0.0
 10
-84.54764619602884
 20
-17.6520939460125
 30
0.0
 10
-84.68801036612147
 20
-17.70757845182945
 30
0.0
 10
-84.87177738330274
 20
-17.80269428991537
 30
0.0
 10
-85.07877379229153
 20
-17.95183980491661
 30
0.0
 10
-85.29520331627613
 20
-18.1861527117659
 30
0.0
 10
-85.46368272796992
 20
-18.46783501862186
 30
0.0
 10
-85.57914404150131
 20
-18.80848681546165
 30
0.0
 10
-85.61601289442775
 20
-19.19167285416356
 30
0.0
 10
-85.5682401332758
 20
-19.49882680662911
 30
0.0
 10
-85.50461028882788
 20
-19.69551260092734
 30
0.0
 10
-85.4640730661897
 20
-19.79744707195014
 30
0.0
 10
-85.41872325061527
 20
-19.8928260168555
 30
0.0
 10
-85.34776048829241
 20
-20.01936293597266
 30
0.0
 10
-85.24546108348719
 20
-20.16894151775443
 30
0.0
 10
-85.14316311097521
 20
-20.27413238672063
 30
0.0
 10
-85.09203962166058
 20
-20.32670159580843
 30
0.0
 11
-82.47887448324852
 21
-18.81799230857715
 31
0.0
 11
-82.51063372652465
 21
-18.70457707218426
 31
0.0
 11
-82.54559634709526
 21
-18.60612371023731
 31
0.0
 11
-82.5890758357123
 21
-18.50522442898343
 31
0.0
 11
-82.63924995966448
 21
-18.40744243299164
 31
0.0
 11
-82.75665363945924
 21
-18.22579074970184
 31
0.0
 11
-82.89690216712128
 21
-18.06127551600125
 31
0.0
 11
-83.04569458630775
 21
-17.92617663425967
 31
0.0
 11
-83.20969232904037
 21
-17.8105972501111
 31
0.0
 11
-83.30219773755259
 21
-17.75772311988569
 31
0.0
 11
-83.38774485437594
 21
-17.71567604899187
 31
0.0
 11
-83.48777315717686
 21
-17.67413290664468
 31
0.0
 11
-83.57923973220147
 21
-17.64282472455776
 31
0.0
 11
-83.7383443379042
 21
-17.60251228702457
 31
0.0
 11
-83.90041610799392
 21
-17.57886556320844
 31
0.0
 11
-84.05404739732941
 21
-17.57207214345545
 31
0.0
 11
-84.23890995066796
 21
-17.58393037699196
 31
0.0
 11
-84.40276825899811
 21
-17.61325274767511
 31
0.0
 11
-84.53762958649554
 21
-17.6514659654479
 31
0.0
 11
-84.6950756163378
 21
-17.71370496405344
 31
0.0
 11
-84.8214590350776
 21
-17.77913413291137
 31
0.0
 11
-85.07174170885011
 21
-17.95947731059278
 31
0.0
 11
-85.28143656928106
 21
-18.18634690170339
 31
0.0
 11
-85.4526958580472
 21
-18.47238846491735
 31
0.0
 11
-85.56029920242506
 21
-18.78934493543167
 31
0.0
 11
-85.5990424555301
 21
-19.19066919522357
 31
0.0
 11
-85.53708200128881
 21
-19.59082500710915
 31
0.0
 11
-85.50208679558406
 21
-19.69903721790851
 31
0.0
 11
-85.46468499329535
 21
-19.79310104574236
 31
0.0
 11
-85.41573067418065
 21
-19.89597378996818
 31
0.0
 11
-85.36625359447712
 21
-19.98444544545222
 31
0.0
 11
-85.24062258743298
 21
-20.16490873743609
 31
0.0
 11
-85.09203962166058
 21
-20.32670159580843
 31
0.0
  0
SPLINE
  5
98
330
49
100
AcDbEntity
  8
0
  6
Continuous
 62
     7
100
AcDbSpline
210
0.0
220
0.0
230
1.0
 70
     8
 71
     3
 72
    23
 73
    19
 74
    17
 42
0.000000001
 43
0.0000000001
 44
0.00000001
 40
0.0
 40
0.0
 40
0.0
 40
0.0
 40
0.0532060288347939
 40
0.1140263690513483
 40
0.1753878423401377
 40
0.2298825586278948
 40
0.2920047638695588
 40
0.3467937544916982
 40
0.4097533404947393
 40
0.4645423758507621
 40
0.5192264740646187
 40
0.5841403144895556
 40
0.6381155931321966
 40
0.7044580693736245
 40
0.8139844563235511
 40
0.904473522912763
 40
0.9288551504922555
 40
0.9476573164942045
 40
0.9476573164942045
 40
0.9476573164942045
 40
0.9476573164942045
 10
-82.47887448324852
 20
-18.81799230857715
 30
0.0
 10
-82.47503685083207
 20
-18.83531346573039
 30
0.0
 10
-82.46681239643141
 20
-18.87243461252054
 30
0.0
 10
-82.45903807275663
 20
-18.9304517340892
 30
0.0
 10
-82.45505435650044
 20
-18.989247605013
 30
0.0
 10
-82.45499550180182
 20
-19.04861200760109
 30
0.0
 10
-82.45861668997901
 20
-19.10567832496363
 30
0.0
 10
-82.46623783208962
 20
-19.16518271849345
 30
0.0
 10
-82.4771784804607
 20
-19.2216927317556
 30
0.0
 10
-82.491686873447
 20
-19.27734327981585
 30
0.0
 10
-82.50969066413923
 20
-19.33264917868451
 30
0.0
 10
-82.5312236415644
 20
-19.38640899728916
 30
0.0
 10
-82.55804924523375
 20
-19.44206592720826
 30
0.0
 10
-82.59627389524182
 20
-19.50855040467888
 30
0.0
 10
-82.64922947792735
 20
-19.58026475342109
 30
0.0
 10
-82.70385641145859
 20
-19.63221385319802
 30
0.0
 10
-82.7408087062914
 20
-19.65726490819459
 30
0.0
 10
-82.75355498271009
 20
-19.66397127210376
 30
0.0
 10
-82.75910469772558
 20
-19.66689120827576
 30
0.0
 11
-82.47887448324852
 21
-18.81799230857715
 31
0.0
 11
-82.46805179926224
 21
-18.87008597842211
 31
0.0
 11
-82.45972140803713
 21
-18.9303331192074
 31
0.0
 11
-82.45562157156661
 21
-18.99155747449602
 31
0.0
 11
-82.45554443462987
 21
-19.04605213632541
 31
0.0
 11
-82.45947285883965
 21
-19.10805000643614
 31
0.0
 11
-82.46642803452718
 21
-19.16239574266135
 31
0.0
 11
-82.47839441223951
 21
-19.22420767756005
 31
0.0
 11
-82.49221947095455
 21
-19.27722377095054
 31
0.0
 11
-82.50915502881884
 21
-19.32921932349798
 31
0.0
 11
-82.53331662582497
 21
-19.3894690032752
 31
0.0
 11
-82.55677843373711
 21
-19.43807840846062
 31
0.0
 11
-82.58990564002181
 21
-19.49555807744829
 31
0.0
 11
-82.6556907719194
 21
-19.58312716891016
 31
0.0
 11
-82.72230181434813
 21
-19.64437453553259
 31
0.0
 11
-82.74260884189381
 21
-19.65786854461151
 31
0.0
 11
-82.75910469772558
 21
-19.66689120827576
 31
0.0
  0
SPLINE
  5
99
330
49
100
AcDbEntity
  8
0
  6
Continuous
 62
     7
100
AcDbSpline
210
0.0
220
0.0
230
1.0
 70
     8
 71
     3
 72
    21
 73
    17
 74
    15
 42
0.000000001
 43
0.0000000001
 44
0.00000001
 40
0.0
 40
0.0
 40
0.0
 40
0.0
 40
0.0208496131651231
 40
0.0432556775422726
 40
0.1337853821849444
 40
0.2433592839066435
 40
0.3095998264003115
 40
0.3635189041939083
 40
0.4181846365934561
 40
0.4827191890954425
 40
0.537679543452045
 40
0.6008671714239677
 40
0.6554326231480957
 40
0.7172689452345595
 40
0.8328919387196789
 40
0.9475303318560717
 40
0.9475303318560717
 40
0.9475303318560717
 40
0.9475303318560717
 10
-84.2167567429359
 20
-20.50846572105027
 30
0.0
 10
-84.22264811124938
 20
-20.51216154917639
 30
0.0
 10
-84.23487065347749
 20
-20.51982909120956
 30
0.0
 10
-84.27512843349493
 20
-20.53918617452938
 30
0.0
 10
-84.34682849257459
 20
-20.5603332933506
 30
0.0
 10
-84.4354100941279
 20
-20.57031570152931
 30
0.0
 10
-84.51206180277646
 20
-20.57016724364174
 30
0.0
 10
-84.5702151357965
 20
-20.56582634078053
 30
0.0
 10
-84.62741729871256
 20
-20.55795397209644
 30
0.0
 10
-84.68432818963302
 20
-20.54623371644763
 30
0.0
 10
-84.74307801035252
 20
-20.53008713148127
 30
0.0
 10
-84.79754139625257
 20
-20.51129009897115
 30
0.0
 10
-84.85281617243405
 20
-20.48819455871012
 30
0.0
 10
-84.92209292574906
 20
-20.45377019940848
 30
0.0
 10
-85.0055094575107
 20
-20.40265350007025
 30
0.0
 10
-85.06327857686298
 20
-20.3519466262773
 30
0.0
 10
-85.09203962166058
 20
-20.32670159580843
 30
0.0
 11
-84.2167567429359
 21
-20.50846572105027
 31
0.0
 11
-84.23461525072658
 21
-20.51922585039838
 31
0.0
 11
-84.25472391789708
 21
-20.52910882264237
 31
0.0
 11
-84.3411157179349
 21
-20.55616587316592
 31
0.0
 11
-84.44989523189656
 21
-20.56933618954039
 31
0.0
 11
-84.51613574723847
 21
-20.56927616898623
 31
0.0
 11
-84.5699074367565
 21
-20.56529215506455
 31
0.0
 11
-84.62406499260504
 21
-20.55785565996274
 31
0.0
 11
-84.68727634065769
 21
-20.54485435335059
 31
0.0
 11
-84.74027223320604
 21
-20.53029152569758
 31
0.0
 11
-84.80000413485445
 21
-20.50968142409383
 31
0.0
 11
-84.85034276047058
 21
-20.48862409021338
 31
0.0
 11
-84.90575353503993
 21
-20.46117638036546
 31
0.0
 11
-85.00377644365996
 21
-20.39985602980869
 31
0.0
 11
-85.09203962166058
 21
-20.32670159580843
 31
0.0
  0
ENDBLK
  5
4B
330
49
100
AcDbEntity
  8
0
100
AcDbBlockEnd
  0
BLOCK
  5
4E
330
4C
100
AcDbEntity
  8
0
100
AcDbBlockBegin
  2
HL19
 70
     0
 10
-74.22664864364356
 20
-43.63508049270888
 30
0.0
  3
HL19
  1

  0
INSERT
  5
4D
330
4C
100
AcDbEntity
  8
0
100
AcDbBlockReference
  2
HL19_ABS_10003_ABS
 10
-83.41241679278153
 20
-44.21481525587976
 30
0.0
  0
ENDBLK
  5
4F
330
4C
100
AcDbEntity
  8
0
100
AcDbBlockEnd
  0
BLOCK
  5
51
330
50
100
AcDbEntity
  8
0
100
AcDbBlockBegin
  2
HL13_50_Tauchrohr__1
 70
     0
 10
-23.82374026800777
 20
-90.44306092410042
 30
0.0
  3
HL13_50_Tauchrohr__1
  1

  0
POINT
  5
9A
330
50
100
AcDbEntity
  8
0
 62
     7
100
AcDbPoint
 10
17.99988230769197
 20
-180.0000115000002
 30
0.0
  0
POINT
  5
9B
330
50
100
AcDbEntity
  8
0
 62
     7
100
AcDbPoint
 10
19.99988230769197
 20
-180.0000135000002
 30
0.0
  0
LINE
  5
9C
330
50
100
AcDbEntity
  8
1
  6
PHANTOM
 62
     2
100
AcDbLine
 10
-24.00000213419401
 20
0.87816173412185
 30
0.0
 11
-24.00000213419398
 21
2.87816173412185
 31
0.0
  0
LINE
  5
9D
330
50
100
AcDbEntity
  8
1
  6
Continuous
 62
     2
100
AcDbLine
 10
27.2512339948483
 20
-10.00000803110615
 30
0.0
 11
28.4586008506347
 21
-10.00000803110615
 31
0.0
  0
LINE
  5
9E
330
50
100
AcDbEntity
  8
1
  6
PHANTOM
 62
     2
100
AcDbLine
 10
23.99999786580599
 20
1.17522823967354
 30
0.0
 11
23.99999786580602
 21
3.17522823967354
 31
0.0
  0
LINE
  5
9F
330
50
100
AcDbEntity
  8
LC-004-002-----0
  6
Continuous
 62
     7
100
AcDbLine
 10
-45.69801669230803
 20
-45.06773850000019
 30
0.0
 11
-45.82742625504341
 21
-45.5507007787907
 31
0.0
  0
LINE
  5
A0
330
50
100
AcDbEntity
  8
1
  6
PHANTOM
 62
     2
100
AcDbLine
 10
-76.10608138665023
 20
-21.39075485395995
 30
0.0
 11
-13.21813135458394
 21
-38.24157494437473
 31
0.0
  0
LINE
  5
A1
330
50
100
AcDbEntity
  8
LC-004-002-----0
  6
Continuous
 62
     7
100
AcDbLine
 10
-37.933433455442
 20
-16.08996641986917
 30
0.0
 11
-20.00001369230801
 21
-20.89522450000015
 31
0.0
  0
LINE
  5
A2
330
50
100
AcDbEntity
  8
1
  6
Continuous
 62
     2
100
AcDbLine
 10
-37.80401612957262
 20
-15.60700622120962
 30
0.0
 11
-41.18475620768375
 21
-14.70113721029539
 31
0.0
  0
LINE
  5
A3
330
50
100
AcDbEntity
  8
1
  6
Continuous
 62
     2
100
AcDbLine
 10
-45.82742625504341
 20
-45.5507007787907
 30
0.0
 11
-49.20589295717762
 21
-44.64544119594995
 31
0.0
  0
LINE
  5
A4
330
50
100
AcDbEntity
  8
1
  6
Continuous
 62
     7
100
AcDbLine
 10
-38.51112234451366
 20
-14.3822608052104
 30
0.0
 11
-47.05217136432542
 21
-46.25780687914871
 31
0.0
  0
LINE
  5
A5
330
50
100
AcDbEntity
  8
1
  6
Continuous
 62
     7
100
AcDbLine
 10
-37.80401612957262
 20
-15.60700622120962
 30
0.0
 11
-38.51112234451366
 21
-14.3822608052104
 31
0.0
  0
LINE
  5
A6
330
50
100
AcDbEntity
  8
1
  6
Continuous
 62
     7
100
AcDbLine
 10
-45.82742625504341
 20
-45.5507007787907
 30
0.0
 11
-47.05217136432542
 21
-46.25780687914871
 31
0.0
  0
LINE
  5
A7
330
50
100
AcDbEntity
  8
LC-004-002-----0
  6
Continuous
 62
     7
100
AcDbLine
 10
-37.933433455442
 20
-16.08996641986917
 30
0.0
 11
-45.69801669230803
 21
-45.06773850000019
 31
0.0
  0
LINE
  5
A8
330
50
100
AcDbEntity
  8
LC-004-002-----0
  6
Continuous
 62
     7
100
AcDbLine
 10
-45.69801669230803
 20
-45.06773850000019
 30
0.0
 11
-30.00003269230801
 21
-49.27401150000017
 31
0.0
  0
LINE
  5
A9
330
50
100
AcDbEntity
  8
LC-004-002-----0
  6
Continuous
 62
     7
100
AcDbLine
 10
-47.05217136432542
 20
-46.25780687914871
 30
0.0
 11
-49.46471257802908
 21
-45.61136686796735
 31
0.0
  0
LINE
  5
AA
330
50
100
AcDbEntity
  8
LC-004-002-----0
  6
Continuous
 62
     7
100
AcDbLine
 10
-37.80401612957262
 20
-15.60700622120962
 30
0.0
 11
-37.93342569230803
 21
-16.08996850000017
 31
0.0
  0
LINE
  5
AB
330
50
100
AcDbEntity
  8
LC-004-002-----0
  6
Continuous
 62
     7
100
AcDbLine
 10
-20.00001125597046
 20
-16.99998549999927
 30
0.0
 11
-20.00001369230801
 21
-20.89522450000015
 31
0.0
  0
LINE
  5
AC
330
50
100
AcDbEntity
  8
LC-004-002-----0
  6
Continuous
 62
     7
100
AcDbLine
 10
19.99997630769196
 20
-35.50001350000016
 30
0.0
 11
19.99998864104398
 21
-16.99998549999927
 31
0.0
  0
LINE
  5
AD
330
50
100
AcDbEntity
  8
LC-004-002-----0
  6
Continuous
 62
     7
100
AcDbLine
 10
-30.00003269230801
 20
-49.27401150000017
 30
0.0
 11
-30.00011769230808
 21
-179.9999805000002
 31
0.0
  0
LINE
  5
AE
330
50
100
AcDbEntity
  8
LC-004-002-----0
  6
Continuous
 62
     7
100
AcDbLine
 10
19.99988230769197
 20
-180.0000135000002
 30
0.0
 11
19.99997630769196
 21
-35.50001350000016
 31
0.0
  0
LINE
  5
AF
330
50
100
AcDbEntity
  8
LC-004-002-----0
  6
Continuous
 62
     7
100
AcDbLine
 10
-30.00011769230808
 20
-179.9999805000002
 30
0.0
 11
19.99988230769197
 21
-180.0000135000002
 31
0.0
  0
LINE
  5
B0
330
50
100
AcDbEntity
  8
LC-004-002-----0
  6
Continuous
 62
     7
100
AcDbLine
 10
-38.51112234451366
 20
-14.3822608052104
 30
0.0
 11
-40.925936512894
 21
-13.73521155808976
 31
0.0
  0
LINE
  5
B1
330
50
100
AcDbEntity
  8
1
  6
PHANTOM
 62
     2
100
AcDbLine
 10
-5.00010202416251
 20
-184.0613500878744
 30
0.0
 11
-4.99999337293139
 21
-16.99997837339628
 31
0.0
  0
ARC
  5
B2
330
50
100
AcDbEntity
  8
1
  6
Continuous
 62
     7
100
AcDbCircle
 10
-41.40827817627216
 20
-29.30273374975064
 30
0.0
 40
23.00000000000001
100
AcDbArc
 50
299.7364173762471
 51
21.44105786202214
  0
ENDBLK
  5
52
330
50
100
AcDbEntity
  8
0
100
AcDbBlockEnd
  0
BLOCK
  5
54
330
53
100
AcDbEntity
  8
0
100
AcDbBlockBegin
  2
Holländermutter_R_6_4
 70
     0
 10
-0.00000046937397
 20
-9.93086221539773
 30
0.0
  3
Holländermutter_R_6_4
  1

  0
POINT
  5
B3
330
53
100
AcDbEntity
  8
0
 62
     7
100
AcDbPoint
 10
26.99999950701886
 20
0.0000109044694
 30
0.0
  0
LINE
  5
B4
330
53
100
AcDbEntity
  8
1
  6
Continuous
 62
     7
100
AcDbLine
 10
24.99997516464752
 20
-12.99998350000016
 30
0.0
 11
24.99997516464752
 21
-2.00001750000027
 31
0.0
  0
LINE
  5
B5
330
53
100
AcDbEntity
  8
1
  6
Continuous
 62
     7
100
AcDbLine
 10
24.49998195265658
 20
-12.99998350000016
 30
0.0
 11
24.49998195265658
 21
-2.00001750000027
 31
0.0
  0
LINE
  5
B6
330
53
100
AcDbEntity
  8
1
  6
Continuous
 62
     7
100
AcDbLine
 10
23.99998196768206
 20
-12.99998350000016
 30
0.0
 11
23.99998196768206
 21
-2.00001750000027
 31
0.0
  0
LINE
  5
B7
330
53
100
AcDbEntity
  8
1
  6
Continuous
 62
     7
100
AcDbLine
 10
23.49998196768203
 20
-12.99998350000016
 30
0.0
 11
23.49998196768203
 21
-2.00001750000027
 31
0.0
  0
LINE
  5
B8
330
53
100
AcDbEntity
  8
1
  6
Continuous
 62
     7
100
AcDbLine
 10
22.99998187752855
 20
-12.99998350000016
 30
0.0
 11
22.99998187752855
 21
-2.00001750000027
 31
0.0
  0
LINE
  5
B9
330
53
100
AcDbEntity
  8
1
  6
Continuous
 62
     7
100
AcDbLine
 10
-25.00000138463903
 20
-2.00001750000027
 30
0.0
 11
-25.00000138463903
 21
-12.99998350000016
 31
0.0
  0
LINE
  5
BA
330
53
100
AcDbEntity
  8
1
  6
Continuous
 62
     7
100
AcDbLine
 10
-24.50000817264809
 20
-2.00001750000027
 30
0.0
 11
-24.50000817264809
 21
-12.99998350000016
 31
0.0
  0
LINE
  5
BB
330
53
100
AcDbEntity
  8
1
  6
Continuous
 62
     7
100
AcDbLine
 10
-24.00000818767358
 20
-2.00001750000027
 30
0.0
 11
-24.00000818767358
 21
-12.99998350000016
 31
0.0
  0
LINE
  5
BC
330
53
100
AcDbEntity
  8
1
  6
Continuous
 62
     7
100
AcDbLine
 10
-23.50000818767353
 20
-2.00001750000027
 30
0.0
 11
-23.50000818767353
 21
-12.99998350000016
 31
0.0
  0
LINE
  5
BD
330
53
100
AcDbEntity
  8
1
  6
Continuous
 62
     7
100
AcDbLine
 10
-23.00000809752007
 20
-2.00001750000027
 30
0.0
 11
-23.00000809752007
 21
-12.99998350000016
 31
0.0
  0
LINE
  5
BE
330
53
100
AcDbEntity
  8
1
  6
Continuous
 62
     7
100
AcDbLine
 10
-1.50000354273788
 20
-2.00001750000027
 30
0.0
 11
-1.50000354273788
 21
-12.99998350000016
 31
0.0
  0
LINE
  5
BF
330
53
100
AcDbEntity
  8
1
  6
Continuous
 62
     7
100
AcDbLine
 10
-1.00000343145324
 20
-2.00001750000027
 30
0.0
 11
-1.00000343145324
 21
-12.99998350000016
 31
0.0
  0
LINE
  5
C0
330
53
100
AcDbEntity
  8
1
  6
Continuous
 62
     7
100
AcDbLine
 10
-0.50000345927418
 20
-2.00001750000027
 30
0.0
 11
-0.50000345927418
 21
-12.99998350000016
 31
0.0
  0
LINE
  5
C1
330
53
100
AcDbEntity
  8
1
  6
Continuous
 62
     7
100
AcDbLine
 10
0.49997723928268
 20
-12.99998350000016
 30
0.0
 11
0.49997723928268
 21
-2.00001750000027
 31
0.0
  0
LINE
  5
C2
330
53
100
AcDbEntity
  8
1
  6
Continuous
 62
     7
100
AcDbLine
 10
0.99997721146173
 20
-12.99998350000016
 30
0.0
 11
0.99997721146173
 21
-2.00001750000027
 31
0.0
  0
LINE
  5
C3
330
53
100
AcDbEntity
  8
1
  6
Continuous
 62
     7
100
AcDbLine
 10
1.49997732274637
 20
-12.99998350000016
 30
0.0
 11
1.49997732274637
 21
-2.00001750000027
 31
0.0
  0
LINE
  5
C4
330
53
100
AcDbEntity
  8
1
  6
Continuous
 62
     7
100
AcDbLine
 10
-25.99999712380041
 20
-13.99998549999927
 30
0.0
 11
26.00000287619959
 21
-13.99998549999927
 31
0.0
  0
LINE
  5
C5
330
53
100
AcDbEntity
  8
1
  6
Continuous
 62
     7
100
AcDbLine
 10
-25.99999712380041
 20
-0.99998549999927
 30
0.0
 11
26.00000287619959
 21
-0.99998549999927
 31
0.0
  0
LINE
  5
C6
330
53
100
AcDbEntity
  8
1
  6
Continuous
 62
     7
100
AcDbLine
 10
23.00000287619959
 20
-16.99998549999927
 30
0.0
 11
-22.99999712380041
 21
-16.99998549999927
 31
0.0
  0
LINE
  5
C7
330
53
100
AcDbEntity
  8
LC-001-002-----0
  6
Continuous
 62
     7
100
AcDbLine
 10
26.00000287619959
 20
-0.99998549999927
 30
0.0
 11
26.00000287619959
 21
-13.99998549999927
 31
0.0
  0
LINE
  5
C8
330
53
100
AcDbEntity
  8
LC-001-002-----0
  6
Continuous
 62
     7
100
AcDbLine
 10
-25.99999712380041
 20
-0.99998549999927
 30
0.0
 11
-25.99999712380041
 21
-13.99998549999927
 31
0.0
  0
LINE
  5
C9
330
53
100
AcDbEntity
  8
LC-001-002-----0
  6
Continuous
 62
     7
100
AcDbLine
 10
-27.0000004457668
 20
0.0000109044694
 30
0.0
 11
-24.24999712380041
 21
0.0000109044694
 31
0.0
  0
LINE
  5
CA
330
53
100
AcDbEntity
  8
LC-001-002-----0
  6
Continuous
 62
     7
100
AcDbLine
 10
-27.0000004457668
 20
-0.99998549999927
 30
0.0
 11
-25.99999712380041
 21
-0.99998549999927
 31
0.0
  0
LINE
  5
CB
330
53
100
AcDbEntity
  8
LC-001-002-----0
  6
Continuous
 62
     7
100
AcDbLine
 10
26.99999950701886
 20
0.0000109044694
 30
0.0
 11
26.99999950701886
 21
-0.99998549999927
 31
0.0
  0
LINE
  5
CC
330
53
100
AcDbEntity
  8
LC-001-002-----0
  6
Continuous
 62
     7
100
AcDbLine
 10
-27.0000004457668
 20
0.0000109044694
 30
0.0
 11
-27.0000004457668
 21
-0.99998549999927
 31
0.0
  0
LINE
  5
CD
330
53
100
AcDbEntity
  8
LC-001-002-----0
  6
Continuous
 62
     7
100
AcDbLine
 10
26.00000287619959
 20
-0.99998549999927
 30
0.0
 11
26.99999950701886
 21
-0.99998549999927
 31
0.0
  0
LINE
  5
CE
330
53
100
AcDbEntity
  8
1
  6
Continuous
 62
     7
100
AcDbLine
 10
24.25000287619959
 20
0.0000109044694
 30
0.0
 11
26.99999950701886
 21
0.0000109044694
 31
0.0
  0
LINE
  5
CF
330
53
100
AcDbEntity
  8
1
  6
Continuous
 62
     7
100
AcDbLine
 10
24.25000287619959
 20
0.0000109044694
 30
0.0
 11
-24.24999712380041
 21
0.0000109044694
 31
0.0
  0
LINE
  5
D0
330
53
100
AcDbEntity
  8
1
  6
PHANTOM
 62
     2
100
AcDbLine
 10
0.00000287619959
 20
2.46664373686684
 30
0.0
 11
0.00000287619959
 21
-22.3283681676623
 31
0.0
  0
ARC
  5
D1
330
53
100
AcDbEntity
  8
1
  6
Continuous
 62
     7
100
AcDbCircle
 10
23.00000287619959
 20
-13.99998549999927
 30
0.0
 40
3.0
100
AcDbArc
 50
270.0
 51
0.0
  0
ARC
  5
D2
330
53
100
AcDbEntity
  8
1
  6
Continuous
 62
     7
100
AcDbCircle
 10
-22.99999712380041
 20
-13.99998549999927
 30
0.0
 40
3.0
100
AcDbArc
 50
180.0
 51
270.0
  0
ENDBLK
  5
55
330
53
100
AcDbEntity
  8
0
100
AcDbBlockEnd
  0
BLOCK
  5
5A
330
56
100
AcDbEntity
  8
0
100
AcDbBlockBegin
  2
HL13_50_Tauchrohr__2
 70
     0
 10
-45.6851980308391
 20
-87.70302807562882
 30
0.0
  3
HL13_50_Tauchrohr__2
  1

  0
INSERT
  5
57
330
56
100
AcDbEntity
  8
0
100
AcDbBlockReference
  2
HL19
 10
-74.22664864364356
 20
-43.63508049270888
 30
0.0
  0
INSERT
  5
58
330
56
100
AcDbEntity
  8
1
100
AcDbBlockReference
  2
HL13_50_Tauchrohr__1
 10
-23.82374026800777
 20
-90.44306092410042
 30
0.0
  0
INSERT
  5
59
330
56
100
AcDbEntity
  8
1
100
AcDbBlockReference
  2
Holländermutter_R_6_4
 10
-0.00000046937397
 20
-9.93086221539773
 30
0.0
  0
DIMENSION
  5
DE
330
56
100
AcDbEntity
  8
1
100
AcDbDimension
  2
*D8
 10
23.99999786580602
 20
13.17522823967354
 30
0.0
 11
0.40905697525676
 21
20.17522823967354
 31
0.0
 70
    32
  1
6/4"
 71
     5
 42
-1.0
 53
0.00013888888889
  3
ME10_DIM_10
100
AcDbAlignedDimension
 13
-24.00000213419398
 23
2.87816173412185
 33
0.0
 14
23.99999786580602
 24
3.17522823967354
 34
0.0
100
AcDbRotatedDimension
  0
DIMENSION
  5
E9
330
56
100
AcDbEntity
  8
1
100
AcDbDimension
  2
*D9
 10
38.45849028820697
 20
-180.0000255048728
 30
0.0
 11
31.45853573791234
 21
-110.1168746968519
 31
0.0
 70
    32
  1
<>
 71
     5
 42
-1.0
 53
89.99996273670618
  3
ME10_DIM_11
100
AcDbAlignedDimension
 13
28.4586008506347
 23
-10.00000803110615
 33
0.0
 14
19.99988230769197
 24
-180.0000135000002
 34
0.0
 50
89.99996273670618
100
AcDbRotatedDimension
  0
DIMENSION
  5
F4
330
56
100
AcDbEntity
  8
1
100
AcDbDimension
  2
*D10
 10
-30.00012977695691
 20
-198.5812518725733
 30
0.0
 11
-2.9390810054965
 21
-191.5812694721894
 31
0.0
 70
    32
  1
<>
 71
     5
 42
-1.0
 53
0.00013888888889
  3
ME10_DIM_12
100
AcDbAlignedDimension
 13
19.99988230769197
 23
-180.0000135000002
 33
0.0
 14
-30.00011769230808
 24
-179.9999805000002
 34
0.0
 50
-0.00003726329382
100
AcDbRotatedDimension
  0
DIMENSION
  5
101
330
56
100
AcDbEntity
  8
1
100
AcDbDimension
  2
*D11
 10
-112.5104838167389
 20
-92.9857266519542
 30
0.0
 11
-69.3733629634327
 21
-97.29737943656171
 31
0.0
 70
    33
  1
3/4"
 71
     5
 42
-1.0
 53
-15.00003796789857
  3
ME10_DIM_13
100
AcDbAlignedDimension
 13
-90.73626289380397
 23
-77.51662826862727
 33
0.0
 14
-107.1845969008905
 24
-73.10929877229077
 34
0.0
  0
ENDBLK
  5
5B
330
56
100
AcDbEntity
  8
0
100
AcDbBlockEnd
  0
BLOCK
  5
5D
330
5C
100
AcDbEntity
  8
0
100
AcDbBlockBegin
  2
Holländermutter_1
 70
     0
 10
-53.30833432011973
 20
-28.36617446276251
 30
0.0
  3
Holländermutter_1
  1

  0
LINE
  5
102
330
5C
100
AcDbEntity
  8
1
  6
DOT_CENTER
 62
     2
100
AcDbLine
 10
-61.13309803917571
 20
-25.40276428464463
 30
0.0
 11
-57.7523582474507
 21
-26.308633182801
 31
0.0
  0
LINE
  5
103
330
5C
100
AcDbEntity
  8
0
  6
Continuous
 62
     7
100
AcDbLine
 10
-59.30551898584679
 20
-32.10509260637431
 30
0.0
 11
-49.16329961067177
 21
-34.82269930084365
 31
0.0
  0
LINE
  5
104
330
5C
100
AcDbEntity
  8
0
  6
Continuous
 62
     7
100
AcDbLine
 10
-44.38259628535624
 20
-16.98091888734322
 30
0.0
 11
-45.95160724195958
 21
-22.83653197378069
 31
0.0
  0
LINE
  5
105
330
5C
100
AcDbEntity
  8
0
  6
Continuous
 62
     7
100
AcDbLine
 10
-44.01411666289596
 20
-15.60573785990479
 30
0.0
 11
-44.38259628535624
 21
-16.98091888734322
 31
0.0
  0
LINE
  5
106
330
5C
100
AcDbEntity
  8
0
  6
Continuous
 62
     7
100
AcDbLine
 10
-46.05697813387954
 20
-23.22978045369692
 30
0.0
 11
-46.70426997411923
 21
-25.64550008554525
 31
0.0
  0
LINE
  5
107
330
5C
100
AcDbEntity
  8
0
  6
Continuous
 62
     7
100
AcDbLine
 10
-56.19919750905459
 20
-20.51217375922775
 30
0.0
 11
-46.05697813387954
 21
-23.22978045369692
 31
0.0
  0
LINE
  5
108
330
5C
100
AcDbEntity
  8
0
  6
Continuous
 62
     7
100
AcDbLine
 10
-49.16329961067177
 20
-34.82269930084365
 30
0.0
 11
-49.26867050259173
 21
-35.21594778075988
 31
0.0
  0
LINE
  5
109
330
5C
100
AcDbEntity
  8
0
  6
Continuous
 62
     7
100
AcDbLine
 10
-46.70426997411923
 20
-25.64550008554525
 30
0.0
 11
-48.51600777043208
 21
-32.40697966899526
 31
0.0
  0
LINE
  5
10A
330
5C
100
AcDbEntity
  8
0
  6
Continuous
 62
     7
100
AcDbLine
 10
-53.75207513670813
 20
-14.47036794102408
 30
0.0
 11
-55.32108609331147
 21
-20.32598102746161
 31
0.0
  0
LINE
  5
10B
330
5C
100
AcDbEntity
  8
0
  6
Continuous
 62
     7
100
AcDbLine
 10
-54.15633603807103
 20
-12.88813116543574
 30
0.0
 11
-44.01411666289596
 21
-15.60573785990479
 31
0.0
  0
LINE
  5
10C
330
5C
100
AcDbEntity
  8
0
  6
Continuous
 62
     7
100
AcDbLine
 10
-52.29453771825598
 20
-46.5086080335748
 30
0.0
 11
-52.49621308951117
 21
-47.26126877068688
 31
0.0
  0
LINE
  5
10D
330
5C
100
AcDbEntity
  8
0
  6
Continuous
 62
     7
100
AcDbLine
 10
-52.57947682787707
 20
-47.57201244902072
 30
0.0
 11
-52.69594568621139
 21
-48.00667899367082
 31
0.0
  0
LINE
  5
10E
330
5C
100
AcDbEntity
  8
0
  6
Continuous
 62
     7
100
AcDbLine
 10
-52.49621308951117
 20
-47.26126877068688
 30
0.0
 11
-52.57947682787707
 21
-47.57201244902072
 31
0.0
  0
LINE
  5
10F
330
5C
100
AcDbEntity
  8
0
  6
Continuous
 62
     7
100
AcDbLine
 10
-51.38866882009955
 20
-43.12786824184983
 30
0.0
 11
-52.29453771825598
 21
-46.5086080335748
 31
0.0
  0
LINE
  5
110
330
5C
100
AcDbEntity
  8
0
  6
Continuous
 62
     7
100
AcDbLine
 10
-51.20616108165532
 20
-42.44674189463572
 30
0.0
 11
-51.38866882009955
 21
-43.12786824184983
 31
0.0
  0
LINE
  5
111
330
5C
100
AcDbEntity
  8
0
  6
Continuous
 62
     7
100
AcDbLine
 10
-49.26867050259173
 20
-35.21594778075988
 30
0.0
 11
-50.83768145919507
 21
-41.07156086719735
 31
0.0
  0
LINE
  5
112
330
5C
100
AcDbEntity
  8
0
  6
Continuous
 62
     7
100
AcDbLine
 10
-50.83768145919507
 20
-41.07156086719735
 30
0.0
 11
-51.20616108165532
 21
-42.44674189463572
 31
0.0
  0
LINE
  5
113
330
5C
100
AcDbEntity
  8
0
  6
Continuous
 62
     7
100
AcDbLine
 10
-42.72406465504014
 20
-10.79121098385363
 30
0.0
 11
-42.92574002629533
 21
-11.54387172096571
 31
0.0
  0
LINE
  5
114
330
5C
100
AcDbEntity
  8
0
  6
Continuous
 62
     7
100
AcDbLine
 10
-42.92574002629533
 20
-11.54387172096571
 30
0.0
 11
-43.83160892445176
 21
-14.92461151269075
 31
0.0
  0
LINE
  5
115
330
5C
100
AcDbEntity
  8
0
  6
Continuous
 62
     7
100
AcDbLine
 10
-42.52433205833992
 20
-10.04580076086975
 30
0.0
 11
-42.64080091667427
 21
-10.4804673055198
 31
0.0
  0
LINE
  5
116
330
5C
100
AcDbEntity
  8
0
  6
Continuous
 62
     7
100
AcDbLine
 10
-42.64080091667427
 20
-10.4804673055198
 30
0.0
 11
-42.72406465504014
 21
-10.79121098385363
 31
0.0
  0
LINE
  5
117
330
5C
100
AcDbEntity
  8
0
  6
Continuous
 62
     7
100
AcDbLine
 10
-48.51600777043208
 20
-32.40697966899526
 30
0.0
 11
-49.16329961067177
 21
-34.82269930084365
 31
0.0
  0
LINE
  5
118
330
5C
100
AcDbEntity
  8
0
  6
Continuous
 62
     3
100
AcDbLine
 10
-41.91195938835688
 20
-9.69224777607425
 30
0.0
 11
-52.34239270141586
 21
-48.61905166365389
 31
0.0
  0
LINE
  5
119
330
5C
100
AcDbEntity
  8
0
  6
Continuous
 62
     7
100
AcDbLine
 10
-44.38259628535624
 20
-16.98091888734322
 30
0.0
 11
-53.75207513670813
 21
-14.47036794102408
 31
0.0
  0
LINE
  5
11A
330
5C
100
AcDbEntity
  8
0
  6
Continuous
 62
     7
100
AcDbLine
 10
-39.98010807879973
 20
-10.20988714644935
 30
0.0
 11
-50.41054139185872
 21
-49.13669103402899
 31
0.0
  0
LINE
  5
11B
330
5C
100
AcDbEntity
  8
0
  6
Continuous
 62
     7
100
AcDbLine
 10
-39.98010807879973
 20
-10.20988714644935
 30
0.0
 11
-41.91195938835688
 21
-9.69224777607425
 31
0.0
  0
LINE
  5
11C
330
5C
100
AcDbEntity
  8
0
  6
Continuous
 62
     7
100
AcDbLine
 10
-50.83768145919507
 20
-41.07156086719735
 30
0.0
 11
-60.20716031054695
 21
-38.56100992087821
 31
0.0
  0
LINE
  5
11D
330
5C
100
AcDbEntity
  8
0
  6
Continuous
 62
     7
100
AcDbLine
 10
-50.41054139185872
 20
-49.13669103402899
 30
0.0
 11
-52.34239270141586
 21
-48.61905166365389
 31
0.0
  0
LINE
  5
11E
330
5C
100
AcDbEntity
  8
0
  6
Continuous
 62
     7
100
AcDbLine
 10
-61.94895567922893
 20
-45.06146150270158
 30
0.0
 11
-52.57947682787707
 21
-47.57201244902072
 31
0.0
  0
LINE
  5
11F
330
5C
100
AcDbEntity
  8
0
  6
Continuous
 62
     7
100
AcDbLine
 10
-60.75814767145144
 20
-40.61731729553068
 30
0.0
 11
-61.66401656960787
 21
-43.99805708725566
 31
0.0
  0
LINE
  5
120
330
5C
100
AcDbEntity
  8
0
  6
Continuous
 62
     7
100
AcDbLine
 10
-62.25424935498674
 20
-43.1098749918913
 30
0.0
 11
-61.34838045683031
 21
-39.72913520016627
 31
0.0
  0
LINE
  5
121
330
5C
100
AcDbEntity
  8
0
  6
Continuous
 62
     7
100
AcDbLine
 10
-51.38866882009955
 20
-43.12786824184983
 30
0.0
 11
-60.75814767145144
 21
-40.61731729553068
 31
0.0
  0
LINE
  5
122
330
5C
100
AcDbEntity
  8
0
  6
Continuous
 62
     7
100
AcDbLine
 10
-61.34838045683031
 20
-39.72913520016627
 30
0.0
 11
-51.20616108165532
 21
-42.44674189463572
 31
0.0
  0
LINE
  5
123
330
5C
100
AcDbEntity
  8
0
  6
Continuous
 62
     7
100
AcDbLine
 10
-52.49621308951117
 20
-47.26126877068688
 30
0.0
 11
-61.86569194086306
 21
-44.75071782436774
 31
0.0
  0
LINE
  5
124
330
5C
100
AcDbEntity
  8
0
  6
Continuous
 62
     7
100
AcDbLine
 10
-65.89538024662701
 20
-43.17579633257205
 30
0.0
 11
-62.51464045490198
 21
-44.08166523072842
 31
0.0
  0
LINE
  5
125
330
5C
100
AcDbEntity
  8
0
  6
Continuous
 62
     7
100
AcDbLine
 10
-52.29453771825598
 20
-46.5086080335748
 30
0.0
 11
-61.66401656960787
 21
-43.99805708725566
 31
0.0
  0
LINE
  5
126
330
5C
100
AcDbEntity
  8
0
  6
Continuous
 62
     7
100
AcDbLine
 10
-62.51464045490198
 20
-44.08166523072842
 30
0.0
 11
-61.94895567922893
 21
-45.06146150270158
 31
0.0
  0
LINE
  5
127
330
5C
100
AcDbEntity
  8
0
  6
Continuous
 62
     7
100
AcDbLine
 10
-62.51464045490198
 20
-44.08166523072842
 30
0.0
 11
-62.42769068084621
 21
-43.75716511638504
 31
0.0
  0
LINE
  5
128
330
5C
100
AcDbEntity
  8
0
  6
Continuous
 62
     7
100
AcDbLine
 10
-62.42769068084621
 20
-43.75716511638504
 30
0.0
 11
-61.69336484200863
 21
-43.95392765343209
 31
0.0
  0
LINE
  5
129
330
5C
100
AcDbEntity
  8
0
  6
Continuous
 62
     7
100
AcDbLine
 10
-61.86569194086306
 20
-44.75071782436774
 30
0.0
 11
-61.94895567922893
 21
-45.06146150270158
 31
0.0
  0
LINE
  5
12A
330
5C
100
AcDbEntity
  8
0
  6
Continuous
 62
     7
100
AcDbLine
 10
-46.70426997411923
 20
-25.64550008554525
 30
0.0
 11
-56.07374882547114
 21
-23.13494913922611
 31
0.0
  0
LINE
  5
12B
330
5C
100
AcDbEntity
  8
0
  6
Continuous
 62
     7
100
AcDbLine
 10
-45.95160724195958
 20
-22.83653197378069
 30
0.0
 11
-46.05697813387954
 21
-23.22978045369692
 31
0.0
  0
LINE
  5
12C
330
5C
100
AcDbEntity
  8
0
  6
Continuous
 62
     7
100
AcDbLine
 10
-43.83160892445176
 20
-14.92461151269075
 30
0.0
 11
-44.01411666289596
 21
-15.60573785990479
 31
0.0
  0
LINE
  5
12D
330
5C
100
AcDbEntity
  8
0
  6
Continuous
 62
     7
100
AcDbLine
 10
-42.92574002629533
 20
-11.54387172096571
 30
0.0
 11
-52.29521887764722
 21
-9.03332077464657
 31
0.0
  0
LINE
  5
12E
330
5C
100
AcDbEntity
  8
0
  6
Continuous
 62
     7
100
AcDbLine
 10
-45.95160724195958
 20
-22.83653197378069
 30
0.0
 11
-55.32108609331147
 21
-20.32598102746161
 31
0.0
  0
LINE
  5
12F
330
5C
100
AcDbEntity
  8
0
  6
Continuous
 62
     7
100
AcDbLine
 10
-43.83160892445176
 20
-14.92461151269075
 30
0.0
 11
-53.20108777580364
 21
-12.4140605663716
 31
0.0
  0
LINE
  5
130
330
5C
100
AcDbEntity
  8
0
  6
Continuous
 62
     7
100
AcDbLine
 10
-42.72406465504014
 20
-10.79121098385363
 30
0.0
 11
-52.09354350639202
 21
-8.28066003753449
 31
0.0
  0
LINE
  5
131
330
5C
100
AcDbEntity
  8
0
  6
Continuous
 62
     7
100
AcDbLine
 10
-52.01027976802615
 20
-7.96991635920065
 30
0.0
 11
-42.64080091667427
 21
-10.4804673055198
 31
0.0
  0
LINE
  5
132
330
5C
100
AcDbEntity
  8
0
  6
Continuous
 62
     7
100
AcDbLine
 10
-52.01027976802615
 20
-7.96991635920065
 30
0.0
 11
-52.09354350639202
 21
-8.28066003753449
 31
0.0
  0
LINE
  5
133
330
5C
100
AcDbEntity
  8
0
  6
Continuous
 62
     7
100
AcDbLine
 10
-49.26867050259173
 20
-35.21594778075988
 30
0.0
 11
-58.63814935394365
 21
-32.70539683444073
 31
0.0
  0
LINE
  5
134
330
5C
100
AcDbEntity
  8
0
  6
Continuous
 62
     7
100
AcDbLine
 10
-48.51600777043208
 20
-32.40697966899526
 30
0.0
 11
-57.88548662178397
 21
-29.89642872267612
 31
0.0
  0
LINE
  5
135
330
5C
100
AcDbEntity
  8
0
  6
Continuous
 62
     7
100
AcDbLine
 10
-52.99007603999937
 20
-8.53560113487359
 30
0.0
 11
-52.01027976802615
 21
-7.96991635920065
 31
0.0
  0
LINE
  5
136
330
5C
100
AcDbEntity
  8
0
  6
Continuous
 62
     7
100
AcDbLine
 10
-56.07374882547114
 20
-23.13494913922611
 30
0.0
 11
-57.88548662178397
 21
-29.89642872267612
 31
0.0
  0
LINE
  5
137
330
5C
100
AcDbEntity
  8
0
  6
Continuous
 62
     7
100
AcDbLine
 10
-56.84648934929427
 20
-22.92789339107603
 30
0.0
 11
-56.07374882547114
 21
-23.13494913922611
 31
0.0
  0
LINE
  5
138
330
5C
100
AcDbEntity
  8
0
  6
Continuous
 62
     7
100
AcDbLine
 10
-57.88548662178397
 20
-29.89642872267612
 30
0.0
 11
-58.6582271456071
 21
-29.68937297452604
 31
0.0
  0
LINE
  5
139
330
5C
100
AcDbEntity
  8
0
  6
Continuous
 62
     7
100
AcDbLine
 10
-58.6582271456071
 20
-29.68937297452604
 30
0.0
 11
-56.84648934929427
 21
-22.92789339107603
 31
0.0
  0
LINE
  5
13A
330
5C
100
AcDbEntity
  8
0
  6
Continuous
 62
     7
100
AcDbLine
 10
-60.87452994245012
 20
-37.96070569281179
 30
0.0
 11
-59.30551898584679
 21
-32.10509260637431
 31
0.0
  0
LINE
  5
13B
330
5C
100
AcDbEntity
  8
0
  6
Continuous
 62
     7
100
AcDbLine
 10
-56.19919750905459
 20
-20.51217375922775
 30
0.0
 11
-54.63018655245125
 21
-14.65656067279016
 31
0.0
  0
LINE
  5
13C
330
5C
100
AcDbEntity
  8
0
  6
Continuous
 62
     7
100
AcDbLine
 10
-54.15633603807103
 20
-12.88813116543574
 30
0.0
 11
-53.25046713991463
 21
-9.5073913737107
 31
0.0
  0
LINE
  5
13D
330
5C
100
AcDbEntity
  8
0
  6
Continuous
 62
     7
100
AcDbLine
 10
-53.07702581405516
 20
-8.86010124921697
 30
0.0
 11
-52.34269997521759
 21
-9.05686378626402
 31
0.0
  0
LINE
  5
13E
330
5C
100
AcDbEntity
  8
0
  6
Continuous
 62
     7
100
AcDbLine
 10
-52.29521887764722
 20
-9.03332077464657
 30
0.0
 11
-53.20108777580364
 21
-12.4140605663716
 31
0.0
  0
LINE
  5
13F
330
5C
100
AcDbEntity
  8
0
  6
Continuous
 62
     7
100
AcDbLine
 10
-58.63814935394365
 20
-32.70539683444073
 30
0.0
 11
-60.20716031054695
 21
-38.56100992087821
 31
0.0
  0
LINE
  5
140
330
5C
100
AcDbEntity
  8
0
  6
Continuous
 62
     3
100
AcDbLine
 10
-56.3708158317244
 20
-7.62973223671716
 30
0.0
 11
-65.89538024662701
 21
-43.17579633257205
 31
0.0
  0
LINE
  5
141
330
5C
100
AcDbEntity
  8
0
  6
Continuous
 62
     7
100
AcDbLine
 10
-53.07702581405516
 20
-8.86010124921697
 30
0.0
 11
-52.99007603999937
 21
-8.53560113487359
 31
0.0
  0
LINE
  5
142
330
5C
100
AcDbEntity
  8
0
  6
Continuous
 62
     7
100
AcDbLine
 10
-56.3708158317244
 20
-7.62973223671716
 30
0.0
 11
-52.99007603999937
 21
-8.53560113487359
 31
0.0
  0
LINE
  5
143
330
5C
100
AcDbEntity
  8
0
  6
Continuous
 62
     7
100
AcDbLine
 10
-57.59556117169058
 20
-8.33683820630839
 30
0.0
 11
-66.60248621621798
 21
-41.95105099260573
 31
0.0
  0
ARC
  5
144
330
5C
100
AcDbEntity
  8
0
  6
Continuous
 62
     7
100
AcDbCircle
 10
-65.63656056143952
 20
-42.20987067779325
 30
0.0
 40
0.9999999999998808
100
AcDbArc
 50
164.9999620321013
 51
254.9999620321079
  0
ARC
  5
145
330
5C
100
AcDbEntity
  8
0
  6
Continuous
 62
     7
100
AcDbCircle
 10
-52.21298285882196
 20
-48.13608883626463
 30
0.0
 40
0.5000000000001472
100
AcDbArc
 50
164.9999620321009
 51
254.9999620320864
  0
ARC
  5
146
330
5C
100
AcDbEntity
  8
0
  6
Continuous
 62
     7
100
AcDbCircle
 10
-42.04136923095055
 20
-10.17521060346357
 30
0.0
 40
0.5000000000000023
100
AcDbArc
 50
74.99996203211334
 51
164.9999620320987
  0
ARC
  5
147
330
5C
100
AcDbEntity
  8
0
  6
Continuous
 62
     7
100
AcDbCircle
 10
-56.62963551691212
 20
-8.5956578914959
 30
0.0
 40
1.000000000000207
100
AcDbArc
 50
74.99996203209453
 51
164.9999620321014
  0
SPLINE
  5
148
330
5C
100
AcDbEntity
  8
0
  6
Continuous
 62
     7
100
AcDbSpline
210
0.0
220
0.0
230
1.0
 70
     8
 71
     3
 72
    11
 73
     7
 74
     5
 42
0.000000001
 43
0.0000000001
 44
0.00000001
 40
0.0
 40
0.0
 40
0.0
 40
0.0
 40
0.2257350453692469
 40
0.4488690967298197
 40
0.6744398470785766
 40
0.8976343441810005
 40
0.8976343441810005
 40
0.8976343441810005
 40
0.8976343441810005
 10
-55.32108609331147
 20
-20.32598102746161
 30
0.0
 10
-55.39469865095566
 20
-20.34156960282857
 30
0.0
 10
-55.54107557486012
 20
-20.37256715145266
 30
0.0
 10
-55.76100256897016
 20
-20.4191839902826
 30
0.0
 10
-55.9800949744977
 20
-20.46565421181739
 30
0.0
 10
-56.1264216028888
 20
-20.49672207427264
 30
0.0
 10
-56.19919750905459
 20
-20.51217375922775
 30
0.0
 11
-55.32108609331147
 21
-20.32598102746161
 31
0.0
 11
-55.5419222656386
 21
-20.37275383687097
 31
0.0
 11
-55.76020697695671
 21
-20.41902034400127
 31
0.0
 11
-55.98086820700852
 21
-20.46582616592181
 31
0.0
 11
-56.19919750905459
 21
-20.51217375922775
 31
0.0
  0
SPLINE
  5
149
330
5C
100
AcDbEntity
  8
0
  6
Continuous
 62
     7
100
AcDbSpline
210
0.0
220
0.0
230
1.0
 70
     8
 71
     3
 72
    11
 73
     7
 74
     5
 42
0.000000001
 43
0.0000000001
 44
0.00000001
 40
0.0
 40
0.0
 40
0.0
 40
0.0
 40
0.2255797515741632
 40
0.4488690967297831
 40
0.6744126663341388
 40
0.8976343441809762
 40
0.8976343441809762
 40
0.8976343441809762
 40
0.8976343441809762
 10
-53.75207513670813
 20
-14.47036794102408
 30
0.0
 10
-53.82563705318395
 20
-14.48594579045289
 30
0.0
 10
-53.97201397785395
 20
-14.51694333545952
 30
0.0
 10
-54.19193211100279
 20
-14.56355828442946
 30
0.0
 10
-54.41107515496296
 20
-14.61003924480874
 30
0.0
 10
-54.55740178351616
 20
-14.64110710650075
 30
0.0
 10
-54.63018655245125
 20
-14.65656067279016
 30
0.0
 11
-53.75207513670813
 21
-14.47036794102408
 31
0.0
 11
-53.9727593877974
 21
-14.51710856191981
 31
0.0
 11
-54.19119602035335
 21
-14.56340725756368
 31
0.0
 11
-54.41183066169377
 21
-14.61020743738379
 31
0.0
 11
-54.63018655245125
 21
-14.65656067279016
 31
0.0
  0
SPLINE
  5
14A
330
5C
100
AcDbEntity
  8
0
  6
Continuous
 62
     7
100
AcDbSpline
210
0.0
220
0.0
230
1.0
 70
     8
 71
     3
 72
    11
 73
     7
 74
     5
 42
0.000000001
 43
0.0000000001
 44
0.00000001
 40
0.0
 40
0.0
 40
0.0
 40
0.0
 40
0.2232179694158256
 40
0.4487652474512259
 40
0.672053481213473
 40
0.8976343441810222
 40
0.8976343441810222
 40
0.8976343441810222
 40
0.8976343441810222
 10
-60.87452994245012
 20
-37.96070569281179
 30
0.0
 10
-60.81922425151221
 20
-38.01048050466837
 30
0.0
 10
-60.70803573747304
 20
-38.1105495238483
 30
0.0
 10
-60.54149324869561
 20
-38.26037471146473
 30
0.0
 10
-60.37434531330523
 20
-38.41070455624634
 30
0.0
 10
-60.26307808311179
 20
-38.5107378274983
 30
0.0
 10
-60.20716031054695
 20
-38.56100992087821
 30
0.0
 11
-60.87452994245012
 21
-37.96070569281179
 31
0.0
 11
-60.70860776633776
 21
-38.1100244570199
 31
0.0
 11
-60.54093009506826
 21
-38.26087462502628
 31
0.0
 11
-60.37490879427943
 21
-38.4101882647975
 31
0.0
 11
-60.20716031054695
 21
-38.56100992087821
 31
0.0
  0
SPLINE
  5
14B
330
5C
100
AcDbEntity
  8
0
  6
Continuous
 62
     7
100
AcDbSpline
210
0.0
220
0.0
230
1.0
 70
     8
 71
     3
 72
    11
 73
     7
 74
     5
 42
0.000000001
 43
0.0000000001
 44
0.00000001
 40
0.0
 40
0.0
 40
0.0
 40
0.0
 40
0.2651495747988027
 40
0.5331932871598837
 40
0.7984811810110464
 40
1.06641559748008
 40
1.06641559748008
 40
1.06641559748008
 40
1.06641559748008
 10
-61.34838045683031
 20
-39.72913520016627
 30
0.0
 10
-61.2994869887517
 20
-39.80276275881783
 30
0.0
 10
-61.20116636232945
 20
-39.95082152091442
 30
0.0
 10
-61.05387070821878
 20
-40.17250901863136
 30
0.0
 10
-60.90602520799078
 20
-40.39494568147147
 30
0.0
 10
-60.80760301954154
 20
-40.54294856786304
 30
0.0
 10
-60.75814767145144
 20
-40.61731729553068
 30
0.0
 11
-61.34838045683031
 21
-39.72913520016627
 31
0.0
 11
-61.20169079320868
 21
-39.95001172586129
 31
0.0
 11
-61.05335627737676
 21
-40.17327010342032
 31
0.0
 11
-60.90650494001471
 21
-40.39420527793982
 31
0.0
 11
-60.75814767145144
 21
-40.61731729553068
 31
0.0
  0
SPLINE
  5
14C
330
5C
100
AcDbEntity
  8
0
  6
Continuous
 62
     7
100
AcDbSpline
210
0.0
220
0.0
230
1.0
 70
     8
 71
     3
 72
    11
 73
     7
 74
     5
 42
0.000000001
 43
0.0000000001
 44
0.00000001
 40
0.0
 40
0.0
 40
0.0
 40
0.0
 40
0.2839714124429178
 40
0.5707429353687847
 40
0.8546478952705809
 40
1.141485710262884
 40
1.141485710262884
 40
1.141485710262884
 40
1.141485710262884
 10
-62.42769068084621
 20
-43.75716511638504
 30
0.0
 10
-62.38111460618077
 20
-43.83957047428509
 30
0.0
 10
-62.28750317866675
 20
-44.00519374372219
 30
0.0
 10
-62.14726338393253
 20
-44.25316736177573
 30
0.0
 10
-62.00651253475614
 20
-44.50194963331128
 30
0.0
 10
-61.91279267479651
 20
-44.66751150756075
 30
0.0
 10
-61.86569194086306
 20
-44.75071782436774
 30
0.0
 11
-62.42769068084621
 21
-43.75716511638504
 31
0.0
 11
-62.28795200681007
 21
-44.00437528216313
 31
0.0
 11
-62.14678617582237
 21
-44.25399522232002
 31
0.0
 11
-62.00698424463948
 21
-44.50109327228289
 31
0.0
 11
-61.86569194086306
 21
-44.75071782436774
 31
0.0
  0
SPLINE
  5
14D
330
5C
100
AcDbEntity
  8
0
  6
Continuous
 62
     7
100
AcDbSpline
210
0.0
220
0.0
230
1.0
 70
     8
 71
     3
 72
    11
 73
     7
 74
     5
 42
0.000000001
 43
0.0000000001
 44
0.00000001
 40
0.0
 40
0.0
 40
0.0
 40
0.0
 40
0.2653179004677813
 40
0.5331932871598675
 40
0.798435494749067
 40
1.066415597480019
 40
1.066415597480019
 40
1.066415597480019
 40
1.066415597480019
 10
-62.25424935498674
 20
-43.1098749918913
 30
0.0
 10
-62.20532484540001
 20
-43.18354929019354
 30
0.0
 10
-62.10700421430674
 20
-43.33160804918933
 30
0.0
 10
-61.95971697517501
 20
-43.55328285425529
 30
0.0
 10
-61.81190253731918
 20
-43.77567279130778
 30
0.0
 10
-61.71348034993461
 20
-43.92367567840758
 30
0.0
 10
-61.66401656960787
 20
-43.99805708725566
 30
0.0
 11
-62.25424935498674
 21
-43.1098749918913
 31
0.0
 11
-62.1074665541304
 21
-43.33089172809456
 31
0.0
 11
-61.95922517553319
 21
-43.55400989514536
 31
0.0
 11
-61.81239913152204
 21
-43.77490702389045
 31
0.0
 11
-61.66401656960787
 21
-43.99805708725566
 31
0.0
  0
SPLINE
  5
14E
330
5C
100
AcDbEntity
  8
0
  6
Continuous
 62
     7
100
AcDbSpline
210
0.0
220
0.0
230
1.0
 70
     8
 71
     3
 72
    11
 73
     7
 74
     5
 42
0.000000001
 43
0.0000000001
 44
0.00000001
 40
0.0
 40
0.0
 40
0.0
 40
0.0
 40
0.2866987054017238
 40
0.5707427748941514
 40
0.8577732734533703
 40
1.141485710262929
 40
1.141485710262929
 40
1.141485710262929
 40
1.141485710262929
 10
-52.09354350639202
 20
-8.280660037534489
 30
0.0
 10
-52.17589720324722
 20
-8.329144818353734
 30
0.0
 10
-52.33984204989119
 20
-8.425665456636443
 30
0.0
 10
-52.58620157561032
 20
-8.570785275351062
 30
0.0
 10
-52.83167973860553
 20
-8.715440067391928
 30
0.0
 10
-52.99556137129455
 20
-8.812068102696859
 30
0.0
 10
-53.07702581405516
 20
-8.860101249216967
 30
0.0
 11
-52.09354350639202
 21
-8.280660037534489
 31
0.0
 11
-52.34059883207944
 21
-8.426124169639124
 31
0.0
 11
-52.58533993959924
 21
-8.570286660269943
 31
0.0
 11
-52.83262640177446
 21
-8.716012130690096
 31
0.0
 11
-53.07702581405516
 21
-8.860101249216967
 31
0.0
  0
SPLINE
  5
14F
330
5C
100
AcDbEntity
  8
0
  6
Continuous
 62
     7
100
AcDbSpline
210
0.0
220
0.0
230
1.0
 70
     8
 71
     3
 72
    11
 73
     7
 74
     5
 42
0.000000001
 43
0.0000000001
 44
0.00000001
 40
0.0
 40
0.0
 40
0.0
 40
0.0
 40
0.2650026194977181
 40
0.5331932871598327
 40
0.7984517946445961
 40
1.066415597480056
 40
1.066415597480056
 40
1.066415597480056
 40
1.066415597480056
 10
-53.25046713991463
 20
-9.507391373710703
 30
0.0
 10
-53.1713541956512
 20
-9.468096664854377
 30
0.0
 10
-53.01217655180999
 20
-9.389034535395847
 30
0.0
 10
-52.77377964766041
 20
-9.270700017066563
 30
0.0
 10
-52.53447932033482
 20
-9.151965509085073
 30
0.0
 10
-52.37524165739622
 20
-9.07300255409173
 30
0.0
 10
-52.29521887764722
 20
-9.033320774646569
 30
0.0
 11
-53.25046713991463
 21
-9.507391373710703
 31
0.0
 11
-53.01312336930916
 21
-9.389517191227974
 31
0.0
 11
-52.77290093988842
 21
-9.270271987444659
 31
0.0
 11
-52.53528253311815
 21
-9.15237555595499
 31
0.0
 11
-52.29521887764722
 21
-9.033320774646569
 31
0.0
  0
SPLINE
  5
150
330
5C
100
AcDbEntity
  8
0
  6
Continuous
 62
     7
100
AcDbSpline
210
0.0
220
0.0
230
1.0
 70
     8
 71
     3
 72
    11
 73
     7
 74
     5
 42
0.000000001
 43
0.0000000001
 44
0.00000001
 40
0.0
 40
0.0
 40
0.0
 40
0.0
 40
0.2232182509283716
 40
0.4487652474511926
 40
0.6718805072453171
 40
0.8976343441810071
 40
0.8976343441810071
 40
0.8976343441810071
 40
0.8976343441810071
 10
-59.30551898584679
 20
-32.10509260637431
 30
0.0
 10
-59.25021322517219
 20
-32.15486748101841
 30
0.0
 10
-59.13902471115811
 20
-32.25493650022617
 30
0.0
 10
-58.97252508705424
 20
-32.40472312538005
 30
0.0
 10
-58.80537722996161
 20
-32.55505291689076
 30
0.0
 10
-58.69411000251578
 20
-32.65508619119974
 30
0.0
 10
-58.63814935394365
 20
-32.70539683444073
 30
0.0
 11
-59.30551898584679
 21
-32.10509260637431
 31
0.0
 11
-59.13959660046562
 21
-32.25441155887974
 31
0.0
 11
-58.97191913846493
 21
-32.40526153858875
 31
0.0
 11
-58.80602645754363
 21
-32.55445951970923
 31
0.0
 11
-58.63814935394365
 21
-32.70539683444073
 31
0.0
  0
SPLINE
  5
151
330
5C
100
AcDbEntity
  8
0
  6
Continuous
 62
     7
100
AcDbSpline
210
0.0
220
0.0
230
1.0
 70
     8
 71
     3
 72
    11
 73
     7
 74
     5
 42
0.000000001
 43
0.0000000001
 44
0.00000001
 40
0.0
 40
0.0
 40
0.0
 40
0.0
 40
0.2678832079393879
 40
0.5332223103201736
 40
0.8014521220036279
 40
1.066415597480034
 40
1.066415597480034
 40
1.066415597480034
 40
1.066415597480034
 10
-53.20108777580364
 20
-12.4140605663716
 30
0.0
 10
-53.28108648779624
 20
-12.45373040975868
 30
0.0
 10
-53.44032415177416
 20
-12.53269336265524
 30
0.0
 10
-53.67963617071118
 20
-12.65143366345938
 30
0.0
 10
-53.91805713673807
 20
-12.76978012969522
 30
0.0
 10
-54.07723478000898
 20
-12.84884226030159
 30
0.0
 10
-54.15633603807103
 20
-12.88813116543574
 30
0.0
 11
-53.20108777580364
 21
-12.4140605663716
 31
0.0
 11
-53.44107923111097
 21
-12.53307953324574
 31
0.0
 11
-53.67876983804482
 21
-12.65101177916964
 31
0.0
 11
-53.91902732766064
 21
-12.77027439091498
 31
0.0
 11
-54.15633603807103
 21
-12.88813116543574
 31
0.0
  0
ENDBLK
  5
5E
330
5C
100
AcDbEntity
  8
0
100
AcDbBlockEnd
  0
BLOCK
  5
60
330
5F
100
AcDbEntity
  8
0
100
AcDbBlockBegin
  2
Dichtstopfen
 70
     0
 10
-97.92125562424584
 20
-76.26433980254953
 30
0.0
  3
Dichtstopfen
  1

  0
LINE
  5
152
330
5F
100
AcDbEntity
  8
0
  6
Continuous
 62
     7
100
AcDbLine
 10
-106.2048723081865
 20
-73.37181588155241
 30
0.0
 11
-91.71598748650788
 21
-77.25411115936564
 31
0.0
  0
LINE
  5
153
330
5F
100
AcDbEntity
  8
0
  6
Continuous
 62
     7
100
AcDbLine
 10
-107.1845969008905
 20
-73.10929877229077
 30
0.0
 11
-106.2048723081865
 21
-73.37181588155241
 31
0.0
  0
LINE
  5
154
330
5F
100
AcDbEntity
  8
0
  6
Continuous
 62
     7
100
AcDbLine
 10
-91.71598748650788
 20
-77.25411115936564
 30
0.0
 11
-90.73626289380397
 21
-77.51662826862727
 31
0.0
  0
LINE
  5
155
330
5F
100
AcDbEntity
  8
0
  6
Continuous
 62
     7
100
AcDbLine
 10
-108.1367236177436
 20
-72.85417651117731
 30
0.0
 11
-107.1845969008905
 21
-73.10929877229077
 31
0.0
  0
LINE
  5
156
330
5F
100
AcDbEntity
  8
0
  6
Continuous
 62
     7
100
AcDbLine
 10
-87.70578763074809
 20
-79.67450309392174
 30
0.0
 11
-87.36932204000428
 21
-78.41879974270958
 31
0.0
  0
LINE
  5
157
330
5F
100
AcDbEntity
  8
0
  6
Continuous
 62
     7
100
AcDbLine
 10
-90.73626289380397
 20
-77.51662826862727
 30
0.0
 11
-87.36932204000428
 21
-78.41879974270958
 31
0.0
  0
LINE
  5
158
330
5F
100
AcDbEntity
  8
0
  6
Continuous
 62
     7
100
AcDbLine
 10
-108.4731892084874
 20
-74.10987986238948
 30
0.0
 11
-108.1367236177436
 21
-72.85417651117731
 31
0.0
  0
LINE
  5
159
330
5F
100
AcDbEntity
  8
0
  6
Continuous
 62
     7
100
AcDbLine
 10
-108.4731892084874
 20
-74.10987986238948
 30
0.0
 11
-87.70578763074809
 21
-79.67450309392174
 31
0.0
  0
ENDBLK
  5
61
330
5F
100
AcDbEntity
  8
0
100
AcDbBlockEnd
  0
BLOCK
  5
DB
330
D3
100
AcDbEntity
  8
0
100
AcDbBlockBegin
  2
*D8
 70
     1
 10
0.0
 20
0.0
 30
0.0
  3
*D8
  1

  0
LINE
  5
D4
330
D3
100
AcDbEntity
  8
1
  6
Continuous
 62
     4
100
AcDbLine
 10
-24.00000213419398
 20
13.17522823967354
 30
0.0
 11
23.99999786580602
 21
13.17522823967354
 31
0.0
  0
LINE
  5
D5
330
D3
100
AcDbEntity
  8
1
  6
Continuous
 62
     4
100
AcDbLine
 10
23.99999786580602
 20
3.17522823967354
 30
0.0
 11
23.99999786580602
 21
15.17522823967354
 31
0.0
  0
LINE
  5
D6
330
D3
100
AcDbEntity
  8
1
  6
Continuous
 62
     4
100
AcDbLine
 10
-24.00000213419398
 20
2.87816173412184
 30
0.0
 11
-24.00000213419398
 21
15.17522823967354
 31
0.0
  0
SOLID
  5
D7
330
D3
100
AcDbEntity
  8
1
 62
     4
100
AcDbTrace
 10
13.99999786580602
 20
11.85870326379959
 30
0.0
 11
13.99999786580602
 21
14.4917532155475
 31
0.0
 12
23.99999786580602
 22
13.17522823967354
 32
0.0
 13
23.99999786580602
 23
13.17522823967354
 33
0.0
  0
SOLID
  5
D8
330
D3
100
AcDbEntity
  8
1
 62
     4
100
AcDbTrace
 10
-14.00000213419398
 20
14.4917532155475
 30
0.0
 11
-14.00000213419398
 21
11.85870326379958
 31
0.0
 12
-24.00000213419398
 22
13.17522823967354
 32
0.0
 13
-24.00000213419398
 23
13.17522823967354
 33
0.0
  0
MTEXT
  5
DA
330
D3
100
AcDbEntity
  8
1
 62
     1
100
AcDbMText
 10
-13.09094302474324
 20
15.17522823967354
 30
0.0
 40
10.0
 41
0.0
 71
     7
 72
     1
  1
6/4"
  7
CONVERTER_11
 11
0.9999999999970619
 21
2.424068405545306E-6
 31
0.0
 73
     1
 44
0.60024009603842
  0
ENDBLK
  5
DC
330
D3
100
AcDbEntity
  8
0
100
AcDbBlockEnd
  0
BLOCK
  5
E6
330
DF
100
AcDbEntity
  8
0
100
AcDbBlockBegin
  2
*D9
 70
     1
 10
0.0
 20
0.0
 30
0.0
  3
*D9
  1

  0
LINE
  5
E0
330
DF
100
AcDbEntity
  8
1
  6
Continuous
 62
     4
100
AcDbLine
 10
38.45849028820697
 20
-180.0000255048728
 30
0.0
 11
38.45860085063258
 21
-10.00001453477789
 31
0.0
  0
LINE
  5
E1
330
DF
100
AcDbEntity
  8
1
  6
Continuous
 62
     4
100
AcDbLine
 10
28.4586008506347
 20
-10.00000803110619
 30
0.0
 11
40.45860085063215
 21
-10.0000158355122
 31
0.0
  0
LINE
  5
E2
330
DF
100
AcDbEntity
  8
1
  6
Continuous
 62
     4
100
AcDbLine
 10
19.99988230769197
 20
-180.0000135000002
 30
0.0
 11
40.45849028820655
 21
-180.0000268056071
 31
0.0
  0
SOLID
  5
E3
330
DF
100
AcDbEntity
  8
1
 62
     4
100
AcDbTrace
 10
37.14197181600499
 20
-170.0000246486503
 30
0.0
 11
39.77502176775236
 21
-170.0000263610995
 31
0.0
 12
38.45849028820697
 22
-180.0000255048728
 32
0.0
 13
38.45849028820697
 23
-180.0000255048728
 33
0.0
  0
SOLID
  5
E4
330
DF
100
AcDbEntity
  8
1
 62
     4
100
AcDbTrace
 10
39.77511932283456
 20
-20.0000153910004
 30
0.0
 11
37.1420693710872
 21
-20.00001367855115
 31
0.0
 12
38.45860085063258
 22
-10.00001453477789
 32
0.0
 13
38.45860085063258
 23
-10.00001453477789
 33
0.0
  0
MTEXT
  5
E5
330
DF
100
AcDbEntity
  8
1
 62
     1
100
AcDbMText
 10
36.45852890905602
 20
-120.6168779486855
 30
0.0
 40
10.0
 41
0.0
 71
     7
 72
     1
  1
170
  7
CONVERTER_11
 11
6.503671672931777E-7
 21
0.9999999999997886
 31
0.0
 73
     1
 44
0.60024009603842
  0
ENDBLK
  5
E7
330
DF
100
AcDbEntity
  8
0
100
AcDbBlockEnd
  0
BLOCK
  5
F1
330
EA
100
AcDbEntity
  8
0
100
AcDbBlockBegin
  2
*D10
 70
     1
 10
0.0
 20
0.0
 30
0.0
  3
*D10
  1

  0
LINE
  5
EB
330
EA
100
AcDbEntity
  8
1
  6
Continuous
 62
     4
100
AcDbLine
 10
-30.00012977695691
 20
-198.5812518725733
 30
0.0
 11
19.99987022304346
 21
-198.5812843909316
 31
0.0
  0
LINE
  5
EC
330
EA
100
AcDbEntity
  8
1
  6
Continuous
 62
     4
100
AcDbLine
 10
19.99988230769197
 20
-180.0000135000002
 30
0.0
 11
19.99986892230912
 21
-200.5812843909312
 31
0.0
  0
LINE
  5
ED
330
EA
100
AcDbEntity
  8
1
  6
Continuous
 62
     4
100
AcDbLine
 10
-30.00011769230808
 20
-179.9999805000002
 30
0.0
 11
-30.00013107769124
 21
-200.5812518725728
 31
0.0
  0
SOLID
  5
EE
330
EA
100
AcDbEntity
  8
1
 62
     4
100
AcDbTrace
 10
-20.00012892073443
 20
-197.2647334003711
 30
0.0
 11
-20.00013063318363
 21
-199.8977833521185
 31
0.0
 12
-30.00012977695691
 22
-198.5812518725733
 32
0.0
 13
-30.00012977695691
 23
-198.5812518725733
 33
0.0
  0
SOLID
  5
EF
330
EA
100
AcDbEntity
  8
1
 62
     4
100
AcDbTrace
 10
9.99986936682097
 20
-199.8978028631337
 30
0.0
 11
9.99987107927018
 21
-197.2647529113864
 31
0.0
 12
19.99987022304346
 22
-198.5812843909316
 32
0.0
 13
19.99987022304346
 23
-198.5812843909316
 33
0.0
  0
MTEXT
  5
F0
330
EA
100
AcDbEntity
  8
1
 62
     1
100
AcDbMText
 10
-15.8390842572849
 20
-196.5813115031953
 30
0.0
 40
10.0
 41
0.0
 71
     7
 72
     1
  1
\C1;DN\C1;50
  7
CONVERTER_11
 11
0.9999999999970619
 21
2.424068405545306E-6
 31
0.0
 73
     1
 44
0.60024009603842
  0
ENDBLK
  5
F2
330
EA
100
AcDbEntity
  8
0
100
AcDbBlockEnd
  0
BLOCK
  5
FE
330
F5
100
AcDbEntity
  8
0
100
AcDbBlockBegin
  2
*D11
 70
     1
 10
0.0
 20
0.0
 30
0.0
  3
*D11
  1

  0
LINE
  5
F6
330
F5
100
AcDbEntity
  8
1
  6
Continuous
 62
     4
100
AcDbLine
 10
-131.8289969123103
 20
-87.80933294820325
 30
0.0
 11
-112.5104838167389
 21
-92.9857266519542
 31
0.0
  0
LINE
  5
F7
330
F5
100
AcDbEntity
  8
1
  6
Continuous
 62
     4
100
AcDbLine
 10
-112.5104838167389
 20
-92.9857266519542
 30
0.0
 11
-96.06214980965234
 21
-97.3930561482907
 31
0.0
  0
LINE
  5
F8
330
F5
100
AcDbEntity
  8
1
  6
Continuous
 62
     4
100
AcDbLine
 10
-96.06214980965234
 20
-97.3930561482907
 30
0.0
 11
-58.14510442023477
 21
-107.5529247700436
 31
0.0
  0
LINE
  5
F9
330
F5
100
AcDbEntity
  8
1
  6
Continuous
 62
     4
100
AcDbLine
 10
-107.1845969008905
 20
-73.10929877229077
 30
0.0
 11
-113.0281231871139
 21
-94.91757796151134
 31
0.0
  0
LINE
  5
FA
330
F5
100
AcDbEntity
  8
1
  6
Continuous
 62
     4
100
AcDbLine
 10
-90.73626289380397
 20
-77.51662826862727
 30
0.0
 11
-96.57978918002743
 21
-99.32490745784784
 31
0.0
  0
SOLID
  5
FB
330
F5
100
AcDbEntity
  8
1
 62
     4
100
AcDbTrace
 10
-122.5104829443218
 20
-91.66919504943212
 30
0.0
 11
-121.8289977847274
 21
-89.12586455072532
 31
0.0
 12
-112.5104838167389
 22
-92.9857266519542
 32
0.0
 13
-112.5104838167389
 23
-92.9857266519542
 33
0.0
  0
SOLID
  5
FC
330
F5
100
AcDbEntity
  8
1
 62
     4
100
AcDbTrace
 10
-86.06215068206936
 20
-98.70958775081277
 30
0.0
 11
-86.74363584166383
 21
-101.2529182495196
 31
0.0
 12
-96.06214980965234
 22
-97.3930561482907
 32
0.0
 13
-96.06214980965234
 23
-97.3930561482907
 33
0.0
  0
MTEXT
  5
FD
330
F5
100
AcDbEntity
  8
1
 62
     1
100
AcDbMText
 10
-83.7074577288812
 20
-98.6329419604227
 30
0.0
 40
10.0
 41
0.0
 71
     7
 72
     1
  1
3/4"
  7
CONVERTER_11
 11
0.9659256547785749
 21
-0.2588196851875474
 31
0.0
 73
     1
 44
0.60024009603842
  0
ENDBLK
  5
FF
330
F5
100
AcDbEntity
  8
0
100
AcDbBlockEnd
  0
ENDSEC
  0
SECTION
  2
ENTITIES
  0
INSERT
  5
62
330
1F
100
AcDbEntity
  8
0
100
AcDbBlockReference
  2
HL13_50_Tauchrohr__2
 10
-45.6851980308391
 20
-87.70302807562882
 30
0.0
  0
INSERT
  5
63
330
1F
100
AcDbEntity
  8
0
100
AcDbBlockReference
  2
Holländermutter_1
 10
-53.30833432011973
 20
-28.36617446276251
 30
0.0
  0
INSERT
  5
64
330
1F
100
AcDbEntity
  8
0
100
AcDbBlockReference
  2
Dichtstopfen
 10
-97.92125562424584
 20
-76.26433980254953
 30
0.0
  0
ENDSEC
  0
SECTION
  2
OBJECTS
  0
DICTIONARY
  5
C
330
0
100
AcDbDictionary
281
     1
  3
ACAD_GROUP
350
D
  3
ACAD_LAYOUT
350
1A
  3
ACAD_MATERIAL
350
3B
  3
ACAD_MLEADERSTYLE
350
15C
  3
ACAD_MLINESTYLE
350
17
  3
ACAD_PLOTSETTINGS
350
19
  3
ACAD_PLOTSTYLENAME
350
E
  3
ACAD_VISUALSTYLE
350
2A
  3
AcDbVariableDictionary
350
15A
  0
DICTIONARY
  5
D
102
{ACAD_REACTORS
330
C
102
}
330
C
100
AcDbDictionary
281
     1
  0
DICTIONARY
  5
1A
102
{ACAD_REACTORS
330
C
102
}
330
C
100
AcDbDictionary
281
     1
  3
Layout1
350
1E
  3
Layout2
350
26
  3
Model
350
22
  0
DICTIONARY
  5
3B
102
{ACAD_REACTORS
330
C
102
}
330
C
100
AcDbDictionary
281
     1
  3
ByBlock
350
3D
  3
ByLayer
350
3C
  3
Global
350
3E
  0
DICTIONARY
  5
15C
102
{ACAD_REACTORS
330
C
102
}
330
C
100
AcDbDictionary
281
     1
  0
DICTIONARY
  5
17
102
{ACAD_REACTORS
330
C
102
}
330
C
100
AcDbDictionary
281
     1
  3
Standard
350
18
  0
DICTIONARY
  5
19
102
{ACAD_REACTORS
330
C
102
}
330
C
100
AcDbDictionary
281
     1
  0
ACDBDICTIONARYWDFLT
  5
E
102
{ACAD_REACTORS
330
C
102
}
330
C
100
AcDbDictionary
281
     1
  3
Normal
350
F
100
AcDbDictionaryWithDefault
340
F
  0
DICTIONARY
  5
2A
102
{ACAD_REACTORS
330
C
102
}
330
C
100
AcDbDictionary
281
     1
  3
2dWireframe
350
2F
  3
3D Hidden
350
31
  3
3dWireframe
350
30
  3
Basic
350
32
  3
Brighten
350
36
  3
ColorChange
350
3A
  3
Conceptual
350
34
  3
Dim
350
35
  3
Facepattern
350
39
  3
Flat
350
2B
  3
FlatWithEdges
350
2C
  3
Gouraud
350
2D
  3
GouraudWithEdges
350
2E
  3
Linepattern
350
38
  3
Realistic
350
33
  3
Thicken
350
37
  0
DICTIONARY
  5
15A
102
{ACAD_REACTORS
330
C
102
}
330
C
100
AcDbDictionary
281
     1
  3
DIMASSOC
350
15D
  3
HIDETEXT
350
15E
  0
LAYOUT
  5
1E
102
{ACAD_REACTORS
330
1A
102
}
330
1A
100
AcDbPlotSettings
  1

  2
none_device
  4

  6

 40
0.0
 41
0.0
 42
0.0
 43
0.0
 44
0.0
 45
0.0
 46
0.0
 47
0.0
 48
0.0
 49
0.0
140
0.0
141
0.0
142
1.0
143
1.0
 70
   688
 72
     0
 73
     0
 74
     5
  7

 75
    16
147
1.0
148
0.0
149
0.0
100
AcDbLayout
  1
Layout1
 70
     1
 71
     1
 10
0.0
 20
0.0
 11
12.0
 21
9.0
 12
0.0
 22
0.0
 32
0.0
 14
1.00000000000000E+20
 24
1.00000000000000E+20
 34
1.00000000000000E+20
 15
-1.00000000000000E+20
 25
-1.00000000000000E+20
 35
-1.00000000000000E+20
146
0.0
 13
0.0
 23
0.0
 33
0.0
 16
1.0
 26
0.0
 36
0.0
 17
0.0
 27
1.0
 37
0.0
 76
     0
330
1B
  0
LAYOUT
  5
26
102
{ACAD_REACTORS
330
1A
102
}
330
1A
100
AcDbPlotSettings
  1

  2
none_device
  4

  6

 40
0.0
 41
0.0
 42
0.0
 43
0.0
 44
0.0
 45
0.0
 46
0.0
 47
0.0
 48
0.0
 49
0.0
140
0.0
141
0.0
142
1.0
143
1.0
 70
   688
 72
     0
 73
     0
 74
     5
  7

 75
    16
147
1.0
148
0.0
149
0.0
100
AcDbLayout
  1
Layout2
 70
     1
 71
     2
 10
0.0
 20
0.0
 11
0.0
 21
0.0
 12
0.0
 22
0.0
 32
0.0
 14
0.0
 24
0.0
 34
0.0
 15
0.0
 25
0.0
 35
0.0
146
0.0
 13
0.0
 23
0.0
 33
0.0
 16
1.0
 26
0.0
 36
0.0
 17
0.0
 27
1.0
 37
0.0
 76
     0
330
23
  0
LAYOUT
  5
22
102
{ACAD_REACTORS
330
1A
102
}
330
1A
100
AcDbPlotSettings
  1

  2
none_device
  4

  6

 40
0.0
 41
0.0
 42
0.0
 43
0.0
 44
0.0
 45
0.0
 46
0.0
 47
0.0
 48
0.0
 49
0.0
140
0.0
141
0.0
142
1.0
143
1.0
 70
  1712
 72
     0
 73
     0
 74
     0
  7

 75
     0
147
1.0
148
0.0
149
0.0
100
AcDbLayout
  1
Model
 70
     1
 71
     0
 10
0.0
 20
0.0
 11
12.0
 21
9.0
 12
0.0
 22
0.0
 32
0.0
 14
-131.8289969123103
 24
-200.5812843909312
 34
0.0
 15
40.45860085063215
 25
25.17522823967354
 35
0.0
146
0.0
 13
0.0
 23
0.0
 33
0.0
 16
1.0
 26
0.0
 36
0.0
 17
0.0
 27
1.0
 37
0.0
 76
     0
330
1F
331
29
  0
MATERIAL
  5
3D
102
{ACAD_REACTORS
330
3B
102
}
102
{ACAD_XDICTIONARY
360
181
102
}
330
3B
100
AcDbMaterial
  1
ByBlock
  0
MATERIAL
  5
3C
102
{ACAD_REACTORS
330
3B
102
}
102
{ACAD_XDICTIONARY
360
17F
102
}
330
3B
100
AcDbMaterial
  1
ByLayer
  0
MATERIAL
  5
3E
102
{ACAD_REACTORS
330
3B
102
}
102
{ACAD_XDICTIONARY
360
183
102
}
330
3B
100
AcDbMaterial
  1
Global
  0
MLINESTYLE
  5
18
102
{ACAD_REACTORS
330
17
102
}
330
17
100
AcDbMlineStyle
  2
Standard
 70
     0
  3

 62
   256
 51
90.0
 52
90.0
 71
     2
 49
0.5
 62
   256
  6
BYLAYER
 49
-0.5
 62
   256
  6
BYLAYER
  0
ACDBPLACEHOLDER
  5
F
102
{ACAD_REACTORS
330
E
102
}
330
E
  0
VISUALSTYLE
  5
2F
102
{ACAD_REACTORS
330
2A
102
}
102
{ACAD_XDICTIONARY
360
167
102
}
330
2A
100
AcDbVisualStyle
  2
2dWireframe
 70
     4
 71
     0
 72
     2
 73
     0
 90
        0
 40
-0.6
 41
-30.0
 62
     5
 63
     7
 74
     1
 91
        4
 64
     7
 65
   257
 75
     1
175
     1
 42
1.0
 92
        0
 66
   257
 43
1.0
 76
     1
 77
     6
 78
     2
 67
     7
 79
     5
170
     0
171
     0
290
     0
174
     0
 93
        1
 44
0.0
173
     0
291
     0
 45
0.0
1001
ACAD
1000
AcDbSavedByObjectVersion
1070
     0
  0
VISUALSTYLE
  5
31
102
{ACAD_REACTORS
330
2A
102
}
102
{ACAD_XDICTIONARY
360
16B
102
}
330
2A
100
AcDbVisualStyle
  2
3D Hidden
 70
     6
 71
     1
 72
     2
 73
     2
 90
        0
 40
-0.6
 41
-30.0
 62
     5
 63
     7
 74
     2
 91
        2
 64
     7
 65
   257
 75
     2
175
     1
 42
40.0
 92
        0
 66
   257
 43
1.0
 76
     1
 77
     6
 78
     2
 67
     7
 79
     3
170
     0
171
     0
290
     0
174
     0
 93
        1
 44
0.0
173
     0
291
     0
 45
0.0
1001
ACAD
1000
AcDbSavedByObjectVersion
1070
     0
  0
VISUALSTYLE
  5
30
102
{ACAD_REACTORS
330
2A
102
}
102
{ACAD_XDICTIONARY
360
169
102
}
330
2A
100
AcDbVisualStyle
  2
3dWireframe
 70
     5
 71
     0
 72
     2
 73
     0
 90
        0
 40
-0.6
 41
-30.0
 62
     5
 63
     7
 74
     1
 91
        4
 64
     7
 65
   257
 75
     1
175
     1
 42
1.0
 92
        0
 66
   257
 43
1.0
 76
     1
 77
     6
 78
     2
 67
     7
 79
     5
170
     0
171
     0
290
     0
174
     0
 93
        1
 44
0.0
173
     0
291
     0
 45
0.0
1001
ACAD
1000
AcDbSavedByObjectVersion
1070
     0
  0
VISUALSTYLE
  5
32
102
{ACAD_REACTORS
330
2A
102
}
102
{ACAD_XDICTIONARY
360
16D
102
}
330
2A
100
AcDbVisualStyle
  2
Basic
 70
     7
 71
     1
 72
     0
 73
     1
 90
        0
 40
-0.6
 41
-30.0
 62
     5
 63
     7
 74
     0
 91
        4
 64
     7
 65
   257
 75
     1
175
     1
 42
1.0
 92
        8
 66
     7
 43
1.0
 76
     1
 77
     6
 78
     2
 67
     7
 79
     5
170
     0
171
     0
290
     0
174
     0
 93
        1
 44
0.0
173
     0
291
     1
 45
0.0
1001
ACAD
1000
AcDbSavedByObjectVersion
1070
     0
  0
VISUALSTYLE
  5
36
102
{ACAD_REACTORS
330
2A
102
}
102
{ACAD_XDICTIONARY
360
175
102
}
330
2A
100
AcDbVisualStyle
  2
Brighten
 70
    12
 71
     2
 72
     2
 73
     0
 90
        0
 40
-0.6
 41
-30.0
 62
     5
 63
     7
 74
     1
 91
        4
 64
     7
 65
   257
 75
     1
175
     1
 42
1.0
 92
        8
 66
     7
 43
1.0
 76
     1
 77
     6
 78
     2
 67
     7
 79
     5
170
     0
171
     0
290
     0
174
     0
 93
        1
 44
50.0
173
     0
291
     1
 45
0.0
1001
ACAD
1000
AcDbSavedByObjectVersion
1070
     0
  0
VISUALSTYLE
  5
3A
102
{ACAD_REACTORS
330
2A
102
}
102
{ACAD_XDICTIONARY
360
17D
102
}
330
2A
100
AcDbVisualStyle
  2
ColorChange
 70
    16
 71
     2
 72
     2
 73
     3
 90
        0
 40
-0.6
 41
-30.0
 62
     5
 63
     8
 74
     1
 91
        4
 64
     7
 65
   257
 75
     1
175
     1
 42
1.0
 92
        8
 66
     8
 43
1.0
 76
     1
 77
     6
 78
     2
 67
     7
 79
     5
170
     0
171
     0
290
     0
174
     0
 93
        1
 44
0.0
173
     0
291
     1
 45
0.0
1001
ACAD
1000
AcDbSavedByObjectVersion
1070
     0
  0
VISUALSTYLE
  5
34
102
{ACAD_REACTORS
330
2A
102
}
102
{ACAD_XDICTIONARY
360
171
102
}
330
2A
100
AcDbVisualStyle
  2
Conceptual
 70
     9
 71
     3
 72
     2
 73
     0
 90
        0
 40
-0.6
 41
-30.0
 62
     5
 63
     7
 74
     2
 91
        2
 64
     7
 65
   257
 75
     1
175
     1
 42
40.0
 92
        8
 66
     7
 43
1.0
 76
     1
 77
     6
 78
     2
 67
     7
 79
     3
170
     0
171
     0
290
     0
174
     0
 93
        1
 44
0.0
173
     0
291
     0
 45
0.0
1001
ACAD
1000
AcDbSavedByObjectVersion
1070
     0
  0
VISUALSTYLE
  5
35
102
{ACAD_REACTORS
330
2A
102
}
102
{ACAD_XDICTIONARY
360
173
102
}
330
2A
100
AcDbVisualStyle
  2
Dim
 70
    11
 71
     2
 72
     2
 73
     0
 90
        0
 40
-0.6
 41
-30.0
 62
     5
 63
     7
 74
     1
 91
        4
 64
     7
 65
   257
 75
     1
175
     1
 42
1.0
 92
        8
 66
     7
 43
1.0
 76
     1
 77
     6
 78
     2
 67
     7
 79
     5
170
     0
171
     0
290
     0
174
     0
 93
        1
 44
-50.0
173
     0
291
     1
 45
0.0
1001
ACAD
1000
AcDbSavedByObjectVersion
1070
     0
  0
VISUALSTYLE
  5
39
102
{ACAD_REACTORS
330
2A
102
}
102
{ACAD_XDICTIONARY
360
17B
102
}
330
2A
100
AcDbVisualStyle
  2
Facepattern
 70
    15
 71
     2
 72
     2
 73
     0
 90
        0
 40
-0.6
 41
-30.0
 62
     5
 63
     7
 74
     1
 91
        4
 64
     7
 65
   257
 75
     1
175
     1
 42
1.0
 92
        8
 66
     7
 43
1.0
 76
     1
 77
     6
 78
     2
 67
     7
 79
     5
170
     0
171
     0
290
     0
174
     0
 93
        1
 44
0.0
173
     0
291
     1
 45
0.0
1001
ACAD
1000
AcDbSavedByObjectVersion
1070
     0
  0
VISUALSTYLE
  5
2B
102
{ACAD_REACTORS
330
2A
102
}
102
{ACAD_XDICTIONARY
360
15F
102
}
330
2A
100
AcDbVisualStyle
  2
Flat
 70
     0
 71
     2
 72
     1
 73
     1
 90
        2
 40
-0.6
 41
30.0
 62
     5
 63
     7
 74
     0
 91
        4
 64
     7
 65
   257
 75
     1
175
     1
 42
1.0
 92
        8
 66
     7
 43
1.0
 76
     1
 77
     6
 78
     2
 67
     7
 79
     5
170
     0
171
     0
290
     0
174
     0
 93
       13
 44
0.0
173
     0
291
     1
 45
0.0
1001
ACAD
1000
AcDbSavedByObjectVersion
1070
     0
  0
VISUALSTYLE
  5
2C
102
{ACAD_REACTORS
330
2A
102
}
102
{ACAD_XDICTIONARY
360
161
102
}
330
2A
100
AcDbVisualStyle
  2
FlatWithEdges
 70
     1
 71
     2
 72
     1
 73
     1
 90
        2
 40
-0.6
 41
30.0
 62
     5
 63
     7
 74
     1
 91
        4
 64
     7
 65
   257
 75
     1
175
     1
 42
1.0
 92
        0
 66
   257
 43
1.0
 76
     1
 77
     6
 78
     2
 67
     7
 79
     5
170
     0
171
     0
290
     0
174
     0
 93
       13
 44
0.0
173
     0
291
     1
 45
0.0
1001
ACAD
1000
AcDbSavedByObjectVersion
1070
     0
  0
VISUALSTYLE
  5
2D
102
{ACAD_REACTORS
330
2A
102
}
102
{ACAD_XDICTIONARY
360
163
102
}
330
2A
100
AcDbVisualStyle
  2
Gouraud
 70
     2
 71
     2
 72
     2
 73
     1
 90
        2
 40
-0.6
 41
30.0
 62
     5
 63
     7
 74
     0
 91
        4
 64
     7
 65
   257
 75
     1
175
     1
 42
1.0
 92
        0
 66
     7
 43
1.0
 76
     1
 77
     6
 78
     2
 67
     7
 79
     5
170
     0
171
     0
290
     0
174
     0
 93
       13
 44
0.0
173
     0
291
     1
 45
0.0
1001
ACAD
1000
AcDbSavedByObjectVersion
1070
     0
  0
VISUALSTYLE
  5
2E
102
{ACAD_REACTORS
330
2A
102
}
102
{ACAD_XDICTIONARY
360
165
102
}
330
2A
100
AcDbVisualStyle
  2
GouraudWithEdges
 70
     3
 71
     2
 72
     2
 73
     1
 90
        2
 40
-0.6
 41
30.0
 62
     5
 63
     7
 74
     1
 91
        4
 64
     7
 65
   257
 75
     1
175
     1
 42
1.0
 92
        0
 66
   257
 43
1.0
 76
     1
 77
     6
 78
     2
 67
     7
 79
     5
170
     0
171
     0
290
     0
174
     0
 93
       13
 44
0.0
173
     0
291
     1
 45
0.0
1001
ACAD
1000
AcDbSavedByObjectVersion
1070
     0
  0
VISUALSTYLE
  5
38
102
{ACAD_REACTORS
330
2A
102
}
102
{ACAD_XDICTIONARY
360
179
102
}
330
2A
100
AcDbVisualStyle
  2
Linepattern
 70
    14
 71
     2
 72
     2
 73
     0
 90
        0
 40
-0.6
 41
-30.0
 62
     5
 63
     7
 74
     1
 91
        4
 64
     7
 65
   257
 75
     7
175
     7
 42
1.0
 92
        8
 66
     7
 43
1.0
 76
     1
 77
     6
 78
     2
 67
     7
 79
     5
170
     0
171
     0
290
     0
174
     0
 93
        1
 44
0.0
173
     0
291
     1
 45
0.0
1001
ACAD
1000
AcDbSavedByObjectVersion
1070
     0
  0
VISUALSTYLE
  5
33
102
{ACAD_REACTORS
330
2A
102
}
102
{ACAD_XDICTIONARY
360
16F
102
}
330
2A
100
AcDbVisualStyle
  2
Realistic
 70
     8
 71
     2
 72
     2
 73
     0
 90
        0
 40
-0.6
 41
-30.0
 62
     5
 63
     7
 74
     1
 91
        0
 64
     7
 65
   257
 75
     1
175
     1
 42
1.0
 92
        8
 66
     8
 43
1.0
 76
     1
 77
     6
 78
     2
 67
     7
 79
     5
170
     0
171
     0
290
     0
174
     0
 93
       13
 44
0.0
173
     0
291
     0
 45
0.0
1001
ACAD
1000
AcDbSavedByObjectVersion
1070
     0
  0
VISUALSTYLE
  5
37
102
{ACAD_REACTORS
330
2A
102
}
102
{ACAD_XDICTIONARY
360
177
102
}
330
2A
100
AcDbVisualStyle
  2
Thicken
 70
    13
 71
     2
 72
     2
 73
     0
 90
        0
 40
-0.6
 41
-30.0
 62
     5
 63
     7
 74
     1
 91
        4
 64
     7
 65
   257
 75
     1
175
     1
 42
1.0
 92
       12
 66
     7
 43
1.0
 76
     1
 77
     6
 78
     2
 67
     7
 79
     5
170
     0
171
     0
290
     0
174
     0
 93
        1
 44
0.0
173
     0
291
     1
 45
0.0
1001
ACAD
1000
AcDbSavedByObjectVersion
1070
     0
  0
DICTIONARYVAR
  5
15D
102
{ACAD_REACTORS
330
15A
102
}
330
15A
100
DictionaryVariables
280
     0
  1
2
  0
DICTIONARYVAR
  5
15E
102
{ACAD_REACTORS
330
15A
102
}
330
15A
100
DictionaryVariables
280
     0
  1
1
  0
DICTIONARY
  5
181
330
3D
100
AcDbDictionary
280
     1
281
     1
  3
ACAD_XREC_ROUNDTRIP
360
182
  0
DICTIONARY
  5
17F
330
3C
100
AcDbDictionary
280
     1
281
     1
  3
ACAD_XREC_ROUNDTRIP
360
180
  0
DICTIONARY
  5
183
330
3E
100
AcDbDictionary
280
     1
281
     1
  3
ACAD_XREC_ROUNDTRIP
360
184
  0
DICTIONARY
  5
167
330
2F
100
AcDbDictionary
280
     1
281
     1
  3
ACAD_XREC_ROUNDTRIP
360
168
  0
DICTIONARY
  5
16B
330
31
100
AcDbDictionary
280
     1
281
     1
  3
ACAD_XREC_ROUNDTRIP
360
16C
  0
DICTIONARY
  5
169
330
30
100
AcDbDictionary
280
     1
281
     1
  3
ACAD_XREC_ROUNDTRIP
360
16A
  0
DICTIONARY
  5
16D
330
32
100
AcDbDictionary
280
     1
281
     1
  3
ACAD_XREC_ROUNDTRIP
360
16E
  0
DICTIONARY
  5
175
330
36
100
AcDbDictionary
280
     1
281
     1
  3
ACAD_XREC_ROUNDTRIP
360
176
  0
DICTIONARY
  5
17D
330
3A
100
AcDbDictionary
280
     1
281
     1
  3
ACAD_XREC_ROUNDTRIP
360
17E
  0
DICTIONARY
  5
171
330
34
100
AcDbDictionary
280
     1
281
     1
  3
ACAD_XREC_ROUNDTRIP
360
172
  0
DICTIONARY
  5
173
330
35
100
AcDbDictionary
280
     1
281
     1
  3
ACAD_XREC_ROUNDTRIP
360
174
  0
DICTIONARY
  5
17B
330
39
100
AcDbDictionary
280
     1
281
     1
  3
ACAD_XREC_ROUNDTRIP
360
17C
  0
DICTIONARY
  5
15F
330
2B
100
AcDbDictionary
280
     1
281
     1
  3
ACAD_XREC_ROUNDTRIP
360
160
  0
DICTIONARY
  5
161
330
2C
100
AcDbDictionary
280
     1
281
     1
  3
ACAD_XREC_ROUNDTRIP
360
162
  0
DICTIONARY
  5
163
330
2D
100
AcDbDictionary
280
     1
281
     1
  3
ACAD_XREC_ROUNDTRIP
360
164
  0
DICTIONARY
  5
165
330
2E
100
AcDbDictionary
280
     1
281
     1
  3
ACAD_XREC_ROUNDTRIP
360
166
  0
DICTIONARY
  5
179
330
38
100
AcDbDictionary
280
     1
281
     1
  3
ACAD_XREC_ROUNDTRIP
360
17A
  0
DICTIONARY
  5
16F
330
33
100
AcDbDictionary
280
     1
281
     1
  3
ACAD_XREC_ROUNDTRIP
360
170
  0
DICTIONARY
  5
177
330
37
100
AcDbDictionary
280
     1
281
     1
  3
ACAD_XREC_ROUNDTRIP
360
178
  0
XRECORD
  5
182
102
{ACAD_REACTORS
330
181
102
}
330
181
100
AcDbXrecord
280
     1
102
MATERIAL
148
0.0
149
0.0
149
0.0
 93
        0
 94
      127
282
     0
 72
     1
 77
     1
171
     1
175
     1
179
     1
273
     0
  0
XRECORD
  5
180
102
{ACAD_REACTORS
330
17F
102
}
330
17F
100
AcDbXrecord
280
     1
102
MATERIAL
148
0.0
149
0.0
149
0.0
 93
        0
 94
      127
282
     0
 72
     1
 77
     1
171
     1
175
     1
179
     1
273
     0
  0
XRECORD
  5
184
102
{ACAD_REACTORS
330
183
102
}
330
183
100
AcDbXrecord
280
     1
102
MATERIAL
148
0.0
149
0.0
149
0.0
 93
        0
 94
      127
282
     0
 72
     1
 77
     1
171
     1
175
     1
179
     1
273
     0
  0
XRECORD
  5
168
102
{ACAD_REACTORS
330
167
102
}
330
167
100
AcDbXrecord
280
     1
102
RTVSPropertyOp0
 70
     1
102
RTVSPropertyOp1
 70
     1
102
RTVSPropertyOp2
 70
     1
102
RTVSPropertyOp3
 70
     1
102
RTVSPropertyOp4
 70
     1
102
RTVSPropertyOp5
 70
     1
102
RTVSPropertyOp6
 70
     1
102
RTVSPropertyOp7
 70
     1
102
RTVSPropertyOp8
 70
     1
102
RTVSPropertyOp9
 70
     1
102
RTVSPropertyOp10
 70
     1
102
RTVSPropertyOp11
 70
     1
102
RTVSPropertyOp12
 70
     1
102
RTVSPropertyOp13
 70
     1
102
RTVSPropertyOp14
 70
     1
102
RTVSPropertyOp15
 70
     1
102
RTVSPropertyOp16
 70
     1
102
RTVSPropertyOp17
 70
     1
102
RTVSPropertyOp18
 70
     1
102
RTVSPropertyOp19
 70
     1
102
RTVSPropertyOp20
 70
     1
102
RTVSPropertyOp21
 70
     1
102
RTVSPropertyOp22
 70
     1
102
RTVSPropertyOp23
 70
     1
102
RTVSPropertyOp24
 70
     1
102
RTVSPropertyOp25
 70
     1
102
RTVSPropertyOp26
 70
     1
102
RTVSPropertyOp27
 70
     1
102
RTVSPropertyOp28
 70
     1
102
RTVSPropertyOp29
 70
     1
102
RTVSPropertyOp30
 70
     1
102
RTVSPropertyOp31
 70
     1
102
RTVSPropertyOp32
 70
     1
  0
XRECORD
  5
16C
102
{ACAD_REACTORS
330
16B
102
}
330
16B
100
AcDbXrecord
280
     1
102
RTVSPropertyOp0
 70
     1
102
RTVSPropertyOp1
 70
     1
102
RTVSPropertyOp2
 70
     1
102
RTVSPropertyOp3
 70
     1
102
RTVSPropertyOp4
 70
     1
102
RTVSPropertyOp5
 70
     1
102
RTVSPropertyOp6
 70
     1
102
RTVSPropertyOp7
 70
     1
102
RTVSPropertyOp8
 70
     1
102
RTVSPropertyOp9
 70
     1
102
RTVSPropertyOp10
 70
     1
102
RTVSPropertyOp11
 70
     1
102
RTVSPropertyOp12
 70
     1
102
RTVSPropertyOp13
 70
     1
102
RTVSPropertyOp14
 70
     1
102
RTVSPropertyOp15
 70
     1
102
RTVSPropertyOp16
 70
     1
102
RTVSPropertyOp17
 70
     1
102
RTVSPropertyOp18
 70
     1
102
RTVSPropertyOp19
 70
     1
102
RTVSPropertyOp20
 70
     1
102
RTVSPropertyOp21
 70
     1
102
RTVSPropertyOp22
 70
     1
102
RTVSPropertyOp23
 70
     1
102
RTVSPropertyOp24
 70
     1
102
RTVSPropertyOp25
 70
     1
102
RTVSPropertyOp26
 70
     1
102
RTVSPropertyOp27
 70
     1
102
RTVSPropertyOp28
 70
     1
102
RTVSPropertyOp29
 70
     1
102
RTVSPropertyOp30
 70
     1
102
RTVSPropertyOp31
 70
     1
102
RTVSPropertyOp32
 70
     1
  0
XRECORD
  5
16A
102
{ACAD_REACTORS
330
169
102
}
330
169
100
AcDbXrecord
280
     1
102
RTVSPropertyOp0
 70
     1
102
RTVSPropertyOp1
 70
     1
102
RTVSPropertyOp2
 70
     1
102
RTVSPropertyOp3
 70
     1
102
RTVSPropertyOp4
 70
     1
102
RTVSPropertyOp5
 70
     1
102
RTVSPropertyOp6
 70
     1
102
RTVSPropertyOp7
 70
     1
102
RTVSPropertyOp8
 70
     1
102
RTVSPropertyOp9
 70
     1
102
RTVSPropertyOp10
 70
     1
102
RTVSPropertyOp11
 70
     1
102
RTVSPropertyOp12
 70
     1
102
RTVSPropertyOp13
 70
     1
102
RTVSPropertyOp14
 70
     1
102
RTVSPropertyOp15
 70
     1
102
RTVSPropertyOp16
 70
     1
102
RTVSPropertyOp17
 70
     1
102
RTVSPropertyOp18
 70
     1
102
RTVSPropertyOp19
 70
     1
102
RTVSPropertyOp20
 70
     1
102
RTVSPropertyOp21
 70
     1
102
RTVSPropertyOp22
 70
     1
102
RTVSPropertyOp23
 70
     1
102
RTVSPropertyOp24
 70
     1
102
RTVSPropertyOp25
 70
     1
102
RTVSPropertyOp26
 70
     1
102
RTVSPropertyOp27
 70
     1
102
RTVSPropertyOp28
 70
     1
102
RTVSPropertyOp29
 70
     1
102
RTVSPropertyOp30
 70
     1
102
RTVSPropertyOp31
 70
     1
102
RTVSPropertyOp32
 70
     1
  0
XRECORD
  5
16E
102
{ACAD_REACTORS
330
16D
102
}
330
16D
100
AcDbXrecord
280
     1
102
RTVSPropertyOp0
 70
     1
102
RTVSPropertyOp1
 70
     1
102
RTVSPropertyOp2
 70
     1
102
RTVSPropertyOp3
 70
     1
102
RTVSPropertyOp4
 70
     1
102
RTVSPropertyOp5
 70
     1
102
RTVSPropertyOp6
 70
     1
102
RTVSPropertyOp7
 70
     1
102
RTVSPropertyOp8
 70
     1
102
RTVSPropertyOp9
 70
     1
102
RTVSPropertyOp10
 70
     1
102
RTVSPropertyOp11
 70
     1
102
RTVSPropertyOp12
 70
     1
102
RTVSPropertyOp13
 70
     1
102
RTVSPropertyOp14
 70
     1
102
RTVSPropertyOp15
 70
     1
102
RTVSPropertyOp16
 70
     1
102
RTVSPropertyOp17
 70
     1
102
RTVSPropertyOp18
 70
     1
102
RTVSPropertyOp19
 70
     1
102
RTVSPropertyOp20
 70
     1
102
RTVSPropertyOp21
 70
     1
102
RTVSPropertyOp22
 70
     1
102
RTVSPropertyOp23
 70
     1
102
RTVSPropertyOp24
 70
     1
102
RTVSPropertyOp25
 70
     1
102
RTVSPropertyOp26
 70
     1
102
RTVSPropertyOp27
 70
     1
102
RTVSPropertyOp28
 70
     1
102
RTVSPropertyOp29
 70
     1
102
RTVSPropertyOp30
 70
     1
102
RTVSPropertyOp31
 70
     1
102
RTVSPropertyOp32
 70
     1
  0
XRECORD
  5
176
102
{ACAD_REACTORS
330
175
102
}
330
175
100
AcDbXrecord
280
     1
102
RTVSPropertyOp0
 70
     1
102
RTVSPropertyOp1
 70
     1
102
RTVSPropertyOp2
 70
     1
102
RTVSPropertyOp3
 70
     1
102
RTVSPropertyOp4
 70
     1
102
RTVSPropertyOp5
 70
     1
102
RTVSPropertyOp6
 70
     1
102
RTVSPropertyOp7
 70
     1
102
RTVSPropertyOp8
 70
     1
102
RTVSPropertyOp9
 70
     1
102
RTVSPropertyOp10
 70
     1
102
RTVSPropertyOp11
 70
     1
102
RTVSPropertyOp12
 70
     1
102
RTVSPropertyOp13
 70
     1
102
RTVSPropertyOp14
 70
     1
102
RTVSPropertyOp15
 70
     1
102
RTVSPropertyOp16
 70
     1
102
RTVSPropertyOp17
 70
     1
102
RTVSPropertyOp18
 70
     1
102
RTVSPropertyOp19
 70
     1
102
RTVSPropertyOp20
 70
     1
102
RTVSPropertyOp21
 70
     1
102
RTVSPropertyOp22
 70
     1
102
RTVSPropertyOp23
 70
     1
102
RTVSPropertyOp24
 70
     1
102
RTVSPropertyOp25
 70
     1
102
RTVSPropertyOp26
 70
     1
102
RTVSPropertyOp27
 70
     1
102
RTVSPropertyOp28
 70
     1
102
RTVSPropertyOp29
 70
     1
102
RTVSPropertyOp30
 70
     1
102
RTVSPropertyOp31
 70
     1
102
RTVSPropertyOp32
 70
     1
  0
XRECORD
  5
17E
102
{ACAD_REACTORS
330
17D
102
}
330
17D
100
AcDbXrecord
280
     1
102
RTVSPropertyOp0
 70
     1
102
RTVSPropertyOp1
 70
     1
102
RTVSPropertyOp2
 70
     1
102
RTVSPropertyOp3
 70
     1
102
RTVSPropertyOp4
 70
     1
102
RTVSPropertyOp5
 70
     1
102
RTVSPropertyOp6
 70
     1
102
RTVSPropertyOp7
 70
     1
102
RTVSPropertyOp8
 70
     1
102
RTVSPropertyOp9
 70
     1
102
RTVSPropertyOp10
 70
     1
102
RTVSPropertyOp11
 70
     1
102
RTVSPropertyOp12
 70
     1
102
RTVSPropertyOp13
 70
     1
102
RTVSPropertyOp14
 70
     1
102
RTVSPropertyOp15
 70
     1
102
RTVSPropertyOp16
 70
     1
102
RTVSPropertyOp17
 70
     1
102
RTVSPropertyOp18
 70
     1
102
RTVSPropertyOp19
 70
     1
102
RTVSPropertyOp20
 70
     1
102
RTVSPropertyOp21
 70
     1
102
RTVSPropertyOp22
 70
     1
102
RTVSPropertyOp23
 70
     1
102
RTVSPropertyOp24
 70
     1
102
RTVSPropertyOp25
 70
     1
102
RTVSPropertyOp26
 70
     1
102
RTVSPropertyOp27
 70
     1
102
RTVSPropertyOp28
 70
     1
102
RTVSPropertyOp29
 70
     1
102
RTVSPropertyOp30
 70
     1
102
RTVSPropertyOp31
 70
     1
102
RTVSPropertyOp32
 70
     1
  0
XRECORD
  5
172
102
{ACAD_REACTORS
330
171
102
}
330
171
100
AcDbXrecord
280
     1
102
RTVSPropertyOp0
 70
     1
102
RTVSPropertyOp1
 70
     1
102
RTVSPropertyOp2
 70
     1
102
RTVSPropertyOp3
 70
     1
102
RTVSPropertyOp4
 70
     1
102
RTVSPropertyOp5
 70
     1
102
RTVSPropertyOp6
 70
     1
102
RTVSPropertyOp7
 70
     1
102
RTVSPropertyOp8
 70
     1
102
RTVSPropertyOp9
 70
     1
102
RTVSPropertyOp10
 70
     1
102
RTVSPropertyOp11
 70
     1
102
RTVSPropertyOp12
 70
     1
102
RTVSPropertyOp13
 70
     1
102
RTVSPropertyOp14
 70
     1
102
RTVSPropertyOp15
 70
     1
102
RTVSPropertyOp16
 70
     1
102
RTVSPropertyOp17
 70
     1
102
RTVSPropertyOp18
 70
     1
102
RTVSPropertyOp19
 70
     1
102
RTVSPropertyOp20
 70
     1
102
RTVSPropertyOp21
 70
     1
102
RTVSPropertyOp22
 70
     1
102
RTVSPropertyOp23
 70
     1
102
RTVSPropertyOp24
 70
     1
102
RTVSPropertyOp25
 70
     1
102
RTVSPropertyOp26
 70
     1
102
RTVSPropertyOp27
 70
     1
102
RTVSPropertyOp28
 70
     1
102
RTVSPropertyOp29
 70
     1
102
RTVSPropertyOp30
 70
     1
102
RTVSPropertyOp31
 70
     1
102
RTVSPropertyOp32
 70
     1
  0
XRECORD
  5
174
102
{ACAD_REACTORS
330
173
102
}
330
173
100
AcDbXrecord
280
     1
102
RTVSPropertyOp0
 70
     1
102
RTVSPropertyOp1
 70
     1
102
RTVSPropertyOp2
 70
     1
102
RTVSPropertyOp3
 70
     1
102
RTVSPropertyOp4
 70
     1
102
RTVSPropertyOp5
 70
     1
102
RTVSPropertyOp6
 70
     1
102
RTVSPropertyOp7
 70
     1
102
RTVSPropertyOp8
 70
     1
102
RTVSPropertyOp9
 70
     1
102
RTVSPropertyOp10
 70
     1
102
RTVSPropertyOp11
 70
     1
102
RTVSPropertyOp12
 70
     1
102
RTVSPropertyOp13
 70
     1
102
RTVSPropertyOp14
 70
     1
102
RTVSPropertyOp15
 70
     1
102
RTVSPropertyOp16
 70
     1
102
RTVSPropertyOp17
 70
     1
102
RTVSPropertyOp18
 70
     1
102
RTVSPropertyOp19
 70
     1
102
RTVSPropertyOp20
 70
     1
102
RTVSPropertyOp21
 70
     1
102
RTVSPropertyOp22
 70
     1
102
RTVSPropertyOp23
 70
     1
102
RTVSPropertyOp24
 70
     1
102
RTVSPropertyOp25
 70
     1
102
RTVSPropertyOp26
 70
     1
102
RTVSPropertyOp27
 70
     1
102
RTVSPropertyOp28
 70
     1
102
RTVSPropertyOp29
 70
     1
102
RTVSPropertyOp30
 70
     1
102
RTVSPropertyOp31
 70
     1
102
RTVSPropertyOp32
 70
     1
  0
XRECORD
  5
17C
102
{ACAD_REACTORS
330
17B
102
}
330
17B
100
AcDbXrecord
280
     1
102
RTVSPropertyOp0
 70
     1
102
RTVSPropertyOp1
 70
     1
102
RTVSPropertyOp2
 70
     1
102
RTVSPropertyOp3
 70
     1
102
RTVSPropertyOp4
 70
     1
102
RTVSPropertyOp5
 70
     1
102
RTVSPropertyOp6
 70
     1
102
RTVSPropertyOp7
 70
     1
102
RTVSPropertyOp8
 70
     1
102
RTVSPropertyOp9
 70
     1
102
RTVSPropertyOp10
 70
     1
102
RTVSPropertyOp11
 70
     1
102
RTVSPropertyOp12
 70
     1
102
RTVSPropertyOp13
 70
     1
102
RTVSPropertyOp14
 70
     1
102
RTVSPropertyOp15
 70
     1
102
RTVSPropertyOp16
 70
     1
102
RTVSPropertyOp17
 70
     1
102
RTVSPropertyOp18
 70
     1
102
RTVSPropertyOp19
 70
     1
102
RTVSPropertyOp20
 70
     1
102
RTVSPropertyOp21
 70
     1
102
RTVSPropertyOp22
 70
     1
102
RTVSPropertyOp23
 70
     1
102
RTVSPropertyOp24
 70
     1
102
RTVSPropertyOp25
 70
     1
102
RTVSPropertyOp26
 70
     1
102
RTVSPropertyOp27
 70
     1
102
RTVSPropertyOp28
 70
     1
102
RTVSPropertyOp29
 70
     1
102
RTVSPropertyOp30
 70
     1
102
RTVSPropertyOp31
 70
     1
102
RTVSPropertyOp32
 70
     1
  0
XRECORD
  5
160
102
{ACAD_REACTORS
330
15F
102
}
330
15F
100
AcDbXrecord
280
     1
102
RTVSPropertyOp0
 70
     1
102
RTVSPropertyOp1
 70
     1
102
RTVSPropertyOp2
 70
     1
102
RTVSPropertyOp3
 70
     1
102
RTVSPropertyOp4
 70
     1
102
RTVSPropertyOp5
 70
     1
102
RTVSPropertyOp6
 70
     1
102
RTVSPropertyOp7
 70
     1
102
RTVSPropertyOp8
 70
     1
102
RTVSPropertyOp9
 70
     1
102
RTVSPropertyOp10
 70
     1
102
RTVSPropertyOp11
 70
     1
102
RTVSPropertyOp12
 70
     1
102
RTVSPropertyOp13
 70
     1
102
RTVSPropertyOp14
 70
     1
102
RTVSPropertyOp15
 70
     1
102
RTVSPropertyOp16
 70
     1
102
RTVSPropertyOp17
 70
     1
102
RTVSPropertyOp18
 70
     1
102
RTVSPropertyOp19
 70
     1
102
RTVSPropertyOp20
 70
     1
102
RTVSPropertyOp21
 70
     1
102
RTVSPropertyOp22
 70
     1
102
RTVSPropertyOp23
 70
     1
102
RTVSPropertyOp24
 70
     1
102
RTVSPropertyOp25
 70
     1
102
RTVSPropertyOp26
 70
     1
102
RTVSPropertyOp27
 70
     1
102
RTVSPropertyOp28
 70
     1
102
RTVSPropertyOp29
 70
     1
102
RTVSPropertyOp30
 70
     1
102
RTVSPropertyOp31
 70
     1
102
RTVSPropertyOp32
 70
     1
  0
XRECORD
  5
162
102
{ACAD_REACTORS
330
161
102
}
330
161
100
AcDbXrecord
280
     1
102
RTVSPropertyOp0
 70
     1
102
RTVSPropertyOp1
 70
     1
102
RTVSPropertyOp2
 70
     1
102
RTVSPropertyOp3
 70
     1
102
RTVSPropertyOp4
 70
     1
102
RTVSPropertyOp5
 70
     1
102
RTVSPropertyOp6
 70
     1
102
RTVSPropertyOp7
 70
     1
102
RTVSPropertyOp8
 70
     1
102
RTVSPropertyOp9
 70
     1
102
RTVSPropertyOp10
 70
     1
102
RTVSPropertyOp11
 70
     1
102
RTVSPropertyOp12
 70
     1
102
RTVSPropertyOp13
 70
     1
102
RTVSPropertyOp14
 70
     1
102
RTVSPropertyOp15
 70
     1
102
RTVSPropertyOp16
 70
     1
102
RTVSPropertyOp17
 70
     1
102
RTVSPropertyOp18
 70
     1
102
RTVSPropertyOp19
 70
     1
102
RTVSPropertyOp20
 70
     1
102
RTVSPropertyOp21
 70
     1
102
RTVSPropertyOp22
 70
     1
102
RTVSPropertyOp23
 70
     1
102
RTVSPropertyOp24
 70
     1
102
RTVSPropertyOp25
 70
     1
102
RTVSPropertyOp26
 70
     1
102
RTVSPropertyOp27
 70
     1
102
RTVSPropertyOp28
 70
     1
102
RTVSPropertyOp29
 70
     1
102
RTVSPropertyOp30
 70
     1
102
RTVSPropertyOp31
 70
     1
102
RTVSPropertyOp32
 70
     1
  0
XRECORD
  5
164
102
{ACAD_REACTORS
330
163
102
}
330
163
100
AcDbXrecord
280
     1
102
RTVSPropertyOp0
 70
     1
102
RTVSPropertyOp1
 70
     1
102
RTVSPropertyOp2
 70
     1
102
RTVSPropertyOp3
 70
     1
102
RTVSPropertyOp4
 70
     1
102
RTVSPropertyOp5
 70
     1
102
RTVSPropertyOp6
 70
     1
102
RTVSPropertyOp7
 70
     1
102
RTVSPropertyOp8
 70
     1
102
RTVSPropertyOp9
 70
     1
102
RTVSPropertyOp10
 70
     1
102
RTVSPropertyOp11
 70
     1
102
RTVSPropertyOp12
 70
     1
102
RTVSPropertyOp13
 70
     1
102
RTVSPropertyOp14
 70
     1
102
RTVSPropertyOp15
 70
     1
102
RTVSPropertyOp16
 70
     1
102
RTVSPropertyOp17
 70
     1
102
RTVSPropertyOp18
 70
     1
102
RTVSPropertyOp19
 70
     1
102
RTVSPropertyOp20
 70
     1
102
RTVSPropertyOp21
 70
     1
102
RTVSPropertyOp22
 70
     1
102
RTVSPropertyOp23
 70
     1
102
RTVSPropertyOp24
 70
     1
102
RTVSPropertyOp25
 70
     1
102
RTVSPropertyOp26
 70
     1
102
RTVSPropertyOp27
 70
     1
102
RTVSPropertyOp28
 70
     1
102
RTVSPropertyOp29
 70
     1
102
RTVSPropertyOp30
 70
     1
102
RTVSPropertyOp31
 70
     1
102
RTVSPropertyOp32
 70
     1
  0
XRECORD
  5
166
102
{ACAD_REACTORS
330
165
102
}
330
165
100
AcDbXrecord
280
     1
102
RTVSPropertyOp0
 70
     1
102
RTVSPropertyOp1
 70
     1
102
RTVSPropertyOp2
 70
     1
102
RTVSPropertyOp3
 70
     1
102
RTVSPropertyOp4
 70
     1
102
RTVSPropertyOp5
 70
     1
102
RTVSPropertyOp6
 70
     1
102
RTVSPropertyOp7
 70
     1
102
RTVSPropertyOp8
 70
     1
102
RTVSPropertyOp9
 70
     1
102
RTVSPropertyOp10
 70
     1
102
RTVSPropertyOp11
 70
     1
102
RTVSPropertyOp12
 70
     1
102
RTVSPropertyOp13
 70
     1
102
RTVSPropertyOp14
 70
     1
102
RTVSPropertyOp15
 70
     1
102
RTVSPropertyOp16
 70
     1
102
RTVSPropertyOp17
 70
     1
102
RTVSPropertyOp18
 70
     1
102
RTVSPropertyOp19
 70
     1
102
RTVSPropertyOp20
 70
     1
102
RTVSPropertyOp21
 70
     1
102
RTVSPropertyOp22
 70
     1
102
RTVSPropertyOp23
 70
     1
102
RTVSPropertyOp24
 70
     1
102
RTVSPropertyOp25
 70
     1
102
RTVSPropertyOp26
 70
     1
102
RTVSPropertyOp27
 70
     1
102
RTVSPropertyOp28
 70
     1
102
RTVSPropertyOp29
 70
     1
102
RTVSPropertyOp30
 70
     1
102
RTVSPropertyOp31
 70
     1
102
RTVSPropertyOp32
 70
     1
  0
XRECORD
  5
17A
102
{ACAD_REACTORS
330
179
102
}
330
179
100
AcDbXrecord
280
     1
102
RTVSPropertyOp0
 70
     1
102
RTVSPropertyOp1
 70
     1
102
RTVSPropertyOp2
 70
     1
102
RTVSPropertyOp3
 70
     1
102
RTVSPropertyOp4
 70
     1
102
RTVSPropertyOp5
 70
     1
102
RTVSPropertyOp6
 70
     1
102
RTVSPropertyOp7
 70
     1
102
RTVSPropertyOp8
 70
     1
102
RTVSPropertyOp9
 70
     1
102
RTVSPropertyOp10
 70
     1
102
RTVSPropertyOp11
 70
     1
102
RTVSPropertyOp12
 70
     1
102
RTVSPropertyOp13
 70
     1
102
RTVSPropertyOp14
 70
     1
102
RTVSPropertyOp15
 70
     1
102
RTVSPropertyOp16
 70
     1
102
RTVSPropertyOp17
 70
     1
102
RTVSPropertyOp18
 70
     1
102
RTVSPropertyOp19
 70
     1
102
RTVSPropertyOp20
 70
     1
102
RTVSPropertyOp21
 70
     1
102
RTVSPropertyOp22
 70
     1
102
RTVSPropertyOp23
 70
     1
102
RTVSPropertyOp24
 70
     1
102
RTVSPropertyOp25
 70
     1
102
RTVSPropertyOp26
 70
     1
102
RTVSPropertyOp27
 70
     1
102
RTVSPropertyOp28
 70
     1
102
RTVSPropertyOp29
 70
     1
102
RTVSPropertyOp30
 70
     1
102
RTVSPropertyOp31
 70
     1
102
RTVSPropertyOp32
 70
     1
  0
XRECORD
  5
170
102
{ACAD_REACTORS
330
16F
102
}
330
16F
100
AcDbXrecord
280
     1
102
RTVSPropertyOp0
 70
     1
102
RTVSPropertyOp1
 70
     1
102
RTVSPropertyOp2
 70
     1
102
RTVSPropertyOp3
 70
     1
102
RTVSPropertyOp4
 70
     1
102
RTVSPropertyOp5
 70
     1
102
RTVSPropertyOp6
 70
     1
102
RTVSPropertyOp7
 70
     1
102
RTVSPropertyOp8
 70
     1
102
RTVSPropertyOp9
 70
     1
102
RTVSPropertyOp10
 70
     1
102
RTVSPropertyOp11
 70
     1
102
RTVSPropertyOp12
 70
     1
102
RTVSPropertyOp13
 70
     1
102
RTVSPropertyOp14
 70
     1
102
RTVSPropertyOp15
 70
     1
102
RTVSPropertyOp16
 70
     1
102
RTVSPropertyOp17
 70
     1
102
RTVSPropertyOp18
 70
     1
102
RTVSPropertyOp19
 70
     1
102
RTVSPropertyOp20
 70
     1
102
RTVSPropertyOp21
 70
     1
102
RTVSPropertyOp22
 70
     1
102
RTVSPropertyOp23
 70
     1
102
RTVSPropertyOp24
 70
     1
102
RTVSPropertyOp25
 70
     1
102
RTVSPropertyOp26
 70
     1
102
RTVSPropertyOp27
 70
     1
102
RTVSPropertyOp28
 70
     1
102
RTVSPropertyOp29
 70
     1
102
RTVSPropertyOp30
 70
     1
102
RTVSPropertyOp31
 70
     1
102
RTVSPropertyOp32
 70
     1
  0
XRECORD
  5
178
102
{ACAD_REACTORS
330
177
102
}
330
177
100
AcDbXrecord
280
     1
102
RTVSPropertyOp0
 70
     1
102
RTVSPropertyOp1
 70
     1
102
RTVSPropertyOp2
 70
     1
102
RTVSPropertyOp3
 70
     1
102
RTVSPropertyOp4
 70
     1
102
RTVSPropertyOp5
 70
     1
102
RTVSPropertyOp6
 70
     1
102
RTVSPropertyOp7
 70
     1
102
RTVSPropertyOp8
 70
     1
102
RTVSPropertyOp9
 70
     1
102
RTVSPropertyOp10
 70
     1
102
RTVSPropertyOp11
 70
     1
102
RTVSPropertyOp12
 70
     1
102
RTVSPropertyOp13
 70
     1
102
RTVSPropertyOp14
 70
     1
102
RTVSPropertyOp15
 70
     1
102
RTVSPropertyOp16
 70
     1
102
RTVSPropertyOp17
 70
     1
102
RTVSPropertyOp18
 70
     1
102
RTVSPropertyOp19
 70
     1
102
RTVSPropertyOp20
 70
     1
102
RTVSPropertyOp21
 70
     1
102
RTVSPropertyOp22
 70
     1
102
RTVSPropertyOp23
 70
     1
102
RTVSPropertyOp24
 70
     1
102
RTVSPropertyOp25
 70
     1
102
RTVSPropertyOp26
 70
     1
102
RTVSPropertyOp27
 70
     1
102
RTVSPropertyOp28
 70
     1
102
RTVSPropertyOp29
 70
     1
102
RTVSPropertyOp30
 70
     1
102
RTVSPropertyOp31
 70
     1
102
RTVSPropertyOp32
 70
     1
  0
ENDSEC
  0
EOF
