  0
SECTION
  2
HEADER
  9
$ACADVER
  1
AC1015
  9
$ACADMAINTVER
 70
     6
  9
$DWGCODEPAGE
  3
ANSI_1252
  9
$INSBASE
 10
0.0
 20
0.0
 30
0.0
  9
$EXTMIN
 10
-5245.28739620115
 20
2827.11666486312
 30
0.0
  9
$EXTMAX
 10
-4898.5534168827
 20
3168.52568942364
 30
0.0
  9
$LIMMIN
 10
0.0
 20
0.0
  9
$LIMMAX
 10
12.0
 20
9.0
  9
$ORTHOMODE
 70
     0
  9
$REGENMODE
 70
     1
  9
$FILLMODE
 70
     1
  9
$QTEXTMODE
 70
     0
  9
$MIRRTEXT
 70
     1
  9
$LTSCALE
 40
1.0
  9
$ATTMODE
 70
     1
  9
$TEXTSIZE
 40
0.2
  9
$TRACEWID
 40
0.05
  9
$TEXTSTYLE
  7
Standard
  9
$CLAYER
  8
0
  9
$CELTYPE
  6
ByLayer
  9
$CECOLOR
 62
   256
  9
$CELTSCALE
 40
1.0
  9
$DISPSILH
 70
     0
  9
$DIMSCALE
 40
1.0
  9
$DIMASZ
 40
0.18
  9
$DIMEXO
 40
0.0625
  9
$DIMDLI
 40
0.38
  9
$DIMRND
 40
0.0
  9
$DIMDLE
 40
0.0
  9
$DIMEXE
 40
0.18
  9
$DIMTP
 40
0.0
  9
$DIMTM
 40
0.0
  9
$DIMTXT
 40
0.18
  9
$DIMCEN
 40
0.09
  9
$DIMTSZ
 40
0.0
  9
$DIMTOL
 70
     0
  9
$DIMLIM
 70
     0
  9
$DIMTIH
 70
     1
  9
$DIMTOH
 70
     1
  9
$DIMSE1
 70
     0
  9
$DIMSE2
 70
     0
  9
$DIMTAD
 70
     0
  9
$DIMZIN
 70
     0
  9
$DIMBLK
  1

  9
$DIMASO
 70
     1
  9
$DIMSHO
 70
     1
  9
$DIMPOST
  1

  9
$DIMAPOST
  1

  9
$DIMALT
 70
     0
  9
$DIMALTD
 70
     2
  9
$DIMALTF
 40
25.4
  9
$DIMLFAC
 40
1.0
  9
$DIMTOFL
 70
     0
  9
$DIMTVP
 40
0.0
  9
$DIMTIX
 70
     0
  9
$DIMSOXD
 70
     0
  9
$DIMSAH
 70
     0
  9
$DIMBLK1
  1

  9
$DIMBLK2
  1

  9
$DIMSTYLE
  2
Standard
  9
$DIMCLRD
 70
     0
  9
$DIMCLRE
 70
     0
  9
$DIMCLRT
 70
     0
  9
$DIMTFAC
 40
1.0
  9
$DIMGAP
 40
0.09
  9
$DIMJUST
 70
     0
  9
$DIMSD1
 70
     0
  9
$DIMSD2
 70
     0
  9
$DIMTOLJ
 70
     1
  9
$DIMTZIN
 70
     0
  9
$DIMALTZ
 70
     0
  9
$DIMALTTZ
 70
     0
  9
$DIMUPT
 70
     0
  9
$DIMDEC
 70
     4
  9
$DIMTDEC
 70
     4
  9
$DIMALTU
 70
     2
  9
$DIMALTTD
 70
     2
  9
$DIMTXSTY
  7
Standard
  9
$DIMAUNIT
 70
     0
  9
$DIMADEC
 70
     0
  9
$DIMALTRND
 40
0.0
  9
$DIMAZIN
 70
     0
  9
$DIMDSEP
 70
    46
  9
$DIMATFIT
 70
     3
  9
$DIMFRAC
 70
     0
  9
$DIMLDRBLK
  1

  9
$DIMLUNIT
 70
     2
  9
$DIMLWD
 70
    -2
  9
$DIMLWE
 70
    -2
  9
$DIMTMOVE
 70
     0
  9
$LUNITS
 70
     2
  9
$LUPREC
 70
     4
  9
$SKETCHINC
 40
0.1
  9
$FILLETRAD
 40
0.5
  9
$AUNITS
 70
     0
  9
$AUPREC
 70
     0
  9
$MENU
  1
.
  9
$ELEVATION
 40
0.0
  9
$PELEVATION
 40
0.0
  9
$THICKNESS
 40
0.0
  9
$LIMCHECK
 70
     0
  9
$CHAMFERA
 40
0.0
  9
$CHAMFERB
 40
0.0
  9
$CHAMFERC
 40
0.0
  9
$CHAMFERD
 40
0.0
  9
$SKPOLY
 70
     0
  9
$TDCREATE
 40
2458771.681251667
  9
$TDUCREATE
 40
2458771.597918333
  9
$TDUPDATE
 40
2458771.681251979
  9
$TDUUPDATE
 40
2458771.597918646
  9
$TDINDWG
 40
0.0000000116
  9
$TDUSRTIMER
 40
0.0000000116
  9
$USRTIMER
 70
     1
  9
$ANGBASE
 50
0.0
  9
$ANGDIR
 70
     0
  9
$PDMODE
 70
     0
  9
$PDSIZE
 40
0.0
  9
$PLINEWID
 40
0.0
  9
$SPLFRAME
 70
     0
  9
$SPLINETYPE
 70
     6
  9
$SPLINESEGS
 70
     8
  9
$HANDSEED
  5
386
  9
$SURFTAB1
 70
     6
  9
$SURFTAB2
 70
     6
  9
$SURFTYPE
 70
     6
  9
$SURFU
 70
     6
  9
$SURFV
 70
     6
  9
$UCSBASE
  2

  9
$UCSNAME
  2

  9
$UCSORG
 10
0.0
 20
0.0
 30
0.0
  9
$UCSXDIR
 10
1.0
 20
0.0
 30
0.0
  9
$UCSYDIR
 10
0.0
 20
1.0
 30
0.0
  9
$UCSORTHOREF
  2

  9
$UCSORTHOVIEW
 70
     0
  9
$UCSORGTOP
 10
0.0
 20
0.0
 30
0.0
  9
$UCSORGBOTTOM
 10
0.0
 20
0.0
 30
0.0
  9
$UCSORGLEFT
 10
0.0
 20
0.0
 30
0.0
  9
$UCSORGRIGHT
 10
0.0
 20
0.0
 30
0.0
  9
$UCSORGFRONT
 10
0.0
 20
0.0
 30
0.0
  9
$UCSORGBACK
 10
0.0
 20
0.0
 30
0.0
  9
$PUCSBASE
  2

  9
$PUCSNAME
  2

  9
$PUCSORG
 10
0.0
 20
0.0
 30
0.0
  9
$PUCSXDIR
 10
1.0
 20
0.0
 30
0.0
  9
$PUCSYDIR
 10
0.0
 20
1.0
 30
0.0
  9
$PUCSORTHOREF
  2

  9
$PUCSORTHOVIEW
 70
     0
  9
$PUCSORGTOP
 10
0.0
 20
0.0
 30
0.0
  9
$PUCSORGBOTTOM
 10
0.0
 20
0.0
 30
0.0
  9
$PUCSORGLEFT
 10
0.0
 20
0.0
 30
0.0
  9
$PUCSORGRIGHT
 10
0.0
 20
0.0
 30
0.0
  9
$PUCSORGFRONT
 10
0.0
 20
0.0
 30
0.0
  9
$PUCSORGBACK
 10
0.0
 20
0.0
 30
0.0
  9
$USERI1
 70
     0
  9
$USERI2
 70
     0
  9
$USERI3
 70
     0
  9
$USERI4
 70
     0
  9
$USERI5
 70
     0
  9
$USERR1
 40
20.0
  9
$USERR2
 40
0.0
  9
$USERR3
 40
0.0
  9
$USERR4
 40
0.0
  9
$USERR5
 40
0.0
  9
$WORLDVIEW
 70
     1
  9
$SHADEDGE
 70
     3
  9
$SHADEDIF
 70
    70
  9
$TILEMODE
 70
     1
  9
$MAXACTVP
 70
    64
  9
$PINSBASE
 10
0.0
 20
0.0
 30
0.0
  9
$PLIMCHECK
 70
     0
  9
$PEXTMIN
 10
1.00000000000000E+20
 20
1.00000000000000E+20
 30
1.00000000000000E+20
  9
$PEXTMAX
 10
-1.00000000000000E+20
 20
-1.00000000000000E+20
 30
-1.00000000000000E+20
  9
$PLIMMIN
 10
0.0
 20
0.0
  9
$PLIMMAX
 10
12.0
 20
9.0
  9
$UNITMODE
 70
     0
  9
$VISRETAIN
 70
     1
  9
$PLINEGEN
 70
     0
  9
$PSLTSCALE
 70
     1
  9
$TREEDEPTH
 70
  3020
  9
$CMLSTYLE
  2
Standard
  9
$CMLJUST
 70
     0
  9
$CMLSCALE
 40
1.0
  9
$PROXYGRAPHICS
 70
     1
  9
$MEASUREMENT
 70
     1
  9
$CELWEIGHT
370
    -1
  9
$ENDCAPS
280
     0
  9
$JOINSTYLE
280
     0
  9
$LWDISPLAY
290
     0
  9
$INSUNITS
 70
     4
  9
$HYPERLINKBASE
  1

  9
$STYLESHEET
  1

  9
$XEDIT
290
     1
  9
$CEPSNTYPE
380
     0
  9
$PSTYLEMODE
290
     1
  9
$FINGERPRINTGUID
  2
{67158D60-3B58-40B7-B8CB-968E51AD1F95}
  9
$VERSIONGUID
  2
{FAEB1C32-E019-11D5-929B-00C0DF256EC4}
  9
$EXTNAMES
290
     1
  9
$PSVPSCALE
 40
0.0
  9
$OLESTARTUP
290
     0
  0
ENDSEC
  0
SECTION
  2
CLASSES
  0
CLASS
  1
ACDBDICTIONARYWDFLT
  2
AcDbDictionaryWithDefault
  3
ObjectDBX Classes
 90
        0
280
     0
281
     0
  0
CLASS
  1
VISUALSTYLE
  2
AcDbVisualStyle
  3
ObjectDBX Classes
 90
     4095
280
     0
281
     0
  0
CLASS
  1
MATERIAL
  2
AcDbMaterial
  3
ObjectDBX Classes
 90
     1153
280
     0
281
     0
  0
CLASS
  1
SCALE
  2
AcDbScale
  3
ObjectDBX Classes
 90
     1153
280
     0
281
     0
  0
CLASS
  1
TABLESTYLE
  2
AcDbTableStyle
  3
ObjectDBX Classes
 90
     4095
280
     0
281
     0
  0
CLASS
  1
MLEADERSTYLE
  2
AcDbMLeaderStyle
  3
ACDB_MLEADERSTYLE_CLASS
 90
     4095
280
     0
281
     0
  0
CLASS
  1
SUN
  2
AcDbSun
  3
SCENEOE
 90
     1153
280
     0
281
     0
  0
CLASS
  1
DICTIONARYVAR
  2
AcDbDictionaryVar
  3
ObjectDBX Classes
 90
        0
280
     0
281
     0
  0
CLASS
  1
ACDBPLACEHOLDER
  2
AcDbPlaceHolder
  3
ObjectDBX Classes
 90
        0
280
     0
281
     0
  0
CLASS
  1
LAYOUT
  2
AcDbLayout
  3
ObjectDBX Classes
 90
        0
280
     0
281
     0
  0
ENDSEC
  0
SECTION
  2
TABLES
  0
TABLE
  2
VPORT
  5
8
102
{ACAD_XDICTIONARY
360
349
102
}
330
0
100
AcDbSymbolTable
 70
     1
  0
VPORT
  5
29
330
8
100
AcDbSymbolTableRecord
100
AcDbViewportTableRecord
  2
*Active
 70
     0
 10
0.0
 20
0.0
 11
1.0
 21
1.0
 12
-5071.920406541925
 22
2997.82117714338
 13
0.0
 23
0.0
 14
0.5
 24
0.5
 15
0.5
 25
0.5
 16
0.0
 26
0.0
 36
1.0
 17
0.0
 27
0.0
 37
0.0
 40
375.5499270165718
 41
1.60267857142857
 42
50.0
 43
0.0
 44
0.0
 50
0.0
 51
0.0
 71
     0
 72
   100
 73
     1
 74
     3
 75
     0
 76
     0
 77
     0
 78
     0
281
     0
 65
     1
110
0.0
120
0.0
130
0.0
111
1.0
121
0.0
131
0.0
112
0.0
122
1.0
132
0.0
 79
     0
146
0.0
  0
ENDTAB
  0
TABLE
  2
LTYPE
  5
5
330
0
100
AcDbSymbolTable
 70
     8
  0
LTYPE
  5
14
330
5
100
AcDbSymbolTableRecord
100
AcDbLinetypeTableRecord
  2
ByBlock
 70
     0
  3

 72
    65
 73
     0
 40
0.0
  0
LTYPE
  5
15
330
5
100
AcDbSymbolTableRecord
100
AcDbLinetypeTableRecord
  2
ByLayer
 70
     0
  3

 72
    65
 73
     0
 40
0.0
  0
LTYPE
  5
16
330
5
100
AcDbSymbolTableRecord
100
AcDbLinetypeTableRecord
  2
Continuous
 70
     0
  3
Solid line
 72
    65
 73
     0
 40
0.0
  0
LTYPE
  5
6E
330
5
100
AcDbSymbolTableRecord
100
AcDbLinetypeTableRecord
  2
DASHED
 70
     0
  3
Dashed
 72
    65
 73
     2
 40
15.0
 49
7.0
 74
     0
 49
-8.0
 74
     0
  0
LTYPE
  5
6F
330
5
100
AcDbSymbolTableRecord
100
AcDbLinetypeTableRecord
  2
DOTTED
 70
     0
  3
Dotted
 72
    65
 73
     2
 40
1.0
 49
0.0
 74
     0
 49
-1.0
 74
     0
  0
LTYPE
  5
70
330
5
100
AcDbSymbolTableRecord
100
AcDbLinetypeTableRecord
  2
DOT_CENTER
 70
     0
  3
Dot_Center
 72
    65
 73
     4
 40
14.0
 49
12.0
 74
     0
 49
-1.0
 74
     0
 49
0.0
 74
     0
 49
-1.0
 74
     0
  0
LTYPE
  5
71
330
5
100
AcDbSymbolTableRecord
100
AcDbLinetypeTableRecord
  2
LONG_DASHED
 70
     0
  3
Long_Dashed
 72
    65
 73
     2
 40
15.0
 49
10.0
 74
     0
 49
-5.0
 74
     0
  0
LTYPE
  5
72
330
5
100
AcDbSymbolTableRecord
100
AcDbLinetypeTableRecord
  2
DASH_CENTER
 70
     0
  3
Dash_Center
 72
    65
 73
     4
 40
14.0
 49
11.0
 74
     0
 49
-1.0
 74
     0
 49
1.0
 74
     0
 49
-1.0
 74
     0
  0
LTYPE
  5
73
330
5
100
AcDbSymbolTableRecord
100
AcDbLinetypeTableRecord
  2
PHANTOM
 70
     0
  3
Phantom
 72
    65
 73
     6
 40
13.0
 49
10.0
 74
     0
 49
-1.0
 74
     0
 49
0.0
 74
     0
 49
-1.0
 74
     0
 49
0.0
 74
     0
 49
-1.0
 74
     0
  0
LTYPE
  5
74
330
5
100
AcDbSymbolTableRecord
100
AcDbLinetypeTableRecord
  2
CENTER_DASH_DASH
 70
     0
  3
Center_Dash_Dash
 72
    65
 73
     6
 40
14.0
 49
9.0
 74
     0
 49
-1.0
 74
     0
 49
1.0
 74
     0
 49
-1.0
 74
     0
 49
1.0
 74
     0
 49
-1.0
 74
     0
  0
ENDTAB
  0
TABLE
  2
LAYER
  5
2
330
0
100
AcDbSymbolTable
 70
     2
  0
LAYER
  5
10
330
2
100
AcDbSymbolTableRecord
100
AcDbLayerTableRecord
  2
0
 70
     0
 62
     7
  6
Continuous
370
    -3
390
F
  0
LAYER
  5
75
330
2
100
AcDbSymbolTableRecord
100
AcDbLayerTableRecord
  2
1
 70
     0
 62
     7
  6
Continuous
370
    -3
390
F
  0
ENDTAB
  0
TABLE
  2
STYLE
  5
3
330
0
100
AcDbSymbolTable
 70
     2
  0
STYLE
  5
11
330
3
100
AcDbSymbolTableRecord
100
AcDbTextStyleTableRecord
  2
Standard
 70
     0
 40
0.0
 41
1.0
 50
0.0
 71
     0
 42
0.2
  3
txt
  4

  0
STYLE
  5
9B
330
3
100
AcDbSymbolTableRecord
100
AcDbTextStyleTableRecord
  2
CONVERTER_11
 70
     0
 40
0.0
 41
0.9
 50
0.0
 71
     0
 42
0.2
  3
txt.shx
  4

  0
ENDTAB
  0
TABLE
  2
VIEW
  5
6
330
0
100
AcDbSymbolTable
 70
     0
  0
ENDTAB
  0
TABLE
  2
UCS
  5
7
330
0
100
AcDbSymbolTable
 70
     0
  0
ENDTAB
  0
TABLE
  2
APPID
  5
9
330
0
100
AcDbSymbolTable
 70
     2
  0
APPID
  5
12
330
9
100
AcDbSymbolTableRecord
100
AcDbRegAppTableRecord
  2
ACAD
 70
     0
  0
APPID
  5
383
330
9
100
AcDbSymbolTableRecord
100
AcDbRegAppTableRecord
  2
ACAD_MLEADERVER
 70
     0
  0
ENDTAB
  0
TABLE
  2
DIMSTYLE
  5
A
330
0
100
AcDbSymbolTable
 70
     9
100
AcDbDimStyleTable
  0
DIMSTYLE
105
27
330
A
100
AcDbSymbolTableRecord
100
AcDbDimStyleTableRecord
  2
Standard
 70
     0
178
     0
340
11
  0
DIMSTYLE
105
27E
102
{ACAD_REACTORS
330
27F
102
}
330
A
100
AcDbSymbolTableRecord
100
AcDbDimStyleTableRecord
  2
ME10_DIM_10
 70
     0
 41
10.0
 42
0.0
 44
2.0
 73
     0
 74
     0
 77
     1
 78
     8
140
10.0
147
4.0
172
     1
173
     1
174
     1
175
     1
176
     4
177
     4
271
     0
178
     1
271
     0
340
9B
  0
DIMSTYLE
105
28B
102
{ACAD_REACTORS
330
28C
102
}
330
A
100
AcDbSymbolTableRecord
100
AcDbDimStyleTableRecord
  2
ME10_DIM_11
 70
     0
 41
10.0
 42
0.0
 44
2.0
 73
     0
 74
     0
 77
     1
 78
     8
140
10.0
147
4.0
172
     1
173
     1
174
     1
175
     1
176
     4
177
     4
271
     2
178
     1
271
     2
340
9B
  0
DIMSTYLE
105
296
102
{ACAD_REACTORS
330
297
102
}
330
A
100
AcDbSymbolTableRecord
100
AcDbDimStyleTableRecord
  2
ME10_DIM_12
 70
     0
  3
{\Fgdt;n}<>
 41
10.0
 42
0.0
 44
2.0
 73
     0
 74
     0
 77
     1
 78
     8
140
10.0
147
4.0
172
     1
173
     1
174
     1
175
     1
176
     4
177
     4
271
     2
178
     1
271
     2
340
9B
  0
DIMSTYLE
105
2A1
102
{ACAD_REACTORS
330
2A2
102
}
330
A
100
AcDbSymbolTableRecord
100
AcDbDimStyleTableRecord
  2
ME10_DIM_13
 70
     0
  3
 {\Fgdt;n}<>
 41
10.0
 42
0.0
 44
2.0
 73
     0
 74
     0
 77
     1
 78
     8
140
10.0
147
4.0
172
     1
173
     1
174
     1
175
     1
176
     4
177
     4
271
     2
178
     1
271
     2
340
9B
  0
DIMSTYLE
105
2AC
102
{ACAD_REACTORS
330
2AD
102
}
330
A
100
AcDbSymbolTableRecord
100
AcDbDimStyleTableRecord
  2
ME10_DIM_14
 70
     0
 41
10.0
 42
0.0
 44
2.0
 73
     0
 74
     0
 77
     1
 78
     8
140
10.0
147
4.0
172
     1
173
     1
174
     1
175
     1
176
     4
177
     4
271
     2
178
     1
271
     2
340
9B
  0
DIMSTYLE
105
32A
102
{ACAD_REACTORS
330
32B
102
}
330
A
100
AcDbSymbolTableRecord
100
AcDbDimStyleTableRecord
  2
ME10_DIM_15
 70
     0
 41
10.0
 42
0.0
 44
2.0
 73
     0
 74
     0
 77
     1
 78
     8
140
10.0
147
4.0
172
     1
173
     1
174
     1
175
     1
176
     4
177
     4
271
     2
178
     1
271
     2
340
9B
  0
DIMSTYLE
105
335
102
{ACAD_REACTORS
330
336
102
}
330
A
100
AcDbSymbolTableRecord
100
AcDbDimStyleTableRecord
  2
ME10_DIM_16
 70
     0
 41
10.0
 42
0.0
 44
2.0
 73
     0
 74
     0
 77
     1
 78
     8
140
10.0
147
4.0
172
     1
173
     1
174
     1
175
     1
176
     4
177
     4
271
     0
178
     1
271
     0
340
9B
  0
DIMSTYLE
105
340
102
{ACAD_REACTORS
330
341
102
}
330
A
100
AcDbSymbolTableRecord
100
AcDbDimStyleTableRecord
  2
ME10_DIM_17
 70
     0
 41
10.0
 42
0.0
 44
2.0
 73
     0
 74
     0
 77
     1
 78
     8
140
10.0
147
4.0
172
     1
173
     1
174
     1
175
     1
176
     4
177
     4
271
     0
178
     1
271
     0
340
9B
  0
ENDTAB
  0
TABLE
  2
BLOCK_RECORD
  5
1
330
0
100
AcDbSymbolTable
 70
    18
  0
BLOCK_RECORD
  5
1F
330
1
100
AcDbSymbolTableRecord
100
AcDbBlockTableRecord
  2
*Model_Space
340
22
  0
BLOCK_RECORD
  5
1B
330
1
100
AcDbSymbolTableRecord
100
AcDbBlockTableRecord
  2
*Paper_Space
340
1E
  0
BLOCK_RECORD
  5
23
330
1
100
AcDbSymbolTableRecord
100
AcDbBlockTableRecord
  2
*Paper_Space0
340
26
  0
BLOCK_RECORD
  5
76
330
1
100
AcDbSymbolTableRecord
100
AcDbBlockTableRecord
  2
Ausbruch1
340
0
102
{BLKREFS
331
85
102
}
  0
BLOCK_RECORD
  5
79
330
1
100
AcDbSymbolTableRecord
100
AcDbBlockTableRecord
  2
HL0114D-330057750__1
340
0
102
{BLKREFS
331
80
102
}
  0
BLOCK_RECORD
  5
7C
330
1
100
AcDbSymbolTableRecord
100
AcDbBlockTableRecord
  2
301057751_Notentwässerung__2
340
0
102
{BLKREFS
331
81
102
}
  0
BLOCK_RECORD
  5
7F
330
1
100
AcDbSymbolTableRecord
100
AcDbBlockTableRecord
  2
HL163Safe-WEB-Zeichnung__3
340
0
102
{BLKREFS
331
86
102
}
  0
BLOCK_RECORD
  5
84
330
1
100
AcDbSymbolTableRecord
100
AcDbBlockTableRecord
  2
Untsicht1
340
0
102
{BLKREFS
331
98
102
}
  0
BLOCK_RECORD
  5
89
330
1
100
AcDbSymbolTableRecord
100
AcDbBlockTableRecord
  2
HL0114D-330057750__4
340
0
102
{BLKREFS
331
90
102
}
  0
BLOCK_RECORD
  5
8C
330
1
100
AcDbSymbolTableRecord
100
AcDbBlockTableRecord
  2
301057751_Notentwässerung__5
340
0
102
{BLKREFS
331
91
102
}
  0
BLOCK_RECORD
  5
8F
330
1
100
AcDbSymbolTableRecord
100
AcDbBlockTableRecord
  2
HL163Safe-WEB-Zeichnung__6
340
0
102
{BLKREFS
331
95
102
}
  0
BLOCK_RECORD
  5
94
330
1
100
AcDbSymbolTableRecord
100
AcDbBlockTableRecord
  2
Vordans2
340
0
102
{BLKREFS
331
99
102
}
  0
BLOCK_RECORD
  5
275
330
1
100
AcDbSymbolTableRecord
100
AcDbBlockTableRecord
  2
*D10
340
0
  0
BLOCK_RECORD
  5
280
330
1
100
AcDbSymbolTableRecord
100
AcDbBlockTableRecord
  2
*D11
340
0
  0
BLOCK_RECORD
  5
28D
330
1
100
AcDbSymbolTableRecord
100
AcDbBlockTableRecord
  2
*D12
340
0
  0
BLOCK_RECORD
  5
298
330
1
100
AcDbSymbolTableRecord
100
AcDbBlockTableRecord
  2
*D13
340
0
  0
BLOCK_RECORD
  5
2A3
330
1
100
AcDbSymbolTableRecord
100
AcDbBlockTableRecord
  2
*D14
340
0
  0
BLOCK_RECORD
  5
320
330
1
100
AcDbSymbolTableRecord
100
AcDbBlockTableRecord
  2
*D15
340
0
  0
BLOCK_RECORD
  5
32C
330
1
100
AcDbSymbolTableRecord
100
AcDbBlockTableRecord
  2
*D16
340
0
  0
BLOCK_RECORD
  5
337
330
1
100
AcDbSymbolTableRecord
100
AcDbBlockTableRecord
  2
*D17
340
0
  0
ENDTAB
  0
ENDSEC
  0
SECTION
  2
BLOCKS
  0
BLOCK
  5
20
330
1F
100
AcDbEntity
  8
0
100
AcDbBlockBegin
  2
*Model_Space
 70
     0
 10
0.0
 20
0.0
 30
0.0
  3
*Model_Space
  1

  0
ENDBLK
  5
21
330
1F
100
AcDbEntity
  8
0
100
AcDbBlockEnd
  0
BLOCK
  5
1C
330
1B
100
AcDbEntity
 67
     1
  8
0
100
AcDbBlockBegin
  2
*Paper_Space
 70
     0
 10
0.0
 20
0.0
 30
0.0
  3
*Paper_Space
  1

  0
ENDBLK
  5
1D
330
1B
100
AcDbEntity
 67
     1
  8
0
100
AcDbBlockEnd
  0
BLOCK
  5
24
330
23
100
AcDbEntity
  8
0
100
AcDbBlockBegin
  2
*Paper_Space0
 70
     0
 10
0.0
 20
0.0
 30
0.0
  3
*Paper_Space0
  1

  0
ENDBLK
  5
25
330
23
100
AcDbEntity
  8
0
100
AcDbBlockEnd
  0
BLOCK
  5
77
330
76
100
AcDbEntity
  8
0
100
AcDbBlockBegin
  2
Ausbruch1
 70
     0
 10
-5070.327404377273
 20
3026.057876982146
 30
0.0
  3
Ausbruch1
  1

  0
LWPOLYLINE
  5
9A
330
76
100
AcDbEntity
  8
1
  6
DOT_CENTER
 62
     2
100
AcDbPolyline
 90
        2
 70
     1
 43
0.35
 10
-5070.327404377273
 20
3060.557876982146
 42
1.0
 10
-5001.327404377273
 20
3060.557876982146
 42
1.0
  0
MTEXT
  5
9C
330
76
100
AcDbEntity
  8
1
 62
     1
100
AcDbMText
 10
-5035.827404377273
 20
3021.057876982146
 30
0.0
 40
3.5
 41
0.0
 71
     2
 72
     1
  1
 
  7
CONVERTER_11
 73
     1
 44
1.32052821128451
  0
ENDBLK
  5
78
330
76
100
AcDbEntity
  8
0
100
AcDbBlockEnd
  0
BLOCK
  5
7A
330
79
100
AcDbEntity
  8
0
100
AcDbBlockBegin
  2
HL0114D-330057750__1
 70
     0
 10
-5238.900003814342
 20
3034.602032452824
 30
0.0
  3
HL0114D-330057750__1
  1

  0
LINE
  5
9D
330
79
100
AcDbEntity
  8
0
  6
Continuous
 62
     7
100
AcDbLine
 10
-5231.800704395187
 20
3041.234008516963
 30
0.0
 11
-5230.083251416071
 21
3034.824386739293
 31
0.0
  0
LINE
  5
9E
330
79
100
AcDbEntity
  8
0
  6
Continuous
 62
     7
100
AcDbLine
 10
-5236.493473668184
 20
3041.104598994411
 30
0.0
 11
-5236.493473668184
 21
3034.902032452823
 31
0.0
  0
LINE
  5
9F
330
79
100
AcDbEntity
  8
0
  6
Continuous
 62
     3
100
AcDbLine
 10
-5237.083251416071
 20
3082.104598994411
 30
0.0
 11
-5237.083251416071
 21
3034.824386739293
 31
0.0
  0
LINE
  5
A0
330
79
100
AcDbEntity
  8
0
  6
Continuous
 62
     3
100
AcDbLine
 10
-5237.083251416071
 20
3129.38481124953
 30
0.0
 11
-5237.083251416071
 21
3082.104598994411
 31
0.0
  0
LINE
  5
A1
330
79
100
AcDbEntity
  8
0
  6
Continuous
 62
     7
100
AcDbLine
 10
-5238.900003814342
 20
3082.104598994411
 30
0.0
 11
-5238.900003814342
 21
3041.604598994411
 31
0.0
  0
LINE
  5
A2
330
79
100
AcDbEntity
  8
0
  6
Continuous
 62
     7
100
AcDbLine
 10
-5238.900003814342
 20
3122.604598994411
 30
0.0
 11
-5238.900003814342
 21
3082.104598994411
 31
0.0
  0
LINE
  5
A3
330
79
100
AcDbEntity
  8
0
  6
Continuous
 62
     7
100
AcDbLine
 10
-5236.493473668184
 20
3129.307165535999
 30
0.0
 11
-5236.493473668184
 21
3123.104598994411
 31
0.0
  0
LINE
  5
A4
330
79
100
AcDbEntity
  8
0
  6
Continuous
 62
     7
100
AcDbLine
 10
-5236.493473668184
 20
3123.104598994411
 30
0.0
 11
-5236.493473668184
 21
3041.104598994411
 31
0.0
  0
LINE
  5
A5
330
79
100
AcDbEntity
  8
0
  6
Continuous
 62
     3
100
AcDbLine
 10
-5231.800704395187
 20
3122.97518947186
 30
0.0
 11
-5231.800704395187
 21
3041.234008516963
 31
0.0
  0
LINE
  5
A6
330
79
100
AcDbEntity
  8
0
  6
Continuous
 62
     3
100
AcDbLine
 10
-5230.083251416071
 20
3129.38481124953
 30
0.0
 11
-5230.083251416071
 21
3082.104598994411
 31
0.0
  0
LINE
  5
A7
330
79
100
AcDbEntity
  8
0
  6
Continuous
 62
     3
100
AcDbLine
 10
-5232.283667308331
 20
3082.104598994411
 30
0.0
 11
-5232.283667308331
 21
3122.604598994411
 31
0.0
  0
LINE
  5
A8
330
79
100
AcDbEntity
  8
0
  6
Continuous
 62
     3
100
AcDbLine
 10
-5212.400003814342
 20
3082.104598994411
 30
0.0
 11
-5212.400003814342
 21
3122.604598994411
 31
0.0
  0
LINE
  5
A9
330
79
100
AcDbEntity
  8
0
  6
Continuous
 62
     3
100
AcDbLine
 10
-5214.993473668184
 20
3122.604598994411
 30
0.0
 11
-5214.993473668184
 21
3082.104598994411
 31
0.0
  0
LINE
  5
AA
330
79
100
AcDbEntity
  8
0
  6
Continuous
 62
     3
100
AcDbLine
 10
-5235.993473668184
 20
3122.604598994411
 30
0.0
 11
-5235.993473668184
 21
3041.604598994411
 31
0.0
  0
LINE
  5
AB
330
79
100
AcDbEntity
  8
0
  6
Continuous
 62
     7
100
AcDbLine
 10
-5235.993473668184
 20
3041.604598994411
 30
0.0
 11
-5232.283667308331
 21
3041.604598994411
 31
0.0
  0
LINE
  5
AC
330
79
100
AcDbEntity
  8
0
  6
Continuous
 62
     3
100
AcDbLine
 10
-5232.283667308331
 20
3041.604598994411
 30
0.0
 11
-5232.283667308331
 21
3082.104598994411
 31
0.0
  0
LINE
  5
AD
330
79
100
AcDbEntity
  8
0
  6
Continuous
 62
     7
100
AcDbLine
 10
-5211.900003814342
 20
3082.104598994411
 30
0.0
 11
-5211.900003814342
 21
3041.104598994411
 31
0.0
  0
LINE
  5
AE
330
79
100
AcDbEntity
  8
0
  6
Continuous
 62
     3
100
AcDbLine
 10
-5212.400003814342
 20
3041.604598994411
 30
0.0
 11
-5212.400003814342
 21
3082.104598994411
 31
0.0
  0
LINE
  5
AF
330
79
100
AcDbEntity
  8
0
  6
Continuous
 62
     3
100
AcDbLine
 10
-5214.993473668184
 20
3082.104598994411
 30
0.0
 11
-5214.993473668184
 21
3041.604598994411
 31
0.0
  0
LINE
  5
B0
330
79
100
AcDbEntity
  8
0
  6
Continuous
 62
     7
100
AcDbLine
 10
-5238.900003814342
 20
3122.604598994411
 30
0.0
 11
-5237.083251416071
 21
3129.38481124953
 31
0.0
  0
LINE
  5
B1
330
79
100
AcDbEntity
  8
0
  6
Continuous
 62
     7
100
AcDbLine
 10
-5238.900003814342
 20
3041.604598994411
 30
0.0
 11
-5237.083251416071
 21
3034.824386739293
 31
0.0
  0
LINE
  5
B2
330
79
100
AcDbEntity
  8
0
  6
Continuous
 62
     7
100
AcDbLine
 10
-5231.800704395187
 20
3122.97518947186
 30
0.0
 11
-5230.083251416071
 21
3129.38481124953
 31
0.0
  0
LINE
  5
B3
330
79
100
AcDbEntity
  8
0
  6
Continuous
 62
     7
100
AcDbLine
 10
-5228.993473668184
 20
3041.604598994411
 30
0.0
 11
-5225.283667308331
 21
3041.604598994411
 31
0.0
  0
LINE
  5
B4
330
79
100
AcDbEntity
  8
0
  6
Continuous
 62
     3
100
AcDbLine
 10
-5224.800704395187
 20
3122.97518947186
 30
0.0
 11
-5224.800704395187
 21
3041.234008516963
 31
0.0
  0
LINE
  5
B5
330
79
100
AcDbEntity
  8
0
  6
Continuous
 62
     3
100
AcDbLine
 10
-5225.283667308331
 20
3041.604598994411
 30
0.0
 11
-5225.283667308331
 21
3122.604598994411
 31
0.0
  0
LINE
  5
B6
330
79
100
AcDbEntity
  8
0
  6
Continuous
 62
     3
100
AcDbLine
 10
-5228.993473668184
 20
3082.104598994411
 30
0.0
 11
-5228.993473668184
 21
3041.604598994411
 31
0.0
  0
LINE
  5
B7
330
79
100
AcDbEntity
  8
0
  6
Continuous
 62
     7
100
AcDbLine
 10
-5224.800704395187
 20
3041.234008516963
 30
0.0
 11
-5223.083251416071
 21
3034.824386739293
 31
0.0
  0
LINE
  5
B8
330
79
100
AcDbEntity
  8
0
  6
Continuous
 62
     3
100
AcDbLine
 10
-5228.993473668184
 20
3122.604598994411
 30
0.0
 11
-5228.993473668184
 21
3082.104598994411
 31
0.0
  0
LINE
  5
B9
330
79
100
AcDbEntity
  8
0
  6
Continuous
 62
     7
100
AcDbLine
 10
-5229.493473668184
 20
3041.104598994411
 30
0.0
 11
-5229.493473668184
 21
3034.902032452823
 31
0.0
  0
LINE
  5
BA
330
79
100
AcDbEntity
  8
0
  6
Continuous
 62
     7
100
AcDbLine
 10
-5229.493473668184
 20
3129.307165535999
 30
0.0
 11
-5229.493473668184
 21
3123.104598994411
 31
0.0
  0
LINE
  5
BB
330
79
100
AcDbEntity
  8
0
  6
Continuous
 62
     7
100
AcDbLine
 10
-5229.493473668184
 20
3123.104598994411
 30
0.0
 11
-5229.493473668184
 21
3041.104598994411
 31
0.0
  0
LINE
  5
BC
330
79
100
AcDbEntity
  8
0
  6
Continuous
 62
     3
100
AcDbLine
 10
-5230.083251416071
 20
3082.104598994411
 30
0.0
 11
-5230.083251416071
 21
3034.824386739293
 31
0.0
  0
LINE
  5
BD
330
79
100
AcDbEntity
  8
0
  6
Continuous
 62
     7
100
AcDbLine
 10
-5215.493473668184
 20
3041.104598994411
 30
0.0
 11
-5215.493473668184
 21
3034.902032452823
 31
0.0
  0
LINE
  5
BE
330
79
100
AcDbEntity
  8
0
  6
Continuous
 62
     3
100
AcDbLine
 10
-5216.083251416071
 20
3082.104598994411
 30
0.0
 11
-5216.083251416071
 21
3034.824386739293
 31
0.0
  0
LINE
  5
BF
330
79
100
AcDbEntity
  8
0
  6
Continuous
 62
     7
100
AcDbLine
 10
-5222.493473668184
 20
3041.104598994411
 30
0.0
 11
-5222.493473668184
 21
3034.902032452823
 31
0.0
  0
LINE
  5
C0
330
79
100
AcDbEntity
  8
0
  6
Continuous
 62
     7
100
AcDbLine
 10
-5207.900003814342
 20
3035.9934878833
 30
0.0
 11
-5207.900003814342
 21
3035.604598994411
 31
0.0
  0
LINE
  5
C1
330
79
100
AcDbEntity
  8
0
  6
Continuous
 62
     7
100
AcDbLine
 10
-5207.900003814342
 20
3035.604598994411
 30
0.0
 11
-5209.900003814342
 21
3035.604598994411
 31
0.0
  0
LINE
  5
C2
330
79
100
AcDbEntity
  8
0
  6
Continuous
 62
     7
100
AcDbLine
 10
-5209.900003814342
 20
3035.604598994411
 30
0.0
 11
-5209.900003814342
 21
3035.9934878833
 31
0.0
  0
LINE
  5
C3
330
79
100
AcDbEntity
  8
0
  6
Continuous
 62
     3
100
AcDbLine
 10
-5223.083251416071
 20
3082.104598994411
 30
0.0
 11
-5223.083251416071
 21
3034.824386739293
 31
0.0
  0
LINE
  5
C4
330
79
100
AcDbEntity
  8
0
  6
Continuous
 62
     3
100
AcDbLine
 10
-5217.800704395187
 20
3122.97518947186
 30
0.0
 11
-5217.800704395187
 21
3041.234008516963
 31
0.0
  0
LINE
  5
C5
330
79
100
AcDbEntity
  8
0
  6
Continuous
 62
     3
100
AcDbLine
 10
-5216.083251416071
 20
3129.38481124953
 30
0.0
 11
-5216.083251416071
 21
3082.104598994411
 31
0.0
  0
LINE
  5
C6
330
79
100
AcDbEntity
  8
0
  6
Continuous
 62
     7
100
AcDbLine
 10
-5215.493473668184
 20
3129.307165535999
 30
0.0
 11
-5215.493473668184
 21
3123.104598994411
 31
0.0
  0
LINE
  5
C7
330
79
100
AcDbEntity
  8
0
  6
Continuous
 62
     7
100
AcDbLine
 10
-5215.493473668184
 20
3123.104598994411
 30
0.0
 11
-5215.493473668184
 21
3041.104598994411
 31
0.0
  0
LINE
  5
C8
330
79
100
AcDbEntity
  8
0
  6
Continuous
 62
     3
100
AcDbLine
 10
-5221.993473668184
 20
3122.604598994411
 30
0.0
 11
-5221.993473668184
 21
3041.604598994411
 31
0.0
  0
LINE
  5
C9
330
79
100
AcDbEntity
  8
0
  6
Continuous
 62
     3
100
AcDbLine
 10
-5218.283667308331
 20
3041.604598994411
 30
0.0
 11
-5218.283667308331
 21
3122.604598994411
 31
0.0
  0
LINE
  5
CA
330
79
100
AcDbEntity
  8
0
  6
Continuous
 62
     7
100
AcDbLine
 10
-5222.493473668184
 20
3129.307165535999
 30
0.0
 11
-5222.493473668184
 21
3123.104598994411
 31
0.0
  0
LINE
  5
CB
330
79
100
AcDbEntity
  8
0
  6
Continuous
 62
     7
100
AcDbLine
 10
-5222.493473668184
 20
3123.104598994411
 30
0.0
 11
-5222.493473668184
 21
3041.104598994411
 31
0.0
  0
LINE
  5
CC
330
79
100
AcDbEntity
  8
0
  6
Continuous
 62
     7
100
AcDbLine
 10
-5221.993473668184
 20
3041.604598994411
 30
0.0
 11
-5218.283667308331
 21
3041.604598994411
 31
0.0
  0
LINE
  5
CD
330
79
100
AcDbEntity
  8
0
  6
Continuous
 62
     3
100
AcDbLine
 10
-5223.083251416071
 20
3129.38481124953
 30
0.0
 11
-5223.083251416071
 21
3082.104598994411
 31
0.0
  0
LINE
  5
CE
330
79
100
AcDbEntity
  8
0
  6
Continuous
 62
     7
100
AcDbLine
 10
-5214.993473668184
 20
3041.604598994411
 30
0.0
 11
-5212.400003814342
 21
3041.604598994411
 31
0.0
  0
LINE
  5
CF
330
79
100
AcDbEntity
  8
0
  6
Continuous
 62
     7
100
AcDbLine
 10
-5211.900003814342
 20
3127.104598994411
 30
0.0
 11
-5211.900003814342
 21
3123.104598994411
 31
0.0
  0
LINE
  5
D0
330
79
100
AcDbEntity
  8
0
  6
Continuous
 62
     7
100
AcDbLine
 10
-5211.900003814342
 20
3123.104598994411
 30
0.0
 11
-5211.900003814342
 21
3082.104598994411
 31
0.0
  0
LINE
  5
D1
330
79
100
AcDbEntity
  8
0
  6
Continuous
 62
     7
100
AcDbLine
 10
-5211.900003814342
 20
3041.104598994411
 30
0.0
 11
-5211.900003814342
 21
3037.104598994411
 31
0.0
  0
LINE
  5
D2
330
79
100
AcDbEntity
  8
0
  6
Continuous
 62
     7
100
AcDbLine
 10
-5209.900003814342
 20
3037.104598994411
 30
0.0
 11
-5211.900003814342
 21
3037.104598994411
 31
0.0
  0
LINE
  5
D3
330
79
100
AcDbEntity
  8
0
  6
Continuous
 62
     7
100
AcDbLine
 10
-5209.900003814342
 20
3127.104598994411
 30
0.0
 11
-5211.900003814342
 21
3127.104598994411
 31
0.0
  0
LINE
  5
D4
330
79
100
AcDbEntity
  8
0
  6
Continuous
 62
     3
100
AcDbLine
 10
-5209.900003814342
 20
3035.9934878833
 30
0.0
 11
-5207.900003814342
 21
3035.9934878833
 31
0.0
  0
LINE
  5
D5
330
79
100
AcDbEntity
  8
0
  6
Continuous
 62
     7
100
AcDbLine
 10
-5207.900003814342
 20
3132.104598994411
 30
0.0
 11
-5209.900003814342
 21
3132.104598994411
 31
0.0
  0
LINE
  5
D6
330
79
100
AcDbEntity
  8
0
  6
Continuous
 62
     7
100
AcDbLine
 10
-5207.900003814342
 20
3132.104598994411
 30
0.0
 11
-5207.900003814342
 21
3035.9934878833
 31
0.0
  0
LINE
  5
D7
330
79
100
AcDbEntity
  8
0
  6
Continuous
 62
     7
100
AcDbLine
 10
-5209.900003814342
 20
3037.104598994411
 30
0.0
 11
-5209.900003814342
 21
3035.9934878833
 31
0.0
  0
LINE
  5
D8
330
79
100
AcDbEntity
  8
0
  6
Continuous
 62
     7
100
AcDbLine
 10
-5209.900003814342
 20
3132.104598994411
 30
0.0
 11
-5209.900003814342
 21
3127.104598994411
 31
0.0
  0
LINE
  5
D9
330
79
100
AcDbEntity
  8
0
  6
Continuous
 62
     7
100
AcDbLine
 10
-5209.900003814342
 20
3127.104598994411
 30
0.0
 11
-5209.900003814342
 21
3037.104598994411
 31
0.0
  0
LINE
  5
DA
330
79
100
AcDbEntity
  8
0
  6
Continuous
 62
     7
100
AcDbLine
 10
-5217.800704395187
 20
3041.234008516963
 30
0.0
 11
-5216.083251416071
 21
3034.824386739293
 31
0.0
  0
LINE
  5
DB
330
79
100
AcDbEntity
  8
0
  6
Continuous
 62
     7
100
AcDbLine
 10
-5217.800704395187
 20
3122.97518947186
 30
0.0
 11
-5216.083251416071
 21
3129.38481124953
 31
0.0
  0
LINE
  5
DC
330
79
100
AcDbEntity
  8
0
  6
Continuous
 62
     7
100
AcDbLine
 10
-5224.800704395187
 20
3122.97518947186
 30
0.0
 11
-5223.083251416071
 21
3129.38481124953
 31
0.0
  0
LINE
  5
DD
330
79
100
AcDbEntity
  8
0
  6
Continuous
 62
     7
100
AcDbLine
 10
-5228.993473668184
 20
3122.604598994411
 30
0.0
 11
-5225.283667308331
 21
3122.604598994411
 31
0.0
  0
LINE
  5
DE
330
79
100
AcDbEntity
  8
0
  6
Continuous
 62
     7
100
AcDbLine
 10
-5221.993473668184
 20
3122.604598994411
 30
0.0
 11
-5218.283667308331
 21
3122.604598994411
 31
0.0
  0
LINE
  5
DF
330
79
100
AcDbEntity
  8
0
  6
Continuous
 62
     7
100
AcDbLine
 10
-5214.993473668184
 20
3122.604598994411
 30
0.0
 11
-5212.400003814342
 21
3122.604598994411
 31
0.0
  0
LINE
  5
E0
330
79
100
AcDbEntity
  8
0
  6
Continuous
 62
     7
100
AcDbLine
 10
-5235.993473668184
 20
3122.604598994411
 30
0.0
 11
-5232.283667308331
 21
3122.604598994411
 31
0.0
  0
LINE
  5
E1
330
79
100
AcDbEntity
  8
1
  6
DOT_CENTER
 62
     2
100
AcDbLine
 10
-5241.13442536129
 20
3082.104598994413
 30
0.0
 11
-5206.150272031577
 21
3082.104598994411
 31
0.0
  0
LINE
  5
E2
330
79
100
AcDbEntity
  8
1
  6
DOT_CENTER
 62
     2
100
AcDbLine
 10
-5231.800704395187
 20
3082.104598994413
 30
0.0
 11
-5230.083251416071
 21
3082.104598994413
 31
0.0
  0
LINE
  5
E3
330
79
100
AcDbEntity
  8
1
  6
DOT_CENTER
 62
     2
100
AcDbLine
 10
-5228.993473668184
 20
3082.104598994411
 30
0.0
 11
-5225.283667308331
 21
3082.104598994411
 31
0.0
  0
LINE
  5
E4
330
79
100
AcDbEntity
  8
1
  6
DOT_CENTER
 62
     2
100
AcDbLine
 10
-5214.993473668184
 20
3082.104598994411
 30
0.0
 11
-5212.400003814342
 21
3082.104598994411
 31
0.0
  0
LINE
  5
E5
330
79
100
AcDbEntity
  8
1
  6
DOT_CENTER
 62
     2
100
AcDbLine
 10
-5224.800704395187
 20
3082.104598994413
 30
0.0
 11
-5223.083251416071
 21
3082.104598994413
 31
0.0
  0
LINE
  5
E6
330
79
100
AcDbEntity
  8
1
  6
DOT_CENTER
 62
     2
100
AcDbLine
 10
-5209.900003814342
 20
3082.104598994411
 30
0.0
 11
-5211.900003814342
 21
3082.104598994411
 31
0.0
  0
LINE
  5
E7
330
79
100
AcDbEntity
  8
1
  6
DOT_CENTER
 62
     2
100
AcDbLine
 10
-5235.993473668184
 20
3082.104598994411
 30
0.0
 11
-5232.283667308331
 21
3082.104598994411
 31
0.0
  0
LINE
  5
E8
330
79
100
AcDbEntity
  8
1
  6
DOT_CENTER
 62
     2
100
AcDbLine
 10
-5221.993473668184
 20
3082.104598994411
 30
0.0
 11
-5218.283667308331
 21
3082.104598994411
 31
0.0
  0
LINE
  5
E9
330
79
100
AcDbEntity
  8
1
  6
DOT_CENTER
 62
     2
100
AcDbLine
 10
-5217.800704395187
 20
3082.104598994413
 30
0.0
 11
-5216.083251416071
 21
3082.104598994413
 31
0.0
  0
ARC
  5
EA
330
79
100
AcDbEntity
  8
0
  6
Continuous
 62
     7
100
AcDbCircle
 10
-5236.793473668185
 20
3129.307165535999
 30
0.0
 40
0.3000000000001819
100
AcDbArc
 50
0.0
 51
164.9999999999966
  0
ARC
  5
EB
330
79
100
AcDbEntity
  8
0
  6
Continuous
 62
     7
100
AcDbCircle
 10
-5236.793473668185
 20
3034.902032452823
 30
0.0
 40
0.2999999999995892
100
AcDbArc
 50
194.9999999998357
 51
0.0
  0
ARC
  5
EC
330
79
100
AcDbEntity
  8
0
  6
Continuous
 62
     7
100
AcDbCircle
 10
-5212.400003814342
 20
3041.104598994411
 30
0.0
 40
0.5
100
AcDbArc
 50
0.0
 51
90.0
  0
ARC
  5
ED
330
79
100
AcDbEntity
  8
0
  6
Continuous
 62
     7
100
AcDbCircle
 10
-5235.993473668184
 20
3041.104598994411
 30
0.0
 40
0.5
100
AcDbArc
 50
90.0
 51
180.0
  0
ARC
  5
EE
330
79
100
AcDbEntity
  8
0
  6
Continuous
 62
     7
100
AcDbCircle
 10
-5214.993473668184
 20
3041.104598994411
 30
0.0
 40
0.5
100
AcDbArc
 50
90.0
 51
180.0
  0
ARC
  5
EF
330
79
100
AcDbEntity
  8
0
  6
Continuous
 62
     7
100
AcDbCircle
 10
-5232.283667308331
 20
3041.104598994411
 30
0.0
 40
0.5000000000002359
100
AcDbArc
 50
15.00000000009512
 51
90.0
  0
ARC
  5
F0
330
79
100
AcDbEntity
  8
0
  6
Continuous
 62
     7
100
AcDbCircle
 10
-5228.993473668184
 20
3041.104598994411
 30
0.0
 40
0.5
100
AcDbArc
 50
90.0
 51
180.0
  0
ARC
  5
F1
330
79
100
AcDbEntity
  8
0
  6
Continuous
 62
     7
100
AcDbCircle
 10
-5225.283667308331
 20
3041.104598994411
 30
0.0
 40
0.5000000000002359
100
AcDbArc
 50
15.00000000009512
 51
90.0
  0
ARC
  5
F2
330
79
100
AcDbEntity
  8
0
  6
Continuous
 62
     7
100
AcDbCircle
 10
-5229.793473668185
 20
3129.307165535999
 30
0.0
 40
0.3000000000001819
100
AcDbArc
 50
0.0
 51
164.9999999999966
  0
ARC
  5
F3
330
79
100
AcDbEntity
  8
0
  6
Continuous
 62
     7
100
AcDbCircle
 10
-5229.793473668185
 20
3034.902032452823
 30
0.0
 40
0.2999999999995892
100
AcDbArc
 50
194.9999999998357
 51
0.0
  0
ARC
  5
F4
330
79
100
AcDbEntity
  8
0
  6
Continuous
 62
     7
100
AcDbCircle
 10
-5215.793473668185
 20
3034.902032452823
 30
0.0
 40
0.2999999999995892
100
AcDbArc
 50
194.9999999998357
 51
0.0
  0
ARC
  5
F5
330
79
100
AcDbEntity
  8
0
  6
Continuous
 62
     7
100
AcDbCircle
 10
-5222.793473668185
 20
3034.902032452823
 30
0.0
 40
0.2999999999995892
100
AcDbArc
 50
194.9999999998357
 51
0.0
  0
ARC
  5
F6
330
79
100
AcDbEntity
  8
0
  6
Continuous
 62
     7
100
AcDbCircle
 10
-5222.793473668185
 20
3129.307165535999
 30
0.0
 40
0.3000000000001819
100
AcDbArc
 50
0.0
 51
164.9999999999966
  0
ARC
  5
F7
330
79
100
AcDbEntity
  8
0
  6
Continuous
 62
     7
100
AcDbCircle
 10
-5215.793473668185
 20
3129.307165535999
 30
0.0
 40
0.3000000000001819
100
AcDbArc
 50
0.0
 51
164.9999999999966
  0
ARC
  5
F8
330
79
100
AcDbEntity
  8
0
  6
Continuous
 62
     7
100
AcDbCircle
 10
-5218.283667308331
 20
3041.104598994411
 30
0.0
 40
0.5000000000002359
100
AcDbArc
 50
15.00000000009512
 51
90.0
  0
ARC
  5
F9
330
79
100
AcDbEntity
  8
0
  6
Continuous
 62
     7
100
AcDbCircle
 10
-5221.993473668184
 20
3041.104598994411
 30
0.0
 40
0.5
100
AcDbArc
 50
90.0
 51
180.0
  0
ARC
  5
FA
330
79
100
AcDbEntity
  8
0
  6
Continuous
 62
     7
100
AcDbCircle
 10
-5225.283667308331
 20
3123.104598994411
 30
0.0
 40
0.5
100
AcDbArc
 50
270.0
 51
345.0000000000559
  0
ARC
  5
FB
330
79
100
AcDbEntity
  8
0
  6
Continuous
 62
     7
100
AcDbCircle
 10
-5218.283667308331
 20
3123.104598994411
 30
0.0
 40
0.5
100
AcDbArc
 50
270.0
 51
345.0000000000559
  0
ARC
  5
FC
330
79
100
AcDbEntity
  8
0
  6
Continuous
 62
     7
100
AcDbCircle
 10
-5228.993473668184
 20
3123.104598994411
 30
0.0
 40
0.5
100
AcDbArc
 50
180.0
 51
270.0
  0
ARC
  5
FD
330
79
100
AcDbEntity
  8
0
  6
Continuous
 62
     7
100
AcDbCircle
 10
-5232.283667308331
 20
3123.104598994411
 30
0.0
 40
0.5
100
AcDbArc
 50
270.0
 51
345.0000000000559
  0
ARC
  5
FE
330
79
100
AcDbEntity
  8
0
  6
Continuous
 62
     7
100
AcDbCircle
 10
-5221.993473668184
 20
3123.104598994411
 30
0.0
 40
0.5
100
AcDbArc
 50
180.0
 51
270.0
  0
ARC
  5
FF
330
79
100
AcDbEntity
  8
0
  6
Continuous
 62
     7
100
AcDbCircle
 10
-5212.400003814342
 20
3123.104598994411
 30
0.0
 40
0.5
100
AcDbArc
 50
270.0
 51
0.0
  0
ARC
  5
100
330
79
100
AcDbEntity
  8
0
  6
Continuous
 62
     7
100
AcDbCircle
 10
-5214.993473668184
 20
3123.104598994411
 30
0.0
 40
0.5
100
AcDbArc
 50
180.0
 51
270.0
  0
ARC
  5
101
330
79
100
AcDbEntity
  8
0
  6
Continuous
 62
     7
100
AcDbCircle
 10
-5235.993473668184
 20
3123.104598994411
 30
0.0
 40
0.5
100
AcDbArc
 50
180.0
 51
270.0
  0
ENDBLK
  5
7B
330
79
100
AcDbEntity
  8
0
100
AcDbBlockEnd
  0
BLOCK
  5
7D
330
7C
100
AcDbEntity
  8
0
100
AcDbBlockBegin
  2
301057751_Notentwässerung__2
 70
     0
 10
-5158.400003814342
 20
3037.104598994411
 30
0.0
  3
301057751_Notentwässerung__2
  1

  0
LINE
  5
102
330
7C
100
AcDbEntity
  8
0
  6
Continuous
 62
     7
100
AcDbLine
 10
-5057.900003814342
 20
3119.604598994411
 30
0.0
 11
-5057.900003814342
 21
3134.604598994411
 31
0.0
  0
LINE
  5
103
330
7C
100
AcDbEntity
  8
0
  6
Continuous
 62
     3
100
AcDbLine
 10
-5036.097554182757
 20
3112.104598994411
 30
0.0
 11
-5033.792718471757
 21
3112.104598994411
 31
0.0
  0
LINE
  5
104
330
7C
100
AcDbEntity
  8
0
  6
Continuous
 62
     3
100
AcDbLine
 10
-5035.543309012374
 20
3111.79416533426
 30
0.0
 11
-5035.785021505471
 21
3111.483731674108
 31
0.0
  0
LINE
  5
105
330
7C
100
AcDbEntity
  8
0
  6
Continuous
 62
     7
100
AcDbLine
 10
-4951.194568500521
 20
3111.604598994411
 30
0.0
 11
-4952.560593904305
 21
3111.604598994411
 31
0.0
  0
LINE
  5
106
330
7C
100
AcDbEntity
  8
0
  6
Continuous
 62
     7
100
AcDbLine
 10
-4950.444568500521
 20
3111.604598994411
 30
0.0
 11
-4951.194568500521
 21
3111.604598994411
 31
0.0
  0
LINE
  5
107
330
7C
100
AcDbEntity
  8
0
  6
Continuous
 62
     3
100
AcDbLine
 10
-4950.810593904305
 20
3111.104598994411
 30
0.0
 11
-4950.877581202413
 21
3111.104598994411
 31
0.0
  0
LINE
  5
108
330
7C
100
AcDbEntity
  8
0
  6
Continuous
 62
     7
100
AcDbLine
 10
-4950.310593904305
 20
3111.604598994411
 30
0.0
 11
-4950.444568500521
 21
3111.604598994411
 31
0.0
  0
LINE
  5
109
330
7C
100
AcDbEntity
  8
0
  6
Continuous
 62
     7
100
AcDbLine
 10
-4946.247073389447
 20
3111.604598994411
 30
0.0
 11
-4947.507146900117
 21
3111.604598994411
 31
0.0
  0
LINE
  5
10A
330
7C
100
AcDbEntity
  8
0
  6
Continuous
 62
     7
100
AcDbLine
 10
-4945.783547897884
 20
3111.604598994411
 30
0.0
 11
-4946.247073389447
 21
3111.604598994411
 31
0.0
  0
LINE
  5
10B
330
7C
100
AcDbEntity
  8
0
  6
Continuous
 62
     3
100
AcDbLine
 10
-4946.23460441418
 20
3111.104598994411
 30
0.0
 11
-4946.259076156032
 21
3111.104598994411
 31
0.0
  0
LINE
  5
10C
330
7C
100
AcDbEntity
  8
0
  6
Continuous
 62
     7
100
AcDbLine
 10
-4945.73460441418
 20
3111.604598994411
 30
0.0
 11
-4945.783547897884
 21
3111.604598994411
 31
0.0
  0
LINE
  5
10D
330
7C
100
AcDbEntity
  8
0
  6
Continuous
 62
     3
100
AcDbLine
 10
-4951.627581202413
 20
3111.104598994411
 30
0.0
 11
-4952.310593904305
 21
3111.104598994411
 31
0.0
  0
LINE
  5
10E
330
7C
100
AcDbEntity
  8
0
  6
Continuous
 62
     3
100
AcDbLine
 10
-4950.877581202413
 20
3111.104598994411
 30
0.0
 11
-4951.627581202413
 21
3111.104598994411
 31
0.0
  0
LINE
  5
10F
330
7C
100
AcDbEntity
  8
0
  6
Continuous
 62
     3
100
AcDbLine
 10
-4952.310593904305
 20
3111.104598994411
 30
0.0
 11
-4954.351078778082
 21
3111.104598994411
 31
0.0
  0
LINE
  5
110
330
7C
100
AcDbEntity
  8
0
  6
Continuous
 62
     7
100
AcDbLine
 10
-4952.560593904305
 20
3111.604598994411
 30
0.0
 11
-4957.003618045577
 21
3111.604598994411
 31
0.0
  0
LINE
  5
111
330
7C
100
AcDbEntity
  8
0
  6
Continuous
 62
     7
100
AcDbLine
 10
-4957.003618045577
 20
3111.604598994411
 30
0.0
 11
-4957.2604732201
 21
3111.604598994411
 31
0.0
  0
LINE
  5
112
330
7C
100
AcDbEntity
  8
0
  6
Continuous
 62
     3
100
AcDbLine
 10
-4954.35218949197
 20
3111.104598994411
 30
0.0
 11
-4957.503618045577
 21
3111.104598994411
 31
0.0
  0
LINE
  5
113
330
7C
100
AcDbEntity
  8
0
  6
Continuous
 62
     7
100
AcDbLine
 10
-5001.500003814342
 20
3111.604598994411
 30
0.0
 11
-5009.000003814342
 21
3111.604598994411
 31
0.0
  0
LINE
  5
114
330
7C
100
AcDbEntity
  8
0
  6
Continuous
 62
     7
100
AcDbLine
 10
-4999.000003814342
 20
3111.604598994411
 30
0.0
 11
-5000.500003814342
 21
3111.604598994411
 31
0.0
  0
LINE
  5
115
330
7C
100
AcDbEntity
  8
0
  6
Continuous
 62
     7
100
AcDbLine
 10
-5000.500003814342
 20
3111.604598994411
 30
0.0
 11
-5001.500003814342
 21
3111.604598994411
 31
0.0
  0
LINE
  5
116
330
7C
100
AcDbEntity
  8
0
  6
Continuous
 62
     3
100
AcDbLine
 10
-5001.500003814342
 20
3111.104598994411
 30
0.0
 11
-5001.500003814342
 21
3111.604598994411
 31
0.0
  0
LINE
  5
117
330
7C
100
AcDbEntity
  8
0
  6
Continuous
 62
     3
100
AcDbLine
 10
-5000.500003814342
 20
3111.104598994411
 30
0.0
 11
-5000.500003814342
 21
3111.604598994411
 31
0.0
  0
LINE
  5
118
330
7C
100
AcDbEntity
  8
0
  6
Continuous
 62
     3
100
AcDbLine
 10
-5020.175632608791
 20
3112.104598994411
 30
0.0
 11
-5012.184064953135
 21
3112.104598994411
 31
0.0
  0
LINE
  5
119
330
7C
100
AcDbEntity
  8
0
  6
Continuous
 62
     3
100
AcDbLine
 10
-5031.271035904541
 20
3112.104598994411
 30
0.0
 11
-5023.705988202893
 21
3112.104598994411
 31
0.0
  0
LINE
  5
11A
330
7C
100
AcDbEntity
  8
0
  6
Continuous
 62
     7
100
AcDbLine
 10
-5012.500003814342
 20
3111.604598994411
 30
0.0
 11
-5020.000003814342
 21
3111.604598994411
 31
0.0
  0
LINE
  5
11B
330
7C
100
AcDbEntity
  8
0
  6
Continuous
 62
     7
100
AcDbLine
 10
-5023.500003814342
 20
3111.604598994411
 30
0.0
 11
-5031.000003814342
 21
3111.604598994411
 31
0.0
  0
LINE
  5
11C
330
7C
100
AcDbEntity
  8
0
  6
Continuous
 62
     3
100
AcDbLine
 10
-5012.500003814342
 20
3111.104598994411
 30
0.0
 11
-5012.500003814342
 21
3111.604598994411
 31
0.0
  0
LINE
  5
11D
330
7C
100
AcDbEntity
  8
0
  6
Continuous
 62
     3
100
AcDbLine
 10
-5031.000003814342
 20
3111.104598994411
 30
0.0
 11
-5031.000003814342
 21
3111.604598994411
 31
0.0
  0
LINE
  5
11E
330
7C
100
AcDbEntity
  8
0
  6
Continuous
 62
     3
100
AcDbLine
 10
-5023.500003814342
 20
3111.104598994411
 30
0.0
 11
-5023.500003814342
 21
3111.604598994411
 31
0.0
  0
LINE
  5
11F
330
7C
100
AcDbEntity
  8
0
  6
Continuous
 62
     7
100
AcDbLine
 10
-5009.000003814342
 20
3111.604598994411
 30
0.0
 11
-5010.000003814342
 21
3111.604598994411
 31
0.0
  0
LINE
  5
120
330
7C
100
AcDbEntity
  8
0
  6
Continuous
 62
     7
100
AcDbLine
 10
-5010.000003814342
 20
3111.604598994411
 30
0.0
 11
-5011.207424990156
 21
3111.604598994411
 31
0.0
  0
LINE
  5
121
330
7C
100
AcDbEntity
  8
0
  6
Continuous
 62
     3
100
AcDbLine
 10
-5009.000003814342
 20
3111.104598994411
 30
0.0
 11
-5009.000003814342
 21
3111.604598994411
 31
0.0
  0
LINE
  5
122
330
7C
100
AcDbEntity
  8
0
  6
Continuous
 62
     3
100
AcDbLine
 10
-5020.000003814342
 20
3111.104598994411
 30
0.0
 11
-5020.000003814342
 21
3111.604598994411
 31
0.0
  0
LINE
  5
123
330
7C
100
AcDbEntity
  8
0
  6
Continuous
 62
     7
100
AcDbLine
 10
-5012.077151271804
 20
3111.604598994411
 30
0.0
 11
-5012.500003814342
 21
3111.604598994411
 31
0.0
  0
LINE
  5
124
330
7C
100
AcDbEntity
  8
0
  6
Continuous
 62
     3
100
AcDbLine
 10
-5010.000003814342
 20
3111.104598994411
 30
0.0
 11
-5010.000003814342
 21
3111.604598994411
 31
0.0
  0
LINE
  5
125
330
7C
100
AcDbEntity
  8
0
  6
Continuous
 62
     3
100
AcDbLine
 10
-5031.000003814342
 20
3111.104598994411
 30
0.0
 11
-5031.500003814342
 21
3111.104598994411
 31
0.0
  0
LINE
  5
126
330
7C
100
AcDbEntity
  8
0
  6
Continuous
 62
     7
100
AcDbLine
 10
-4974.147235254784
 20
3111.604598994411
 30
0.0
 11
-4975.490961030403
 21
3111.604598994411
 31
0.0
  0
LINE
  5
127
330
7C
100
AcDbEntity
  8
0
  6
Continuous
 62
     7
100
AcDbLine
 10
-4991.904747817419
 20
3111.604598994411
 30
0.0
 11
-4998.000003814342
 21
3111.604598994411
 31
0.0
  0
LINE
  5
128
330
7C
100
AcDbEntity
  8
0
  6
Continuous
 62
     7
100
AcDbLine
 10
-4987.269382582588
 20
3111.604598994411
 30
0.0
 11
-4988.736603983689
 21
3111.604598994411
 31
0.0
  0
LINE
  5
129
330
7C
100
AcDbEntity
  8
0
  6
Continuous
 62
     7
100
AcDbLine
 10
-4988.736603983689
 20
3111.604598994411
 30
0.0
 11
-4989.922663275241
 21
3111.604598994411
 31
0.0
  0
LINE
  5
12A
330
7C
100
AcDbEntity
  8
0
  6
Continuous
 62
     7
100
AcDbLine
 10
-4989.922663275241
 20
3111.604598994411
 30
0.0
 11
-4991.904747817419
 21
3111.604598994411
 31
0.0
  0
LINE
  5
12B
330
7C
100
AcDbEntity
  8
0
  6
Continuous
 62
     3
100
AcDbLine
 10
-4999.000003814342
 20
3111.104598994411
 30
0.0
 11
-4999.000003814342
 21
3111.604598994411
 31
0.0
  0
LINE
  5
12C
330
7C
100
AcDbEntity
  8
0
  6
Continuous
 62
     7
100
AcDbLine
 10
-4998.000003814342
 20
3111.604598994411
 30
0.0
 11
-4999.000003814342
 21
3111.604598994411
 31
0.0
  0
LINE
  5
12D
330
7C
100
AcDbEntity
  8
0
  6
Continuous
 62
     7
100
AcDbLine
 10
-4986.499125832286
 20
3111.604122150068
 30
0.0
 11
-4987.269382582588
 21
3111.604598994411
 31
0.0
  0
LINE
  5
12E
330
7C
100
AcDbEntity
  8
0
  6
Continuous
 62
     7
100
AcDbLine
 10
-4982.652367153276
 20
3111.604598994411
 30
0.0
 11
-4986.499125832286
 21
3111.604122150068
 31
0.0
  0
LINE
  5
12F
330
7C
100
AcDbEntity
  8
0
  6
Continuous
 62
     7
100
AcDbLine
 10
-5057.900003814342
 20
3134.604598994411
 30
0.0
 11
-4941.600003814342
 21
3134.604598994411
 31
0.0
  0
LINE
  5
130
330
7C
100
AcDbEntity
  8
0
  6
Continuous
 62
     3
100
AcDbLine
 10
-5011.306795512062
 20
3112.104598994411
 30
0.0
 11
-4941.600003814342
 21
3112.104598994411
 31
0.0
  0
LINE
  5
131
330
7C
100
AcDbEntity
  8
0
  6
Continuous
 62
     7
100
AcDbLine
 10
-5023.000003814342
 20
3044.104598994411
 30
0.0
 11
-5023.000003814342
 21
3083.604598994411
 31
0.0
  0
LINE
  5
132
330
7C
100
AcDbEntity
  8
0
  6
Continuous
 62
     7
100
AcDbLine
 10
-5020.500003814342
 20
3083.604598994411
 30
0.0
 11
-5012.000003814342
 21
3083.604598994411
 31
0.0
  0
LINE
  5
133
330
7C
100
AcDbEntity
  8
0
  6
Continuous
 62
     7
100
AcDbLine
 10
-5020.500003814342
 20
3044.104598994411
 30
0.0
 11
-5020.500003814342
 21
3083.604598994411
 31
0.0
  0
LINE
  5
134
330
7C
100
AcDbEntity
  8
0
  6
Continuous
 62
     7
100
AcDbLine
 10
-5012.000003814342
 20
3044.104598994411
 30
0.0
 11
-5012.000003814342
 21
3083.604598994411
 31
0.0
  0
LINE
  5
135
330
7C
100
AcDbEntity
  8
0
  6
Continuous
 62
     7
100
AcDbLine
 10
-5009.500003814342
 20
3044.104598994411
 30
0.0
 11
-5009.500003814342
 21
3082.854019594745
 31
0.0
  0
LINE
  5
136
330
7C
100
AcDbEntity
  8
0
  6
Continuous
 62
     7
100
AcDbLine
 10
-5001.000003814342
 20
3037.104598994411
 30
0.0
 11
-5001.000003814342
 21
3083.604598994411
 31
0.0
  0
LINE
  5
137
330
7C
100
AcDbEntity
  8
0
  6
Continuous
 62
     7
100
AcDbLine
 10
-5031.500003814342
 20
3083.604598994411
 30
0.0
 11
-5023.000003814342
 21
3083.604598994411
 31
0.0
  0
LINE
  5
138
330
7C
100
AcDbEntity
  8
0
  6
Continuous
 62
     7
100
AcDbLine
 10
-5020.500003814342
 20
3039.104598994411
 30
0.0
 11
-5023.000003814342
 21
3039.104598994411
 31
0.0
  0
LINE
  5
139
330
7C
100
AcDbEntity
  8
0
  6
Continuous
 62
     7
100
AcDbLine
 10
-5023.000003814342
 20
3039.104598994411
 30
0.0
 11
-5023.000003814342
 21
3044.104598994411
 31
0.0
  0
LINE
  5
13A
330
7C
100
AcDbEntity
  8
0
  6
Continuous
 62
     7
100
AcDbLine
 10
-5034.53466278924
 20
3044.104598994411
 30
0.0
 11
-5031.500003814342
 21
3044.104598994411
 31
0.0
  0
LINE
  5
13B
330
7C
100
AcDbEntity
  8
0
  6
Continuous
 62
     7
100
AcDbLine
 10
-5035.177038762923
 20
3044.104598994411
 30
0.0
 11
-5034.53466278924
 21
3044.104598994411
 31
0.0
  0
LINE
  5
13C
330
7C
100
AcDbEntity
  8
0
  6
Continuous
 62
     7
100
AcDbLine
 10
-5012.000003814342
 20
3039.104598994411
 30
0.0
 11
-5012.000003814342
 21
3044.104598994411
 31
0.0
  0
LINE
  5
13D
330
7C
100
AcDbEntity
  8
0
  6
Continuous
 62
     3
100
AcDbLine
 10
-5035.177038762923
 20
3044.104598994411
 30
0.0
 11
-5035.177038762923
 21
3095.05174626437
 31
0.0
  0
LINE
  5
13E
330
7C
100
AcDbEntity
  8
0
  6
Continuous
 62
     3
100
AcDbLine
 10
-5033.792718471757
 20
3112.104598994411
 30
0.0
 11
-5033.792718471756
 21
3094.997825396283
 31
0.0
  0
LINE
  5
13F
330
7C
100
AcDbEntity
  8
0
  6
Continuous
 62
     3
100
AcDbLine
 10
-5034.53466278924
 20
3095.033648368464
 30
0.0
 11
-5034.53466278924
 21
3044.104598994411
 31
0.0
  0
LINE
  5
140
330
7C
100
AcDbEntity
  8
0
  6
Continuous
 62
     7
100
AcDbLine
 10
-5031.500003814342
 20
3083.604598994411
 30
0.0
 11
-5031.500003814342
 21
3044.104598994411
 31
0.0
  0
LINE
  5
141
330
7C
100
AcDbEntity
  8
0
  6
Continuous
 62
     3
100
AcDbLine
 10
-5031.000003814342
 20
3111.104598994411
 30
0.0
 11
-5031.000003814342
 21
3094.718471200645
 31
0.0
  0
LINE
  5
142
330
7C
100
AcDbEntity
  8
0
  6
Continuous
 62
     7
100
AcDbLine
 10
-5020.500003814342
 20
3044.104598994411
 30
0.0
 11
-5020.500003814342
 21
3039.104598994411
 31
0.0
  0
LINE
  5
143
330
7C
100
AcDbEntity
  8
0
  6
Continuous
 62
     7
100
AcDbLine
 10
-5009.500003814342
 20
3039.104598994411
 30
0.0
 11
-5012.000003814342
 21
3039.104598994411
 31
0.0
  0
LINE
  5
144
330
7C
100
AcDbEntity
  8
0
  6
Continuous
 62
     7
100
AcDbLine
 10
-5023.000003814342
 20
3044.104598994411
 30
0.0
 11
-5020.500003814342
 21
3044.104598994411
 31
0.0
  0
LINE
  5
145
330
7C
100
AcDbEntity
  8
0
  6
Continuous
 62
     7
100
AcDbLine
 10
-5012.000003814342
 20
3044.104598994411
 30
0.0
 11
-5009.500003814342
 21
3044.104598994411
 31
0.0
  0
LINE
  5
146
330
7C
100
AcDbEntity
  8
0
  6
Continuous
 62
     7
100
AcDbLine
 10
-5009.500003814342
 20
3044.104598994411
 30
0.0
 11
-5009.500003814342
 21
3039.104598994411
 31
0.0
  0
LINE
  5
147
330
7C
100
AcDbEntity
  8
0
  6
Continuous
 62
     7
100
AcDbLine
 10
-4988.840559829098
 20
3039.104598994411
 30
0.0
 11
-4989.433589474874
 21
3039.104598994411
 31
0.0
  0
LINE
  5
148
330
7C
100
AcDbEntity
  8
0
  6
Continuous
 62
     3
100
AcDbLine
 10
-4989.433589474874
 20
3039.104598994411
 30
0.0
 11
-4989.433589474874
 21
3111.104598994411
 31
0.0
  0
LINE
  5
149
330
7C
100
AcDbEntity
  8
0
  6
Continuous
 62
     7
100
AcDbLine
 10
-4989.433589474874
 20
3039.104598994411
 30
0.0
 11
-4990.821660493498
 21
3039.104598994411
 31
0.0
  0
LINE
  5
14A
330
7C
100
AcDbEntity
  8
0
  6
Continuous
 62
     7
100
AcDbLine
 10
-4986.977294273406
 20
3039.104598994411
 30
0.0
 11
-4986.977294273406
 21
3083.604598994411
 31
0.0
  0
LINE
  5
14B
330
7C
100
AcDbEntity
  8
0
  6
Continuous
 62
     3
100
AcDbLine
 10
-4988.840559829098
 20
3111.104598994411
 30
0.0
 11
-4988.840559829098
 21
3039.104598994411
 31
0.0
  0
LINE
  5
14C
330
7C
100
AcDbEntity
  8
0
  6
Continuous
 62
     7
100
AcDbLine
 10
-4987.373338427998
 20
3039.104598994411
 30
0.0
 11
-4988.840559829098
 21
3039.104598994411
 31
0.0
  0
LINE
  5
14D
330
7C
100
AcDbEntity
  8
0
  6
Continuous
 62
     7
100
AcDbLine
 10
-4986.977294273406
 20
3039.104598994411
 30
0.0
 11
-4987.373338427998
 21
3039.104598994411
 31
0.0
  0
LINE
  5
14E
330
7C
100
AcDbEntity
  8
0
  6
Continuous
 62
     3
100
AcDbLine
 10
-4987.373338427998
 20
3039.104598994411
 30
0.0
 11
-4987.373338427997
 21
3111.104598994411
 31
0.0
  0
LINE
  5
14F
330
7C
100
AcDbEntity
  8
0
  6
Continuous
 62
     7
100
AcDbLine
 10
-4981.578635996312
 20
3044.104598994411
 30
0.0
 11
-4983.613106699851
 21
3044.104598994411
 31
0.0
  0
LINE
  5
150
330
7C
100
AcDbEntity
  8
0
  6
Continuous
 62
     7
100
AcDbLine
 10
-4983.613106699851
 20
3044.104598994411
 30
0.0
 11
-4983.613106699851
 21
3083.604598994411
 31
0.0
  0
LINE
  5
151
330
7C
100
AcDbEntity
  8
0
  6
Continuous
 62
     7
100
AcDbLine
 10
-4991.100303193834
 20
3044.104598994411
 30
0.0
 11
-4992.14026418848
 21
3044.104598994411
 31
0.0
  0
LINE
  5
152
330
7C
100
AcDbEntity
  8
0
  6
Continuous
 62
     7
100
AcDbLine
 10
-4998.500003814342
 20
3037.104598994411
 30
0.0
 11
-4998.500003814342
 21
3083.604598994411
 31
0.0
  0
LINE
  5
153
330
7C
100
AcDbEntity
  8
0
  6
Continuous
 62
     7
100
AcDbLine
 10
-4992.14026418848
 20
3044.104598994411
 30
0.0
 11
-4992.14026418848
 21
3083.604598994411
 31
0.0
  0
LINE
  5
154
330
7C
100
AcDbEntity
  8
0
  6
Continuous
 62
     7
100
AcDbLine
 10
-4991.100303193834
 20
3044.104598994411
 30
0.0
 11
-4990.821660493498
 21
3039.104598994411
 31
0.0
  0
LINE
  5
155
330
7C
100
AcDbEntity
  8
0
  6
Continuous
 62
     3
100
AcDbLine
 10
-5000.500003814342
 20
3111.104598994411
 30
0.0
 11
-5000.500003814342
 21
3037.104598994411
 31
0.0
  0
LINE
  5
156
330
7C
100
AcDbEntity
  8
0
  6
Continuous
 62
     7
100
AcDbLine
 10
-5000.500003814342
 20
3037.104598994411
 30
0.0
 11
-5001.000003814342
 21
3037.104598994411
 31
0.0
  0
LINE
  5
157
330
7C
100
AcDbEntity
  8
0
  6
Continuous
 62
     7
100
AcDbLine
 10
-4999.000003814342
 20
3037.104598994411
 30
0.0
 11
-5000.500003814342
 21
3037.104598994411
 31
0.0
  0
LINE
  5
158
330
7C
100
AcDbEntity
  8
0
  6
Continuous
 62
     3
100
AcDbLine
 10
-4999.000003814342
 20
3037.104598994411
 30
0.0
 11
-4999.000003814342
 21
3111.104598994411
 31
0.0
  0
LINE
  5
159
330
7C
100
AcDbEntity
  8
0
  6
Continuous
 62
     7
100
AcDbLine
 10
-4998.500003814342
 20
3037.104598994411
 30
0.0
 11
-4999.000003814342
 21
3037.104598994411
 31
0.0
  0
LINE
  5
15A
330
7C
100
AcDbEntity
  8
0
  6
Continuous
 62
     7
100
AcDbLine
 10
-4981.578635996312
 20
3044.104598994411
 30
0.0
 11
-4981.033528618719
 21
3039.104598994411
 31
0.0
  0
LINE
  5
15B
330
7C
100
AcDbEntity
  8
0
  6
Continuous
 62
     3
100
AcDbLine
 10
-4978.318051945688
 20
3039.104598994411
 30
0.0
 11
-4978.318051945688
 21
3111.104598994411
 31
0.0
  0
LINE
  5
15C
330
7C
100
AcDbEntity
  8
0
  6
Continuous
 62
     7
100
AcDbLine
 10
-4978.318051945688
 20
3039.104598994411
 30
0.0
 11
-4981.033528618719
 21
3039.104598994411
 31
0.0
  0
LINE
  5
15D
330
7C
100
AcDbEntity
  8
0
  6
Continuous
 62
     3
100
AcDbLine
 10
-4977.657910895329
 20
3111.104598994411
 30
0.0
 11
-4977.657910895329
 21
3039.104598994411
 31
0.0
  0
LINE
  5
15E
330
7C
100
AcDbEntity
  8
0
  6
Continuous
 62
     7
100
AcDbLine
 10
-4977.657910895329
 20
3039.104598994411
 30
0.0
 11
-4978.318051945688
 21
3039.104598994411
 31
0.0
  0
LINE
  5
15F
330
7C
100
AcDbEntity
  8
0
  6
Continuous
 62
     7
100
AcDbLine
 10
-4976.287592708865
 20
3039.104598994411
 30
0.0
 11
-4977.657910895329
 21
3039.104598994411
 31
0.0
  0
LINE
  5
160
330
7C
100
AcDbEntity
  8
0
  6
Continuous
 62
     7
100
AcDbLine
 10
-4975.990961030403
 20
3039.104598994411
 30
0.0
 11
-4975.990961030403
 21
3083.604598994411
 31
0.0
  0
LINE
  5
161
330
7C
100
AcDbEntity
  8
0
  6
Continuous
 62
     3
100
AcDbLine
 10
-4976.287592708865
 20
3039.104598994411
 30
0.0
 11
-4976.287592708865
 21
3111.104598994411
 31
0.0
  0
LINE
  5
162
330
7C
100
AcDbEntity
  8
0
  6
Continuous
 62
     7
100
AcDbLine
 10
-4975.990961030403
 20
3039.104598994411
 30
0.0
 11
-4976.287592708865
 21
3039.104598994411
 31
0.0
  0
LINE
  5
163
330
7C
100
AcDbEntity
  8
0
  6
Continuous
 62
     3
100
AcDbLine
 10
-4966.227266940183
 20
3039.104598994411
 30
0.0
 11
-4966.227266940183
 21
3111.104598994411
 31
0.0
  0
LINE
  5
164
330
7C
100
AcDbEntity
  8
0
  6
Continuous
 62
     3
100
AcDbLine
 10
-4967.440792431745
 20
3111.104598994411
 30
0.0
 11
-4967.440792431745
 21
3039.104598994411
 31
0.0
  0
LINE
  5
165
330
7C
100
AcDbEntity
  8
0
  6
Continuous
 62
     3
100
AcDbLine
 10
-4968.139193555078
 20
3039.104598994411
 30
0.0
 11
-4968.139193555078
 21
3111.104598994411
 31
0.0
  0
LINE
  5
166
330
7C
100
AcDbEntity
  8
0
  6
Continuous
 62
     7
100
AcDbLine
 10
-4957.632045632839
 20
3039.104598994411
 30
0.0
 11
-4958.635741542377
 21
3039.104598994411
 31
0.0
  0
LINE
  5
167
330
7C
100
AcDbEntity
  8
0
  6
Continuous
 62
     7
100
AcDbLine
 10
-4966.021159566329
 20
3044.104598994411
 30
0.0
 11
-4966.021159566329
 21
3111.104598994411
 31
0.0
  0
LINE
  5
168
330
7C
100
AcDbEntity
  8
0
  6
Continuous
 62
     7
100
AcDbLine
 10
-4968.139193555078
 20
3039.104598994411
 30
0.0
 11
-4972.063396521602
 21
3039.104598994411
 31
0.0
  0
LINE
  5
169
330
7C
100
AcDbEntity
  8
0
  6
Continuous
 62
     7
100
AcDbLine
 10
-4967.440792431745
 20
3039.104598994411
 30
0.0
 11
-4968.139193555078
 21
3039.104598994411
 31
0.0
  0
LINE
  5
16A
330
7C
100
AcDbEntity
  8
0
  6
Continuous
 62
     7
100
AcDbLine
 10
-4966.227266940183
 20
3039.104598994411
 30
0.0
 11
-4967.440792431745
 21
3039.104598994411
 31
0.0
  0
LINE
  5
16B
330
7C
100
AcDbEntity
  8
0
  6
Continuous
 62
     7
100
AcDbLine
 10
-4966.021159566329
 20
3039.104598994411
 30
0.0
 11
-4966.227266940183
 21
3039.104598994411
 31
0.0
  0
LINE
  5
16C
330
7C
100
AcDbEntity
  8
0
  6
Continuous
 62
     7
100
AcDbLine
 10
-4966.021159566329
 20
3039.104598994411
 30
0.0
 11
-4966.021159566329
 21
3044.104598994411
 31
0.0
  0
LINE
  5
16D
330
7C
100
AcDbEntity
  8
0
  6
Continuous
 62
     7
100
AcDbLine
 10
-4959.341879258295
 20
3039.104598994411
 30
0.0
 11
-4964.303302018259
 21
3039.104598994411
 31
0.0
  0
LINE
  5
16E
330
7C
100
AcDbEntity
  8
0
  6
Continuous
 62
     7
100
AcDbLine
 10
-4958.635741542377
 20
3039.104598994411
 30
0.0
 11
-4959.341879258295
 21
3039.104598994411
 31
0.0
  0
LINE
  5
16F
330
7C
100
AcDbEntity
  8
0
  6
Continuous
 62
     3
100
AcDbLine
 10
-4958.635741542377
 20
3111.104598994411
 30
0.0
 11
-4958.635741542377
 21
3039.104598994411
 31
0.0
  0
LINE
  5
170
330
7C
100
AcDbEntity
  8
0
  6
Continuous
 62
     3
100
AcDbLine
 10
-4959.341879258295
 20
3039.104598994411
 30
0.0
 11
-4959.341879258295
 21
3111.104598994411
 31
0.0
  0
LINE
  5
171
330
7C
100
AcDbEntity
  8
0
  6
Continuous
 62
     7
100
AcDbLine
 10
-4972.851144768335
 20
3044.104598994411
 30
0.0
 11
-4975.791209048547
 21
3044.104598994411
 31
0.0
  0
LINE
  5
172
330
7C
100
AcDbEntity
  8
0
  6
Continuous
 62
     7
100
AcDbLine
 10
-4966.021159566329
 20
3044.104598994411
 30
0.0
 11
-4965.299262755714
 21
3044.104598994411
 31
0.0
  0
LINE
  5
173
330
7C
100
AcDbEntity
  8
0
  6
Continuous
 62
     3
100
AcDbLine
 10
-4957.631769448119
 20
3083.604598994411
 30
0.0
 11
-4957.632045632839
 21
3111.104598994411
 31
0.0
  0
LINE
  5
174
330
7C
100
AcDbEntity
  8
0
  6
Continuous
 62
     7
100
AcDbLine
 10
-4975.791209048547
 20
3044.104598994411
 30
0.0
 11
-4975.791209048547
 21
3083.604598994411
 31
0.0
  0
LINE
  5
175
330
7C
100
AcDbEntity
  8
0
  6
Continuous
 62
     7
100
AcDbLine
 10
-4972.851144768335
 20
3044.104598994411
 30
0.0
 11
-4972.063396521602
 21
3039.104598994411
 31
0.0
  0
LINE
  5
176
330
7C
100
AcDbEntity
  8
0
  6
Continuous
 62
     7
100
AcDbLine
 10
-4965.299262755714
 20
3044.104598994411
 30
0.0
 11
-4964.303302018259
 21
3039.104598994411
 31
0.0
  0
LINE
  5
177
330
7C
100
AcDbEntity
  8
0
  6
Continuous
 62
     3
100
AcDbLine
 10
-4951.627581202413
 20
3111.104598994411
 30
0.0
 11
-4951.627581202413
 21
3039.104598994411
 31
0.0
  0
LINE
  5
178
330
7C
100
AcDbEntity
  8
0
  6
Continuous
 62
     3
100
AcDbLine
 10
-4952.310593904305
 20
3039.104598994411
 30
0.0
 11
-4952.310593904305
 21
3111.104598994411
 31
0.0
  0
LINE
  5
179
330
7C
100
AcDbEntity
  8
0
  6
Continuous
 62
     7
100
AcDbLine
 10
-4952.310593904305
 20
3039.104598994411
 30
0.0
 11
-4957.503618045577
 21
3039.104598994411
 31
0.0
  0
LINE
  5
17A
330
7C
100
AcDbEntity
  8
0
  6
Continuous
 62
     7
100
AcDbLine
 10
-4950.877581202413
 20
3039.104598994411
 30
0.0
 11
-4951.627581202413
 21
3039.104598994411
 31
0.0
  0
LINE
  5
17B
330
7C
100
AcDbEntity
  8
0
  6
Continuous
 62
     7
100
AcDbLine
 10
-4951.627581202413
 20
3039.104598994411
 30
0.0
 11
-4952.310593904305
 21
3039.104598994411
 31
0.0
  0
LINE
  5
17C
330
7C
100
AcDbEntity
  8
0
  6
Continuous
 62
     7
100
AcDbLine
 10
-4950.791243415102
 20
3037.104598994411
 30
0.0
 11
-4951.324383714892
 21
3039.104598994411
 31
0.0
  0
LINE
  5
17D
330
7C
100
AcDbEntity
  8
0
  6
Continuous
 62
     7
100
AcDbLine
 10
-4957.503618045577
 20
3039.104598994411
 30
0.0
 11
-4957.503618045577
 21
3111.104598994411
 31
0.0
  0
LINE
  5
17E
330
7C
100
AcDbEntity
  8
0
  6
Continuous
 62
     7
100
AcDbLine
 10
-4957.503618045577
 20
3039.104598994411
 30
0.0
 11
-4957.632045632839
 21
3039.104598994411
 31
0.0
  0
LINE
  5
17F
330
7C
100
AcDbEntity
  8
0
  6
Continuous
 62
     3
100
AcDbLine
 10
-4954.351078778082
 20
3111.104598994411
 30
0.0
 11
-4954.35218949197
 21
3111.104598994411
 31
0.0
  0
LINE
  5
180
330
7C
100
AcDbEntity
  8
0
  6
Continuous
 62
     3
100
AcDbLine
 10
-4957.632045632839
 20
3039.104598994411
 30
0.0
 11
-4957.631769448119
 21
3044.104598994411
 31
0.0
  0
LINE
  5
181
330
7C
100
AcDbEntity
  8
0
  6
Continuous
 62
     3
100
AcDbLine
 10
-4957.631769448119
 20
3044.104598994411
 30
0.0
 11
-4957.631769448119
 21
3083.604598994411
 31
0.0
  0
LINE
  5
182
330
7C
100
AcDbEntity
  8
0
  6
Continuous
 62
     3
100
AcDbLine
 10
-4950.877581202413
 20
3039.104598994411
 30
0.0
 11
-4950.877581202413
 21
3111.104598994411
 31
0.0
  0
LINE
  5
183
330
7C
100
AcDbEntity
  8
0
  6
Continuous
 62
     7
100
AcDbLine
 10
-4950.810593904305
 20
3039.104598994411
 30
0.0
 11
-4950.810593904305
 21
3111.104598994411
 31
0.0
  0
LINE
  5
184
330
7C
100
AcDbEntity
  8
0
  6
Continuous
 62
     3
100
AcDbLine
 10
-4947.352638402929
 20
3039.104598994411
 30
0.0
 11
-4947.352638402929
 21
3111.104598994411
 31
0.0
  0
LINE
  5
185
330
7C
100
AcDbEntity
  8
0
  6
Continuous
 62
     3
100
AcDbLine
 10
-4946.722601647594
 20
3111.104598994411
 30
0.0
 11
-4946.722601647594
 21
3039.104598994411
 31
0.0
  0
LINE
  5
186
330
7C
100
AcDbEntity
  8
0
  6
Continuous
 62
     3
100
AcDbLine
 10
-4946.259076156032
 20
3111.104598994411
 30
0.0
 11
-4946.722601647594
 21
3111.104598994411
 31
0.0
  0
LINE
  5
187
330
7C
100
AcDbEntity
  8
0
  6
Continuous
 62
     7
100
AcDbLine
 10
-4946.259076156032
 20
3039.104598994411
 30
0.0
 11
-4946.722601647594
 21
3039.104598994411
 31
0.0
  0
LINE
  5
188
330
7C
100
AcDbEntity
  8
0
  6
Continuous
 62
     3
100
AcDbLine
 10
-4946.722601647594
 20
3111.104598994411
 30
0.0
 11
-4947.352638402929
 21
3111.104598994411
 31
0.0
  0
LINE
  5
189
330
7C
100
AcDbEntity
  8
0
  6
Continuous
 62
     3
100
AcDbLine
 10
-4947.352638402929
 20
3111.104598994411
 30
0.0
 11
-4950.810593904305
 21
3111.104598994411
 31
0.0
  0
LINE
  5
18A
330
7C
100
AcDbEntity
  8
0
  6
Continuous
 62
     7
100
AcDbLine
 10
-4946.722601647594
 20
3039.104598994411
 30
0.0
 11
-4947.352638402929
 21
3039.104598994411
 31
0.0
  0
LINE
  5
18B
330
7C
100
AcDbEntity
  8
0
  6
Continuous
 62
     7
100
AcDbLine
 10
-4950.810593904305
 20
3039.104598994411
 30
0.0
 11
-4950.877581202413
 21
3039.104598994411
 31
0.0
  0
LINE
  5
18C
330
7C
100
AcDbEntity
  8
0
  6
Continuous
 62
     7
100
AcDbLine
 10
-4947.352638402929
 20
3039.104598994411
 30
0.0
 11
-4950.810593904305
 21
3039.104598994411
 31
0.0
  0
LINE
  5
18D
330
7C
100
AcDbEntity
  8
0
  6
Continuous
 62
     7
100
AcDbLine
 10
-4950.791243415102
 20
3037.104598994411
 30
0.0
 11
-4944.684699200488
 21
3037.104598994411
 31
0.0
  0
LINE
  5
18E
330
7C
100
AcDbEntity
  8
0
  6
Continuous
 62
     3
100
AcDbLine
 10
-4944.684699200488
 20
3037.104598994411
 30
0.0
 11
-4944.684699200488
 21
3111.104598994411
 31
0.0
  0
LINE
  5
18F
330
7C
100
AcDbEntity
  8
0
  6
Continuous
 62
     7
100
AcDbLine
 10
-4944.684699200488
 20
3037.104598994411
 30
0.0
 11
-4944.135174021169
 21
3037.104598994411
 31
0.0
  0
LINE
  5
190
330
7C
100
AcDbEntity
  8
0
  6
Continuous
 62
     7
100
AcDbLine
 10
-4946.23460441418
 20
3039.104598994411
 30
0.0
 11
-4946.23460441418
 21
3111.104598994411
 31
0.0
  0
LINE
  5
191
330
7C
100
AcDbEntity
  8
0
  6
Continuous
 62
     3
100
AcDbLine
 10
-4944.135174021169
 20
3111.104598994411
 30
0.0
 11
-4944.684699200488
 21
3111.104598994411
 31
0.0
  0
LINE
  5
192
330
7C
100
AcDbEntity
  8
0
  6
Continuous
 62
     3
100
AcDbLine
 10
-4944.684699200488
 20
3111.104598994411
 30
0.0
 11
-4946.23460441418
 21
3111.104598994411
 31
0.0
  0
LINE
  5
193
330
7C
100
AcDbEntity
  8
0
  6
Continuous
 62
     3
100
AcDbLine
 10
-4946.259076156032
 20
3039.104598994411
 30
0.0
 11
-4946.259076156032
 21
3111.104598994411
 31
0.0
  0
LINE
  5
194
330
7C
100
AcDbEntity
  8
0
  6
Continuous
 62
     7
100
AcDbLine
 10
-4946.23460441418
 20
3039.104598994411
 30
0.0
 11
-4946.259076156032
 21
3039.104598994411
 31
0.0
  0
LINE
  5
195
330
7C
100
AcDbEntity
  8
0
  6
Continuous
 62
     3
100
AcDbLine
 10
-4943.978381326268
 20
3037.104598994411
 30
0.0
 11
-4943.978381326268
 21
3111.104598994411
 31
0.0
  0
LINE
  5
196
330
7C
100
AcDbEntity
  8
0
  6
Continuous
 62
     3
100
AcDbLine
 10
-4944.135174021169
 20
3111.104598994411
 30
0.0
 11
-4944.135174021169
 21
3037.104598994411
 31
0.0
  0
LINE
  5
197
330
7C
100
AcDbEntity
  8
0
  6
Continuous
 62
     7
100
AcDbLine
 10
-5158.400003814342
 20
3082.104598994411
 30
0.0
 11
-5158.400003814342
 21
3118.800751417118
 31
0.0
  0
LINE
  5
198
330
7C
100
AcDbEntity
  8
0
  6
Continuous
 62
     7
100
AcDbLine
 10
-4941.600003814342
 20
3112.104598994411
 30
0.0
 11
-4941.600003814342
 21
3134.604598994411
 31
0.0
  0
LINE
  5
199
330
7C
100
AcDbEntity
  8
0
  6
Continuous
 62
     7
100
AcDbLine
 10
-4942.100003814342
 20
3111.604598994411
 30
0.0
 11
-4943.481120378584
 21
3111.604598994411
 31
0.0
  0
LINE
  5
19A
330
7C
100
AcDbEntity
  8
0
  6
Continuous
 62
     7
100
AcDbLine
 10
-4943.481120378584
 20
3111.604598994411
 30
0.0
 11
-4943.637913073485
 21
3111.604598994411
 31
0.0
  0
LINE
  5
19B
330
7C
100
AcDbEntity
  8
0
  6
Continuous
 62
     7
100
AcDbLine
 10
-4943.637913073485
 20
3111.604598994411
 30
0.0
 11
-4944.736963432121
 21
3111.604598994411
 31
0.0
  0
LINE
  5
19C
330
7C
100
AcDbEntity
  8
0
  6
Continuous
 62
     7
100
AcDbLine
 10
-4947.507146900117
 20
3111.604598994411
 30
0.0
 11
-4950.310593904305
 21
3111.604598994411
 31
0.0
  0
LINE
  5
19D
330
7C
100
AcDbEntity
  8
0
  6
Continuous
 62
     7
100
AcDbLine
 10
-4944.736963432121
 20
3111.604598994411
 30
0.0
 11
-4945.73460441418
 21
3111.604598994411
 31
0.0
  0
LINE
  5
19E
330
7C
100
AcDbEntity
  8
0
  6
Continuous
 62
     3
100
AcDbLine
 10
-4943.975642273952
 20
3111.104598994411
 30
0.0
 11
-4943.978381326268
 21
3111.104598994411
 31
0.0
  0
LINE
  5
19F
330
7C
100
AcDbEntity
  8
0
  6
Continuous
 62
     3
100
AcDbLine
 10
-4943.978381326268
 20
3111.104598994411
 30
0.0
 11
-4944.135174021169
 21
3111.104598994411
 31
0.0
  0
LINE
  5
1A0
330
7C
100
AcDbEntity
  8
0
  6
Continuous
 62
     7
100
AcDbLine
 10
-4943.975642273952
 20
3037.104598994411
 30
0.0
 11
-4943.978381326268
 21
3037.104598994411
 31
0.0
  0
LINE
  5
1A1
330
7C
100
AcDbEntity
  8
0
  6
Continuous
 62
     7
100
AcDbLine
 10
-4944.135174021169
 20
3037.104598994411
 30
0.0
 11
-4943.978381326268
 21
3037.104598994411
 31
0.0
  0
LINE
  5
1A2
330
7C
100
AcDbEntity
  8
0
  6
Continuous
 62
     7
100
AcDbLine
 10
-4943.975642273952
 20
3037.104598994411
 30
0.0
 11
-4943.975642273952
 21
3111.104598994411
 31
0.0
  0
LINE
  5
1A3
330
7C
100
AcDbEntity
  8
0
  6
Continuous
 62
     7
100
AcDbLine
 10
-5155.400003814342
 20
3119.604598994411
 30
0.0
 11
-5155.400003814342
 21
3044.604598994411
 31
0.0
  0
LINE
  5
1A4
330
7C
100
AcDbEntity
  8
0
  6
Continuous
 62
     3
100
AcDbLine
 10
-5011.500003814342
 20
3111.104598994411
 30
0.0
 11
-5011.500003814342
 21
3111.603694558316
 31
0.0
  0
LINE
  5
1A5
330
7C
100
AcDbEntity
  8
0
  6
Continuous
 62
     3
100
AcDbLine
 10
-5020.500003814342
 20
3111.104598994411
 30
0.0
 11
-5021.184305635677
 21
3111.104598994411
 31
0.0
  0
LINE
  5
1A6
330
7C
100
AcDbEntity
  8
0
  6
Continuous
 62
     3
100
AcDbLine
 10
-5009.500003814342
 20
3111.104598994411
 30
0.0
 11
-5010.000003814342
 21
3111.104598994411
 31
0.0
  0
LINE
  5
1A7
330
7C
100
AcDbEntity
  8
0
  6
Continuous
 62
     3
100
AcDbLine
 10
-5012.000003814342
 20
3111.104598994411
 30
0.0
 11
-5012.500003814342
 21
3111.104598994411
 31
0.0
  0
LINE
  5
1A8
330
7C
100
AcDbEntity
  8
0
  6
Continuous
 62
     3
100
AcDbLine
 10
-4989.433589474874
 20
3111.104598994411
 30
0.0
 11
-4991.415674017052
 21
3111.104598994411
 31
0.0
  0
LINE
  5
1A9
330
7C
100
AcDbEntity
  8
0
  6
Continuous
 62
     3
100
AcDbLine
 10
-4991.990022339124
 20
3111.104598994411
 30
0.0
 11
-4998.019025553473
 21
3111.104598994411
 31
0.0
  0
LINE
  5
1AA
330
7C
100
AcDbEntity
  8
0
  6
Continuous
 62
     3
100
AcDbLine
 10
-5023.000003814342
 20
3111.104598994411
 30
0.0
 11
-5023.500003814342
 21
3111.104598994411
 31
0.0
  0
LINE
  5
1AB
330
7C
100
AcDbEntity
  8
0
  6
Continuous
 62
     7
100
AcDbLine
 10
-4978.77482467451
 20
3111.604598994411
 30
0.0
 11
-4982.652367153276
 21
3111.604598994411
 31
0.0
  0
LINE
  5
1AC
330
7C
100
AcDbEntity
  8
0
  6
Continuous
 62
     3
100
AcDbLine
 10
-4988.840559829098
 20
3111.104598994411
 30
0.0
 11
-4989.433589474874
 21
3111.104598994411
 31
0.0
  0
LINE
  5
1AD
330
7C
100
AcDbEntity
  8
0
  6
Continuous
 62
     3
100
AcDbLine
 10
-4982.652367153276
 20
3111.104598994411
 30
0.0
 11
-4982.838211030026
 21
3111.104598994411
 31
0.0
  0
LINE
  5
1AE
330
7C
100
AcDbEntity
  8
0
  6
Continuous
 62
     3
100
AcDbLine
 10
-4982.195594424455
 20
3111.104598994411
 30
0.0
 11
-4982.652367153276
 21
3111.104598994411
 31
0.0
  0
LINE
  5
1AF
330
7C
100
AcDbEntity
  8
0
  6
Continuous
 62
     3
100
AcDbLine
 10
-4987.373338427997
 20
3111.104598994411
 30
0.0
 11
-4988.840559829098
 21
3111.104598994411
 31
0.0
  0
LINE
  5
1B0
330
7C
100
AcDbEntity
  8
0
  6
Continuous
 62
     3
100
AcDbLine
 10
-4986.977294273406
 20
3111.104598994411
 30
0.0
 11
-4987.373338427997
 21
3111.104598994411
 31
0.0
  0
LINE
  5
1B1
330
7C
100
AcDbEntity
  8
0
  6
Continuous
 62
     3
100
AcDbLine
 10
-4978.318051945688
 20
3111.104598994411
 30
0.0
 11
-4982.195594424455
 21
3111.104598994411
 31
0.0
  0
LINE
  5
1B2
330
7C
100
AcDbEntity
  8
0
  6
Continuous
 62
     3
100
AcDbLine
 10
-4982.838211030026
 20
3111.104598994411
 30
0.0
 11
-4986.977294273406
 21
3111.104598994411
 31
0.0
  0
LINE
  5
1B3
330
7C
100
AcDbEntity
  8
0
  6
Continuous
 62
     7
100
AcDbLine
 10
-4986.977294273406
 20
3083.604598994411
 30
0.0
 11
-4986.977294273406
 21
3111.104598994411
 31
0.0
  0
LINE
  5
1B4
330
7C
100
AcDbEntity
  8
0
  6
Continuous
 62
     3
100
AcDbLine
 10
-4982.195594424455
 20
3111.104598994411
 30
0.0
 11
-4982.195594424455
 21
3083.604598994411
 31
0.0
  0
LINE
  5
1B5
330
7C
100
AcDbEntity
  8
0
  6
Continuous
 62
     3
100
AcDbLine
 10
-4982.838211030026
 20
3083.604598994411
 30
0.0
 11
-4982.838211030026
 21
3111.104598994411
 31
0.0
  0
LINE
  5
1B6
330
7C
100
AcDbEntity
  8
0
  6
Continuous
 62
     7
100
AcDbLine
 10
-4973.742726757598
 20
3083.604598994411
 30
0.0
 11
-4974.425526217388
 21
3083.604598994411
 31
0.0
  0
LINE
  5
1B7
330
7C
100
AcDbEntity
  8
0
  6
Continuous
 62
     3
100
AcDbLine
 10
-4974.147235254784
 20
3111.104598994411
 30
0.0
 11
-4974.425526217388
 21
3111.104598994411
 31
0.0
  0
LINE
  5
1B8
330
7C
100
AcDbEntity
  8
0
  6
Continuous
 62
     3
100
AcDbLine
 10
-4973.742726757598
 20
3111.104598994411
 30
0.0
 11
-4974.147235254784
 21
3111.104598994411
 31
0.0
  0
LINE
  5
1B9
330
7C
100
AcDbEntity
  8
0
  6
Continuous
 62
     7
100
AcDbLine
 10
-4975.791209048547
 20
3083.604598994411
 30
0.0
 11
-4974.425526217388
 21
3083.604598994411
 31
0.0
  0
LINE
  5
1BA
330
7C
100
AcDbEntity
  8
0
  6
Continuous
 62
     3
100
AcDbLine
 10
-4974.425526217388
 20
3111.104598994411
 30
0.0
 11
-4975.990961030403
 21
3111.104598994411
 31
0.0
  0
LINE
  5
1BB
330
7C
100
AcDbEntity
  8
0
  6
Continuous
 62
     3
100
AcDbLine
 10
-4974.425526217388
 20
3083.604598994411
 30
0.0
 11
-4974.425526217388
 21
3111.104598994411
 31
0.0
  0
LINE
  5
1BC
330
7C
100
AcDbEntity
  8
0
  6
Continuous
 62
     7
100
AcDbLine
 10
-4975.990961030403
 20
3083.604598994411
 30
0.0
 11
-4975.990961030403
 21
3111.104598994411
 31
0.0
  0
LINE
  5
1BD
330
7C
100
AcDbEntity
  8
0
  6
Continuous
 62
     3
100
AcDbLine
 10
-4973.742726757598
 20
3111.104598994411
 30
0.0
 11
-4973.742726757598
 21
3083.604598994411
 31
0.0
  0
LINE
  5
1BE
330
7C
100
AcDbEntity
  8
0
  6
Continuous
 62
     7
100
AcDbLine
 10
-4983.613106699851
 20
3083.604598994411
 30
0.0
 11
-4982.838211030026
 21
3083.604598994411
 31
0.0
  0
LINE
  5
1BF
330
7C
100
AcDbEntity
  8
0
  6
Continuous
 62
     7
100
AcDbLine
 10
-4983.613106699851
 20
3083.604598994411
 30
0.0
 11
-4986.977294273406
 21
3083.604598994411
 31
0.0
  0
LINE
  5
1C0
330
7C
100
AcDbEntity
  8
0
  6
Continuous
 62
     7
100
AcDbLine
 10
-4982.195594424455
 20
3083.604598994411
 30
0.0
 11
-4982.838211030026
 21
3083.604598994411
 31
0.0
  0
LINE
  5
1C1
330
7C
100
AcDbEntity
  8
0
  6
Continuous
 62
     7
100
AcDbLine
 10
-4968.543702052266
 20
3111.604598994411
 30
0.0
 11
-4974.147235254784
 21
3111.604598994411
 31
0.0
  0
LINE
  5
1C2
330
7C
100
AcDbEntity
  8
0
  6
Continuous
 62
     7
100
AcDbLine
 10
-4975.490961030403
 20
3111.604598994411
 30
0.0
 11
-4976.084224387328
 21
3111.604598994411
 31
0.0
  0
LINE
  5
1C3
330
7C
100
AcDbEntity
  8
0
  6
Continuous
 62
     7
100
AcDbLine
 10
-4976.084224387328
 20
3111.604598994411
 30
0.0
 11
-4977.454542573792
 21
3111.604598994411
 31
0.0
  0
LINE
  5
1C4
330
7C
100
AcDbEntity
  8
0
  6
Continuous
 62
     7
100
AcDbLine
 10
-4977.454542573792
 20
3111.604598994411
 30
0.0
 11
-4978.77482467451
 21
3111.604598994411
 31
0.0
  0
LINE
  5
1C5
330
7C
100
AcDbEntity
  8
0
  6
Continuous
 62
     3
100
AcDbLine
 10
-4977.657910895329
 20
3111.104598994411
 30
0.0
 11
-4978.318051945688
 21
3111.104598994411
 31
0.0
  0
LINE
  5
1C6
330
7C
100
AcDbEntity
  8
0
  6
Continuous
 62
     3
100
AcDbLine
 10
-4975.990961030403
 20
3111.104598994411
 30
0.0
 11
-4976.287592708865
 21
3111.104598994411
 31
0.0
  0
LINE
  5
1C7
330
7C
100
AcDbEntity
  8
0
  6
Continuous
 62
     3
100
AcDbLine
 10
-4976.287592708865
 20
3111.104598994411
 30
0.0
 11
-4977.657910895329
 21
3111.104598994411
 31
0.0
  0
LINE
  5
1C8
330
7C
100
AcDbEntity
  8
0
  6
Continuous
 62
     3
100
AcDbLine
 10
-4968.139193555078
 20
3111.104598994411
 30
0.0
 11
-4973.742726757598
 21
3111.104598994411
 31
0.0
  0
LINE
  5
1C9
330
7C
100
AcDbEntity
  8
0
  6
Continuous
 62
     7
100
AcDbLine
 10
-4975.791209048547
 20
3083.604598994411
 30
0.0
 11
-4975.990961030403
 21
3083.604598994411
 31
0.0
  0
LINE
  5
1CA
330
7C
100
AcDbEntity
  8
0
  6
Continuous
 62
     3
100
AcDbLine
 10
-4958.635741542377
 20
3111.104598994411
 30
0.0
 11
-4959.341879258295
 21
3111.104598994411
 31
0.0
  0
LINE
  5
1CB
330
7C
100
AcDbEntity
  8
0
  6
Continuous
 62
     3
100
AcDbLine
 10
-4959.341879258295
 20
3111.104598994411
 30
0.0
 11
-4966.021159566329
 21
3111.104598994411
 31
0.0
  0
LINE
  5
1CC
330
7C
100
AcDbEntity
  8
0
  6
Continuous
 62
     3
100
AcDbLine
 10
-4957.632045632839
 20
3111.104598994411
 30
0.0
 11
-4958.635741542377
 21
3111.104598994411
 31
0.0
  0
LINE
  5
1CD
330
7C
100
AcDbEntity
  8
0
  6
Continuous
 62
     3
100
AcDbLine
 10
-4966.227266940183
 20
3111.104598994411
 30
0.0
 11
-4967.440792431745
 21
3111.104598994411
 31
0.0
  0
LINE
  5
1CE
330
7C
100
AcDbEntity
  8
0
  6
Continuous
 62
     3
100
AcDbLine
 10
-4966.021159566329
 20
3111.104598994411
 30
0.0
 11
-4966.227266940183
 21
3111.104598994411
 31
0.0
  0
LINE
  5
1CF
330
7C
100
AcDbEntity
  8
0
  6
Continuous
 62
     3
100
AcDbLine
 10
-4967.440792431745
 20
3111.104598994411
 30
0.0
 11
-4968.139193555078
 21
3111.104598994411
 31
0.0
  0
LINE
  5
1D0
330
7C
100
AcDbEntity
  8
0
  6
Continuous
 62
     7
100
AcDbLine
 10
-4957.2604732201
 20
3111.604598994411
 30
0.0
 11
-4958.264169129639
 21
3111.604598994411
 31
0.0
  0
LINE
  5
1D1
330
7C
100
AcDbEntity
  8
0
  6
Continuous
 62
     3
100
AcDbLine
 10
-4957.503618045577
 20
3111.104598994411
 30
0.0
 11
-4957.632045632839
 21
3111.104598994411
 31
0.0
  0
LINE
  5
1D2
330
7C
100
AcDbEntity
  8
0
  6
Continuous
 62
     7
100
AcDbLine
 10
-4958.264169129639
 20
3111.604598994411
 30
0.0
 11
-4959.676444561475
 21
3111.604598994411
 31
0.0
  0
LINE
  5
1D3
330
7C
100
AcDbEntity
  8
0
  6
Continuous
 62
     7
100
AcDbLine
 10
-4959.676444561475
 20
3111.604598994411
 30
0.0
 11
-4965.521159566329
 21
3111.604598994411
 31
0.0
  0
LINE
  5
1D4
330
7C
100
AcDbEntity
  8
0
  6
Continuous
 62
     7
100
AcDbLine
 10
-4965.521159566329
 20
3111.604598994411
 30
0.0
 11
-4965.933374314036
 21
3111.604598994411
 31
0.0
  0
LINE
  5
1D5
330
7C
100
AcDbEntity
  8
0
  6
Continuous
 62
     7
100
AcDbLine
 10
-4965.933374314036
 20
3111.604598994411
 30
0.0
 11
-4967.146899805599
 21
3111.604598994411
 31
0.0
  0
LINE
  5
1D6
330
7C
100
AcDbEntity
  8
0
  6
Continuous
 62
     7
100
AcDbLine
 10
-4967.146899805599
 20
3111.604598994411
 30
0.0
 11
-4968.543702052266
 21
3111.604598994411
 31
0.0
  0
LINE
  5
1D7
330
7C
100
AcDbEntity
  8
0
  6
Continuous
 62
     3
100
AcDbLine
 10
-5021.184305635677
 20
3091.796149235181
 30
0.0
 11
-5021.184305635677
 21
3111.104598994411
 31
0.0
  0
LINE
  5
1D8
330
7C
100
AcDbEntity
  8
0
  6
Continuous
 62
     3
100
AcDbLine
 10
-5022.697315176007
 20
3111.104598994411
 30
0.0
 11
-5023.000003814342
 21
3111.104598994411
 31
0.0
  0
LINE
  5
1D9
330
7C
100
AcDbEntity
  8
0
  6
Continuous
 62
     3
100
AcDbLine
 10
-5023.500003814342
 20
3111.104598994411
 30
0.0
 11
-5031.000003814342
 21
3111.104598994411
 31
0.0
  0
LINE
  5
1DA
330
7C
100
AcDbEntity
  8
0
  6
Continuous
 62
     3
100
AcDbLine
 10
-5023.500003814342
 20
3092.780309995272
 30
0.0
 11
-5023.500003814342
 21
3111.104598994411
 31
0.0
  0
LINE
  5
1DB
330
7C
100
AcDbEntity
  8
0
  6
Continuous
 62
     3
100
AcDbLine
 10
-5031.500003814342
 20
3111.104598994411
 30
0.0
 11
-5032.279708931428
 21
3111.104598994411
 31
0.0
  0
LINE
  5
1DC
330
7C
100
AcDbEntity
  8
0
  6
Continuous
 62
     3
100
AcDbLine
 10
-5032.279708931379
 20
3094.874984240032
 30
0.0
 11
-5032.279708931428
 21
3111.104598994411
 31
0.0
  0
LINE
  5
1DD
330
7C
100
AcDbEntity
  8
0
  6
Continuous
 62
     7
100
AcDbLine
 10
-5031.500003814342
 20
3094.785403885371
 30
0.0
 11
-5031.500003814342
 21
3111.104598994411
 31
0.0
  0
LINE
  5
1DE
330
7C
100
AcDbEntity
  8
0
  6
Continuous
 62
     7
100
AcDbLine
 10
-5023.000003814342
 20
3092.584550065055
 30
0.0
 11
-5023.000003814342
 21
3111.104598994411
 31
0.0
  0
LINE
  5
1DF
330
7C
100
AcDbEntity
  8
0
  6
Continuous
 62
     3
100
AcDbLine
 10
-5022.697315176007
 20
3111.104598994411
 30
0.0
 11
-5022.697315176007
 21
3092.461650294272
 31
0.0
  0
LINE
  5
1E0
330
7C
100
AcDbEntity
  8
0
  6
Continuous
 62
     7
100
AcDbLine
 10
-5034.000082321922
 20
3111.113464371967
 30
0.0
 11
-5034.000003814342
 21
3111.297980396123
 31
0.0
  0
LINE
  5
1E1
330
7C
100
AcDbEntity
  8
0
  6
Continuous
 62
     7
100
AcDbLine
 10
-5034.000003814342
 20
3095.009445896819
 30
0.0
 11
-5034.000082321922
 21
3111.113464371967
 31
0.0
  0
LINE
  5
1E2
330
7C
100
AcDbEntity
  8
0
  6
Continuous
 62
     7
100
AcDbLine
 10
-4998.019025553473
 20
3083.604598994411
 30
0.0
 11
-4998.500003814342
 21
3083.604598994411
 31
0.0
  0
LINE
  5
1E3
330
7C
100
AcDbEntity
  8
0
  6
Continuous
 62
     7
100
AcDbLine
 10
-5009.500003814342
 20
3082.854019594745
 30
0.0
 11
-5009.500003814342
 21
3083.604598994411
 31
0.0
  0
LINE
  5
1E4
330
7C
100
AcDbEntity
  8
0
  6
Continuous
 62
     7
100
AcDbLine
 10
-4992.14026418848
 20
3083.604598994411
 30
0.0
 11
-4998.019025553473
 21
3083.604598994411
 31
0.0
  0
LINE
  5
1E5
330
7C
100
AcDbEntity
  8
0
  6
Continuous
 62
     7
100
AcDbLine
 10
-4991.415674017052
 20
3083.604598994411
 30
0.0
 11
-4991.990022339124
 21
3083.604598994411
 31
0.0
  0
LINE
  5
1E6
330
7C
100
AcDbEntity
  8
0
  6
Continuous
 62
     3
100
AcDbLine
 10
-5010.000003814339
 20
3083.431341430176
 30
0.0
 11
-5010.000003814342
 21
3111.104598994411
 31
0.0
  0
LINE
  5
1E7
330
7C
100
AcDbEntity
  8
0
  6
Continuous
 62
     3
100
AcDbLine
 10
-5011.500003814342
 20
3111.104598994411
 30
0.0
 11
-5012.000003814342
 21
3111.104598994411
 31
0.0
  0
LINE
  5
1E8
330
7C
100
AcDbEntity
  8
0
  6
Continuous
 62
     7
100
AcDbLine
 10
-5012.000003814342
 20
3111.104598994411
 30
0.0
 11
-5012.000003814342
 21
3085.507926635703
 31
0.0
  0
LINE
  5
1E9
330
7C
100
AcDbEntity
  8
0
  6
Continuous
 62
     3
100
AcDbLine
 10
-5020.000003814342
 20
3111.104598994411
 30
0.0
 11
-5020.000003814342
 21
3091.213111211259
 31
0.0
  0
LINE
  5
1EA
330
7C
100
AcDbEntity
  8
0
  6
Continuous
 62
     3
100
AcDbLine
 10
-5020.000003814342
 20
3111.104598994411
 30
0.0
 11
-5020.500003814342
 21
3111.104598994411
 31
0.0
  0
LINE
  5
1EB
330
7C
100
AcDbEntity
  8
0
  6
Continuous
 62
     7
100
AcDbLine
 10
-5020.500003814342
 20
3091.466141025227
 30
0.0
 11
-5020.500003814342
 21
3111.104598994411
 31
0.0
  0
LINE
  5
1EC
330
7C
100
AcDbEntity
  8
0
  6
Continuous
 62
     3
100
AcDbLine
 10
-5012.500003814342
 20
3111.104598994411
 30
0.0
 11
-5020.000003814342
 21
3111.104598994411
 31
0.0
  0
LINE
  5
1ED
330
7C
100
AcDbEntity
  8
0
  6
Continuous
 62
     3
100
AcDbLine
 10
-5035.785021505471
 20
3111.483731674108
 30
0.0
 11
-5035.785021505471
 21
3095.057850854343
 31
0.0
  0
LINE
  5
1EE
330
7C
100
AcDbEntity
  8
0
  6
Continuous
 62
     3
100
AcDbLine
 10
-5009.000003814342
 20
3111.104598994411
 30
0.0
 11
-5009.500003814342
 21
3111.104598994411
 31
0.0
  0
LINE
  5
1EF
330
7C
100
AcDbEntity
  8
0
  6
Continuous
 62
     3
100
AcDbLine
 10
-5010.000003814342
 20
3111.104598994411
 30
0.0
 11
-5011.500003814342
 21
3111.104598994411
 31
0.0
  0
LINE
  5
1F0
330
7C
100
AcDbEntity
  8
0
  6
Continuous
 62
     3
100
AcDbLine
 10
-5000.500003814342
 20
3111.104598994411
 30
0.0
 11
-5001.000003814342
 21
3111.104598994411
 31
0.0
  0
LINE
  5
1F1
330
7C
100
AcDbEntity
  8
0
  6
Continuous
 62
     3
100
AcDbLine
 10
-5001.000003814342
 20
3111.104598994411
 30
0.0
 11
-5001.500003814342
 21
3111.104598994411
 31
0.0
  0
LINE
  5
1F2
330
7C
100
AcDbEntity
  8
0
  6
Continuous
 62
     3
100
AcDbLine
 10
-4999.000003814342
 20
3111.104598994411
 30
0.0
 11
-5000.500003814342
 21
3111.104598994411
 31
0.0
  0
LINE
  5
1F3
330
7C
100
AcDbEntity
  8
0
  6
Continuous
 62
     3
100
AcDbLine
 10
-4998.500003814342
 20
3111.104598994411
 30
0.0
 11
-4999.000003814342
 21
3111.104598994411
 31
0.0
  0
LINE
  5
1F4
330
7C
100
AcDbEntity
  8
0
  6
Continuous
 62
     3
100
AcDbLine
 10
-4998.019025553473
 20
3111.104598994411
 30
0.0
 11
-4998.500003814342
 21
3111.104598994411
 31
0.0
  0
LINE
  5
1F5
330
7C
100
AcDbEntity
  8
0
  6
Continuous
 62
     3
100
AcDbLine
 10
-4991.990022339124
 20
3083.604598994411
 30
0.0
 11
-4991.990022339124
 21
3111.104598994411
 31
0.0
  0
LINE
  5
1F6
330
7C
100
AcDbEntity
  8
0
  6
Continuous
 62
     3
100
AcDbLine
 10
-5009.000003814342
 20
3111.104598994411
 30
0.0
 11
-5009.000003814342
 21
3083.604598994411
 31
0.0
  0
LINE
  5
1F7
330
7C
100
AcDbEntity
  8
0
  6
Continuous
 62
     3
100
AcDbLine
 10
-5001.500003814342
 20
3111.104598994411
 30
0.0
 11
-5009.000003814342
 21
3111.104598994411
 31
0.0
  0
LINE
  5
1F8
330
7C
100
AcDbEntity
  8
0
  6
Continuous
 62
     3
100
AcDbLine
 10
-5001.500003814342
 20
3083.604598994411
 30
0.0
 11
-5001.500003814342
 21
3111.104598994411
 31
0.0
  0
LINE
  5
1F9
330
7C
100
AcDbEntity
  8
0
  6
Continuous
 62
     3
100
AcDbLine
 10
-4998.019025553473
 20
3111.104598994411
 30
0.0
 11
-4998.019025553473
 21
3083.604598994411
 31
0.0
  0
LINE
  5
1FA
330
7C
100
AcDbEntity
  8
0
  6
Continuous
 62
     3
100
AcDbLine
 10
-4991.904747817419
 20
3111.104598994411
 30
0.0
 11
-4991.990022339124
 21
3111.104598994411
 31
0.0
  0
LINE
  5
1FB
330
7C
100
AcDbEntity
  8
0
  6
Continuous
 62
     3
100
AcDbLine
 10
-4991.415674017052
 20
3111.104598994411
 30
0.0
 11
-4991.904747817419
 21
3111.104598994411
 31
0.0
  0
LINE
  5
1FC
330
7C
100
AcDbEntity
  8
0
  6
Continuous
 62
     7
100
AcDbLine
 10
-4998.500003814342
 20
3083.604598994411
 30
0.0
 11
-4998.500003814342
 21
3111.104598994411
 31
0.0
  0
LINE
  5
1FD
330
7C
100
AcDbEntity
  8
0
  6
Continuous
 62
     7
100
AcDbLine
 10
-5001.500003814342
 20
3083.604598994411
 30
0.0
 11
-5001.000003814342
 21
3083.604598994411
 31
0.0
  0
LINE
  5
1FE
330
7C
100
AcDbEntity
  8
0
  6
Continuous
 62
     7
100
AcDbLine
 10
-5009.500003814342
 20
3083.604598994411
 30
0.0
 11
-5009.000003814342
 21
3083.604598994411
 31
0.0
  0
LINE
  5
1FF
330
7C
100
AcDbEntity
  8
0
  6
Continuous
 62
     7
100
AcDbLine
 10
-5009.000003814342
 20
3083.604598994411
 30
0.0
 11
-5001.500003814342
 21
3083.604598994411
 31
0.0
  0
LINE
  5
200
330
7C
100
AcDbEntity
  8
0
  6
Continuous
 62
     7
100
AcDbLine
 10
-4992.14026418848
 20
3083.604598994411
 30
0.0
 11
-4991.990022339124
 21
3083.604598994411
 31
0.0
  0
LINE
  5
201
330
7C
100
AcDbEntity
  8
0
  6
Continuous
 62
     3
100
AcDbLine
 10
-5011.500003814342
 20
3111.104598994411
 30
0.0
 11
-5011.50000381434
 21
3085.020656408115
 31
0.0
  0
LINE
  5
202
330
7C
100
AcDbEntity
  8
0
  6
Continuous
 62
     3
100
AcDbLine
 10
-4991.415674017052
 20
3111.104598994411
 30
0.0
 11
-4991.415674017052
 21
3083.604598994411
 31
0.0
  0
LINE
  5
203
330
7C
100
AcDbEntity
  8
0
  6
Continuous
 62
     7
100
AcDbLine
 10
-5009.500003814342
 20
3083.604598994411
 30
0.0
 11
-5009.500003814342
 21
3111.104598994411
 31
0.0
  0
LINE
  5
204
330
7C
100
AcDbEntity
  8
0
  6
Continuous
 62
     3
100
AcDbLine
 10
-5012.500003814342
 20
3085.976027548006
 30
0.0
 11
-5012.500003814342
 21
3111.104598994411
 31
0.0
  0
LINE
  5
205
330
7C
100
AcDbEntity
  8
0
  6
Continuous
 62
     7
100
AcDbLine
 10
-5001.000003814342
 20
3111.104598994411
 30
0.0
 11
-5001.000003814342
 21
3083.604598994411
 31
0.0
  0
LINE
  5
206
330
7C
100
AcDbEntity
  8
0
  6
Continuous
 62
     7
100
AcDbLine
 10
-5057.900003814342
 20
3119.604598994411
 30
0.0
 11
-5155.400003814342
 21
3119.604598994411
 31
0.0
  0
LINE
  5
207
330
7C
100
AcDbEntity
  8
0
  6
Continuous
 62
     7
100
AcDbLine
 10
-5158.400003814342
 20
3118.800751417118
 30
0.0
 11
-5155.400003814342
 21
3119.604598994411
 31
0.0
  0
LINE
  5
208
330
7C
100
AcDbEntity
  8
0
  6
Continuous
 62
     3
100
AcDbLine
 10
-5036.097554182757
 20
3095.056819177129
 30
0.0
 11
-5036.097554182757
 21
3112.104598994411
 31
0.0
  0
LINE
  5
209
102
{ACAD_REACTORS
330
270
102
}
330
7C
100
AcDbEntity
  8
0
  6
Continuous
 62
     7
100
AcDbLine
 10
-5057.900003814342
 20
3044.604598994411
 30
0.0
 11
-5066.417319781623
 21
3044.604598994411
 31
0.0
  0
LINE
  5
20A
330
7C
100
AcDbEntity
  8
0
  6
Continuous
 62
     7
100
AcDbLine
 10
-5066.417319781623
 20
3044.604598994411
 30
0.0
 11
-5155.400003814342
 21
3044.604598994411
 31
0.0
  0
LINE
  5
20B
330
7C
100
AcDbEntity
  8
0
  6
Continuous
 62
     7
100
AcDbLine
 10
-5158.400003814342
 20
3045.408446571705
 30
0.0
 11
-5155.400003814342
 21
3044.604598994411
 31
0.0
  0
LINE
  5
20C
102
{ACAD_REACTORS
330
270
102
}
330
7C
100
AcDbEntity
  8
0
  6
Continuous
 62
     7
100
AcDbLine
 10
-5058.400256093269
 20
3047.60459899429
 30
0.0
 11
-5067.803373350943
 21
3047.604598994411
 31
0.0
  0
LINE
  5
20D
330
7C
100
AcDbEntity
  8
0
  6
Continuous
 62
     7
100
AcDbLine
 10
-5054.900003814342
 20
3044.104598994411
 30
0.0
 11
-5035.177038762923
 21
3044.104598994411
 31
0.0
  0
LINE
  5
20E
102
{ACAD_REACTORS
330
270
102
}
330
7C
100
AcDbEntity
  8
0
  6
Continuous
 62
     7
100
AcDbLine
 10
-5054.900003814342
 20
3044.104598994411
 30
0.0
 11
-5057.900003814342
 21
3044.104598994411
 31
0.0
  0
LINE
  5
20F
102
{ACAD_REACTORS
330
270
102
}
330
7C
100
AcDbEntity
  8
0
  6
Continuous
 62
     7
100
AcDbLine
 10
-5054.900003814342
 20
3072.104598994411
 30
0.0
 11
-5057.900003814342
 21
3072.104598994411
 31
0.0
  0
LINE
  5
210
102
{ACAD_REACTORS
330
270
102
}
330
7C
100
AcDbEntity
  8
0
  6
Continuous
 62
     7
100
AcDbLine
 10
-5054.900003814342
 20
3044.104598994411
 30
0.0
 11
-5054.900003814342
 21
3072.104598994411
 31
0.0
  0
LINE
  5
211
330
7C
100
AcDbEntity
  8
0
  6
Continuous
 62
     7
100
AcDbLine
 10
-5043.923214021434
 20
3072.104598994411
 30
0.0
 11
-5054.900003814342
 21
3072.104598994411
 31
0.0
  0
LINE
  5
212
102
{ACAD_REACTORS
330
270
102
}
330
7C
100
AcDbEntity
  8
0
  6
Continuous
 62
     7
100
AcDbLine
 10
-5057.900003814342
 20
3072.104598994411
 30
0.0
 11
-5057.900003814366
 21
3048.104694364065
 31
0.0
  0
LINE
  5
213
102
{ACAD_REACTORS
330
270
102
}
330
7C
100
AcDbEntity
  8
0
  6
Continuous
 62
     7
100
AcDbLine
 10
-5057.900003814342
 20
3044.104598994411
 30
0.0
 11
-5057.900003814342
 21
3044.604598994411
 31
0.0
  0
LINE
  5
214
330
7C
100
AcDbEntity
  8
0
  6
Continuous
 62
     7
100
AcDbLine
 10
-5158.400003814342
 20
3045.408446571705
 30
0.0
 11
-5158.400003814342
 21
3082.104598994411
 31
0.0
  0
LINE
  5
215
330
7C
100
AcDbEntity
  8
1
  6
DOT_CENTER
 62
     2
100
AcDbLine
 10
-4999.750003814343
 20
3034.31422441309
 30
0.0
 11
-4999.750003814343
 21
3138.6742172258
 31
0.0
  0
LINE
  5
216
330
7C
100
AcDbEntity
  8
1
  6
DOT_CENTER
 62
     2
100
AcDbLine
 10
-5025.83351594275
 20
3082.104598994411
 30
0.0
 11
-5161.22383672962
 21
3082.104598994411
 31
0.0
  0
ARC
  5
217
330
7C
100
AcDbEntity
  8
0
  6
Continuous
 62
     3
100
AcDbCircle
 10
-5033.227299219184
 20
3116.579134930771
 30
0.0
 40
5.315998062612239
100
AcDbArc
 50
237.3212782280233
 51
244.1721980243416
  0
ARC
  5
218
330
7C
100
AcDbEntity
  8
0
  6
Continuous
 62
     7
100
AcDbCircle
 10
-5001.500003814342
 20
3111.104598994411
 30
0.0
 40
0.5
100
AcDbArc
 50
0.0
 51
90.0
  0
ARC
  5
219
330
7C
100
AcDbEntity
  8
0
  6
Continuous
 62
     7
100
AcDbCircle
 10
-5009.000003814342
 20
3111.104598994411
 30
0.0
 40
0.5
100
AcDbArc
 50
90.0
 51
180.0
  0
ARC
  5
21A
330
7C
100
AcDbEntity
  8
0
  6
Continuous
 62
     7
100
AcDbCircle
 10
-5012.500003814342
 20
3111.104598994411
 30
0.0
 40
0.5
100
AcDbArc
 50
0.0
 51
90.0
  0
ARC
  5
21B
330
7C
100
AcDbEntity
  8
0
  6
Continuous
 62
     7
100
AcDbCircle
 10
-5023.500003814342
 20
3111.104598994411
 30
0.0
 40
0.5
100
AcDbArc
 50
0.0
 51
90.0
  0
ARC
  5
21C
330
7C
100
AcDbEntity
  8
0
  6
Continuous
 62
     7
100
AcDbCircle
 10
-5020.000003814342
 20
3111.104598994411
 30
0.0
 40
0.5
100
AcDbArc
 50
90.0
 51
180.0
  0
ARC
  5
21D
330
7C
100
AcDbEntity
  8
0
  6
Continuous
 62
     7
100
AcDbCircle
 10
-5031.000003814342
 20
3111.104598994411
 30
0.0
 40
0.5
100
AcDbArc
 50
90.0
 51
180.0
  0
ARC
  5
21E
330
7C
100
AcDbEntity
  8
0
  6
Continuous
 62
     7
100
AcDbCircle
 10
-4998.000003814342
 20
3111.104598994411
 30
0.0
 40
0.5
100
AcDbArc
 50
90.0
 51
180.0
  0
ARC
  5
21F
330
7C
100
AcDbEntity
  8
0
  6
Continuous
 62
     7
100
AcDbCircle
 10
-4975.490961030403
 20
3111.104598994411
 30
0.0
 40
0.5
100
AcDbArc
 50
90.0
 51
180.0
  0
ARC
  5
220
330
7C
100
AcDbEntity
  8
0
  6
Continuous
 62
     2
100
AcDbCircle
 10
-5035.827404377094
 20
3060.5578768878
 30
0.0
 40
34.50000000000058
100
AcDbArc
 50
64.88492665314878
 51
67.63024394756673
  0
ARC
  5
221
330
7C
100
AcDbEntity
  8
0
  6
Continuous
 62
     2
100
AcDbCircle
 10
-5035.827404377156
 20
3060.557876887804
 30
0.0
 40
34.50000000000482
100
AcDbArc
 50
84.09774116080398
 51
86.61893906893846
  0
ARC
  5
222
330
7C
100
AcDbEntity
  8
0
  6
Continuous
 62
     7
100
AcDbCircle
 10
-5034.499975507449
 20
3111.104629579316
 30
0.0
 40
0.4999712496710033
100
AcDbArc
 50
1.01250357717717
 51
89.99120609339066
  0
ARC
  5
223
330
7C
100
AcDbEntity
  8
0
  6
Continuous
 62
     2
100
AcDbCircle
 10
-5035.827404377041
 20
3060.557876887792
 30
0.0
 40
34.50000000000098
100
AcDbArc
 50
81.95651367646589
 51
82.7943018413605
  0
ARC
  5
224
330
7C
100
AcDbEntity
  8
0
  6
Continuous
 62
     7
100
AcDbCircle
 10
-4957.003618045577
 20
3111.104598994411
 30
0.0
 40
0.5
100
AcDbArc
 50
90.0
 51
180.0
  0
ARC
  5
225
330
7C
100
AcDbEntity
  8
0
  6
Continuous
 62
     7
100
AcDbCircle
 10
-4943.475627269817
 20
3111.104614164296
 30
0.0
 40
0.5000150043638751
100
AcDbArc
 50
90.62945767061757
 51
180.0017382886141
  0
ARC
  5
226
330
7C
100
AcDbEntity
  8
0
  6
Continuous
 62
     7
100
AcDbCircle
 10
-4945.73460441418
 20
3111.104598994411
 30
0.0
 40
0.5
100
AcDbArc
 50
90.0
 51
180.0
  0
ARC
  5
227
330
7C
100
AcDbEntity
  8
0
  6
Continuous
 62
     7
100
AcDbCircle
 10
-4950.310593904305
 20
3111.104598994411
 30
0.0
 40
0.5
100
AcDbArc
 50
90.0
 51
180.0
  0
ARC
  5
228
330
7C
100
AcDbEntity
  8
0
  6
Continuous
 62
     7
100
AcDbCircle
 10
-4942.100003814342
 20
3112.104598994411
 30
0.0
 40
0.5
100
AcDbArc
 50
270.0
 51
0.0
  0
ARC
  5
229
330
7C
100
AcDbEntity
  8
0
  6
Continuous
 62
     7
100
AcDbCircle
 10
-4965.521159566329
 20
3111.104598994411
 30
0.0
 40
0.5
100
AcDbArc
 50
90.0
 51
180.0
  0
ARC
  5
22A
330
7C
100
AcDbEntity
  8
0
  6
Continuous
 62
     7
100
AcDbCircle
 10
-4986.477294273406
 20
3111.104598994411
 30
0.0
 40
0.5000000000009002
100
AcDbArc
 50
92.50250795645626
 51
180.0
  0
ARC
  5
22B
330
7C
100
AcDbEntity
  8
0
  6
Continuous
 62
     2
100
AcDbCircle
 10
-5035.827404377151
 20
3060.557876887822
 30
0.0
 40
34.50000000000038
100
AcDbArc
 50
68.17279144465415
 51
69.064548952335
  0
ARC
  5
22C
330
7C
100
AcDbEntity
  8
0
  6
Continuous
 62
     2
100
AcDbCircle
 10
-5035.827404377206
 20
3060.55787688793
 30
0.0
 40
34.50000000000254
100
AcDbArc
 50
40.26058766127135
 51
41.52899451704996
  0
ARC
  5
22D
330
7C
100
AcDbEntity
  8
0
  6
Continuous
 62
     2
100
AcDbCircle
 10
-5035.827404377214
 20
3060.557876887813
 30
0.0
 40
34.50000000000166
100
AcDbArc
 50
82.79430184106992
 51
84.09774116070626
  0
ARC
  5
22E
330
7C
100
AcDbEntity
  8
0
  6
Continuous
 62
     2
100
AcDbCircle
 10
-5035.827404377094
 20
3060.5578768878
 30
0.0
 40
34.50000000000069
100
AcDbArc
 50
67.63024394756673
 51
68.17279144475485
  0
ARC
  5
22F
330
7C
100
AcDbEntity
  8
0
  6
Continuous
 62
     2
100
AcDbCircle
 10
-5035.827404377094
 20
3060.5578768878
 30
0.0
 40
34.50000000000046
100
AcDbArc
 50
63.62319835607757
 51
64.88492665314878
  0
ARC
  5
230
330
7C
100
AcDbEntity
  8
0
  6
Continuous
 62
     2
100
AcDbCircle
 10
-5035.827404377091
 20
3060.557876887799
 30
0.0
 40
34.50000000000063
100
AcDbArc
 50
69.06454895244187
 51
81.95651367638206
  0
ARC
  5
231
330
7C
100
AcDbEntity
  8
0
  6
Continuous
 62
     2
100
AcDbCircle
 10
-5035.827404376761
 20
3060.557876887488
 30
0.0
 40
34.50000000000525
100
AcDbArc
 50
46.3184720724097
 51
47.45597345464762
  0
ARC
  5
232
330
7C
100
AcDbEntity
  8
0
  6
Continuous
 62
     2
100
AcDbCircle
 10
-5035.827404377094
 20
3060.5578768878
 30
0.0
 40
34.49999999999996
100
AcDbArc
 50
62.69254104752495
 51
63.62319835607757
  0
ARC
  5
233
330
7C
100
AcDbEntity
  8
0
  6
Continuous
 62
     2
100
AcDbCircle
 10
-5035.827404377082
 20
3060.557876887788
 30
0.0
 40
34.50000000000342
100
AcDbArc
 50
41.52899451736355
 51
45.15897918362087
  0
ARC
  5
234
330
7C
100
AcDbEntity
  8
0
  6
Continuous
 62
     2
100
AcDbCircle
 10
-5035.827404376163
 20
3060.557876887747
 30
0.0
 40
34.50000000000289
100
AcDbArc
 50
86.61893907059057
 51
86.96372867234625
  0
ARC
  5
235
330
7C
100
AcDbEntity
  8
0
  6
Continuous
 62
     2
100
AcDbCircle
 10
-5035.827404377094
 20
3060.5578768878
 30
0.0
 40
34.49999999999947
100
AcDbArc
 50
89.9296127455522
 51
90.44865512705904
  0
ARC
  5
236
330
7C
100
AcDbEntity
  8
0
  6
Continuous
 62
     2
100
AcDbCircle
 10
-5035.827404377094
 20
3060.5578768878
 30
0.0
 40
34.49999999999953
100
AcDbArc
 50
86.9637286707971
 51
89.9296127455522
  0
ARC
  5
237
330
7C
100
AcDbEntity
  8
0
  6
Continuous
 62
     2
100
AcDbCircle
 10
-5035.827404377309
 20
3060.55787688801
 30
0.0
 40
34.50000000000607
100
AcDbArc
 50
45.15897918309324
 51
46.31847207115222
  0
ARC
  5
238
330
7C
100
AcDbEntity
  8
0
  6
Continuous
 62
     2
100
AcDbCircle
 10
-5035.827404377094
 20
3060.5578768878
 30
0.0
 40
34.50000000000086
100
AcDbArc
 50
47.45597345388889
 51
62.69254104752495
  0
ARC
  5
239
330
7C
100
AcDbEntity
  8
0
  6
Continuous
 62
     2
100
AcDbCircle
 10
-5035.827404377094
 20
3060.5578768878
 30
0.0
 40
34.4999999999994
100
AcDbArc
 50
90.44865512705904
 51
106.5627203875525
  0
ARC
  5
23A
102
{ACAD_REACTORS
330
270
102
}
330
7C
100
AcDbEntity
  8
0
  6
Continuous
 62
     7
100
AcDbCircle
 10
-5058.400177627093
 20
3048.104772807012
 30
0.0
 40
0.500173818876897
100
AcDbArc
 50
269.9910115633381
 51
359.9910142241505
  0
ARC
  5
23B
102
{ACAD_REACTORS
330
270
102
}
330
7C
100
AcDbEntity
  8
0
  6
Continuous
 62
     2
100
AcDbCircle
 10
-5035.827404377094
 20
3060.5578768878
 30
0.0
 40
34.49999999999825
100
AcDbArc
 50
202.0525814536205
 51
207.5429789784183
  0
ARC
  5
23C
330
7C
100
AcDbEntity
  8
0
  6
Continuous
 62
     2
100
AcDbCircle
 10
-5035.827404377094
 20
3060.5578768878
 30
0.0
 40
34.49999999999834
100
AcDbArc
 50
106.5627203875525
 51
202.0525814536205
  0
SPLINE
  5
23D
330
7C
100
AcDbEntity
  8
0
  6
Continuous
 62
     3
100
AcDbSpline
210
0.0
220
0.0
230
1.0
 70
  1064
 71
     3
 72
    11
 73
     7
 74
     5
 42
0.000000001
 43
0.0000000001
 44
0.00000001
 40
0.0
 40
0.0
 40
0.0
 40
0.0
 40
0.1764319131509418
 40
0.3514710932388092
 40
0.525124318076412
 40
0.6960833822276421
 40
0.6960833822276421
 40
0.6960833822276421
 40
0.6960833822276421
 10
-5035.785021505471
 20
3111.483731674108
 30
0.0
 10
-5035.815889304024
 20
3111.533811837618
 30
0.0
 10
-5035.877381221437
 20
3111.633576845286
 30
0.0
 10
-5035.958279921517
 20
3111.788925717666
 30
0.0
 10
-5036.032640107307
 20
3111.94543752891
 30
0.0
 10
-5036.076029233493
 20
3112.051822407761
 30
0.0
 10
-5036.097554182757
 20
3112.104598994411
 30
0.0
 11
-5035.785021505471
 21
3111.483731674108
 31
0.0
 11
-5035.875773917464
 21
3111.635033424913
 31
0.0
 11
-5035.957530417032
 21
3111.789806127732
 31
0.0
 11
-5036.031521493538
 21
3111.946907252047
 31
0.0
 11
-5036.097554182757
 21
3112.104598994411
 31
0.0
  0
SPLINE
  5
23E
330
7C
100
AcDbEntity
  8
0
  6
Continuous
 62
     3
100
AcDbSpline
210
0.0
220
0.0
230
1.0
 70
  1064
 71
     3
 72
    11
 73
     7
 74
     5
 42
0.000000001
 43
0.0000000001
 44
0.00000001
 40
0.0
 40
0.0
 40
0.0
 40
0.0
 40
0.2681290073084248
 40
0.5352247068101803
 40
0.8013892638424376
 40
1.067984255884493
 40
1.067984255884493
 40
1.067984255884493
 40
1.067984255884493
 10
-5035.543309012374
 20
3111.79416533426
 30
0.0
 10
-5035.460391481187
 20
3111.760209726782
 30
0.0
 10
-5035.294875958921
 20
3111.692429382976
 30
0.0
 10
-5035.031248154617
 20
3111.642510864474
 30
0.0
 10
-5034.766514659883
 20
3111.609698906692
 30
0.0
 10
-5034.588818589493
 20
3111.606301094397
 30
0.0
 10
-5034.499898770549
 20
3111.604600823098
 30
0.0
 11
-5035.543309012374
 21
3111.79416533426
 31
0.0
 11
-5035.291907753339
 21
3111.700942096838
 31
0.0
 11
-5035.030672506204
 21
3111.645298056276
 31
0.0
 11
-5034.766316414047
 21
3111.614323412776
 31
0.0
 11
-5034.499898770549
 21
3111.604600823098
 31
0.0
  0
SPLINE
  5
23F
330
7C
100
AcDbEntity
  8
0
  6
Continuous
 62
     3
100
AcDbSpline
210
0.0
220
0.0
230
1.0
 70
  1064
 71
     3
 72
     9
 73
     5
 74
     3
 42
0.000000001
 43
0.0000000001
 44
0.00000001
 40
0.0
 40
0.0
 40
0.0
 40
0.0
 40
0.2831138945789207
 40
0.5438991562386541
 40
0.5438991562386541
 40
0.5438991562386541
 40
0.5438991562386541
 10
-5034.323669821592
 20
3111.701289695267
 30
0.0
 10
-5034.233378743968
 20
3111.657960366125
 30
0.0
 10
-5034.059917680026
 20
3111.574718993068
 30
0.0
 10
-5034.019420928124
 20
3111.387666921751
 30
0.0
 10
-5034.000003814342
 20
3111.297980396123
 30
0.0
 11
-5034.323669821592
 21
3111.701289695267
 31
0.0
 11
-5034.088822979194
 21
3111.543174421889
 31
0.0
 11
-5034.000003814342
 21
3111.297980396123
 31
0.0
  0
SPLINE
  5
240
330
7C
100
AcDbEntity
  8
0
  6
Continuous
 62
     3
100
AcDbSpline
210
0.0
220
0.0
230
1.0
 70
  1064
 71
     3
 72
    11
 73
     7
 74
     5
 42
0.000000001
 43
0.0000000001
 44
0.00000001
 40
0.0
 40
0.0
 40
0.0
 40
0.0
 40
0.1333867925094882
 40
0.2954353579312757
 40
0.4753369312637881
 40
0.668777424470397
 40
0.668777424470397
 40
0.668777424470397
 40
0.668777424470397
 10
-5034.323669821592
 20
3111.701289695267
 30
0.0
 10
-5034.293034423144
 20
3111.733608092385
 30
0.0
 10
-5034.225180767929
 20
3111.805189359986
 30
0.0
 10
-5034.098207157567
 20
3111.900787893273
 30
0.0
 10
-5033.952763400934
 20
3112.004073084316
 30
0.0
 10
-5033.847341131272
 20
3112.070289927959
 30
0.0
 10
-5033.792718471757
 20
3112.104598994411
 30
0.0
 11
-5034.323669821592
 21
3111.701289695267
 31
0.0
 11
-5034.229508270198
 21
3111.795765294686
 31
0.0
 11
-5034.10262779432
 21
3111.896567500147
 31
0.0
 11
-5033.955512468026
 21
3112.000112938495
 31
0.0
 11
-5033.792718471757
 21
3112.104598994411
 31
0.0
  0
SPLINE
  5
241
330
7C
100
AcDbEntity
  8
0
  6
Continuous
 62
     3
100
AcDbSpline
210
0.0
220
0.0
230
1.0
 70
  1064
 71
     3
 72
    11
 73
     7
 74
     5
 42
0.000000001
 43
0.0000000001
 44
0.00000001
 40
0.0
 40
0.0
 40
0.0
 40
0.0
 40
0.2234361850396031
 40
0.4396586941015165
 40
0.6465353455624658
 40
0.8367857294051484
 40
0.8367857294051484
 40
0.8367857294051484
 40
0.8367857294051484
 10
-5033.792718471757
 20
3112.104598994411
 30
0.0
 10
-5033.819984849803
 20
3112.035247357141
 30
0.0
 10
-5033.87363729239
 20
3111.898783107159
 30
0.0
 10
-5033.936289727883
 20
3111.692586057769
 30
0.0
 10
-5033.986810767719
 20
3111.493709051341
 30
0.0
 10
-5033.995730617573
 20
3111.361376520769
 30
0.0
 10
-5034.000003814342
 20
3111.297980396123
 30
0.0
 11
-5033.792718471757
 21
3112.104598994411
 31
0.0
 11
-5033.871664386085
 21
3111.895574424824
 31
0.0
 11
-5033.935589199667
 21
3111.689017429992
 31
0.0
 11
-5033.981724033376
 21
3111.48735055876
 31
0.0
 11
-5034.000003814342
 21
3111.297980396123
 31
0.0
  0
SPLINE
  5
242
330
7C
100
AcDbEntity
  8
0
  6
Continuous
 62
     3
100
AcDbSpline
210
0.0
220
0.0
230
1.0
 70
  1064
 71
     3
 72
    11
 73
     7
 74
     5
 42
0.000000001
 43
0.0000000001
 44
0.00000001
 40
0.0
 40
0.0
 40
0.0
 40
0.0
 40
0.1941595880121636
 40
0.3815716774136616
 40
0.5590031077416232
 40
0.7290244580941835
 40
0.7290244580941835
 40
0.7290244580941835
 40
0.7290244580941835
 10
-4951.627581202413
 20
3111.104598994411
 30
0.0
 10
-4951.621257765771
 20
3111.169743300458
 30
0.0
 10
-4951.608830632526
 20
3111.297767993153
 30
0.0
 10
-4951.511456178185
 20
3111.462172540287
 30
0.0
 10
-4951.368489299397
 20
3111.580833777207
 30
0.0
 10
-4951.251711936111
 20
3111.596790696923
 30
0.0
 10
-4951.194568500521
 20
3111.604598994411
 30
0.0
 11
-4951.627581202413
 21
3111.104598994411
 31
0.0
 11
-4951.594618856762
 21
3111.29594012882
 31
0.0
 11
-4951.500754718369
 21
3111.458152385005
 31
0.0
 11
-4951.360274783708
 21
3111.566537356141
 31
0.0
 11
-4951.194568500521
 21
3111.604598994411
 31
0.0
  0
SPLINE
  5
243
330
7C
100
AcDbEntity
  8
0
  6
Continuous
 62
     3
100
AcDbSpline
210
0.0
220
0.0
230
1.0
 70
  1064
 71
     3
 72
    11
 73
     7
 74
     5
 42
0.000000001
 43
0.0000000001
 44
0.00000001
 40
0.0
 40
0.0
 40
0.0
 40
0.0
 40
0.1922852184902821
 40
0.3633104833833821
 40
0.4986822054540914
 40
0.6016460087033755
 40
0.6016460087033755
 40
0.6016460087033755
 40
0.6016460087033755
 10
-4952.310593904305
 20
3111.104598994411
 30
0.0
 10
-4952.313987147753
 20
3111.169091637277
 30
0.0
 10
-4952.320398468203
 20
3111.290946312805
 30
0.0
 10
-4952.37257040382
 20
3111.447734214264
 30
0.0
 10
-4952.447630548455
 20
3111.573045187618
 30
0.0
 10
-4952.526514911217
 20
3111.595079788842
 30
0.0
 10
-4952.560593904305
 20
3111.604598994411
 30
0.0
 11
-4952.310593904305
 21
3111.104598994411
 31
0.0
 11
-4952.32962472344
 21
3111.29594012882
 31
0.0
 11
-4952.383817209009
 21
3111.458152385005
 31
0.0
 11
-4952.4649233371
 21
3111.566537356141
 31
0.0
 11
-4952.560593904305
 21
3111.604598994411
 31
0.0
  0
SPLINE
  5
244
330
7C
100
AcDbEntity
  8
0
  6
Continuous
 62
     3
100
AcDbSpline
210
0.0
220
0.0
230
1.0
 70
  1064
 71
     3
 72
    11
 73
     7
 74
     5
 42
0.000000001
 43
0.0000000001
 44
0.00000001
 40
0.0
 40
0.0
 40
0.0
 40
0.0
 40
0.1947351533031412
 40
0.3869286732791716
 40
0.5754690302275065
 40
0.7613830874401094
 40
0.7613830874401094
 40
0.7613830874401094
 40
0.7613830874401094
 10
-4946.259076156032
 20
3111.104598994411
 30
0.0
 10
-4946.252006542479
 20
3111.169975845751
 30
0.0
 10
-4946.237959572057
 20
3111.299876263508
 30
0.0
 10
-4946.129051480491
 20
3111.464951745125
 30
0.0
 10
-4945.971799924596
 20
3111.581663989278
 30
0.0
 10
-4945.84600447861
 20
3111.596989827457
 30
0.0
 10
-4945.783547897884
 20
3111.604598994411
 30
0.0
 11
-4946.259076156032
 21
3111.104598994411
 31
0.0
 11
-4946.222877386935
 21
3111.29594012882
 31
0.0
 11
-4946.119797153866
 21
3111.458152385005
 31
0.0
 11
-4945.965524130599
 21
3111.566537356141
 31
0.0
 11
-4945.783547897884
 21
3111.604598994411
 31
0.0
  0
SPLINE
  5
245
330
7C
100
AcDbEntity
  8
0
  6
Continuous
 62
     3
100
AcDbSpline
210
0.0
220
0.0
230
1.0
 70
  1064
 71
     3
 72
    11
 73
     7
 74
     5
 42
0.000000001
 43
0.0000000001
 44
0.00000001
 40
0.0
 40
0.0
 40
0.0
 40
0.0
 40
0.1947351533031412
 40
0.3869286732786837
 40
0.5754690302270187
 40
0.7613830874396216
 40
0.7613830874396216
 40
0.7613830874396216
 40
0.7613830874396216
 10
-4946.722601647594
 20
3111.104598994411
 30
0.0
 10
-4946.715532034041
 20
3111.16997584575
 30
0.0
 10
-4946.701485063617
 20
3111.299876263508
 30
0.0
 10
-4946.592576972056
 20
3111.464951745126
 30
0.0
 10
-4946.435325416159
 20
3111.581663989277
 30
0.0
 10
-4946.309529970173
 20
3111.596989827457
 30
0.0
 10
-4946.247073389447
 20
3111.604598994411
 30
0.0
 11
-4946.722601647594
 21
3111.104598994411
 31
0.0
 11
-4946.686402878497
 21
3111.29594012882
 31
0.0
 11
-4946.583322645429
 21
3111.458152385005
 31
0.0
 11
-4946.429049622162
 21
3111.566537356141
 31
0.0
 11
-4946.247073389447
 21
3111.604598994411
 31
0.0
  0
SPLINE
  5
246
330
7C
100
AcDbEntity
  8
0
  6
Continuous
 62
     3
100
AcDbSpline
210
0.0
220
0.0
230
1.0
 70
  1064
 71
     3
 72
     9
 73
     5
 74
     3
 42
0.000000001
 43
0.0000000001
 44
0.00000001
 40
0.0
 40
0.0
 40
0.0
 40
0.0
 40
0.2909284931578104
 40
0.5821587029927486
 40
0.5821587029927486
 40
0.5821587029927486
 40
0.5821587029927486
 10
-5012.184064953135
 20
3112.104598994411
 30
0.0
 10
-5012.087091134413
 20
3112.103844836256
 30
0.0
 10
-5011.89304292708
 20
3112.102335757823
 30
0.0
 10
-5011.698989086777
 20
3112.10263860843
 30
0.0
 10
-5011.601911880257
 20
3112.102790122221
 30
0.0
 11
-5012.184064953135
 21
3112.104598994411
 31
0.0
 11
-5011.893142090121
 21
3112.102789042782
 31
0.0
 11
-5011.601911880257
 21
3112.102790122221
 31
0.0
  0
SPLINE
  5
247
330
7C
100
AcDbEntity
  8
0
  6
Continuous
 62
     3
100
AcDbSpline
210
0.0
220
0.0
230
1.0
 70
  1064
 71
     3
 72
     9
 73
     5
 74
     3
 42
0.000000001
 43
0.0000000001
 44
0.00000001
 40
0.0
 40
0.0
 40
0.0
 40
0.0
 40
0.147522473316219
 40
0.2951233366778879
 40
0.2951233366778879
 40
0.2951233366778879
 40
0.2951233366778879
 10
-5011.601911880257
 20
3112.102790122221
 30
0.0
 10
-5011.552740288841
 20
3112.103320753826
 30
0.0
 10
-5011.454370977199
 20
3112.104382278995
 30
0.0
 10
-5011.355996043852
 20
3112.104526749816
 30
0.0
 10
-5011.306795512062
 20
3112.104598994411
 30
0.0
 11
-5011.601911880257
 21
3112.102790122221
 31
0.0
 11
-5011.454395701232
 21
3112.104152865225
 31
0.0
 11
-5011.306795512062
 21
3112.104598994411
 31
0.0
  0
SPLINE
  5
248
330
7C
100
AcDbEntity
  8
0
  6
Continuous
 62
     3
100
AcDbSpline
210
0.0
220
0.0
230
1.0
 70
  1064
 71
     3
 72
    11
 73
     7
 74
     5
 42
0.000000001
 43
0.0000000001
 44
0.00000001
 40
0.0
 40
0.0
 40
0.0
 40
0.0
 40
0.1914906063811598
 40
0.3551268219358393
 40
0.468204691753258
 40
0.5220077230842716
 40
0.5220077230842716
 40
0.5220077230842716
 40
0.5220077230842716
 10
-5011.306795512062
 20
3112.104598994411
 30
0.0
 10
-5011.305922316707
 20
3112.040363251401
 30
0.0
 10
-5011.304302947456
 20
3111.921235554698
 30
0.0
 10
-5011.279745914511
 20
3111.770370202002
 30
0.0
 10
-5011.264447586025
 20
3111.653508957801
 30
0.0
 10
-5011.221327177492
 20
3111.616523304097
 30
0.0
 10
-5011.207424990156
 20
3111.604598994411
 30
0.0
 11
-5011.306795512062
 21
3112.104598994411
 31
0.0
 11
-5011.299231102344
 21
3111.913257860002
 31
0.0
 11
-5011.277690560046
 21
3111.751045603818
 31
0.0
 11
-5011.245452326933
 21
3111.642660632681
 31
0.0
 11
-5011.207424990156
 21
3111.604598994411
 31
0.0
  0
SPLINE
  5
249
330
7C
100
AcDbEntity
  8
0
  6
Continuous
 62
     3
100
AcDbSpline
210
0.0
220
0.0
230
1.0
 70
  1064
 71
     3
 72
    11
 73
     7
 74
     5
 42
0.000000001
 43
0.0000000001
 44
0.00000001
 40
0.0
 40
0.0
 40
0.0
 40
0.0
 40
0.1847455339383247
 40
0.3447898527390185
 40
0.4594882763586766
 40
0.5190163805491084
 40
0.5190163805491084
 40
0.5190163805491084
 40
0.5190163805491084
 10
-5011.601911880257
 20
3112.102790122221
 30
0.0
 10
-5011.600220220833
 20
3112.040966949742
 30
0.0
 10
-5011.597063089821
 20
3111.925586611215
 30
0.0
 10
-5011.572729189344
 20
3111.776297511379
 30
0.0
 10
-5011.553967338813
 20
3111.661455611634
 30
0.0
 10
-5011.513746204441
 20
3111.618404021965
 30
0.0
 10
-5011.500003814342
 20
3111.603694558316
 30
0.0
 11
-5011.601911880257
 21
3112.102790122221
 31
0.0
 11
-5011.592500918443
 21
3111.91828444768
 31
0.0
 11
-5011.570032277751
 21
3111.759825165321
 31
0.0
 11
-5011.537677193555
 21
3111.649784818704
 31
0.0
 11
-5011.500003814342
 21
3111.603694558316
 31
0.0
  0
SPLINE
  5
24A
330
7C
100
AcDbEntity
  8
0
  6
Continuous
 62
     3
100
AcDbSpline
210
0.0
220
0.0
230
1.0
 70
  1064
 71
     3
 72
    11
 73
     7
 74
     5
 42
0.000000001
 43
0.0000000001
 44
0.00000001
 40
0.0
 40
0.0
 40
0.0
 40
0.0
 40
0.1915141491005788
 40
0.3553736251108953
 40
0.4691733578896177
 40
0.5250539516565674
 40
0.5250539516565674
 40
0.5250539516565674
 40
0.5250539516565674
 10
-5012.184064953135
 20
3112.104598994411
 30
0.0
 10
-5012.183070261495
 20
3112.040334585541
 30
0.0
 10
-5012.181224517368
 20
3111.921085560558
 30
0.0
 10
-5012.155355845809
 20
3111.770250923342
 30
0.0
 10
-5012.137500017817
 20
3111.652288625244
 30
0.0
 10
-5012.092102109076
 20
3111.616413647861
 30
0.0
 10
-5012.077151271804
 20
3111.604598994411
 30
0.0
 11
-5012.184064953135
 21
3112.104598994411
 31
0.0
 11
-5012.175926333405
 21
3111.913257860002
 31
0.0
 11
-5012.152750660875
 21
3111.751045603818
 31
0.0
 11
-5012.118065241943
 21
3111.642660632681
 31
0.0
 11
-5012.077151271804
 21
3111.604598994411
 31
0.0
  0
SPLINE
  5
24B
330
7C
100
AcDbEntity
  8
0
  6
Continuous
 62
     3
100
AcDbSpline
210
0.0
220
0.0
230
1.0
 70
  1064
 71
     3
 72
    11
 73
     7
 74
     5
 42
0.000000001
 43
0.0000000001
 44
0.00000001
 40
0.0
 40
0.0
 40
0.0
 40
0.0
 40
0.1918076514978638
 40
0.3584276397866007
 40
0.4808769154544573
 40
0.5581159929087609
 40
0.5581159929087609
 40
0.5581159929087609
 40
0.5581159929087609
 10
-5020.175632608791
 20
3112.104598994411
 30
0.0
 10
-5020.173462026116
 20
3112.040194808494
 30
0.0
 10
-5020.169405897851
 20
3111.919843822637
 30
0.0
 10
-5020.131836245553
 20
3111.767144891751
 30
0.0
 10
-5020.087224256296
 20
3111.642918885841
 30
0.0
 10
-5020.024330863846
 20
3111.615286963792
 30
0.0
 10
-5020.000003814342
 20
3111.604598994411
 30
0.0
 11
-5020.175632608791
 21
3112.104598994411
 31
0.0
 11
-5020.162263169503
 21
3111.913257860002
 31
0.0
 11
-5020.124192125868
 21
3111.751045603818
 31
0.0
 11
-5020.06721383987
 21
3111.642660632681
 31
0.0
 11
-5020.000003814342
 21
3111.604598994411
 31
0.0
  0
SPLINE
  5
24C
330
7C
100
AcDbEntity
  8
0
  6
Continuous
 62
     3
100
AcDbSpline
210
0.0
220
0.0
230
1.0
 70
  1064
 71
     3
 72
    11
 73
     7
 74
     5
 42
0.000000001
 43
0.0000000001
 44
0.00000001
 40
0.0
 40
0.0
 40
0.0
 40
0.0
 40
0.1104823724063204
 40
0.2500491596312188
 40
0.4225732656616406
 40
0.6150235342910768
 40
0.6150235342910768
 40
0.6150235342910768
 40
0.6150235342910768
 10
-5031.000003814342
 20
3111.604598994411
 30
0.0
 10
-5031.036780004035
 20
3111.613834032966
 30
0.0
 10
-5031.120013686161
 20
3111.634735242248
 30
0.0
 10
-5031.203461224922
 20
3111.759708469043
 30
0.0
 10
-5031.260246937989
 20
3111.917686259713
 30
0.0
 10
-5031.267311028339
 20
3112.040067569786
 30
0.0
 10
-5031.271035904541
 20
3112.104598994411
 30
0.0
 11
-5031.000003814342
 21
3111.604598994411
 31
0.0
 11
-5031.103722989542
 21
3111.64266063268
 31
0.0
 11
-5031.191652443242
 21
3111.751045603818
 31
0.0
 11
-5031.25040405379
 21
3111.913257860002
 31
0.0
 11
-5031.271035904541
 21
3112.104598994411
 31
0.0
  0
SPLINE
  5
24D
330
7C
100
AcDbEntity
  8
0
  6
Continuous
 62
     3
100
AcDbSpline
210
0.0
220
0.0
230
1.0
 70
  1064
 71
     3
 72
    11
 73
     7
 74
     5
 42
0.000000001
 43
0.0000000001
 44
0.00000001
 40
0.0
 40
0.0
 40
0.0
 40
0.0
 40
0.0875346565433397
 40
0.2148651918478717
 40
0.3831106908718583
 40
0.5750932484647159
 40
0.5750932484647159
 40
0.5750932484647159
 40
0.5750932484647159
 10
-5023.500003814342
 20
3111.604598994411
 30
0.0
 10
-5023.528357400036
 20
3111.614784823734
 30
0.0
 10
-5023.597954952063
 20
3111.639787280753
 30
0.0
 10
-5023.655074779942
 20
3111.764985255104
 30
0.0
 10
-5023.6982768335
 20
3111.919259143836
 30
0.0
 10
-5023.703307254355
 20
3112.040163400442
 30
0.0
 10
-5023.705988202893
 20
3112.104598994411
 30
0.0
 11
-5023.500003814342
 21
3111.604598994411
 31
0.0
 11
-5023.578830387493
 21
3111.64266063268
 31
0.0
 11
-5023.645656772305
 21
3111.751045603818
 31
0.0
 11
-5023.69030799632
 21
3111.913257860002
 31
0.0
 11
-5023.705988202893
 21
3112.104598994411
 31
0.0
  0
SPLINE
  5
24E
330
7C
100
AcDbEntity
  8
0
  6
Continuous
 62
     3
100
AcDbSpline
210
0.0
220
0.0
230
1.0
 70
  1064
 71
     3
 72
     9
 73
     5
 74
     3
 42
0.000000001
 43
0.0000000001
 44
0.00000001
 40
0.0
 40
0.0
 40
0.0
 40
0.0
 40
0.2944947822815528
 40
0.5771489197147996
 40
0.5771489197147996
 40
0.5771489197147996
 40
0.5771489197147996
 10
-5011.500003814342
 20
3111.603694558316
 30
0.0
 10
-5011.598168871316
 20
3111.603612012509
 30
0.0
 10
-5011.790552098424
 20
3111.60345025979
 30
0.0
 10
-5011.982933832758
 20
3111.6042213495
 30
0.0
 10
-5012.077151271804
 20
3111.604598994411
 30
0.0
 11
-5011.500003814342
 21
3111.603694558316
 31
0.0
 11
-5011.794498596601
 21
3111.603689809059
 31
0.0
 11
-5012.077151271804
 21
3111.604598994411
 31
0.0
  0
SPLINE
  5
24F
330
7C
100
AcDbEntity
  8
0
  6
Continuous
 62
     3
100
AcDbSpline
210
0.0
220
0.0
230
1.0
 70
  1064
 71
     3
 72
     9
 73
     5
 74
     3
 42
0.000000001
 43
0.0000000001
 44
0.00000001
 40
0.0
 40
0.0
 40
0.0
 40
0.0
 40
0.1463003321998445
 40
0.2925805814416268
 40
0.2925805814416268
 40
0.2925805814416268
 40
0.2925805814416268
 10
-5011.207424990156
 20
3111.604598994411
 30
0.0
 10
-5011.256191829073
 20
3111.604562892511
 30
0.0
 10
-5011.353718812532
 20
3111.604490673667
 30
0.0
 10
-5011.451244378508
 20
3111.603959924621
 30
0.0
 10
-5011.500003814342
 20
3111.603694558316
 30
0.0
 11
-5011.207424990156
 21
3111.604598994411
 31
0.0
 11
-5011.353725152471
 21
3111.604376030421
 31
0.0
 11
-5011.500003814342
 21
3111.603694558316
 31
0.0
  0
SPLINE
  5
250
330
7C
100
AcDbEntity
  8
0
  6
Continuous
 62
     3
100
AcDbSpline
210
0.0
220
0.0
230
1.0
 70
  1064
 71
     3
 72
    15
 73
    11
 74
     9
 42
0.000000001
 43
0.0000000001
 44
0.00000001
 40
0.0
 40
0.0
 40
0.0
 40
0.0
 40
0.1883137247239262
 40
0.3778044019771774
 40
0.5695945879872277
 40
0.7641962769546116
 40
0.9626185764783759
 40
1.16385965816748
 40
1.368227471235053
 40
1.575107639026114
 40
1.575107639026114
 40
1.575107639026114
 40
1.575107639026114
 10
-5023.705988202893
 20
3112.104598994411
 30
0.0
 10
-5023.64311684887
 20
3112.101293594161
 30
0.0
 10
-5023.516981198953
 20
3112.09466212062
 30
0.0
 10
-5023.333471690516
 20
3112.039822702608
 30
0.0
 10
-5023.160895841798
 20
3111.953690098295
 30
0.0
 10
-5023.005939665189
 20
3111.833295467643
 30
0.0
 10
-5022.874789318051
 20
3111.683028291009
 30
0.0
 10
-5022.775366285008
 20
3111.506697282863
 30
0.0
 10
-5022.709865948553
 20
3111.311009660131
 30
0.0
 10
-5022.701515766084
 20
3111.173682199188
 30
0.0
 10
-5022.697315176007
 20
3111.104598994411
 30
0.0
 11
-5023.705988202893
 21
3112.104598994411
 31
0.0
 11
-5023.51847133886
 21
3112.087293351688
 31
0.0
 11
-5023.336331793703
 21
3112.03502573644
 31
0.0
 11
-5023.165042229082
 21
3111.948750820504
 31
0.0
 11
-5023.011217932677
 21
3111.8295539088
 31
0.0
 11
-5022.880937313817
 21
3111.679893059235
 31
0.0
 11
-5022.781637783373
 21
3111.504857128979
 31
0.0
 11
-5022.718933410641
 21
3111.310346549606
 31
0.0
 11
-5022.697315176007
 21
3111.104598994411
 31
0.0
  0
SPLINE
  5
251
330
7C
100
AcDbEntity
  8
0
  6
Continuous
 62
     3
100
AcDbSpline
210
0.0
220
0.0
230
1.0
 70
  1064
 71
     3
 72
    17
 73
    13
 74
    11
 42
0.000000001
 43
0.0000000001
 44
0.00000001
 40
0.0
 40
0.0
 40
0.0
 40
0.0
 40
0.1086071465278617
 40
0.2159722875087768
 40
0.322980451309946
 40
0.4284782079262995
 40
0.6331957694649943
 40
0.8316262176232989
 40
1.023257914490988
 40
1.210170578251634
 40
1.393456393221659
 40
1.575686029977671
 40
1.575686029977671
 40
1.575686029977671
 40
1.575686029977671
 10
-5032.279708931428
 20
3111.104598994411
 30
0.0
 10
-5032.278570895861
 20
3111.140820036576
 30
0.0
 10
-5032.276307824675
 20
3111.212847904873
 30
0.0
 10
-5032.258043360526
 20
3111.319274311585
 30
0.0
 10
-5032.229463458672
 20
3111.422167902887
 30
0.0
 10
-5032.178018573629
 20
3111.551632537313
 30
0.0
 10
-5032.090851818014
 20
3111.698583359573
 30
0.0
 10
-5031.956899543239
 20
3111.846403610235
 30
0.0
 10
-5031.801737506878
 20
3111.962189344335
 30
0.0
 10
-5031.632276978597
 20
3112.043844530769
 30
0.0
 10
-5031.453886053899
 20
3112.095284494892
 30
0.0
 10
-5031.331868429078
 20
3112.101500152893
 30
0.0
 10
-5031.271035904541
 20
3112.104598994411
 30
0.0
 11
-5032.279708931428
 21
3111.104598994411
 31
0.0
 11
-5032.273778600344
 21
3111.213044113683
 31
0.0
 11
-5032.256259545928
 21
3111.318970298338
 31
0.0
 11
-5032.227498884615
 21
3111.422041010685
 31
0.0
 11
-5032.188528136925
 21
3111.520077012613
 31
0.0
 11
-5032.084177147735
 21
3111.696202398924
 31
0.0
 11
-5031.950956078381
 21
3111.843262896505
 31
0.0
 11
-5031.797296320942
 21
3111.957767859972
 31
0.0
 11
-5031.629172998619
 21
3112.039443393991
 31
0.0
 11
-5031.45254302258
 21
3112.088387669562
 31
0.0
 11
-5031.271035904541
 21
3112.104598994411
 31
0.0
  0
SPLINE
  5
252
330
7C
100
AcDbEntity
  8
0
  6
Continuous
 62
     3
100
AcDbSpline
210
0.0
220
0.0
230
1.0
 70
  1064
 71
     3
 72
    11
 73
     7
 74
     5
 42
0.000000001
 43
0.0000000001
 44
0.00000001
 40
0.0
 40
0.0
 40
0.0
 40
0.0
 40
0.1938030146658209
 40
0.3781980357210726
 40
0.5484016256990929
 40
0.7078104682703455
 40
0.7078104682703455
 40
0.7078104682703455
 40
0.7078104682703455
 10
-4973.742726757598
 20
3111.104598994411
 30
0.0
 10
-4973.748569875293
 20
3111.169599855528
 30
0.0
 10
-4973.759972475871
 20
3111.296446166577
 30
0.0
 10
-4973.849745913995
 20
3111.460159631548
 30
0.0
 10
-4973.982860225493
 20
3111.580135373506
 30
0.0
 10
-4974.093653058891
 20
3111.596624463471
 30
0.0
 10
-4974.147235254784
 20
3111.604598994411
 30
0.0
 11
-4973.742726757598
 21
3111.104598994411
 31
0.0
 11
-4973.773519269792
 21
3111.29594012882
 31
0.0
 11
-4973.861204553376
 21
3111.458152385005
 31
0.0
 11
-4973.992437025325
 21
3111.566537356141
 31
0.0
 11
-4974.147235254784
 21
3111.604598994411
 31
0.0
  0
SPLINE
  5
253
330
7C
100
AcDbEntity
  8
0
  6
Continuous
 62
     3
100
AcDbSpline
210
0.0
220
0.0
230
1.0
 70
  1064
 71
     3
 72
    11
 73
     7
 74
     5
 42
0.000000001
 43
0.0000000001
 44
0.00000001
 40
0.0
 40
0.0
 40
0.0
 40
0.0
 40
0.1914512202459395
 40
0.3547133088260777
 40
0.4665733166869619
 40
0.5167091689542528
 40
0.5167091689542528
 40
0.5167091689542528
 40
0.5167091689542528
 10
-4991.990022339124
 20
3111.104598994411
 30
0.0
 10
-4991.989363886281
 20
3111.168771643645
 30
0.0
 10
-4991.988143936627
 20
3111.287668208193
 30
0.0
 10
-4991.966148365031
 20
3111.438745632669
 30
0.0
 10
-4991.955249346738
 20
3111.553339748002
 30
0.0
 10
-4991.916683506135
 20
3111.592484231749
 30
0.0
 10
-4991.904747817419
 20
3111.604598994411
 30
0.0
 11
-4991.990022339124
 21
3111.104598994411
 31
0.0
 11
-4991.983530963127
 21
3111.29594012882
 31
0.0
 11
-4991.96504600998
 21
3111.458152385005
 31
0.0
 11
-4991.937380864858
 21
3111.566537356141
 31
0.0
 11
-4991.904747817419
 21
3111.604598994411
 31
0.0
  0
SPLINE
  5
254
330
7C
100
AcDbEntity
  8
0
  6
Continuous
 62
     3
100
AcDbSpline
210
0.0
220
0.0
230
1.0
 70
  1064
 71
     3
 72
    11
 73
     7
 74
     5
 42
0.000000001
 43
0.0000000001
 44
0.00000001
 40
0.0
 40
0.0
 40
0.0
 40
0.0
 40
0.1949294601275715
 40
0.3887136514102291
 40
0.580866416995256
 40
0.7718572674558382
 40
0.7718572674558382
 40
0.7718572674558382
 40
0.7718572674558382
 10
-4991.415674017052
 20
3111.104598994411
 30
0.0
 10
-4991.422989404181
 20
3111.170053522883
 30
0.0
 10
-4991.437577212426
 20
3111.300578011834
 30
0.0
 10
-4991.55019601582
 20
3111.465779977217
 30
0.0
 10
-4991.711905121287
 20
3111.581884585053
 30
0.0
 10
-4991.840597007294
 20
3111.597042852191
 30
0.0
 10
-4991.904747817419
 20
3111.604598994411
 30
0.0
 11
-4991.415674017052
 21
3111.104598994411
 31
0.0
 11
-4991.452903917206
 21
3111.29594012882
 31
0.0
 11
-4991.558920416679
 21
3111.458152385005
 31
0.0
 11
-4991.717587945875
 21
3111.566537356141
 31
0.0
 11
-4991.904747817419
 21
3111.604598994411
 31
0.0
  0
SPLINE
  5
255
330
7C
100
AcDbEntity
  8
0
  6
Continuous
 62
     3
100
AcDbSpline
210
0.0
220
0.0
230
1.0
 70
  1064
 71
     3
 72
    11
 73
     7
 74
     5
 42
0.000000001
 43
0.0000000001
 44
0.00000001
 40
0.0
 40
0.0
 40
0.0
 40
0.0
 40
0.1915047126420748
 40
0.35527473397627
 40
0.4687856680684852
 40
0.5238429111871372
 40
0.5238429111871372
 40
0.5238429111871372
 40
0.5238429111871372
 10
-4988.840559829098
 20
3111.104598994411
 30
0.0
 10
-4988.839613223471
 20
3111.168852580583
 30
0.0
 10
-4988.837857110079
 20
3111.288054218104
 30
0.0
 10
-4988.812499013636
 20
3111.438894107241
 30
0.0
 10
-4988.795660883475
 20
3111.556434538064
 30
0.0
 10
-4988.751143971767
 20
3111.592740765532
 30
0.0
 10
-4988.736603983689
 20
3111.604598994411
 30
0.0
 11
-4988.840559829098
 21
3111.104598994411
 31
0.0
 11
-4988.83264636953
 21
3111.29594012882
 31
0.0
 11
-4988.810111866922
 21
3111.458152385005
 31
0.0
 11
-4988.776386042467
 21
3111.566537356141
 31
0.0
 11
-4988.736603983689
 21
3111.604598994411
 31
0.0
  0
SPLINE
  5
256
330
7C
100
AcDbEntity
  8
0
  6
Continuous
 62
     3
100
AcDbSpline
210
0.0
220
0.0
230
1.0
 70
  1064
 71
     3
 72
    15
 73
    11
 74
     9
 42
0.000000001
 43
0.0000000001
 44
0.00000001
 40
0.0
 40
0.0
 40
0.0
 40
0.0
 40
0.0979996576956027
 40
0.1913480683699201
 40
0.2774257712375257
 40
0.3536151124255401
 40
0.4161214446839431
 40
0.4621837613211801
 40
0.4907701595534439
 40
0.5011588468901781
 40
0.5011588468901781
 40
0.5011588468901781
 40
0.5011588468901781
 10
-4998.019025553473
 20
3111.104598994411
 30
0.0
 10
-4998.018957538175
 20
3111.137266028044
 30
0.0
 10
-4998.0188247498
 20
3111.201049656875
 30
0.0
 10
-4998.017721014219
 20
3111.293514460805
 30
0.0
 10
-4998.016101287686
 20
3111.378722481378
 30
0.0
 10
-4998.013648163619
 20
3111.453557764725
 30
0.0
 10
-4998.011434848124
 20
3111.515242838183
 30
0.0
 10
-4998.007197356841
 20
3111.560495634716
 30
0.0
 10
-4998.006442014509
 20
3111.589377754925
 30
0.0
 10
-4998.001358739642
 20
3111.601395657742
 30
0.0
 10
-4998.000003814342
 20
3111.604598994411
 30
0.0
 11
-4998.019025553473
 21
3111.104598994411
 31
0.0
 11
-4998.018656658882
 21
3111.202597955518
 31
0.0
 11
-4998.017577556364
 21
3111.29594012882
 31
0.0
 11
-4998.0158296178
 21
3111.382000082567
 31
0.0
 11
-4998.013454215071
 21
3111.458152385005
 31
0.0
 11
-4998.010557116609
 21
3111.520591542462
 31
0.0
 11
-4998.007283096629
 21
3111.566537356141
 31
0.0
 11
-4998.003732035688
 21
3111.594902336604
 31
0.0
 11
-4998.000003814342
 21
3111.604598994411
 31
0.0
  0
SPLINE
  5
257
330
7C
100
AcDbEntity
  8
0
  6
Continuous
 62
     3
100
AcDbSpline
210
0.0
220
0.0
230
1.0
 70
  1064
 71
     3
 72
    11
 73
     7
 74
     5
 42
0.000000001
 43
0.0000000001
 44
0.00000001
 40
0.0
 40
0.0
 40
0.0
 40
0.0
 40
0.1919663950831356
 40
0.360062282837927
 40
0.4869494465126273
 40
0.573583667488493
 40
0.573583667488493
 40
0.573583667488493
 40
0.573583667488493
 10
-4976.287592708865
 20
3111.104598994411
 30
0.0
 10
-4976.284955100488
 20
3111.169031858323
 30
0.0
 10
-4976.280007862626
 20
3111.289885529992
 30
0.0
 10
-4976.237308637616
 20
3111.444015205529
 30
0.0
 10
-4976.181266195352
 20
3111.569162530683
 30
0.0
 10
-4976.112233666857
 20
3111.594370935804
 30
0.0
 10
-4976.084224387328
 20
3111.604598994411
 30
0.0
 11
-4976.287592708865
 21
3111.104598994411
 31
0.0
 11
-4976.272111645886
 21
3111.29594012882
 31
0.0
 11
-4976.228027506566
 21
3111.458152385005
 31
0.0
 11
-4976.162049838019
 21
3111.566537356141
 31
0.0
 11
-4976.084224387328
 21
3111.604598994411
 31
0.0
  0
SPLINE
  5
258
330
7C
100
AcDbEntity
  8
0
  6
Continuous
 62
     3
100
AcDbSpline
210
0.0
220
0.0
230
1.0
 70
  1064
 71
     3
 72
    11
 73
     7
 74
     5
 42
0.000000001
 43
0.0000000001
 44
0.00000001
 40
0.0
 40
0.0
 40
0.0
 40
0.0
 40
0.1934204975617753
 40
0.3745293863025164
 40
0.5366371509190417
 40
0.6838372539287808
 40
0.6838372539287808
 40
0.6838372539287808
 40
0.6838372539287808
 10
-4957.632045632839
 20
3111.104598994411
 30
0.0
 10
-4957.626740435225
 20
3111.169450193858
 30
0.0
 10
-4957.616467712746
 20
3111.295024679278
 30
0.0
 10
-4957.535294624473
 20
3111.457693276478
 30
0.0
 10
-4957.41387189628
 20
3111.579150495482
 30
0.0
 10
-4957.309936324754
 20
3111.596393180104
 30
0.0
 10
-4957.2604732201
 20
3111.604598994411
 30
0.0
 11
-4957.632045632839
 21
3111.104598994411
 31
0.0
 11
-4957.603760323309
 21
3111.29594012882
 31
0.0
 11
-4957.523214592849
 21
3111.458152385005
 31
0.0
 11
-4957.402667394037
 21
3111.566537356141
 31
0.0
 11
-4957.2604732201
 21
3111.604598994411
 31
0.0
  0
SPLINE
  5
259
330
7C
100
AcDbEntity
  8
0
  6
Continuous
 62
     3
100
AcDbSpline
210
0.0
220
0.0
230
1.0
 70
  1064
 71
     3
 72
    11
 73
     7
 74
     5
 42
0.000000001
 43
0.0000000001
 44
0.00000001
 40
0.0
 40
0.0
 40
0.0
 40
0.0
 40
0.1926445987878982
 40
0.3669185445534011
 40
0.5112728098026403
 40
0.6300062303064327
 40
0.6300062303064327
 40
0.6300062303064327
 40
0.6300062303064327
 10
-4966.227266940183
 20
3111.104598994411
 30
0.0
 10
-4966.223184866658
 20
3111.169183330735
 30
0.0
 10
-4966.215409976394
 20
3111.29219321764
 30
0.0
 10
-4966.153391581737
 20
3111.451406405811
 30
0.0
 10
-4966.060995672611
 20
3111.575805705226
 30
0.0
 10
-4965.973060231892
 20
3111.595645261873
 30
0.0
 10
-4965.933374314036
 20
3111.604598994411
 30
0.0
 11
-4966.227266940183
 21
3111.104598994411
 31
0.0
 11
-4966.204894870529
 21
3111.29594012882
 31
0.0
 11
-4966.141187782925
 21
3111.458152385005
 31
0.0
 11
-4966.045841810998
 21
3111.566537356141
 31
0.0
 11
-4965.933374314036
 21
3111.604598994411
 31
0.0
  0
SPLINE
  5
25A
330
7C
100
AcDbEntity
  8
0
  6
Continuous
 62
     3
100
AcDbSpline
210
0.0
220
0.0
230
1.0
 70
  1064
 71
     3
 72
    11
 73
     7
 74
     5
 42
0.000000001
 43
0.0000000001
 44
0.00000001
 40
0.0
 40
0.0
 40
0.0
 40
0.0
 40
0.1915047126420748
 40
0.3552747339761448
 40
0.46878566806836
 40
0.523842911187012
 40
0.523842911187012
 40
0.523842911187012
 40
0.523842911187012
 10
-4987.373338427997
 20
3111.104598994411
 30
0.0
 10
-4987.37239182237
 20
3111.168852580583
 30
0.0
 10
-4987.370635708979
 20
3111.288054218105
 30
0.0
 10
-4987.345277612535
 20
3111.438894107241
 30
0.0
 10
-4987.328439482376
 20
3111.556434538065
 30
0.0
 10
-4987.283922570667
 20
3111.592740765532
 30
0.0
 10
-4987.269382582588
 20
3111.604598994411
 30
0.0
 11
-4987.373338427997
 21
3111.104598994411
 31
0.0
 11
-4987.365424968429
 21
3111.29594012882
 31
0.0
 11
-4987.342890465821
 21
3111.458152385005
 31
0.0
 11
-4987.309164641367
 21
3111.566537356141
 31
0.0
 11
-4987.269382582588
 21
3111.604598994411
 31
0.0
  0
SPLINE
  5
25B
330
7C
100
AcDbEntity
  8
0
  6
Continuous
 62
     3
100
AcDbSpline
210
0.0
220
0.0
230
1.0
 70
  1064
 71
     3
 72
    15
 73
    11
 74
     9
 42
0.000000001
 43
0.0000000001
 44
0.00000001
 40
0.0
 40
0.0
 40
0.0
 40
0.0
 40
0.1918282354490581
 40
0.3833064745334278
 40
0.5762810040510999
 40
0.7711094061957103
 40
0.968559800909678
 40
1.168730087989
 40
1.370708625068712
 40
1.575028832395963
 40
1.575028832395963
 40
1.575028832395963
 40
1.575028832395963
 10
-5020.175632608791
 20
3112.104598994411
 30
0.0
 10
-5020.239668147976
 20
3112.10109166219
 30
0.0
 10
-5020.367622390215
 20
3112.094083382584
 30
0.0
 10
-5020.553189287782
 20
3112.038088018196
 30
0.0
 10
-5020.726036433794
 20
3111.949965648714
 30
0.0
 10
-5020.88057909137
 20
3111.82880518425
 30
0.0
 10
-5021.010067955245
 20
3111.67790378428
 30
0.0
 10
-5021.108036657501
 20
3111.502496358161
 30
0.0
 10
-5021.172045192823
 20
3111.308483923935
 30
0.0
 10
-5021.18020315361
 20
3111.172821265041
 30
0.0
 10
-5021.184305635677
 20
3111.104598994411
 30
0.0
 11
-5020.175632608791
 21
3112.104598994411
 31
0.0
 11
-5020.366605504685
 21
3112.086504089089
 31
0.0
 11
-5020.550454390472
 21
3112.032992370961
 31
0.0
 11
-5020.722187569449
 21
3111.944975981011
 31
0.0
 11
-5020.875484423179
 21
3111.8247338025
 31
0.0
 11
-5021.004063579324
 21
3111.674887015518
 31
0.0
 11
-5021.101977588285
 21
3111.500298953646
 31
0.0
 11
-5021.163216829196
 21
3111.307827954173
 31
0.0
 11
-5021.184305635677
 21
3111.104598994411
 31
0.0
  0
SPLINE
  5
25C
330
7C
100
AcDbEntity
  8
0
  6
Continuous
 62
     3
100
AcDbSpline
210
0.0
220
0.0
230
1.0
 70
  1064
 71
     3
 72
     9
 73
     5
 74
     3
 42
0.000000001
 43
0.0000000001
 44
0.00000001
 40
0.0
 40
0.0
 40
0.0
 40
0.0
 40
0.0926354788890959
 40
0.20653123840988
 40
0.20653123840988
 40
0.20653123840988
 40
0.20653123840988
 10
-5034.499898770549
 20
3111.604600823098
 30
0.0
 10
-5034.468468660757
 20
3111.609232371909
 30
0.0
 10
-5034.398395088685
 20
3111.619558450163
 30
0.0
 10
-5034.350230910157
 20
3111.672238322761
 30
0.0
 10
-5034.323669821592
 20
3111.701289695267
 30
0.0
 11
-5034.499898770549
 21
3111.604600823098
 31
0.0
 11
-5034.410016157867
 21
3111.627016181989
 31
0.0
 11
-5034.323669821592
 21
3111.701289695267
 31
0.0
  0
SPLINE
  5
25D
330
7C
100
AcDbEntity
  8
0
  6
Continuous
 62
     3
100
AcDbSpline
210
0.0
220
0.0
230
1.0
 70
  1064
 71
     3
 72
    11
 73
     7
 74
     5
 42
0.000000001
 43
0.0000000001
 44
0.00000001
 40
0.0
 40
0.0
 40
0.0
 40
0.0
 40
0.1941595880121636
 40
0.3815716774136616
 40
0.5590031077416232
 40
0.7290244580941835
 40
0.7290244580941835
 40
0.7290244580941835
 40
0.7290244580941835
 10
-4950.877581202413
 20
3111.104598994411
 30
0.0
 10
-4950.87125776577
 20
3111.169743300458
 30
0.0
 10
-4950.858830632525
 20
3111.297767993153
 30
0.0
 10
-4950.761456178185
 20
3111.462172540287
 30
0.0
 10
-4950.618489299397
 20
3111.580833777207
 30
0.0
 10
-4950.501711936111
 20
3111.596790696923
 30
0.0
 10
-4950.444568500521
 20
3111.604598994411
 30
0.0
 11
-4950.877581202413
 21
3111.104598994411
 31
0.0
 11
-4950.844618856762
 21
3111.29594012882
 31
0.0
 11
-4950.750754718369
 21
3111.458152385005
 31
0.0
 11
-4950.610274783708
 21
3111.566537356141
 31
0.0
 11
-4950.444568500521
 21
3111.604598994411
 31
0.0
  0
SPLINE
  5
25E
330
7C
100
AcDbEntity
  8
0
  6
Continuous
 62
     3
100
AcDbSpline
210
0.0
220
0.0
230
1.0
 70
  1064
 71
     3
 72
    11
 73
     7
 74
     5
 42
0.000000001
 43
0.0000000001
 44
0.00000001
 40
0.0
 40
0.0
 40
0.0
 40
0.0
 40
0.1950494515782249
 40
0.3898102361472771
 40
0.5841620241023194
 40
0.7782241105632103
 40
0.7782241105632103
 40
0.7782241105632103
 40
0.7782241105632103
 10
-4944.135174021169
 20
3111.104598994411
 30
0.0
 10
-4944.127708139747
 20
3111.170101128147
 30
0.0
 10
-4944.112787412115
 20
3111.301008451424
 30
0.0
 10
-4943.997919415957
 20
3111.466267143916
 30
0.0
 10
-4943.833536315036
 20
3111.58200906327
 30
0.0
 10
-4943.703088389849
 20
3111.597072767169
 30
0.0
 10
-4943.637913073485
 20
3111.604598994411
 30
0.0
 11
-4944.135174021169
 21
3111.104598994411
 31
0.0
 11
-4944.097320888536
 21
3111.29594012882
 31
0.0
 11
-4943.989529661612
 21
3111.458152385005
 31
0.0
 11
-4943.82820602114
 21
3111.566537356141
 31
0.0
 11
-4943.637913073485
 21
3111.604598994411
 31
0.0
  0
SPLINE
  5
25F
330
7C
100
AcDbEntity
  8
0
  6
Continuous
 62
     3
100
AcDbSpline
210
0.0
220
0.0
230
1.0
 70
  1064
 71
     3
 72
    11
 73
     7
 74
     5
 42
0.000000001
 43
0.0000000001
 44
0.00000001
 40
0.0
 40
0.0
 40
0.0
 40
0.0
 40
0.1917022962562321
 40
0.3573361805619811
 40
0.476751216046126
 40
0.5470702609052831
 40
0.5470702609052831
 40
0.5470702609052831
 40
0.5470702609052831
 10
-4947.352638402929
 20
3111.104598994411
 30
0.0
 10
-4947.354445680092
 20
3111.168976566849
 30
0.0
 10
-4947.357814470426
 20
3111.288977400945
 30
0.0
 10
-4947.391698660874
 20
3111.44077509067
 30
0.0
 10
-4947.427697874219
 20
3111.563750372011
 30
0.0
 10
-4947.485663672581
 20
3111.593553424161
 30
0.0
 10
-4947.507146900117
 20
3111.604598994411
 30
0.0
 11
-4947.352638402929
 21
3111.104598994411
 31
0.0
 11
-4947.364400095988
 21
3111.29594012882
 31
0.0
 11
-4947.397892894005
 21
3111.458152385005
 31
0.0
 11
-4947.448019237862
 21
3111.566537356141
 31
0.0
 11
-4947.507146900117
 21
3111.604598994411
 31
0.0
  0
SPLINE
  5
260
330
7C
100
AcDbEntity
  8
0
  6
Continuous
 62
     3
100
AcDbSpline
210
0.0
220
0.0
230
1.0
 70
  1064
 71
     3
 72
    12
 73
     8
 74
     6
 42
0.000000001
 43
0.0000000001
 44
0.00000001
 40
0.0
 40
0.0
 40
0.0
 40
0.0
 40
0.1913824967085312
 40
0.3539899056643604
 40
0.4343672820662682
 40
0.485599369386453
 40
0.5074499144579531
 40
0.5074499144579531
 40
0.5074499144579531
 40
0.5074499144579531
 10
-4944.684699200488
 20
3111.104598994411
 30
0.0
 10
-4944.685590450666
 20
3111.168280848318
 30
0.0
 10
-4944.687238936882
 20
3111.286069745836
 30
0.0
 10
-4944.694739199636
 20
3111.43184477336
 30
0.0
 10
-4944.710223372125
 20
3111.527099640378
 30
0.0
 10
-4944.715507812591
 20
3111.580714539528
 30
0.0
 10
-4944.732025046659
 20
3111.599101562879
 30
0.0
 10
-4944.736963432121
 20
3111.604598994411
 30
0.0
 11
-4944.684699200488
 21
3111.104598994411
 31
0.0
 11
-4944.688677725045
 21
3111.29594012882
 31
0.0
 11
-4944.700007039519
 21
3111.458152385005
 31
0.0
 11
-4944.710864176279
 21
3111.537793110624
 31
0.0
 11
-4944.723399809248
 21
3111.587467898007
 31
0.0
 11
-4944.736963432121
 21
3111.604598994411
 31
0.0
  0
SPLINE
  5
261
330
7C
100
AcDbEntity
  8
0
  6
Continuous
 62
     3
100
AcDbSpline
210
0.0
220
0.0
230
1.0
 70
  1064
 71
     3
 72
    11
 73
     7
 74
     5
 42
0.000000001
 43
0.0000000001
 44
0.00000001
 40
0.0
 40
0.0
 40
0.0
 40
0.0
 40
0.1950494515782249
 40
0.3898102361477805
 40
0.5841620241020679
 40
0.7782241105629587
 40
0.7782241105629587
 40
0.7782241105629587
 40
0.7782241105629587
 10
-4943.978381326268
 20
3111.104598994411
 30
0.0
 10
-4943.970915444846
 20
3111.170101128147
 30
0.0
 10
-4943.955994717214
 20
3111.301008451424
 30
0.0
 10
-4943.841126721056
 20
3111.466267143916
 30
0.0
 10
-4943.676743620133
 20
3111.582009063271
 30
0.0
 10
-4943.546295694949
 20
3111.597072767169
 30
0.0
 10
-4943.481120378584
 20
3111.604598994411
 30
0.0
 11
-4943.978381326268
 21
3111.104598994411
 31
0.0
 11
-4943.940528193635
 21
3111.29594012882
 31
0.0
 11
-4943.83273696671
 21
3111.458152385005
 31
0.0
 11
-4943.671413326239
 21
3111.566537356141
 31
0.0
 11
-4943.481120378584
 21
3111.604598994411
 31
0.0
  0
SPLINE
  5
262
330
7C
100
AcDbEntity
  8
0
  6
Continuous
 62
     3
100
AcDbSpline
210
0.0
220
0.0
230
1.0
 70
  1064
 71
     3
 72
    11
 73
     7
 74
     5
 42
0.000000001
 43
0.0000000001
 44
0.00000001
 40
0.0
 40
0.0
 40
0.0
 40
0.0
 40
0.1949294601275715
 40
0.3887136514102291
 40
0.580866416995256
 40
0.7718572674558382
 40
0.7718572674558382
 40
0.7718572674558382
 40
0.7718572674558382
 10
-4989.433589474874
 20
3111.104598994411
 30
0.0
 10
-4989.440904862004
 20
3111.170053522883
 30
0.0
 10
-4989.455492670247
 20
3111.300578011834
 30
0.0
 10
-4989.568111473643
 20
3111.465779977217
 30
0.0
 10
-4989.729820579107
 20
3111.581884585053
 30
0.0
 10
-4989.858512465116
 20
3111.597042852191
 30
0.0
 10
-4989.922663275241
 20
3111.604598994411
 30
0.0
 11
-4989.433589474874
 21
3111.104598994411
 31
0.0
 11
-4989.470819375028
 21
3111.29594012882
 31
0.0
 11
-4989.576835874501
 21
3111.458152385005
 31
0.0
 11
-4989.735503403696
 21
3111.566537356141
 31
0.0
 11
-4989.922663275241
 21
3111.604598994411
 31
0.0
  0
SPLINE
  5
263
330
7C
100
AcDbEntity
  8
0
  6
Continuous
 62
     3
100
AcDbSpline
210
0.0
220
0.0
230
1.0
 70
  1064
 71
     3
 72
    11
 73
     7
 74
     5
 42
0.000000001
 43
0.0000000001
 44
0.00000001
 40
0.0
 40
0.0
 40
0.0
 40
0.0
 40
0.1918634208624074
 40
0.3590032631865251
 40
0.4830293185157143
 40
0.5636929530042869
 40
0.5636929530042869
 40
0.5636929530042869
 40
0.5636929530042869
 10
-4982.838211030026
 20
3111.104598994411
 30
0.0
 10
-4982.835866919132
 20
3111.169013996382
 30
0.0
 10
-4982.83148076132
 20
3111.289543461597
 30
0.0
 10
-4982.79206387305
 20
3111.442744089366
 30
0.0
 10
-4982.743246847738
 20
3111.567396207058
 30
0.0
 10
-4982.678057014472
 20
3111.594082520383
 30
0.0
 10
-4982.652367153276
 20
3111.604598994411
 30
0.0
 11
-4982.838211030026
 21
3111.104598994411
 31
0.0
 11
-4982.824063985203
 21
3111.29594012882
 31
0.0
 11
-4982.783778618768
 21
3111.458152385005
 31
0.0
 11
-4982.723486309677
 21
3111.566537356141
 31
0.0
 11
-4982.652367153276
 21
3111.604598994411
 31
0.0
  0
SPLINE
  5
264
330
7C
100
AcDbEntity
  8
0
  6
Continuous
 62
     3
100
AcDbSpline
210
0.0
220
0.0
230
1.0
 70
  1064
 71
     3
 72
    11
 73
     7
 74
     5
 42
0.000000001
 43
0.0000000001
 44
0.00000001
 40
0.0
 40
0.0
 40
0.0
 40
0.0
 40
0.1944748163146719
 40
0.3845187726793822
 40
0.5681136086043564
 40
0.747008315855962
 40
0.747008315855962
 40
0.747008315855962
 40
0.747008315855962
 10
-4982.195594424455
 20
3111.104598994411
 30
0.0
 10
-4982.202330243684
 20
3111.169870915607
 30
0.0
 10
-4982.215648429246
 20
3111.298927617844
 30
0.0
 10
-4982.31944457794
 20
3111.463759184497
 30
0.0
 10
-4982.470451608488
 20
3111.581325433955
 30
0.0
 10
-4982.592255081852
 20
3111.596908496794
 30
0.0
 10
-4982.652367153276
 20
3111.604598994411
 30
0.0
 11
-4982.195594424455
 21
3111.104598994411
 31
0.0
 11
-4982.230365461207
 21
3111.29594012882
 31
0.0
 11
-4982.329380059266
 21
3111.458152385005
 31
0.0
 11
-4982.477568329077
 21
3111.566537356141
 31
0.0
 11
-4982.652367153276
 21
3111.604598994411
 31
0.0
  0
SPLINE
  5
265
330
7C
100
AcDbEntity
  8
0
  6
Continuous
 62
     3
100
AcDbSpline
210
0.0
220
0.0
230
1.0
 70
  1064
 71
     3
 72
    11
 73
     7
 74
     5
 42
0.000000001
 43
0.0000000001
 44
0.00000001
 40
0.0
 40
0.0
 40
0.0
 40
0.0
 40
0.1925102907933338
 40
0.365576564031083
 40
0.506638869441277
 40
0.6197330864342433
 40
0.6197330864342433
 40
0.6197330864342433
 40
0.6197330864342433
 10
-4974.425526217388
 20
3111.104598994411
 30
0.0
 10
-4974.421687675298
 20
3111.169145961329
 30
0.0
 10
-4974.414398283682
 20
3111.291720489327
 30
0.0
 10
-4974.355974607657
 20
3111.450098468235
 30
0.0
 10
-4974.26966609434
 20
3111.574910291753
 30
0.0
 10
-4974.184937617498
 20
3111.595456415147
 30
0.0
 10
-4974.147235254784
 20
3111.604598994411
 30
0.0
 11
-4974.425526217388
 21
3111.104598994411
 31
0.0
 11
-4974.404341797484
 21
3111.29594012882
 31
0.0
 11
-4974.344016681585
 21
3111.458152385005
 31
0.0
 11
-4974.253732271745
 21
3111.566537356141
 31
0.0
 11
-4974.147235254784
 21
3111.604598994411
 31
0.0
  0
SPLINE
  5
266
330
7C
100
AcDbEntity
  8
0
  6
Continuous
 62
     3
100
AcDbSpline
210
0.0
220
0.0
230
1.0
 70
  1064
 71
     3
 72
    11
 73
     7
 74
     5
 42
0.000000001
 43
0.0000000001
 44
0.00000001
 40
0.0
 40
0.0
 40
0.0
 40
0.0
 40
0.1919663950831356
 40
0.360062282837927
 40
0.4869494465121544
 40
0.5735836674880201
 40
0.5735836674880201
 40
0.5735836674880201
 40
0.5735836674880201
 10
-4977.657910895329
 20
3111.104598994411
 30
0.0
 10
-4977.655273286953
 20
3111.169031858323
 30
0.0
 10
-4977.650326049093
 20
3111.289885529992
 30
0.0
 10
-4977.607626824078
 20
3111.444015205528
 30
0.0
 10
-4977.551584381818
 20
3111.569162530684
 30
0.0
 10
-4977.482551853323
 20
3111.594370935805
 30
0.0
 10
-4977.454542573792
 20
3111.604598994411
 30
0.0
 11
-4977.657910895329
 21
3111.104598994411
 31
0.0
 11
-4977.64242983235
 21
3111.29594012882
 31
0.0
 11
-4977.59834569303
 21
3111.458152385005
 31
0.0
 11
-4977.532368024484
 21
3111.566537356141
 31
0.0
 11
-4977.454542573792
 21
3111.604598994411
 31
0.0
  0
SPLINE
  5
267
330
7C
100
AcDbEntity
  8
0
  6
Continuous
 62
     3
100
AcDbSpline
210
0.0
220
0.0
230
1.0
 70
  1064
 71
     3
 72
    11
 73
     7
 74
     5
 42
0.000000001
 43
0.0000000001
 44
0.00000001
 40
0.0
 40
0.0
 40
0.0
 40
0.0
 40
0.1944748163146719
 40
0.3845187726798561
 40
0.5681136086040962
 40
0.7470083158557017
 40
0.7470083158557017
 40
0.7470083158557017
 40
0.7470083158557017
 10
-4978.318051945688
 20
3111.104598994411
 30
0.0
 10
-4978.324787764918
 20
3111.169870915608
 30
0.0
 10
-4978.338105950479
 20
3111.298927617844
 30
0.0
 10
-4978.441902099174
 20
3111.463759184495
 30
0.0
 10
-4978.592909129723
 20
3111.581325433957
 30
0.0
 10
-4978.714712603086
 20
3111.596908496794
 30
0.0
 10
-4978.77482467451
 20
3111.604598994411
 30
0.0
 11
-4978.318051945688
 21
3111.104598994411
 31
0.0
 11
-4978.352822982441
 21
3111.29594012882
 31
0.0
 11
-4978.4518375805
 21
3111.458152385005
 31
0.0
 11
-4978.600025850311
 21
3111.566537356141
 31
0.0
 11
-4978.77482467451
 21
3111.604598994411
 31
0.0
  0
SPLINE
  5
268
330
7C
100
AcDbEntity
  8
0
  6
Continuous
 62
     3
100
AcDbSpline
210
0.0
220
0.0
230
1.0
 70
  1064
 71
     3
 72
    11
 73
     7
 74
     5
 42
0.000000001
 43
0.0000000001
 44
0.00000001
 40
0.0
 40
0.0
 40
0.0
 40
0.0
 40
0.1934204975616423
 40
0.3745293863023834
 40
0.5366371509189087
 40
0.6838372539277693
 40
0.6838372539277693
 40
0.6838372539277693
 40
0.6838372539277693
 10
-4958.635741542377
 20
3111.104598994411
 30
0.0
 10
-4958.630436344764
 20
3111.169450193858
 30
0.0
 10
-4958.620163622286
 20
3111.295024679279
 30
0.0
 10
-4958.538990534011
 20
3111.457693276478
 30
0.0
 10
-4958.417567805818
 20
3111.579150495481
 30
0.0
 10
-4958.313632234293
 20
3111.596393180104
 30
0.0
 10
-4958.264169129639
 20
3111.604598994411
 30
0.0
 11
-4958.635741542377
 21
3111.104598994411
 31
0.0
 11
-4958.607456232848
 21
3111.29594012882
 31
0.0
 11
-4958.526910502388
 21
3111.458152385005
 31
0.0
 11
-4958.406363303576
 21
3111.566537356141
 31
0.0
 11
-4958.264169129639
 21
3111.604598994411
 31
0.0
  0
SPLINE
  5
269
330
7C
100
AcDbEntity
  8
0
  6
Continuous
 62
     3
100
AcDbSpline
210
0.0
220
0.0
230
1.0
 70
  1064
 71
     3
 72
    11
 73
     7
 74
     5
 42
0.000000001
 43
0.0000000001
 44
0.00000001
 40
0.0
 40
0.0
 40
0.0
 40
0.0
 40
0.1930286518269987
 40
0.3707151798203692
 40
0.5241051692963429
 40
0.6576751279181524
 40
0.6576751279181524
 40
0.6576751279181524
 40
0.6576751279181524
 10
-4959.341879258295
 20
3111.104598994411
 30
0.0
 10
-4959.346596687237
 20
3111.169306704924
 30
0.0
 10
-4959.355656612001
 20
3111.293579085625
 30
0.0
 10
-4959.427472439006
 20
3111.454764581285
 30
0.0
 10
-4959.535330992312
 20
3111.577762834872
 30
0.0
 10
-4959.631623648884
 20
3111.596075218039
 30
0.0
 10
-4959.676444561475
 20
3111.604598994411
 30
0.0
 11
-4959.341879258295
 21
3111.104598994411
 31
0.0
 11
-4959.36734746539
 21
3111.29594012882
 31
0.0
 11
-4959.439871166847
 21
3111.458152385005
 31
0.0
 11
-4959.548412352186
 21
3111.566537356141
 31
0.0
 11
-4959.676444561475
 21
3111.604598994411
 31
0.0
  0
SPLINE
  5
26A
330
7C
100
AcDbEntity
  8
0
  6
Continuous
 62
     3
100
AcDbSpline
210
0.0
220
0.0
230
1.0
 70
  1064
 71
     3
 72
    11
 73
     7
 74
     5
 42
0.000000001
 43
0.0000000001
 44
0.00000001
 40
0.0
 40
0.0
 40
0.0
 40
0.0
 40
0.1926445987878982
 40
0.3669185445530687
 40
0.5112728098023078
 40
0.6300062303061003
 40
0.6300062303061003
 40
0.6300062303061003
 40
0.6300062303061003
 10
-4967.440792431745
 20
3111.104598994411
 30
0.0
 10
-4967.43671035822
 20
3111.169183330735
 30
0.0
 10
-4967.428935467955
 20
3111.29219321764
 30
0.0
 10
-4967.366917073301
 20
3111.451406405812
 30
0.0
 10
-4967.274521164174
 20
3111.575805705227
 30
0.0
 10
-4967.186585723455
 20
3111.595645261872
 30
0.0
 10
-4967.146899805599
 20
3111.604598994411
 30
0.0
 11
-4967.440792431745
 21
3111.104598994411
 31
0.0
 11
-4967.418420362091
 21
3111.29594012882
 31
0.0
 11
-4967.354713274488
 21
3111.458152385005
 31
0.0
 11
-4967.259367302561
 21
3111.566537356141
 31
0.0
 11
-4967.146899805599
 21
3111.604598994411
 31
0.0
  0
SPLINE
  5
26B
330
7C
100
AcDbEntity
  8
0
  6
Continuous
 62
     3
100
AcDbSpline
210
0.0
220
0.0
230
1.0
 70
  1064
 71
     3
 72
    11
 73
     7
 74
     5
 42
0.000000001
 43
0.0000000001
 44
0.00000001
 40
0.0
 40
0.0
 40
0.0
 40
0.0
 40
0.1938030146656765
 40
0.3781980357213606
 40
0.5484016257000821
 40
0.7078104682713348
 40
0.7078104682713348
 40
0.7078104682713348
 40
0.7078104682713348
 10
-4968.139193555078
 20
3111.104598994411
 30
0.0
 10
-4968.145036672773
 20
3111.169599855528
 30
0.0
 10
-4968.156439273351
 20
3111.296446166577
 30
0.0
 10
-4968.246212711478
 20
3111.460159631548
 30
0.0
 10
-4968.379327022973
 20
3111.580135373505
 30
0.0
 10
-4968.490119856371
 20
3111.59662446347
 30
0.0
 10
-4968.543702052266
 20
3111.604598994411
 30
0.0
 11
-4968.139193555078
 21
3111.104598994411
 31
0.0
 11
-4968.169986067272
 21
3111.29594012882
 31
0.0
 11
-4968.257671350857
 21
3111.458152385005
 31
0.0
 11
-4968.388903822806
 21
3111.566537356141
 31
0.0
 11
-4968.543702052266
 21
3111.604598994411
 31
0.0
  0
SPLINE
  5
26C
330
7C
100
AcDbEntity
  8
0
  6
Continuous
 62
     3
100
AcDbSpline
210
0.0
220
0.0
230
1.0
 70
  1064
 71
     3
 72
    11
 73
     7
 74
     5
 42
0.000000001
 43
0.0000000001
 44
0.00000001
 40
0.0
 40
0.0
 40
0.0
 40
0.0
 40
0.5536182936898671
 40
0.9298236174322511
 40
1.422229044553974
 40
1.860116157257122
 40
1.860116157257122
 40
1.860116157257122
 40
1.860116157257122
 10
-5034.002081827051
 20
3111.150161255289
 30
0.0
 10
-5034.185951472621
 20
3111.126611364382
 30
0.0
 10
-5034.494767748046
 20
3111.087058413104
 30
0.0
 10
-5034.967753321228
 20
3111.13557228277
 30
0.0
 10
-5035.397302910749
 20
3111.238544754175
 30
0.0
 10
-5035.660931827307
 20
3111.405259378365
 30
0.0
 10
-5035.785021505471
 20
3111.483731674108
 30
0.0
 11
-5034.002081827051
 21
3111.150161255289
 31
0.0
 11
-5034.553836749752
 21
3111.104777113996
 31
0.0
 11
-5034.928492026886
 21
3111.138892652759
 31
0.0
 11
-5035.403395652548
 21
3111.269006656277
 31
0.0
 11
-5035.785021505471
 21
3111.483731674108
 31
0.0
  0
SPLINE
  5
26D
330
7C
100
AcDbEntity
  8
0
  6
Continuous
 62
     7
100
AcDbSpline
210
0.0
220
0.0
230
1.0
 70
  1064
 71
     3
 72
    11
 73
     7
 74
     5
 42
0.000000001
 43
0.0000000001
 44
0.00000001
 40
0.0
 40
0.0
 40
0.0
 40
0.0
 40
2.480770509665485
 40
4.983900579472056
 40
7.542929363029604
 40
10.08524529499165
 40
10.08524529499165
 40
10.08524529499165
 40
10.08524529499165
 10
-5043.923214021434
 20
3072.104598994411
 30
0.0
 10
-5043.752004850745
 20
3072.913821166378
 30
0.0
 10
-5043.408043389929
 20
3074.539559155136
 30
0.0
 10
-5043.053866932743
 20
3077.030317125512
 30
0.0
 10
-5042.819628575833
 20
3079.55626333007
 30
0.0
 10
-5042.790791441039
 20
3081.257011083394
 30
0.0
 10
-5042.776420118747
 20
3082.104598994411
 30
0.0
 11
-5043.923214021434
 21
3072.104598994411
 31
0.0
 11
-5043.436826342403
 21
3074.537220902658
 31
0.0
 11
-5043.076483762766
 21
3077.014278304985
 31
0.0
 11
-5042.851398786278
 21
3079.56338894822
 31
0.0
 11
-5042.776420118747
 21
3082.104598994411
 31
0.0
  0
SPLINE
  5
26E
330
7C
100
AcDbEntity
  8
0
  6
Continuous
 62
     7
100
AcDbSpline
210
0.0
220
0.0
230
1.0
 70
  1064
 71
     3
 72
     9
 73
     5
 74
     3
 42
0.000000001
 43
0.0000000001
 44
0.00000001
 40
0.0
 40
0.0
 40
0.0
 40
0.0
 40
5.937911099640051
 40
12.0092858200841
 40
12.0092858200841
 40
12.0092858200841
 40
12.0092858200841
 10
-5042.776420118747
 20
3082.104598994411
 30
0.0
 10
-5042.848239943739
 20
3084.087825400298
 30
0.0
 10
-5042.993493873803
 20
3088.098854252484
 30
0.0
 10
-5043.917786722681
 20
3092.004929383975
 30
0.0
 10
-5044.385069160648
 20
3093.979671774554
 30
0.0
 11
-5042.776420118747
 21
3082.104598994411
 31
0.0
 11
-5043.182334513946
 21
3088.028619735324
 31
0.0
 11
-5044.385069160648
 21
3093.979671774554
 31
0.0
  0
SPLINE
  5
26F
330
7C
100
AcDbEntity
  8
0
  6
Continuous
 62
     7
100
AcDbSpline
210
0.0
220
0.0
230
1.0
 70
  1064
 71
     3
 72
    15
 73
    11
 74
     9
 42
0.000000001
 43
0.0000000001
 44
0.00000001
 40
0.0
 40
0.0
 40
0.0
 40
0.0
 40
5.561899363671023
 40
11.04786403306833
 40
14.81376732949959
 40
20.22103866278851
 40
23.56613550387896
 40
26.52747781720786
 40
27.68291480899181
 40
28.83835180112768
 40
28.83835180112768
 40
28.83835180112768
 40
28.83835180112768
 10
-5045.662139028157
 20
3093.626411695727
 30
0.0
 10
-5046.167294192172
 20
3095.411601425327
 30
0.0
 10
-5047.170707824918
 20
3098.957608300427
 30
0.0
 10
-5049.046016068555
 20
3103.535156760635
 30
0.0
 10
-5051.122139888747
 20
3107.958669545905
 30
0.0
 10
-5053.083765341473
 20
3111.644466929777
 30
0.0
 10
-5055.041577938775
 20
3115.022988578434
 30
0.0
 10
-5056.339679357805
 20
3117.144928511258
 30
0.0
 10
-5057.27564837818
 20
3118.63236963824
 30
0.0
 10
-5057.691885331541
 20
3119.28052254492
 30
0.0
 10
-5057.900003814342
 20
3119.604598994411
 30
0.0
 11
-5045.662139028157
 21
3093.626411695727
 31
0.0
 11
-5047.277757312482
 21
3098.948488555218
 31
0.0
 11
-5049.312668333784
 21
3104.043088196093
 31
0.0
 11
-5050.912984046923
 21
3107.452049513186
 31
0.0
 11
-5053.441778345599
 21
3112.231566505206
 31
0.0
 11
-5055.117829527066
 21
3115.126480202695
 31
0.0
 11
-5056.661434941163
 21
3117.653698163642
 31
0.0
 11
-5057.277146069907
 21
3118.631417165826
 31
0.0
 11
-5057.900003814342
 21
3119.604598994411
 31
0.0
  0
HATCH
  5
270
330
7C
100
AcDbEntity
  8
0
  6
Continuous
 62
     3
100
AcDbHatch
 10
0.0
 20
0.0
 30
0.0
210
0.0
220
0.0
230
1.0
  2
_USER
 70
     0
 71
     1
 91
        1
 92
        1
 93
        9
 72
     1
 10
-5057.900003814342
 20
3044.604598994411
 11
-5057.900003814342
 21
3044.104598994411
 72
     1
 10
-5057.900003814342
 20
3044.104598994411
 11
-5054.900003814342
 21
3044.104598994411
 72
     1
 10
-5054.900003814342
 20
3044.104598994411
 11
-5054.900003814342
 21
3072.104598994411
 72
     1
 10
-5054.900003814342
 20
3072.104598994411
 11
-5057.900003814342
 21
3072.104598994411
 72
     1
 10
-5057.900003814342
 20
3072.104598994411
 11
-5057.900003814366
 21
3048.104694364065
 72
     2
 10
-5058.400177627093
 20
3048.104772807012
 40
0.500173818876897
 50
0.0089857758495285
 51
90.00898843666187
 73
     0
 72
     1
 10
-5058.400256093269
 20
3047.60459899429
 11
-5067.803373350943
 21
3047.604598994411
 72
     2
 10
-5035.827404377094
 20
3060.5578768878
 40
34.49999999999825
 50
202.0525814536205
 51
207.5429789784183
 73
     1
 72
     1
 10
-5066.417319781623
 20
3044.604598994411
 11
-5057.900003814342
 21
3044.604598994411
 97
        9
330
23B
330
20C
330
23A
330
212
330
20F
330
210
330
20E
330
213
330
209
 75
     1
 76
     0
 52
45.0
 41
5.0
 77
     0
 78
     1
 53
45.0
 43
0.0
 44
0.0
 45
-3.535533905932737
 46
3.535533905932738
 79
     0
 98
        1
 10
0.0
 20
0.0
  0
ENDBLK
  5
7E
330
7C
100
AcDbEntity
  8
0
100
AcDbBlockEnd
  0
BLOCK
  5
82
330
7F
100
AcDbEntity
  8
0
100
AcDbBlockBegin
  2
HL163Safe-WEB-Zeichnung__3
 70
     0
 10
-5238.900003814342
 20
3034.602032452824
 30
0.0
  3
HL163Safe-WEB-Zeichnung__3
  1

  0
INSERT
  5
80
330
7F
100
AcDbEntity
  8
0
100
AcDbBlockReference
  2
HL0114D-330057750__1
 10
-5238.900003814342
 20
3034.602032452824
 30
0.0
  0
INSERT
  5
81
330
7F
100
AcDbEntity
  8
0
100
AcDbBlockReference
  2
301057751_Notentwässerung__2
 10
-5158.400003814342
 20
3037.104598994411
 30
0.0
  0
ENDBLK
  5
83
330
7F
100
AcDbEntity
  8
0
100
AcDbBlockEnd
  0
BLOCK
  5
87
330
84
100
AcDbEntity
  8
0
100
AcDbBlockBegin
  2
Untsicht1
 70
     0
 10
-5049.99999999982
 20
3084.612361905653
 30
0.0
  3
Untsicht1
  1

  0
INSERT
  5
85
330
84
100
AcDbEntity
  8
1
100
AcDbBlockReference
  2
Ausbruch1
 10
-5070.327404377273
 20
3026.057876982146
 30
0.0
  0
INSERT
  5
86
330
84
100
AcDbEntity
  8
0
100
AcDbBlockReference
  2
HL163Safe-WEB-Zeichnung__3
 10
-5238.900003814342
 20
3034.602032452824
 30
0.0
  0
LINE
  5
271
330
84
100
AcDbEntity
  8
1
  6
Continuous
 62
     7
100
AcDbLine
 10
-4941.600003814342
 20
3114.604598994411
 30
0.0
 11
-4940.600003814342
 21
3114.604598994411
 31
0.0
  0
LINE
  5
272
330
84
100
AcDbEntity
  8
1
  6
Continuous
 62
     7
100
AcDbLine
 10
-4944.750003814343
 20
3134.604598994411
 30
0.0
 11
-4944.750003814343
 21
3135.604598994411
 31
0.0
  0
LINE
  5
273
330
84
100
AcDbEntity
  8
1
  6
Continuous
 62
     7
100
AcDbLine
 10
-5054.750003814343
 20
3134.604598994411
 30
0.0
 11
-5054.750003814343
 21
3135.604598994411
 31
0.0
  0
MTEXT
  5
274
330
84
100
AcDbEntity
  8
1
 62
     1
100
AcDbMText
 10
-5049.99999999982
 20
3029.620124814589
 30
0.0
 40
3.5
 41
0.0
 71
     2
 72
     1
  1
 
  7
CONVERTER_11
 73
     1
 44
1.32052821128451
  0
DIMENSION
  5
27F
330
84
100
AcDbEntity
  8
1
100
AcDbDimension
  2
*D10
 10
-4900.5534168827
 20
3134.604598994413
 30
0.0
 11
-4909.5534168827
 21
3082.821855269452
 31
0.0
 70
    32
  1
<>
 71
     5
 42
-1.0
 53
90.0
  3
ME10_DIM_10
100
AcDbAlignedDimension
 13
-4944.135174021169
 23
3037.104598994411
 33
0.0
 14
-4941.600003814342
 24
3134.604598994411
 34
0.0
 50
90.0
100
AcDbRotatedDimension
  0
DIMENSION
  5
28C
330
84
100
AcDbEntity
  8
1
100
AcDbDimension
  2
*D11
 10
-4923.20455115026
 20
3134.604598994411
 30
0.0
 11
-4932.20455115026
 21
3155.77866344796
 31
0.0
 70
    32
  1
<>
 71
     5
 42
-1.0
 53
90.0
  3
ME10_DIM_11
100
AcDbAlignedDimension
 13
-4940.600003814342
 23
3114.604598994411
 33
0.0
 14
-4941.600003814342
 24
3134.604598994411
 34
0.0
 50
90.0
100
AcDbRotatedDimension
  0
DIMENSION
  5
297
330
84
100
AcDbEntity
  8
1
100
AcDbDimension
  2
*D12
 10
-5054.750003814343
 20
3154.52568942364
 30
0.0
 11
-5011.01730773198
 21
3163.52568942364
 31
0.0
 70
    32
  1
<>
 71
     5
 42
-1.0
 53
0.00013888888889
  3
ME10_DIM_12
100
AcDbAlignedDimension
 13
-4944.750003814343
 23
3135.604598994411
 33
0.0
 14
-5054.750003814343
 24
3135.604598994411
 34
0.0
100
AcDbRotatedDimension
  0
DIMENSION
  5
2A2
330
84
100
AcDbEntity
  8
1
100
AcDbDimension
  2
*D13
 10
-5178.54022464061
 20
3044.604598994412
 30
0.0
 11
-5187.54022464061
 21
3080.044378460941
 31
0.0
 70
    32
  1
<>
 71
     5
 42
-1.0
 53
90.0
  3
ME10_DIM_13
100
AcDbAlignedDimension
 13
-5155.400003814342
 23
3119.604598994411
 33
0.0
 14
-5155.400003814342
 24
3044.604598994411
 34
0.0
 50
90.0
100
AcDbRotatedDimension
  0
DIMENSION
  5
2AD
330
84
100
AcDbEntity
  8
1
100
AcDbDimension
  2
*D14
 10
-4923.88173566798
 20
3037.104598994411
 30
0.0
 11
-4932.88173566798
 21
3056.58169963247
 31
0.0
 70
    32
  1
<>
 71
     5
 42
-1.0
 53
90.0
  3
ME10_DIM_14
100
AcDbAlignedDimension
 13
-5043.923214021434
 23
3072.104598994411
 33
0.0
 14
-4944.684699200488
 24
3037.104598994411
 34
0.0
 50
90.0
100
AcDbRotatedDimension
  0
ENDBLK
  5
88
330
84
100
AcDbEntity
  8
0
100
AcDbBlockEnd
  0
BLOCK
  5
8A
330
89
100
AcDbEntity
  8
0
100
AcDbBlockBegin
  2
HL0114D-330057750__4
 70
     0
 10
-5238.900003814342
 20
2872.0
 30
0.0
  3
HL0114D-330057750__4
  1

  0
LINE
  5
2AE
330
89
100
AcDbEntity
  8
1
  6
DOT_CENTER
 62
     2
100
AcDbLine
 10
-5245.28739620115
 20
2922.0
 30
0.0
 11
-5203.07063430013
 21
2922.0
 31
0.0
  0
LINE
  5
2AF
330
89
100
AcDbEntity
  8
0
  6
Continuous
 62
     7
100
AcDbLine
 10
-5209.900003814342
 20
2877.0
 30
0.0
 11
-5209.900003814342
 21
2872.0
 31
0.0
  0
LINE
  5
2B0
330
89
100
AcDbEntity
  8
0
  6
Continuous
 62
     7
100
AcDbLine
 10
-5224.800704395188
 20
2881.129409522551
 30
0.0
 11
-5223.083251416072
 21
2874.719787744882
 31
0.0
  0
LINE
  5
2B1
330
89
100
AcDbEntity
  8
0
  6
Continuous
 62
     7
100
AcDbLine
 10
-5228.993473668185
 20
2881.5
 30
0.0
 11
-5225.283667308332
 21
2881.5
 31
0.0
  0
LINE
  5
2B2
330
89
100
AcDbEntity
  8
0
  6
Continuous
 62
     7
100
AcDbLine
 10
-5207.900003814342
 20
2872.0
 30
0.0
 11
-5209.900003814342
 21
2872.0
 31
0.0
  0
LINE
  5
2B3
330
89
100
AcDbEntity
  8
0
  6
Continuous
 62
     7
100
AcDbLine
 10
-5224.800704395188
 20
2962.870590477449
 30
0.0
 11
-5223.083251416072
 21
2969.280212255118
 31
0.0
  0
LINE
  5
2B4
330
89
100
AcDbEntity
  8
0
  6
Continuous
 62
     7
100
AcDbLine
 10
-5209.900003814342
 20
2967.0
 30
0.0
 11
-5211.900003814342
 21
2967.0
 31
0.0
  0
LINE
  5
2B5
330
89
100
AcDbEntity
  8
0
  6
Continuous
 62
     7
100
AcDbLine
 10
-5228.993473668185
 20
2962.5
 30
0.0
 11
-5225.283667308332
 21
2962.5
 31
0.0
  0
LINE
  5
2B6
330
89
100
AcDbEntity
  8
0
  6
Continuous
 62
     7
100
AcDbLine
 10
-5238.900003814342
 20
2881.5
 30
0.0
 11
-5237.083251416072
 21
2874.719787744882
 31
0.0
  0
LINE
  5
2B7
330
89
100
AcDbEntity
  8
0
  6
Continuous
 62
     3
100
AcDbLine
 10
-5230.083251416072
 20
2969.280212255118
 30
0.0
 11
-5230.083251416072
 21
2874.719787744882
 31
0.0
  0
LINE
  5
2B8
330
89
100
AcDbEntity
  8
0
  6
Continuous
 62
     7
100
AcDbLine
 10
-5211.900003814342
 20
2881.0
 30
0.0
 11
-5211.900003814342
 21
2877.0
 31
0.0
  0
LINE
  5
2B9
330
89
100
AcDbEntity
  8
0
  6
Continuous
 62
     3
100
AcDbLine
 10
-5224.800704395188
 20
2962.870590477449
 30
0.0
 11
-5224.800704395188
 21
2881.129409522551
 31
0.0
  0
LINE
  5
2BA
330
89
100
AcDbEntity
  8
0
  6
Continuous
 62
     3
100
AcDbLine
 10
-5225.283667308332
 20
2881.5
 30
0.0
 11
-5225.283667308332
 21
2962.5
 31
0.0
  0
LINE
  5
2BB
330
89
100
AcDbEntity
  8
0
  6
Continuous
 62
     3
100
AcDbLine
 10
-5228.993473668185
 20
2962.5
 30
0.0
 11
-5228.993473668185
 21
2881.5
 31
0.0
  0
LINE
  5
2BC
330
89
100
AcDbEntity
  8
0
  6
Continuous
 62
     7
100
AcDbLine
 10
-5229.493473668185
 20
2963.0
 30
0.0
 11
-5229.493473668185
 21
2881.0
 31
0.0
  0
LINE
  5
2BD
330
89
100
AcDbEntity
  8
0
  6
Continuous
 62
     7
100
AcDbLine
 10
-5229.493473668185
 20
2881.0
 30
0.0
 11
-5229.493473668185
 21
2874.797433458412
 31
0.0
  0
LINE
  5
2BE
330
89
100
AcDbEntity
  8
0
  6
Continuous
 62
     7
100
AcDbLine
 10
-5229.493473668185
 20
2969.202566541588
 30
0.0
 11
-5229.493473668185
 21
2963.0
 31
0.0
  0
LINE
  5
2BF
330
89
100
AcDbEntity
  8
0
  6
Continuous
 62
     7
100
AcDbLine
 10
-5238.900003814342
 20
2962.5
 30
0.0
 11
-5238.900003814342
 21
2881.5
 31
0.0
  0
LINE
  5
2C0
330
89
100
AcDbEntity
  8
0
  6
Continuous
 62
     3
100
AcDbLine
 10
-5237.083251416072
 20
2969.280212255118
 30
0.0
 11
-5237.083251416072
 21
2874.719787744882
 31
0.0
  0
LINE
  5
2C1
330
89
100
AcDbEntity
  8
0
  6
Continuous
 62
     7
100
AcDbLine
 10
-5236.493473668185
 20
2881.0
 30
0.0
 11
-5236.493473668185
 21
2874.797433458412
 31
0.0
  0
LINE
  5
2C2
330
89
100
AcDbEntity
  8
0
  6
Continuous
 62
     7
100
AcDbLine
 10
-5235.993473668185
 20
2881.5
 30
0.0
 11
-5232.283667308332
 21
2881.5
 31
0.0
  0
LINE
  5
2C3
330
89
100
AcDbEntity
  8
0
  6
Continuous
 62
     7
100
AcDbLine
 10
-5236.493473668185
 20
2969.202566541588
 30
0.0
 11
-5236.493473668185
 21
2963.0
 31
0.0
  0
LINE
  5
2C4
330
89
100
AcDbEntity
  8
0
  6
Continuous
 62
     7
100
AcDbLine
 10
-5238.900003814342
 20
2962.5
 30
0.0
 11
-5237.083251416072
 21
2969.280212255118
 31
0.0
  0
LINE
  5
2C5
330
89
100
AcDbEntity
  8
0
  6
Continuous
 62
     3
100
AcDbLine
 10
-5231.800704395188
 20
2962.870590477449
 30
0.0
 11
-5231.800704395188
 21
2881.129409522551
 31
0.0
  0
LINE
  5
2C6
330
89
100
AcDbEntity
  8
0
  6
Continuous
 62
     3
100
AcDbLine
 10
-5232.283667308332
 20
2881.5
 30
0.0
 11
-5232.283667308332
 21
2962.5
 31
0.0
  0
LINE
  5
2C7
330
89
100
AcDbEntity
  8
0
  6
Continuous
 62
     7
100
AcDbLine
 10
-5231.800704395188
 20
2881.129409522551
 30
0.0
 11
-5230.083251416072
 21
2874.719787744882
 31
0.0
  0
LINE
  5
2C8
330
89
100
AcDbEntity
  8
0
  6
Continuous
 62
     7
100
AcDbLine
 10
-5235.993473668185
 20
2962.5
 30
0.0
 11
-5232.283667308332
 21
2962.5
 31
0.0
  0
LINE
  5
2C9
330
89
100
AcDbEntity
  8
0
  6
Continuous
 62
     7
100
AcDbLine
 10
-5231.800704395188
 20
2962.870590477449
 30
0.0
 11
-5230.083251416072
 21
2969.280212255118
 31
0.0
  0
LINE
  5
2CA
330
89
100
AcDbEntity
  8
0
  6
Continuous
 62
     7
100
AcDbLine
 10
-5236.493473668185
 20
2963.0
 30
0.0
 11
-5236.493473668185
 21
2881.0
 31
0.0
  0
LINE
  5
2CB
330
89
100
AcDbEntity
  8
0
  6
Continuous
 62
     3
100
AcDbLine
 10
-5235.993473668185
 20
2962.5
 30
0.0
 11
-5235.993473668185
 21
2881.5
 31
0.0
  0
LINE
  5
2CC
330
89
100
AcDbEntity
  8
0
  6
Continuous
 62
     7
100
AcDbLine
 10
-5207.900003814342
 20
2972.0
 30
0.0
 11
-5207.900003814342
 21
2872.0
 31
0.0
  0
LINE
  5
2CD
330
89
100
AcDbEntity
  8
0
  6
Continuous
 62
     7
100
AcDbLine
 10
-5217.800704395188
 20
2962.870590477449
 30
0.0
 11
-5216.083251416072
 21
2969.280212255118
 31
0.0
  0
LINE
  5
2CE
330
89
100
AcDbEntity
  8
0
  6
Continuous
 62
     7
100
AcDbLine
 10
-5209.900003814342
 20
2877.0
 30
0.0
 11
-5211.900003814342
 21
2877.0
 31
0.0
  0
LINE
  5
2CF
330
89
100
AcDbEntity
  8
0
  6
Continuous
 62
     7
100
AcDbLine
 10
-5222.493473668185
 20
2963.0
 30
0.0
 11
-5222.493473668185
 21
2881.0
 31
0.0
  0
LINE
  5
2D0
330
89
100
AcDbEntity
  8
0
  6
Continuous
 62
     7
100
AcDbLine
 10
-5222.493473668185
 20
2969.202566541588
 30
0.0
 11
-5222.493473668185
 21
2963.0
 31
0.0
  0
LINE
  5
2D1
330
89
100
AcDbEntity
  8
0
  6
Continuous
 62
     7
100
AcDbLine
 10
-5222.493473668185
 20
2881.0
 30
0.0
 11
-5222.493473668185
 21
2874.797433458412
 31
0.0
  0
LINE
  5
2D2
330
89
100
AcDbEntity
  8
0
  6
Continuous
 62
     3
100
AcDbLine
 10
-5214.993473668185
 20
2962.5
 30
0.0
 11
-5214.993473668185
 21
2881.5
 31
0.0
  0
LINE
  5
2D3
330
89
100
AcDbEntity
  8
0
  6
Continuous
 62
     3
100
AcDbLine
 10
-5212.400003814342
 20
2881.5
 30
0.0
 11
-5212.400003814342
 21
2962.5
 31
0.0
  0
LINE
  5
2D4
330
89
100
AcDbEntity
  8
0
  6
Continuous
 62
     7
100
AcDbLine
 10
-5221.993473668185
 20
2881.5
 30
0.0
 11
-5218.283667308332
 21
2881.5
 31
0.0
  0
LINE
  5
2D5
330
89
100
AcDbEntity
  8
0
  6
Continuous
 62
     7
100
AcDbLine
 10
-5214.993473668185
 20
2881.5
 30
0.0
 11
-5212.400003814342
 21
2881.5
 31
0.0
  0
LINE
  5
2D6
330
89
100
AcDbEntity
  8
0
  6
Continuous
 62
     7
100
AcDbLine
 10
-5211.900003814342
 20
2963.0
 30
0.0
 11
-5211.900003814342
 21
2881.0
 31
0.0
  0
LINE
  5
2D7
330
89
100
AcDbEntity
  8
0
  6
Continuous
 62
     7
100
AcDbLine
 10
-5211.900003814342
 20
2967.0
 30
0.0
 11
-5211.900003814342
 21
2963.0
 31
0.0
  0
LINE
  5
2D8
330
89
100
AcDbEntity
  8
0
  6
Continuous
 62
     3
100
AcDbLine
 10
-5221.993473668185
 20
2962.5
 30
0.0
 11
-5221.993473668185
 21
2881.5
 31
0.0
  0
LINE
  5
2D9
330
89
100
AcDbEntity
  8
0
  6
Continuous
 62
     7
100
AcDbLine
 10
-5217.800704395188
 20
2881.129409522551
 30
0.0
 11
-5216.083251416072
 21
2874.719787744882
 31
0.0
  0
LINE
  5
2DA
330
89
100
AcDbEntity
  8
0
  6
Continuous
 62
     3
100
AcDbLine
 10
-5218.283667308332
 20
2881.5
 30
0.0
 11
-5218.283667308332
 21
2962.5
 31
0.0
  0
LINE
  5
2DB
330
89
100
AcDbEntity
  8
0
  6
Continuous
 62
     3
100
AcDbLine
 10
-5217.800704395188
 20
2962.870590477449
 30
0.0
 11
-5217.800704395188
 21
2881.129409522551
 31
0.0
  0
LINE
  5
2DC
330
89
100
AcDbEntity
  8
0
  6
Continuous
 62
     3
100
AcDbLine
 10
-5216.083251416072
 20
2969.280212255118
 30
0.0
 11
-5216.083251416072
 21
2874.719787744882
 31
0.0
  0
LINE
  5
2DD
330
89
100
AcDbEntity
  8
0
  6
Continuous
 62
     7
100
AcDbLine
 10
-5215.493473668185
 20
2881.0
 30
0.0
 11
-5215.493473668185
 21
2874.797433458412
 31
0.0
  0
LINE
  5
2DE
330
89
100
AcDbEntity
  8
0
  6
Continuous
 62
     7
100
AcDbLine
 10
-5215.493473668185
 20
2963.0
 30
0.0
 11
-5215.493473668185
 21
2881.0
 31
0.0
  0
LINE
  5
2DF
330
89
100
AcDbEntity
  8
0
  6
Continuous
 62
     7
100
AcDbLine
 10
-5215.493473668185
 20
2969.202566541588
 30
0.0
 11
-5215.493473668185
 21
2963.0
 31
0.0
  0
LINE
  5
2E0
330
89
100
AcDbEntity
  8
0
  6
Continuous
 62
     3
100
AcDbLine
 10
-5223.083251416072
 20
2969.280212255118
 30
0.0
 11
-5223.083251416072
 21
2874.719787744882
 31
0.0
  0
LINE
  5
2E1
330
89
100
AcDbEntity
  8
0
  6
Continuous
 62
     7
100
AcDbLine
 10
-5221.993473668185
 20
2962.5
 30
0.0
 11
-5218.283667308332
 21
2962.5
 31
0.0
  0
LINE
  5
2E2
330
89
100
AcDbEntity
  8
0
  6
Continuous
 62
     7
100
AcDbLine
 10
-5214.993473668185
 20
2962.5
 30
0.0
 11
-5212.400003814342
 21
2962.5
 31
0.0
  0
LINE
  5
2E3
330
89
100
AcDbEntity
  8
0
  6
Continuous
 62
     7
100
AcDbLine
 10
-5209.900003814342
 20
2967.0
 30
0.0
 11
-5209.900003814342
 21
2877.0
 31
0.0
  0
LINE
  5
2E4
330
89
100
AcDbEntity
  8
0
  6
Continuous
 62
     7
100
AcDbLine
 10
-5207.900003814342
 20
2972.0
 30
0.0
 11
-5209.900003814342
 21
2972.0
 31
0.0
  0
LINE
  5
2E5
330
89
100
AcDbEntity
  8
0
  6
Continuous
 62
     7
100
AcDbLine
 10
-5209.900003814342
 20
2972.0
 30
0.0
 11
-5209.900003814342
 21
2967.0
 31
0.0
  0
ARC
  5
2E6
330
89
100
AcDbEntity
  8
0
  6
Continuous
 62
     7
100
AcDbCircle
 10
-5236.793473668186
 20
2874.797433458412
 30
0.0
 40
0.2999999999987107
100
AcDbArc
 50
194.9999999998806
 51
0.0
  0
ARC
  5
2E7
330
89
100
AcDbEntity
  8
0
  6
Continuous
 62
     7
100
AcDbCircle
 10
-5222.793473668186
 20
2874.797433458412
 30
0.0
 40
0.2999999999987107
100
AcDbArc
 50
194.9999999998806
 51
0.0
  0
ARC
  5
2E8
330
89
100
AcDbEntity
  8
0
  6
Continuous
 62
     7
100
AcDbCircle
 10
-5225.283667308332
 20
2881.0
 30
0.0
 40
0.499999999999122
100
AcDbArc
 50
15.00000000002143
 51
90.0
  0
ARC
  5
2E9
330
89
100
AcDbEntity
  8
0
  6
Continuous
 62
     7
100
AcDbCircle
 10
-5215.793473668186
 20
2874.797433458412
 30
0.0
 40
0.2999999999987107
100
AcDbArc
 50
194.9999999998806
 51
0.0
  0
ARC
  5
2EA
330
89
100
AcDbEntity
  8
0
  6
Continuous
 62
     7
100
AcDbCircle
 10
-5229.793473668186
 20
2874.797433458412
 30
0.0
 40
0.2999999999987107
100
AcDbArc
 50
194.9999999998806
 51
0.0
  0
ARC
  5
2EB
330
89
100
AcDbEntity
  8
0
  6
Continuous
 62
     7
100
AcDbCircle
 10
-5236.793473668186
 20
2969.202566541588
 30
0.0
 40
0.3000000000010914
100
AcDbArc
 50
0.0
 51
165.0000000001194
  0
ARC
  5
2EC
330
89
100
AcDbEntity
  8
0
  6
Continuous
 62
     7
100
AcDbCircle
 10
-5222.793473668186
 20
2969.202566541588
 30
0.0
 40
0.3000000000010914
100
AcDbArc
 50
0.0
 51
165.0000000001194
  0
ARC
  5
2ED
330
89
100
AcDbEntity
  8
0
  6
Continuous
 62
     7
100
AcDbCircle
 10
-5225.283667308332
 20
2963.0
 30
0.0
 40
0.5
100
AcDbArc
 50
270.0
 51
344.9999999999786
  0
ARC
  5
2EE
330
89
100
AcDbEntity
  8
0
  6
Continuous
 62
     7
100
AcDbCircle
 10
-5215.793473668186
 20
2969.202566541588
 30
0.0
 40
0.3000000000010914
100
AcDbArc
 50
0.0
 51
165.0000000001194
  0
ARC
  5
2EF
330
89
100
AcDbEntity
  8
0
  6
Continuous
 62
     7
100
AcDbCircle
 10
-5229.793473668186
 20
2969.202566541588
 30
0.0
 40
0.3000000000010914
100
AcDbArc
 50
0.0
 51
165.0000000001194
  0
ARC
  5
2F0
330
89
100
AcDbEntity
  8
0
  6
Continuous
 62
     7
100
AcDbCircle
 10
-5228.993473668185
 20
2881.0
 30
0.0
 40
0.5
100
AcDbArc
 50
90.0
 51
180.0
  0
ARC
  5
2F1
330
89
100
AcDbEntity
  8
0
  6
Continuous
 62
     7
100
AcDbCircle
 10
-5228.993473668185
 20
2963.0
 30
0.0
 40
0.5
100
AcDbArc
 50
180.0
 51
270.0
  0
ARC
  5
2F2
330
89
100
AcDbEntity
  8
0
  6
Continuous
 62
     7
100
AcDbCircle
 10
-5235.993473668185
 20
2881.0
 30
0.0
 40
0.5
100
AcDbArc
 50
90.0
 51
180.0
  0
ARC
  5
2F3
330
89
100
AcDbEntity
  8
0
  6
Continuous
 62
     7
100
AcDbCircle
 10
-5232.283667308332
 20
2881.0
 30
0.0
 40
0.499999999999122
100
AcDbArc
 50
15.00000000002143
 51
90.0
  0
ARC
  5
2F4
330
89
100
AcDbEntity
  8
0
  6
Continuous
 62
     7
100
AcDbCircle
 10
-5232.283667308332
 20
2963.0
 30
0.0
 40
0.5
100
AcDbArc
 50
270.0
 51
344.9999999999786
  0
ARC
  5
2F5
330
89
100
AcDbEntity
  8
0
  6
Continuous
 62
     7
100
AcDbCircle
 10
-5235.993473668185
 20
2963.0
 30
0.0
 40
0.5
100
AcDbArc
 50
180.0
 51
270.0
  0
ARC
  5
2F6
330
89
100
AcDbEntity
  8
0
  6
Continuous
 62
     7
100
AcDbCircle
 10
-5221.993473668185
 20
2881.0
 30
0.0
 40
0.5
100
AcDbArc
 50
90.0
 51
180.0
  0
ARC
  5
2F7
330
89
100
AcDbEntity
  8
0
  6
Continuous
 62
     7
100
AcDbCircle
 10
-5212.400003814342
 20
2881.0
 30
0.0
 40
0.5
100
AcDbArc
 50
0.0
 51
90.0
  0
ARC
  5
2F8
330
89
100
AcDbEntity
  8
0
  6
Continuous
 62
     7
100
AcDbCircle
 10
-5214.993473668185
 20
2881.0
 30
0.0
 40
0.5
100
AcDbArc
 50
90.0
 51
180.0
  0
ARC
  5
2F9
330
89
100
AcDbEntity
  8
0
  6
Continuous
 62
     7
100
AcDbCircle
 10
-5218.283667308332
 20
2881.0
 30
0.0
 40
0.499999999999122
100
AcDbArc
 50
15.00000000002143
 51
90.0
  0
ARC
  5
2FA
330
89
100
AcDbEntity
  8
0
  6
Continuous
 62
     7
100
AcDbCircle
 10
-5218.283667308332
 20
2963.0
 30
0.0
 40
0.5
100
AcDbArc
 50
270.0
 51
344.9999999999786
  0
ARC
  5
2FB
330
89
100
AcDbEntity
  8
0
  6
Continuous
 62
     7
100
AcDbCircle
 10
-5212.400003814342
 20
2963.0
 30
0.0
 40
0.5
100
AcDbArc
 50
270.0
 51
0.0
  0
ARC
  5
2FC
330
89
100
AcDbEntity
  8
0
  6
Continuous
 62
     7
100
AcDbCircle
 10
-5221.993473668185
 20
2963.0
 30
0.0
 40
0.5
100
AcDbArc
 50
180.0
 51
270.0
  0
ARC
  5
2FD
330
89
100
AcDbEntity
  8
0
  6
Continuous
 62
     7
100
AcDbCircle
 10
-5214.993473668185
 20
2963.0
 30
0.0
 40
0.5
100
AcDbArc
 50
180.0
 51
270.0
  0
ENDBLK
  5
8B
330
89
100
AcDbEntity
  8
0
100
AcDbBlockEnd
  0
BLOCK
  5
8D
330
8C
100
AcDbEntity
  8
0
100
AcDbBlockBegin
  2
301057751_Notentwässerung__5
 70
     0
 10
-5158.400003814342
 20
2863.85
 30
0.0
  3
301057751_Notentwässerung__5
  1

  0
LINE
  5
2FE
330
8C
100
AcDbEntity
  8
1
  6
DOT_CENTER
 62
     2
100
AcDbLine
 10
-5044.192916635174
 20
2922.0
 30
0.0
 11
-5161.71438094061
 21
2922.0
 31
0.0
  0
LINE
  5
2FF
330
8C
100
AcDbEntity
  8
1
  6
DOT_CENTER
 62
     2
100
AcDbLine
 10
-4999.750003814343
 20
2985.965
 30
0.0
 11
-4999.750003814343
 21
2858.035
 31
0.0
  0
LINE
  5
300
330
8C
100
AcDbEntity
  8
1
  6
DOT_CENTER
 62
     2
100
AcDbLine
 10
-4935.785003814343
 20
2922.0
 30
0.0
 11
-5063.715003814342
 21
2922.0
 31
0.0
  0
LINE
  5
301
330
8C
100
AcDbEntity
  8
0
  6
Continuous
 62
     3
100
AcDbLine
 10
-5031.998608435318
 20
2965.5
 30
0.0
 11
-4999.750003814343
 21
2965.5
 31
0.0
  0
LINE
  5
302
330
8C
100
AcDbEntity
  8
0
  6
Continuous
 62
     3
100
AcDbLine
 10
-4999.750003814343
 20
2964.5
 30
0.0
 11
-4999.750003814343
 21
2965.5
 31
0.0
  0
LINE
  5
303
330
8C
100
AcDbEntity
  8
0
  6
Continuous
 62
     3
100
AcDbLine
 10
-5031.998608435318
 20
2965.5
 30
0.0
 11
-5032.594150533581
 21
2966.303324099723
 31
0.0
  0
LINE
  5
304
330
8C
100
AcDbEntity
  8
0
  6
Continuous
 62
     7
100
AcDbLine
 10
-4999.750003814343
 20
2964.5
 30
0.0
 11
-5034.534662789241
 21
2964.5
 31
0.0
  0
LINE
  5
305
330
8C
100
AcDbEntity
  8
0
  6
Continuous
 62
     3
100
AcDbLine
 10
-4999.750003814343
 20
2878.5
 30
0.0
 11
-5031.998608435318
 21
2878.5
 31
0.0
  0
LINE
  5
306
330
8C
100
AcDbEntity
  8
0
  6
Continuous
 62
     3
100
AcDbLine
 10
-4999.750003814343
 20
2879.5
 30
0.0
 11
-4999.750003814343
 21
2878.5
 31
0.0
  0
LINE
  5
307
330
8C
100
AcDbEntity
  8
0
  6
Continuous
 62
     7
100
AcDbLine
 10
-4999.750003814343
 20
2879.5
 30
0.0
 11
-5034.534662789241
 21
2879.5
 31
0.0
  0
LINE
  5
308
330
8C
100
AcDbEntity
  8
0
  6
Continuous
 62
     3
100
AcDbLine
 10
-5031.998608435318
 20
2878.5
 30
0.0
 11
-5032.594150533581
 21
2877.696675900277
 31
0.0
  0
LINE
  5
309
330
8C
100
AcDbEntity
  8
0
  6
Continuous
 62
     7
100
AcDbLine
 10
-5044.192916635174
 20
2959.5
 30
0.0
 11
-5155.400003814342
 21
2959.5
 31
0.0
  0
LINE
  5
30A
330
8C
100
AcDbEntity
  8
0
  6
Continuous
 62
     7
100
AcDbLine
 10
-5155.400003814342
 20
2959.5
 30
0.0
 11
-5155.400003814342
 21
2884.5
 31
0.0
  0
LINE
  5
30B
330
8C
100
AcDbEntity
  8
0
  6
Continuous
 62
     7
100
AcDbLine
 10
-5044.192916635174
 20
2884.5
 30
0.0
 11
-5155.400003814342
 21
2884.5
 31
0.0
  0
LINE
  5
30C
330
8C
100
AcDbEntity
  8
0
  6
Continuous
 62
     7
100
AcDbLine
 10
-5158.400003814342
 20
2885.303847577293
 30
0.0
 11
-5155.400003814342
 21
2884.5
 31
0.0
  0
LINE
  5
30D
330
8C
100
AcDbEntity
  8
0
  6
Continuous
 62
     7
100
AcDbLine
 10
-5158.400003814342
 20
2958.696152422707
 30
0.0
 11
-5155.400003814342
 21
2959.5
 31
0.0
  0
LINE
  5
30E
330
8C
100
AcDbEntity
  8
0
  6
Continuous
 62
     7
100
AcDbLine
 10
-5158.400003814342
 20
2885.303847577293
 30
0.0
 11
-5158.400003814342
 21
2958.696152422707
 31
0.0
  0
ARC
  5
30F
330
8C
100
AcDbEntity
  8
0
  6
Continuous
 62
     3
100
AcDbCircle
 10
-4999.750003814343
 20
2922.0
 30
0.0
 40
54.1499999999998
100
AcDbArc
 50
233.4487132910678
 51
126.5512867089322
  0
ARC
  5
310
330
8C
100
AcDbEntity
  8
0
  6
Continuous
 62
     7
100
AcDbCircle
 10
-4999.750003814343
 20
2922.0
 30
0.0
 40
55.14999999999964
100
AcDbArc
 50
0.0
 51
126.5512867089323
  0
ARC
  5
311
330
8C
100
AcDbEntity
  8
0
  6
Continuous
 62
     7
100
AcDbCircle
 10
-4999.750003814343
 20
2922.0
 30
0.0
 40
55.14999999999973
100
AcDbArc
 50
126.5512867089323
 51
129.9692188980319
  0
ARC
  5
312
330
8C
100
AcDbEntity
  8
0
  6
Continuous
 62
     7
100
AcDbCircle
 10
-5034.534662789241
 20
2963.5
 30
0.0
 40
1.0
100
AcDbArc
 50
90.0
 51
129.9692188980667
  0
ARC
  5
313
330
8C
100
AcDbEntity
  8
0
  6
Continuous
 62
     3
100
AcDbCircle
 10
-4999.750003814343
 20
2922.0
 30
0.0
 40
43.5
100
AcDbArc
 50
270.0
 51
90.0
  0
ARC
  5
314
330
8C
100
AcDbEntity
  8
0
  6
Continuous
 62
     7
100
AcDbCircle
 10
-4999.750003814343
 20
2922.0
 30
0.0
 40
55.14999999999973
100
AcDbArc
 50
233.4487132910677
 51
0.0
  0
ARC
  5
315
330
8C
100
AcDbEntity
  8
0
  6
Continuous
 62
     7
100
AcDbCircle
 10
-4999.750003814343
 20
2922.0
 30
0.0
 40
55.14999999999979
100
AcDbArc
 50
129.9692188980319
 51
230.0307811019681
  0
ARC
  5
316
330
8C
100
AcDbEntity
  8
0
  6
Continuous
 62
     7
100
AcDbCircle
 10
-5034.534662789241
 20
2880.5
 30
0.0
 40
0.9999999999997394
100
AcDbArc
 50
230.0307811019333
 51
270.0
  0
ARC
  5
317
330
8C
100
AcDbEntity
  8
0
  6
Continuous
 62
     7
100
AcDbCircle
 10
-4999.750003814343
 20
2922.0
 30
0.0
 40
55.14999999999979
100
AcDbArc
 50
230.0307811019681
 51
233.4487132910677
  0
ARC
  5
318
330
8C
100
AcDbEntity
  8
0
  6
Continuous
 62
     7
100
AcDbCircle
 10
-4999.750003814343
 20
2922.0
 30
0.0
 40
42.5
100
AcDbArc
 50
270.0
 51
90.0
  0
ARC
  5
319
330
8C
100
AcDbEntity
  8
0
  6
Continuous
 62
     7
100
AcDbCircle
 10
-4999.750003814343
 20
2922.0
 30
0.0
 40
58.15000000000003
100
AcDbArc
 50
220.156972815222
 51
139.843027184778
  0
ARC
  5
31A
330
8C
100
AcDbEntity
  8
0
  6
Continuous
 62
     7
100
AcDbCircle
 10
-4999.750003814343
 20
2922.0
 30
0.0
 40
58.14999999999964
100
AcDbArc
 50
180.0
 51
220.156972815222
  0
ARC
  5
31B
330
8C
100
AcDbEntity
  8
0
  6
Continuous
 62
     7
100
AcDbCircle
 10
-4999.750003814343
 20
2922.0
 30
0.0
 40
58.15000000000003
100
AcDbArc
 50
139.843027184778
 51
180.0
  0
CIRCLE
  5
31C
330
8C
100
AcDbEntity
  8
0
  6
Continuous
 62
     7
100
AcDbCircle
 10
-4999.750003814343
 20
2922.0
 30
0.0
 40
56.48974596215521
  0
SPLINE
  5
31D
330
8C
100
AcDbEntity
  8
0
  6
Continuous
 62
     3
100
AcDbSpline
210
0.0
220
0.0
230
1.0
 70
  1064
 71
     3
 72
    22
 73
    18
 74
    16
 42
0.000000001
 43
0.0000000001
 44
0.00000001
 40
0.0
 40
0.0
 40
0.0
 40
0.0
 40
0.0137093935257455
 40
0.0274187869417369
 40
0.0834075207484359
 40
0.1594422725017292
 40
0.2045274712757481
 40
0.2747955160145809
 40
0.3651585952829269
 40
0.4705290734383983
 40
0.5627892258742319
 40
0.6851127552632864
 40
0.8336840130054308
 40
1.004687985449295
 40
1.194310463557318
 40
1.967505016310938
 40
2.726281284410007
 40
2.726281284410007
 40
2.726281284410007
 40
2.726281284410007
 10
-5034.534662789241
 20
2964.5
 30
0.0
 10
-5034.530448211865
 20
2964.501766462628
 30
0.0
 10
-5034.522019051576
 20
2964.505299374567
 30
0.0
 10
-5034.496373603192
 20
2964.516036711143
 30
0.0
 10
-5034.451553622678
 20
2964.534770522568
 30
0.0
 10
-5034.397062161659
 20
2964.557485248263
 30
0.0
 10
-5034.33815191923
 20
2964.581970212425
 30
0.0
 10
-5034.274806191737
 20
2964.60822768248
 30
0.0
 10
-5034.19285623085
 20
2964.64208150027
 30
0.0
 10
-5034.104075564642
 20
2964.678599992716
 30
0.0
 10
-5034.005375279071
 20
2964.719007665993
 30
0.0
 10
-5033.893268891303
 20
2964.764676898866
 30
0.0
 10
-5033.756738288179
 20
2964.819963345687
 30
0.0
 10
-5033.599263050829
 20
2964.883294213957
 30
0.0
 10
-5033.248210349638
 20
2965.023296461909
 30
0.0
 10
-5032.713738859193
 20
2965.232310058044
 30
0.0
 10
-5032.235484867837
 20
2965.411331650041
 30
0.0
 10
-5031.998608435318
 20
2965.5
 30
0.0
 11
-5034.534662789241
 21
2964.5
 31
0.0
 11
-5034.522018720425
 21
2964.505298584515
 31
0.0
 11
-5034.509373097278
 21
2964.510593458389
 31
0.0
 11
-5034.457715821432
 21
2964.532186610427
 31
0.0
 11
-5034.387533498075
 21
2964.56143938684
 31
0.0
 11
-5034.345901182172
 21
2964.578743300267
 31
0.0
 11
-5034.280989303127
 21
2964.605651404418
 31
0.0
 11
-5034.197471704893
 21
2964.640152083745
 31
0.0
 11
-5034.100022231419
 21
2964.680233722695
 31
0.0
 11
-5034.014640636292
 21
2964.715189679844
 31
0.0
 11
-5033.90135711466
 21
2964.761340406472
 31
0.0
 11
-5033.763648603038
 21
2964.817105847844
 31
0.0
 11
-5033.604992037933
 21
2964.880905949223
 31
0.0
 11
-5033.42886435586
 21
2964.951160655876
 31
0.0
 11
-5032.708587369693
 21
2965.232284969296
 31
0.0
 11
-5031.998608435318
 21
2965.5
 31
0.0
  0
SPLINE
  5
31E
330
8C
100
AcDbEntity
  8
0
  6
Continuous
 62
     3
100
AcDbSpline
210
0.0
220
0.0
230
1.0
 70
  1064
 71
     3
 72
    18
 73
    14
 74
    12
 42
0.000000001
 43
0.0000000001
 44
0.00000001
 40
0.0
 40
0.0
 40
0.0
 40
0.0
 40
0.7682412006016192
 40
1.530095366305201
 40
1.7906108535589
 40
2.032647459540583
 40
2.255324433790196
 40
2.419825061821053
 40
2.566741859214711
 40
2.643098558076474
 40
2.699001706422483
 40
2.71264140274203
 40
2.726281099212182
 40
2.726281099212182
 40
2.726281099212182
 40
2.726281099212182
 10
-5031.998608435318
 20
2878.5
 30
0.0
 10
-5032.238436851506
 20
2878.589782266933
 30
0.0
 10
-5032.716099783444
 20
2878.768600379159
 30
0.0
 10
-5033.271983389797
 20
2878.986027371846
 30
0.0
 10
-5033.66339774784
 20
2879.142330270494
 30
0.0
 10
-5033.88754017724
 20
2879.232885424302
 30
0.0
 10
-5034.08172365704
 20
2879.312150834128
 30
0.0
 10
-5034.24633915671
 20
2879.379952081122
 30
0.0
 10
-5034.365740833096
 20
2879.429458780646
 30
0.0
 10
-5034.451636039556
 20
2879.465263429491
 30
0.0
 10
-5034.496507280917
 20
2879.484018659181
 30
0.0
 10
-5034.52208343187
 20
2879.494727326122
 30
0.0
 10
-5034.53046967196
 20
2879.4982424376
 30
0.0
 10
-5034.534662789241
 20
2879.5
 30
0.0
 11
-5031.998608435318
 21
2878.5
 31
0.0
 11
-5032.717424459704
 21
2878.77110526604
 31
0.0
 11
-5033.42712127663
 21
2879.048147136209
 31
0.0
 11
-5033.669050695138
 21
2879.144782924363
 31
0.0
 11
-5033.89346661763
 21
2879.235442796188
 31
0.0
 11
-5034.099626591585
 21
2879.319603951064
 31
0.0
 11
-5034.251732791085
 21
2879.382247072606
 31
0.0
 11
-5034.387443971683
 21
2879.438523362418
 31
0.0
 11
-5034.457923568541
 21
2879.467899744531
 31
0.0
 11
-5034.509501825107
 21
2879.489460020888
 31
0.0
 11
-5034.52208309564
 21
2879.494728128221
 31
0.0
 11
-5034.534662789241
 21
2879.5
 31
0.0
  0
ENDBLK
  5
8E
330
8C
100
AcDbEntity
  8
0
100
AcDbBlockEnd
  0
BLOCK
  5
92
330
8F
100
AcDbEntity
  8
0
100
AcDbBlockBegin
  2
HL163Safe-WEB-Zeichnung__6
 70
     0
 10
-5238.900003814342
 20
2863.85
 30
0.0
  3
HL163Safe-WEB-Zeichnung__6
  1

  0
INSERT
  5
90
330
8F
100
AcDbEntity
  8
0
100
AcDbBlockReference
  2
HL0114D-330057750__4
 10
-5238.900003814342
 20
2872.0
 30
0.0
  0
INSERT
  5
91
330
8F
100
AcDbEntity
  8
0
100
AcDbBlockReference
  2
301057751_Notentwässerung__5
 10
-5158.400003814342
 20
2863.85
 30
0.0
  0
ENDBLK
  5
93
330
8F
100
AcDbEntity
  8
0
100
AcDbBlockEnd
  0
BLOCK
  5
96
330
94
100
AcDbEntity
  8
0
100
AcDbBlockBegin
  2
Vordans2
 70
     0
 10
-5049.99999999982
 20
2922.0
 30
0.0
  3
Vordans2
  1

  0
INSERT
  5
95
330
94
100
AcDbEntity
  8
0
100
AcDbBlockReference
  2
HL163Safe-WEB-Zeichnung__6
 10
-5238.900003814342
 20
2863.85
 30
0.0
  0
MTEXT
  5
31F
330
94
100
AcDbEntity
  8
1
 62
     1
100
AcDbMText
 10
-5049.99999999982
 20
2858.879875183106
 30
0.0
 40
3.5
 41
0.0
 71
     2
 72
     1
  1
 
  7
CONVERTER_11
 73
     1
 44
1.32052821128451
  0
DIMENSION
  5
32B
330
94
100
AcDbEntity
  8
1
100
AcDbDimension
  2
*D15
 10
-5207.900003814342
 20
2855.43193151586
 30
0.0
 11
-5191.99677526588
 21
2864.43193151586
 31
0.0
 70
    32
  1
<>
 71
     5
 42
-1.0
 53
0.00013888888889
  3
ME10_DIM_15
100
AcDbAlignedDimension
 13
-5238.900003814342
 23
2881.5
 33
0.0
 14
-5207.900003814342
 24
2872.0
 34
0.0
100
AcDbRotatedDimension
  0
DIMENSION
  5
336
330
94
100
AcDbEntity
  8
1
100
AcDbDimension
  2
*D16
 10
-5158.400003814342
 20
2829.11666486312
 30
0.0
 11
-5079.45227154298
 21
2838.11666486312
 31
0.0
 70
    32
  1
<>
 71
     5
 42
-1.0
 53
0.00013888888889
  3
ME10_DIM_16
100
AcDbAlignedDimension
 13
-4999.750003814343
 23
2858.035
 33
0.0
 14
-5158.400003814342
 24
2885.303847577293
 34
0.0
100
AcDbRotatedDimension
  0
DIMENSION
  5
341
330
94
100
AcDbEntity
  8
1
100
AcDbDimension
  2
*D17
 10
-5158.400003814342
 20
2855.25693151586
 30
0.0
 11
-5109.75718759815
 21
2864.25693151586
 31
0.0
 70
    32
  1
100
 71
     5
 42
-1.0
 53
0.00013888888889
  3
ME10_DIM_17
100
AcDbAlignedDimension
 13
-5057.900003814342
 23
2922.0
 33
0.0
 14
-5158.400003814342
 24
2885.303847577293
 34
0.0
100
AcDbRotatedDimension
  0
ENDBLK
  5
97
330
94
100
AcDbEntity
  8
0
100
AcDbBlockEnd
  0
BLOCK
  5
27C
330
275
100
AcDbEntity
  8
0
100
AcDbBlockBegin
  2
*D10
 70
     1
 10
0.0
 20
0.0
 30
0.0
  3
*D10
  1

  0
LINE
  5
276
330
275
100
AcDbEntity
  8
1
  6
Continuous
 62
     4
100
AcDbLine
 10
-4900.5534168827
 20
3134.604598994413
 30
0.0
 11
-4900.5534168827
 21
3037.104598994413
 31
0.0
  0
LINE
  5
277
330
275
100
AcDbEntity
  8
1
  6
Continuous
 62
     4
100
AcDbLine
 10
-4941.600003814342
 20
3134.604598994413
 30
0.0
 11
-4898.5534168827
 21
3134.604598994413
 31
0.0
  0
LINE
  5
278
330
275
100
AcDbEntity
  8
1
  6
Continuous
 62
     4
100
AcDbLine
 10
-4944.135174021169
 20
3037.104598994413
 30
0.0
 11
-4898.5534168827
 21
3037.104598994413
 31
0.0
  0
SOLID
  5
279
330
275
100
AcDbEntity
  8
1
 62
     4
100
AcDbTrace
 10
-4899.236891906826
 20
3124.604598994413
 30
0.0
 11
-4901.869941858574
 21
3124.604598994413
 31
0.0
 12
-4900.5534168827
 22
3134.604598994413
 32
0.0
 13
-4900.5534168827
 23
3134.604598994413
 33
0.0
  0
SOLID
  5
27A
330
275
100
AcDbEntity
  8
1
 62
     4
100
AcDbTrace
 10
-4901.869941858574
 20
3047.104598994413
 30
0.0
 11
-4899.236891906826
 21
3047.104598994413
 31
0.0
 12
-4900.5534168827
 22
3037.104598994413
 32
0.0
 13
-4900.5534168827
 23
3037.104598994413
 33
0.0
  0
MTEXT
  5
27B
330
275
100
AcDbEntity
  8
1
 62
     1
100
AcDbMText
 10
-4904.5534168827
 20
3075.321855269452
 30
0.0
 40
10.0
 41
0.0
 71
     7
 72
     1
  1
98
  7
CONVERTER_11
 11
0.0
 21
1.0
 31
0.0
 73
     1
 44
0.60024009603842
  0
ENDBLK
  5
27D
330
275
100
AcDbEntity
  8
0
100
AcDbBlockEnd
  0
BLOCK
  5
289
330
280
100
AcDbEntity
  8
0
100
AcDbBlockBegin
  2
*D11
 70
     1
 10
0.0
 20
0.0
 30
0.0
  3
*D11
  1

  0
LINE
  5
281
330
280
100
AcDbEntity
  8
1
  6
Continuous
 62
     4
100
AcDbLine
 10
-4923.20455115026
 20
3163.27866344796
 30
0.0
 11
-4923.20455115026
 21
3134.604598994411
 31
0.0
  0
LINE
  5
282
330
280
100
AcDbEntity
  8
1
  6
Continuous
 62
     4
100
AcDbLine
 10
-4923.20455115026
 20
3134.604598994411
 30
0.0
 11
-4923.20455115026
 21
3114.60459899441
 31
0.0
  0
LINE
  5
283
330
280
100
AcDbEntity
  8
1
  6
Continuous
 62
     4
100
AcDbLine
 10
-4923.20455115026
 20
3114.60459899441
 30
0.0
 11
-4923.20455115026
 21
3094.60459899441
 31
0.0
  0
LINE
  5
284
330
280
100
AcDbEntity
  8
1
  6
Continuous
 62
     4
100
AcDbLine
 10
-4941.600003814342
 20
3134.604598994411
 30
0.0
 11
-4921.20455115026
 21
3134.604598994411
 31
0.0
  0
LINE
  5
285
330
280
100
AcDbEntity
  8
1
  6
Continuous
 62
     4
100
AcDbLine
 10
-4940.600003814342
 20
3114.60459899441
 30
0.0
 11
-4921.20455115026
 21
3114.60459899441
 31
0.0
  0
SOLID
  5
286
330
280
100
AcDbEntity
  8
1
 62
     4
100
AcDbTrace
 10
-4924.521076126134
 20
3144.604598994411
 30
0.0
 11
-4921.888026174386
 21
3144.604598994411
 31
0.0
 12
-4923.20455115026
 22
3134.604598994411
 32
0.0
 13
-4923.20455115026
 23
3134.604598994411
 33
0.0
  0
SOLID
  5
287
330
280
100
AcDbEntity
  8
1
 62
     4
100
AcDbTrace
 10
-4921.888026174386
 20
3104.60459899441
 30
0.0
 11
-4924.521076126134
 21
3104.60459899441
 31
0.0
 12
-4923.20455115026
 22
3114.60459899441
 32
0.0
 13
-4923.20455115026
 23
3114.60459899441
 33
0.0
  0
MTEXT
  5
288
330
280
100
AcDbEntity
  8
1
 62
     1
100
AcDbMText
 10
-4927.20455115026
 20
3148.27866344796
 30
0.0
 40
10.0
 41
0.0
 71
     7
 72
     1
  1
20
  7
CONVERTER_11
 11
0.0
 21
1.0
 31
0.0
 73
     1
 44
0.60024009603842
  0
ENDBLK
  5
28A
330
280
100
AcDbEntity
  8
0
100
AcDbBlockEnd
  0
BLOCK
  5
294
330
28D
100
AcDbEntity
  8
0
100
AcDbBlockBegin
  2
*D12
 70
     1
 10
0.0
 20
0.0
 30
0.0
  3
*D12
  1

  0
LINE
  5
28E
330
28D
100
AcDbEntity
  8
1
  6
Continuous
 62
     4
100
AcDbLine
 10
-5054.750003814343
 20
3154.52568942364
 30
0.0
 11
-4944.750003814343
 21
3154.52568942364
 31
0.0
  0
LINE
  5
28F
330
28D
100
AcDbEntity
  8
1
  6
Continuous
 62
     4
100
AcDbLine
 10
-5054.750003814343
 20
3135.604598994411
 30
0.0
 11
-5054.750003814343
 21
3156.52568942364
 31
0.0
  0
LINE
  5
290
330
28D
100
AcDbEntity
  8
1
  6
Continuous
 62
     4
100
AcDbLine
 10
-4944.750003814343
 20
3135.604598994411
 30
0.0
 11
-4944.750003814343
 21
3156.52568942364
 31
0.0
  0
SOLID
  5
291
330
28D
100
AcDbEntity
  8
1
 62
     4
100
AcDbTrace
 10
-5044.750003814343
 20
3155.842214399514
 30
0.0
 11
-5044.750003814343
 21
3153.209164447766
 31
0.0
 12
-5054.750003814343
 22
3154.52568942364
 32
0.0
 13
-5054.750003814343
 23
3154.52568942364
 33
0.0
  0
SOLID
  5
292
330
28D
100
AcDbEntity
  8
1
 62
     4
100
AcDbTrace
 10
-4954.750003814343
 20
3153.209164447766
 30
0.0
 11
-4954.750003814343
 21
3155.842214399514
 31
0.0
 12
-4944.750003814343
 22
3154.52568942364
 32
0.0
 13
-4944.750003814343
 23
3154.52568942364
 33
0.0
  0
MTEXT
  5
293
330
28D
100
AcDbEntity
  8
1
 62
     1
100
AcDbMText
 10
-5022.217307731956
 20
3158.525669546279
 30
0.0
 40
10.0
 41
0.0
 71
     7
 72
     1
  1
\C1;{\Fgdt;n}\C1;110
  7
CONVERTER_11
 11
0.9999999999970619
 21
2.424068405545306E-6
 31
0.0
 73
     1
 44
0.60024009603842
  0
ENDBLK
  5
295
330
28D
100
AcDbEntity
  8
0
100
AcDbBlockEnd
  0
BLOCK
  5
29F
330
298
100
AcDbEntity
  8
0
100
AcDbBlockBegin
  2
*D13
 70
     1
 10
0.0
 20
0.0
 30
0.0
  3
*D13
  1

  0
LINE
  5
299
330
298
100
AcDbEntity
  8
1
  6
Continuous
 62
     4
100
AcDbLine
 10
-5178.54022464061
 20
3044.604598994412
 30
0.0
 11
-5178.54022464061
 21
3119.604598994412
 31
0.0
  0
LINE
  5
29A
330
298
100
AcDbEntity
  8
1
  6
Continuous
 62
     4
100
AcDbLine
 10
-5155.400003814342
 20
3044.604598994412
 30
0.0
 11
-5180.54022464061
 21
3044.604598994412
 31
0.0
  0
LINE
  5
29B
330
298
100
AcDbEntity
  8
1
  6
Continuous
 62
     4
100
AcDbLine
 10
-5155.400003814342
 20
3119.604598994412
 30
0.0
 11
-5180.54022464061
 21
3119.604598994412
 31
0.0
  0
SOLID
  5
29C
330
298
100
AcDbEntity
  8
1
 62
     4
100
AcDbTrace
 10
-5179.856749616484
 20
3054.604598994412
 30
0.0
 11
-5177.223699664736
 21
3054.604598994412
 31
0.0
 12
-5178.54022464061
 22
3044.604598994412
 32
0.0
 13
-5178.54022464061
 23
3044.604598994412
 33
0.0
  0
SOLID
  5
29D
330
298
100
AcDbEntity
  8
1
 62
     4
100
AcDbTrace
 10
-5177.223699664736
 20
3109.604598994412
 30
0.0
 11
-5179.856749616484
 21
3109.604598994412
 31
0.0
 12
-5178.54022464061
 22
3119.604598994412
 32
0.0
 13
-5178.54022464061
 23
3119.604598994412
 33
0.0
  0
MTEXT
  5
29E
330
298
100
AcDbEntity
  8
1
 62
     1
100
AcDbMText
 10
-5182.54022464061
 20
3066.144378460941
 30
0.0
 40
10.0
 41
0.0
 71
     7
 72
     1
  1
\C1; {\Fgdt;n}\C1;75
  7
CONVERTER_11
 11
0.0
 21
1.0
 31
0.0
 73
     1
 44
0.60024009603842
  0
ENDBLK
  5
2A0
330
298
100
AcDbEntity
  8
0
100
AcDbBlockEnd
  0
BLOCK
  5
2AA
330
2A3
100
AcDbEntity
  8
0
100
AcDbBlockBegin
  2
*D14
 70
     1
 10
0.0
 20
0.0
 30
0.0
  3
*D14
  1

  0
LINE
  5
2A4
330
2A3
100
AcDbEntity
  8
1
  6
Continuous
 62
     4
100
AcDbLine
 10
-4923.88173566798
 20
3037.104598994411
 30
0.0
 11
-4923.88173566798
 21
3072.104598994411
 31
0.0
  0
LINE
  5
2A5
330
2A3
100
AcDbEntity
  8
1
  6
Continuous
 62
     4
100
AcDbLine
 10
-4944.684699200488
 20
3037.104598994411
 30
0.0
 11
-4921.88173566798
 21
3037.104598994411
 31
0.0
  0
LINE
  5
2A6
330
2A3
100
AcDbEntity
  8
1
  6
Continuous
 62
     4
100
AcDbLine
 10
-5043.923214021434
 20
3072.104598994411
 30
0.0
 11
-4921.88173566798
 21
3072.104598994411
 31
0.0
  0
SOLID
  5
2A7
330
2A3
100
AcDbEntity
  8
1
 62
     4
100
AcDbTrace
 10
-4925.198260643854
 20
3047.104598994411
 30
0.0
 11
-4922.565210692106
 21
3047.104598994411
 31
0.0
 12
-4923.88173566798
 22
3037.104598994411
 32
0.0
 13
-4923.88173566798
 23
3037.104598994411
 33
0.0
  0
SOLID
  5
2A8
330
2A3
100
AcDbEntity
  8
1
 62
     4
100
AcDbTrace
 10
-4922.565210692106
 20
3062.104598994411
 30
0.0
 11
-4925.198260643854
 21
3062.104598994411
 31
0.0
 12
-4923.88173566798
 22
3072.104598994411
 32
0.0
 13
-4923.88173566798
 23
3072.104598994411
 33
0.0
  0
MTEXT
  5
2A9
330
2A3
100
AcDbEntity
  8
1
 62
     1
100
AcDbMText
 10
-4927.88173566798
 20
3049.08169963247
 30
0.0
 40
10.0
 41
0.0
 71
     7
 72
     1
  1
35
  7
CONVERTER_11
 11
0.0
 21
1.0
 31
0.0
 73
     1
 44
0.60024009603842
  0
ENDBLK
  5
2AB
330
2A3
100
AcDbEntity
  8
0
100
AcDbBlockEnd
  0
BLOCK
  5
328
330
320
100
AcDbEntity
  8
0
100
AcDbBlockBegin
  2
*D15
 70
     1
 10
0.0
 20
0.0
 30
0.0
  3
*D15
  1

  0
LINE
  5
321
330
320
100
AcDbEntity
  8
1
  6
Continuous
 62
     4
100
AcDbLine
 10
-5207.900003814342
 20
2855.43193151586
 30
0.0
 11
-5238.900003814342
 21
2855.43193151586
 31
0.0
  0
LINE
  5
322
330
320
100
AcDbEntity
  8
1
  6
Continuous
 62
     4
100
AcDbLine
 10
-5185.99677526588
 20
2855.43193151586
 30
0.0
 11
-5207.900003814342
 21
2855.43193151586
 31
0.0
  0
LINE
  5
323
330
320
100
AcDbEntity
  8
1
  6
Continuous
 62
     4
100
AcDbLine
 10
-5238.900003814342
 20
2881.5
 30
0.0
 11
-5238.900003814342
 21
2853.43193151586
 31
0.0
  0
LINE
  5
324
330
320
100
AcDbEntity
  8
1
  6
Continuous
 62
     4
100
AcDbLine
 10
-5207.900003814342
 20
2872.0
 30
0.0
 11
-5207.900003814342
 21
2853.43193151586
 31
0.0
  0
SOLID
  5
325
330
320
100
AcDbEntity
  8
1
 62
     4
100
AcDbTrace
 10
-5217.900003814342
 20
2854.115406539986
 30
0.0
 11
-5217.900003814342
 21
2856.748456491734
 31
0.0
 12
-5207.900003814342
 22
2855.43193151586
 32
0.0
 13
-5207.900003814342
 23
2855.43193151586
 33
0.0
  0
SOLID
  5
326
330
320
100
AcDbEntity
  8
1
 62
     4
100
AcDbTrace
 10
-5228.900003814342
 20
2856.748456491734
 30
0.0
 11
-5228.900003814342
 21
2854.115406539986
 31
0.0
 12
-5238.900003814342
 22
2855.43193151586
 32
0.0
 13
-5238.900003814342
 23
2855.43193151586
 33
0.0
  0
MTEXT
  5
327
330
320
100
AcDbEntity
  8
1
 62
     1
100
AcDbMText
 10
-5197.99677526588
 20
2859.43193151586
 30
0.0
 40
10.0
 41
0.0
 71
     7
 72
     1
  1
31
  7
CONVERTER_11
 11
0.9999999999970619
 21
2.424068405545306E-6
 31
0.0
 73
     1
 44
0.60024009603842
  0
ENDBLK
  5
329
330
320
100
AcDbEntity
  8
0
100
AcDbBlockEnd
  0
BLOCK
  5
333
330
32C
100
AcDbEntity
  8
0
100
AcDbBlockBegin
  2
*D16
 70
     1
 10
0.0
 20
0.0
 30
0.0
  3
*D16
  1

  0
LINE
  5
32D
330
32C
100
AcDbEntity
  8
1
  6
Continuous
 62
     4
100
AcDbLine
 10
-5158.400003814342
 20
2829.11666486312
 30
0.0
 11
-4999.750003814343
 21
2829.11666486312
 31
0.0
  0
LINE
  5
32E
330
32C
100
AcDbEntity
  8
1
  6
Continuous
 62
     4
100
AcDbLine
 10
-4999.750003814343
 20
2858.035
 30
0.0
 11
-4999.750003814343
 21
2827.11666486312
 31
0.0
  0
LINE
  5
32F
330
32C
100
AcDbEntity
  8
1
  6
Continuous
 62
     4
100
AcDbLine
 10
-5158.400003814342
 20
2885.303847577293
 30
0.0
 11
-5158.400003814342
 21
2827.11666486312
 31
0.0
  0
SOLID
  5
330
330
32C
100
AcDbEntity
  8
1
 62
     4
100
AcDbTrace
 10
-5148.400003814342
 20
2830.433189838994
 30
0.0
 11
-5148.400003814342
 21
2827.800139887246
 31
0.0
 12
-5158.400003814342
 22
2829.11666486312
 32
0.0
 13
-5158.400003814342
 23
2829.11666486312
 33
0.0
  0
SOLID
  5
331
330
32C
100
AcDbEntity
  8
1
 62
     4
100
AcDbTrace
 10
-5009.750003814343
 20
2827.800139887246
 30
0.0
 11
-5009.750003814343
 21
2830.433189838994
 31
0.0
 12
-4999.750003814343
 22
2829.11666486312
 32
0.0
 13
-4999.750003814343
 23
2829.11666486312
 33
0.0
  0
MTEXT
  5
332
330
32C
100
AcDbEntity
  8
1
 62
     1
100
AcDbMText
 10
-5089.95227154298
 20
2833.11666486312
 30
0.0
 40
10.0
 41
0.0
 71
     7
 72
     1
  1
159
  7
CONVERTER_11
 11
0.9999999999970619
 21
2.424068405545306E-6
 31
0.0
 73
     1
 44
0.60024009603842
  0
ENDBLK
  5
334
330
32C
100
AcDbEntity
  8
0
100
AcDbBlockEnd
  0
BLOCK
  5
33E
330
337
100
AcDbEntity
  8
0
100
AcDbBlockBegin
  2
*D17
 70
     1
 10
0.0
 20
0.0
 30
0.0
  3
*D17
  1

  0
LINE
  5
338
330
337
100
AcDbEntity
  8
1
  6
Continuous
 62
     4
100
AcDbLine
 10
-5158.400003814342
 20
2855.25693151586
 30
0.0
 11
-5057.900003814342
 21
2855.25693151586
 31
0.0
  0
LINE
  5
339
330
337
100
AcDbEntity
  8
1
  6
Continuous
 62
     4
100
AcDbLine
 10
-5057.900003814342
 20
2922.0
 30
0.0
 11
-5057.900003814342
 21
2853.25693151586
 31
0.0
  0
LINE
  5
33A
330
337
100
AcDbEntity
  8
1
  6
Continuous
 62
     4
100
AcDbLine
 10
-5158.400003814342
 20
2885.303847577293
 30
0.0
 11
-5158.400003814342
 21
2853.25693151586
 31
0.0
  0
SOLID
  5
33B
330
337
100
AcDbEntity
  8
1
 62
     4
100
AcDbTrace
 10
-5148.400003814342
 20
2856.573456491734
 30
0.0
 11
-5148.400003814342
 21
2853.940406539986
 31
0.0
 12
-5158.400003814342
 22
2855.25693151586
 32
0.0
 13
-5158.400003814342
 23
2855.25693151586
 33
0.0
  0
SOLID
  5
33C
330
337
100
AcDbEntity
  8
1
 62
     4
100
AcDbTrace
 10
-5067.900003814342
 20
2853.940406539986
 30
0.0
 11
-5067.900003814342
 21
2856.573456491734
 31
0.0
 12
-5057.900003814342
 22
2855.25693151586
 32
0.0
 13
-5057.900003814342
 23
2855.25693151586
 33
0.0
  0
MTEXT
  5
33D
330
337
100
AcDbEntity
  8
1
 62
     1
100
AcDbMText
 10
-5120.25718759815
 20
2859.25693151586
 30
0.0
 40
10.0
 41
0.0
 71
     7
 72
     1
  1
100
  7
CONVERTER_11
 11
0.9999999999970619
 21
2.424068405545306E-6
 31
0.0
 73
     1
 44
0.60024009603842
  0
ENDBLK
  5
33F
330
337
100
AcDbEntity
  8
0
100
AcDbBlockEnd
  0
ENDSEC
  0
SECTION
  2
ENTITIES
  0
INSERT
  5
98
330
1F
100
AcDbEntity
  8
0
100
AcDbBlockReference
  2
Untsicht1
 10
-5049.99999999982
 20
3084.612361905653
 30
0.0
  0
INSERT
  5
99
330
1F
100
AcDbEntity
  8
0
100
AcDbBlockReference
  2
Vordans2
 10
-5049.99999999982
 20
2922.0
 30
0.0
  0
ENDSEC
  0
SECTION
  2
OBJECTS
  0
DICTIONARY
  5
C
330
0
100
AcDbDictionary
281
     1
  3
ACAD_GROUP
350
D
  3
ACAD_LAYOUT
350
1A
  3
ACAD_MATERIAL
350
43
  3
ACAD_MLEADERSTYLE
350
6B
  3
ACAD_MLINESTYLE
350
17
  3
ACAD_PLOTSETTINGS
350
19
  3
ACAD_PLOTSTYLENAME
350
E
  3
ACAD_SCALELIST
350
47
  3
ACAD_TABLESTYLE
350
69
  3
ACAD_VISUALSTYLE
350
2A
  3
AcDbVariableDictionary
350
342
  0
DICTIONARY
  5
349
330
8
100
AcDbDictionary
280
     1
281
     1
  3
ACAD_XREC_ROUNDTRIP
360
34A
  0
DICTIONARY
  5
D
102
{ACAD_REACTORS
330
C
102
}
330
C
100
AcDbDictionary
281
     1
  0
DICTIONARY
  5
1A
102
{ACAD_REACTORS
330
C
102
}
330
C
100
AcDbDictionary
281
     1
  3
Layout1
350
1E
  3
Layout2
350
26
  3
Model
350
22
  0
DICTIONARY
  5
43
102
{ACAD_REACTORS
330
C
102
}
330
C
100
AcDbDictionary
281
     1
  3
ByBlock
350
45
  3
ByLayer
350
44
  3
Global
350
46
  0
DICTIONARY
  5
6B
102
{ACAD_REACTORS
330
C
102
}
330
C
100
AcDbDictionary
281
     1
  3
Standard
350
6C
  0
DICTIONARY
  5
17
102
{ACAD_REACTORS
330
C
102
}
330
C
100
AcDbDictionary
281
     1
  3
Standard
350
18
  0
DICTIONARY
  5
19
102
{ACAD_REACTORS
330
C
102
}
330
C
100
AcDbDictionary
281
     1
  0
ACDBDICTIONARYWDFLT
  5
E
102
{ACAD_REACTORS
330
C
102
}
330
C
100
AcDbDictionary
281
     1
  3
Normal
350
F
100
AcDbDictionaryWithDefault
340
F
  0
DICTIONARY
  5
47
102
{ACAD_REACTORS
330
C
102
}
330
C
100
AcDbDictionary
281
     1
  3
A0
350
48
  3
A1
350
49
  3
A2
350
4A
  3
A3
350
4B
  3
A4
350
4C
  3
A5
350
4D
  3
A6
350
4E
  3
A7
350
4F
  3
A8
350
50
  3
A9
350
51
  3
B0
350
52
  3
B1
350
53
  3
B2
350
54
  3
B3
350
55
  3
B4
350
56
  3
B5
350
57
  3
B6
350
58
  3
B7
350
59
  3
B8
350
5A
  3
B9
350
5B
  3
C0
350
5C
  3
C1
350
5D
  3
C2
350
5E
  3
C3
350
5F
  3
C4
350
60
  3
C5
350
61
  3
C6
350
62
  3
C7
350
63
  3
C8
350
64
  3
C9
350
65
  3
D0
350
66
  3
D1
350
67
  3
D2
350
68
  0
DICTIONARY
  5
69
102
{ACAD_REACTORS
330
C
102
}
330
C
100
AcDbDictionary
281
     1
  3
Standard
350
6A
  0
DICTIONARY
  5
2A
102
{ACAD_REACTORS
330
C
102
}
330
C
100
AcDbDictionary
281
     1
  3
2dWireframe
350
2F
  3
Basic
350
32
  3
Brighten
350
36
  3
ColorChange
350
3A
  3
Conceptual
350
34
  3
Dim
350
35
  3
EdgeColorOff
350
3D
  3
Facepattern
350
39
  3
Flat
350
2B
  3
FlatWithEdges
350
2C
  3
Gouraud
350
2D
  3
GouraudWithEdges
350
2E
  3
Hidden
350
31
  3
JitterOff
350
3B
  3
Linepattern
350
38
  3
OverhangOff
350
3C
  3
Realistic
350
33
  3
Shaded
350
42
  3
Shaded with edges
350
41
  3
Shades of Gray
350
3E
  3
Sketchy
350
3F
  3
Thicken
350
37
  3
Wireframe
350
30
  3
X-Ray
350
40
  0
DICTIONARY
  5
342
102
{ACAD_REACTORS
330
C
102
}
330
C
100
AcDbDictionary
281
     1
  3
CANNOSCALE
350
34B
  3
CMLEADERSTYLE
350
344
  3
CTABLESTYLE
350
343
  3
DIMASSOC
350
347
  3
HIDETEXT
350
348
  3
MSLTSCALE
350
34C
  0
XRECORD
  5
34A
102
{ACAD_REACTORS
330
349
102
}
330
349
100
AcDbXrecord
280
     1
102
VTR_0.000_0.000_1.000_1.000_GRIDDISPLAY
 70
     3
102
VTR_0.000_0.000_1.000_1.000_GRIDMAJOR
 70
     5
102
VTR_0.000_0.000_1.000_1.000_DEFAULTLIGHTING
280
     1
102
VTR_0.000_0.000_1.000_1.000_DEFAULTLIGHTINGTYPE
 70
     1
102
VTR_0.000_0.000_1.000_1.000_BRIGHTNESS
141
0.0
102
VTR_0.000_0.000_1.000_1.000_CONTRAST
142
0.0
  0
LAYOUT
  5
1E
102
{ACAD_REACTORS
330
1A
102
}
330
1A
100
AcDbPlotSettings
  1

  2
none_device
  4

  6

 40
0.0
 41
0.0
 42
0.0
 43
0.0
 44
0.0
 45
0.0
 46
0.0
 47
0.0
 48
0.0
 49
0.0
140
0.0
141
0.0
142
1.0
143
1.0
 70
   688
 72
     0
 73
     0
 74
     5
  7

 75
    16
147
1.0
148
0.0
149
0.0
100
AcDbLayout
  1
Layout1
 70
     1
 71
     1
 10
0.0
 20
0.0
 11
12.0
 21
9.0
 12
0.0
 22
0.0
 32
0.0
 14
1.00000000000000E+20
 24
1.00000000000000E+20
 34
1.00000000000000E+20
 15
-1.00000000000000E+20
 25
-1.00000000000000E+20
 35
-1.00000000000000E+20
146
0.0
 13
0.0
 23
0.0
 33
0.0
 16
1.0
 26
0.0
 36
0.0
 17
0.0
 27
1.0
 37
0.0
 76
     0
330
1B
  0
LAYOUT
  5
26
102
{ACAD_REACTORS
330
1A
102
}
330
1A
100
AcDbPlotSettings
  1

  2
none_device
  4

  6

 40
0.0
 41
0.0
 42
0.0
 43
0.0
 44
0.0
 45
0.0
 46
0.0
 47
0.0
 48
0.0
 49
0.0
140
0.0
141
0.0
142
1.0
143
1.0
 70
   688
 72
     0
 73
     0
 74
     5
  7

 75
    16
147
1.0
148
0.0
149
0.0
100
AcDbLayout
  1
Layout2
 70
     1
 71
     2
 10
0.0
 20
0.0
 11
0.0
 21
0.0
 12
0.0
 22
0.0
 32
0.0
 14
0.0
 24
0.0
 34
0.0
 15
0.0
 25
0.0
 35
0.0
146
0.0
 13
0.0
 23
0.0
 33
0.0
 16
1.0
 26
0.0
 36
0.0
 17
0.0
 27
1.0
 37
0.0
 76
     0
330
23
  0
LAYOUT
  5
22
102
{ACAD_REACTORS
330
1A
102
}
330
1A
100
AcDbPlotSettings
  1

  2
none_device
  4
Letter_(8.50_x_11.00_Inches)
  6

 40
6.35
 41
6.35
 42
6.35000508
 43
6.35000508
 44
215.9
 45
279.4
 46
0.0
 47
0.0
 48
0.0
 49
0.0
140
0.0
141
0.0
142
1.0
143
1.0
 70
  1712
 72
     0
 73
     0
 74
     0
  7

 75
     0
147
1.0
148
0.0
149
0.0
100
AcDbLayout
  1
Model
 70
     1
 71
     0
 10
0.0
 20
0.0
 11
12.0
 21
9.0
 12
0.0
 22
0.0
 32
0.0
 14
-5245.28739620115
 24
2827.11666486312
 34
0.0
 15
-4898.5534168827
 25
3168.52568942364
 35
0.0
146
0.0
 13
0.0
 23
0.0
 33
0.0
 16
1.0
 26
0.0
 36
0.0
 17
0.0
 27
1.0
 37
0.0
 76
     0
330
1F
331
29
  0
MATERIAL
  5
45
102
{ACAD_REACTORS
330
43
102
}
102
{ACAD_XDICTIONARY
360
37F
102
}
330
43
100
AcDbMaterial
  1
ByBlock
  0
MATERIAL
  5
44
102
{ACAD_REACTORS
330
43
102
}
102
{ACAD_XDICTIONARY
360
37D
102
}
330
43
100
AcDbMaterial
  1
ByLayer
  0
MATERIAL
  5
46
102
{ACAD_REACTORS
330
43
102
}
102
{ACAD_XDICTIONARY
360
381
102
}
330
43
100
AcDbMaterial
  1
Global
  0
MLEADERSTYLE
  5
6C
102
{ACAD_REACTORS
330
6B
102
}
102
{ACAD_XDICTIONARY
360
384
102
}
330
6B
100
AcDbMLeaderStyle
170
     2
171
     1
172
     0
 90
        2
 40
0.0
 41
0.0
173
     1
 91
-1056964608
340
14
 92
       -2
290
     1
 42
0.09
291
     1
 43
0.36
  3
Standard
341
0
 44
0.18
300

342
11
174
     1
178
     6
175
     1
176
     0
 93
-1056964608
 45
0.18
292
     0
297
     0
 46
0.18
343
0
 94
-1056964608
 47
1.0
 49
1.0
140
1.0
293
     1
141
0.0
294
     1
177
     0
142
1.0
295
     0
296
     0
143
0.125
1001
ACAD_MLEADERVER
1070
     2
  0
MLINESTYLE
  5
18
102
{ACAD_REACTORS
330
17
102
}
330
17
100
AcDbMlineStyle
  2
Standard
 70
     0
  3

 62
   256
 51
90.0
 52
90.0
 71
     2
 49
0.5
 62
   256
  6
BYLAYER
 49
-0.5
 62
   256
  6
BYLAYER
  0
ACDBPLACEHOLDER
  5
F
102
{ACAD_REACTORS
330
E
102
}
330
E
  0
SCALE
  5
48
102
{ACAD_REACTORS
330
47
102
}
330
47
100
AcDbScale
 70
     0
300
1:1
140
1.0
141
1.0
290
     1
  0
SCALE
  5
49
102
{ACAD_REACTORS
330
47
102
}
330
47
100
AcDbScale
 70
     0
300
1:2
140
1.0
141
2.0
290
     0
  0
SCALE
  5
4A
102
{ACAD_REACTORS
330
47
102
}
330
47
100
AcDbScale
 70
     0
300
1:4
140
1.0
141
4.0
290
     0
  0
SCALE
  5
4B
102
{ACAD_REACTORS
330
47
102
}
330
47
100
AcDbScale
 70
     0
300
1:5
140
1.0
141
5.0
290
     0
  0
SCALE
  5
4C
102
{ACAD_REACTORS
330
47
102
}
330
47
100
AcDbScale
 70
     0
300
1:8
140
1.0
141
8.0
290
     0
  0
SCALE
  5
4D
102
{ACAD_REACTORS
330
47
102
}
330
47
100
AcDbScale
 70
     0
300
1:10
140
1.0
141
10.0
290
     0
  0
SCALE
  5
4E
102
{ACAD_REACTORS
330
47
102
}
330
47
100
AcDbScale
 70
     0
300
1:16
140
1.0
141
16.0
290
     0
  0
SCALE
  5
4F
102
{ACAD_REACTORS
330
47
102
}
330
47
100
AcDbScale
 70
     0
300
1:20
140
1.0
141
20.0
290
     0
  0
SCALE
  5
50
102
{ACAD_REACTORS
330
47
102
}
330
47
100
AcDbScale
 70
     0
300
1:30
140
1.0
141
30.0
290
     0
  0
SCALE
  5
51
102
{ACAD_REACTORS
330
47
102
}
330
47
100
AcDbScale
 70
     0
300
1:40
140
1.0
141
40.0
290
     0
  0
SCALE
  5
52
102
{ACAD_REACTORS
330
47
102
}
330
47
100
AcDbScale
 70
     0
300
1:50
140
1.0
141
50.0
290
     0
  0
SCALE
  5
53
102
{ACAD_REACTORS
330
47
102
}
330
47
100
AcDbScale
 70
     0
300
1:100
140
1.0
141
100.0
290
     0
  0
SCALE
  5
54
102
{ACAD_REACTORS
330
47
102
}
330
47
100
AcDbScale
 70
     0
300
2:1
140
2.0
141
1.0
290
     0
  0
SCALE
  5
55
102
{ACAD_REACTORS
330
47
102
}
330
47
100
AcDbScale
 70
     0
300
4:1
140
4.0
141
1.0
290
     0
  0
SCALE
  5
56
102
{ACAD_REACTORS
330
47
102
}
330
47
100
AcDbScale
 70
     0
300
8:1
140
8.0
141
1.0
290
     0
  0
SCALE
  5
57
102
{ACAD_REACTORS
330
47
102
}
330
47
100
AcDbScale
 70
     0
300
10:1
140
10.0
141
1.0
290
     0
  0
SCALE
  5
58
102
{ACAD_REACTORS
330
47
102
}
330
47
100
AcDbScale
 70
     0
300
100:1
140
100.0
141
1.0
290
     0
  0
SCALE
  5
59
102
{ACAD_REACTORS
330
47
102
}
330
47
100
AcDbScale
 70
     0
300
1/128" = 1'-0"
140
0.0078125
141
12.0
290
     0
  0
SCALE
  5
5A
102
{ACAD_REACTORS
330
47
102
}
330
47
100
AcDbScale
 70
     0
300
1/64" = 1'-0"
140
0.015625
141
12.0
290
     0
  0
SCALE
  5
5B
102
{ACAD_REACTORS
330
47
102
}
330
47
100
AcDbScale
 70
     0
300
1/32" = 1'-0"
140
0.03125
141
12.0
290
     0
  0
SCALE
  5
5C
102
{ACAD_REACTORS
330
47
102
}
330
47
100
AcDbScale
 70
     0
300
1/16" = 1'-0"
140
0.0625
141
12.0
290
     0
  0
SCALE
  5
5D
102
{ACAD_REACTORS
330
47
102
}
330
47
100
AcDbScale
 70
     0
300
3/32" = 1'-0"
140
0.09375
141
12.0
290
     0
  0
SCALE
  5
5E
102
{ACAD_REACTORS
330
47
102
}
330
47
100
AcDbScale
 70
     0
300
1/8" = 1'-0"
140
0.125
141
12.0
290
     0
  0
SCALE
  5
5F
102
{ACAD_REACTORS
330
47
102
}
330
47
100
AcDbScale
 70
     0
300
3/16" = 1'-0"
140
0.1875
141
12.0
290
     0
  0
SCALE
  5
60
102
{ACAD_REACTORS
330
47
102
}
330
47
100
AcDbScale
 70
     0
300
1/4" = 1'-0"
140
0.25
141
12.0
290
     0
  0
SCALE
  5
61
102
{ACAD_REACTORS
330
47
102
}
330
47
100
AcDbScale
 70
     0
300
3/8" = 1'-0"
140
0.375
141
12.0
290
     0
  0
SCALE
  5
62
102
{ACAD_REACTORS
330
47
102
}
330
47
100
AcDbScale
 70
     0
300
1/2" = 1'-0"
140
0.5
141
12.0
290
     0
  0
SCALE
  5
63
102
{ACAD_REACTORS
330
47
102
}
330
47
100
AcDbScale
 70
     0
300
3/4" = 1'-0"
140
0.75
141
12.0
290
     0
  0
SCALE
  5
64
102
{ACAD_REACTORS
330
47
102
}
330
47
100
AcDbScale
 70
     0
300
1" = 1'-0"
140
1.0
141
12.0
290
     0
  0
SCALE
  5
65
102
{ACAD_REACTORS
330
47
102
}
330
47
100
AcDbScale
 70
     0
300
1-1/2" = 1'-0"
140
1.5
141
12.0
290
     0
  0
SCALE
  5
66
102
{ACAD_REACTORS
330
47
102
}
330
47
100
AcDbScale
 70
     0
300
3" = 1'-0"
140
3.0
141
12.0
290
     0
  0
SCALE
  5
67
102
{ACAD_REACTORS
330
47
102
}
330
47
100
AcDbScale
 70
     0
300
6" = 1'-0"
140
6.0
141
12.0
290
     0
  0
SCALE
  5
68
102
{ACAD_REACTORS
330
47
102
}
330
47
100
AcDbScale
 70
     0
300
1'-0" = 1'-0"
140
12.0
141
12.0
290
     0
  0
TABLESTYLE
  5
6A
102
{ACAD_REACTORS
330
69
102
}
330
69
100
AcDbTableStyle
  3
Standard
 70
     0
 71
     0
 40
0.06
 41
0.06
280
     0
281
     0
  7
Standard
140
0.18
170
     2
 62
     0
 63
   257
283
     0
274
    -2
284
     1
 64
     0
275
    -2
285
     1
 65
     0
276
    -2
286
     1
 66
     0
277
    -2
287
     1
 67
     0
278
    -2
288
     1
 68
     0
279
    -2
289
     1
 69
     0
  7
Standard
140
0.25
170
     5
 62
     0
 63
   257
283
     0
274
    -2
284
     1
 64
     0
275
    -2
285
     1
 65
     0
276
    -2
286
     1
 66
     0
277
    -2
287
     1
 67
     0
278
    -2
288
     1
 68
     0
279
    -2
289
     1
 69
     0
  7
Standard
140
0.18
170
     5
 62
     0
 63
   257
283
     0
274
    -2
284
     1
 64
     0
275
    -2
285
     1
 65
     0
276
    -2
286
     1
 66
     0
277
    -2
287
     1
 67
     0
278
    -2
288
     1
 68
     0
279
    -2
289
     1
 69
     0
  0
VISUALSTYLE
  5
2F
102
{ACAD_REACTORS
330
2A
102
}
102
{ACAD_XDICTIONARY
360
355
102
}
330
2A
100
AcDbVisualStyle
  2
2dWireframe
 70
     4
 71
     0
 72
     2
 73
     0
 90
        0
 40
0.6
 41
30.0
 62
     5
 63
     7
 74
     1
 91
        4
 64
     7
 65
   257
 75
     1
175
     1
 42
1.0
 92
        0
 66
   257
 43
1.0
 76
     1
 77
     6
 78
     2
 67
     7
 79
     5
170
     0
171
     0
290
     0
174
     0
 93
        1
 44
0.0
173
     0
291
     0
 45
0.0
1001
ACAD
1000
AcDbSavedByObjectVersion
1070
     0
  0
VISUALSTYLE
  5
32
102
{ACAD_REACTORS
330
2A
102
}
102
{ACAD_XDICTIONARY
360
35B
102
}
330
2A
100
AcDbVisualStyle
  2
Basic
 70
     7
 71
     1
 72
     0
 73
     1
 90
        0
 40
0.6
 41
30.0
 62
     5
 63
     7
 74
     0
 91
        4
 64
     7
 65
   257
 75
     1
175
     1
 42
1.0
 92
        8
 66
     7
 43
1.0
 76
     1
 77
     6
 78
     2
 67
     7
 79
     5
170
     0
171
     0
290
     0
174
     0
 93
        1
 44
0.0
173
     0
291
     1
 45
0.0
1001
ACAD
1000
AcDbSavedByObjectVersion
1070
     0
  0
VISUALSTYLE
  5
36
102
{ACAD_REACTORS
330
2A
102
}
102
{ACAD_XDICTIONARY
360
363
102
}
330
2A
100
AcDbVisualStyle
  2
Brighten
 70
    12
 71
     2
 72
     2
 73
     0
 90
        0
 40
0.6
 41
30.0
 62
     5
 63
     7
 74
     1
 91
        4
 64
     7
 65
   257
 75
     1
175
     1
 42
1.0
 92
        8
 66
     7
 43
1.0
 76
     1
 77
     6
 78
     2
 67
     7
 79
     5
170
     0
171
     0
290
     0
174
     0
 93
        1
 44
50.0
173
     0
291
     1
 45
0.0
1001
ACAD
1000
AcDbSavedByObjectVersion
1070
     0
  0
VISUALSTYLE
  5
3A
102
{ACAD_REACTORS
330
2A
102
}
102
{ACAD_XDICTIONARY
360
36B
102
}
330
2A
100
AcDbVisualStyle
  2
ColorChange
 70
    16
 71
     2
 72
     2
 73
     3
 90
        0
 40
0.6
 41
30.0
 62
     5
 63
     8
 74
     1
 91
        4
 64
     7
 65
   257
 75
     1
175
     1
 42
1.0
 92
        8
 66
     8
 43
1.0
 76
     1
 77
     6
 78
     2
 67
     7
 79
     5
170
     0
171
     0
290
     0
174
     0
 93
        1
 44
0.0
173
     0
291
     1
 45
0.0
1001
ACAD
1000
AcDbSavedByObjectVersion
1070
     0
  0
VISUALSTYLE
  5
34
102
{ACAD_REACTORS
330
2A
102
}
102
{ACAD_XDICTIONARY
360
35F
102
}
330
2A
100
AcDbVisualStyle
  2
Conceptual
 70
     9
 71
     3
 72
     2
 73
     0
 90
        0
 40
0.6
 41
30.0
 62
     5
 63
     7
 74
     2
 91
        2
 64
     7
 65
   257
 75
     1
175
     1
 42
179.0
 92
        8
 66
     7
 43
1.0
 76
     1
 77
     6
 78
     2
 67
     7
 79
     3
170
     0
171
     0
290
     0
174
     0
 93
        1
 44
0.0
173
     0
291
     0
 45
0.0
1001
ACAD
1000
AcDbSavedByObjectVersion
1070
     0
  0
VISUALSTYLE
  5
35
102
{ACAD_REACTORS
330
2A
102
}
102
{ACAD_XDICTIONARY
360
361
102
}
330
2A
100
AcDbVisualStyle
  2
Dim
 70
    11
 71
     2
 72
     2
 73
     0
 90
        0
 40
0.6
 41
30.0
 62
     5
 63
     7
 74
     1
 91
        4
 64
     7
 65
   257
 75
     1
175
     1
 42
1.0
 92
        8
 66
     7
 43
1.0
 76
     1
 77
     6
 78
     2
 67
     7
 79
     5
170
     0
171
     0
290
     0
174
     0
 93
        1
 44
-50.0
173
     0
291
     1
 45
0.0
1001
ACAD
1000
AcDbSavedByObjectVersion
1070
     0
  0
VISUALSTYLE
  5
3D
102
{ACAD_REACTORS
330
2A
102
}
102
{ACAD_XDICTIONARY
360
371
102
}
330
2A
100
AcDbVisualStyle
  2
EdgeColorOff
 70
    22
 71
     2
 72
     2
 73
     0
 90
        0
 40
0.6
 41
30.0
 62
     5
 63
     7
 74
     1
 91
        4
 64
     7
 65
   257
 75
     1
175
     1
 42
1.0
 92
        8
 66
     7
 43
1.0
 76
     1
 77
     6
 78
     2
 67
     7
 79
     5
170
     0
171
     0
290
     0
174
     0
 93
        1
 44
0.0
173
     0
291
     1
 45
0.0
1001
ACAD
1000
AcDbSavedByObjectVersion
1070
     0
  0
VISUALSTYLE
  5
39
102
{ACAD_REACTORS
330
2A
102
}
102
{ACAD_XDICTIONARY
360
369
102
}
330
2A
100
AcDbVisualStyle
  2
Facepattern
 70
    15
 71
     2
 72
     2
 73
     0
 90
        0
 40
0.6
 41
30.0
 62
     5
 63
     7
 74
     1
 91
        4
 64
     7
 65
   257
 75
     1
175
     1
 42
1.0
 92
        8
 66
     7
 43
1.0
 76
     1
 77
     6
 78
     2
 67
     7
 79
     5
170
     0
171
     0
290
     0
174
     0
 93
        1
 44
0.0
173
     0
291
     1
 45
0.0
1001
ACAD
1000
AcDbSavedByObjectVersion
1070
     0
  0
VISUALSTYLE
  5
2B
102
{ACAD_REACTORS
330
2A
102
}
102
{ACAD_XDICTIONARY
360
34D
102
}
330
2A
100
AcDbVisualStyle
  2
Flat
 70
     0
 71
     2
 72
     1
 73
     1
 90
        2
 40
0.6
 41
30.0
 62
     5
 63
     7
 74
     0
 91
        0
 64
     7
 65
   257
 75
     1
175
     1
 42
1.0
 92
        8
 66
     7
 43
1.0
 76
     1
 77
     6
 78
     2
 67
     7
 79
     5
170
     0
171
     0
290
     0
174
     0
 93
       13
 44
0.0
173
     0
291
     1
 45
0.0
1001
ACAD
1000
AcDbSavedByObjectVersion
1070
     0
  0
VISUALSTYLE
  5
2C
102
{ACAD_REACTORS
330
2A
102
}
102
{ACAD_XDICTIONARY
360
34F
102
}
330
2A
100
AcDbVisualStyle
  2
FlatWithEdges
 70
     1
 71
     2
 72
     1
 73
     1
 90
        2
 40
0.6
 41
30.0
 62
     5
 63
     7
 74
     1
 91
        0
 64
     7
 65
   257
 75
     1
175
     1
 42
1.0
 92
        0
 66
   257
 43
1.0
 76
     1
 77
     6
 78
     2
 67
     7
 79
     5
170
     0
171
     0
290
     0
174
     0
 93
       13
 44
0.0
173
     0
291
     1
 45
0.0
1001
ACAD
1000
AcDbSavedByObjectVersion
1070
     0
  0
VISUALSTYLE
  5
2D
102
{ACAD_REACTORS
330
2A
102
}
102
{ACAD_XDICTIONARY
360
351
102
}
330
2A
100
AcDbVisualStyle
  2
Gouraud
 70
     2
 71
     2
 72
     2
 73
     1
 90
        2
 40
0.6
 41
30.0
 62
     5
 63
     7
 74
     0
 91
        0
 64
     7
 65
   257
 75
     1
175
     1
 42
1.0
 92
        0
 66
     7
 43
1.0
 76
     1
 77
     6
 78
     2
 67
     7
 79
     5
170
     0
171
     0
290
     0
174
     0
 93
       13
 44
0.0
173
     0
291
     1
 45
0.0
1001
ACAD
1000
AcDbSavedByObjectVersion
1070
     0
  0
VISUALSTYLE
  5
2E
102
{ACAD_REACTORS
330
2A
102
}
102
{ACAD_XDICTIONARY
360
353
102
}
330
2A
100
AcDbVisualStyle
  2
GouraudWithEdges
 70
     3
 71
     2
 72
     2
 73
     1
 90
        2
 40
0.6
 41
30.0
 62
     5
 63
     7
 74
     1
 91
        0
 64
     7
 65
   257
 75
     1
175
     1
 42
1.0
 92
        0
 66
   257
 43
1.0
 76
     1
 77
     6
 78
     2
 67
     7
 79
     5
170
     0
171
     0
290
     0
174
     0
 93
       13
 44
0.0
173
     0
291
     1
 45
0.0
1001
ACAD
1000
AcDbSavedByObjectVersion
1070
     0
  0
VISUALSTYLE
  5
31
102
{ACAD_REACTORS
330
2A
102
}
102
{ACAD_XDICTIONARY
360
359
102
}
330
2A
100
AcDbVisualStyle
  2
Hidden
 70
     6
 71
     1
 72
     2
 73
     2
 90
        0
 40
0.6
 41
30.0
 62
     5
 63
     7
 74
     2
 91
        2
 64
     7
 65
   257
 75
     2
175
     1
 42
40.0
 92
        0
 66
   257
 43
1.0
 76
     1
 77
     6
 78
     2
 67
     7
 79
     3
170
     0
171
     0
290
     0
174
     0
 93
        1
 44
0.0
173
     0
291
     0
 45
0.0
1001
ACAD
1000
AcDbSavedByObjectVersion
1070
     0
  0
VISUALSTYLE
  5
3B
102
{ACAD_REACTORS
330
2A
102
}
102
{ACAD_XDICTIONARY
360
36D
102
}
330
2A
100
AcDbVisualStyle
  2
JitterOff
 70
    20
 71
     2
 72
     2
 73
     0
 90
        0
 40
0.6
 41
30.0
 62
     5
 63
     7
 74
     1
 91
        4
 64
     7
 65
   257
 75
     1
175
     1
 42
1.0
 92
       10
 66
     7
 43
1.0
 76
     1
 77
     6
 78
     2
 67
     7
 79
     5
170
     0
171
     0
290
     0
174
     0
 93
        1
 44
0.0
173
     0
291
     1
 45
0.0
1001
ACAD
1000
AcDbSavedByObjectVersion
1070
     0
  0
VISUALSTYLE
  5
38
102
{ACAD_REACTORS
330
2A
102
}
102
{ACAD_XDICTIONARY
360
367
102
}
330
2A
100
AcDbVisualStyle
  2
Linepattern
 70
    14
 71
     2
 72
     2
 73
     0
 90
        0
 40
0.6
 41
30.0
 62
     5
 63
     7
 74
     1
 91
        4
 64
     7
 65
   257
 75
     7
175
     7
 42
1.0
 92
        8
 66
     7
 43
1.0
 76
     1
 77
     6
 78
     2
 67
     7
 79
     5
170
     0
171
     0
290
     0
174
     0
 93
        1
 44
0.0
173
     0
291
     1
 45
0.0
1001
ACAD
1000
AcDbSavedByObjectVersion
1070
     0
  0
VISUALSTYLE
  5
3C
102
{ACAD_REACTORS
330
2A
102
}
102
{ACAD_XDICTIONARY
360
36F
102
}
330
2A
100
AcDbVisualStyle
  2
OverhangOff
 70
    21
 71
     2
 72
     2
 73
     0
 90
        0
 40
0.6
 41
30.0
 62
     5
 63
     7
 74
     1
 91
        4
 64
     7
 65
   257
 75
     1
175
     1
 42
1.0
 92
        9
 66
     7
 43
1.0
 76
     1
 77
     6
 78
     2
 67
     7
 79
     5
170
     0
171
     0
290
     0
174
     0
 93
        1
 44
0.0
173
     0
291
     1
 45
0.0
1001
ACAD
1000
AcDbSavedByObjectVersion
1070
     0
  0
VISUALSTYLE
  5
33
102
{ACAD_REACTORS
330
2A
102
}
102
{ACAD_XDICTIONARY
360
35D
102
}
330
2A
100
AcDbVisualStyle
  2
Realistic
 70
     8
 71
     2
 72
     3
 73
     0
 90
        2
 40
0.6
 41
30.0
 62
     5
 63
     7
 74
     0
 91
        0
 64
     7
 65
   257
 75
     1
175
     1
 42
1.0
 92
        8
 66
   257
 43
1.0
 76
     1
 77
     6
 78
     2
 67
     7
 79
     3
170
     0
171
     0
290
     0
174
     0
 93
       13
 44
0.0
173
     0
291
     0
 45
0.0
1001
ACAD
1000
AcDbSavedByObjectVersion
1070
     0
  0
VISUALSTYLE
  5
42
102
{ACAD_REACTORS
330
2A
102
}
102
{ACAD_XDICTIONARY
360
37B
102
}
330
2A
100
AcDbVisualStyle
  2
Shaded
 70
    27
 71
     2
 72
     2
 73
     1
 90
        2
 40
0.6
 41
30.0
 62
     5
 63
     7
 74
     0
 91
        4
 64
     7
 65
   257
 75
     1
175
     1
 42
1.0
 92
        8
 66
   257
 43
1.0
 76
     1
 77
     6
 78
     2
 67
     8
 79
     3
170
     0
171
     0
290
     0
174
     0
 93
        5
 44
0.0
173
     0
291
     0
 45
0.0
1001
ACAD
1000
AcDbSavedByObjectVersion
1070
     0
  0
VISUALSTYLE
  5
41
102
{ACAD_REACTORS
330
2A
102
}
102
{ACAD_XDICTIONARY
360
379
102
}
330
2A
100
AcDbVisualStyle
  2
Shaded with edges
 70
    26
 71
     2
 72
     2
 73
     1
 90
        2
 40
0.6
 41
30.0
 62
     5
 63
     7
 74
     1
 91
       10
 64
     7
 65
   257
 75
     2
175
     1
 42
1.0
 92
        8
 66
   257
 43
1.0
 76
     1
 77
     6
 78
     2
 67
     7
 79
     3
170
     0
171
     0
290
     0
174
     0
 93
        5
 44
0.0
173
     0
291
     0
 45
0.0
1001
ACAD
1000
AcDbSavedByObjectVersion
1070
     0
  0
VISUALSTYLE
  5
3E
102
{ACAD_REACTORS
330
2A
102
}
102
{ACAD_XDICTIONARY
360
373
102
}
330
2A
100
AcDbVisualStyle
  2
Shades of Gray
 70
    23
 71
     2
 72
     2
 73
     3
 90
        0
 40
0.6
 41
30.0
 62
     5
 63
     7
 74
     2
 91
        2
 64
     7
 65
     7
 75
     1
175
     1
 42
40.0
 92
        8
 66
     7
 43
1.0
 76
     1
 77
     6
 78
     2
 67
     7
 79
     3
170
     0
171
     0
290
     0
174
     0
 93
        1
 44
0.0
173
     0
291
     0
 45
0.0
1001
ACAD
1000
AcDbSavedByObjectVersion
1070
     0
  0
VISUALSTYLE
  5
3F
102
{ACAD_REACTORS
330
2A
102
}
102
{ACAD_XDICTIONARY
360
375
102
}
330
2A
100
AcDbVisualStyle
  2
Sketchy
 70
    24
 71
     1
 72
     2
 73
     2
 90
        0
 40
0.6
 41
30.0
 62
     5
 63
     7
 74
     2
 91
        2
 64
     7
 65
     7
 75
     1
175
     1
 42
40.0
 92
       11
 66
     7
 43
1.0
 76
     1
 77
     6
 78
     2
 67
     7
 79
     6
170
     0
171
     0
290
     0
174
     0
 93
        1
 44
0.0
173
     0
291
     0
 45
0.0
1001
ACAD
1000
AcDbSavedByObjectVersion
1070
     0
  0
VISUALSTYLE
  5
37
102
{ACAD_REACTORS
330
2A
102
}
102
{ACAD_XDICTIONARY
360
365
102
}
330
2A
100
AcDbVisualStyle
  2
Thicken
 70
    13
 71
     2
 72
     2
 73
     0
 90
        0
 40
0.6
 41
30.0
 62
     5
 63
     7
 74
     1
 91
        4
 64
     7
 65
   257
 75
     1
175
     1
 42
1.0
 92
       12
 66
     7
 43
1.0
 76
     1
 77
     6
 78
     2
 67
     7
 79
     5
170
     0
171
     0
290
     0
174
     0
 93
        1
 44
0.0
173
     0
291
     1
 45
0.0
1001
ACAD
1000
AcDbSavedByObjectVersion
1070
     0
  0
VISUALSTYLE
  5
30
102
{ACAD_REACTORS
330
2A
102
}
102
{ACAD_XDICTIONARY
360
357
102
}
330
2A
100
AcDbVisualStyle
  2
Wireframe
 70
     5
 71
     0
 72
     2
 73
     0
 90
        0
 40
0.6
 41
30.0
 62
     5
 63
     7
 74
     1
 91
        4
 64
     7
 65
   257
 75
     1
175
     1
 42
1.0
 92
        0
 66
   257
 43
1.0
 76
     1
 77
     6
 78
     2
 67
     7
 79
     3
170
     0
171
     0
290
     0
174
     0
 93
        1
 44
0.0
173
     0
291
     0
 45
0.0
1001
ACAD
1000
AcDbSavedByObjectVersion
1070
     0
  0
VISUALSTYLE
  5
40
102
{ACAD_REACTORS
330
2A
102
}
102
{ACAD_XDICTIONARY
360
377
102
}
330
2A
100
AcDbVisualStyle
  2
X-Ray
 70
    25
 71
     2
 72
     2
 73
     1
 90
        1
 40
0.5
 41
30.0
 62
     5
 63
     7
 74
     1
 91
        0
 64
     7
 65
   257
 75
     1
175
     1
 42
1.0
 92
        8
 66
     7
 43
1.0
 76
     1
 77
     6
 78
     2
 67
     7
 79
     3
170
     0
171
     0
290
     0
174
     0
 93
       13
 44
0.0
173
     0
291
     0
 45
0.0
1001
ACAD
1000
AcDbSavedByObjectVersion
1070
     0
  0
DICTIONARYVAR
  5
34B
102
{ACAD_REACTORS
330
342
102
}
330
342
100
DictionaryVariables
280
     0
  1
1:1
  0
DICTIONARYVAR
  5
344
102
{ACAD_REACTORS
330
342
102
}
330
342
100
DictionaryVariables
280
     0
  1
Standard
  0
DICTIONARYVAR
  5
343
102
{ACAD_REACTORS
330
342
102
}
330
342
100
DictionaryVariables
280
     0
  1
Standard
  0
DICTIONARYVAR
  5
347
102
{ACAD_REACTORS
330
342
102
}
330
342
100
DictionaryVariables
280
     0
  1
2
  0
DICTIONARYVAR
  5
348
102
{ACAD_REACTORS
330
342
102
}
330
342
100
DictionaryVariables
280
     0
  1
1
  0
DICTIONARYVAR
  5
34C
102
{ACAD_REACTORS
330
342
102
}
330
342
100
DictionaryVariables
280
     0
  1
1
  0
DICTIONARY
  5
37F
330
45
100
AcDbDictionary
280
     1
281
     1
  3
ACAD_XREC_ROUNDTRIP
360
380
  0
DICTIONARY
  5
37D
330
44
100
AcDbDictionary
280
     1
281
     1
  3
ACAD_XREC_ROUNDTRIP
360
37E
  0
DICTIONARY
  5
381
330
46
100
AcDbDictionary
280
     1
281
     1
  3
ACAD_XREC_ROUNDTRIP
360
382
  0
DICTIONARY
  5
384
330
6C
100
AcDbDictionary
280
     1
281
     1
  3
ACAD_XREC_ROUNDTRIP
360
385
  0
DICTIONARY
  5
355
330
2F
100
AcDbDictionary
280
     1
281
     1
  3
ACAD_XREC_ROUNDTRIP
360
356
  0
DICTIONARY
  5
35B
330
32
100
AcDbDictionary
280
     1
281
     1
  3
ACAD_XREC_ROUNDTRIP
360
35C
  0
DICTIONARY
  5
363
330
36
100
AcDbDictionary
280
     1
281
     1
  3
ACAD_XREC_ROUNDTRIP
360
364
  0
DICTIONARY
  5
36B
330
3A
100
AcDbDictionary
280
     1
281
     1
  3
ACAD_XREC_ROUNDTRIP
360
36C
  0
DICTIONARY
  5
35F
330
34
100
AcDbDictionary
280
     1
281
     1
  3
ACAD_XREC_ROUNDTRIP
360
360
  0
DICTIONARY
  5
361
330
35
100
AcDbDictionary
280
     1
281
     1
  3
ACAD_XREC_ROUNDTRIP
360
362
  0
DICTIONARY
  5
371
330
3D
100
AcDbDictionary
280
     1
281
     1
  3
ACAD_XREC_ROUNDTRIP
360
372
  0
DICTIONARY
  5
369
330
39
100
AcDbDictionary
280
     1
281
     1
  3
ACAD_XREC_ROUNDTRIP
360
36A
  0
DICTIONARY
  5
34D
330
2B
100
AcDbDictionary
280
     1
281
     1
  3
ACAD_XREC_ROUNDTRIP
360
34E
  0
DICTIONARY
  5
34F
330
2C
100
AcDbDictionary
280
     1
281
     1
  3
ACAD_XREC_ROUNDTRIP
360
350
  0
DICTIONARY
  5
351
330
2D
100
AcDbDictionary
280
     1
281
     1
  3
ACAD_XREC_ROUNDTRIP
360
352
  0
DICTIONARY
  5
353
330
2E
100
AcDbDictionary
280
     1
281
     1
  3
ACAD_XREC_ROUNDTRIP
360
354
  0
DICTIONARY
  5
359
330
31
100
AcDbDictionary
280
     1
281
     1
  3
ACAD_XREC_ROUNDTRIP
360
35A
  0
DICTIONARY
  5
36D
330
3B
100
AcDbDictionary
280
     1
281
     1
  3
ACAD_XREC_ROUNDTRIP
360
36E
  0
DICTIONARY
  5
367
330
38
100
AcDbDictionary
280
     1
281
     1
  3
ACAD_XREC_ROUNDTRIP
360
368
  0
DICTIONARY
  5
36F
330
3C
100
AcDbDictionary
280
     1
281
     1
  3
ACAD_XREC_ROUNDTRIP
360
370
  0
DICTIONARY
  5
35D
330
33
100
AcDbDictionary
280
     1
281
     1
  3
ACAD_XREC_ROUNDTRIP
360
35E
  0
DICTIONARY
  5
37B
330
42
100
AcDbDictionary
280
     1
281
     1
  3
ACAD_XREC_ROUNDTRIP
360
37C
  0
DICTIONARY
  5
379
330
41
100
AcDbDictionary
280
     1
281
     1
  3
ACAD_XREC_ROUNDTRIP
360
37A
  0
DICTIONARY
  5
373
330
3E
100
AcDbDictionary
280
     1
281
     1
  3
ACAD_XREC_ROUNDTRIP
360
374
  0
DICTIONARY
  5
375
330
3F
100
AcDbDictionary
280
     1
281
     1
  3
ACAD_XREC_ROUNDTRIP
360
376
  0
DICTIONARY
  5
365
330
37
100
AcDbDictionary
280
     1
281
     1
  3
ACAD_XREC_ROUNDTRIP
360
366
  0
DICTIONARY
  5
357
330
30
100
AcDbDictionary
280
     1
281
     1
  3
ACAD_XREC_ROUNDTRIP
360
358
  0
DICTIONARY
  5
377
330
40
100
AcDbDictionary
280
     1
281
     1
  3
ACAD_XREC_ROUNDTRIP
360
378
  0
XRECORD
  5
380
102
{ACAD_REACTORS
330
37F
102
}
330
37F
100
AcDbXrecord
280
     1
102
MATERIAL
148
0.0
149
0.0
149
0.0
 93
        0
 94
      127
282
     0
 72
     1
 77
     1
171
     1
175
     1
179
     1
273
     0
  0
XRECORD
  5
37E
102
{ACAD_REACTORS
330
37D
102
}
330
37D
100
AcDbXrecord
280
     1
102
MATERIAL
148
0.0
149
0.0
149
0.0
 93
        0
 94
      127
282
     0
 72
     1
 77
     1
171
     1
175
     1
179
     1
273
     0
  0
XRECORD
  5
382
102
{ACAD_REACTORS
330
381
102
}
330
381
100
AcDbXrecord
280
     1
102
MATERIAL
148
0.0
149
0.0
149
0.0
 93
        0
 94
      127
282
     0
 72
     1
 77
     1
171
     1
175
     1
179
     1
273
     0
  0
XRECORD
  5
385
102
{ACAD_REACTORS
330
384
102
}
330
384
100
AcDbXrecord
280
     1
102
ACAD_ROUNDTRIP_2010_MLEADER_STYLE
  0
XRECORD
  5
356
102
{ACAD_REACTORS
330
355
102
}
330
355
100
AcDbXrecord
280
     1
102
RTVSPropertyOp0
 70
     1
102
RTVSPropertyOp1
 70
     1
102
RTVSPropertyOp2
 70
     1
102
RTVSPropertyOp3
 70
     1
102
RTVSPropertyOp4
 70
     1
102
RTVSPropertyOp5
 70
     1
102
RTVSPropertyOp6
 70
     1
102
RTVSPropertyOp7
 70
     1
102
RTVSPropertyOp8
 70
     1
102
RTVSPropertyOp9
 70
     1
102
RTVSPropertyOp10
 70
     1
102
RTVSPropertyOp11
 70
     1
102
RTVSPropertyOp12
 70
     1
102
RTVSPropertyOp13
 70
     1
102
RTVSPropertyOp14
 70
     1
102
RTVSPropertyOp15
 70
     1
102
RTVSPropertyOp16
 70
     1
102
RTVSPropertyOp17
 70
     1
102
RTVSPropertyOp18
 70
     1
102
RTVSPropertyOp19
 70
     1
102
RTVSPropertyOp20
 70
     1
102
RTVSPropertyOp21
 70
     1
102
RTVSPropertyOp22
 70
     1
102
RTVSPropertyOp23
 70
     1
102
RTVSPropertyOp24
 70
     1
102
RTVSPropertyOp25
 70
     1
102
RTVSPropertyOp26
 70
     1
102
RTVSPropertyOp27
 70
     1
102
RTVSPropertyOp28
 70
     1
102
RTVSPropertyOp29
 70
     1
102
RTVSPropertyOp30
 70
     1
102
RTVSPropertyOp31
 70
     1
102
RTVSPropertyOp32
 70
     1
102
RTVSPropertyOp33
 70
     1
102
RTVSPropertyOp34
 70
     1
102
RTVSPropertyOp35
 70
     1
102
RTVSPropertyOp36
 70
     1
102
RTVSPropertyOp37
 70
     1
102
RTVSPropertyOp38
 70
     1
102
RTVSPropertyOp39
 70
     1
102
RTVSPropertyOp40
 70
     1
102
RTVSPropertyOp41
 70
     1
102
RTVSPropertyOp42
 70
     1
102
RTVSPropertyOp43
 70
     1
102
RTVSPropertyOp44
 70
     1
102
RTVSPropertyOp45
 70
     1
102
RTVSPropertyOp46
 70
     1
102
RTVSPropertyOp47
 70
     1
102
RTVSPropertyOp48
 70
     1
102
RTVSPropertyOp49
 70
     1
102
RTVSPropertyOp50
 70
     1
102
RTVSPropertyOp51
 70
     0
102
RTVSPropertyOp52
 70
     0
102
RTVSPropertyOp53
 70
     1
102
RTVSPropertyOp54
 70
     1
102
RTVSPropertyOp55
 70
     1
102
RTVSPropertyOp56
 70
     1
102
RTVSPropertyOp57
 70
     1
102
RTVSPost2010Prop28
280
     1
102
RTVSPost2010PropOp28
 70
     1
102
RTVSPost2010Prop29
280
     1
102
RTVSPost2010PropOp29
 70
     1
102
RTVSPost2010Prop30
280
     0
102
RTVSPost2010PropOp30
 70
     1
102
RTVSPost2010Prop31
280
     0
102
RTVSPost2010PropOp31
 70
     1
102
RTVSPost2010Prop32
280
     0
102
RTVSPost2010PropOp32
 70
     1
102
RTVSPost2010Prop33
280
     0
102
RTVSPost2010PropOp33
 70
     1
102
RTVSPost2010Prop34
280
     0
102
RTVSPost2010PropOp34
 70
     1
102
RTVSPost2010Prop35
280
     0
102
RTVSPost2010PropOp35
 70
     1
102
RTVSPost2010Prop36
280
     0
102
RTVSPost2010PropOp36
 70
     1
102
RTVSPost2010Prop37
 90
       50
102
RTVSPost2010PropOp37
 70
     1
102
RTVSPost2010Prop38
140
0.0
102
RTVSPost2010PropOp38
 70
     1
102
RTVSPost2010Prop39
140
1.0
102
RTVSPost2010PropOp39
 70
     1
102
RTVSPost2010Prop40
 90
        0
102
RTVSPost2010PropOp40
 70
     1
102
RTVSPost2010Prop41ColorIndex
 90
       18
102
RTVSPost2010Prop41ColorRGB
 90
        0
102
RTVSPost2010PropOp41
 70
     1
102
RTVSPost2010Prop42
 90
       50
102
RTVSPost2010PropOp42
 70
     1
102
RTVSPost2010Prop43
 90
        3
102
RTVSPost2010PropOp43
 70
     1
102
RTVSPost2010Prop44ColorIndex
 90
        5
102
RTVSPost2010Prop44ColorRGB
 90
      255
102
RTVSPost2010PropOp44
 70
     1
102
RTVSPost2010Prop45
280
     0
102
RTVSPost2010PropOp45
 70
     1
102
RTVSPost2010Prop46
 90
       50
102
RTVSPost2010PropOp46
 70
     1
102
RTVSPost2010Prop47
 90
       50
102
RTVSPost2010PropOp47
 70
     1
102
RTVSPost2010Prop48
 90
       50
102
RTVSPost2010PropOp48
 70
     1
102
RTVSPost2010Prop49
280
     0
102
RTVSPost2010PropOp49
 70
     1
102
RTVSPost2010Prop50
 90
       50
102
RTVSPost2010PropOp50
 70
     1
102
RTVSPost2010Prop51ColorIndex
 90
      256
102
RTVSPost2010Prop51ColorRGB
 90
-16777216
102
RTVSPost2010PropOp51
 70
     0
102
RTVSPost2010Prop52
140
1.0
102
RTVSPost2010PropOp52
 70
     0
102
RTVSPost2010Prop53
 90
        2
102
RTVSPost2010PropOp53
 70
     1
102
RTVSPost2010Prop54
  1
strokes_ogs.tif
102
RTVSPost2010PropOp54
 70
     1
102
RTVSPost2010Prop55
280
     0
102
RTVSPost2010PropOp55
 70
     1
102
RTVSPost2010Prop56
140
1.0
102
RTVSPost2010PropOp56
 70
     1
102
RTVSPost2010Prop57
140
1.0
102
RTVSPost2010PropOp57
 70
     1
  0
XRECORD
  5
35C
102
{ACAD_REACTORS
330
35B
102
}
330
35B
100
AcDbXrecord
280
     1
102
RTVSPropertyOp0
 70
     1
102
RTVSPropertyOp1
 70
     1
102
RTVSPropertyOp2
 70
     1
102
RTVSPropertyOp3
 70
     1
102
RTVSPropertyOp4
 70
     1
102
RTVSPropertyOp5
 70
     1
102
RTVSPropertyOp6
 70
     1
102
RTVSPropertyOp7
 70
     1
102
RTVSPropertyOp8
 70
     1
102
RTVSPropertyOp9
 70
     1
102
RTVSPropertyOp10
 70
     1
102
RTVSPropertyOp11
 70
     1
102
RTVSPropertyOp12
 70
     1
102
RTVSPropertyOp13
 70
     1
102
RTVSPropertyOp14
 70
     1
102
RTVSPropertyOp15
 70
     1
102
RTVSPropertyOp16
 70
     1
102
RTVSPropertyOp17
 70
     1
102
RTVSPropertyOp18
 70
     1
102
RTVSPropertyOp19
 70
     1
102
RTVSPropertyOp20
 70
     1
102
RTVSPropertyOp21
 70
     1
102
RTVSPropertyOp22
 70
     1
102
RTVSPropertyOp23
 70
     1
102
RTVSPropertyOp24
 70
     1
102
RTVSPropertyOp25
 70
     1
102
RTVSPropertyOp26
 70
     1
102
RTVSPropertyOp27
 70
     1
102
RTVSPropertyOp28
 70
     1
102
RTVSPropertyOp29
 70
     1
102
RTVSPropertyOp30
 70
     1
102
RTVSPropertyOp31
 70
     1
102
RTVSPropertyOp32
 70
     1
102
RTVSPropertyOp33
 70
     1
102
RTVSPropertyOp34
 70
     1
102
RTVSPropertyOp35
 70
     1
102
RTVSPropertyOp36
 70
     1
102
RTVSPropertyOp37
 70
     1
102
RTVSPropertyOp38
 70
     1
102
RTVSPropertyOp39
 70
     1
102
RTVSPropertyOp40
 70
     1
102
RTVSPropertyOp41
 70
     1
102
RTVSPropertyOp42
 70
     1
102
RTVSPropertyOp43
 70
     1
102
RTVSPropertyOp44
 70
     1
102
RTVSPropertyOp45
 70
     1
102
RTVSPropertyOp46
 70
     1
102
RTVSPropertyOp47
 70
     1
102
RTVSPropertyOp48
 70
     1
102
RTVSPropertyOp49
 70
     1
102
RTVSPropertyOp50
 70
     1
102
RTVSPropertyOp51
 70
     0
102
RTVSPropertyOp52
 70
     0
102
RTVSPropertyOp53
 70
     1
102
RTVSPropertyOp54
 70
     1
102
RTVSPropertyOp55
 70
     1
102
RTVSPropertyOp56
 70
     1
102
RTVSPropertyOp57
 70
     1
102
RTVSPost2010Prop28
280
     0
102
RTVSPost2010PropOp28
 70
     1
102
RTVSPost2010Prop29
280
     1
102
RTVSPost2010PropOp29
 70
     1
102
RTVSPost2010Prop30
280
     1
102
RTVSPost2010PropOp30
 70
     1
102
RTVSPost2010Prop31
280
     0
102
RTVSPost2010PropOp31
 70
     1
102
RTVSPost2010Prop32
280
     0
102
RTVSPost2010PropOp32
 70
     1
102
RTVSPost2010Prop33
280
     0
102
RTVSPost2010PropOp33
 70
     1
102
RTVSPost2010Prop34
280
     0
102
RTVSPost2010PropOp34
 70
     1
102
RTVSPost2010Prop35
280
     0
102
RTVSPost2010PropOp35
 70
     1
102
RTVSPost2010Prop36
280
     0
102
RTVSPost2010PropOp36
 70
     1
102
RTVSPost2010Prop37
 90
       50
102
RTVSPost2010PropOp37
 70
     1
102
RTVSPost2010Prop38
140
0.0
102
RTVSPost2010PropOp38
 70
     1
102
RTVSPost2010Prop39
140
1.0
102
RTVSPost2010PropOp39
 70
     1
102
RTVSPost2010Prop40
 90
        0
102
RTVSPost2010PropOp40
 70
     1
102
RTVSPost2010Prop41ColorIndex
 90
       18
102
RTVSPost2010Prop41ColorRGB
 90
        0
102
RTVSPost2010PropOp41
 70
     1
102
RTVSPost2010Prop42
 90
       50
102
RTVSPost2010PropOp42
 70
     1
102
RTVSPost2010Prop43
 90
        3
102
RTVSPost2010PropOp43
 70
     1
102
RTVSPost2010Prop44ColorIndex
 90
        5
102
RTVSPost2010Prop44ColorRGB
 90
      255
102
RTVSPost2010PropOp44
 70
     1
102
RTVSPost2010Prop45
280
     0
102
RTVSPost2010PropOp45
 70
     1
102
RTVSPost2010Prop46
 90
       50
102
RTVSPost2010PropOp46
 70
     1
102
RTVSPost2010Prop47
 90
       50
102
RTVSPost2010PropOp47
 70
     1
102
RTVSPost2010Prop48
 90
       50
102
RTVSPost2010PropOp48
 70
     1
102
RTVSPost2010Prop49
280
     0
102
RTVSPost2010PropOp49
 70
     1
102
RTVSPost2010Prop50
 90
       50
102
RTVSPost2010PropOp50
 70
     1
102
RTVSPost2010Prop51ColorIndex
 90
      256
102
RTVSPost2010Prop51ColorRGB
 90
-16777216
102
RTVSPost2010PropOp51
 70
     0
102
RTVSPost2010Prop52
140
1.0
102
RTVSPost2010PropOp52
 70
     0
102
RTVSPost2010Prop53
 90
        2
102
RTVSPost2010PropOp53
 70
     1
102
RTVSPost2010Prop54
  1
strokes_ogs.tif
102
RTVSPost2010PropOp54
 70
     1
102
RTVSPost2010Prop55
280
     0
102
RTVSPost2010PropOp55
 70
     1
102
RTVSPost2010Prop56
140
1.0
102
RTVSPost2010PropOp56
 70
     1
102
RTVSPost2010Prop57
140
1.0
102
RTVSPost2010PropOp57
 70
     1
  0
XRECORD
  5
364
102
{ACAD_REACTORS
330
363
102
}
330
363
100
AcDbXrecord
280
     1
102
RTVSPropertyOp0
 70
     1
102
RTVSPropertyOp1
 70
     1
102
RTVSPropertyOp2
 70
     1
102
RTVSPropertyOp3
 70
     1
102
RTVSPropertyOp4
 70
     1
102
RTVSPropertyOp5
 70
     1
102
RTVSPropertyOp6
 70
     1
102
RTVSPropertyOp7
 70
     1
102
RTVSPropertyOp8
 70
     1
102
RTVSPropertyOp9
 70
     1
102
RTVSPropertyOp10
 70
     1
102
RTVSPropertyOp11
 70
     1
102
RTVSPropertyOp12
 70
     1
102
RTVSPropertyOp13
 70
     1
102
RTVSPropertyOp14
 70
     1
102
RTVSPropertyOp15
 70
     1
102
RTVSPropertyOp16
 70
     1
102
RTVSPropertyOp17
 70
     1
102
RTVSPropertyOp18
 70
     1
102
RTVSPropertyOp19
 70
     1
102
RTVSPropertyOp20
 70
     1
102
RTVSPropertyOp21
 70
     1
102
RTVSPropertyOp22
 70
     1
102
RTVSPropertyOp23
 70
     1
102
RTVSPropertyOp24
 70
     1
102
RTVSPropertyOp25
 70
     1
102
RTVSPropertyOp26
 70
     1
102
RTVSPropertyOp27
 70
     1
102
RTVSPropertyOp28
 70
     1
102
RTVSPropertyOp29
 70
     1
102
RTVSPropertyOp30
 70
     1
102
RTVSPropertyOp31
 70
     1
102
RTVSPropertyOp32
 70
     1
102
RTVSPropertyOp33
 70
     1
102
RTVSPropertyOp34
 70
     1
102
RTVSPropertyOp35
 70
     1
102
RTVSPropertyOp36
 70
     1
102
RTVSPropertyOp37
 70
     1
102
RTVSPropertyOp38
 70
     1
102
RTVSPropertyOp39
 70
     1
102
RTVSPropertyOp40
 70
     1
102
RTVSPropertyOp41
 70
     1
102
RTVSPropertyOp42
 70
     1
102
RTVSPropertyOp43
 70
     1
102
RTVSPropertyOp44
 70
     1
102
RTVSPropertyOp45
 70
     1
102
RTVSPropertyOp46
 70
     1
102
RTVSPropertyOp47
 70
     1
102
RTVSPropertyOp48
 70
     1
102
RTVSPropertyOp49
 70
     1
102
RTVSPropertyOp50
 70
     1
102
RTVSPropertyOp51
 70
     0
102
RTVSPropertyOp52
 70
     0
102
RTVSPropertyOp53
 70
     1
102
RTVSPropertyOp54
 70
     1
102
RTVSPropertyOp55
 70
     1
102
RTVSPropertyOp56
 70
     1
102
RTVSPropertyOp57
 70
     1
102
RTVSPost2010Prop28
280
     0
102
RTVSPost2010PropOp28
 70
     1
102
RTVSPost2010Prop29
280
     1
102
RTVSPost2010PropOp29
 70
     1
102
RTVSPost2010Prop30
280
     1
102
RTVSPost2010PropOp30
 70
     1
102
RTVSPost2010Prop31
280
     0
102
RTVSPost2010PropOp31
 70
     1
102
RTVSPost2010Prop32
280
     0
102
RTVSPost2010PropOp32
 70
     1
102
RTVSPost2010Prop33
280
     0
102
RTVSPost2010PropOp33
 70
     1
102
RTVSPost2010Prop34
280
     0
102
RTVSPost2010PropOp34
 70
     1
102
RTVSPost2010Prop35
280
     0
102
RTVSPost2010PropOp35
 70
     1
102
RTVSPost2010Prop36
280
     0
102
RTVSPost2010PropOp36
 70
     1
102
RTVSPost2010Prop37
 90
       50
102
RTVSPost2010PropOp37
 70
     1
102
RTVSPost2010Prop38
140
0.0
102
RTVSPost2010PropOp38
 70
     1
102
RTVSPost2010Prop39
140
1.0
102
RTVSPost2010PropOp39
 70
     1
102
RTVSPost2010Prop40
 90
        0
102
RTVSPost2010PropOp40
 70
     1
102
RTVSPost2010Prop41ColorIndex
 90
       18
102
RTVSPost2010Prop41ColorRGB
 90
        0
102
RTVSPost2010PropOp41
 70
     1
102
RTVSPost2010Prop42
 90
       50
102
RTVSPost2010PropOp42
 70
     1
102
RTVSPost2010Prop43
 90
        3
102
RTVSPost2010PropOp43
 70
     1
102
RTVSPost2010Prop44ColorIndex
 90
        5
102
RTVSPost2010Prop44ColorRGB
 90
      255
102
RTVSPost2010PropOp44
 70
     1
102
RTVSPost2010Prop45
280
     0
102
RTVSPost2010PropOp45
 70
     1
102
RTVSPost2010Prop46
 90
       50
102
RTVSPost2010PropOp46
 70
     1
102
RTVSPost2010Prop47
 90
       50
102
RTVSPost2010PropOp47
 70
     1
102
RTVSPost2010Prop48
 90
       50
102
RTVSPost2010PropOp48
 70
     1
102
RTVSPost2010Prop49
280
     0
102
RTVSPost2010PropOp49
 70
     1
102
RTVSPost2010Prop50
 90
       50
102
RTVSPost2010PropOp50
 70
     1
102
RTVSPost2010Prop51ColorIndex
 90
      256
102
RTVSPost2010Prop51ColorRGB
 90
-16777216
102
RTVSPost2010PropOp51
 70
     0
102
RTVSPost2010Prop52
140
1.0
102
RTVSPost2010PropOp52
 70
     0
102
RTVSPost2010Prop53
 90
        2
102
RTVSPost2010PropOp53
 70
     1
102
RTVSPost2010Prop54
  1
strokes_ogs.tif
102
RTVSPost2010PropOp54
 70
     1
102
RTVSPost2010Prop55
280
     0
102
RTVSPost2010PropOp55
 70
     1
102
RTVSPost2010Prop56
140
1.0
102
RTVSPost2010PropOp56
 70
     1
102
RTVSPost2010Prop57
140
1.0
102
RTVSPost2010PropOp57
 70
     1
  0
XRECORD
  5
36C
102
{ACAD_REACTORS
330
36B
102
}
330
36B
100
AcDbXrecord
280
     1
102
RTVSPropertyOp0
 70
     1
102
RTVSPropertyOp1
 70
     1
102
RTVSPropertyOp2
 70
     1
102
RTVSPropertyOp3
 70
     1
102
RTVSPropertyOp4
 70
     1
102
RTVSPropertyOp5
 70
     1
102
RTVSPropertyOp6
 70
     1
102
RTVSPropertyOp7
 70
     1
102
RTVSPropertyOp8
 70
     1
102
RTVSPropertyOp9
 70
     1
102
RTVSPropertyOp10
 70
     1
102
RTVSPropertyOp11
 70
     1
102
RTVSPropertyOp12
 70
     1
102
RTVSPropertyOp13
 70
     1
102
RTVSPropertyOp14
 70
     1
102
RTVSPropertyOp15
 70
     1
102
RTVSPropertyOp16
 70
     1
102
RTVSPropertyOp17
 70
     1
102
RTVSPropertyOp18
 70
     1
102
RTVSPropertyOp19
 70
     1
102
RTVSPropertyOp20
 70
     1
102
RTVSPropertyOp21
 70
     1
102
RTVSPropertyOp22
 70
     1
102
RTVSPropertyOp23
 70
     1
102
RTVSPropertyOp24
 70
     1
102
RTVSPropertyOp25
 70
     1
102
RTVSPropertyOp26
 70
     1
102
RTVSPropertyOp27
 70
     1
102
RTVSPropertyOp28
 70
     1
102
RTVSPropertyOp29
 70
     1
102
RTVSPropertyOp30
 70
     1
102
RTVSPropertyOp31
 70
     1
102
RTVSPropertyOp32
 70
     1
102
RTVSPropertyOp33
 70
     1
102
RTVSPropertyOp34
 70
     1
102
RTVSPropertyOp35
 70
     1
102
RTVSPropertyOp36
 70
     1
102
RTVSPropertyOp37
 70
     1
102
RTVSPropertyOp38
 70
     1
102
RTVSPropertyOp39
 70
     1
102
RTVSPropertyOp40
 70
     1
102
RTVSPropertyOp41
 70
     1
102
RTVSPropertyOp42
 70
     1
102
RTVSPropertyOp43
 70
     1
102
RTVSPropertyOp44
 70
     1
102
RTVSPropertyOp45
 70
     1
102
RTVSPropertyOp46
 70
     1
102
RTVSPropertyOp47
 70
     1
102
RTVSPropertyOp48
 70
     1
102
RTVSPropertyOp49
 70
     1
102
RTVSPropertyOp50
 70
     1
102
RTVSPropertyOp51
 70
     0
102
RTVSPropertyOp52
 70
     0
102
RTVSPropertyOp53
 70
     1
102
RTVSPropertyOp54
 70
     1
102
RTVSPropertyOp55
 70
     1
102
RTVSPropertyOp56
 70
     1
102
RTVSPropertyOp57
 70
     1
102
RTVSPost2010Prop28
280
     0
102
RTVSPost2010PropOp28
 70
     1
102
RTVSPost2010Prop29
280
     1
102
RTVSPost2010PropOp29
 70
     1
102
RTVSPost2010Prop30
280
     1
102
RTVSPost2010PropOp30
 70
     1
102
RTVSPost2010Prop31
280
     0
102
RTVSPost2010PropOp31
 70
     1
102
RTVSPost2010Prop32
280
     0
102
RTVSPost2010PropOp32
 70
     1
102
RTVSPost2010Prop33
280
     0
102
RTVSPost2010PropOp33
 70
     1
102
RTVSPost2010Prop34
280
     0
102
RTVSPost2010PropOp34
 70
     1
102
RTVSPost2010Prop35
280
     0
102
RTVSPost2010PropOp35
 70
     1
102
RTVSPost2010Prop36
280
     0
102
RTVSPost2010PropOp36
 70
     1
102
RTVSPost2010Prop37
 90
       50
102
RTVSPost2010PropOp37
 70
     1
102
RTVSPost2010Prop38
140
0.0
102
RTVSPost2010PropOp38
 70
     1
102
RTVSPost2010Prop39
140
1.0
102
RTVSPost2010PropOp39
 70
     1
102
RTVSPost2010Prop40
 90
        0
102
RTVSPost2010PropOp40
 70
     1
102
RTVSPost2010Prop41ColorIndex
 90
       18
102
RTVSPost2010Prop41ColorRGB
 90
        0
102
RTVSPost2010PropOp41
 70
     1
102
RTVSPost2010Prop42
 90
       50
102
RTVSPost2010PropOp42
 70
     1
102
RTVSPost2010Prop43
 90
        3
102
RTVSPost2010PropOp43
 70
     1
102
RTVSPost2010Prop44ColorIndex
 90
        5
102
RTVSPost2010Prop44ColorRGB
 90
      255
102
RTVSPost2010PropOp44
 70
     1
102
RTVSPost2010Prop45
280
     0
102
RTVSPost2010PropOp45
 70
     1
102
RTVSPost2010Prop46
 90
       50
102
RTVSPost2010PropOp46
 70
     1
102
RTVSPost2010Prop47
 90
       50
102
RTVSPost2010PropOp47
 70
     1
102
RTVSPost2010Prop48
 90
       50
102
RTVSPost2010PropOp48
 70
     1
102
RTVSPost2010Prop49
280
     0
102
RTVSPost2010PropOp49
 70
     1
102
RTVSPost2010Prop50
 90
       50
102
RTVSPost2010PropOp50
 70
     1
102
RTVSPost2010Prop51ColorIndex
 90
      256
102
RTVSPost2010Prop51ColorRGB
 90
-16777216
102
RTVSPost2010PropOp51
 70
     0
102
RTVSPost2010Prop52
140
1.0
102
RTVSPost2010PropOp52
 70
     0
102
RTVSPost2010Prop53
 90
        2
102
RTVSPost2010PropOp53
 70
     1
102
RTVSPost2010Prop54
  1
strokes_ogs.tif
102
RTVSPost2010PropOp54
 70
     1
102
RTVSPost2010Prop55
280
     0
102
RTVSPost2010PropOp55
 70
     1
102
RTVSPost2010Prop56
140
1.0
102
RTVSPost2010PropOp56
 70
     1
102
RTVSPost2010Prop57
140
1.0
102
RTVSPost2010PropOp57
 70
     1
  0
XRECORD
  5
360
102
{ACAD_REACTORS
330
35F
102
}
330
35F
100
AcDbXrecord
280
     1
102
RTVSPropertyOp0
 70
     1
102
RTVSPropertyOp1
 70
     1
102
RTVSPropertyOp2
 70
     1
102
RTVSPropertyOp3
 70
     1
102
RTVSPropertyOp4
 70
     1
102
RTVSPropertyOp5
 70
     1
102
RTVSPropertyOp6
 70
     1
102
RTVSPropertyOp7
 70
     1
102
RTVSPropertyOp8
 70
     1
102
RTVSPropertyOp9
 70
     1
102
RTVSPropertyOp10
 70
     1
102
RTVSPropertyOp11
 70
     1
102
RTVSPropertyOp12
 70
     1
102
RTVSPropertyOp13
 70
     1
102
RTVSPropertyOp14
 70
     1
102
RTVSPropertyOp15
 70
     1
102
RTVSPropertyOp16
 70
     1
102
RTVSPropertyOp17
 70
     1
102
RTVSPropertyOp18
 70
     1
102
RTVSPropertyOp19
 70
     1
102
RTVSPropertyOp20
 70
     1
102
RTVSPropertyOp21
 70
     1
102
RTVSPropertyOp22
 70
     1
102
RTVSPropertyOp23
 70
     1
102
RTVSPropertyOp24
 70
     1
102
RTVSPropertyOp25
 70
     1
102
RTVSPropertyOp26
 70
     1
102
RTVSPropertyOp27
 70
     1
102
RTVSPropertyOp28
 70
     1
102
RTVSPropertyOp29
 70
     1
102
RTVSPropertyOp30
 70
     1
102
RTVSPropertyOp31
 70
     1
102
RTVSPropertyOp32
 70
     1
102
RTVSPropertyOp33
 70
     1
102
RTVSPropertyOp34
 70
     1
102
RTVSPropertyOp35
 70
     1
102
RTVSPropertyOp36
 70
     1
102
RTVSPropertyOp37
 70
     1
102
RTVSPropertyOp38
 70
     1
102
RTVSPropertyOp39
 70
     1
102
RTVSPropertyOp40
 70
     1
102
RTVSPropertyOp41
 70
     1
102
RTVSPropertyOp42
 70
     1
102
RTVSPropertyOp43
 70
     1
102
RTVSPropertyOp44
 70
     1
102
RTVSPropertyOp45
 70
     1
102
RTVSPropertyOp46
 70
     1
102
RTVSPropertyOp47
 70
     1
102
RTVSPropertyOp48
 70
     1
102
RTVSPropertyOp49
 70
     1
102
RTVSPropertyOp50
 70
     1
102
RTVSPropertyOp51
 70
     0
102
RTVSPropertyOp52
 70
     0
102
RTVSPropertyOp53
 70
     1
102
RTVSPropertyOp54
 70
     1
102
RTVSPropertyOp55
 70
     1
102
RTVSPropertyOp56
 70
     1
102
RTVSPropertyOp57
 70
     1
102
RTVSPost2010Prop28
280
     0
102
RTVSPost2010PropOp28
 70
     1
102
RTVSPost2010Prop29
280
     1
102
RTVSPost2010PropOp29
 70
     1
102
RTVSPost2010Prop30
280
     1
102
RTVSPost2010PropOp30
 70
     1
102
RTVSPost2010Prop31
280
     0
102
RTVSPost2010PropOp31
 70
     1
102
RTVSPost2010Prop32
280
     0
102
RTVSPost2010PropOp32
 70
     1
102
RTVSPost2010Prop33
280
     0
102
RTVSPost2010PropOp33
 70
     1
102
RTVSPost2010Prop34
280
     0
102
RTVSPost2010PropOp34
 70
     1
102
RTVSPost2010Prop35
280
     0
102
RTVSPost2010PropOp35
 70
     1
102
RTVSPost2010Prop36
280
     0
102
RTVSPost2010PropOp36
 70
     1
102
RTVSPost2010Prop37
 90
       50
102
RTVSPost2010PropOp37
 70
     1
102
RTVSPost2010Prop38
140
0.0
102
RTVSPost2010PropOp38
 70
     1
102
RTVSPost2010Prop39
140
1.0
102
RTVSPost2010PropOp39
 70
     1
102
RTVSPost2010Prop40
 90
        0
102
RTVSPost2010PropOp40
 70
     1
102
RTVSPost2010Prop41ColorIndex
 90
       18
102
RTVSPost2010Prop41ColorRGB
 90
        0
102
RTVSPost2010PropOp41
 70
     1
102
RTVSPost2010Prop42
 90
       50
102
RTVSPost2010PropOp42
 70
     1
102
RTVSPost2010Prop43
 90
        3
102
RTVSPost2010PropOp43
 70
     1
102
RTVSPost2010Prop44ColorIndex
 90
        5
102
RTVSPost2010Prop44ColorRGB
 90
      255
102
RTVSPost2010PropOp44
 70
     1
102
RTVSPost2010Prop45
280
     0
102
RTVSPost2010PropOp45
 70
     1
102
RTVSPost2010Prop46
 90
       50
102
RTVSPost2010PropOp46
 70
     1
102
RTVSPost2010Prop47
 90
       50
102
RTVSPost2010PropOp47
 70
     1
102
RTVSPost2010Prop48
 90
       50
102
RTVSPost2010PropOp48
 70
     1
102
RTVSPost2010Prop49
280
     0
102
RTVSPost2010PropOp49
 70
     1
102
RTVSPost2010Prop50
 90
       50
102
RTVSPost2010PropOp50
 70
     1
102
RTVSPost2010Prop51ColorIndex
 90
      256
102
RTVSPost2010Prop51ColorRGB
 90
-16777216
102
RTVSPost2010PropOp51
 70
     0
102
RTVSPost2010Prop52
140
1.0
102
RTVSPost2010PropOp52
 70
     0
102
RTVSPost2010Prop53
 90
        2
102
RTVSPost2010PropOp53
 70
     1
102
RTVSPost2010Prop54
  1
strokes_ogs.tif
102
RTVSPost2010PropOp54
 70
     1
102
RTVSPost2010Prop55
280
     0
102
RTVSPost2010PropOp55
 70
     1
102
RTVSPost2010Prop56
140
1.0
102
RTVSPost2010PropOp56
 70
     1
102
RTVSPost2010Prop57
140
1.0
102
RTVSPost2010PropOp57
 70
     1
  0
XRECORD
  5
362
102
{ACAD_REACTORS
330
361
102
}
330
361
100
AcDbXrecord
280
     1
102
RTVSPropertyOp0
 70
     1
102
RTVSPropertyOp1
 70
     1
102
RTVSPropertyOp2
 70
     1
102
RTVSPropertyOp3
 70
     1
102
RTVSPropertyOp4
 70
     1
102
RTVSPropertyOp5
 70
     1
102
RTVSPropertyOp6
 70
     1
102
RTVSPropertyOp7
 70
     1
102
RTVSPropertyOp8
 70
     1
102
RTVSPropertyOp9
 70
     1
102
RTVSPropertyOp10
 70
     1
102
RTVSPropertyOp11
 70
     1
102
RTVSPropertyOp12
 70
     1
102
RTVSPropertyOp13
 70
     1
102
RTVSPropertyOp14
 70
     1
102
RTVSPropertyOp15
 70
     1
102
RTVSPropertyOp16
 70
     1
102
RTVSPropertyOp17
 70
     1
102
RTVSPropertyOp18
 70
     1
102
RTVSPropertyOp19
 70
     1
102
RTVSPropertyOp20
 70
     1
102
RTVSPropertyOp21
 70
     1
102
RTVSPropertyOp22
 70
     1
102
RTVSPropertyOp23
 70
     1
102
RTVSPropertyOp24
 70
     1
102
RTVSPropertyOp25
 70
     1
102
RTVSPropertyOp26
 70
     1
102
RTVSPropertyOp27
 70
     1
102
RTVSPropertyOp28
 70
     1
102
RTVSPropertyOp29
 70
     1
102
RTVSPropertyOp30
 70
     1
102
RTVSPropertyOp31
 70
     1
102
RTVSPropertyOp32
 70
     1
102
RTVSPropertyOp33
 70
     1
102
RTVSPropertyOp34
 70
     1
102
RTVSPropertyOp35
 70
     1
102
RTVSPropertyOp36
 70
     1
102
RTVSPropertyOp37
 70
     1
102
RTVSPropertyOp38
 70
     1
102
RTVSPropertyOp39
 70
     1
102
RTVSPropertyOp40
 70
     1
102
RTVSPropertyOp41
 70
     1
102
RTVSPropertyOp42
 70
     1
102
RTVSPropertyOp43
 70
     1
102
RTVSPropertyOp44
 70
     1
102
RTVSPropertyOp45
 70
     1
102
RTVSPropertyOp46
 70
     1
102
RTVSPropertyOp47
 70
     1
102
RTVSPropertyOp48
 70
     1
102
RTVSPropertyOp49
 70
     1
102
RTVSPropertyOp50
 70
     1
102
RTVSPropertyOp51
 70
     0
102
RTVSPropertyOp52
 70
     0
102
RTVSPropertyOp53
 70
     1
102
RTVSPropertyOp54
 70
     1
102
RTVSPropertyOp55
 70
     1
102
RTVSPropertyOp56
 70
     1
102
RTVSPropertyOp57
 70
     1
102
RTVSPost2010Prop28
280
     0
102
RTVSPost2010PropOp28
 70
     1
102
RTVSPost2010Prop29
280
     1
102
RTVSPost2010PropOp29
 70
     1
102
RTVSPost2010Prop30
280
     1
102
RTVSPost2010PropOp30
 70
     1
102
RTVSPost2010Prop31
280
     0
102
RTVSPost2010PropOp31
 70
     1
102
RTVSPost2010Prop32
280
     0
102
RTVSPost2010PropOp32
 70
     1
102
RTVSPost2010Prop33
280
     0
102
RTVSPost2010PropOp33
 70
     1
102
RTVSPost2010Prop34
280
     0
102
RTVSPost2010PropOp34
 70
     1
102
RTVSPost2010Prop35
280
     0
102
RTVSPost2010PropOp35
 70
     1
102
RTVSPost2010Prop36
280
     0
102
RTVSPost2010PropOp36
 70
     1
102
RTVSPost2010Prop37
 90
       50
102
RTVSPost2010PropOp37
 70
     1
102
RTVSPost2010Prop38
140
0.0
102
RTVSPost2010PropOp38
 70
     1
102
RTVSPost2010Prop39
140
1.0
102
RTVSPost2010PropOp39
 70
     1
102
RTVSPost2010Prop40
 90
        0
102
RTVSPost2010PropOp40
 70
     1
102
RTVSPost2010Prop41ColorIndex
 90
       18
102
RTVSPost2010Prop41ColorRGB
 90
        0
102
RTVSPost2010PropOp41
 70
     1
102
RTVSPost2010Prop42
 90
       50
102
RTVSPost2010PropOp42
 70
     1
102
RTVSPost2010Prop43
 90
        3
102
RTVSPost2010PropOp43
 70
     1
102
RTVSPost2010Prop44ColorIndex
 90
        5
102
RTVSPost2010Prop44ColorRGB
 90
      255
102
RTVSPost2010PropOp44
 70
     1
102
RTVSPost2010Prop45
280
     0
102
RTVSPost2010PropOp45
 70
     1
102
RTVSPost2010Prop46
 90
       50
102
RTVSPost2010PropOp46
 70
     1
102
RTVSPost2010Prop47
 90
       50
102
RTVSPost2010PropOp47
 70
     1
102
RTVSPost2010Prop48
 90
       50
102
RTVSPost2010PropOp48
 70
     1
102
RTVSPost2010Prop49
280
     0
102
RTVSPost2010PropOp49
 70
     1
102
RTVSPost2010Prop50
 90
       50
102
RTVSPost2010PropOp50
 70
     1
102
RTVSPost2010Prop51ColorIndex
 90
      256
102
RTVSPost2010Prop51ColorRGB
 90
-16777216
102
RTVSPost2010PropOp51
 70
     0
102
RTVSPost2010Prop52
140
1.0
102
RTVSPost2010PropOp52
 70
     0
102
RTVSPost2010Prop53
 90
        2
102
RTVSPost2010PropOp53
 70
     1
102
RTVSPost2010Prop54
  1
strokes_ogs.tif
102
RTVSPost2010PropOp54
 70
     1
102
RTVSPost2010Prop55
280
     0
102
RTVSPost2010PropOp55
 70
     1
102
RTVSPost2010Prop56
140
1.0
102
RTVSPost2010PropOp56
 70
     1
102
RTVSPost2010Prop57
140
1.0
102
RTVSPost2010PropOp57
 70
     1
  0
XRECORD
  5
372
102
{ACAD_REACTORS
330
371
102
}
330
371
100
AcDbXrecord
280
     1
102
RTVSPropertyOp0
 70
     0
102
RTVSPropertyOp1
 70
     0
102
RTVSPropertyOp2
 70
     0
102
RTVSPropertyOp3
 70
     0
102
RTVSPropertyOp4
 70
     0
102
RTVSPropertyOp5
 70
     0
102
RTVSPropertyOp6
 70
     0
102
RTVSPropertyOp7
 70
     0
102
RTVSPropertyOp8
 70
     0
102
RTVSPropertyOp9
 70
     0
102
RTVSPropertyOp10
 70
     0
102
RTVSPropertyOp11
 70
     0
102
RTVSPropertyOp12
 70
     0
102
RTVSPropertyOp13
 70
     0
102
RTVSPropertyOp14
 70
     2
102
RTVSPropertyOp15
 70
     0
102
RTVSPropertyOp16
 70
     0
102
RTVSPropertyOp17
 70
     0
102
RTVSPropertyOp18
 70
     0
102
RTVSPropertyOp19
 70
     0
102
RTVSPropertyOp20
 70
     0
102
RTVSPropertyOp21
 70
     0
102
RTVSPropertyOp22
 70
     0
102
RTVSPropertyOp23
 70
     0
102
RTVSPropertyOp24
 70
     0
102
RTVSPropertyOp25
 70
     0
102
RTVSPropertyOp26
 70
     0
102
RTVSPropertyOp27
 70
     0
102
RTVSPropertyOp28
 70
     0
102
RTVSPropertyOp29
 70
     0
102
RTVSPropertyOp30
 70
     0
102
RTVSPropertyOp31
 70
     0
102
RTVSPropertyOp32
 70
     0
102
RTVSPropertyOp33
 70
     0
102
RTVSPropertyOp34
 70
     0
102
RTVSPropertyOp35
 70
     0
102
RTVSPropertyOp36
 70
     0
102
RTVSPropertyOp37
 70
     0
102
RTVSPropertyOp38
 70
     0
102
RTVSPropertyOp39
 70
     0
102
RTVSPropertyOp40
 70
     0
102
RTVSPropertyOp41
 70
     0
102
RTVSPropertyOp42
 70
     0
102
RTVSPropertyOp43
 70
     0
102
RTVSPropertyOp44
 70
     0
102
RTVSPropertyOp45
 70
     0
102
RTVSPropertyOp46
 70
     0
102
RTVSPropertyOp47
 70
     0
102
RTVSPropertyOp48
 70
     0
102
RTVSPropertyOp49
 70
     0
102
RTVSPropertyOp50
 70
     0
102
RTVSPropertyOp51
 70
     0
102
RTVSPropertyOp52
 70
     0
102
RTVSPropertyOp53
 70
     0
102
RTVSPropertyOp54
 70
     0
102
RTVSPropertyOp55
 70
     0
102
RTVSPropertyOp56
 70
     0
102
RTVSPropertyOp57
 70
     0
102
RTVSPost2010Prop28
280
     0
102
RTVSPost2010PropOp28
 70
     0
102
RTVSPost2010Prop29
280
     1
102
RTVSPost2010PropOp29
 70
     0
102
RTVSPost2010Prop30
280
     1
102
RTVSPost2010PropOp30
 70
     0
102
RTVSPost2010Prop31
280
     0
102
RTVSPost2010PropOp31
 70
     0
102
RTVSPost2010Prop32
280
     0
102
RTVSPost2010PropOp32
 70
     0
102
RTVSPost2010Prop33
280
     0
102
RTVSPost2010PropOp33
 70
     0
102
RTVSPost2010Prop34
280
     0
102
RTVSPost2010PropOp34
 70
     0
102
RTVSPost2010Prop35
280
     0
102
RTVSPost2010PropOp35
 70
     0
102
RTVSPost2010Prop36
280
     0
102
RTVSPost2010PropOp36
 70
     0
102
RTVSPost2010Prop37
 90
       50
102
RTVSPost2010PropOp37
 70
     0
102
RTVSPost2010Prop38
140
0.0
102
RTVSPost2010PropOp38
 70
     0
102
RTVSPost2010Prop39
140
1.0
102
RTVSPost2010PropOp39
 70
     0
102
RTVSPost2010Prop40
 90
        0
102
RTVSPost2010PropOp40
 70
     0
102
RTVSPost2010Prop41ColorIndex
 90
       18
102
RTVSPost2010Prop41ColorRGB
 90
        0
102
RTVSPost2010PropOp41
 70
     0
102
RTVSPost2010Prop42
 90
       50
102
RTVSPost2010PropOp42
 70
     0
102
RTVSPost2010Prop43
 90
        3
102
RTVSPost2010PropOp43
 70
     0
102
RTVSPost2010Prop44ColorIndex
 90
        5
102
RTVSPost2010Prop44ColorRGB
 90
      255
102
RTVSPost2010PropOp44
 70
     0
102
RTVSPost2010Prop45
280
     0
102
RTVSPost2010PropOp45
 70
     0
102
RTVSPost2010Prop46
 90
       50
102
RTVSPost2010PropOp46
 70
     0
102
RTVSPost2010Prop47
 90
       50
102
RTVSPost2010PropOp47
 70
     0
102
RTVSPost2010Prop48
 90
       50
102
RTVSPost2010PropOp48
 70
     0
102
RTVSPost2010Prop49
280
     0
102
RTVSPost2010PropOp49
 70
     0
102
RTVSPost2010Prop50
 90
       50
102
RTVSPost2010PropOp50
 70
     0
102
RTVSPost2010Prop51ColorIndex
 90
      256
102
RTVSPost2010Prop51ColorRGB
 90
-16777216
102
RTVSPost2010PropOp51
 70
     0
102
RTVSPost2010Prop52
140
1.0
102
RTVSPost2010PropOp52
 70
     0
102
RTVSPost2010Prop53
 90
        2
102
RTVSPost2010PropOp53
 70
     0
102
RTVSPost2010Prop54
  1
strokes_ogs.tif
102
RTVSPost2010PropOp54
 70
     0
102
RTVSPost2010Prop55
280
     0
102
RTVSPost2010PropOp55
 70
     0
102
RTVSPost2010Prop56
140
1.0
102
RTVSPost2010PropOp56
 70
     0
102
RTVSPost2010Prop57
140
1.0
102
RTVSPost2010PropOp57
 70
     0
  0
XRECORD
  5
36A
102
{ACAD_REACTORS
330
369
102
}
330
369
100
AcDbXrecord
280
     1
102
RTVSPropertyOp0
 70
     1
102
RTVSPropertyOp1
 70
     1
102
RTVSPropertyOp2
 70
     1
102
RTVSPropertyOp3
 70
     1
102
RTVSPropertyOp4
 70
     1
102
RTVSPropertyOp5
 70
     1
102
RTVSPropertyOp6
 70
     1
102
RTVSPropertyOp7
 70
     1
102
RTVSPropertyOp8
 70
     1
102
RTVSPropertyOp9
 70
     1
102
RTVSPropertyOp10
 70
     1
102
RTVSPropertyOp11
 70
     1
102
RTVSPropertyOp12
 70
     1
102
RTVSPropertyOp13
 70
     1
102
RTVSPropertyOp14
 70
     1
102
RTVSPropertyOp15
 70
     1
102
RTVSPropertyOp16
 70
     1
102
RTVSPropertyOp17
 70
     1
102
RTVSPropertyOp18
 70
     1
102
RTVSPropertyOp19
 70
     1
102
RTVSPropertyOp20
 70
     1
102
RTVSPropertyOp21
 70
     1
102
RTVSPropertyOp22
 70
     1
102
RTVSPropertyOp23
 70
     1
102
RTVSPropertyOp24
 70
     1
102
RTVSPropertyOp25
 70
     1
102
RTVSPropertyOp26
 70
     1
102
RTVSPropertyOp27
 70
     1
102
RTVSPropertyOp28
 70
     1
102
RTVSPropertyOp29
 70
     1
102
RTVSPropertyOp30
 70
     1
102
RTVSPropertyOp31
 70
     1
102
RTVSPropertyOp32
 70
     1
102
RTVSPropertyOp33
 70
     1
102
RTVSPropertyOp34
 70
     1
102
RTVSPropertyOp35
 70
     1
102
RTVSPropertyOp36
 70
     1
102
RTVSPropertyOp37
 70
     1
102
RTVSPropertyOp38
 70
     1
102
RTVSPropertyOp39
 70
     1
102
RTVSPropertyOp40
 70
     1
102
RTVSPropertyOp41
 70
     1
102
RTVSPropertyOp42
 70
     1
102
RTVSPropertyOp43
 70
     1
102
RTVSPropertyOp44
 70
     1
102
RTVSPropertyOp45
 70
     1
102
RTVSPropertyOp46
 70
     1
102
RTVSPropertyOp47
 70
     1
102
RTVSPropertyOp48
 70
     1
102
RTVSPropertyOp49
 70
     1
102
RTVSPropertyOp50
 70
     1
102
RTVSPropertyOp51
 70
     0
102
RTVSPropertyOp52
 70
     0
102
RTVSPropertyOp53
 70
     1
102
RTVSPropertyOp54
 70
     1
102
RTVSPropertyOp55
 70
     1
102
RTVSPropertyOp56
 70
     1
102
RTVSPropertyOp57
 70
     1
102
RTVSPost2010Prop28
280
     0
102
RTVSPost2010PropOp28
 70
     1
102
RTVSPost2010Prop29
280
     1
102
RTVSPost2010PropOp29
 70
     1
102
RTVSPost2010Prop30
280
     1
102
RTVSPost2010PropOp30
 70
     1
102
RTVSPost2010Prop31
280
     0
102
RTVSPost2010PropOp31
 70
     1
102
RTVSPost2010Prop32
280
     0
102
RTVSPost2010PropOp32
 70
     1
102
RTVSPost2010Prop33
280
     0
102
RTVSPost2010PropOp33
 70
     1
102
RTVSPost2010Prop34
280
     0
102
RTVSPost2010PropOp34
 70
     1
102
RTVSPost2010Prop35
280
     0
102
RTVSPost2010PropOp35
 70
     1
102
RTVSPost2010Prop36
280
     0
102
RTVSPost2010PropOp36
 70
     1
102
RTVSPost2010Prop37
 90
       50
102
RTVSPost2010PropOp37
 70
     1
102
RTVSPost2010Prop38
140
0.0
102
RTVSPost2010PropOp38
 70
     1
102
RTVSPost2010Prop39
140
1.0
102
RTVSPost2010PropOp39
 70
     1
102
RTVSPost2010Prop40
 90
        0
102
RTVSPost2010PropOp40
 70
     1
102
RTVSPost2010Prop41ColorIndex
 90
       18
102
RTVSPost2010Prop41ColorRGB
 90
        0
102
RTVSPost2010PropOp41
 70
     1
102
RTVSPost2010Prop42
 90
       50
102
RTVSPost2010PropOp42
 70
     1
102
RTVSPost2010Prop43
 90
        3
102
RTVSPost2010PropOp43
 70
     1
102
RTVSPost2010Prop44ColorIndex
 90
        5
102
RTVSPost2010Prop44ColorRGB
 90
      255
102
RTVSPost2010PropOp44
 70
     1
102
RTVSPost2010Prop45
280
     0
102
RTVSPost2010PropOp45
 70
     1
102
RTVSPost2010Prop46
 90
       50
102
RTVSPost2010PropOp46
 70
     1
102
RTVSPost2010Prop47
 90
       50
102
RTVSPost2010PropOp47
 70
     1
102
RTVSPost2010Prop48
 90
       50
102
RTVSPost2010PropOp48
 70
     1
102
RTVSPost2010Prop49
280
     0
102
RTVSPost2010PropOp49
 70
     1
102
RTVSPost2010Prop50
 90
       50
102
RTVSPost2010PropOp50
 70
     1
102
RTVSPost2010Prop51ColorIndex
 90
      256
102
RTVSPost2010Prop51ColorRGB
 90
-16777216
102
RTVSPost2010PropOp51
 70
     0
102
RTVSPost2010Prop52
140
1.0
102
RTVSPost2010PropOp52
 70
     0
102
RTVSPost2010Prop53
 90
        2
102
RTVSPost2010PropOp53
 70
     1
102
RTVSPost2010Prop54
  1
strokes_ogs.tif
102
RTVSPost2010PropOp54
 70
     1
102
RTVSPost2010Prop55
280
     0
102
RTVSPost2010PropOp55
 70
     1
102
RTVSPost2010Prop56
140
1.0
102
RTVSPost2010PropOp56
 70
     1
102
RTVSPost2010Prop57
140
1.0
102
RTVSPost2010PropOp57
 70
     1
  0
XRECORD
  5
34E
102
{ACAD_REACTORS
330
34D
102
}
330
34D
100
AcDbXrecord
280
     1
102
RTVSPropertyOp0
 70
     1
102
RTVSPropertyOp1
 70
     1
102
RTVSPropertyOp2
 70
     1
102
RTVSPropertyOp3
 70
     1
102
RTVSPropertyOp4
 70
     1
102
RTVSPropertyOp5
 70
     1
102
RTVSPropertyOp6
 70
     1
102
RTVSPropertyOp7
 70
     1
102
RTVSPropertyOp8
 70
     1
102
RTVSPropertyOp9
 70
     1
102
RTVSPropertyOp10
 70
     1
102
RTVSPropertyOp11
 70
     1
102
RTVSPropertyOp12
 70
     1
102
RTVSPropertyOp13
 70
     1
102
RTVSPropertyOp14
 70
     1
102
RTVSPropertyOp15
 70
     1
102
RTVSPropertyOp16
 70
     1
102
RTVSPropertyOp17
 70
     1
102
RTVSPropertyOp18
 70
     1
102
RTVSPropertyOp19
 70
     1
102
RTVSPropertyOp20
 70
     1
102
RTVSPropertyOp21
 70
     1
102
RTVSPropertyOp22
 70
     1
102
RTVSPropertyOp23
 70
     1
102
RTVSPropertyOp24
 70
     1
102
RTVSPropertyOp25
 70
     1
102
RTVSPropertyOp26
 70
     1
102
RTVSPropertyOp27
 70
     1
102
RTVSPropertyOp28
 70
     1
102
RTVSPropertyOp29
 70
     1
102
RTVSPropertyOp30
 70
     1
102
RTVSPropertyOp31
 70
     1
102
RTVSPropertyOp32
 70
     1
102
RTVSPropertyOp33
 70
     1
102
RTVSPropertyOp34
 70
     1
102
RTVSPropertyOp35
 70
     1
102
RTVSPropertyOp36
 70
     1
102
RTVSPropertyOp37
 70
     1
102
RTVSPropertyOp38
 70
     1
102
RTVSPropertyOp39
 70
     1
102
RTVSPropertyOp40
 70
     1
102
RTVSPropertyOp41
 70
     1
102
RTVSPropertyOp42
 70
     1
102
RTVSPropertyOp43
 70
     1
102
RTVSPropertyOp44
 70
     1
102
RTVSPropertyOp45
 70
     1
102
RTVSPropertyOp46
 70
     1
102
RTVSPropertyOp47
 70
     1
102
RTVSPropertyOp48
 70
     1
102
RTVSPropertyOp49
 70
     1
102
RTVSPropertyOp50
 70
     1
102
RTVSPropertyOp51
 70
     0
102
RTVSPropertyOp52
 70
     0
102
RTVSPropertyOp53
 70
     1
102
RTVSPropertyOp54
 70
     1
102
RTVSPropertyOp55
 70
     1
102
RTVSPropertyOp56
 70
     1
102
RTVSPropertyOp57
 70
     1
102
RTVSPost2010Prop28
280
     0
102
RTVSPost2010PropOp28
 70
     1
102
RTVSPost2010Prop29
280
     1
102
RTVSPost2010PropOp29
 70
     1
102
RTVSPost2010Prop30
280
     1
102
RTVSPost2010PropOp30
 70
     1
102
RTVSPost2010Prop31
280
     0
102
RTVSPost2010PropOp31
 70
     1
102
RTVSPost2010Prop32
280
     0
102
RTVSPost2010PropOp32
 70
     1
102
RTVSPost2010Prop33
280
     0
102
RTVSPost2010PropOp33
 70
     1
102
RTVSPost2010Prop34
280
     0
102
RTVSPost2010PropOp34
 70
     1
102
RTVSPost2010Prop35
280
     0
102
RTVSPost2010PropOp35
 70
     1
102
RTVSPost2010Prop36
280
     0
102
RTVSPost2010PropOp36
 70
     1
102
RTVSPost2010Prop37
 90
       50
102
RTVSPost2010PropOp37
 70
     1
102
RTVSPost2010Prop38
140
0.0
102
RTVSPost2010PropOp38
 70
     1
102
RTVSPost2010Prop39
140
1.0
102
RTVSPost2010PropOp39
 70
     1
102
RTVSPost2010Prop40
 90
        0
102
RTVSPost2010PropOp40
 70
     1
102
RTVSPost2010Prop41ColorIndex
 90
       18
102
RTVSPost2010Prop41ColorRGB
 90
        0
102
RTVSPost2010PropOp41
 70
     1
102
RTVSPost2010Prop42
 90
       50
102
RTVSPost2010PropOp42
 70
     1
102
RTVSPost2010Prop43
 90
        3
102
RTVSPost2010PropOp43
 70
     1
102
RTVSPost2010Prop44ColorIndex
 90
        5
102
RTVSPost2010Prop44ColorRGB
 90
      255
102
RTVSPost2010PropOp44
 70
     1
102
RTVSPost2010Prop45
280
     0
102
RTVSPost2010PropOp45
 70
     1
102
RTVSPost2010Prop46
 90
       50
102
RTVSPost2010PropOp46
 70
     1
102
RTVSPost2010Prop47
 90
       50
102
RTVSPost2010PropOp47
 70
     1
102
RTVSPost2010Prop48
 90
       50
102
RTVSPost2010PropOp48
 70
     1
102
RTVSPost2010Prop49
280
     0
102
RTVSPost2010PropOp49
 70
     1
102
RTVSPost2010Prop50
 90
       50
102
RTVSPost2010PropOp50
 70
     1
102
RTVSPost2010Prop51ColorIndex
 90
      256
102
RTVSPost2010Prop51ColorRGB
 90
-16777216
102
RTVSPost2010PropOp51
 70
     0
102
RTVSPost2010Prop52
140
1.0
102
RTVSPost2010PropOp52
 70
     0
102
RTVSPost2010Prop53
 90
        2
102
RTVSPost2010PropOp53
 70
     1
102
RTVSPost2010Prop54
  1
strokes_ogs.tif
102
RTVSPost2010PropOp54
 70
     1
102
RTVSPost2010Prop55
280
     0
102
RTVSPost2010PropOp55
 70
     1
102
RTVSPost2010Prop56
140
1.0
102
RTVSPost2010PropOp56
 70
     1
102
RTVSPost2010Prop57
140
1.0
102
RTVSPost2010PropOp57
 70
     1
  0
XRECORD
  5
350
102
{ACAD_REACTORS
330
34F
102
}
330
34F
100
AcDbXrecord
280
     1
102
RTVSPropertyOp0
 70
     1
102
RTVSPropertyOp1
 70
     1
102
RTVSPropertyOp2
 70
     1
102
RTVSPropertyOp3
 70
     1
102
RTVSPropertyOp4
 70
     1
102
RTVSPropertyOp5
 70
     1
102
RTVSPropertyOp6
 70
     1
102
RTVSPropertyOp7
 70
     1
102
RTVSPropertyOp8
 70
     1
102
RTVSPropertyOp9
 70
     1
102
RTVSPropertyOp10
 70
     1
102
RTVSPropertyOp11
 70
     1
102
RTVSPropertyOp12
 70
     1
102
RTVSPropertyOp13
 70
     1
102
RTVSPropertyOp14
 70
     1
102
RTVSPropertyOp15
 70
     1
102
RTVSPropertyOp16
 70
     1
102
RTVSPropertyOp17
 70
     1
102
RTVSPropertyOp18
 70
     1
102
RTVSPropertyOp19
 70
     1
102
RTVSPropertyOp20
 70
     1
102
RTVSPropertyOp21
 70
     1
102
RTVSPropertyOp22
 70
     1
102
RTVSPropertyOp23
 70
     1
102
RTVSPropertyOp24
 70
     1
102
RTVSPropertyOp25
 70
     1
102
RTVSPropertyOp26
 70
     1
102
RTVSPropertyOp27
 70
     1
102
RTVSPropertyOp28
 70
     1
102
RTVSPropertyOp29
 70
     1
102
RTVSPropertyOp30
 70
     1
102
RTVSPropertyOp31
 70
     1
102
RTVSPropertyOp32
 70
     1
102
RTVSPropertyOp33
 70
     1
102
RTVSPropertyOp34
 70
     1
102
RTVSPropertyOp35
 70
     1
102
RTVSPropertyOp36
 70
     1
102
RTVSPropertyOp37
 70
     1
102
RTVSPropertyOp38
 70
     1
102
RTVSPropertyOp39
 70
     1
102
RTVSPropertyOp40
 70
     1
102
RTVSPropertyOp41
 70
     1
102
RTVSPropertyOp42
 70
     1
102
RTVSPropertyOp43
 70
     1
102
RTVSPropertyOp44
 70
     1
102
RTVSPropertyOp45
 70
     1
102
RTVSPropertyOp46
 70
     1
102
RTVSPropertyOp47
 70
     1
102
RTVSPropertyOp48
 70
     1
102
RTVSPropertyOp49
 70
     1
102
RTVSPropertyOp50
 70
     1
102
RTVSPropertyOp51
 70
     0
102
RTVSPropertyOp52
 70
     0
102
RTVSPropertyOp53
 70
     1
102
RTVSPropertyOp54
 70
     1
102
RTVSPropertyOp55
 70
     1
102
RTVSPropertyOp56
 70
     1
102
RTVSPropertyOp57
 70
     1
102
RTVSPost2010Prop28
280
     0
102
RTVSPost2010PropOp28
 70
     1
102
RTVSPost2010Prop29
280
     1
102
RTVSPost2010PropOp29
 70
     1
102
RTVSPost2010Prop30
280
     1
102
RTVSPost2010PropOp30
 70
     1
102
RTVSPost2010Prop31
280
     0
102
RTVSPost2010PropOp31
 70
     1
102
RTVSPost2010Prop32
280
     0
102
RTVSPost2010PropOp32
 70
     1
102
RTVSPost2010Prop33
280
     0
102
RTVSPost2010PropOp33
 70
     1
102
RTVSPost2010Prop34
280
     0
102
RTVSPost2010PropOp34
 70
     1
102
RTVSPost2010Prop35
280
     0
102
RTVSPost2010PropOp35
 70
     1
102
RTVSPost2010Prop36
280
     0
102
RTVSPost2010PropOp36
 70
     1
102
RTVSPost2010Prop37
 90
       50
102
RTVSPost2010PropOp37
 70
     1
102
RTVSPost2010Prop38
140
0.0
102
RTVSPost2010PropOp38
 70
     1
102
RTVSPost2010Prop39
140
1.0
102
RTVSPost2010PropOp39
 70
     1
102
RTVSPost2010Prop40
 90
        0
102
RTVSPost2010PropOp40
 70
     1
102
RTVSPost2010Prop41ColorIndex
 90
       18
102
RTVSPost2010Prop41ColorRGB
 90
        0
102
RTVSPost2010PropOp41
 70
     1
102
RTVSPost2010Prop42
 90
       50
102
RTVSPost2010PropOp42
 70
     1
102
RTVSPost2010Prop43
 90
        3
102
RTVSPost2010PropOp43
 70
     1
102
RTVSPost2010Prop44ColorIndex
 90
        5
102
RTVSPost2010Prop44ColorRGB
 90
      255
102
RTVSPost2010PropOp44
 70
     1
102
RTVSPost2010Prop45
280
     0
102
RTVSPost2010PropOp45
 70
     1
102
RTVSPost2010Prop46
 90
       50
102
RTVSPost2010PropOp46
 70
     1
102
RTVSPost2010Prop47
 90
       50
102
RTVSPost2010PropOp47
 70
     1
102
RTVSPost2010Prop48
 90
       50
102
RTVSPost2010PropOp48
 70
     1
102
RTVSPost2010Prop49
280
     0
102
RTVSPost2010PropOp49
 70
     1
102
RTVSPost2010Prop50
 90
       50
102
RTVSPost2010PropOp50
 70
     1
102
RTVSPost2010Prop51ColorIndex
 90
      256
102
RTVSPost2010Prop51ColorRGB
 90
-16777216
102
RTVSPost2010PropOp51
 70
     0
102
RTVSPost2010Prop52
140
1.0
102
RTVSPost2010PropOp52
 70
     0
102
RTVSPost2010Prop53
 90
        2
102
RTVSPost2010PropOp53
 70
     1
102
RTVSPost2010Prop54
  1
strokes_ogs.tif
102
RTVSPost2010PropOp54
 70
     1
102
RTVSPost2010Prop55
280
     0
102
RTVSPost2010PropOp55
 70
     1
102
RTVSPost2010Prop56
140
1.0
102
RTVSPost2010PropOp56
 70
     1
102
RTVSPost2010Prop57
140
1.0
102
RTVSPost2010PropOp57
 70
     1
  0
XRECORD
  5
352
102
{ACAD_REACTORS
330
351
102
}
330
351
100
AcDbXrecord
280
     1
102
RTVSPropertyOp0
 70
     1
102
RTVSPropertyOp1
 70
     1
102
RTVSPropertyOp2
 70
     1
102
RTVSPropertyOp3
 70
     1
102
RTVSPropertyOp4
 70
     1
102
RTVSPropertyOp5
 70
     1
102
RTVSPropertyOp6
 70
     1
102
RTVSPropertyOp7
 70
     1
102
RTVSPropertyOp8
 70
     1
102
RTVSPropertyOp9
 70
     1
102
RTVSPropertyOp10
 70
     1
102
RTVSPropertyOp11
 70
     1
102
RTVSPropertyOp12
 70
     1
102
RTVSPropertyOp13
 70
     1
102
RTVSPropertyOp14
 70
     1
102
RTVSPropertyOp15
 70
     1
102
RTVSPropertyOp16
 70
     1
102
RTVSPropertyOp17
 70
     1
102
RTVSPropertyOp18
 70
     1
102
RTVSPropertyOp19
 70
     1
102
RTVSPropertyOp20
 70
     1
102
RTVSPropertyOp21
 70
     1
102
RTVSPropertyOp22
 70
     1
102
RTVSPropertyOp23
 70
     1
102
RTVSPropertyOp24
 70
     1
102
RTVSPropertyOp25
 70
     1
102
RTVSPropertyOp26
 70
     1
102
RTVSPropertyOp27
 70
     1
102
RTVSPropertyOp28
 70
     1
102
RTVSPropertyOp29
 70
     1
102
RTVSPropertyOp30
 70
     1
102
RTVSPropertyOp31
 70
     1
102
RTVSPropertyOp32
 70
     1
102
RTVSPropertyOp33
 70
     1
102
RTVSPropertyOp34
 70
     1
102
RTVSPropertyOp35
 70
     1
102
RTVSPropertyOp36
 70
     1
102
RTVSPropertyOp37
 70
     1
102
RTVSPropertyOp38
 70
     1
102
RTVSPropertyOp39
 70
     1
102
RTVSPropertyOp40
 70
     1
102
RTVSPropertyOp41
 70
     1
102
RTVSPropertyOp42
 70
     1
102
RTVSPropertyOp43
 70
     1
102
RTVSPropertyOp44
 70
     1
102
RTVSPropertyOp45
 70
     1
102
RTVSPropertyOp46
 70
     1
102
RTVSPropertyOp47
 70
     1
102
RTVSPropertyOp48
 70
     1
102
RTVSPropertyOp49
 70
     1
102
RTVSPropertyOp50
 70
     1
102
RTVSPropertyOp51
 70
     0
102
RTVSPropertyOp52
 70
     0
102
RTVSPropertyOp53
 70
     1
102
RTVSPropertyOp54
 70
     1
102
RTVSPropertyOp55
 70
     1
102
RTVSPropertyOp56
 70
     1
102
RTVSPropertyOp57
 70
     1
102
RTVSPost2010Prop28
280
     0
102
RTVSPost2010PropOp28
 70
     1
102
RTVSPost2010Prop29
280
     1
102
RTVSPost2010PropOp29
 70
     1
102
RTVSPost2010Prop30
280
     1
102
RTVSPost2010PropOp30
 70
     1
102
RTVSPost2010Prop31
280
     0
102
RTVSPost2010PropOp31
 70
     1
102
RTVSPost2010Prop32
280
     0
102
RTVSPost2010PropOp32
 70
     1
102
RTVSPost2010Prop33
280
     0
102
RTVSPost2010PropOp33
 70
     1
102
RTVSPost2010Prop34
280
     0
102
RTVSPost2010PropOp34
 70
     1
102
RTVSPost2010Prop35
280
     0
102
RTVSPost2010PropOp35
 70
     1
102
RTVSPost2010Prop36
280
     0
102
RTVSPost2010PropOp36
 70
     1
102
RTVSPost2010Prop37
 90
       50
102
RTVSPost2010PropOp37
 70
     1
102
RTVSPost2010Prop38
140
0.0
102
RTVSPost2010PropOp38
 70
     1
102
RTVSPost2010Prop39
140
1.0
102
RTVSPost2010PropOp39
 70
     1
102
RTVSPost2010Prop40
 90
        0
102
RTVSPost2010PropOp40
 70
     1
102
RTVSPost2010Prop41ColorIndex
 90
       18
102
RTVSPost2010Prop41ColorRGB
 90
        0
102
RTVSPost2010PropOp41
 70
     1
102
RTVSPost2010Prop42
 90
       50
102
RTVSPost2010PropOp42
 70
     1
102
RTVSPost2010Prop43
 90
        3
102
RTVSPost2010PropOp43
 70
     1
102
RTVSPost2010Prop44ColorIndex
 90
        5
102
RTVSPost2010Prop44ColorRGB
 90
      255
102
RTVSPost2010PropOp44
 70
     1
102
RTVSPost2010Prop45
280
     0
102
RTVSPost2010PropOp45
 70
     1
102
RTVSPost2010Prop46
 90
       50
102
RTVSPost2010PropOp46
 70
     1
102
RTVSPost2010Prop47
 90
       50
102
RTVSPost2010PropOp47
 70
     1
102
RTVSPost2010Prop48
 90
       50
102
RTVSPost2010PropOp48
 70
     1
102
RTVSPost2010Prop49
280
     0
102
RTVSPost2010PropOp49
 70
     1
102
RTVSPost2010Prop50
 90
       50
102
RTVSPost2010PropOp50
 70
     1
102
RTVSPost2010Prop51ColorIndex
 90
      256
102
RTVSPost2010Prop51ColorRGB
 90
-16777216
102
RTVSPost2010PropOp51
 70
     0
102
RTVSPost2010Prop52
140
1.0
102
RTVSPost2010PropOp52
 70
     0
102
RTVSPost2010Prop53
 90
        2
102
RTVSPost2010PropOp53
 70
     1
102
RTVSPost2010Prop54
  1
strokes_ogs.tif
102
RTVSPost2010PropOp54
 70
     1
102
RTVSPost2010Prop55
280
     0
102
RTVSPost2010PropOp55
 70
     1
102
RTVSPost2010Prop56
140
1.0
102
RTVSPost2010PropOp56
 70
     1
102
RTVSPost2010Prop57
140
1.0
102
RTVSPost2010PropOp57
 70
     1
  0
XRECORD
  5
354
102
{ACAD_REACTORS
330
353
102
}
330
353
100
AcDbXrecord
280
     1
102
RTVSPropertyOp0
 70
     1
102
RTVSPropertyOp1
 70
     1
102
RTVSPropertyOp2
 70
     1
102
RTVSPropertyOp3
 70
     1
102
RTVSPropertyOp4
 70
     1
102
RTVSPropertyOp5
 70
     1
102
RTVSPropertyOp6
 70
     1
102
RTVSPropertyOp7
 70
     1
102
RTVSPropertyOp8
 70
     1
102
RTVSPropertyOp9
 70
     1
102
RTVSPropertyOp10
 70
     1
102
RTVSPropertyOp11
 70
     1
102
RTVSPropertyOp12
 70
     1
102
RTVSPropertyOp13
 70
     1
102
RTVSPropertyOp14
 70
     1
102
RTVSPropertyOp15
 70
     1
102
RTVSPropertyOp16
 70
     1
102
RTVSPropertyOp17
 70
     1
102
RTVSPropertyOp18
 70
     1
102
RTVSPropertyOp19
 70
     1
102
RTVSPropertyOp20
 70
     1
102
RTVSPropertyOp21
 70
     1
102
RTVSPropertyOp22
 70
     1
102
RTVSPropertyOp23
 70
     1
102
RTVSPropertyOp24
 70
     1
102
RTVSPropertyOp25
 70
     1
102
RTVSPropertyOp26
 70
     1
102
RTVSPropertyOp27
 70
     1
102
RTVSPropertyOp28
 70
     1
102
RTVSPropertyOp29
 70
     1
102
RTVSPropertyOp30
 70
     1
102
RTVSPropertyOp31
 70
     1
102
RTVSPropertyOp32
 70
     1
102
RTVSPropertyOp33
 70
     1
102
RTVSPropertyOp34
 70
     1
102
RTVSPropertyOp35
 70
     1
102
RTVSPropertyOp36
 70
     1
102
RTVSPropertyOp37
 70
     1
102
RTVSPropertyOp38
 70
     1
102
RTVSPropertyOp39
 70
     1
102
RTVSPropertyOp40
 70
     1
102
RTVSPropertyOp41
 70
     1
102
RTVSPropertyOp42
 70
     1
102
RTVSPropertyOp43
 70
     1
102
RTVSPropertyOp44
 70
     1
102
RTVSPropertyOp45
 70
     1
102
RTVSPropertyOp46
 70
     1
102
RTVSPropertyOp47
 70
     1
102
RTVSPropertyOp48
 70
     1
102
RTVSPropertyOp49
 70
     1
102
RTVSPropertyOp50
 70
     1
102
RTVSPropertyOp51
 70
     0
102
RTVSPropertyOp52
 70
     0
102
RTVSPropertyOp53
 70
     1
102
RTVSPropertyOp54
 70
     1
102
RTVSPropertyOp55
 70
     1
102
RTVSPropertyOp56
 70
     1
102
RTVSPropertyOp57
 70
     1
102
RTVSPost2010Prop28
280
     0
102
RTVSPost2010PropOp28
 70
     1
102
RTVSPost2010Prop29
280
     1
102
RTVSPost2010PropOp29
 70
     1
102
RTVSPost2010Prop30
280
     1
102
RTVSPost2010PropOp30
 70
     1
102
RTVSPost2010Prop31
280
     0
102
RTVSPost2010PropOp31
 70
     1
102
RTVSPost2010Prop32
280
     0
102
RTVSPost2010PropOp32
 70
     1
102
RTVSPost2010Prop33
280
     0
102
RTVSPost2010PropOp33
 70
     1
102
RTVSPost2010Prop34
280
     0
102
RTVSPost2010PropOp34
 70
     1
102
RTVSPost2010Prop35
280
     0
102
RTVSPost2010PropOp35
 70
     1
102
RTVSPost2010Prop36
280
     0
102
RTVSPost2010PropOp36
 70
     1
102
RTVSPost2010Prop37
 90
       50
102
RTVSPost2010PropOp37
 70
     1
102
RTVSPost2010Prop38
140
0.0
102
RTVSPost2010PropOp38
 70
     1
102
RTVSPost2010Prop39
140
1.0
102
RTVSPost2010PropOp39
 70
     1
102
RTVSPost2010Prop40
 90
        0
102
RTVSPost2010PropOp40
 70
     1
102
RTVSPost2010Prop41ColorIndex
 90
       18
102
RTVSPost2010Prop41ColorRGB
 90
        0
102
RTVSPost2010PropOp41
 70
     1
102
RTVSPost2010Prop42
 90
       50
102
RTVSPost2010PropOp42
 70
     1
102
RTVSPost2010Prop43
 90
        3
102
RTVSPost2010PropOp43
 70
     1
102
RTVSPost2010Prop44ColorIndex
 90
        5
102
RTVSPost2010Prop44ColorRGB
 90
      255
102
RTVSPost2010PropOp44
 70
     1
102
RTVSPost2010Prop45
280
     0
102
RTVSPost2010PropOp45
 70
     1
102
RTVSPost2010Prop46
 90
       50
102
RTVSPost2010PropOp46
 70
     1
102
RTVSPost2010Prop47
 90
       50
102
RTVSPost2010PropOp47
 70
     1
102
RTVSPost2010Prop48
 90
       50
102
RTVSPost2010PropOp48
 70
     1
102
RTVSPost2010Prop49
280
     0
102
RTVSPost2010PropOp49
 70
     1
102
RTVSPost2010Prop50
 90
       50
102
RTVSPost2010PropOp50
 70
     1
102
RTVSPost2010Prop51ColorIndex
 90
      256
102
RTVSPost2010Prop51ColorRGB
 90
-16777216
102
RTVSPost2010PropOp51
 70
     0
102
RTVSPost2010Prop52
140
1.0
102
RTVSPost2010PropOp52
 70
     0
102
RTVSPost2010Prop53
 90
        2
102
RTVSPost2010PropOp53
 70
     1
102
RTVSPost2010Prop54
  1
strokes_ogs.tif
102
RTVSPost2010PropOp54
 70
     1
102
RTVSPost2010Prop55
280
     0
102
RTVSPost2010PropOp55
 70
     1
102
RTVSPost2010Prop56
140
1.0
102
RTVSPost2010PropOp56
 70
     1
102
RTVSPost2010Prop57
140
1.0
102
RTVSPost2010PropOp57
 70
     1
  0
XRECORD
  5
35A
102
{ACAD_REACTORS
330
359
102
}
330
359
100
AcDbXrecord
280
     1
102
RTVSPropertyOp0
 70
     1
102
RTVSPropertyOp1
 70
     1
102
RTVSPropertyOp2
 70
     1
102
RTVSPropertyOp3
 70
     1
102
RTVSPropertyOp4
 70
     1
102
RTVSPropertyOp5
 70
     1
102
RTVSPropertyOp6
 70
     1
102
RTVSPropertyOp7
 70
     1
102
RTVSPropertyOp8
 70
     1
102
RTVSPropertyOp9
 70
     1
102
RTVSPropertyOp10
 70
     1
102
RTVSPropertyOp11
 70
     1
102
RTVSPropertyOp12
 70
     1
102
RTVSPropertyOp13
 70
     1
102
RTVSPropertyOp14
 70
     1
102
RTVSPropertyOp15
 70
     1
102
RTVSPropertyOp16
 70
     1
102
RTVSPropertyOp17
 70
     1
102
RTVSPropertyOp18
 70
     1
102
RTVSPropertyOp19
 70
     1
102
RTVSPropertyOp20
 70
     1
102
RTVSPropertyOp21
 70
     1
102
RTVSPropertyOp22
 70
     1
102
RTVSPropertyOp23
 70
     1
102
RTVSPropertyOp24
 70
     1
102
RTVSPropertyOp25
 70
     1
102
RTVSPropertyOp26
 70
     1
102
RTVSPropertyOp27
 70
     1
102
RTVSPropertyOp28
 70
     1
102
RTVSPropertyOp29
 70
     1
102
RTVSPropertyOp30
 70
     1
102
RTVSPropertyOp31
 70
     1
102
RTVSPropertyOp32
 70
     1
102
RTVSPropertyOp33
 70
     1
102
RTVSPropertyOp34
 70
     1
102
RTVSPropertyOp35
 70
     1
102
RTVSPropertyOp36
 70
     1
102
RTVSPropertyOp37
 70
     1
102
RTVSPropertyOp38
 70
     1
102
RTVSPropertyOp39
 70
     1
102
RTVSPropertyOp40
 70
     1
102
RTVSPropertyOp41
 70
     1
102
RTVSPropertyOp42
 70
     1
102
RTVSPropertyOp43
 70
     1
102
RTVSPropertyOp44
 70
     1
102
RTVSPropertyOp45
 70
     1
102
RTVSPropertyOp46
 70
     1
102
RTVSPropertyOp47
 70
     1
102
RTVSPropertyOp48
 70
     1
102
RTVSPropertyOp49
 70
     1
102
RTVSPropertyOp50
 70
     1
102
RTVSPropertyOp51
 70
     0
102
RTVSPropertyOp52
 70
     0
102
RTVSPropertyOp53
 70
     1
102
RTVSPropertyOp54
 70
     1
102
RTVSPropertyOp55
 70
     1
102
RTVSPropertyOp56
 70
     1
102
RTVSPropertyOp57
 70
     1
102
RTVSPost2010Prop28
280
     0
102
RTVSPost2010PropOp28
 70
     1
102
RTVSPost2010Prop29
280
     1
102
RTVSPost2010PropOp29
 70
     1
102
RTVSPost2010Prop30
280
     1
102
RTVSPost2010PropOp30
 70
     1
102
RTVSPost2010Prop31
280
     0
102
RTVSPost2010PropOp31
 70
     1
102
RTVSPost2010Prop32
280
     0
102
RTVSPost2010PropOp32
 70
     1
102
RTVSPost2010Prop33
280
     0
102
RTVSPost2010PropOp33
 70
     1
102
RTVSPost2010Prop34
280
     0
102
RTVSPost2010PropOp34
 70
     1
102
RTVSPost2010Prop35
280
     0
102
RTVSPost2010PropOp35
 70
     1
102
RTVSPost2010Prop36
280
     0
102
RTVSPost2010PropOp36
 70
     1
102
RTVSPost2010Prop37
 90
       50
102
RTVSPost2010PropOp37
 70
     1
102
RTVSPost2010Prop38
140
0.0
102
RTVSPost2010PropOp38
 70
     1
102
RTVSPost2010Prop39
140
1.0
102
RTVSPost2010PropOp39
 70
     1
102
RTVSPost2010Prop40
 90
        0
102
RTVSPost2010PropOp40
 70
     1
102
RTVSPost2010Prop41ColorIndex
 90
       18
102
RTVSPost2010Prop41ColorRGB
 90
        0
102
RTVSPost2010PropOp41
 70
     1
102
RTVSPost2010Prop42
 90
       50
102
RTVSPost2010PropOp42
 70
     1
102
RTVSPost2010Prop43
 90
        3
102
RTVSPost2010PropOp43
 70
     1
102
RTVSPost2010Prop44ColorIndex
 90
        5
102
RTVSPost2010Prop44ColorRGB
 90
      255
102
RTVSPost2010PropOp44
 70
     1
102
RTVSPost2010Prop45
280
     0
102
RTVSPost2010PropOp45
 70
     1
102
RTVSPost2010Prop46
 90
       50
102
RTVSPost2010PropOp46
 70
     1
102
RTVSPost2010Prop47
 90
       50
102
RTVSPost2010PropOp47
 70
     1
102
RTVSPost2010Prop48
 90
       50
102
RTVSPost2010PropOp48
 70
     1
102
RTVSPost2010Prop49
280
     0
102
RTVSPost2010PropOp49
 70
     1
102
RTVSPost2010Prop50
 90
       50
102
RTVSPost2010PropOp50
 70
     1
102
RTVSPost2010Prop51ColorIndex
 90
      256
102
RTVSPost2010Prop51ColorRGB
 90
-16777216
102
RTVSPost2010PropOp51
 70
     0
102
RTVSPost2010Prop52
140
1.0
102
RTVSPost2010PropOp52
 70
     0
102
RTVSPost2010Prop53
 90
        2
102
RTVSPost2010PropOp53
 70
     1
102
RTVSPost2010Prop54
  1
strokes_ogs.tif
102
RTVSPost2010PropOp54
 70
     1
102
RTVSPost2010Prop55
280
     0
102
RTVSPost2010PropOp55
 70
     1
102
RTVSPost2010Prop56
140
1.0
102
RTVSPost2010PropOp56
 70
     1
102
RTVSPost2010Prop57
140
1.0
102
RTVSPost2010PropOp57
 70
     1
  0
XRECORD
  5
36E
102
{ACAD_REACTORS
330
36D
102
}
330
36D
100
AcDbXrecord
280
     1
102
RTVSPropertyOp0
 70
     0
102
RTVSPropertyOp1
 70
     0
102
RTVSPropertyOp2
 70
     0
102
RTVSPropertyOp3
 70
     0
102
RTVSPropertyOp4
 70
     0
102
RTVSPropertyOp5
 70
     0
102
RTVSPropertyOp6
 70
     0
102
RTVSPropertyOp7
 70
     0
102
RTVSPropertyOp8
 70
     0
102
RTVSPropertyOp9
 70
     0
102
RTVSPropertyOp10
 70
     0
102
RTVSPropertyOp11
 70
     0
102
RTVSPropertyOp12
 70
     0
102
RTVSPropertyOp13
 70
     0
102
RTVSPropertyOp14
 70
     2
102
RTVSPropertyOp15
 70
     0
102
RTVSPropertyOp16
 70
     0
102
RTVSPropertyOp17
 70
     0
102
RTVSPropertyOp18
 70
     0
102
RTVSPropertyOp19
 70
     0
102
RTVSPropertyOp20
 70
     0
102
RTVSPropertyOp21
 70
     0
102
RTVSPropertyOp22
 70
     0
102
RTVSPropertyOp23
 70
     0
102
RTVSPropertyOp24
 70
     0
102
RTVSPropertyOp25
 70
     0
102
RTVSPropertyOp26
 70
     0
102
RTVSPropertyOp27
 70
     0
102
RTVSPropertyOp28
 70
     0
102
RTVSPropertyOp29
 70
     0
102
RTVSPropertyOp30
 70
     0
102
RTVSPropertyOp31
 70
     0
102
RTVSPropertyOp32
 70
     0
102
RTVSPropertyOp33
 70
     0
102
RTVSPropertyOp34
 70
     0
102
RTVSPropertyOp35
 70
     0
102
RTVSPropertyOp36
 70
     0
102
RTVSPropertyOp37
 70
     0
102
RTVSPropertyOp38
 70
     0
102
RTVSPropertyOp39
 70
     0
102
RTVSPropertyOp40
 70
     0
102
RTVSPropertyOp41
 70
     0
102
RTVSPropertyOp42
 70
     0
102
RTVSPropertyOp43
 70
     0
102
RTVSPropertyOp44
 70
     0
102
RTVSPropertyOp45
 70
     0
102
RTVSPropertyOp46
 70
     0
102
RTVSPropertyOp47
 70
     0
102
RTVSPropertyOp48
 70
     0
102
RTVSPropertyOp49
 70
     0
102
RTVSPropertyOp50
 70
     0
102
RTVSPropertyOp51
 70
     0
102
RTVSPropertyOp52
 70
     0
102
RTVSPropertyOp53
 70
     0
102
RTVSPropertyOp54
 70
     0
102
RTVSPropertyOp55
 70
     0
102
RTVSPropertyOp56
 70
     0
102
RTVSPropertyOp57
 70
     0
102
RTVSPost2010Prop28
280
     0
102
RTVSPost2010PropOp28
 70
     0
102
RTVSPost2010Prop29
280
     1
102
RTVSPost2010PropOp29
 70
     0
102
RTVSPost2010Prop30
280
     1
102
RTVSPost2010PropOp30
 70
     0
102
RTVSPost2010Prop31
280
     0
102
RTVSPost2010PropOp31
 70
     0
102
RTVSPost2010Prop32
280
     0
102
RTVSPost2010PropOp32
 70
     0
102
RTVSPost2010Prop33
280
     0
102
RTVSPost2010PropOp33
 70
     0
102
RTVSPost2010Prop34
280
     0
102
RTVSPost2010PropOp34
 70
     0
102
RTVSPost2010Prop35
280
     0
102
RTVSPost2010PropOp35
 70
     0
102
RTVSPost2010Prop36
280
     0
102
RTVSPost2010PropOp36
 70
     0
102
RTVSPost2010Prop37
 90
       50
102
RTVSPost2010PropOp37
 70
     0
102
RTVSPost2010Prop38
140
0.0
102
RTVSPost2010PropOp38
 70
     0
102
RTVSPost2010Prop39
140
1.0
102
RTVSPost2010PropOp39
 70
     0
102
RTVSPost2010Prop40
 90
        0
102
RTVSPost2010PropOp40
 70
     0
102
RTVSPost2010Prop41ColorIndex
 90
       18
102
RTVSPost2010Prop41ColorRGB
 90
        0
102
RTVSPost2010PropOp41
 70
     0
102
RTVSPost2010Prop42
 90
       50
102
RTVSPost2010PropOp42
 70
     0
102
RTVSPost2010Prop43
 90
        3
102
RTVSPost2010PropOp43
 70
     0
102
RTVSPost2010Prop44ColorIndex
 90
        5
102
RTVSPost2010Prop44ColorRGB
 90
      255
102
RTVSPost2010PropOp44
 70
     0
102
RTVSPost2010Prop45
280
     0
102
RTVSPost2010PropOp45
 70
     0
102
RTVSPost2010Prop46
 90
       50
102
RTVSPost2010PropOp46
 70
     0
102
RTVSPost2010Prop47
 90
       50
102
RTVSPost2010PropOp47
 70
     0
102
RTVSPost2010Prop48
 90
       50
102
RTVSPost2010PropOp48
 70
     0
102
RTVSPost2010Prop49
280
     0
102
RTVSPost2010PropOp49
 70
     0
102
RTVSPost2010Prop50
 90
       50
102
RTVSPost2010PropOp50
 70
     0
102
RTVSPost2010Prop51ColorIndex
 90
      256
102
RTVSPost2010Prop51ColorRGB
 90
-16777216
102
RTVSPost2010PropOp51
 70
     0
102
RTVSPost2010Prop52
140
1.0
102
RTVSPost2010PropOp52
 70
     0
102
RTVSPost2010Prop53
 90
        2
102
RTVSPost2010PropOp53
 70
     0
102
RTVSPost2010Prop54
  1
strokes_ogs.tif
102
RTVSPost2010PropOp54
 70
     0
102
RTVSPost2010Prop55
280
     0
102
RTVSPost2010PropOp55
 70
     0
102
RTVSPost2010Prop56
140
1.0
102
RTVSPost2010PropOp56
 70
     0
102
RTVSPost2010Prop57
140
1.0
102
RTVSPost2010PropOp57
 70
     0
  0
XRECORD
  5
368
102
{ACAD_REACTORS
330
367
102
}
330
367
100
AcDbXrecord
280
     1
102
RTVSPropertyOp0
 70
     1
102
RTVSPropertyOp1
 70
     1
102
RTVSPropertyOp2
 70
     1
102
RTVSPropertyOp3
 70
     1
102
RTVSPropertyOp4
 70
     1
102
RTVSPropertyOp5
 70
     1
102
RTVSPropertyOp6
 70
     1
102
RTVSPropertyOp7
 70
     1
102
RTVSPropertyOp8
 70
     1
102
RTVSPropertyOp9
 70
     1
102
RTVSPropertyOp10
 70
     1
102
RTVSPropertyOp11
 70
     1
102
RTVSPropertyOp12
 70
     1
102
RTVSPropertyOp13
 70
     1
102
RTVSPropertyOp14
 70
     1
102
RTVSPropertyOp15
 70
     1
102
RTVSPropertyOp16
 70
     1
102
RTVSPropertyOp17
 70
     1
102
RTVSPropertyOp18
 70
     1
102
RTVSPropertyOp19
 70
     1
102
RTVSPropertyOp20
 70
     1
102
RTVSPropertyOp21
 70
     1
102
RTVSPropertyOp22
 70
     1
102
RTVSPropertyOp23
 70
     1
102
RTVSPropertyOp24
 70
     1
102
RTVSPropertyOp25
 70
     1
102
RTVSPropertyOp26
 70
     1
102
RTVSPropertyOp27
 70
     1
102
RTVSPropertyOp28
 70
     1
102
RTVSPropertyOp29
 70
     1
102
RTVSPropertyOp30
 70
     1
102
RTVSPropertyOp31
 70
     1
102
RTVSPropertyOp32
 70
     1
102
RTVSPropertyOp33
 70
     1
102
RTVSPropertyOp34
 70
     1
102
RTVSPropertyOp35
 70
     1
102
RTVSPropertyOp36
 70
     1
102
RTVSPropertyOp37
 70
     1
102
RTVSPropertyOp38
 70
     1
102
RTVSPropertyOp39
 70
     1
102
RTVSPropertyOp40
 70
     1
102
RTVSPropertyOp41
 70
     1
102
RTVSPropertyOp42
 70
     1
102
RTVSPropertyOp43
 70
     1
102
RTVSPropertyOp44
 70
     1
102
RTVSPropertyOp45
 70
     1
102
RTVSPropertyOp46
 70
     1
102
RTVSPropertyOp47
 70
     1
102
RTVSPropertyOp48
 70
     1
102
RTVSPropertyOp49
 70
     1
102
RTVSPropertyOp50
 70
     1
102
RTVSPropertyOp51
 70
     0
102
RTVSPropertyOp52
 70
     0
102
RTVSPropertyOp53
 70
     1
102
RTVSPropertyOp54
 70
     1
102
RTVSPropertyOp55
 70
     1
102
RTVSPropertyOp56
 70
     1
102
RTVSPropertyOp57
 70
     1
102
RTVSPost2010Prop28
280
     0
102
RTVSPost2010PropOp28
 70
     1
102
RTVSPost2010Prop29
280
     1
102
RTVSPost2010PropOp29
 70
     1
102
RTVSPost2010Prop30
280
     1
102
RTVSPost2010PropOp30
 70
     1
102
RTVSPost2010Prop31
280
     0
102
RTVSPost2010PropOp31
 70
     1
102
RTVSPost2010Prop32
280
     0
102
RTVSPost2010PropOp32
 70
     1
102
RTVSPost2010Prop33
280
     0
102
RTVSPost2010PropOp33
 70
     1
102
RTVSPost2010Prop34
280
     0
102
RTVSPost2010PropOp34
 70
     1
102
RTVSPost2010Prop35
280
     0
102
RTVSPost2010PropOp35
 70
     1
102
RTVSPost2010Prop36
280
     0
102
RTVSPost2010PropOp36
 70
     1
102
RTVSPost2010Prop37
 90
       50
102
RTVSPost2010PropOp37
 70
     1
102
RTVSPost2010Prop38
140
0.0
102
RTVSPost2010PropOp38
 70
     1
102
RTVSPost2010Prop39
140
1.0
102
RTVSPost2010PropOp39
 70
     1
102
RTVSPost2010Prop40
 90
        0
102
RTVSPost2010PropOp40
 70
     1
102
RTVSPost2010Prop41ColorIndex
 90
       18
102
RTVSPost2010Prop41ColorRGB
 90
        0
102
RTVSPost2010PropOp41
 70
     1
102
RTVSPost2010Prop42
 90
       50
102
RTVSPost2010PropOp42
 70
     1
102
RTVSPost2010Prop43
 90
        3
102
RTVSPost2010PropOp43
 70
     1
102
RTVSPost2010Prop44ColorIndex
 90
        5
102
RTVSPost2010Prop44ColorRGB
 90
      255
102
RTVSPost2010PropOp44
 70
     1
102
RTVSPost2010Prop45
280
     0
102
RTVSPost2010PropOp45
 70
     1
102
RTVSPost2010Prop46
 90
       50
102
RTVSPost2010PropOp46
 70
     1
102
RTVSPost2010Prop47
 90
       50
102
RTVSPost2010PropOp47
 70
     1
102
RTVSPost2010Prop48
 90
       50
102
RTVSPost2010PropOp48
 70
     1
102
RTVSPost2010Prop49
280
     0
102
RTVSPost2010PropOp49
 70
     1
102
RTVSPost2010Prop50
 90
       50
102
RTVSPost2010PropOp50
 70
     1
102
RTVSPost2010Prop51ColorIndex
 90
      256
102
RTVSPost2010Prop51ColorRGB
 90
-16777216
102
RTVSPost2010PropOp51
 70
     0
102
RTVSPost2010Prop52
140
1.0
102
RTVSPost2010PropOp52
 70
     0
102
RTVSPost2010Prop53
 90
        2
102
RTVSPost2010PropOp53
 70
     1
102
RTVSPost2010Prop54
  1
strokes_ogs.tif
102
RTVSPost2010PropOp54
 70
     1
102
RTVSPost2010Prop55
280
     0
102
RTVSPost2010PropOp55
 70
     1
102
RTVSPost2010Prop56
140
1.0
102
RTVSPost2010PropOp56
 70
     1
102
RTVSPost2010Prop57
140
1.0
102
RTVSPost2010PropOp57
 70
     1
  0
XRECORD
  5
370
102
{ACAD_REACTORS
330
36F
102
}
330
36F
100
AcDbXrecord
280
     1
102
RTVSPropertyOp0
 70
     0
102
RTVSPropertyOp1
 70
     0
102
RTVSPropertyOp2
 70
     0
102
RTVSPropertyOp3
 70
     0
102
RTVSPropertyOp4
 70
     0
102
RTVSPropertyOp5
 70
     0
102
RTVSPropertyOp6
 70
     0
102
RTVSPropertyOp7
 70
     0
102
RTVSPropertyOp8
 70
     0
102
RTVSPropertyOp9
 70
     0
102
RTVSPropertyOp10
 70
     0
102
RTVSPropertyOp11
 70
     0
102
RTVSPropertyOp12
 70
     0
102
RTVSPropertyOp13
 70
     0
102
RTVSPropertyOp14
 70
     2
102
RTVSPropertyOp15
 70
     0
102
RTVSPropertyOp16
 70
     0
102
RTVSPropertyOp17
 70
     0
102
RTVSPropertyOp18
 70
     0
102
RTVSPropertyOp19
 70
     0
102
RTVSPropertyOp20
 70
     0
102
RTVSPropertyOp21
 70
     0
102
RTVSPropertyOp22
 70
     0
102
RTVSPropertyOp23
 70
     0
102
RTVSPropertyOp24
 70
     0
102
RTVSPropertyOp25
 70
     0
102
RTVSPropertyOp26
 70
     0
102
RTVSPropertyOp27
 70
     0
102
RTVSPropertyOp28
 70
     0
102
RTVSPropertyOp29
 70
     0
102
RTVSPropertyOp30
 70
     0
102
RTVSPropertyOp31
 70
     0
102
RTVSPropertyOp32
 70
     0
102
RTVSPropertyOp33
 70
     0
102
RTVSPropertyOp34
 70
     0
102
RTVSPropertyOp35
 70
     0
102
RTVSPropertyOp36
 70
     0
102
RTVSPropertyOp37
 70
     0
102
RTVSPropertyOp38
 70
     0
102
RTVSPropertyOp39
 70
     0
102
RTVSPropertyOp40
 70
     0
102
RTVSPropertyOp41
 70
     0
102
RTVSPropertyOp42
 70
     0
102
RTVSPropertyOp43
 70
     0
102
RTVSPropertyOp44
 70
     0
102
RTVSPropertyOp45
 70
     0
102
RTVSPropertyOp46
 70
     0
102
RTVSPropertyOp47
 70
     0
102
RTVSPropertyOp48
 70
     0
102
RTVSPropertyOp49
 70
     0
102
RTVSPropertyOp50
 70
     0
102
RTVSPropertyOp51
 70
     0
102
RTVSPropertyOp52
 70
     0
102
RTVSPropertyOp53
 70
     0
102
RTVSPropertyOp54
 70
     0
102
RTVSPropertyOp55
 70
     0
102
RTVSPropertyOp56
 70
     0
102
RTVSPropertyOp57
 70
     0
102
RTVSPost2010Prop28
280
     0
102
RTVSPost2010PropOp28
 70
     0
102
RTVSPost2010Prop29
280
     1
102
RTVSPost2010PropOp29
 70
     0
102
RTVSPost2010Prop30
280
     1
102
RTVSPost2010PropOp30
 70
     0
102
RTVSPost2010Prop31
280
     0
102
RTVSPost2010PropOp31
 70
     0
102
RTVSPost2010Prop32
280
     0
102
RTVSPost2010PropOp32
 70
     0
102
RTVSPost2010Prop33
280
     0
102
RTVSPost2010PropOp33
 70
     0
102
RTVSPost2010Prop34
280
     0
102
RTVSPost2010PropOp34
 70
     0
102
RTVSPost2010Prop35
280
     0
102
RTVSPost2010PropOp35
 70
     0
102
RTVSPost2010Prop36
280
     0
102
RTVSPost2010PropOp36
 70
     0
102
RTVSPost2010Prop37
 90
       50
102
RTVSPost2010PropOp37
 70
     0
102
RTVSPost2010Prop38
140
0.0
102
RTVSPost2010PropOp38
 70
     0
102
RTVSPost2010Prop39
140
1.0
102
RTVSPost2010PropOp39
 70
     0
102
RTVSPost2010Prop40
 90
        0
102
RTVSPost2010PropOp40
 70
     0
102
RTVSPost2010Prop41ColorIndex
 90
       18
102
RTVSPost2010Prop41ColorRGB
 90
        0
102
RTVSPost2010PropOp41
 70
     0
102
RTVSPost2010Prop42
 90
       50
102
RTVSPost2010PropOp42
 70
     0
102
RTVSPost2010Prop43
 90
        3
102
RTVSPost2010PropOp43
 70
     0
102
RTVSPost2010Prop44ColorIndex
 90
        5
102
RTVSPost2010Prop44ColorRGB
 90
      255
102
RTVSPost2010PropOp44
 70
     0
102
RTVSPost2010Prop45
280
     0
102
RTVSPost2010PropOp45
 70
     0
102
RTVSPost2010Prop46
 90
       50
102
RTVSPost2010PropOp46
 70
     0
102
RTVSPost2010Prop47
 90
       50
102
RTVSPost2010PropOp47
 70
     0
102
RTVSPost2010Prop48
 90
       50
102
RTVSPost2010PropOp48
 70
     0
102
RTVSPost2010Prop49
280
     0
102
RTVSPost2010PropOp49
 70
     0
102
RTVSPost2010Prop50
 90
       50
102
RTVSPost2010PropOp50
 70
     0
102
RTVSPost2010Prop51ColorIndex
 90
      256
102
RTVSPost2010Prop51ColorRGB
 90
-16777216
102
RTVSPost2010PropOp51
 70
     0
102
RTVSPost2010Prop52
140
1.0
102
RTVSPost2010PropOp52
 70
     0
102
RTVSPost2010Prop53
 90
        2
102
RTVSPost2010PropOp53
 70
     0
102
RTVSPost2010Prop54
  1
strokes_ogs.tif
102
RTVSPost2010PropOp54
 70
     0
102
RTVSPost2010Prop55
280
     0
102
RTVSPost2010PropOp55
 70
     0
102
RTVSPost2010Prop56
140
1.0
102
RTVSPost2010PropOp56
 70
     0
102
RTVSPost2010Prop57
140
1.0
102
RTVSPost2010PropOp57
 70
     0
  0
XRECORD
  5
35E
102
{ACAD_REACTORS
330
35D
102
}
330
35D
100
AcDbXrecord
280
     1
102
RTVSPropertyOp0
 70
     1
102
RTVSPropertyOp1
 70
     1
102
RTVSPropertyOp2
 70
     1
102
RTVSPropertyOp3
 70
     1
102
RTVSPropertyOp4
 70
     1
102
RTVSPropertyOp5
 70
     1
102
RTVSPropertyOp6
 70
     1
102
RTVSPropertyOp7
 70
     1
102
RTVSPropertyOp8
 70
     1
102
RTVSPropertyOp9
 70
     1
102
RTVSPropertyOp10
 70
     1
102
RTVSPropertyOp11
 70
     1
102
RTVSPropertyOp12
 70
     1
102
RTVSPropertyOp13
 70
     1
102
RTVSPropertyOp14
 70
     1
102
RTVSPropertyOp15
 70
     1
102
RTVSPropertyOp16
 70
     1
102
RTVSPropertyOp17
 70
     1
102
RTVSPropertyOp18
 70
     1
102
RTVSPropertyOp19
 70
     1
102
RTVSPropertyOp20
 70
     1
102
RTVSPropertyOp21
 70
     1
102
RTVSPropertyOp22
 70
     1
102
RTVSPropertyOp23
 70
     1
102
RTVSPropertyOp24
 70
     1
102
RTVSPropertyOp25
 70
     1
102
RTVSPropertyOp26
 70
     1
102
RTVSPropertyOp27
 70
     1
102
RTVSPropertyOp28
 70
     1
102
RTVSPropertyOp29
 70
     1
102
RTVSPropertyOp30
 70
     1
102
RTVSPropertyOp31
 70
     1
102
RTVSPropertyOp32
 70
     1
102
RTVSPropertyOp33
 70
     1
102
RTVSPropertyOp34
 70
     1
102
RTVSPropertyOp35
 70
     1
102
RTVSPropertyOp36
 70
     1
102
RTVSPropertyOp37
 70
     1
102
RTVSPropertyOp38
 70
     1
102
RTVSPropertyOp39
 70
     1
102
RTVSPropertyOp40
 70
     1
102
RTVSPropertyOp41
 70
     1
102
RTVSPropertyOp42
 70
     1
102
RTVSPropertyOp43
 70
     1
102
RTVSPropertyOp44
 70
     1
102
RTVSPropertyOp45
 70
     1
102
RTVSPropertyOp46
 70
     1
102
RTVSPropertyOp47
 70
     1
102
RTVSPropertyOp48
 70
     1
102
RTVSPropertyOp49
 70
     1
102
RTVSPropertyOp50
 70
     1
102
RTVSPropertyOp51
 70
     0
102
RTVSPropertyOp52
 70
     0
102
RTVSPropertyOp53
 70
     1
102
RTVSPropertyOp54
 70
     1
102
RTVSPropertyOp55
 70
     1
102
RTVSPropertyOp56
 70
     1
102
RTVSPropertyOp57
 70
     1
102
RTVSPost2010Prop28
280
     0
102
RTVSPost2010PropOp28
 70
     1
102
RTVSPost2010Prop29
280
     1
102
RTVSPost2010PropOp29
 70
     1
102
RTVSPost2010Prop30
280
     1
102
RTVSPost2010PropOp30
 70
     1
102
RTVSPost2010Prop31
280
     0
102
RTVSPost2010PropOp31
 70
     1
102
RTVSPost2010Prop32
280
     0
102
RTVSPost2010PropOp32
 70
     1
102
RTVSPost2010Prop33
280
     0
102
RTVSPost2010PropOp33
 70
     1
102
RTVSPost2010Prop34
280
     0
102
RTVSPost2010PropOp34
 70
     1
102
RTVSPost2010Prop35
280
     0
102
RTVSPost2010PropOp35
 70
     1
102
RTVSPost2010Prop36
280
     0
102
RTVSPost2010PropOp36
 70
     1
102
RTVSPost2010Prop37
 90
       50
102
RTVSPost2010PropOp37
 70
     1
102
RTVSPost2010Prop38
140
0.0
102
RTVSPost2010PropOp38
 70
     1
102
RTVSPost2010Prop39
140
1.0
102
RTVSPost2010PropOp39
 70
     1
102
RTVSPost2010Prop40
 90
        0
102
RTVSPost2010PropOp40
 70
     1
102
RTVSPost2010Prop41ColorIndex
 90
       18
102
RTVSPost2010Prop41ColorRGB
 90
        0
102
RTVSPost2010PropOp41
 70
     1
102
RTVSPost2010Prop42
 90
       50
102
RTVSPost2010PropOp42
 70
     1
102
RTVSPost2010Prop43
 90
        3
102
RTVSPost2010PropOp43
 70
     1
102
RTVSPost2010Prop44ColorIndex
 90
        5
102
RTVSPost2010Prop44ColorRGB
 90
      255
102
RTVSPost2010PropOp44
 70
     1
102
RTVSPost2010Prop45
280
     0
102
RTVSPost2010PropOp45
 70
     1
102
RTVSPost2010Prop46
 90
       50
102
RTVSPost2010PropOp46
 70
     1
102
RTVSPost2010Prop47
 90
       50
102
RTVSPost2010PropOp47
 70
     1
102
RTVSPost2010Prop48
 90
       50
102
RTVSPost2010PropOp48
 70
     1
102
RTVSPost2010Prop49
280
     0
102
RTVSPost2010PropOp49
 70
     1
102
RTVSPost2010Prop50
 90
       50
102
RTVSPost2010PropOp50
 70
     1
102
RTVSPost2010Prop51ColorIndex
 90
      256
102
RTVSPost2010Prop51ColorRGB
 90
-16777216
102
RTVSPost2010PropOp51
 70
     0
102
RTVSPost2010Prop52
140
1.0
102
RTVSPost2010PropOp52
 70
     0
102
RTVSPost2010Prop53
 90
        2
102
RTVSPost2010PropOp53
 70
     1
102
RTVSPost2010Prop54
  1
strokes_ogs.tif
102
RTVSPost2010PropOp54
 70
     1
102
RTVSPost2010Prop55
280
     0
102
RTVSPost2010PropOp55
 70
     1
102
RTVSPost2010Prop56
140
1.0
102
RTVSPost2010PropOp56
 70
     1
102
RTVSPost2010Prop57
140
1.0
102
RTVSPost2010PropOp57
 70
     1
  0
XRECORD
  5
37C
102
{ACAD_REACTORS
330
37B
102
}
330
37B
100
AcDbXrecord
280
     1
102
RTVSPropertyOp0
 70
     1
102
RTVSPropertyOp1
 70
     1
102
RTVSPropertyOp2
 70
     1
102
RTVSPropertyOp3
 70
     1
102
RTVSPropertyOp4
 70
     1
102
RTVSPropertyOp5
 70
     1
102
RTVSPropertyOp6
 70
     1
102
RTVSPropertyOp7
 70
     1
102
RTVSPropertyOp8
 70
     1
102
RTVSPropertyOp9
 70
     1
102
RTVSPropertyOp10
 70
     1
102
RTVSPropertyOp11
 70
     1
102
RTVSPropertyOp12
 70
     1
102
RTVSPropertyOp13
 70
     1
102
RTVSPropertyOp14
 70
     1
102
RTVSPropertyOp15
 70
     1
102
RTVSPropertyOp16
 70
     1
102
RTVSPropertyOp17
 70
     1
102
RTVSPropertyOp18
 70
     1
102
RTVSPropertyOp19
 70
     1
102
RTVSPropertyOp20
 70
     1
102
RTVSPropertyOp21
 70
     1
102
RTVSPropertyOp22
 70
     1
102
RTVSPropertyOp23
 70
     1
102
RTVSPropertyOp24
 70
     1
102
RTVSPropertyOp25
 70
     1
102
RTVSPropertyOp26
 70
     1
102
RTVSPropertyOp27
 70
     1
102
RTVSPropertyOp28
 70
     1
102
RTVSPropertyOp29
 70
     1
102
RTVSPropertyOp30
 70
     1
102
RTVSPropertyOp31
 70
     1
102
RTVSPropertyOp32
 70
     1
102
RTVSPropertyOp33
 70
     1
102
RTVSPropertyOp34
 70
     1
102
RTVSPropertyOp35
 70
     1
102
RTVSPropertyOp36
 70
     1
102
RTVSPropertyOp37
 70
     1
102
RTVSPropertyOp38
 70
     1
102
RTVSPropertyOp39
 70
     1
102
RTVSPropertyOp40
 70
     1
102
RTVSPropertyOp41
 70
     1
102
RTVSPropertyOp42
 70
     1
102
RTVSPropertyOp43
 70
     1
102
RTVSPropertyOp44
 70
     1
102
RTVSPropertyOp45
 70
     1
102
RTVSPropertyOp46
 70
     1
102
RTVSPropertyOp47
 70
     1
102
RTVSPropertyOp48
 70
     1
102
RTVSPropertyOp49
 70
     1
102
RTVSPropertyOp50
 70
     1
102
RTVSPropertyOp51
 70
     0
102
RTVSPropertyOp52
 70
     0
102
RTVSPropertyOp53
 70
     1
102
RTVSPropertyOp54
 70
     1
102
RTVSPropertyOp55
 70
     1
102
RTVSPropertyOp56
 70
     1
102
RTVSPropertyOp57
 70
     1
102
RTVSPost2010Prop28
280
     0
102
RTVSPost2010PropOp28
 70
     1
102
RTVSPost2010Prop29
280
     1
102
RTVSPost2010PropOp29
 70
     1
102
RTVSPost2010Prop30
280
     1
102
RTVSPost2010PropOp30
 70
     1
102
RTVSPost2010Prop31
280
     0
102
RTVSPost2010PropOp31
 70
     1
102
RTVSPost2010Prop32
280
     0
102
RTVSPost2010PropOp32
 70
     1
102
RTVSPost2010Prop33
280
     0
102
RTVSPost2010PropOp33
 70
     1
102
RTVSPost2010Prop34
280
     0
102
RTVSPost2010PropOp34
 70
     1
102
RTVSPost2010Prop35
280
     0
102
RTVSPost2010PropOp35
 70
     1
102
RTVSPost2010Prop36
280
     0
102
RTVSPost2010PropOp36
 70
     1
102
RTVSPost2010Prop37
 90
       50
102
RTVSPost2010PropOp37
 70
     1
102
RTVSPost2010Prop38
140
0.0
102
RTVSPost2010PropOp38
 70
     1
102
RTVSPost2010Prop39
140
1.0
102
RTVSPost2010PropOp39
 70
     1
102
RTVSPost2010Prop40
 90
        0
102
RTVSPost2010PropOp40
 70
     1
102
RTVSPost2010Prop41ColorIndex
 90
       18
102
RTVSPost2010Prop41ColorRGB
 90
        0
102
RTVSPost2010PropOp41
 70
     1
102
RTVSPost2010Prop42
 90
       50
102
RTVSPost2010PropOp42
 70
     1
102
RTVSPost2010Prop43
 90
        3
102
RTVSPost2010PropOp43
 70
     1
102
RTVSPost2010Prop44ColorIndex
 90
        5
102
RTVSPost2010Prop44ColorRGB
 90
      255
102
RTVSPost2010PropOp44
 70
     1
102
RTVSPost2010Prop45
280
     0
102
RTVSPost2010PropOp45
 70
     1
102
RTVSPost2010Prop46
 90
       50
102
RTVSPost2010PropOp46
 70
     1
102
RTVSPost2010Prop47
 90
       50
102
RTVSPost2010PropOp47
 70
     1
102
RTVSPost2010Prop48
 90
       50
102
RTVSPost2010PropOp48
 70
     1
102
RTVSPost2010Prop49
280
     0
102
RTVSPost2010PropOp49
 70
     1
102
RTVSPost2010Prop50
 90
       50
102
RTVSPost2010PropOp50
 70
     1
102
RTVSPost2010Prop51ColorIndex
 90
      256
102
RTVSPost2010Prop51ColorRGB
 90
-16777216
102
RTVSPost2010PropOp51
 70
     0
102
RTVSPost2010Prop52
140
1.0
102
RTVSPost2010PropOp52
 70
     0
102
RTVSPost2010Prop53
 90
        2
102
RTVSPost2010PropOp53
 70
     1
102
RTVSPost2010Prop54
  1
strokes_ogs.tif
102
RTVSPost2010PropOp54
 70
     1
102
RTVSPost2010Prop55
280
     0
102
RTVSPost2010PropOp55
 70
     1
102
RTVSPost2010Prop56
140
1.0
102
RTVSPost2010PropOp56
 70
     1
102
RTVSPost2010Prop57
140
1.0
102
RTVSPost2010PropOp57
 70
     1
  0
XRECORD
  5
37A
102
{ACAD_REACTORS
330
379
102
}
330
379
100
AcDbXrecord
280
     1
102
RTVSPropertyOp0
 70
     1
102
RTVSPropertyOp1
 70
     1
102
RTVSPropertyOp2
 70
     1
102
RTVSPropertyOp3
 70
     1
102
RTVSPropertyOp4
 70
     1
102
RTVSPropertyOp5
 70
     1
102
RTVSPropertyOp6
 70
     1
102
RTVSPropertyOp7
 70
     1
102
RTVSPropertyOp8
 70
     1
102
RTVSPropertyOp9
 70
     1
102
RTVSPropertyOp10
 70
     1
102
RTVSPropertyOp11
 70
     1
102
RTVSPropertyOp12
 70
     1
102
RTVSPropertyOp13
 70
     1
102
RTVSPropertyOp14
 70
     1
102
RTVSPropertyOp15
 70
     1
102
RTVSPropertyOp16
 70
     1
102
RTVSPropertyOp17
 70
     1
102
RTVSPropertyOp18
 70
     1
102
RTVSPropertyOp19
 70
     1
102
RTVSPropertyOp20
 70
     1
102
RTVSPropertyOp21
 70
     1
102
RTVSPropertyOp22
 70
     1
102
RTVSPropertyOp23
 70
     1
102
RTVSPropertyOp24
 70
     1
102
RTVSPropertyOp25
 70
     1
102
RTVSPropertyOp26
 70
     1
102
RTVSPropertyOp27
 70
     1
102
RTVSPropertyOp28
 70
     1
102
RTVSPropertyOp29
 70
     1
102
RTVSPropertyOp30
 70
     1
102
RTVSPropertyOp31
 70
     1
102
RTVSPropertyOp32
 70
     1
102
RTVSPropertyOp33
 70
     1
102
RTVSPropertyOp34
 70
     1
102
RTVSPropertyOp35
 70
     1
102
RTVSPropertyOp36
 70
     1
102
RTVSPropertyOp37
 70
     1
102
RTVSPropertyOp38
 70
     1
102
RTVSPropertyOp39
 70
     1
102
RTVSPropertyOp40
 70
     1
102
RTVSPropertyOp41
 70
     1
102
RTVSPropertyOp42
 70
     1
102
RTVSPropertyOp43
 70
     1
102
RTVSPropertyOp44
 70
     1
102
RTVSPropertyOp45
 70
     1
102
RTVSPropertyOp46
 70
     1
102
RTVSPropertyOp47
 70
     1
102
RTVSPropertyOp48
 70
     1
102
RTVSPropertyOp49
 70
     1
102
RTVSPropertyOp50
 70
     1
102
RTVSPropertyOp51
 70
     0
102
RTVSPropertyOp52
 70
     0
102
RTVSPropertyOp53
 70
     1
102
RTVSPropertyOp54
 70
     1
102
RTVSPropertyOp55
 70
     1
102
RTVSPropertyOp56
 70
     1
102
RTVSPropertyOp57
 70
     1
102
RTVSPost2010Prop28
280
     0
102
RTVSPost2010PropOp28
 70
     1
102
RTVSPost2010Prop29
280
     1
102
RTVSPost2010PropOp29
 70
     1
102
RTVSPost2010Prop30
280
     1
102
RTVSPost2010PropOp30
 70
     1
102
RTVSPost2010Prop31
280
     0
102
RTVSPost2010PropOp31
 70
     1
102
RTVSPost2010Prop32
280
     0
102
RTVSPost2010PropOp32
 70
     1
102
RTVSPost2010Prop33
280
     0
102
RTVSPost2010PropOp33
 70
     1
102
RTVSPost2010Prop34
280
     0
102
RTVSPost2010PropOp34
 70
     1
102
RTVSPost2010Prop35
280
     0
102
RTVSPost2010PropOp35
 70
     1
102
RTVSPost2010Prop36
280
     0
102
RTVSPost2010PropOp36
 70
     1
102
RTVSPost2010Prop37
 90
       50
102
RTVSPost2010PropOp37
 70
     1
102
RTVSPost2010Prop38
140
0.0
102
RTVSPost2010PropOp38
 70
     1
102
RTVSPost2010Prop39
140
1.0
102
RTVSPost2010PropOp39
 70
     1
102
RTVSPost2010Prop40
 90
        0
102
RTVSPost2010PropOp40
 70
     1
102
RTVSPost2010Prop41ColorIndex
 90
       18
102
RTVSPost2010Prop41ColorRGB
 90
        0
102
RTVSPost2010PropOp41
 70
     1
102
RTVSPost2010Prop42
 90
       50
102
RTVSPost2010PropOp42
 70
     1
102
RTVSPost2010Prop43
 90
        3
102
RTVSPost2010PropOp43
 70
     1
102
RTVSPost2010Prop44ColorIndex
 90
        5
102
RTVSPost2010Prop44ColorRGB
 90
      255
102
RTVSPost2010PropOp44
 70
     1
102
RTVSPost2010Prop45
280
     0
102
RTVSPost2010PropOp45
 70
     1
102
RTVSPost2010Prop46
 90
       50
102
RTVSPost2010PropOp46
 70
     1
102
RTVSPost2010Prop47
 90
       50
102
RTVSPost2010PropOp47
 70
     1
102
RTVSPost2010Prop48
 90
       50
102
RTVSPost2010PropOp48
 70
     1
102
RTVSPost2010Prop49
280
     0
102
RTVSPost2010PropOp49
 70
     1
102
RTVSPost2010Prop50
 90
       50
102
RTVSPost2010PropOp50
 70
     1
102
RTVSPost2010Prop51ColorIndex
 90
      256
102
RTVSPost2010Prop51ColorRGB
 90
-16777216
102
RTVSPost2010PropOp51
 70
     0
102
RTVSPost2010Prop52
140
1.0
102
RTVSPost2010PropOp52
 70
     0
102
RTVSPost2010Prop53
 90
        2
102
RTVSPost2010PropOp53
 70
     1
102
RTVSPost2010Prop54
  1
strokes_ogs.tif
102
RTVSPost2010PropOp54
 70
     1
102
RTVSPost2010Prop55
280
     0
102
RTVSPost2010PropOp55
 70
     1
102
RTVSPost2010Prop56
140
1.0
102
RTVSPost2010PropOp56
 70
     1
102
RTVSPost2010Prop57
140
1.0
102
RTVSPost2010PropOp57
 70
     1
  0
XRECORD
  5
374
102
{ACAD_REACTORS
330
373
102
}
330
373
100
AcDbXrecord
280
     1
102
RTVSPropertyOp0
 70
     1
102
RTVSPropertyOp1
 70
     1
102
RTVSPropertyOp2
 70
     1
102
RTVSPropertyOp3
 70
     1
102
RTVSPropertyOp4
 70
     1
102
RTVSPropertyOp5
 70
     1
102
RTVSPropertyOp6
 70
     1
102
RTVSPropertyOp7
 70
     1
102
RTVSPropertyOp8
 70
     1
102
RTVSPropertyOp9
 70
     1
102
RTVSPropertyOp10
 70
     1
102
RTVSPropertyOp11
 70
     1
102
RTVSPropertyOp12
 70
     1
102
RTVSPropertyOp13
 70
     1
102
RTVSPropertyOp14
 70
     1
102
RTVSPropertyOp15
 70
     1
102
RTVSPropertyOp16
 70
     1
102
RTVSPropertyOp17
 70
     1
102
RTVSPropertyOp18
 70
     1
102
RTVSPropertyOp19
 70
     1
102
RTVSPropertyOp20
 70
     1
102
RTVSPropertyOp21
 70
     1
102
RTVSPropertyOp22
 70
     1
102
RTVSPropertyOp23
 70
     1
102
RTVSPropertyOp24
 70
     1
102
RTVSPropertyOp25
 70
     1
102
RTVSPropertyOp26
 70
     1
102
RTVSPropertyOp27
 70
     1
102
RTVSPropertyOp28
 70
     1
102
RTVSPropertyOp29
 70
     1
102
RTVSPropertyOp30
 70
     1
102
RTVSPropertyOp31
 70
     1
102
RTVSPropertyOp32
 70
     1
102
RTVSPropertyOp33
 70
     1
102
RTVSPropertyOp34
 70
     1
102
RTVSPropertyOp35
 70
     1
102
RTVSPropertyOp36
 70
     1
102
RTVSPropertyOp37
 70
     1
102
RTVSPropertyOp38
 70
     1
102
RTVSPropertyOp39
 70
     1
102
RTVSPropertyOp40
 70
     1
102
RTVSPropertyOp41
 70
     1
102
RTVSPropertyOp42
 70
     1
102
RTVSPropertyOp43
 70
     1
102
RTVSPropertyOp44
 70
     1
102
RTVSPropertyOp45
 70
     1
102
RTVSPropertyOp46
 70
     1
102
RTVSPropertyOp47
 70
     1
102
RTVSPropertyOp48
 70
     1
102
RTVSPropertyOp49
 70
     1
102
RTVSPropertyOp50
 70
     1
102
RTVSPropertyOp51
 70
     0
102
RTVSPropertyOp52
 70
     0
102
RTVSPropertyOp53
 70
     1
102
RTVSPropertyOp54
 70
     1
102
RTVSPropertyOp55
 70
     1
102
RTVSPropertyOp56
 70
     1
102
RTVSPropertyOp57
 70
     1
102
RTVSPost2010Prop28
280
     0
102
RTVSPost2010PropOp28
 70
     1
102
RTVSPost2010Prop29
280
     1
102
RTVSPost2010PropOp29
 70
     1
102
RTVSPost2010Prop30
280
     1
102
RTVSPost2010PropOp30
 70
     1
102
RTVSPost2010Prop31
280
     0
102
RTVSPost2010PropOp31
 70
     1
102
RTVSPost2010Prop32
280
     0
102
RTVSPost2010PropOp32
 70
     1
102
RTVSPost2010Prop33
280
     0
102
RTVSPost2010PropOp33
 70
     1
102
RTVSPost2010Prop34
280
     0
102
RTVSPost2010PropOp34
 70
     1
102
RTVSPost2010Prop35
280
     0
102
RTVSPost2010PropOp35
 70
     1
102
RTVSPost2010Prop36
280
     0
102
RTVSPost2010PropOp36
 70
     1
102
RTVSPost2010Prop37
 90
       50
102
RTVSPost2010PropOp37
 70
     1
102
RTVSPost2010Prop38
140
0.0
102
RTVSPost2010PropOp38
 70
     1
102
RTVSPost2010Prop39
140
1.0
102
RTVSPost2010PropOp39
 70
     1
102
RTVSPost2010Prop40
 90
        0
102
RTVSPost2010PropOp40
 70
     1
102
RTVSPost2010Prop41ColorIndex
 90
       18
102
RTVSPost2010Prop41ColorRGB
 90
        0
102
RTVSPost2010PropOp41
 70
     1
102
RTVSPost2010Prop42
 90
       50
102
RTVSPost2010PropOp42
 70
     1
102
RTVSPost2010Prop43
 90
        3
102
RTVSPost2010PropOp43
 70
     1
102
RTVSPost2010Prop44ColorIndex
 90
        5
102
RTVSPost2010Prop44ColorRGB
 90
      255
102
RTVSPost2010PropOp44
 70
     1
102
RTVSPost2010Prop45
280
     0
102
RTVSPost2010PropOp45
 70
     1
102
RTVSPost2010Prop46
 90
       50
102
RTVSPost2010PropOp46
 70
     1
102
RTVSPost2010Prop47
 90
       50
102
RTVSPost2010PropOp47
 70
     1
102
RTVSPost2010Prop48
 90
       50
102
RTVSPost2010PropOp48
 70
     1
102
RTVSPost2010Prop49
280
     0
102
RTVSPost2010PropOp49
 70
     1
102
RTVSPost2010Prop50
 90
       50
102
RTVSPost2010PropOp50
 70
     1
102
RTVSPost2010Prop51ColorIndex
 90
      256
102
RTVSPost2010Prop51ColorRGB
 90
-16777216
102
RTVSPost2010PropOp51
 70
     0
102
RTVSPost2010Prop52
140
1.0
102
RTVSPost2010PropOp52
 70
     0
102
RTVSPost2010Prop53
 90
        2
102
RTVSPost2010PropOp53
 70
     1
102
RTVSPost2010Prop54
  1
strokes_ogs.tif
102
RTVSPost2010PropOp54
 70
     1
102
RTVSPost2010Prop55
280
     0
102
RTVSPost2010PropOp55
 70
     1
102
RTVSPost2010Prop56
140
1.0
102
RTVSPost2010PropOp56
 70
     1
102
RTVSPost2010Prop57
140
1.0
102
RTVSPost2010PropOp57
 70
     1
  0
XRECORD
  5
376
102
{ACAD_REACTORS
330
375
102
}
330
375
100
AcDbXrecord
280
     1
102
RTVSPropertyOp0
 70
     1
102
RTVSPropertyOp1
 70
     1
102
RTVSPropertyOp2
 70
     1
102
RTVSPropertyOp3
 70
     1
102
RTVSPropertyOp4
 70
     1
102
RTVSPropertyOp5
 70
     1
102
RTVSPropertyOp6
 70
     1
102
RTVSPropertyOp7
 70
     1
102
RTVSPropertyOp8
 70
     1
102
RTVSPropertyOp9
 70
     1
102
RTVSPropertyOp10
 70
     1
102
RTVSPropertyOp11
 70
     1
102
RTVSPropertyOp12
 70
     1
102
RTVSPropertyOp13
 70
     1
102
RTVSPropertyOp14
 70
     1
102
RTVSPropertyOp15
 70
     1
102
RTVSPropertyOp16
 70
     1
102
RTVSPropertyOp17
 70
     1
102
RTVSPropertyOp18
 70
     1
102
RTVSPropertyOp19
 70
     1
102
RTVSPropertyOp20
 70
     1
102
RTVSPropertyOp21
 70
     1
102
RTVSPropertyOp22
 70
     1
102
RTVSPropertyOp23
 70
     1
102
RTVSPropertyOp24
 70
     1
102
RTVSPropertyOp25
 70
     1
102
RTVSPropertyOp26
 70
     1
102
RTVSPropertyOp27
 70
     1
102
RTVSPropertyOp28
 70
     1
102
RTVSPropertyOp29
 70
     1
102
RTVSPropertyOp30
 70
     1
102
RTVSPropertyOp31
 70
     1
102
RTVSPropertyOp32
 70
     1
102
RTVSPropertyOp33
 70
     1
102
RTVSPropertyOp34
 70
     1
102
RTVSPropertyOp35
 70
     1
102
RTVSPropertyOp36
 70
     1
102
RTVSPropertyOp37
 70
     1
102
RTVSPropertyOp38
 70
     1
102
RTVSPropertyOp39
 70
     1
102
RTVSPropertyOp40
 70
     1
102
RTVSPropertyOp41
 70
     1
102
RTVSPropertyOp42
 70
     1
102
RTVSPropertyOp43
 70
     1
102
RTVSPropertyOp44
 70
     1
102
RTVSPropertyOp45
 70
     1
102
RTVSPropertyOp46
 70
     1
102
RTVSPropertyOp47
 70
     1
102
RTVSPropertyOp48
 70
     1
102
RTVSPropertyOp49
 70
     1
102
RTVSPropertyOp50
 70
     1
102
RTVSPropertyOp51
 70
     0
102
RTVSPropertyOp52
 70
     0
102
RTVSPropertyOp53
 70
     1
102
RTVSPropertyOp54
 70
     1
102
RTVSPropertyOp55
 70
     1
102
RTVSPropertyOp56
 70
     1
102
RTVSPropertyOp57
 70
     1
102
RTVSPost2010Prop28
280
     0
102
RTVSPost2010PropOp28
 70
     1
102
RTVSPost2010Prop29
280
     1
102
RTVSPost2010PropOp29
 70
     1
102
RTVSPost2010Prop30
280
     1
102
RTVSPost2010PropOp30
 70
     1
102
RTVSPost2010Prop31
280
     0
102
RTVSPost2010PropOp31
 70
     1
102
RTVSPost2010Prop32
280
     0
102
RTVSPost2010PropOp32
 70
     1
102
RTVSPost2010Prop33
280
     0
102
RTVSPost2010PropOp33
 70
     1
102
RTVSPost2010Prop34
280
     0
102
RTVSPost2010PropOp34
 70
     1
102
RTVSPost2010Prop35
280
     0
102
RTVSPost2010PropOp35
 70
     1
102
RTVSPost2010Prop36
280
     0
102
RTVSPost2010PropOp36
 70
     1
102
RTVSPost2010Prop37
 90
       50
102
RTVSPost2010PropOp37
 70
     1
102
RTVSPost2010Prop38
140
0.0
102
RTVSPost2010PropOp38
 70
     1
102
RTVSPost2010Prop39
140
1.0
102
RTVSPost2010PropOp39
 70
     1
102
RTVSPost2010Prop40
 90
        0
102
RTVSPost2010PropOp40
 70
     1
102
RTVSPost2010Prop41ColorIndex
 90
       18
102
RTVSPost2010Prop41ColorRGB
 90
        0
102
RTVSPost2010PropOp41
 70
     1
102
RTVSPost2010Prop42
 90
       50
102
RTVSPost2010PropOp42
 70
     1
102
RTVSPost2010Prop43
 90
        3
102
RTVSPost2010PropOp43
 70
     1
102
RTVSPost2010Prop44ColorIndex
 90
        5
102
RTVSPost2010Prop44ColorRGB
 90
      255
102
RTVSPost2010PropOp44
 70
     1
102
RTVSPost2010Prop45
280
     0
102
RTVSPost2010PropOp45
 70
     1
102
RTVSPost2010Prop46
 90
       50
102
RTVSPost2010PropOp46
 70
     1
102
RTVSPost2010Prop47
 90
       50
102
RTVSPost2010PropOp47
 70
     1
102
RTVSPost2010Prop48
 90
       50
102
RTVSPost2010PropOp48
 70
     1
102
RTVSPost2010Prop49
280
     0
102
RTVSPost2010PropOp49
 70
     1
102
RTVSPost2010Prop50
 90
       50
102
RTVSPost2010PropOp50
 70
     1
102
RTVSPost2010Prop51ColorIndex
 90
      256
102
RTVSPost2010Prop51ColorRGB
 90
-16777216
102
RTVSPost2010PropOp51
 70
     0
102
RTVSPost2010Prop52
140
1.0
102
RTVSPost2010PropOp52
 70
     0
102
RTVSPost2010Prop53
 90
        2
102
RTVSPost2010PropOp53
 70
     1
102
RTVSPost2010Prop54
  1
strokes_ogs.tif
102
RTVSPost2010PropOp54
 70
     1
102
RTVSPost2010Prop55
280
     0
102
RTVSPost2010PropOp55
 70
     1
102
RTVSPost2010Prop56
140
1.0
102
RTVSPost2010PropOp56
 70
     1
102
RTVSPost2010Prop57
140
1.0
102
RTVSPost2010PropOp57
 70
     1
  0
XRECORD
  5
366
102
{ACAD_REACTORS
330
365
102
}
330
365
100
AcDbXrecord
280
     1
102
RTVSPropertyOp0
 70
     1
102
RTVSPropertyOp1
 70
     1
102
RTVSPropertyOp2
 70
     1
102
RTVSPropertyOp3
 70
     1
102
RTVSPropertyOp4
 70
     1
102
RTVSPropertyOp5
 70
     1
102
RTVSPropertyOp6
 70
     1
102
RTVSPropertyOp7
 70
     1
102
RTVSPropertyOp8
 70
     1
102
RTVSPropertyOp9
 70
     1
102
RTVSPropertyOp10
 70
     1
102
RTVSPropertyOp11
 70
     1
102
RTVSPropertyOp12
 70
     1
102
RTVSPropertyOp13
 70
     1
102
RTVSPropertyOp14
 70
     1
102
RTVSPropertyOp15
 70
     1
102
RTVSPropertyOp16
 70
     1
102
RTVSPropertyOp17
 70
     1
102
RTVSPropertyOp18
 70
     1
102
RTVSPropertyOp19
 70
     1
102
RTVSPropertyOp20
 70
     1
102
RTVSPropertyOp21
 70
     1
102
RTVSPropertyOp22
 70
     1
102
RTVSPropertyOp23
 70
     1
102
RTVSPropertyOp24
 70
     1
102
RTVSPropertyOp25
 70
     1
102
RTVSPropertyOp26
 70
     1
102
RTVSPropertyOp27
 70
     1
102
RTVSPropertyOp28
 70
     1
102
RTVSPropertyOp29
 70
     1
102
RTVSPropertyOp30
 70
     1
102
RTVSPropertyOp31
 70
     1
102
RTVSPropertyOp32
 70
     1
102
RTVSPropertyOp33
 70
     1
102
RTVSPropertyOp34
 70
     1
102
RTVSPropertyOp35
 70
     1
102
RTVSPropertyOp36
 70
     1
102
RTVSPropertyOp37
 70
     1
102
RTVSPropertyOp38
 70
     1
102
RTVSPropertyOp39
 70
     1
102
RTVSPropertyOp40
 70
     1
102
RTVSPropertyOp41
 70
     1
102
RTVSPropertyOp42
 70
     1
102
RTVSPropertyOp43
 70
     1
102
RTVSPropertyOp44
 70
     1
102
RTVSPropertyOp45
 70
     1
102
RTVSPropertyOp46
 70
     1
102
RTVSPropertyOp47
 70
     1
102
RTVSPropertyOp48
 70
     1
102
RTVSPropertyOp49
 70
     1
102
RTVSPropertyOp50
 70
     1
102
RTVSPropertyOp51
 70
     0
102
RTVSPropertyOp52
 70
     0
102
RTVSPropertyOp53
 70
     1
102
RTVSPropertyOp54
 70
     1
102
RTVSPropertyOp55
 70
     1
102
RTVSPropertyOp56
 70
     1
102
RTVSPropertyOp57
 70
     1
102
RTVSPost2010Prop28
280
     0
102
RTVSPost2010PropOp28
 70
     1
102
RTVSPost2010Prop29
280
     1
102
RTVSPost2010PropOp29
 70
     1
102
RTVSPost2010Prop30
280
     1
102
RTVSPost2010PropOp30
 70
     1
102
RTVSPost2010Prop31
280
     0
102
RTVSPost2010PropOp31
 70
     1
102
RTVSPost2010Prop32
280
     0
102
RTVSPost2010PropOp32
 70
     1
102
RTVSPost2010Prop33
280
     0
102
RTVSPost2010PropOp33
 70
     1
102
RTVSPost2010Prop34
280
     0
102
RTVSPost2010PropOp34
 70
     1
102
RTVSPost2010Prop35
280
     0
102
RTVSPost2010PropOp35
 70
     1
102
RTVSPost2010Prop36
280
     0
102
RTVSPost2010PropOp36
 70
     1
102
RTVSPost2010Prop37
 90
       50
102
RTVSPost2010PropOp37
 70
     1
102
RTVSPost2010Prop38
140
0.0
102
RTVSPost2010PropOp38
 70
     1
102
RTVSPost2010Prop39
140
1.0
102
RTVSPost2010PropOp39
 70
     1
102
RTVSPost2010Prop40
 90
        0
102
RTVSPost2010PropOp40
 70
     1
102
RTVSPost2010Prop41ColorIndex
 90
       18
102
RTVSPost2010Prop41ColorRGB
 90
        0
102
RTVSPost2010PropOp41
 70
     1
102
RTVSPost2010Prop42
 90
       50
102
RTVSPost2010PropOp42
 70
     1
102
RTVSPost2010Prop43
 90
        3
102
RTVSPost2010PropOp43
 70
     1
102
RTVSPost2010Prop44ColorIndex
 90
        5
102
RTVSPost2010Prop44ColorRGB
 90
      255
102
RTVSPost2010PropOp44
 70
     1
102
RTVSPost2010Prop45
280
     0
102
RTVSPost2010PropOp45
 70
     1
102
RTVSPost2010Prop46
 90
       50
102
RTVSPost2010PropOp46
 70
     1
102
RTVSPost2010Prop47
 90
       50
102
RTVSPost2010PropOp47
 70
     1
102
RTVSPost2010Prop48
 90
       50
102
RTVSPost2010PropOp48
 70
     1
102
RTVSPost2010Prop49
280
     0
102
RTVSPost2010PropOp49
 70
     1
102
RTVSPost2010Prop50
 90
       50
102
RTVSPost2010PropOp50
 70
     1
102
RTVSPost2010Prop51ColorIndex
 90
      256
102
RTVSPost2010Prop51ColorRGB
 90
-16777216
102
RTVSPost2010PropOp51
 70
     0
102
RTVSPost2010Prop52
140
1.0
102
RTVSPost2010PropOp52
 70
     0
102
RTVSPost2010Prop53
 90
        2
102
RTVSPost2010PropOp53
 70
     1
102
RTVSPost2010Prop54
  1
strokes_ogs.tif
102
RTVSPost2010PropOp54
 70
     1
102
RTVSPost2010Prop55
280
     0
102
RTVSPost2010PropOp55
 70
     1
102
RTVSPost2010Prop56
140
1.0
102
RTVSPost2010PropOp56
 70
     1
102
RTVSPost2010Prop57
140
1.0
102
RTVSPost2010PropOp57
 70
     1
  0
XRECORD
  5
358
102
{ACAD_REACTORS
330
357
102
}
330
357
100
AcDbXrecord
280
     1
102
RTVSPropertyOp0
 70
     1
102
RTVSPropertyOp1
 70
     1
102
RTVSPropertyOp2
 70
     1
102
RTVSPropertyOp3
 70
     1
102
RTVSPropertyOp4
 70
     1
102
RTVSPropertyOp5
 70
     1
102
RTVSPropertyOp6
 70
     1
102
RTVSPropertyOp7
 70
     1
102
RTVSPropertyOp8
 70
     1
102
RTVSPropertyOp9
 70
     1
102
RTVSPropertyOp10
 70
     1
102
RTVSPropertyOp11
 70
     1
102
RTVSPropertyOp12
 70
     1
102
RTVSPropertyOp13
 70
     1
102
RTVSPropertyOp14
 70
     1
102
RTVSPropertyOp15
 70
     1
102
RTVSPropertyOp16
 70
     1
102
RTVSPropertyOp17
 70
     1
102
RTVSPropertyOp18
 70
     1
102
RTVSPropertyOp19
 70
     1
102
RTVSPropertyOp20
 70
     1
102
RTVSPropertyOp21
 70
     1
102
RTVSPropertyOp22
 70
     1
102
RTVSPropertyOp23
 70
     1
102
RTVSPropertyOp24
 70
     1
102
RTVSPropertyOp25
 70
     1
102
RTVSPropertyOp26
 70
     1
102
RTVSPropertyOp27
 70
     1
102
RTVSPropertyOp28
 70
     1
102
RTVSPropertyOp29
 70
     1
102
RTVSPropertyOp30
 70
     1
102
RTVSPropertyOp31
 70
     1
102
RTVSPropertyOp32
 70
     1
102
RTVSPropertyOp33
 70
     1
102
RTVSPropertyOp34
 70
     1
102
RTVSPropertyOp35
 70
     1
102
RTVSPropertyOp36
 70
     1
102
RTVSPropertyOp37
 70
     1
102
RTVSPropertyOp38
 70
     1
102
RTVSPropertyOp39
 70
     1
102
RTVSPropertyOp40
 70
     1
102
RTVSPropertyOp41
 70
     1
102
RTVSPropertyOp42
 70
     1
102
RTVSPropertyOp43
 70
     1
102
RTVSPropertyOp44
 70
     1
102
RTVSPropertyOp45
 70
     1
102
RTVSPropertyOp46
 70
     1
102
RTVSPropertyOp47
 70
     1
102
RTVSPropertyOp48
 70
     1
102
RTVSPropertyOp49
 70
     1
102
RTVSPropertyOp50
 70
     1
102
RTVSPropertyOp51
 70
     0
102
RTVSPropertyOp52
 70
     0
102
RTVSPropertyOp53
 70
     1
102
RTVSPropertyOp54
 70
     1
102
RTVSPropertyOp55
 70
     1
102
RTVSPropertyOp56
 70
     1
102
RTVSPropertyOp57
 70
     1
102
RTVSPost2010Prop28
280
     0
102
RTVSPost2010PropOp28
 70
     1
102
RTVSPost2010Prop29
280
     1
102
RTVSPost2010PropOp29
 70
     1
102
RTVSPost2010Prop30
280
     1
102
RTVSPost2010PropOp30
 70
     1
102
RTVSPost2010Prop31
280
     0
102
RTVSPost2010PropOp31
 70
     1
102
RTVSPost2010Prop32
280
     0
102
RTVSPost2010PropOp32
 70
     1
102
RTVSPost2010Prop33
280
     0
102
RTVSPost2010PropOp33
 70
     1
102
RTVSPost2010Prop34
280
     0
102
RTVSPost2010PropOp34
 70
     1
102
RTVSPost2010Prop35
280
     0
102
RTVSPost2010PropOp35
 70
     1
102
RTVSPost2010Prop36
280
     0
102
RTVSPost2010PropOp36
 70
     1
102
RTVSPost2010Prop37
 90
       50
102
RTVSPost2010PropOp37
 70
     1
102
RTVSPost2010Prop38
140
0.0
102
RTVSPost2010PropOp38
 70
     1
102
RTVSPost2010Prop39
140
1.0
102
RTVSPost2010PropOp39
 70
     1
102
RTVSPost2010Prop40
 90
        0
102
RTVSPost2010PropOp40
 70
     1
102
RTVSPost2010Prop41ColorIndex
 90
       18
102
RTVSPost2010Prop41ColorRGB
 90
        0
102
RTVSPost2010PropOp41
 70
     1
102
RTVSPost2010Prop42
 90
       50
102
RTVSPost2010PropOp42
 70
     1
102
RTVSPost2010Prop43
 90
        3
102
RTVSPost2010PropOp43
 70
     1
102
RTVSPost2010Prop44ColorIndex
 90
        5
102
RTVSPost2010Prop44ColorRGB
 90
      255
102
RTVSPost2010PropOp44
 70
     1
102
RTVSPost2010Prop45
280
     0
102
RTVSPost2010PropOp45
 70
     1
102
RTVSPost2010Prop46
 90
       50
102
RTVSPost2010PropOp46
 70
     1
102
RTVSPost2010Prop47
 90
       50
102
RTVSPost2010PropOp47
 70
     1
102
RTVSPost2010Prop48
 90
       50
102
RTVSPost2010PropOp48
 70
     1
102
RTVSPost2010Prop49
280
     0
102
RTVSPost2010PropOp49
 70
     1
102
RTVSPost2010Prop50
 90
       50
102
RTVSPost2010PropOp50
 70
     1
102
RTVSPost2010Prop51ColorIndex
 90
      256
102
RTVSPost2010Prop51ColorRGB
 90
-16777216
102
RTVSPost2010PropOp51
 70
     0
102
RTVSPost2010Prop52
140
1.0
102
RTVSPost2010PropOp52
 70
     0
102
RTVSPost2010Prop53
 90
        2
102
RTVSPost2010PropOp53
 70
     1
102
RTVSPost2010Prop54
  1
strokes_ogs.tif
102
RTVSPost2010PropOp54
 70
     1
102
RTVSPost2010Prop55
280
     0
102
RTVSPost2010PropOp55
 70
     1
102
RTVSPost2010Prop56
140
1.0
102
RTVSPost2010PropOp56
 70
     1
102
RTVSPost2010Prop57
140
1.0
102
RTVSPost2010PropOp57
 70
     1
  0
XRECORD
  5
378
102
{ACAD_REACTORS
330
377
102
}
330
377
100
AcDbXrecord
280
     1
102
RTVSPropertyOp0
 70
     1
102
RTVSPropertyOp1
 70
     1
102
RTVSPropertyOp2
 70
     1
102
RTVSPropertyOp3
 70
     1
102
RTVSPropertyOp4
 70
     1
102
RTVSPropertyOp5
 70
     1
102
RTVSPropertyOp6
 70
     1
102
RTVSPropertyOp7
 70
     1
102
RTVSPropertyOp8
 70
     1
102
RTVSPropertyOp9
 70
     1
102
RTVSPropertyOp10
 70
     1
102
RTVSPropertyOp11
 70
     1
102
RTVSPropertyOp12
 70
     1
102
RTVSPropertyOp13
 70
     1
102
RTVSPropertyOp14
 70
     1
102
RTVSPropertyOp15
 70
     1
102
RTVSPropertyOp16
 70
     1
102
RTVSPropertyOp17
 70
     1
102
RTVSPropertyOp18
 70
     1
102
RTVSPropertyOp19
 70
     1
102
RTVSPropertyOp20
 70
     1
102
RTVSPropertyOp21
 70
     1
102
RTVSPropertyOp22
 70
     1
102
RTVSPropertyOp23
 70
     1
102
RTVSPropertyOp24
 70
     1
102
RTVSPropertyOp25
 70
     1
102
RTVSPropertyOp26
 70
     1
102
RTVSPropertyOp27
 70
     1
102
RTVSPropertyOp28
 70
     1
102
RTVSPropertyOp29
 70
     1
102
RTVSPropertyOp30
 70
     1
102
RTVSPropertyOp31
 70
     1
102
RTVSPropertyOp32
 70
     1
102
RTVSPropertyOp33
 70
     1
102
RTVSPropertyOp34
 70
     1
102
RTVSPropertyOp35
 70
     1
102
RTVSPropertyOp36
 70
     1
102
RTVSPropertyOp37
 70
     1
102
RTVSPropertyOp38
 70
     1
102
RTVSPropertyOp39
 70
     1
102
RTVSPropertyOp40
 70
     1
102
RTVSPropertyOp41
 70
     1
102
RTVSPropertyOp42
 70
     1
102
RTVSPropertyOp43
 70
     1
102
RTVSPropertyOp44
 70
     1
102
RTVSPropertyOp45
 70
     1
102
RTVSPropertyOp46
 70
     1
102
RTVSPropertyOp47
 70
     1
102
RTVSPropertyOp48
 70
     1
102
RTVSPropertyOp49
 70
     1
102
RTVSPropertyOp50
 70
     1
102
RTVSPropertyOp51
 70
     0
102
RTVSPropertyOp52
 70
     0
102
RTVSPropertyOp53
 70
     1
102
RTVSPropertyOp54
 70
     1
102
RTVSPropertyOp55
 70
     1
102
RTVSPropertyOp56
 70
     1
102
RTVSPropertyOp57
 70
     1
102
RTVSPost2010Prop28
280
     0
102
RTVSPost2010PropOp28
 70
     1
102
RTVSPost2010Prop29
280
     1
102
RTVSPost2010PropOp29
 70
     1
102
RTVSPost2010Prop30
280
     1
102
RTVSPost2010PropOp30
 70
     1
102
RTVSPost2010Prop31
280
     0
102
RTVSPost2010PropOp31
 70
     1
102
RTVSPost2010Prop32
280
     0
102
RTVSPost2010PropOp32
 70
     1
102
RTVSPost2010Prop33
280
     0
102
RTVSPost2010PropOp33
 70
     1
102
RTVSPost2010Prop34
280
     0
102
RTVSPost2010PropOp34
 70
     1
102
RTVSPost2010Prop35
280
     0
102
RTVSPost2010PropOp35
 70
     1
102
RTVSPost2010Prop36
280
     0
102
RTVSPost2010PropOp36
 70
     1
102
RTVSPost2010Prop37
 90
       50
102
RTVSPost2010PropOp37
 70
     1
102
RTVSPost2010Prop38
140
0.0
102
RTVSPost2010PropOp38
 70
     1
102
RTVSPost2010Prop39
140
1.0
102
RTVSPost2010PropOp39
 70
     1
102
RTVSPost2010Prop40
 90
        0
102
RTVSPost2010PropOp40
 70
     1
102
RTVSPost2010Prop41ColorIndex
 90
       18
102
RTVSPost2010Prop41ColorRGB
 90
        0
102
RTVSPost2010PropOp41
 70
     1
102
RTVSPost2010Prop42
 90
       50
102
RTVSPost2010PropOp42
 70
     1
102
RTVSPost2010Prop43
 90
        3
102
RTVSPost2010PropOp43
 70
     1
102
RTVSPost2010Prop44ColorIndex
 90
        5
102
RTVSPost2010Prop44ColorRGB
 90
      255
102
RTVSPost2010PropOp44
 70
     1
102
RTVSPost2010Prop45
280
     0
102
RTVSPost2010PropOp45
 70
     1
102
RTVSPost2010Prop46
 90
       50
102
RTVSPost2010PropOp46
 70
     1
102
RTVSPost2010Prop47
 90
       50
102
RTVSPost2010PropOp47
 70
     1
102
RTVSPost2010Prop48
 90
       50
102
RTVSPost2010PropOp48
 70
     1
102
RTVSPost2010Prop49
280
     0
102
RTVSPost2010PropOp49
 70
     1
102
RTVSPost2010Prop50
 90
       50
102
RTVSPost2010PropOp50
 70
     1
102
RTVSPost2010Prop51ColorIndex
 90
      256
102
RTVSPost2010Prop51ColorRGB
 90
-16777216
102
RTVSPost2010PropOp51
 70
     0
102
RTVSPost2010Prop52
140
1.0
102
RTVSPost2010PropOp52
 70
     0
102
RTVSPost2010Prop53
 90
        2
102
RTVSPost2010PropOp53
 70
     1
102
RTVSPost2010Prop54
  1
strokes_ogs.tif
102
RTVSPost2010PropOp54
 70
     1
102
RTVSPost2010Prop55
280
     0
102
RTVSPost2010PropOp55
 70
     1
102
RTVSPost2010Prop56
140
1.0
102
RTVSPost2010PropOp56
 70
     1
102
RTVSPost2010Prop57
140
1.0
102
RTVSPost2010PropOp57
 70
     1
  0
ENDSEC
  0
EOF
