  0
SECTION
  2
HEADER
  9
$ACADVER
  1
AC1014
  9
$ACADMAINTVER
 70
             0
  9
$DWGCODEPAGE
  3
ANSI_1252
  9
$INSBASE
 10
0.0
 20
0.0
 30
0.0
  9
$EXTMIN
 10
1.00000000000000E+20
 20
1.00000000000000E+20
 30
1.00000000000000E+20
  9
$EXTMAX
 10
-1.00000000000000E+20
 20
-1.00000000000000E+20
 30
-1.00000000000000E+20
  9
$LIMMIN
 10
0.0
 20
0.0
  9
$LIMMAX
 10
0.0
 20
0.0
  9
$ORTHOMODE
 70
             0
  9
$REGENMODE
 70
             1
  9
$FILLMODE
 70
             1
  9
$QTEXTMODE
 70
             0
  9
$MIRRTEXT
 70
             1
  9
$DRAGMODE
 70
             2
  9
$LTSCALE
 40
1.0
  9
$OSMODE
 70
             0
  9
$ATTMODE
 70
             1
  9
$TEXTSIZE
 40
0.2
  9
$TRACEWID
 40
0.05
  9
$TEXTSTYLE
  7
STANDARD
  9
$CLAYER
  8
0
  9
$CELTYPE
  6
CONTINUOUS
  9
$CECOLOR
 62
           256
  9
$CELTSCALE
 40
1.0
  9
$DELOBJ
 70
             1
  9
$DISPSILH
 70
             0
  9
$DIMSCALE
 40
1.0
  9
$DIMASZ
 40
0.18
  9
$DIMEXO
 40
0.0625
  9
$DIMDLI
 40
0.38
  9
$DIMRND
 40
0.0
  9
$DIMDLE
 40
0.0
  9
$DIMEXE
 40
0.18
  9
$DIMTP
 40
0.0
  9
$DIMTM
 40
0.0
  9
$DIMTXT
 40
0.18
  9
$DIMCEN
 40
0.09
  9
$DIMTSZ
 40
0.0
  9
$DIMTOL
 70
             0
  9
$DIMLIM
 70
             0
  9
$DIMTIH
 70
             1
  9
$DIMTOH
 70
             1
  9
$DIMSE1
 70
             0
  9
$DIMSE2
 70
             0
  9
$DIMTAD
 70
             0
  9
$DIMZIN
 70
             0
  9
$DIMBLK
  1

  9
$DIMASO
 70
             1
  9
$DIMSHO
 70
             1
  9
$DIMPOST
  1

  9
$DIMAPOST
  1

  9
$DIMALT
 70
             0
  9
$DIMALTD
 70
             2
  9
$DIMALTF
 40
25.4
  9
$DIMLFAC
 40
1.0
  9
$DIMTOFL
 70
             0
  9
$DIMTVP
 40
0.0
  9
$DIMTIX
 70
             0
  9
$DIMSOXD
 70
             0
  9
$DIMSAH
 70
             0
  9
$DIMBLK1
  1

  9
$DIMBLK2
  1

  9
$DIMSTYLE
  2
STANDARD
  9
$DIMCLRD
 70
             0
  9
$DIMCLRE
 70
             0
  9
$DIMCLRT
 70
             0
  9
$DIMTFAC
 40
1.0
  9
$DIMGAP
 40
0.09
  9
$DIMJUST
 70
             0
  9
$DIMSD1
 70
             0
  9
$DIMSD2
 70
             0
  9
$DIMTOLJ
 70
             1
  9
$DIMTZIN
 70
             0
  9
$DIMALTZ
 70
             0
  9
$DIMALTTZ
 70
             0
  9
$DIMFIT
 70
             3
  9
$DIMUPT
 70
             0
  9
$DIMUNIT
 70
             2
  9
$DIMDEC
 70
             4
  9
$DIMTDEC
 70
             4
  9
$DIMALTU
 70
             2
  9
$DIMALTTD
 70
             2
  9
$DIMTXSTY
  7
STANDARD
  9
$DIMAUNIT
 70
             0
  9
$LUNITS
 70
             2
  9
$LUPREC
 70
             4
  9
$SKETCHINC
 40
0.1
  9
$FILLETRAD
 40
0.0
  9
$AUNITS
 70
             0
  9
$AUPREC
 70
             0
  9
$MENU
  1
acad
  9
$ELEVATION
 40
0.0
  9
$PELEVATION
 40
0.0
  9
$THICKNESS
 40
0.0
  9
$LIMCHECK
 70
             0
  9
$BLIPMODE
 70
             1
  9
$CHAMFERA
 40
0.0
  9
$CHAMFERB
 40
0.0
  9
$CHAMFERC
 40
0.0
  9
$CHAMFERD
 40
0.0
  9
$SKPOLY
 70
             0
  9
$TDCREATE
 40
0.000000000
  9
$TDUPDATE
 40
0.000000000
  9
$TDINDWG
 40
0.0000000000
  9
$TDUSRTIMER
 40
0.0000000000
  9
$USRTIMER
 70
             1
  9
$ANGBASE
 50
0.0
  9
$ANGDIR
 70
             0
  9
$PDMODE
 70
             0
  9
$PDSIZE
 40
0.0
  9
$PLINEWID
 40
0.0
  9
$COORDS
 70
             0
  9
$SPLFRAME
 70
             0
  9
$SPLINETYPE
 70
             6
  9
$SPLINESEGS
 70
             8
  9
$ATTDIA
 70
             0
  9
$ATTREQ
 70
             1
  9
$HANDLING
 70
             1
  9
$HANDSEED
  5
157
  9
$SURFTAB1
 70
             6
  9
$SURFTAB2
 70
             6
  9
$SURFTYPE
 70
             6
  9
$SURFU
 70
             6
  9
$SURFV
 70
             6
  9
$UCSNAME
  2

  9
$UCSORG
 10
0.0
 20
0.0
 30
0.0
  9
$UCSXDIR
 10
1.0
 20
0.0
 30
0.0
  9
$UCSYDIR
 10
0.0
 20
1.0
 30
0.0
  9
$PUCSNAME
  2

  9
$PUCSORG
 10
0.0
 20
0.0
 30
0.0
  9
$PUCSXDIR
 10
1.0
 20
0.0
 30
0.0
  9
$PUCSYDIR
 10
0.0
 20
1.0
 30
0.0
  9
$USERI1
 70
             0
  9
$USERI2
 70
             0
  9
$USERI3
 70
             0
  9
$USERI4
 70
             0
  9
$USERI5
 70
             0
  9
$USERR1
 40
11.6
  9
$USERR2
 40
0.0
  9
$USERR3
 40
0.0
  9
$USERR4
 40
0.0
  9
$USERR5
 40
0.0
  9
$WORLDVIEW
 70
             1
  9
$SHADEDGE
 70
             3
  9
$SHADEDIF
 70
            70
  9
$TILEMODE
 70
             1
  9
$MAXACTVP
 70
            16
  9
$PINSBASE
 10
0.0
 20
0.0
 30
0.0
  9
$PLIMCHECK
 70
             0
  9
$PEXTMIN
 10
1.00000000000000E+20
 20
1.00000000000000E+20
 30
1.00000000000000E+20
  9
$PEXTMAX
 10
-1.00000000000000E+20
 20
-1.00000000000000E+20
 30
-1.00000000000000E+20
  9
$PLIMMIN
 10
0.0
 20
0.0
  9
$PLIMMAX
 10
12.0
 20
9.0
  9
$UNITMODE
 70
             0
  9
$VISRETAIN
 70
             0
  9
$PLINEGEN
 70
             1
  9
$PSLTSCALE
 70
             0
  9
$TREEDEPTH
 70
          3020
  9
$PICKSTYLE
 70
             1
  9
$CMLSTYLE
  2
STANDARD
  9
$CMLJUST
 70
             0
  9
$CMLSCALE
 40
1.0
  9
$PROXYGRAPHICS
 70
             0
  9
$MEASUREMENT
 70
             1
  0
ENDSEC
  0
SECTION
  2
CLASSES
  0
CLASS
  1
LWPOLYLINE
  2
AcDbPolyline
  3
"AutoCAD"
 90
        0
280
             0
281
             1
  0
CLASS
  1
IMAGE
  2
AcDbRasterImage
  3
ISM
 90
      127
280
             0
281
             1
  0
CLASS
  1
OLE2FRAME
  2
AcDbOle2Frame
  3
""
 90
        0
280
             0
281
             1
  0
CLASS
  1
HATCH
  2
AcDbHatch
  3
"ACAD_SEDONA"
 90
        0
280
             0
281
             1
  0
CLASS
  1
DICTIONARYVAR
  2
AcDbDictionaryVar
  3
"AutoCAD"
 90
        0
280
             0
281
             0
  0
CLASS
  1
RASTERVARIABLES
  2
AcDbRasterVariables
  3
ISM
 90
        0
280
             0
281
             0
  0
CLASS
  1
IMAGEDEF
  2
AcDbRasterImageDef
  3
ISM
 90
        0
280
             0
281
             0
  0
CLASS
  1
IMAGEDEF_REACTOR
  2
AcDbRasterImageDefReactor
  3
ISM
 90
        1
280
             0
281
             0
  0
CLASS
  1
IDBUFFER
  2
AcDbIdBuffer
  3
"Acad"
 90
        0
280
             0
281
             0
  0
CLASS
  1
SPATIAL_FILTER
  2
AcDbSpatialFilter
  3
"Acad"
 90
        0
280
             0
281
             0
  0
CLASS
  1
XRECORD
  2
AcDbXrecord
  3
"<Built In>"
 90
        0
280
             0
281
             0
  0
CLASS
  1
SORTENTSTABLE
  2
AcDbSortentsTable
  3
"AutoCAD"
 90
        0
280
             0
281
             0
  0
CLASS
  1
LAYER_INDEX
  2
AcDbLayerIndex
  3
"Acad"
 90
        0
280
             0
281
             0
  0
CLASS
  1
SPATIAL_INDEX
  2
AcDbSpatialIndex
  3
"Acad"
 90
        0
280
             0
281
             0
  0
CLASS
  1
OBJECT_PTR
  2
CAseDLPNTableRecord
  3
"ASE-LPNTableRecord"
 90
        1
280
             0
281
             0
  0
CLASS
  1
LAYOUT
  2
AcDbLayout
  3
"AutoCAD 2000"
 90
        1
280
             0
281
             0
  0
CLASS
  1
PLOTSETTINGS
  2
AcDbPlotSettings
  3
"AutoCAD 2000"
 90
        1
280
             0
281
             0
  0
CLASS
  1
ACDBDICTIONARYWDFLT
  2
AcDbDictionaryWithDefault
  3
"AutoCAD 2000"
 90
        1
280
             0
281
             0
  0
CLASS
  1
ACDBPLACEHOLDER
  2
AcDbPlaceHolder
  3
"AutoCAD 2000"
 90
        1
280
             0
281
             0
  0
ENDSEC
  0
SECTION
  2
TABLES
  0
TABLE
  2
VPORT
  5
7
100
AcDbSymbolTable
 70
             1
  0
VPORT
  5
15
100
AcDbSymbolTableRecord
100
AcDbViewportTableRecord
  2
*ACTIVE
 70
             0
 10
0.0
 20
0.0
 11
1.0
 21
1.0
 12
-38.91225094631344
 22
-51.39751850000025
 13
0.0
 23
0.0
 14
1.0
 24
1.0
 15
0.0
 25
0.0
 16
0.0
 26
0.0
 36
1.0
 17
0.0
 27
0.0
 37
0.0
 40
300.82014490000057
 41
1.60267857142857
 42
50.0
 43
0.0
 44
0.0
 50
0.0
 51
0.0
 71
             0
 72
           100
 73
             1
 74
             1
 75
             0
 76
             0
 77
             0
 78
             0
  0
ENDTAB
  0
TABLE
  2
LTYPE
  5
4
100
AcDbSymbolTable
 70
            11
  0
LTYPE
  5
11
100
AcDbSymbolTableRecord
100
AcDbLinetypeTableRecord
  2
BYBLOCK
 70
            64
  3

 72
            65
 73
             0
 40
0.0
  0
LTYPE
  5
12
100
AcDbSymbolTableRecord
100
AcDbLinetypeTableRecord
  2
BYLAYER
 70
            64
  3

 72
            65
 73
             0
 40
0.0
  0
LTYPE
  5
13
100
AcDbSymbolTableRecord
100
AcDbLinetypeTableRecord
  2
CONTINUOUS
 70
            64
  3
Solid line
 72
            65
 73
             0
 40
0.0
  0
LTYPE
  5
1D
100
AcDbSymbolTableRecord
100
AcDbLinetypeTableRecord
  2
DASHED
 70
            64
  3
Dashed
 72
            65
 73
             2
 40
15.0
 49
12.0
 74
             0
 49
-3.0
 74
             0
  0
LTYPE
  5
1E
100
AcDbSymbolTableRecord
100
AcDbLinetypeTableRecord
  2
DOTTED
 70
            64
  3
Dotted
 72
            65
 73
             2
 40
3.5
 49
0.5
 74
             0
 49
-3.0
 74
             0
  0
LTYPE
  5
1F
100
AcDbSymbolTableRecord
100
AcDbLinetypeTableRecord
  2
DOT_CENTER
 70
            64
  3
Dot_Center
 72
            65
 73
             4
 40
2.0
 49
1.25
 74
             0
 49
-0.25
 74
             0
 49
0.25
 74
             0
 49
-0.25
 74
             0
  0
LTYPE
  5
20
100
AcDbSymbolTableRecord
100
AcDbLinetypeTableRecord
  2
LONG_DASHED
 70
            64
  3
Long_Dashed
 72
            65
 73
             2
 40
2.0
 49
1.5
 74
             0
 49
-0.5
 74
             0
  0
LTYPE
  5
21
100
AcDbSymbolTableRecord
100
AcDbLinetypeTableRecord
  2
DASH_CENTER
 70
            64
  3
Dash_Center
 72
            65
 73
             4
 40
36.0
 49
24.0
 74
             0
 49
-3.0
 74
             0
 49
6.0
 74
             0
 49
-3.0
 74
             0
  0
LTYPE
  5
22
100
AcDbSymbolTableRecord
100
AcDbLinetypeTableRecord
  2
PHANTOM
 70
            64
  3
Phantom
 72
            65
 73
             6
 40
2.5
 49
1.25
 74
             0
 49
-0.25
 74
             0
 49
0.25
 74
             0
 49
-0.25
 74
             0
 49
0.25
 74
             0
 49
-0.25
 74
             0
  0
LTYPE
  5
23
100
AcDbSymbolTableRecord
100
AcDbLinetypeTableRecord
  2
CENTER_DASH_DASH
 70
            64
  3
Center_Dash_Dash
 72
            65
 73
             6
 40
22.0
 49
12.0
 74
             0
 49
-3.0
 74
             0
 49
0.5
 74
             0
 49
-3.0
 74
             0
 49
0.5
 74
             0
 49
-3.0
 74
             0
  0
LTYPE
  5
24
100
AcDbSymbolTableRecord
100
AcDbLinetypeTableRecord
  2
DASHDOT
 70
            64
  3
DASHDOT
 72
            65
 73
             4
 40
16.0
 49
10.0
 74
             0
 49
-3.0
 74
             0
 49
0.0
 74
             0
 49
-3.0
 74
             0
  0
ENDTAB
  0
TABLE
  2
LAYER
  5
2
100
AcDbSymbolTable
 70
             7
  0
LAYER
  5
14
100
AcDbSymbolTableRecord
100
AcDbLayerTableRecord
  2
0
 70
             0
 62
             7
  6
CONTINUOUS
  0
LAYER
  5
25
100
AcDbSymbolTableRecord
100
AcDbLayerTableRecord
  2
1
 70
             0
 62
             7
  6
CONTINUOUS
  0
LAYER
  5
26
100
AcDbSymbolTableRecord
100
AcDbLayerTableRecord
  2
LC-001-002-----0
 70
             0
 62
             7
  6
CONTINUOUS
  0
LAYER
  5
27
100
AcDbSymbolTableRecord
100
AcDbLayerTableRecord
  2
LC-005-002-RND-0
 70
             0
 62
             7
  6
CONTINUOUS
  0
LAYER
  5
28
100
AcDbSymbolTableRecord
100
AcDbLayerTableRecord
  2
LC-006-005-----0
 70
             0
 62
             7
  6
CONTINUOUS
  0
LAYER
  5
29
100
AcDbSymbolTableRecord
100
AcDbLayerTableRecord
  2
LC-008-001-----0
 70
             0
 62
             7
  6
CONTINUOUS
  0
LAYER
  5
2A
100
AcDbSymbolTableRecord
100
AcDbLayerTableRecord
  2
LC-010-001-RND-0
 70
             0
 62
             7
  6
CONTINUOUS
  0
ENDTAB
  0
TABLE
  2
STYLE
  5
3
100
AcDbSymbolTable
 70
             2
  0
STYLE
  5
17
100
AcDbSymbolTableRecord
100
AcDbTextStyleTableRecord
  2
STANDARD
 70
             0
 40
0.0
 41
1.0
 50
0.0
 71
             0
 42
0.0
  3
txt
  4

  0
STYLE
  5
146
100
AcDbSymbolTableRecord
100
AcDbTextStyleTableRecord
  2
CONVERTER_1
 70
             0
 40
0.0
 41
0.9
 50
0.0
 71
             0
 42
0.0
  3
txt.shx
  4

  0
ENDTAB
  0
TABLE
  2
VIEW
  5
5
100
AcDbSymbolTable
 70
             0
  0
ENDTAB
  0
TABLE
  2
UCS
  5
6
100
AcDbSymbolTable
 70
             0
  0
ENDTAB
  0
TABLE
  2
APPID
  5
8
100
AcDbSymbolTable
 70
             1
  0
APPID
  5
16
100
AcDbSymbolTableRecord
100
AcDbRegAppTableRecord
  2
ACAD
 70
             0
  0
ENDTAB
  0
TABLE
  2
DIMSTYLE
  5
9
100
AcDbSymbolTable
 70
             3
  0
DIMSTYLE
105
18
100
AcDbSymbolTableRecord
100
AcDbDimStyleTableRecord
  2
STANDARD
 70
             0
  3

  4

  5

  6

  7

 40
1.0
 41
0.18
 42
0.0625
 43
0.38
 44
0.18
 45
0.0
 46
0.0
 47
0.0
 48
0.0
 71
             0
 72
             0
 73
             1
 74
             1
 75
             0
 76
             0
 77
             0
 78
             0
140
0.18
141
0.09
142
0.0
143
25.4
144
1.0
145
0.0
146
1.0
147
0.09
170
             0
171
             2
172
             0
173
             0
174
             0
175
             0
176
             0
177
             0
178
             0
270
             2
271
             4
272
             4
273
             2
274
             2
275
             0
280
             0
281
             0
282
             0
283
             1
284
             0
285
             0
286
             0
287
             0
288
             0
340
17
  0
DIMSTYLE
105
149
100
AcDbSymbolTableRecord
100
AcDbDimStyleTableRecord
  2
ME10_DIM_0
 70
             0
  3

  4

  5

  6

  7

 40
1.0
 41
10.0
 42
0.0
 43
0.38
 44
2.0
 45
0.0
 46
0.0
 47
0.0
 48
0.0
 71
             0
 72
             0
 73
             0
 74
             0
 75
             0
 76
             0
 77
             1
 78
             8
140
10.0
141
0.09
142
0.0
143
25.4
144
1.0
145
0.0
146
1.0
147
0.625
170
             0
171
             2
172
             0
173
             1
174
             0
175
             0
176
             4
177
             4
178
             1
270
             2
271
             2
272
             4
273
             2
274
             2
275
             0
280
             0
281
             0
282
             0
283
             1
284
             0
285
             0
286
             0
287
             0
288
             0
340
17
  0
DIMSTYLE
105
154
100
AcDbSymbolTableRecord
100
AcDbDimStyleTableRecord
  2
ME10_DIM_1
 70
             0
  3
DN<>
  4

  5

  6

  7

 40
1.0
 41
10.0
 42
0.0
 43
0.38
 44
2.0
 45
0.0
 46
0.0
 47
0.0
 48
0.0
 71
             0
 72
             0
 73
             0
 74
             0
 75
             0
 76
             0
 77
             1
 78
             8
140
10.0
141
0.09
142
0.0
143
25.4
144
1.0
145
0.0
146
1.0
147
0.625
170
             0
171
             2
172
             0
173
             1
174
             0
175
             0
176
             4
177
             4
178
             1
270
             2
271
             0
272
             4
273
             2
274
             2
275
             0
280
             0
281
             0
282
             0
283
             1
284
             0
285
             0
286
             0
287
             0
288
             0
340
17
  0
ENDTAB
  0
TABLE
  2
BLOCK_RECORD
  5
1
100
AcDbSymbolTable
 70
             6
  0
BLOCK_RECORD
  5
A
100
AcDbSymbolTableRecord
100
AcDbBlockTableRecord
  2
*MODEL_SPACE
  0
BLOCK_RECORD
  5
B
100
AcDbSymbolTableRecord
100
AcDbBlockTableRecord
  2
*PAPER_SPACE
  0
BLOCK_RECORD
  5
2B
100
AcDbSymbolTableRecord
100
AcDbBlockTableRecord
  2
HL222_1_ANSCHLUSSSTUTZEN
  0
BLOCK_RECORD
  5
2D
100
AcDbSymbolTableRecord
100
AcDbBlockTableRecord
  2
0222_3E_GI-MANSCHETTE_2_1E
  0
BLOCK_RECORD
  5
2F
100
AcDbSymbolTableRecord
100
AcDbBlockTableRecord
  2
0222_1E_SP_LROHR_KOMPLETT
  0
BLOCK_RECORD
  5
31
100
AcDbSymbolTableRecord
100
AcDbBlockTableRecord
  2
0222_2E_MUTTER_MIT_KAPPEN
  0
BLOCK_RECORD
  5
13F
100
AcDbSymbolTableRecord
100
AcDbBlockTableRecord
  2
*D4
  0
BLOCK_RECORD
  5
14B
100
AcDbSymbolTableRecord
100
AcDbBlockTableRecord
  2
*D5
  0
ENDTAB
  0
ENDSEC
  0
SECTION
  2
BLOCKS
  0
BLOCK
  5
D
100
AcDbEntity
  8
0
100
AcDbBlockBegin
  2
*MODEL_SPACE
 70
             0
 10
0.0
 20
0.0
 30
0.0
  3
*MODEL_SPACE
  1

  0
ENDBLK
  5
E
100
AcDbEntity
  8
0
100
AcDbBlockEnd
  0
BLOCK
  5
F
100
AcDbEntity
 67
             1
  8
0
100
AcDbBlockBegin
  2
*PAPER_SPACE
 70
             0
 10
0.0
 20
0.0
 30
0.0
  3
*PAPER_SPACE
  1

  0
ENDBLK
  5
10
100
AcDbEntity
 67
             1
  8
0
100
AcDbBlockEnd
  0
BLOCK
  5
2C
100
AcDbEntity
  8
0
100
AcDbBlockBegin
  2
HL222_1_ANSCHLUSSSTUTZEN
 70
             0
 10
-222.0406381846268
 20
-188.1339480000006
 30
0.0
  3
HL222_1_ANSCHLUSSSTUTZEN
  1

  0
ARC
  5
59
100
AcDbEntity
  8
LC-008-001-----0
  6
CONTINUOUS
 62
             7
100
AcDbCircle
 10
-23.077
 20
-63.47049200000001
 40
1.96400000000005
100
AcDbArc
 50
180.0
 51
-90.000114209175
  0
ARC
  5
58
100
AcDbEntity
  8
LC-008-001-----0
  6
CONTINUOUS
 62
             7
100
AcDbCircle
 10
-23.077
 20
63.47049199999998
 40
1.96400000000805
100
AcDbArc
 50
90.000114209175
 51
180.0
  0
ARC
  5
57
100
AcDbEntity
  8
LC-008-001-----0
  6
CONTINUOUS
 62
             7
100
AcDbCircle
 10
-45.85162400000024
 20
58.42891199999997
 40
2.94599999999968
100
AcDbArc
 50
90.04720860800667
 51
170.00006099999925
  0
ARC
  5
56
100
AcDbEntity
  8
LC-010-001-RND-0
  6
CONTINUOUS
 62
             7
100
AcDbCircle
 10
-51.90539200000023
 20
-58.05000000000001
 40
2.95000000000034
100
AcDbArc
 50
9.99999599999024
 51
90.0
  0
ARC
  5
55
100
AcDbEntity
  8
LC-008-001-----0
  6
CONTINUOUS
 62
             7
100
AcDbCircle
 10
-45.85162400000024
 20
-58.42891200000003
 40
2.94599999999973
100
AcDbArc
 50
-170.00006099999939
 51
-90.04720860800667
  0
ARC
  5
54
100
AcDbEntity
  8
LC-010-001-RND-0
  6
CONTINUOUS
 62
             7
100
AcDbCircle
 10
-51.90539200000018
 20
58.04999999999995
 40
2.94999999999997
100
AcDbArc
 50
-90.00000000000097
 51
-9.99999599998951
  0
ARC
  5
53
100
AcDbEntity
  8
LC-008-001-----0
  6
CONTINUOUS
 62
             7
100
AcDbCircle
 10
-45.85162400000024
 20
58.42891199999997
 40
2.94599999999978
100
AcDbArc
 50
89.95279138966522
 51
90.04720860800667
  0
LINE
  5
52
100
AcDbEntity
  8
LC-008-001-----0
  6
CONTINUOUS
 62
             7
100
AcDbLine
 10
0.0
 20
-63.64726000000002
 11
0.0
 21
-65.43453800000003
  0
LINE
  5
51
100
AcDbEntity
  8
1
  6
CONTINUOUS
 62
             7
100
AcDbLine
 10
-49.00020909285115
 20
-57.53773807870303
 11
-48.75286818501309
 21
-58.94047644259501
  0
LINE
  5
50
100
AcDbEntity
  8
LC-001-002-----0
  6
CONTINUOUS
 62
             7
100
AcDbLine
 10
-180.00000000000011
 20
53.88887
 11
-180.00000000000011
 21
52.368382
  0
LINE
  5
4F
100
AcDbEntity
  8
LC-001-002-----0
  6
DASHDOT
 62
             2
100
AcDbLine
 10
-182.00000000000011
 20
0.0
 11
4.00000000000003
 21
0.0
  0
LINE
  5
4E
100
AcDbEntity
  8
LC-008-001-----0
  6
CONTINUOUS
 62
             7
100
AcDbLine
 10
-45.85405134359576
 20
-61.37491100000003
 11
-25.04100000000005
 21
-61.37491100000003
  0
LINE
  5
4D
100
AcDbEntity
  8
LC-008-001-----0
  6
CONTINUOUS
 62
             7
100
AcDbLine
 10
0.0
 20
63.338911
 11
0.0
 21
-63.64726000000002
  0
LINE
  5
4C
100
AcDbEntity
  8
LC-008-001-----0
  6
CONTINUOUS
 62
             7
100
AcDbLine
 10
0.0
 20
63.338911
 11
0.0
 21
65.43453799999998
  0
LINE
  5
4B
100
AcDbEntity
  8
LC-008-001-----0
  6
CONTINUOUS
 62
             7
100
AcDbLine
 10
-45.84919665628502
 20
61.374911
 11
-25.04100000000005
 21
61.374911
  0
LINE
  5
4A
100
AcDbEntity
  8
LC-008-001-----0
  6
CONTINUOUS
 62
             7
100
AcDbLine
 10
-25.04100000000005
 20
63.47049199999998
 11
-25.04100000000005
 21
61.374911
  0
LINE
  5
49
100
AcDbEntity
  8
LC-008-001-----0
  6
CONTINUOUS
 62
             7
100
AcDbLine
 10
-25.04100000000005
 20
-63.47049200000001
 11
-25.04100000000005
 21
-61.37491100000003
  0
LINE
  5
48
100
AcDbEntity
  8
LC-008-001-----0
  6
CONTINUOUS
 62
             7
100
AcDbLine
 10
0.0
 20
65.43453799999998
 11
-23.07700391489254
 21
65.43449200000413
  0
LINE
  5
47
100
AcDbEntity
  8
LC-008-001-----0
  6
CONTINUOUS
 62
             7
100
AcDbLine
 10
0.0
 20
-65.43453800000003
 11
-23.07700391489254
 21
-65.43449200000416
  0
LINE
  5
46
100
AcDbEntity
  8
LC-001-002-----0
  6
CONTINUOUS
 62
             7
100
AcDbLine
 10
-175.4800000000001
 20
55.09999999999997
 11
-180.00000000000011
 21
53.88887
  0
LINE
  5
45
100
AcDbEntity
  8
LC-001-002-----0
  6
CONTINUOUS
 62
             7
100
AcDbLine
 10
-51.90539200000023
 20
55.09999999999997
 11
-175.4800000000001
 21
55.09999999999997
  0
LINE
  5
44
100
AcDbEntity
  8
LC-001-002-----0
  6
CONTINUOUS
 62
             7
100
AcDbLine
 10
-175.4800000000001
 20
-55.10000000000002
 11
-180.00000000000011
 21
-53.88887000000003
  0
LINE
  5
43
100
AcDbEntity
  8
LC-001-002-----0
  6
CONTINUOUS
 62
             7
100
AcDbLine
 10
-51.90539200000023
 20
-55.10000000000002
 11
-175.4800000000001
 21
-55.10000000000002
  0
LINE
  5
42
100
AcDbEntity
  8
1
  6
CONTINUOUS
 62
             7
100
AcDbLine
 10
-49.00020909285109
 20
57.537738078703
 11
-48.75286818501309
 21
58.94047644259496
  0
LINE
  5
41
100
AcDbEntity
  8
LC-001-002-----0
  6
CONTINUOUS
 62
             7
100
AcDbLine
 10
-180.00000000000011
 20
52.368382
 11
-180.00000000000011
 21
-53.88887000000003
  0
LINE
  5
40
100
AcDbEntity
  8
1
  6
CONTINUOUS
 62
             7
100
AcDbLine
 10
-25.04100000000005
 20
61.374911
 11
-25.04100000000005
 21
-61.37491100000003
  0
LINE
  5
3F
100
AcDbEntity
  8
1
  6
CONTINUOUS
 62
             7
100
AcDbLine
 10
-45.85405134359576
 20
-61.37491100000003
 11
-45.85405134359576
 21
61.374911
  0
LINE
  5
3E
100
AcDbEntity
  8
1
  6
CONTINUOUS
 62
             7
100
AcDbLine
 10
-51.90539200000023
 20
55.09999999999997
 11
-51.90539200000023
 21
-55.10000000000002
  0
LINE
  5
3D
100
AcDbEntity
  8
1
  6
CONTINUOUS
 62
             7
100
AcDbLine
 10
-49.00020909285115
 20
-57.53773807870303
 11
-49.00020909285115
 21
58.94047644259496
  0
LINE
  5
3C
100
AcDbEntity
  8
1
  6
CONTINUOUS
 62
             7
100
AcDbLine
 10
-23.07700391489254
 20
65.43449200000413
 11
-23.07700391489254
 21
-65.43449200000416
  0
LINE
  5
3B
100
AcDbEntity
  8
1
  6
CONTINUOUS
 62
             7
100
AcDbLine
 10
-175.4800000000001
 20
55.09999999999997
 11
-175.4800000000001
 21
-55.10000000000002
  0
POINT
  5
3A
100
AcDbEntity
  8
0
 62
             7
100
AcDbPoint
 10
-180.00000000000011
 20
53.88887
  0
POINT
  5
39
100
AcDbEntity
  8
0
 62
             7
100
AcDbPoint
 10
0.0
 20
65.43453799999998
  0
ENDBLK
  5
5A
100
AcDbEntity
  8
0
100
AcDbBlockEnd
  0
BLOCK
  5
2E
100
AcDbEntity
  8
0
100
AcDbBlockBegin
  2
0222_3E_GI-MANSCHETTE_2_1E
 70
             0
 10
-163.50067099460591
 20
-376.3353689999982
 30
0.0
  3
0222_3E_GI-MANSCHETTE_2_1E
  1

  0
ARC
  5
CB
100
AcDbEntity
  8
LC-005-002-RND-0
  6
CONTINUOUS
 62
             7
100
AcDbCircle
 10
65.59983399999979
 20
-188.03394800000001
 40
0.09999999999991
100
AcDbArc
 50
180.0
 51
-45.0
  0
ARC
  5
CA
100
AcDbEntity
  8
LC-005-002-RND-0
  6
CONTINUOUS
 62
             7
100
AcDbCircle
 10
67.70842999999988
 20
-182.23536899999999
 40
0.09999999999999
100
AcDbArc
 50
90.0
 51
169.99999999979161
  0
ARC
  5
C9
100
AcDbEntity
  8
LC-005-002-RND-0
  6
CONTINUOUS
 62
             7
100
AcDbCircle
 10
71.1998339999999
 20
-188.03394800000001
 40
0.10000000000011
100
AcDbArc
 50
180.0
 51
-44.99999999995394
  0
ARC
  5
C8
100
AcDbEntity
  8
LC-005-002-RND-0
  6
CONTINUOUS
 62
             7
100
AcDbCircle
 10
66.6719389999999
 20
-186.96184199999999
 40
0.10000000000049
100
AcDbArc
 50
-45.00000000001151
 51
-10.00000000019707
  0
ARC
  5
C7
100
AcDbEntity
  8
LC-005-002-RND-0
  6
CONTINUOUS
 62
             7
100
AcDbCircle
 10
72.27193899999989
 20
-186.96184199999999
 40
0.10000000000049
100
AcDbArc
 50
-45.00000000001151
 51
-10.00000000020838
  0
ARC
  5
C6
100
AcDbEntity
  8
LC-005-002-RND-0
  6
CONTINUOUS
 62
             7
100
AcDbCircle
 10
76.79983399999989
 20
-188.03394800000001
 40
0.09999999999999
100
AcDbArc
 50
180.0
 51
-45.0
  0
ARC
  5
C5
100
AcDbEntity
  8
LC-005-002-RND-0
  6
CONTINUOUS
 62
             7
100
AcDbCircle
 10
77.8719389999998
 20
-186.96184199999999
 40
0.10000000000049
100
AcDbArc
 50
-45.00000000001151
 51
-10.00000000018859
  0
ARC
  5
C4
100
AcDbEntity
  8
LC-005-002-RND-0
  6
CONTINUOUS
 62
             7
100
AcDbCircle
 10
81.99983399999988
 20
-188.03394800000001
 40
0.09999999999999
100
AcDbArc
 50
180.0
 51
-44.99999999998849
  0
ARC
  5
C3
100
AcDbEntity
  8
LC-005-002-RND-0
  6
CONTINUOUS
 62
             7
100
AcDbCircle
 10
83.07193899999987
 20
-186.96184199999999
 40
0.10000000000051
100
AcDbArc
 50
-45.0
 51
-10.00000000020556
  0
ARC
  5
C2
100
AcDbEntity
  8
LC-005-002-RND-0
  6
CONTINUOUS
 62
             7
100
AcDbCircle
 10
65.39983399999989
 20
-182.23536899999999
 40
0.09999999999999
100
AcDbArc
 50
0.0
 51
90.0
  0
ARC
  5
C1
100
AcDbEntity
  8
LC-005-002-RND-0
  6
CONTINUOUS
 62
             7
100
AcDbCircle
 10
70.99983399999988
 20
-182.23536899999999
 40
0.09999999999991
100
AcDbArc
 50
0.0
 51
90.0
  0
ARC
  5
C0
100
AcDbEntity
  8
LC-005-002-RND-0
  6
CONTINUOUS
 62
             7
100
AcDbCircle
 10
73.30842999999987
 20
-182.23536899999999
 40
0.09999999999999
100
AcDbArc
 50
90.0
 51
169.99999999980295
  0
ARC
  5
BF
100
AcDbEntity
  8
LC-005-002-RND-0
  6
CONTINUOUS
 62
             7
100
AcDbCircle
 10
76.59983399999979
 20
-182.23536899999999
 40
0.10000000000011
100
AcDbArc
 50
0.0
 51
90.0
  0
ARC
  5
BE
100
AcDbEntity
  8
LC-005-002-RND-0
  6
CONTINUOUS
 62
             7
100
AcDbCircle
 10
78.9084299999999
 20
-182.23536899999999
 40
0.09999999999999
100
AcDbArc
 50
90.0
 51
169.99999999980295
  0
ARC
  5
BD
100
AcDbEntity
  8
LC-005-002-RND-0
  6
CONTINUOUS
 62
             7
100
AcDbCircle
 10
81.79983399999989
 20
-182.23536899999999
 40
0.09999999999999
100
AcDbArc
 50
0.0
 51
90.0
  0
ARC
  5
BC
100
AcDbEntity
  8
LC-005-002-RND-0
  6
CONTINUOUS
 62
             7
100
AcDbCircle
 10
84.27624899999998
 20
-182.43536900000001
 40
0.30000000000001
100
AcDbArc
 50
90.0
 51
170.0000000000268
  0
ARC
  5
BB
100
AcDbEntity
  8
LC-005-002-RND-0
  6
CONTINUOUS
 62
             7
100
AcDbCircle
 10
84.27624899999998
 20
-134.23532401435509
 40
0.30000000000044
100
AcDbArc
 50
-170.00000000001074
 51
-90.0
  0
ARC
  5
BA
100
AcDbEntity
  8
LC-005-002-RND-0
  6
CONTINUOUS
 62
             7
100
AcDbCircle
 10
81.79983399999989
 20
-134.43532401435519
 40
0.10000000000002
100
AcDbArc
 50
-90.0
 51
0.0
  0
ARC
  5
B9
100
AcDbEntity
  8
LC-005-002-RND-0
  6
CONTINUOUS
 62
             7
100
AcDbCircle
 10
78.9084299999999
 20
-134.43532401435519
 40
0.09999999999984
100
AcDbArc
 50
-169.99999999980295
 51
-90.0
  0
ARC
  5
B8
100
AcDbEntity
  8
LC-005-002-RND-0
  6
CONTINUOUS
 62
             7
100
AcDbCircle
 10
76.59983399999979
 20
-134.43532401435519
 40
0.10000000000002
100
AcDbArc
 50
-90.0
 51
0.0
  0
ARC
  5
B7
100
AcDbEntity
  8
LC-005-002-RND-0
  6
CONTINUOUS
 62
             7
100
AcDbCircle
 10
73.30842999999987
 20
-134.43532401435519
 40
0.09999999999984
100
AcDbArc
 50
-169.99999999980295
 51
-90.0
  0
ARC
  5
B6
100
AcDbEntity
  8
LC-005-002-RND-0
  6
CONTINUOUS
 62
             7
100
AcDbCircle
 10
70.99983399999988
 20
-134.43532401435519
 40
0.10000000000002
100
AcDbArc
 50
-90.0
 51
0.0
  0
ARC
  5
B5
100
AcDbEntity
  8
LC-005-002-RND-0
  6
CONTINUOUS
 62
             7
100
AcDbCircle
 10
65.39983399999989
 20
-134.43532401435519
 40
0.10000000000002
100
AcDbArc
 50
-90.0
 51
0.0
  0
ARC
  5
B4
100
AcDbEntity
  8
LC-005-002-RND-0
  6
CONTINUOUS
 62
             7
100
AcDbCircle
 10
83.07193899999987
 20
-129.70885101435519
 40
0.09999999999975
100
AcDbArc
 50
10.00000000020556
 51
44.99999999998849
  0
ARC
  5
B3
100
AcDbEntity
  8
LC-005-002-RND-0
  6
CONTINUOUS
 62
             7
100
AcDbCircle
 10
81.99983399999988
 20
-128.63674501435511
 40
0.10000000000043
100
AcDbArc
 50
44.99999999995394
 51
180.0
  0
ARC
  5
B2
100
AcDbEntity
  8
LC-005-002-RND-0
  6
CONTINUOUS
 62
             7
100
AcDbCircle
 10
77.8719389999998
 20
-129.70885101435519
 40
0.09999999999992
100
AcDbArc
 50
10.00000000018859
 51
45.0
  0
ARC
  5
B1
100
AcDbEntity
  8
LC-005-002-RND-0
  6
CONTINUOUS
 62
             7
100
AcDbCircle
 10
76.79983399999989
 20
-128.63674501435511
 40
0.10000000000041
100
AcDbArc
 50
44.99999999996546
 51
180.0
  0
ARC
  5
B0
100
AcDbEntity
  8
LC-005-002-RND-0
  6
CONTINUOUS
 62
             7
100
AcDbCircle
 10
72.27193899999989
 20
-129.70885101435519
 40
0.09999999999972
100
AcDbArc
 50
10.00000000020838
 51
45.0
  0
ARC
  5
AF
100
AcDbEntity
  8
LC-005-002-RND-0
  6
CONTINUOUS
 62
             7
100
AcDbCircle
 10
66.6719389999999
 20
-129.70885101435519
 40
0.09999999999984
100
AcDbArc
 50
10.00000000019707
 51
45.0
  0
ARC
  5
AE
100
AcDbEntity
  8
LC-005-002-RND-0
  6
CONTINUOUS
 62
             7
100
AcDbCircle
 10
71.1998339999999
 20
-128.63674501435511
 40
0.10000000000049
100
AcDbArc
 50
44.9999999999194
 51
180.0
  0
ARC
  5
AD
100
AcDbEntity
  8
LC-005-002-RND-0
  6
CONTINUOUS
 62
             7
100
AcDbCircle
 10
67.70842999999988
 20
-134.43532401435519
 40
0.09999999999972
100
AcDbArc
 50
-169.99999999979161
 51
-90.0
  0
ARC
  5
AC
100
AcDbEntity
  8
LC-005-002-RND-0
  6
CONTINUOUS
 62
             7
100
AcDbCircle
 10
65.59983399999979
 20
-128.63674501435511
 40
0.10000000000041
100
AcDbArc
 50
44.99999999996546
 51
180.0
  0
LINE
  5
AB
100
AcDbEntity
  8
LC-006-005-----0
  6
CONTINUOUS
 62
             7
100
AcDbLine
 10
76.6998339999999
 20
-182.23536899999999
 11
76.6699559999999
 21
-182.164075
  0
LINE
  5
AA
100
AcDbEntity
  8
LC-006-005-----0
  6
CONTINUOUS
 62
             7
100
AcDbLine
 10
78.9084299999999
 20
-182.135369
 11
78.8629739999999
 21
-182.146298
  0
LINE
  5
A9
100
AcDbEntity
  8
LC-006-005-----0
  6
CONTINUOUS
 62
             7
100
AcDbLine
 10
76.6998339999999
 20
-182.23536899999999
 11
76.6699559999999
 21
-182.164075
  0
LINE
  5
A8
100
AcDbEntity
  8
LC-006-005-----0
  6
CONTINUOUS
 62
             7
100
AcDbLine
 10
76.6998339999999
 20
-182.23536899999999
 11
76.59983399999979
 21
-182.23536899999999
  0
LINE
  5
A7
100
AcDbEntity
  8
LC-006-005-----0
  6
CONTINUOUS
 62
             7
100
AcDbLine
 10
76.59983399999979
 20
-182.23536899999999
 11
76.6699559999999
 21
-182.164075
  0
LINE
  5
A6
100
AcDbEntity
  8
LC-006-005-----0
  6
CONTINUOUS
 62
             7
100
AcDbLine
 10
78.9084299999999
 20
-182.135369
 11
78.8629739999999
 21
-182.146298
  0
LINE
  5
A5
100
AcDbEntity
  8
LC-006-005-----0
  6
CONTINUOUS
 62
             7
100
AcDbLine
 10
78.9084299999999
 20
-182.135369
 11
78.9084299999999
 21
-182.23536899999999
  0
LINE
  5
A4
100
AcDbEntity
  8
LC-006-005-----0
  6
CONTINUOUS
 62
             7
100
AcDbLine
 10
78.9084299999999
 20
-182.23536899999999
 11
78.8629739999999
 21
-182.146298
  0
LINE
  5
A3
100
AcDbEntity
  8
LC-006-005-----0
  6
CONTINUOUS
 62
             7
100
AcDbLine
 10
82.06842999999989
 20
-187.89810199999999
 11
83.18854199999979
 21
-186.77798999999999
  0
LINE
  5
A2
100
AcDbEntity
  8
LC-001-002-----0
  6
CONTINUOUS
 62
             7
100
AcDbLine
 10
86.99983399999988
 20
-182.135369
 11
84.27624899999998
 21
-182.135369
  0
LINE
  5
A1
100
AcDbEntity
  8
LC-001-002-----0
  6
CONTINUOUS
 62
             7
100
AcDbLine
 10
61.99983399999988
 20
-158.33536892356301
 11
61.99983399999988
 21
-182.135369
  0
LINE
  5
A0
100
AcDbEntity
  8
LC-001-002-----0
  6
CONTINUOUS
 62
             7
100
AcDbLine
 10
65.49983399999988
 20
-182.23536899999999
 11
65.49983399999988
 21
-188.03394800000001
  0
LINE
  5
9F
100
AcDbEntity
  8
LC-001-002-----0
  6
CONTINUOUS
 62
             7
100
AcDbLine
 10
65.67054399999989
 20
-188.104659
 11
66.74264999999988
 21
-187.03255300000001
  0
LINE
  5
9E
100
AcDbEntity
  8
LC-001-002-----0
  6
CONTINUOUS
 62
             7
100
AcDbLine
 10
65.39983399999989
 20
-182.135369
 11
61.99983399999988
 21
-182.135369
  0
LINE
  5
9D
100
AcDbEntity
  8
LC-001-002-----0
  6
CONTINUOUS
 62
             7
100
AcDbLine
 10
67.60994899999989
 20
-182.21800500000001
 11
66.77041999999989
 21
-186.979207
  0
LINE
  5
9C
100
AcDbEntity
  8
LC-001-002-----0
  6
CONTINUOUS
 62
             7
100
AcDbLine
 10
71.09983399999979
 20
-182.23536899999999
 11
71.09983399999979
 21
-188.03394800000001
  0
LINE
  5
9B
100
AcDbEntity
  8
LC-001-002-----0
  6
CONTINUOUS
 62
             7
100
AcDbLine
 10
71.27054399999989
 20
-188.104659
 11
72.34264999999988
 21
-187.03255300000001
  0
LINE
  5
9A
100
AcDbEntity
  8
LC-001-002-----0
  6
CONTINUOUS
 62
             7
100
AcDbLine
 10
73.20994899999988
 20
-182.21800500000001
 11
72.37041999999988
 21
-186.979207
  0
LINE
  5
99
100
AcDbEntity
  8
LC-001-002-----0
  6
CONTINUOUS
 62
             7
100
AcDbLine
 10
76.6998339999999
 20
-182.23536899999999
 11
76.6998339999999
 21
-188.03394800000001
  0
LINE
  5
98
100
AcDbEntity
  8
LC-001-002-----0
  6
CONTINUOUS
 62
             7
100
AcDbLine
 10
76.8705439999998
 20
-188.104659
 11
77.94264999999987
 21
-187.03255300000001
  0
LINE
  5
97
100
AcDbEntity
  8
LC-001-002-----0
  6
CONTINUOUS
 62
             7
100
AcDbLine
 10
78.80994899999988
 20
-182.21800500000001
 11
77.97041999999979
 21
-186.979207
  0
LINE
  5
96
100
AcDbEntity
  8
LC-001-002-----0
  6
CONTINUOUS
 62
             7
100
AcDbLine
 10
81.89983399999989
 20
-182.23536899999999
 11
81.89983399999989
 21
-188.03394800000001
  0
LINE
  5
95
100
AcDbEntity
  8
LC-001-002-----0
  6
CONTINUOUS
 62
             7
100
AcDbLine
 10
82.0705439999999
 20
-188.104659
 11
83.14264999999998
 21
-187.03255300000001
  0
LINE
  5
94
100
AcDbEntity
  8
LC-001-002-----0
  6
CONTINUOUS
 62
             7
100
AcDbLine
 10
83.98080699999989
 20
-182.383275
 11
83.17041999999989
 21
-186.979207
  0
LINE
  5
93
100
AcDbEntity
  8
LC-001-002-----0
  6
CONTINUOUS
 62
             7
100
AcDbLine
 10
81.79983399999989
 20
-182.135369
 11
78.9084299999999
 21
-182.135369
  0
LINE
  5
92
100
AcDbEntity
  8
LC-001-002-----0
  6
CONTINUOUS
 62
             7
100
AcDbLine
 10
76.59983399999979
 20
-182.135369
 11
73.30842999999987
 21
-182.135369
  0
LINE
  5
91
100
AcDbEntity
  8
LC-001-002-----0
  6
CONTINUOUS
 62
             7
100
AcDbLine
 10
70.99983399999988
 20
-182.135369
 11
67.70842999999988
 21
-182.135369
  0
LINE
  5
90
100
AcDbEntity
  8
LC-001-002-----0
  6
CONTINUOUS
 62
             7
100
AcDbLine
 10
86.99983399999988
 20
-158.33540156687221
 11
86.99983399999988
 21
-182.135369
  0
LINE
  5
8F
100
AcDbEntity
  8
1
  6
CONTINUOUS
 62
             7
100
AcDbLine
 10
65.39983399999989
 20
-182.23536899999999
 11
65.39983399999989
 21
-158.3353465071776
  0
LINE
  5
8E
100
AcDbEntity
  8
1
  6
CONTINUOUS
 62
             7
100
AcDbLine
 10
66.74264999999988
 20
-187.03255300000001
 11
66.74264999999988
 21
-158.33534411464731
  0
LINE
  5
8D
100
AcDbEntity
  8
1
  6
CONTINUOUS
 62
             7
100
AcDbLine
 10
67.70842999999988
 20
-182.23536899999999
 11
67.70842999999988
 21
-158.33534411464731
  0
LINE
  5
8C
100
AcDbEntity
  8
1
  6
CONTINUOUS
 62
             7
100
AcDbLine
 10
70.99983399999988
 20
-182.23536899999999
 11
70.99983399999988
 21
-158.3353465071776
  0
LINE
  5
8B
100
AcDbEntity
  8
1
  6
CONTINUOUS
 62
             7
100
AcDbLine
 10
72.27193899999989
 20
-186.96184199999999
 11
72.27193899999989
 21
-158.3353465071776
  0
LINE
  5
8A
100
AcDbEntity
  8
1
  6
CONTINUOUS
 62
             7
100
AcDbLine
 10
73.30842999999987
 20
-182.23536899999999
 11
73.30842999999987
 21
-158.3353465071776
  0
LINE
  5
89
100
AcDbEntity
  8
1
  6
CONTINUOUS
 62
             7
100
AcDbLine
 10
76.59983399999979
 20
-182.23536899999999
 11
76.59983399999979
 21
-158.33534411464731
  0
LINE
  5
88
100
AcDbEntity
  8
1
  6
CONTINUOUS
 62
             7
100
AcDbLine
 10
77.97041977530088
 20
-186.97920681776699
 11
77.97041977530088
 21
-158.3353465071776
  0
LINE
  5
87
100
AcDbEntity
  8
1
  6
CONTINUOUS
 62
             7
100
AcDbLine
 10
78.9084299999999
 20
-182.23536899999999
 11
78.9084299999999
 21
-158.3353465071776
  0
LINE
  5
86
100
AcDbEntity
  8
1
  6
CONTINUOUS
 62
             7
100
AcDbLine
 10
81.89983399999989
 20
-182.23536899999999
 11
81.89983399999989
 21
-158.3353465071776
  0
LINE
  5
85
100
AcDbEntity
  8
1
  6
CONTINUOUS
 62
             7
100
AcDbLine
 10
83.98080667409587
 20
-182.38327454669999
 11
83.98080667409587
 21
-158.38327454669999
  0
LINE
  5
84
100
AcDbEntity
  8
1
  6
CONTINUOUS
 62
             7
100
AcDbLine
 10
83.14264999999998
 20
-187.03255300000001
 11
83.14264999999998
 21
-158.33534411464731
  0
LINE
  5
83
100
AcDbEntity
  8
1
  6
CONTINUOUS
 62
             7
100
AcDbLine
 10
83.14264999999998
 20
-158.33534889970781
 11
83.14264999999998
 21
-129.63814001435509
  0
LINE
  5
82
100
AcDbEntity
  8
1
  6
CONTINUOUS
 62
             7
100
AcDbLine
 10
83.98080667409587
 20
-158.28741846765519
 11
83.98080667409587
 21
-134.28741846765519
  0
LINE
  5
81
100
AcDbEntity
  8
1
  6
CONTINUOUS
 62
             7
100
AcDbLine
 10
81.89983399999989
 20
-158.3353465071776
 11
81.89983399999989
 21
-134.43532401435519
  0
LINE
  5
80
100
AcDbEntity
  8
1
  6
CONTINUOUS
 62
             7
100
AcDbLine
 10
78.9084299999999
 20
-158.3353465071776
 11
78.9084299999999
 21
-134.43532401435519
  0
LINE
  5
7F
100
AcDbEntity
  8
1
  6
CONTINUOUS
 62
             7
100
AcDbLine
 10
77.97041977530088
 20
-158.3353465071776
 11
77.97041977530088
 21
-129.69148619658819
  0
LINE
  5
7E
100
AcDbEntity
  8
1
  6
CONTINUOUS
 62
             7
100
AcDbLine
 10
76.59983399999979
 20
-158.33534889970781
 11
76.59983399999979
 21
-134.43532401435519
  0
LINE
  5
7D
100
AcDbEntity
  8
1
  6
CONTINUOUS
 62
             7
100
AcDbLine
 10
73.30842999999987
 20
-158.3353465071776
 11
73.30842999999987
 21
-134.43532401435519
  0
LINE
  5
7C
100
AcDbEntity
  8
1
  6
CONTINUOUS
 62
             7
100
AcDbLine
 10
72.27193899999989
 20
-158.3353465071776
 11
72.27193899999989
 21
-129.70885101435519
  0
LINE
  5
7B
100
AcDbEntity
  8
1
  6
CONTINUOUS
 62
             7
100
AcDbLine
 10
70.99983399999988
 20
-158.3353465071776
 11
70.99983399999988
 21
-134.43532401435519
  0
LINE
  5
7A
100
AcDbEntity
  8
1
  6
CONTINUOUS
 62
             7
100
AcDbLine
 10
67.70842999999988
 20
-158.33534889970781
 11
67.70842999999988
 21
-134.43532401435519
  0
LINE
  5
79
100
AcDbEntity
  8
1
  6
CONTINUOUS
 62
             7
100
AcDbLine
 10
66.74264999999988
 20
-158.33534889970781
 11
66.74264999999988
 21
-129.63814001435509
  0
LINE
  5
78
100
AcDbEntity
  8
1
  6
CONTINUOUS
 62
             7
100
AcDbLine
 10
65.39983399999989
 20
-158.3353465071776
 11
65.39983399999989
 21
-134.43532401435519
  0
LINE
  5
77
100
AcDbEntity
  8
LC-001-002-----0
  6
CONTINUOUS
 62
             7
100
AcDbLine
 10
86.99983399999988
 20
-134.53532401435521
 11
86.99983399999988
 21
-158.33529144748289
  0
LINE
  5
76
100
AcDbEntity
  8
LC-001-002-----0
  6
CONTINUOUS
 62
             7
100
AcDbLine
 10
67.70842999999988
 20
-134.53532401435521
 11
70.99983399999988
 21
-134.53532401435521
  0
LINE
  5
75
100
AcDbEntity
  8
LC-001-002-----0
  6
CONTINUOUS
 62
             7
100
AcDbLine
 10
73.30842999999987
 20
-134.53532401435521
 11
76.59983399999979
 21
-134.53532401435521
  0
LINE
  5
74
100
AcDbEntity
  8
LC-001-002-----0
  6
CONTINUOUS
 62
             7
100
AcDbLine
 10
78.9084299999999
 20
-134.53532401435521
 11
81.79983399999989
 21
-134.53532401435521
  0
LINE
  5
73
100
AcDbEntity
  8
LC-001-002-----0
  6
CONTINUOUS
 62
             7
100
AcDbLine
 10
83.17041999999989
 20
-129.69148601435521
 11
83.98080699999989
 21
-134.28741801435521
  0
LINE
  5
72
100
AcDbEntity
  8
LC-001-002-----0
  6
CONTINUOUS
 62
             7
100
AcDbLine
 10
83.14264999999998
 20
-129.63814001435509
 11
82.0705439999999
 21
-128.56603401435521
  0
LINE
  5
71
100
AcDbEntity
  8
LC-001-002-----0
  6
CONTINUOUS
 62
             7
100
AcDbLine
 10
81.89983399999989
 20
-128.63674501435511
 11
81.89983399999989
 21
-134.43532401435519
  0
LINE
  5
70
100
AcDbEntity
  8
LC-001-002-----0
  6
CONTINUOUS
 62
             7
100
AcDbLine
 10
77.97041999999979
 20
-129.69148601435521
 11
78.80994899999988
 21
-134.4526880143552
  0
LINE
  5
6F
100
AcDbEntity
  8
LC-001-002-----0
  6
CONTINUOUS
 62
             7
100
AcDbLine
 10
77.94264999999987
 20
-129.63814001435509
 11
76.8705439999998
 21
-128.56603401435521
  0
LINE
  5
6E
100
AcDbEntity
  8
LC-001-002-----0
  6
CONTINUOUS
 62
             7
100
AcDbLine
 10
76.6998339999999
 20
-128.63674501435511
 11
76.6998339999999
 21
-134.43532401435519
  0
LINE
  5
6D
100
AcDbEntity
  8
LC-001-002-----0
  6
CONTINUOUS
 62
             7
100
AcDbLine
 10
72.37041999999988
 20
-129.69148601435521
 11
73.20994899999988
 21
-134.4526880143552
  0
LINE
  5
6C
100
AcDbEntity
  8
LC-001-002-----0
  6
CONTINUOUS
 62
             7
100
AcDbLine
 10
72.34264999999988
 20
-129.63814001435509
 11
71.27054399999989
 21
-128.56603401435521
  0
LINE
  5
6B
100
AcDbEntity
  8
LC-001-002-----0
  6
CONTINUOUS
 62
             7
100
AcDbLine
 10
71.09983399999979
 20
-128.63674501435511
 11
71.09983399999979
 21
-134.43532401435519
  0
LINE
  5
6A
100
AcDbEntity
  8
LC-001-002-----0
  6
CONTINUOUS
 62
             7
100
AcDbLine
 10
66.77041999999989
 20
-129.69148601435521
 11
67.60994899999989
 21
-134.4526880143552
  0
LINE
  5
69
100
AcDbEntity
  8
LC-001-002-----0
  6
CONTINUOUS
 62
             7
100
AcDbLine
 10
61.99983399999988
 20
-134.53532401435521
 11
65.39983399999989
 21
-134.53532401435521
  0
LINE
  5
68
100
AcDbEntity
  8
LC-001-002-----0
  6
CONTINUOUS
 62
             7
100
AcDbLine
 10
66.74264999999988
 20
-129.63814001435509
 11
65.67054399999989
 21
-128.56603401435521
  0
LINE
  5
67
100
AcDbEntity
  8
LC-001-002-----0
  6
CONTINUOUS
 62
             7
100
AcDbLine
 10
65.49983399999988
 20
-128.63674501435511
 11
65.49983399999988
 21
-134.43532401435519
  0
LINE
  5
66
100
AcDbEntity
  8
LC-001-002-----0
  6
CONTINUOUS
 62
             7
100
AcDbLine
 10
61.99983399999988
 20
-134.53532401435521
 11
61.99983399999988
 21
-158.33532409079211
  0
LINE
  5
65
100
AcDbEntity
  8
LC-001-002-----0
  6
CONTINUOUS
 62
             7
100
AcDbLine
 10
84.27624899999998
 20
-134.53532401435521
 11
86.99983399999988
 21
-134.53532401435521
  0
LINE
  5
64
100
AcDbEntity
  8
LC-006-005-----0
  6
CONTINUOUS
 62
             7
100
AcDbLine
 10
83.18854199999979
 20
-129.89270301435519
 11
82.06842999999989
 21
-128.77259101435521
  0
LINE
  5
63
100
AcDbEntity
  8
LC-006-005-----0
  6
CONTINUOUS
 62
             7
100
AcDbLine
 10
78.8629739999999
 20
-134.52439501435521
 11
78.9084299999999
 21
-134.43532401435519
  0
LINE
  5
62
100
AcDbEntity
  8
LC-006-005-----0
  6
CONTINUOUS
 62
             7
100
AcDbLine
 10
78.9084299999999
 20
-134.43532401435519
 11
78.9084299999999
 21
-134.53532401435521
  0
LINE
  5
61
100
AcDbEntity
  8
LC-006-005-----0
  6
CONTINUOUS
 62
             7
100
AcDbLine
 10
78.8629739999999
 20
-134.52439501435521
 11
78.9084299999999
 21
-134.53532401435521
  0
LINE
  5
60
100
AcDbEntity
  8
LC-006-005-----0
  6
CONTINUOUS
 62
             7
100
AcDbLine
 10
76.6699559999999
 20
-134.50661801435521
 11
76.59983399999979
 21
-134.43532401435519
  0
LINE
  5
5F
100
AcDbEntity
  8
LC-006-005-----0
  6
CONTINUOUS
 62
             7
100
AcDbLine
 10
76.59983399999979
 20
-134.43532401435519
 11
76.6998339999999
 21
-134.43532401435519
  0
LINE
  5
5E
100
AcDbEntity
  8
LC-006-005-----0
  6
CONTINUOUS
 62
             7
100
AcDbLine
 10
76.6699559999999
 20
-134.50661801435521
 11
76.6998339999999
 21
-134.43532401435519
  0
LINE
  5
5D
100
AcDbEntity
  8
LC-006-005-----0
  6
CONTINUOUS
 62
             7
100
AcDbLine
 10
78.8629739999999
 20
-134.52439501435521
 11
78.9084299999999
 21
-134.53532401435521
  0
LINE
  5
5C
100
AcDbEntity
  8
LC-006-005-----0
  6
CONTINUOUS
 62
             7
100
AcDbLine
 10
76.6699559999999
 20
-134.50661801435521
 11
76.6998339999999
 21
-134.43532401435519
  0
LINE
  5
5B
100
AcDbEntity
  8
1
  6
PHANTOM
 62
             2
100
AcDbLine
 10
88.02985289141589
 20
-158.3353465071776
 11
60.84435071744889
 21
-158.3353465071776
  0
ENDBLK
  5
CC
100
AcDbEntity
  8
0
100
AcDbBlockEnd
  0
BLOCK
  5
30
100
AcDbEntity
  8
0
100
AcDbBlockBegin
  2
0222_1E_SP_LROHR_KOMPLETT
 70
             0
 10
-182.77013764497039
 20
-183.83532
 30
0.0
  3
0222_1E_SP_LROHR_KOMPLETT
  1

  0
ARC
  5
E7
100
AcDbEntity
  8
LC-005-002-RND-0
  6
CONTINUOUS
 62
             7
100
AcDbCircle
 10
-19.00017063788434
 20
-133.83532
 40
0.99999999999986
100
AcDbArc
 50
89.99992499999063
 51
179.99992499999735
  0
ARC
  5
E6
100
AcDbEntity
  8
LC-005-002-RND-0
  6
CONTINUOUS
 62
             7
100
AcDbCircle
 10
-19.00017063788434
 20
-133.83532
 40
0.99999999999995
100
AcDbArc
 50
-0.00007500000429
 51
89.99992499999063
  0
ARC
  5
E5
100
AcDbEntity
  8
LC-005-002-RND-0
  6
CONTINUOUS
 62
             7
100
AcDbCircle
 10
-19.00023463788426
 20
-182.83532
 40
0.99999999999983
100
AcDbArc
 50
179.99992499999735
 51
-90.00007500000287
  0
ARC
  5
E4
100
AcDbEntity
  8
LC-005-002-RND-0
  6
CONTINUOUS
 62
             7
100
AcDbCircle
 10
-19.00023463788426
 20
-182.83532
 40
0.99999999999986
100
AcDbArc
 50
-90.00007500000287
 51
-0.00007500000429
  0
LINE
  5
E3
100
AcDbEntity
  8
1
  6
PHANTOM
 62
             2
100
AcDbLine
 10
-182.77013764497039
 20
-158.33510546602801
 11
1.83212502102276
 21
-158.3353465071776
  0
LINE
  5
E2
100
AcDbEntity
  8
LC-006-005-----0
  6
CONTINUOUS
 62
             7
100
AcDbLine
 10
-20.00015463788435
 20
-133.829565
 11
-19.00592563788425
 21
-132.83533600000001
  0
LINE
  5
E1
100
AcDbEntity
  8
LC-006-005-----0
  6
CONTINUOUS
 62
             7
100
AcDbLine
 10
-19.09016863788426
 20
-183.831267
 11
-18.00023463788426
 21
-182.74133399999999
  0
LINE
  5
E0
100
AcDbEntity
  8
LC-001-002-----0
  6
CONTINUOUS
 62
             7
100
AcDbLine
 10
-180.00017463788419
 20
-136.638957
 11
-180.0002316378843
 21
-180.031261
  0
LINE
  5
DF
100
AcDbEntity
  8
LC-001-002-----0
  6
CONTINUOUS
 62
             7
100
AcDbLine
 10
-3.00023263788424
 20
-180.835341
 11
-18.00023263788424
 21
-180.83532099999999
  0
LINE
  5
DE
100
AcDbEntity
  8
LC-001-002-----0
  6
CONTINUOUS
 62
             7
100
AcDbLine
 10
-177.0001876378843
 20
-135.83511300000001
 11
-20.00017363788416
 21
-135.835318
  0
LINE
  5
DD
100
AcDbEntity
  8
LC-001-002-----0
  6
CONTINUOUS
 62
             7
100
AcDbLine
 10
-0.00017463788424
 20
-136.58027300000001
 11
-0.00023163788424
 21
-180.031497
  0
LINE
  5
DC
100
AcDbEntity
  8
LC-001-002-----0
  6
CONTINUOUS
 62
             7
100
AcDbLine
 10
-20.00017063788434
 20
-133.835318
 11
-20.00017363788416
 21
-135.835318
  0
LINE
  5
DB
100
AcDbEntity
  8
LC-001-002-----0
  6
CONTINUOUS
 62
             7
100
AcDbLine
 10
-18.00017063788434
 20
-133.83532099999999
 11
-18.00017363788416
 21
-135.83532099999999
  0
LINE
  5
DA
100
AcDbEntity
  8
LC-001-002-----0
  6
CONTINUOUS
 62
             7
100
AcDbLine
 10
-19.00016963788414
 20
-132.83532
 11
-19.00016963788414
 21
-132.83532
  0
LINE
  5
D9
100
AcDbEntity
  8
LC-001-002-----0
  6
CONTINUOUS
 62
             7
100
AcDbLine
 10
-19.00023663788426
 20
-183.83532
 11
-19.00023663788426
 21
-183.83532
  0
LINE
  5
D8
100
AcDbEntity
  8
LC-001-002-----0
  6
CONTINUOUS
 62
             7
100
AcDbLine
 10
-20.00023263788424
 20
-180.835318
 11
-20.00023463788426
 21
-182.835318
  0
LINE
  5
D7
100
AcDbEntity
  8
LC-001-002-----0
  6
CONTINUOUS
 62
             7
100
AcDbLine
 10
-18.00023263788424
 20
-180.83532099999999
 11
-18.00023463788426
 21
-182.83532099999999
  0
LINE
  5
D6
100
AcDbEntity
  8
LC-001-002-----0
  6
CONTINUOUS
 62
             7
100
AcDbLine
 10
-18.00017363788416
 20
-135.83532099999999
 11
-3.00017363788416
 21
-135.835341
  0
LINE
  5
D5
100
AcDbEntity
  8
LC-001-002-----0
  6
CONTINUOUS
 62
             7
100
AcDbLine
 10
-20.00023263788424
 20
-180.835318
 11
-177.0002326378843
 21
-180.83511300000001
  0
LINE
  5
D4
100
AcDbEntity
  8
LC-001-002-----0
  6
CONTINUOUS
 62
             7
100
AcDbLine
 10
-3.00023263788424
 20
-180.83534499999999
 11
-0.00023163788424
 21
-180.031497
  0
LINE
  5
D3
100
AcDbEntity
  8
LC-001-002-----0
  6
CONTINUOUS
 62
             7
100
AcDbLine
 10
-3.00017363788416
 20
-135.83533700000001
 11
-0.00017463788424
 21
-136.63919200000001
  0
LINE
  5
D2
100
AcDbEntity
  8
LC-001-002-----0
  6
CONTINUOUS
 62
             7
100
AcDbLine
 10
-177.00017363788419
 20
-135.83510899999999
 11
-180.00017463788419
 21
-136.638957
  0
LINE
  5
D1
100
AcDbEntity
  8
LC-001-002-----0
  6
CONTINUOUS
 62
             7
100
AcDbLine
 10
-177.0002326378843
 20
-180.835117
 11
-180.0002316378843
 21
-180.031261
  0
LINE
  5
D0
100
AcDbEntity
  8
1
  6
CONTINUOUS
 62
             7
100
AcDbLine
 10
-177.0002326378843
 20
-180.835117
 11
-177.0002326378843
 21
-135.83511299994129
  0
LINE
  5
CF
100
AcDbEntity
  8
1
  6
CONTINUOUS
 62
             7
100
AcDbLine
 10
-20.00017363788416
 20
-135.835318
 11
-20.00017363788416
 21
-180.83531800007711
  0
LINE
  5
CE
100
AcDbEntity
  8
1
  6
CONTINUOUS
 62
             7
100
AcDbLine
 10
-18.00023263788424
 20
-180.83532099999999
 11
-18.00023263788424
 21
-135.83532099992129
  0
LINE
  5
CD
100
AcDbEntity
  8
1
  6
CONTINUOUS
 62
             7
100
AcDbLine
 10
-3.00017363788416
 20
-135.835341
 11
-3.00017363788416
 21
-180.835341
  0
ENDBLK
  5
E8
100
AcDbEntity
  8
0
100
AcDbBlockEnd
  0
BLOCK
  5
32
100
AcDbEntity
  8
0
100
AcDbBlockBegin
  2
0222_2E_MUTTER_MIT_KAPPEN
 70
             0
 10
35.12773175800984
 20
-71.38266318418009
 30
0.0
  3
0222_2E_MUTTER_MIT_KAPPEN
  1

  0
ARC
  5
13C
100
AcDbEntity
  8
1
  6
CONTINUOUS
 62
             7
100
AcDbCircle
 10
37.86361902323492
 20
-57.74991
 40
1.0
100
AcDbArc
 50
180.0
 51
-90.0
  0
ARC
  5
13B
100
AcDbEntity
  8
1
  6
CONTINUOUS
 62
             7
100
AcDbCircle
 10
37.86361902323492
 20
-42.24991
 40
1.0
100
AcDbArc
 50
90.0
 51
180.0
  0
ARC
  5
13A
100
AcDbEntity
  8
1
  6
CONTINUOUS
 62
             7
100
AcDbCircle
 10
37.86361902323492
 20
57.75009
 40
1.0
100
AcDbArc
 50
90.0
 51
180.0
  0
ARC
  5
139
100
AcDbEntity
  8
1
  6
CONTINUOUS
 62
             7
100
AcDbCircle
 10
37.86361902323492
 20
42.25009
 40
1.0
100
AcDbArc
 50
180.0
 51
-90.0
  0
SPLINE
  5
138
100
AcDbEntity
  8
1
  6
CONTINUOUS
 62
             7
100
AcDbSpline
210
0.0
220
0.0
230
1.0
 70
             0
 71
             2
 72
             6
 73
             3
 74
             3
 42
0.00000000001
 43
0.00000000001
 44
0.00000000001
 40
0.0
 40
0.0
 40
0.0
 40
134.71451295239117
 40
134.71451295239117
 40
134.71451295239117
 10
89.971590874865143
 20
-70.99991
 30
0.0
 10
153.97159087486509
 20
-49.99991
 30
0.0
 10
89.971590874865143
 20
-28.99991
 30
0.0
 11
89.971590874865143
 21
-70.99991
 31
0.0
 11
121.97159087486511
 21
-49.99991
 31
0.0
 11
89.971590874865143
 21
-28.99991
 31
0.0
  0
SPLINE
  5
137
100
AcDbEntity
  8
1
  6
CONTINUOUS
 62
             7
100
AcDbSpline
210
0.0
220
0.0
230
1.0
 70
             0
 71
             2
 72
             6
 73
             3
 74
             3
 42
0.00000000001
 43
0.00000000001
 44
0.00000000001
 40
0.0
 40
0.0
 40
0.0
 40
134.71451295239117
 40
134.71451295239117
 40
134.71451295239117
 10
89.971590874865143
 20
29.00009
 30
0.0
 10
153.97159087486509
 20
50.00009
 30
0.0
 10
89.971590874865143
 20
71.00009
 30
0.0
 11
89.971590874865143
 21
29.00009
 31
0.0
 11
121.97159087486511
 21
50.00009
 31
0.0
 11
89.971590874865143
 21
71.00009
 31
0.0
  0
ARC
  5
136
100
AcDbEntity
  8
1
  6
CONTINUOUS
 62
             7
100
AcDbCircle
 10
91.35986047178679
 20
-49.99991
 40
15.99624144855189
100
AcDbArc
 50
159.94743468882078
 51
-159.94743468882078
  0
ARC
  5
135
100
AcDbEntity
  8
1
  6
CONTINUOUS
 62
             7
100
AcDbCircle
 10
79.72632328287293
 20
-41.7726725
 40
4.36270425963801
100
AcDbArc
 50
141.05281120537873
 51
-141.05281120537873
  0
ARC
  5
134
100
AcDbEntity
  8
1
  6
CONTINUOUS
 62
             7
100
AcDbCircle
 10
79.72632328287293
 20
-58.2271475
 40
4.36270425963801
100
AcDbArc
 50
141.05281120537873
 51
-141.05281120537873
  0
ARC
  5
133
100
AcDbEntity
  8
1
  6
CONTINUOUS
 62
             7
100
AcDbCircle
 10
69.36737757468282
 20
-49.99991
 40
15.9962414485521
100
AcDbArc
 50
-20.05256531117896
 51
20.05256531117896
  0
ARC
  5
132
100
AcDbEntity
  8
1
  6
CONTINUOUS
 62
             7
100
AcDbCircle
 10
81.00091476359691
 20
-41.7726725
 40
4.36270425963801
100
AcDbArc
 50
-38.94718879462128
 51
38.94718879462128
  0
ARC
  5
131
100
AcDbEntity
  8
1
  6
CONTINUOUS
 62
             7
100
AcDbCircle
 10
81.00091476359691
 20
-58.2271475
 40
4.36270425963801
100
AcDbArc
 50
-38.94718879462128
 51
38.94718879462128
  0
ARC
  5
130
100
AcDbEntity
  8
1
  6
CONTINUOUS
 62
             7
100
AcDbCircle
 10
81.00091476359691
 20
41.7728525
 40
4.36270425963801
100
AcDbArc
 50
-38.94718879462128
 51
38.94718879462128
  0
ARC
  5
12F
100
AcDbEntity
  8
1
  6
CONTINUOUS
 62
             7
100
AcDbCircle
 10
81.00091476359691
 20
58.2273275
 40
4.36270425963801
100
AcDbArc
 50
-38.94718879462128
 51
38.94718879462128
  0
ARC
  5
12E
100
AcDbEntity
  8
1
  6
CONTINUOUS
 62
             7
100
AcDbCircle
 10
69.36737757468282
 20
50.00009
 40
15.9962414485521
100
AcDbArc
 50
-20.05256531117896
 51
20.05256531117896
  0
ARC
  5
12D
100
AcDbEntity
  8
1
  6
CONTINUOUS
 62
             7
100
AcDbCircle
 10
79.72632328287293
 20
41.7728525
 40
4.36270425963801
100
AcDbArc
 50
141.05281120537873
 51
-141.05281120537873
  0
ARC
  5
12C
100
AcDbEntity
  8
1
  6
CONTINUOUS
 62
             7
100
AcDbCircle
 10
79.72632328287293
 20
58.2273275
 40
4.36270425963801
100
AcDbArc
 50
141.05281120537873
 51
-141.05281120537873
  0
ARC
  5
12B
100
AcDbEntity
  8
1
  6
CONTINUOUS
 62
             7
100
AcDbCircle
 10
91.35986047178679
 20
50.00009
 40
15.99624144855189
100
AcDbArc
 50
159.94743468882078
 51
-159.94743468882078
  0
LINE
  5
12A
100
AcDbEntity
  8
1
  6
PHANTOM
 62
             2
100
AcDbLine
 10
54.15096293563784
 20
-49.99991
 11
35.12773175800984
 21
-49.99991
  0
LINE
  5
129
100
AcDbEntity
  8
1
  6
CONTINUOUS
 62
             7
100
AcDbLine
 10
50.86361902323492
 20
-31.24991
 11
50.86361902323492
 21
-68.74991
  0
LINE
  5
128
100
AcDbEntity
  8
1
  6
CONTINUOUS
 62
             7
100
AcDbLine
 10
50.06361902323482
 20
-68.74991
 11
50.06361902323482
 21
-31.24991
  0
LINE
  5
127
100
AcDbEntity
  8
1
  6
CONTINUOUS
 62
             7
100
AcDbLine
 10
49.06361902323482
 20
-41.24991
 11
49.06361902323482
 21
-58.74991
  0
LINE
  5
126
100
AcDbEntity
  8
1
  6
CONTINUOUS
 62
             7
100
AcDbLine
 10
37.86361902323492
 20
-41.24991
 11
37.86361902323492
 21
-58.74991
  0
LINE
  5
125
100
AcDbEntity
  8
1
  6
CONTINUOUS
 62
             7
100
AcDbLine
 10
53.36361902323492
 20
-49.99991
 11
53.36361902323492
 21
-66.24991
  0
LINE
  5
124
100
AcDbEntity
  8
1
  6
CONTINUOUS
 62
             7
100
AcDbLine
 10
50.86361902323492
 20
-68.74991
 11
50.06361902323482
 21
-68.74991
  0
LINE
  5
123
100
AcDbEntity
  8
1
  6
CONTINUOUS
 62
             7
100
AcDbLine
 10
49.06361902323482
 20
-67.74991
 11
49.06361902323482
 21
-58.74991
  0
LINE
  5
122
100
AcDbEntity
  8
1
  6
CONTINUOUS
 62
             7
100
AcDbLine
 10
49.06361902323482
 20
-58.74991
 11
37.86361902323492
 21
-58.74991
  0
LINE
  5
121
100
AcDbEntity
  8
1
  6
CONTINUOUS
 62
             7
100
AcDbLine
 10
36.86361902323492
 20
-57.74991
 11
36.86361902323492
 21
-49.99991
  0
LINE
  5
120
100
AcDbEntity
  8
1
  6
CONTINUOUS
 62
             7
100
AcDbLine
 10
50.86361902323492
 20
-68.74991
 11
53.36361902323492
 21
-66.24991
  0
LINE
  5
11F
100
AcDbEntity
  8
1
  6
CONTINUOUS
 62
             7
100
AcDbLine
 10
49.06361902323482
 20
-67.74991
 11
50.06361902323482
 21
-68.74991
  0
LINE
  5
11E
100
AcDbEntity
  8
1
  6
CONTINUOUS
 62
             7
100
AcDbLine
 10
53.36361902323492
 20
-33.74991
 11
53.36361902323492
 21
-49.99991
  0
LINE
  5
11D
100
AcDbEntity
  8
1
  6
CONTINUOUS
 62
             7
100
AcDbLine
 10
50.06361902323482
 20
-31.24991
 11
50.86361902323492
 21
-31.24991
  0
LINE
  5
11C
100
AcDbEntity
  8
1
  6
CONTINUOUS
 62
             7
100
AcDbLine
 10
49.06361902323482
 20
-41.24991
 11
49.06361902323482
 21
-32.24991
  0
LINE
  5
11B
100
AcDbEntity
  8
1
  6
CONTINUOUS
 62
             7
100
AcDbLine
 10
37.86361902323492
 20
-41.24991
 11
49.06361902323482
 21
-41.24991
  0
LINE
  5
11A
100
AcDbEntity
  8
1
  6
CONTINUOUS
 62
             7
100
AcDbLine
 10
36.86361902323492
 20
-49.99991
 11
36.86361902323492
 21
-42.24991
  0
LINE
  5
119
100
AcDbEntity
  8
1
  6
CONTINUOUS
 62
             7
100
AcDbLine
 10
53.36361902323492
 20
-33.74991
 11
50.86361902323492
 21
-31.24991
  0
LINE
  5
118
100
AcDbEntity
  8
1
  6
CONTINUOUS
 62
             7
100
AcDbLine
 10
50.06361902323482
 20
-31.24991
 11
49.06361902323482
 21
-32.24991
  0
LINE
  5
117
100
AcDbEntity
  8
1
  6
DASH_CENTER
 62
             2
100
AcDbLine
 10
61.78120833957593
 20
-49.99991
 11
66.55839318716991
 21
-49.99991
  0
LINE
  5
116
100
AcDbEntity
  8
1
  6
CONTINUOUS
 62
             7
100
AcDbLine
 10
63.36361902323492
 20
-33.99991
 11
63.36361902323492
 21
-65.99991
  0
LINE
  5
115
100
AcDbEntity
  8
1
  6
CONTINUOUS
 62
             7
100
AcDbLine
 10
65.36361902323492
 20
-33.99991
 11
63.36361902323492
 21
-33.99991
  0
LINE
  5
114
100
AcDbEntity
  8
1
  6
CONTINUOUS
 62
             7
100
AcDbLine
 10
65.36361902323492
 20
-65.99991
 11
65.36361902323492
 21
-33.99991
  0
LINE
  5
113
100
AcDbEntity
  8
1
  6
CONTINUOUS
 62
             7
100
AcDbLine
 10
63.36361902323492
 20
-65.99991
 11
65.36361902323492
 21
-65.99991
  0
LINE
  5
112
100
AcDbEntity
  8
1
  6
DASH_CENTER
 62
             2
100
AcDbLine
 10
86.30530307439889
 20
-49.99991
 11
74.1159334319274
 21
-49.99991
  0
LINE
  5
111
100
AcDbEntity
  8
1
  6
CONTINUOUS
 62
             7
100
AcDbLine
 10
75.36361902323492
 20
-58.2271475
 11
75.36361902323492
 21
-41.7726725
  0
LINE
  5
110
100
AcDbEntity
  8
1
  6
CONTINUOUS
 62
             7
100
AcDbLine
 10
85.36361902323492
 20
-41.7726725
 11
85.36361902323492
 21
-58.2271475
  0
LINE
  5
10F
100
AcDbEntity
  8
1
  6
CONTINUOUS
 62
             7
100
AcDbLine
 10
84.39390196323492
 20
-39.03026
 11
76.33333608323491
 21
-39.03026
  0
LINE
  5
10E
100
AcDbEntity
  8
1
  6
CONTINUOUS
 62
             7
100
AcDbLine
 10
84.39390196323492
 20
-60.96956
 11
76.33333608323491
 21
-60.96956
  0
LINE
  5
10D
100
AcDbEntity
  8
1
  6
CONTINUOUS
 62
             7
100
AcDbLine
 10
84.39390196323492
 20
-44.515085
 11
76.33333608323491
 21
-44.515085
  0
LINE
  5
10C
100
AcDbEntity
  8
1
  6
CONTINUOUS
 62
             7
100
AcDbLine
 10
84.39390196323492
 20
-55.484735
 11
76.33333608323491
 21
-55.484735
  0
LINE
  5
10B
100
AcDbEntity
  8
1
  6
DOT_CENTER
 62
             2
100
AcDbLine
 10
88.75284610665685
 20
-49.99991
 11
123.7528461066568
 21
-49.99991
  0
LINE
  5
10A
100
AcDbEntity
  8
1
  6
CONTINUOUS
 62
             7
100
AcDbLine
 10
89.97159087486514
 20
-28.99991
 11
89.97159087486514
 21
-70.99991
  0
LINE
  5
109
100
AcDbEntity
  8
1
  6
PHANTOM
 62
             2
100
AcDbLine
 10
54.15096293563784
 20
50.00009
 11
35.12773175800984
 21
50.00009
  0
LINE
  5
108
100
AcDbEntity
  8
1
  6
CONTINUOUS
 62
             7
100
AcDbLine
 10
50.06361902323482
 20
68.75009
 11
49.06361902323482
 21
67.75009
  0
LINE
  5
107
100
AcDbEntity
  8
1
  6
CONTINUOUS
 62
             7
100
AcDbLine
 10
53.36361902323492
 20
66.25009
 11
50.86361902323492
 21
68.75009
  0
LINE
  5
106
100
AcDbEntity
  8
1
  6
CONTINUOUS
 62
             7
100
AcDbLine
 10
36.86361902323492
 20
50.00009
 11
36.86361902323492
 21
57.75009
  0
LINE
  5
105
100
AcDbEntity
  8
1
  6
CONTINUOUS
 62
             7
100
AcDbLine
 10
37.86361902323492
 20
58.75009
 11
49.06361902323482
 21
58.75009
  0
LINE
  5
104
100
AcDbEntity
  8
1
  6
CONTINUOUS
 62
             7
100
AcDbLine
 10
49.06361902323482
 20
58.75009
 11
49.06361902323482
 21
67.75009
  0
LINE
  5
103
100
AcDbEntity
  8
1
  6
CONTINUOUS
 62
             7
100
AcDbLine
 10
50.06361902323482
 20
68.75009
 11
50.86361902323492
 21
68.75009
  0
LINE
  5
102
100
AcDbEntity
  8
1
  6
CONTINUOUS
 62
             7
100
AcDbLine
 10
53.36361902323492
 20
66.25009
 11
53.36361902323492
 21
50.00009
  0
LINE
  5
101
100
AcDbEntity
  8
1
  6
CONTINUOUS
 62
             7
100
AcDbLine
 10
49.06361902323482
 20
32.25009
 11
50.06361902323482
 21
31.25009
  0
LINE
  5
100
100
AcDbEntity
  8
1
  6
CONTINUOUS
 62
             7
100
AcDbLine
 10
50.86361902323492
 20
31.25009
 11
53.36361902323492
 21
33.75009
  0
LINE
  5
FF
100
AcDbEntity
  8
1
  6
CONTINUOUS
 62
             7
100
AcDbLine
 10
36.86361902323492
 20
42.25009
 11
36.86361902323492
 21
50.00009
  0
LINE
  5
FE
100
AcDbEntity
  8
1
  6
CONTINUOUS
 62
             7
100
AcDbLine
 10
49.06361902323482
 20
41.25009
 11
37.86361902323492
 21
41.25009
  0
LINE
  5
FD
100
AcDbEntity
  8
1
  6
CONTINUOUS
 62
             7
100
AcDbLine
 10
49.06361902323482
 20
32.25009
 11
49.06361902323482
 21
41.25009
  0
LINE
  5
FC
100
AcDbEntity
  8
1
  6
CONTINUOUS
 62
             7
100
AcDbLine
 10
50.86361902323492
 20
31.25009
 11
50.06361902323482
 21
31.25009
  0
LINE
  5
FB
100
AcDbEntity
  8
1
  6
CONTINUOUS
 62
             7
100
AcDbLine
 10
53.36361902323492
 20
50.00009
 11
53.36361902323492
 21
33.75009
  0
LINE
  5
FA
100
AcDbEntity
  8
1
  6
CONTINUOUS
 62
             7
100
AcDbLine
 10
37.86361902323492
 20
58.75009
 11
37.86361902323492
 21
41.25009
  0
LINE
  5
F9
100
AcDbEntity
  8
1
  6
CONTINUOUS
 62
             7
100
AcDbLine
 10
49.06361902323482
 20
58.75009
 11
49.06361902323482
 21
41.25009
  0
LINE
  5
F8
100
AcDbEntity
  8
1
  6
CONTINUOUS
 62
             7
100
AcDbLine
 10
50.06361902323482
 20
31.25009
 11
50.06361902323482
 21
68.75009
  0
LINE
  5
F7
100
AcDbEntity
  8
1
  6
CONTINUOUS
 62
             7
100
AcDbLine
 10
50.86361902323492
 20
68.75009
 11
50.86361902323492
 21
31.25009
  0
LINE
  5
F6
100
AcDbEntity
  8
1
  6
DASH_CENTER
 62
             2
100
AcDbLine
 10
61.78120833957593
 20
50.00009
 11
66.55839318716991
 21
50.00009
  0
LINE
  5
F5
100
AcDbEntity
  8
1
  6
CONTINUOUS
 62
             7
100
AcDbLine
 10
63.36361902323492
 20
34.00009
 11
65.36361902323492
 21
34.00009
  0
LINE
  5
F4
100
AcDbEntity
  8
1
  6
CONTINUOUS
 62
             7
100
AcDbLine
 10
65.36361902323492
 20
34.00009
 11
65.36361902323492
 21
66.00009
  0
LINE
  5
F3
100
AcDbEntity
  8
1
  6
CONTINUOUS
 62
             7
100
AcDbLine
 10
65.36361902323492
 20
66.00009
 11
63.36361902323492
 21
66.00009
  0
LINE
  5
F2
100
AcDbEntity
  8
1
  6
CONTINUOUS
 62
             7
100
AcDbLine
 10
63.36361902323492
 20
66.00009
 11
63.36361902323492
 21
34.00009
  0
LINE
  5
F1
100
AcDbEntity
  8
1
  6
DASH_CENTER
 62
             2
100
AcDbLine
 10
86.30530307439889
 20
50.00009
 11
74.1159334319274
 21
50.00009
  0
LINE
  5
F0
100
AcDbEntity
  8
1
  6
CONTINUOUS
 62
             7
100
AcDbLine
 10
84.39390196323492
 20
44.515265
 11
76.33333608323491
 21
44.515265
  0
LINE
  5
EF
100
AcDbEntity
  8
1
  6
CONTINUOUS
 62
             7
100
AcDbLine
 10
84.39390196323492
 20
55.484915
 11
76.33333608323491
 21
55.484915
  0
LINE
  5
EE
100
AcDbEntity
  8
1
  6
CONTINUOUS
 62
             7
100
AcDbLine
 10
84.39390196323492
 20
39.03044
 11
76.33333608323491
 21
39.03044
  0
LINE
  5
ED
100
AcDbEntity
  8
1
  6
CONTINUOUS
 62
             7
100
AcDbLine
 10
84.39390196323492
 20
60.96974
 11
76.33333608323491
 21
60.96974
  0
LINE
  5
EC
100
AcDbEntity
  8
1
  6
CONTINUOUS
 62
             7
100
AcDbLine
 10
85.36361902323492
 20
58.2273275
 11
85.36361902323492
 21
41.7728525
  0
LINE
  5
EB
100
AcDbEntity
  8
1
  6
CONTINUOUS
 62
             7
100
AcDbLine
 10
75.36361902323492
 20
41.7728525
 11
75.36361902323492
 21
58.2273275
  0
LINE
  5
EA
100
AcDbEntity
  8
1
  6
CONTINUOUS
 62
             7
100
AcDbLine
 10
89.97159087486514
 20
71.00009
 11
89.97159087486514
 21
29.00009
  0
LINE
  5
E9
100
AcDbEntity
  8
1
  6
DOT_CENTER
 62
             2
100
AcDbLine
 10
88.75284610665685
 20
50.00009
 11
123.7528461066568
 21
50.00009
  0
ENDBLK
  5
13D
100
AcDbEntity
  8
0
100
AcDbBlockEnd
  0
BLOCK
  5
140
100
AcDbEntity
  8
0
100
AcDbBlockBegin
  2
*D4
 70
             1
 10
0.0
 20
0.0
 30
0.0
  3
*D4
  1

  0
LINE
  5
141
100
AcDbEntity
  8
0
  6
CONTINUOUS
 62
             4
100
AcDbLine
 10
-180.00000000000011
 20
73.338911
 11
0.0
 21
73.338911
  0
LINE
  5
142
100
AcDbEntity
  8
0
  6
CONTINUOUS
 62
             4
100
AcDbLine
 10
-180.00000000000011
 20
53.88887
 11
-180.00000000000011
 21
75.338911
  0
LINE
  5
143
100
AcDbEntity
  8
0
  6
CONTINUOUS
 62
             4
100
AcDbLine
 10
0.0
 20
63.33891100000001
 11
0.0
 21
75.338911
  0
SOLID
  5
144
100
AcDbEntity
  8
0
 62
             4
100
AcDbTrace
 10
-170.00000000000011
 20
74.65543597587396
 11
-170.00000000000011
 21
72.02238602412604
 12
-180.00000000000011
 22
73.338911
 13
-180.00000000000011
 23
73.338911
  0
SOLID
  5
145
100
AcDbEntity
  8
0
 62
             4
100
AcDbTrace
 10
-10.0
 20
72.02238602412604
 11
-10.0
 21
74.65543597587396
 12
0.0
 22
73.338911
 13
0.0
 23
73.338911
  0
MTEXT
  5
147
100
AcDbEntity
  8
0
 62
             1
100
AcDbMText
 10
-106.40296620455285
 20
75.338911
 30
0.0
 40
10.0
 41
0.0
 71
             7
 72
             1
  1
180
  7
CONVERTER_1
 11
0.99999999999706
 21
0.00000242406841
 31
0.0
  0
ENDBLK
  5
148
100
AcDbEntity
  8
0
100
AcDbBlockEnd
  0
BLOCK
  5
14C
100
AcDbEntity
  8
0
100
AcDbBlockBegin
  2
*D5
 70
             1
 10
0.0
 20
0.0
 30
0.0
  3
*D5
  1

  0
LINE
  5
14D
100
AcDbEntity
  8
0
  6
CONTINUOUS
 62
             4
100
AcDbLine
 10
-189.57734799928369
 20
-55.10000000000002
 11
-189.57734799928369
 21
55.09999999999998
  0
LINE
  5
14E
100
AcDbEntity
  8
0
  6
CONTINUOUS
 62
             4
100
AcDbLine
 10
-175.4800000000001
 20
-55.10000000000002
 11
-191.57734799928369
 21
-55.10000000000002
  0
LINE
  5
14F
100
AcDbEntity
  8
0
  6
CONTINUOUS
 62
             4
100
AcDbLine
 10
-175.4800000000001
 20
55.09999999999998
 11
-191.57734799928369
 21
55.09999999999998
  0
SOLID
  5
150
100
AcDbEntity
  8
0
 62
             4
100
AcDbTrace
 10
-190.89387297515765
 20
-45.10000000000002
 11
-188.26082302340973
 21
-45.10000000000002
 12
-189.57734799928369
 22
-55.10000000000002
 13
-189.57734799928369
 23
-55.10000000000002
  0
SOLID
  5
151
100
AcDbEntity
  8
0
 62
             4
100
AcDbTrace
 10
-188.26082302340973
 20
45.09999999999998
 11
-190.89387297515765
 21
45.09999999999998
 12
-189.57734799928369
 22
55.09999999999998
 13
-189.57734799928369
 23
55.09999999999998
  0
MTEXT
  5
152
100
AcDbEntity
  8
0
 62
             1
100
AcDbMText
 10
-191.57734799928369
 20
-6.91882119919775
 30
0.0
 40
10.0
 41
0.0
 71
             7
 72
             1
  1
\C1;DN\C1;110
  7
CONVERTER_1
 11
0.0
 21
1.0
 31
0.0
  0
ENDBLK
  5
153
100
AcDbEntity
  8
0
100
AcDbBlockEnd
  0
ENDSEC
  0
SECTION
  2
ENTITIES
  0
DIMENSION
  5
155
100
AcDbEntity
  8
1
100
AcDbDimension
  2
*D5
 10
-189.57734799928369
 20
-55.10000000000002
 11
-196.57734799928369
 21
7.48117880080225
 31
0.0
 53
90.0
  1
<>
  3
ME10_DIM_1
100
AcDbAlignedDimension
 13
-175.4800000000001
 23
55.09999999999997
 14
-175.4800000000001
 24
-55.10000000000002
 50
90.0
100
AcDbRotatedDimension
  0
DIMENSION
  5
14A
100
AcDbEntity
  8
1
100
AcDbDimension
  2
*D4
 10
-180.00000000000011
 20
73.338911
 11
-95.90296620455285
 21
80.338911
 31
0.0
 53
0.00013888888889
  1
<>
  3
ME10_DIM_0
100
AcDbAlignedDimension
 13
0.0
 23
63.338911
 14
-180.00000000000011
 24
53.88887
100
AcDbRotatedDimension
  0
INSERT
  5
35
100
AcDbEntity
  8
1
100
AcDbBlockReference
  2
HL222_1_ANSCHLUSSSTUTZEN
 10
-222.0406381846268
 20
-188.1339480000006
  0
INSERT
  5
36
100
AcDbEntity
  8
1
100
AcDbBlockReference
  2
0222_3E_GI-MANSCHETTE_2_1E
 10
-163.50067099460591
 20
-376.3353689999982
  0
INSERT
  5
37
100
AcDbEntity
  8
1
100
AcDbBlockReference
  2
0222_1E_SP_LROHR_KOMPLETT
 10
-182.77013764497039
 20
-183.83532
  0
INSERT
  5
38
100
AcDbEntity
  8
1
100
AcDbBlockReference
  2
0222_2E_MUTTER_MIT_KAPPEN
 10
35.12773175800984
 20
-71.38266318418009
  0
ENDSEC
  0
SECTION
  2
OBJECTS
  0
DICTIONARY
  5
19
100
AcDbDictionary
  3
ACAD_GROUP
350
1A
  3
ACAD_MLINESTYLE
350
1B
  0
DICTIONARY
  5
1A
102
{ACAD_REACTORS
330
19
102
}
100
AcDbDictionary
  0
DICTIONARY
  5
1B
102
{ACAD_REACTORS
330
19
102
}
100
AcDbDictionary
  3
STANDARD
350
1C
  0
MLINESTYLE
  5
1C
102
{ACAD_REACTORS
330
1B
102
}
100
AcDbMlineStyle
  2
STANDARD
 70
             0
  3

 62
             0
 51
90.0
 52
90.0
 71
             2
 49
0.5
 62
           256
  6
BYLAYER
 49
-0.5
 62
           256
  6
BYLAYER
  0
ENDSEC
  0
EOF
