  0
SECTION
  2
HEADER
  9
$ACADVER
  1
AC1014
  9
$ACADMAINTVER
 70
             0
  9
$DWGCODEPAGE
  3
ANSI_1252
  9
$INSBASE
 10
0.0
 20
0.0
 30
0.0
  9
$EXTMIN
 10
1.00000000000000E+20
 20
1.00000000000000E+20
 30
1.00000000000000E+20
  9
$EXTMAX
 10
-1.00000000000000E+20
 20
-1.00000000000000E+20
 30
-1.00000000000000E+20
  9
$LIMMIN
 10
0.0
 20
0.0
  9
$LIMMAX
 10
0.0
 20
0.0
  9
$ORTHOMODE
 70
             0
  9
$REGENMODE
 70
             1
  9
$FILLMODE
 70
             1
  9
$QTEXTMODE
 70
             0
  9
$MIRRTEXT
 70
             1
  9
$DRAGMODE
 70
             2
  9
$LTSCALE
 40
1.0
  9
$OSMODE
 70
             0
  9
$ATTMODE
 70
             1
  9
$TEXTSIZE
 40
0.2
  9
$TRACEWID
 40
0.05
  9
$TEXTSTYLE
  7
STANDARD
  9
$CLAYER
  8
0
  9
$CELTYPE
  6
CONTINUOUS
  9
$CECOLOR
 62
           256
  9
$CELTSCALE
 40
1.0
  9
$DELOBJ
 70
             1
  9
$DISPSILH
 70
             0
  9
$DIMSCALE
 40
1.0
  9
$DIMASZ
 40
0.18
  9
$DIMEXO
 40
0.0625
  9
$DIMDLI
 40
0.38
  9
$DIMRND
 40
0.0
  9
$DIMDLE
 40
0.0
  9
$DIMEXE
 40
0.18
  9
$DIMTP
 40
0.0
  9
$DIMTM
 40
0.0
  9
$DIMTXT
 40
0.18
  9
$DIMCEN
 40
0.09
  9
$DIMTSZ
 40
0.0
  9
$DIMTOL
 70
             0
  9
$DIMLIM
 70
             0
  9
$DIMTIH
 70
             1
  9
$DIMTOH
 70
             1
  9
$DIMSE1
 70
             0
  9
$DIMSE2
 70
             0
  9
$DIMTAD
 70
             0
  9
$DIMZIN
 70
             0
  9
$DIMBLK
  1

  9
$DIMASO
 70
             1
  9
$DIMSHO
 70
             1
  9
$DIMPOST
  1

  9
$DIMAPOST
  1

  9
$DIMALT
 70
             0
  9
$DIMALTD
 70
             2
  9
$DIMALTF
 40
25.4
  9
$DIMLFAC
 40
1.0
  9
$DIMTOFL
 70
             0
  9
$DIMTVP
 40
0.0
  9
$DIMTIX
 70
             0
  9
$DIMSOXD
 70
             0
  9
$DIMSAH
 70
             0
  9
$DIMBLK1
  1

  9
$DIMBLK2
  1

  9
$DIMSTYLE
  2
STANDARD
  9
$DIMCLRD
 70
             0
  9
$DIMCLRE
 70
             0
  9
$DIMCLRT
 70
             0
  9
$DIMTFAC
 40
1.0
  9
$DIMGAP
 40
0.09
  9
$DIMJUST
 70
             0
  9
$DIMSD1
 70
             0
  9
$DIMSD2
 70
             0
  9
$DIMTOLJ
 70
             1
  9
$DIMTZIN
 70
             0
  9
$DIMALTZ
 70
             0
  9
$DIMALTTZ
 70
             0
  9
$DIMFIT
 70
             3
  9
$DIMUPT
 70
             0
  9
$DIMUNIT
 70
             2
  9
$DIMDEC
 70
             4
  9
$DIMTDEC
 70
             4
  9
$DIMALTU
 70
             2
  9
$DIMALTTD
 70
             2
  9
$DIMTXSTY
  7
STANDARD
  9
$DIMAUNIT
 70
             0
  9
$LUNITS
 70
             2
  9
$LUPREC
 70
             4
  9
$SKETCHINC
 40
0.1
  9
$FILLETRAD
 40
0.0
  9
$AUNITS
 70
             0
  9
$AUPREC
 70
             0
  9
$MENU
  1
acad
  9
$ELEVATION
 40
0.0
  9
$PELEVATION
 40
0.0
  9
$THICKNESS
 40
0.0
  9
$LIMCHECK
 70
             0
  9
$BLIPMODE
 70
             1
  9
$CHAMFERA
 40
0.0
  9
$CHAMFERB
 40
0.0
  9
$CHAMFERC
 40
0.0
  9
$CHAMFERD
 40
0.0
  9
$SKPOLY
 70
             0
  9
$TDCREATE
 40
0.000000000
  9
$TDUPDATE
 40
0.000000000
  9
$TDINDWG
 40
0.0000000000
  9
$TDUSRTIMER
 40
0.0000000000
  9
$USRTIMER
 70
             1
  9
$ANGBASE
 50
0.0
  9
$ANGDIR
 70
             0
  9
$PDMODE
 70
             0
  9
$PDSIZE
 40
0.0
  9
$PLINEWID
 40
0.0
  9
$COORDS
 70
             0
  9
$SPLFRAME
 70
             0
  9
$SPLINETYPE
 70
             6
  9
$SPLINESEGS
 70
             8
  9
$ATTDIA
 70
             0
  9
$ATTREQ
 70
             1
  9
$HANDLING
 70
             1
  9
$HANDSEED
  5
13E
  9
$SURFTAB1
 70
             6
  9
$SURFTAB2
 70
             6
  9
$SURFTYPE
 70
             6
  9
$SURFU
 70
             6
  9
$SURFV
 70
             6
  9
$UCSNAME
  2

  9
$UCSORG
 10
0.0
 20
0.0
 30
0.0
  9
$UCSXDIR
 10
1.0
 20
0.0
 30
0.0
  9
$UCSYDIR
 10
0.0
 20
1.0
 30
0.0
  9
$PUCSNAME
  2

  9
$PUCSORG
 10
0.0
 20
0.0
 30
0.0
  9
$PUCSXDIR
 10
1.0
 20
0.0
 30
0.0
  9
$PUCSYDIR
 10
0.0
 20
1.0
 30
0.0
  9
$USERI1
 70
             0
  9
$USERI2
 70
             0
  9
$USERI3
 70
             0
  9
$USERI4
 70
             0
  9
$USERI5
 70
             0
  9
$USERR1
 40
11.6
  9
$USERR2
 40
0.0
  9
$USERR3
 40
0.0
  9
$USERR4
 40
0.0
  9
$USERR5
 40
0.0
  9
$WORLDVIEW
 70
             1
  9
$SHADEDGE
 70
             3
  9
$SHADEDIF
 70
            70
  9
$TILEMODE
 70
             1
  9
$MAXACTVP
 70
            16
  9
$PINSBASE
 10
0.0
 20
0.0
 30
0.0
  9
$PLIMCHECK
 70
             0
  9
$PEXTMIN
 10
1.00000000000000E+20
 20
1.00000000000000E+20
 30
1.00000000000000E+20
  9
$PEXTMAX
 10
-1.00000000000000E+20
 20
-1.00000000000000E+20
 30
-1.00000000000000E+20
  9
$PLIMMIN
 10
0.0
 20
0.0
  9
$PLIMMAX
 10
12.0
 20
9.0
  9
$UNITMODE
 70
             0
  9
$VISRETAIN
 70
             0
  9
$PLINEGEN
 70
             1
  9
$PSLTSCALE
 70
             0
  9
$TREEDEPTH
 70
          3020
  9
$PICKSTYLE
 70
             1
  9
$CMLSTYLE
  2
STANDARD
  9
$CMLJUST
 70
             0
  9
$CMLSCALE
 40
1.0
  9
$PROXYGRAPHICS
 70
             0
  9
$MEASUREMENT
 70
             1
  0
ENDSEC
  0
SECTION
  2
CLASSES
  0
CLASS
  1
LWPOLYLINE
  2
AcDbPolyline
  3
"AutoCAD"
 90
        0
280
             0
281
             1
  0
CLASS
  1
IMAGE
  2
AcDbRasterImage
  3
ISM
 90
      127
280
             0
281
             1
  0
CLASS
  1
OLE2FRAME
  2
AcDbOle2Frame
  3
""
 90
        0
280
             0
281
             1
  0
CLASS
  1
HATCH
  2
AcDbHatch
  3
"ACAD_SEDONA"
 90
        0
280
             0
281
             1
  0
CLASS
  1
DICTIONARYVAR
  2
AcDbDictionaryVar
  3
"AutoCAD"
 90
        0
280
             0
281
             0
  0
CLASS
  1
RASTERVARIABLES
  2
AcDbRasterVariables
  3
ISM
 90
        0
280
             0
281
             0
  0
CLASS
  1
IMAGEDEF
  2
AcDbRasterImageDef
  3
ISM
 90
        0
280
             0
281
             0
  0
CLASS
  1
IMAGEDEF_REACTOR
  2
AcDbRasterImageDefReactor
  3
ISM
 90
        1
280
             0
281
             0
  0
CLASS
  1
IDBUFFER
  2
AcDbIdBuffer
  3
"Acad"
 90
        0
280
             0
281
             0
  0
CLASS
  1
SPATIAL_FILTER
  2
AcDbSpatialFilter
  3
"Acad"
 90
        0
280
             0
281
             0
  0
CLASS
  1
XRECORD
  2
AcDbXrecord
  3
"<Built In>"
 90
        0
280
             0
281
             0
  0
CLASS
  1
SORTENTSTABLE
  2
AcDbSortentsTable
  3
"AutoCAD"
 90
        0
280
             0
281
             0
  0
CLASS
  1
LAYER_INDEX
  2
AcDbLayerIndex
  3
"Acad"
 90
        0
280
             0
281
             0
  0
CLASS
  1
SPATIAL_INDEX
  2
AcDbSpatialIndex
  3
"Acad"
 90
        0
280
             0
281
             0
  0
CLASS
  1
OBJECT_PTR
  2
CAseDLPNTableRecord
  3
"ASE-LPNTableRecord"
 90
        1
280
             0
281
             0
  0
CLASS
  1
LAYOUT
  2
AcDbLayout
  3
"AutoCAD 2000"
 90
        1
280
             0
281
             0
  0
CLASS
  1
PLOTSETTINGS
  2
AcDbPlotSettings
  3
"AutoCAD 2000"
 90
        1
280
             0
281
             0
  0
CLASS
  1
ACDBDICTIONARYWDFLT
  2
AcDbDictionaryWithDefault
  3
"AutoCAD 2000"
 90
        1
280
             0
281
             0
  0
CLASS
  1
ACDBPLACEHOLDER
  2
AcDbPlaceHolder
  3
"AutoCAD 2000"
 90
        1
280
             0
281
             0
  0
ENDSEC
  0
SECTION
  2
TABLES
  0
TABLE
  2
VPORT
  5
7
100
AcDbSymbolTable
 70
             1
  0
VPORT
  5
15
100
AcDbSymbolTableRecord
100
AcDbViewportTableRecord
  2
*ACTIVE
 70
             0
 10
0.0
 20
0.0
 11
1.0
 21
1.0
 12
126.52026028291837
 22
-30.42685940307483
 13
0.0
 23
0.0
 14
1.0
 24
1.0
 15
0.0
 25
0.0
 16
0.0
 26
0.0
 36
1.0
 17
0.0
 27
0.0
 37
0.0
 40
241.35612028676474
 41
1.60267857142857
 42
50.0
 43
0.0
 44
0.0
 50
0.0
 51
0.0
 71
             0
 72
           100
 73
             1
 74
             1
 75
             0
 76
             0
 77
             0
 78
             0
  0
ENDTAB
  0
TABLE
  2
LTYPE
  5
4
100
AcDbSymbolTable
 70
            11
  0
LTYPE
  5
11
100
AcDbSymbolTableRecord
100
AcDbLinetypeTableRecord
  2
BYBLOCK
 70
            64
  3

 72
            65
 73
             0
 40
0.0
  0
LTYPE
  5
12
100
AcDbSymbolTableRecord
100
AcDbLinetypeTableRecord
  2
BYLAYER
 70
            64
  3

 72
            65
 73
             0
 40
0.0
  0
LTYPE
  5
13
100
AcDbSymbolTableRecord
100
AcDbLinetypeTableRecord
  2
CONTINUOUS
 70
            64
  3
Solid line
 72
            65
 73
             0
 40
0.0
  0
LTYPE
  5
1D
100
AcDbSymbolTableRecord
100
AcDbLinetypeTableRecord
  2
DASHED
 70
            64
  3
Dashed
 72
            65
 73
             2
 40
15.0
 49
12.0
 74
             0
 49
-3.0
 74
             0
  0
LTYPE
  5
1E
100
AcDbSymbolTableRecord
100
AcDbLinetypeTableRecord
  2
DOTTED
 70
            64
  3
Dotted
 72
            65
 73
             2
 40
3.5
 49
0.5
 74
             0
 49
-3.0
 74
             0
  0
LTYPE
  5
1F
100
AcDbSymbolTableRecord
100
AcDbLinetypeTableRecord
  2
DOT_CENTER
 70
            64
  3
Dot_Center
 72
            65
 73
             4
 40
2.0
 49
1.25
 74
             0
 49
-0.25
 74
             0
 49
0.25
 74
             0
 49
-0.25
 74
             0
  0
LTYPE
  5
20
100
AcDbSymbolTableRecord
100
AcDbLinetypeTableRecord
  2
LONG_DASHED
 70
            64
  3
Long_Dashed
 72
            65
 73
             2
 40
2.0
 49
1.5
 74
             0
 49
-0.5
 74
             0
  0
LTYPE
  5
21
100
AcDbSymbolTableRecord
100
AcDbLinetypeTableRecord
  2
DASH_CENTER
 70
            64
  3
Dash_Center
 72
            65
 73
             4
 40
36.0
 49
24.0
 74
             0
 49
-3.0
 74
             0
 49
6.0
 74
             0
 49
-3.0
 74
             0
  0
LTYPE
  5
22
100
AcDbSymbolTableRecord
100
AcDbLinetypeTableRecord
  2
PHANTOM
 70
            64
  3
Phantom
 72
            65
 73
             6
 40
2.5
 49
1.25
 74
             0
 49
-0.25
 74
             0
 49
0.25
 74
             0
 49
-0.25
 74
             0
 49
0.25
 74
             0
 49
-0.25
 74
             0
  0
LTYPE
  5
23
100
AcDbSymbolTableRecord
100
AcDbLinetypeTableRecord
  2
CENTER_DASH_DASH
 70
            64
  3
Center_Dash_Dash
 72
            65
 73
             6
 40
22.0
 49
12.0
 74
             0
 49
-3.0
 74
             0
 49
0.5
 74
             0
 49
-3.0
 74
             0
 49
0.5
 74
             0
 49
-3.0
 74
             0
  0
LTYPE
  5
24
100
AcDbSymbolTableRecord
100
AcDbLinetypeTableRecord
  2
DASHDOT
 70
            64
  3
DASHDOT
 72
            65
 73
             4
 40
16.0
 49
10.0
 74
             0
 49
-3.0
 74
             0
 49
0.0
 74
             0
 49
-3.0
 74
             0
  0
ENDTAB
  0
TABLE
  2
LAYER
  5
2
100
AcDbSymbolTable
 70
             8
  0
LAYER
  5
14
100
AcDbSymbolTableRecord
100
AcDbLayerTableRecord
  2
0
 70
             0
 62
             7
  6
CONTINUOUS
  0
LAYER
  5
25
100
AcDbSymbolTableRecord
100
AcDbLayerTableRecord
  2
1
 70
             0
 62
             7
  6
CONTINUOUS
  0
LAYER
  5
26
100
AcDbSymbolTableRecord
100
AcDbLayerTableRecord
  2
LC-001-002-----0
 70
             0
 62
             7
  6
CONTINUOUS
  0
LAYER
  5
27
100
AcDbSymbolTableRecord
100
AcDbLayerTableRecord
  2
LC-002-005-----0
 70
             0
 62
             7
  6
CONTINUOUS
  0
LAYER
  5
28
100
AcDbSymbolTableRecord
100
AcDbLayerTableRecord
  2
LC-003-002-RND-0
 70
             0
 62
             7
  6
CONTINUOUS
  0
LAYER
  5
29
100
AcDbSymbolTableRecord
100
AcDbLayerTableRecord
  2
LC-005-001-----0
 70
             0
 62
             7
  6
CONTINUOUS
  0
LAYER
  5
2A
100
AcDbSymbolTableRecord
100
AcDbLayerTableRecord
  2
LC-005-002-RND-0
 70
             0
 62
             7
  6
CONTINUOUS
  0
LAYER
  5
2B
100
AcDbSymbolTableRecord
100
AcDbLayerTableRecord
  2
LC-006-005-----0
 70
             0
 62
             7
  6
CONTINUOUS
  0
ENDTAB
  0
TABLE
  2
STYLE
  5
3
100
AcDbSymbolTable
 70
             2
  0
STYLE
  5
17
100
AcDbSymbolTableRecord
100
AcDbTextStyleTableRecord
  2
STANDARD
 70
             0
 40
0.0
 41
1.0
 50
0.0
 71
             0
 42
0.0
  3
txt
  4

  0
STYLE
  5
82
100
AcDbSymbolTableRecord
100
AcDbTextStyleTableRecord
  2
CONVERTER_1
 70
             0
 40
0.0
 41
0.9
 50
0.0
 71
             0
 42
0.0
  3
txt.shx
  4

  0
ENDTAB
  0
TABLE
  2
VIEW
  5
5
100
AcDbSymbolTable
 70
             0
  0
ENDTAB
  0
TABLE
  2
UCS
  5
6
100
AcDbSymbolTable
 70
             0
  0
ENDTAB
  0
TABLE
  2
APPID
  5
8
100
AcDbSymbolTable
 70
             1
  0
APPID
  5
16
100
AcDbSymbolTableRecord
100
AcDbRegAppTableRecord
  2
ACAD
 70
             0
  0
ENDTAB
  0
TABLE
  2
DIMSTYLE
  5
9
100
AcDbSymbolTable
 70
             3
  0
DIMSTYLE
105
18
100
AcDbSymbolTableRecord
100
AcDbDimStyleTableRecord
  2
STANDARD
 70
             0
  3

  4

  5

  6

  7

 40
1.0
 41
0.18
 42
0.0625
 43
0.38
 44
0.18
 45
0.0
 46
0.0
 47
0.0
 48
0.0
 71
             0
 72
             0
 73
             1
 74
             1
 75
             0
 76
             0
 77
             0
 78
             0
140
0.18
141
0.09
142
0.0
143
25.4
144
1.0
145
0.0
146
1.0
147
0.09
170
             0
171
             2
172
             0
173
             0
174
             0
175
             0
176
             0
177
             0
178
             0
270
             2
271
             4
272
             4
273
             2
274
             2
275
             0
280
             0
281
             0
282
             0
283
             1
284
             0
285
             0
286
             0
287
             0
288
             0
340
17
  0
DIMSTYLE
105
85
100
AcDbSymbolTableRecord
100
AcDbDimStyleTableRecord
  2
ME10_DIM_0
 70
             0
  3

  4

  5

  6

  7

 40
1.0
 41
7.0
 42
0.0
 43
0.38
 44
2.0
 45
0.0
 46
0.0
 47
0.0
 48
0.0
 71
             0
 72
             0
 73
             0
 74
             0
 75
             0
 76
             0
 77
             1
 78
             8
140
7.0
141
0.09
142
0.0
143
25.4
144
1.0
145
0.0
146
1.0
147
0.625
170
             0
171
             2
172
             0
173
             1
174
             0
175
             0
176
             4
177
             4
178
             1
270
             2
271
             2
272
             4
273
             2
274
             2
275
             0
280
             0
281
             0
282
             0
283
             1
284
             0
285
             0
286
             0
287
             0
288
             0
340
17
  0
DIMSTYLE
105
90
100
AcDbSymbolTableRecord
100
AcDbDimStyleTableRecord
  2
ME10_DIM_1
 70
             0
  3
DN<>
  4

  5

  6

  7

 40
1.0
 41
7.0
 42
0.0
 43
0.38
 44
2.0
 45
0.0
 46
0.0
 47
0.0
 48
0.0
 71
             0
 72
             0
 73
             0
 74
             0
 75
             0
 76
             0
 77
             1
 78
             8
140
7.0
141
0.09
142
0.0
143
25.4
144
1.0
145
0.0
146
1.0
147
0.625
170
             0
171
             2
172
             0
173
             1
174
             0
175
             0
176
             4
177
             4
178
             1
270
             2
271
             2
272
             4
273
             2
274
             2
275
             0
280
             0
281
             0
282
             0
283
             1
284
             0
285
             0
286
             0
287
             0
288
             0
340
17
  0
ENDTAB
  0
TABLE
  2
BLOCK_RECORD
  5
1
100
AcDbSymbolTable
 70
             6
  0
BLOCK_RECORD
  5
A
100
AcDbSymbolTableRecord
100
AcDbBlockTableRecord
  2
*MODEL_SPACE
  0
BLOCK_RECORD
  5
B
100
AcDbSymbolTableRecord
100
AcDbBlockTableRecord
  2
*PAPER_SPACE
  0
BLOCK_RECORD
  5
2C
100
AcDbSymbolTableRecord
100
AcDbBlockTableRecord
  2
0222_1E_SP_LROHR_KOMPLETT
  0
BLOCK_RECORD
  5
2E
100
AcDbSymbolTableRecord
100
AcDbBlockTableRecord
  2
HL222_90_ANSCHLUSSSTUTZEN
  0
BLOCK_RECORD
  5
30
100
AcDbSymbolTableRecord
100
AcDbBlockTableRecord
  2
0222_2E_MUTTER_MIT_KAPPEN
  0
BLOCK_RECORD
  5
32
100
AcDbSymbolTableRecord
100
AcDbBlockTableRecord
  2
0222_3E_GI-MANSCHETTE_2_1E
  0
BLOCK_RECORD
  5
7B
100
AcDbSymbolTableRecord
100
AcDbBlockTableRecord
  2
*D4
  0
BLOCK_RECORD
  5
87
100
AcDbSymbolTableRecord
100
AcDbBlockTableRecord
  2
*D5
  0
ENDTAB
  0
ENDSEC
  0
SECTION
  2
BLOCKS
  0
BLOCK
  5
D
100
AcDbEntity
  8
0
100
AcDbBlockBegin
  2
*MODEL_SPACE
 70
             0
 10
0.0
 20
0.0
 30
0.0
  3
*MODEL_SPACE
  1

  0
ENDBLK
  5
E
100
AcDbEntity
  8
0
100
AcDbBlockEnd
  0
BLOCK
  5
F
100
AcDbEntity
 67
             1
  8
0
100
AcDbBlockBegin
  2
*PAPER_SPACE
 70
             0
 10
0.0
 20
0.0
 30
0.0
  3
*PAPER_SPACE
  1

  0
ENDBLK
  5
10
100
AcDbEntity
 67
             1
  8
0
100
AcDbBlockEnd
  0
BLOCK
  5
2D
100
AcDbEntity
  8
0
100
AcDbBlockBegin
  2
0222_1E_SP_LROHR_KOMPLETT
 70
             0
 10
-17.50373442202698
 20
-140.13401400000049
 30
0.0
  3
0222_1E_SP_LROHR_KOMPLETT
  1

  0
ARC
  5
54
100
AcDbEntity
  8
LC-005-002-RND-0
  6
CONTINUOUS
 62
             7
100
AcDbCircle
 10
161.0000472205657
 20
-85.83555880614905
 40
0.99999999999986
100
AcDbArc
 50
89.99992499999733
 51
179.99992499999735
  0
ARC
  5
53
100
AcDbEntity
  8
LC-005-002-RND-0
  6
CONTINUOUS
 62
             7
100
AcDbCircle
 10
161.0000472205657
 20
-85.83555880614905
 40
0.99999999999986
100
AcDbArc
 50
-0.00007500000429
 51
89.99992499999733
  0
ARC
  5
52
100
AcDbEntity
  8
LC-005-002-RND-0
  6
CONTINUOUS
 62
             7
100
AcDbCircle
 10
160.9999832205657
 20
-134.83555880614901
 40
0.99999999999986
100
AcDbArc
 50
179.99992500000224
 51
-90.00007500000267
  0
ARC
  5
51
100
AcDbEntity
  8
LC-005-002-RND-0
  6
CONTINUOUS
 62
             7
100
AcDbCircle
 10
160.9999832205657
 20
-134.83555880614901
 40
0.99999999999995
100
AcDbArc
 50
-90.00007500000267
 51
-0.00007500000918
  0
LINE
  5
50
100
AcDbEntity
  8
1
  6
PHANTOM
 62
             2
100
AcDbLine
 10
-2.7699197865204
 20
-110.3353442721771
 11
181.83234287947269
 21
-110.3355853133267
  0
LINE
  5
4F
100
AcDbEntity
  8
LC-006-005-----0
  6
CONTINUOUS
 62
             7
100
AcDbLine
 10
160.00006322056561
 20
-85.82980380614906
 11
160.99429222056571
 21
-84.83557480614907
  0
LINE
  5
4E
100
AcDbEntity
  8
LC-006-005-----0
  6
CONTINUOUS
 62
             7
100
AcDbLine
 10
160.9100492205657
 20
-135.83150580614901
 11
161.9999832205657
 21
-134.74157280614909
  0
LINE
  5
4D
100
AcDbEntity
  8
LC-001-002-----0
  6
CONTINUOUS
 62
             7
100
AcDbLine
 10
0.00004322056571
 20
-88.63919580614906
 11
-0.00001377943431
 21
-132.03149980614899
  0
LINE
  5
4C
100
AcDbEntity
  8
LC-001-002-----0
  6
CONTINUOUS
 62
             7
100
AcDbLine
 10
176.99998522056569
 20
-132.83557980614901
 11
161.99998522056569
 21
-132.83555980614901
  0
LINE
  5
4B
100
AcDbEntity
  8
LC-001-002-----0
  6
CONTINUOUS
 62
             7
100
AcDbLine
 10
3.00003022056569
 20
-87.83535180614906
 11
160.0000442205658
 21
-87.83555680614906
  0
LINE
  5
4A
100
AcDbEntity
  8
LC-001-002-----0
  6
CONTINUOUS
 62
             7
100
AcDbLine
 10
180.00004322056569
 20
-88.58051180614906
 11
179.99998622056569
 21
-132.0317358061491
  0
LINE
  5
49
100
AcDbEntity
  8
LC-001-002-----0
  6
CONTINUOUS
 62
             7
100
AcDbLine
 10
160.0000472205657
 20
-85.83555680614906
 11
160.0000442205658
 21
-87.83555680614906
  0
LINE
  5
48
100
AcDbEntity
  8
LC-001-002-----0
  6
CONTINUOUS
 62
             7
100
AcDbLine
 10
162.0000472205657
 20
-85.83555980614905
 11
162.0000442205658
 21
-87.83555980614905
  0
LINE
  5
47
100
AcDbEntity
  8
LC-001-002-----0
  6
CONTINUOUS
 62
             7
100
AcDbLine
 10
161.00004822056579
 20
-84.83555880614905
 11
161.00004822056579
 21
-84.83555880614905
  0
LINE
  5
46
100
AcDbEntity
  8
LC-001-002-----0
  6
CONTINUOUS
 62
             7
100
AcDbLine
 10
160.9999812205657
 20
-135.83555880614901
 11
160.9999812205657
 21
-135.83555880614901
  0
LINE
  5
45
100
AcDbEntity
  8
LC-001-002-----0
  6
CONTINUOUS
 62
             7
100
AcDbLine
 10
159.99998522056569
 20
-132.83555680614899
 11
159.9999832205657
 21
-134.83555680614899
  0
LINE
  5
44
100
AcDbEntity
  8
LC-001-002-----0
  6
CONTINUOUS
 62
             7
100
AcDbLine
 10
161.99998522056569
 20
-132.83555980614901
 11
161.9999832205657
 21
-134.83555980614901
  0
LINE
  5
43
100
AcDbEntity
  8
LC-001-002-----0
  6
CONTINUOUS
 62
             7
100
AcDbLine
 10
162.0000442205658
 20
-87.83555980614905
 11
177.0000442205658
 21
-87.83557980614906
  0
LINE
  5
42
100
AcDbEntity
  8
LC-001-002-----0
  6
CONTINUOUS
 62
             7
100
AcDbLine
 10
159.99998522056569
 20
-132.83555680614899
 11
2.99998522056569
 21
-132.83535180614911
  0
LINE
  5
41
100
AcDbEntity
  8
LC-001-002-----0
  6
CONTINUOUS
 62
             7
100
AcDbLine
 10
176.99998522056569
 20
-132.835583806149
 11
179.99998622056569
 21
-132.0317358061491
  0
LINE
  5
40
100
AcDbEntity
  8
LC-001-002-----0
  6
CONTINUOUS
 62
             7
100
AcDbLine
 10
177.0000442205658
 20
-87.83557580614907
 11
180.00004322056569
 21
-88.63943080614907
  0
LINE
  5
3F
100
AcDbEntity
  8
LC-001-002-----0
  6
CONTINUOUS
 62
             7
100
AcDbLine
 10
3.00004422056571
 20
-87.83534780614905
 11
0.00004322056571
 21
-88.63919580614906
  0
LINE
  5
3E
100
AcDbEntity
  8
LC-001-002-----0
  6
CONTINUOUS
 62
             7
100
AcDbLine
 10
2.99998522056569
 20
-132.83535580614901
 11
-0.00001377943431
 21
-132.03149980614899
  0
LINE
  5
3D
100
AcDbEntity
  8
1
  6
CONTINUOUS
 62
             7
100
AcDbLine
 10
2.99998522056569
 20
-132.83535580614901
 11
2.99998522056569
 21
-87.83535180609034
  0
LINE
  5
3C
100
AcDbEntity
  8
1
  6
CONTINUOUS
 62
             7
100
AcDbLine
 10
160.0000442205658
 20
-87.83555680614906
 11
160.0000442205658
 21
-132.83555680622621
  0
LINE
  5
3B
100
AcDbEntity
  8
1
  6
CONTINUOUS
 62
             7
100
AcDbLine
 10
161.99998522056569
 20
-132.83555980614901
 11
161.99998522056569
 21
-87.83555980607035
  0
LINE
  5
3A
100
AcDbEntity
  8
1
  6
CONTINUOUS
 62
             7
100
AcDbLine
 10
177.0000442205658
 20
-87.83557980614906
 11
177.0000442205658
 21
-132.83557980614901
  0
ENDBLK
  5
55
100
AcDbEntity
  8
0
100
AcDbBlockEnd
  0
BLOCK
  5
2F
100
AcDbEntity
  8
0
100
AcDbBlockBegin
  2
HL222_90_ANSCHLUSSSTUTZEN
 70
             0
 10
-17.50373442202698
 20
-63.99695399999996
 30
0.0
  3
HL222_90_ANSCHLUSSSTUTZEN
  1

  0
DIMENSION
  5
91
100
AcDbEntity
  8
1
100
AcDbDimension
  2
*D5
 10
-8.50373442202698
 20
-45.18533299999996
 11
-14.00373442202698
 21
2.81839294789403
 31
0.0
 53
90.00000000000003
  1
DN90
  3
ME10_DIM_1
100
AcDbAlignedDimension
 13
3.99872400000004
 23
45.18533200000002
 14
3.99872400000004
 24
-45.18533299999996
 50
90.00000000000003
100
AcDbRotatedDimension
  0
DIMENSION
  5
86
100
AcDbEntity
  8
1
100
AcDbDimension
  2
*D4
 10
179.999942
 20
70.28046800000004
 11
77.752623624047
 21
75.78046800000004
 31
0.0
 53
0.00013888888889
  1
<>
  3
ME10_DIM_0
100
AcDbAlignedDimension
 13
0.0
 23
44.11390600000004
 14
179.999942
 24
63.99695300000002
100
AcDbRotatedDimension
  0
ARC
  5
7A
100
AcDbEntity
  8
LC-005-001-----0
  6
CONTINUOUS
 62
             7
100
AcDbCircle
 10
152.01294200000001
 20
-61.375
 40
0.98200000000003
100
AcDbArc
 50
0.00001500000228
 51
90.00000799999647
  0
ARC
  5
79
100
AcDbEntity
  8
LC-005-001-----0
  6
CONTINUOUS
 62
             7
100
AcDbCircle
 10
152.01294200000001
 20
61.375
 40
0.98199999999997
100
AcDbArc
 50
-90.0
 51
0.0
  0
ARC
  5
78
100
AcDbEntity
  8
LC-003-002-RND-0
  6
CONTINUOUS
 62
             7
100
AcDbCircle
 10
154.95894200000001
 20
-62.03295399999996
 40
1.964
100
AcDbArc
 50
180.0
 51
-90.0
  0
ARC
  5
77
100
AcDbEntity
  8
LC-003-002-RND-0
  6
CONTINUOUS
 62
             7
100
AcDbCircle
 10
154.95894200000001
 20
62.03295300000002
 40
1.964
100
AcDbArc
 50
90.0
 51
180.0
  0
ARC
  5
76
100
AcDbEntity
  8
LC-005-001-----0
  6
CONTINUOUS
 62
             7
100
AcDbCircle
 10
124.99994599999999
 20
50.586299
 40
5.40099999999995
100
AcDbArc
 50
-90.0
 51
-15.00004600000523
  0
ARC
  5
75
100
AcDbEntity
  8
LC-003-002-RND-0
  6
CONTINUOUS
 62
             7
100
AcDbCircle
 10
135.88462000000001
 20
-55.99299999999999
 40
4.40000000000038
100
AcDbArc
 50
-169.99999999999397
 51
-90.0
  0
ARC
  5
74
100
AcDbEntity
  8
LC-005-001-----0
  6
CONTINUOUS
 62
             7
100
AcDbCircle
 10
124.99994599999999
 20
-50.586299
 40
5.40099999999962
100
AcDbArc
 50
15.00004599999533
 51
90.0
  0
ARC
  5
73
100
AcDbEntity
  8
LC-003-002-RND-0
  6
CONTINUOUS
 62
             7
100
AcDbCircle
 10
135.88462000000001
 20
55.99300000000005
 40
4.39999999999998
100
AcDbArc
 50
90.0
 51
169.9999999999948
  0
LINE
  5
72
100
AcDbEntity
  8
1
  6
CONTINUOUS
 62
             7
100
AcDbLine
 10
152.99494200000001
 20
61.375
 11
152.99494200000001
 21
-61.37499974291296
  0
LINE
  5
71
100
AcDbEntity
  8
LC-005-001-----0
  6
CONTINUOUS
 62
             7
100
AcDbLine
 10
152.012941862887
 20
-60.39299999999997
 11
135.88462000000001
 21
-60.39299999999997
  0
LINE
  5
70
100
AcDbEntity
  8
LC-005-001-----0
  6
CONTINUOUS
 62
             7
100
AcDbLine
 10
152.012941862887
 20
60.39300000000003
 11
135.88462000000001
 21
60.39300000000003
  0
LINE
  5
6F
100
AcDbEntity
  8
1
  6
CONTINUOUS
 62
             7
100
AcDbLine
 10
152.012941862887
 20
-60.39299999999997
 11
152.012941862887
 21
60.39300000000003
  0
LINE
  5
6E
100
AcDbEntity
  8
1
  6
CONTINUOUS
 62
             7
100
AcDbLine
 10
135.88462000000001
 20
60.39300000000003
 11
135.88462000000001
 21
-60.39299999999997
  0
LINE
  5
6D
100
AcDbEntity
  8
1
  6
CONTINUOUS
 62
             7
100
AcDbLine
 10
130.21691026549399
 20
-49.188413148954
 11
130.21691026549399
 21
49.18841314895303
  0
LINE
  5
6C
100
AcDbEntity
  8
1
  6
CONTINUOUS
 62
             7
100
AcDbLine
 10
124.999942
 20
45.18529900000004
 11
124.999942
 21
-45.18529899999999
  0
LINE
  5
6B
100
AcDbEntity
  8
1
  6
CONTINUOUS
 62
             7
100
AcDbLine
 10
154.95894200000001
 20
-63.99695399999996
 11
154.95894200000001
 21
63.99695300000002
  0
LINE
  5
6A
100
AcDbEntity
  8
LC-001-002-----0
  6
DASHDOT
 62
             2
100
AcDbLine
 10
181.999942
 20
0.0
 11
-1.99999999999997
 21
0.0
  0
LINE
  5
69
100
AcDbEntity
  8
LC-005-001-----0
  6
CONTINUOUS
 62
             7
100
AcDbLine
 10
3.99872400000004
 20
45.18533200000002
 11
124.999942
 21
45.18529900000004
  0
LINE
  5
68
100
AcDbEntity
  8
LC-005-001-----0
  6
CONTINUOUS
 62
             7
100
AcDbLine
 10
152.99494200000001
 20
-62.03295399999996
 11
152.99494200000001
 21
-61.375
  0
LINE
  5
67
100
AcDbEntity
  8
LC-005-001-----0
  6
CONTINUOUS
 62
             7
100
AcDbLine
 10
152.99494200000001
 20
62.03295300000002
 11
152.99494200000001
 21
61.375
  0
LINE
  5
66
100
AcDbEntity
  8
LC-001-002-----0
  6
CONTINUOUS
 62
             7
100
AcDbLine
 10
154.95894200000001
 20
-63.99695399999996
 11
179.999942
 21
-63.99695399999996
  0
LINE
  5
65
100
AcDbEntity
  8
LC-001-002-----0
  6
CONTINUOUS
 62
             7
100
AcDbLine
 10
154.95894200000001
 20
63.99695300000002
 11
179.999942
 21
63.99695300000002
  0
LINE
  5
64
100
AcDbEntity
  8
LC-005-001-----0
  6
CONTINUOUS
 62
             7
100
AcDbLine
 10
179.999942
 20
-63.99695399999996
 11
179.999942
 21
63.99695300000002
  0
LINE
  5
63
100
AcDbEntity
  8
LC-005-001-----0
  6
CONTINUOUS
 62
             7
100
AcDbLine
 10
0.0
 20
-44.11391399999997
 11
3.99872400000004
 21
-45.18539999999996
  0
LINE
  5
62
100
AcDbEntity
  8
LC-005-001-----0
  6
CONTINUOUS
 62
             7
100
AcDbLine
 10
179.999942
 20
63.99695300000002
 11
179.999942
 21
60.28046800000004
  0
LINE
  5
61
100
AcDbEntity
  8
LC-005-001-----0
  6
CONTINUOUS
 62
             7
100
AcDbLine
 10
0.0
 20
44.11390600000004
 11
3.99872400000004
 21
45.18533200000002
  0
LINE
  5
60
100
AcDbEntity
  8
LC-005-001-----0
  6
CONTINUOUS
 62
             7
100
AcDbLine
 10
152.01294200000001
 20
-60.39299999999997
 11
152.012941862887
 21
-60.39299999999997
  0
LINE
  5
5F
100
AcDbEntity
  8
LC-001-002-----0
  6
CONTINUOUS
 62
             7
100
AcDbLine
 10
130.21691000000001
 20
-49.18841399999997
 11
131.551466
 21
-56.75705199999999
  0
LINE
  5
5E
100
AcDbEntity
  8
LC-005-001-----0
  6
CONTINUOUS
 62
             7
100
AcDbLine
 10
179.999942
 20
-55.15528399999999
 11
179.999942
 21
-60.28046999999998
  0
LINE
  5
5D
100
AcDbEntity
  8
LC-005-001-----0
  6
CONTINUOUS
 62
             7
100
AcDbLine
 10
3.99872400000004
 20
-45.18533299999996
 11
124.999942
 21
-45.18529899999999
  0
LINE
  5
5C
100
AcDbEntity
  8
LC-005-001-----0
  6
CONTINUOUS
 62
             7
100
AcDbLine
 10
152.01294200000001
 20
60.39300000000003
 11
152.012941862887
 21
60.39300000000003
  0
LINE
  5
5B
100
AcDbEntity
  8
LC-001-002-----0
  6
CONTINUOUS
 62
             7
100
AcDbLine
 10
130.21691000000001
 20
49.18841300000003
 11
131.551466
 21
56.75705200000004
  0
LINE
  5
5A
100
AcDbEntity
  8
LC-001-002-----0
  6
CONTINUOUS
 62
             7
100
AcDbLine
 10
0.0
 20
44.11390600000004
 11
0.0
 21
-44.11391399999997
  0
LINE
  5
59
100
AcDbEntity
  8
LC-002-005-----0
  6
CONTINUOUS
 62
             7
100
AcDbLine
 10
153.10800900000001
 20
62.68971900000003
 11
154.302176
 21
63.88388700000002
  0
LINE
  5
58
100
AcDbEntity
  8
1
  6
CONTINUOUS
 62
             7
100
AcDbLine
 10
3.99872400000004
 20
-45.18539999999996
 11
3.99872400000004
 21
45.18533200000002
  0
POINT
  5
57
100
AcDbEntity
  8
0
 62
             7
100
AcDbPoint
 10
179.999942
 20
63.99695300000002
  0
POINT
  5
56
100
AcDbEntity
  8
0
 62
             7
100
AcDbPoint
 10
0.0
 20
42.78608000000003
  0
ENDBLK
  5
92
100
AcDbEntity
  8
0
100
AcDbBlockEnd
  0
BLOCK
  5
31
100
AcDbEntity
  8
0
100
AcDbBlockBegin
  2
0222_2E_MUTTER_MIT_KAPPEN
 70
             0
 10
198.8846888053678
 20
-54.99989223000801
 30
0.0
  3
0222_2E_MUTTER_MIT_KAPPEN
  1

  0
ARC
  5
C8
100
AcDbEntity
  8
LC-001-002-----0
  6
CONTINUOUS
 62
             7
100
AcDbCircle
 10
218.5672652205657
 20
18.22508599999998
 40
75.88952299999959
100
AcDbArc
 50
-74.77219900000033
 51
-49.78611400000037
  0
ARC
  5
C7
100
AcDbEntity
  8
LC-001-002-----0
  6
CONTINUOUS
 62
             7
100
AcDbCircle
 10
262.72246622056559
 20
-33.99986
 40
7.50000000000036
100
AcDbArc
 50
-49.78611400000063
 51
49.78626399999859
  0
ARC
  5
C6
100
AcDbEntity
  8
LC-001-002-----0
  6
CONTINUOUS
 62
             7
100
AcDbCircle
 10
218.5674012205657
 20
-86.22492199999999
 40
75.8895229999998
100
AcDbArc
 50
49.78626399999997
 51
74.77234900000023
  0
ARC
  5
C5
100
AcDbEntity
  8
LC-001-002-----0
  6
CONTINUOUS
 62
             7
100
AcDbCircle
 10
218.5674012205657
 20
86.22512427959344
 40
75.88952299999967
100
AcDbArc
 50
-74.77234900000022
 51
-49.78626399999996
  0
ARC
  5
C4
100
AcDbEntity
  8
LC-001-002-----0
  6
CONTINUOUS
 62
             7
100
AcDbCircle
 10
262.72246622056559
 20
34.00006227959347
 40
7.49999999999969
100
AcDbArc
 50
-49.78626399999855
 51
49.78611400000063
  0
ARC
  5
C3
100
AcDbEntity
  8
LC-001-002-----0
  6
CONTINUOUS
 62
             7
100
AcDbCircle
 10
218.5672652205657
 20
-18.22488372040651
 40
75.88952300000007
100
AcDbArc
 50
49.78611400000037
 51
74.77219900000033
  0
LINE
  5
C2
100
AcDbEntity
  8
1
  6
PHANTOM
 62
             2
100
AcDbLine
 10
198.8846888053678
 20
-33.99989199999999
 11
217.52222071152971
 21
-33.99989199999999
  0
LINE
  5
C1
100
AcDbEntity
  8
1
  6
PHANTOM
 62
             2
100
AcDbLine
 10
229.76974167843571
 20
-33.99989199999999
 11
225.5097343855987
 21
-33.99989199999999
  0
LINE
  5
C0
100
AcDbEntity
  8
1
  6
PHANTOM
 62
             2
100
AcDbLine
 10
225.5097343855987
 20
34.00009427959347
 11
229.76974167843571
 21
34.00009427959347
  0
LINE
  5
BF
100
AcDbEntity
  8
1
  6
PHANTOM
 62
             2
100
AcDbLine
 10
217.52222071152971
 20
34.00009427959347
 11
198.8846888053678
 21
34.00009427959347
  0
LINE
  5
BE
100
AcDbEntity
  8
LC-006-005-----0
  6
CONTINUOUS
 62
             7
100
AcDbLine
 10
214.13925822056569
 20
-52.37664399999999
 11
214.25018122056591
 21
-52.26572094999991
  0
LINE
  5
BD
100
AcDbEntity
  8
LC-006-005-----0
  6
CONTINUOUS
 62
             7
100
AcDbLine
 10
227.82971822056561
 20
-49.99989200000001
 11
228.50018122056591
 21
-49.329429
  0
LINE
  5
BC
100
AcDbEntity
  8
LC-001-002-----0
  6
CONTINUOUS
 62
             7
100
AcDbLine
 10
200.00018122056591
 20
-24.99989199999998
 11
200.00018122056591
 21
-42.99989200000001
  0
LINE
  5
BB
100
AcDbEntity
  8
LC-001-002-----0
  6
CONTINUOUS
 62
             7
100
AcDbLine
 10
200.00018122056591
 20
-42.99989200000001
 11
212.00018122056591
 21
-42.99989200000001
  0
LINE
  5
BA
100
AcDbEntity
  8
LC-001-002-----0
  6
CONTINUOUS
 62
             7
100
AcDbLine
 10
212.00018122056591
 20
-24.99989199999998
 11
200.00018122056591
 21
-24.99989199999998
  0
LINE
  5
B9
100
AcDbEntity
  8
LC-001-002-----0
  6
CONTINUOUS
 62
             7
100
AcDbLine
 10
216.50018122056591
 20
-17.99989199999998
 11
216.50018122056591
 21
-49.99989200000001
  0
LINE
  5
B8
100
AcDbEntity
  8
LC-001-002-----0
  6
CONTINUOUS
 62
             7
100
AcDbLine
 10
212.00018122056591
 20
-49.99989200000001
 11
212.00018122056591
 21
-42.99989200000001
  0
LINE
  5
B7
100
AcDbEntity
  8
LC-001-002-----0
  6
CONTINUOUS
 62
             7
100
AcDbLine
 10
212.00018122056591
 20
-24.99989199999998
 11
212.00018122056591
 21
-17.99989199999998
  0
LINE
  5
B6
100
AcDbEntity
  8
LC-001-002-----0
  6
CONTINUOUS
 62
             7
100
AcDbLine
 10
212.00018122056591
 20
-49.99989200000001
 11
214.25018122056591
 21
-52.49989200000001
  0
LINE
  5
B5
100
AcDbEntity
  8
LC-001-002-----0
  6
CONTINUOUS
 62
             7
100
AcDbLine
 10
214.25018122056591
 20
-52.49989200000001
 11
216.50018122056591
 21
-49.99989200000001
  0
LINE
  5
B4
100
AcDbEntity
  8
LC-001-002-----0
  6
CONTINUOUS
 62
             7
100
AcDbLine
 10
212.00018122056591
 20
-17.99989199999998
 11
214.25018122056591
 21
-15.49989199999998
  0
LINE
  5
B3
100
AcDbEntity
  8
LC-001-002-----0
  6
CONTINUOUS
 62
             7
100
AcDbLine
 10
214.25018122056591
 20
-15.49989199999998
 11
216.50018122056591
 21
-17.99989199999998
  0
LINE
  5
B2
100
AcDbEntity
  8
LC-001-002-----0
  6
CONTINUOUS
 62
             7
100
AcDbLine
 10
226.50018122056591
 20
-17.99989199999998
 11
226.50018122056591
 21
-49.99989200000001
  0
LINE
  5
B1
100
AcDbEntity
  8
LC-001-002-----0
  6
CONTINUOUS
 62
             7
100
AcDbLine
 10
226.50018122056591
 20
-49.99989200000001
 11
228.50018122056591
 21
-49.99989200000001
  0
LINE
  5
B0
100
AcDbEntity
  8
LC-001-002-----0
  6
CONTINUOUS
 62
             7
100
AcDbLine
 10
228.50018122056591
 20
-49.99989200000001
 11
228.50018122056591
 21
-17.99989199999998
  0
LINE
  5
AF
100
AcDbEntity
  8
LC-001-002-----0
  6
CONTINUOUS
 62
             7
100
AcDbLine
 10
228.50018122056591
 20
-17.99989199999998
 11
226.50018122056591
 21
-17.99989199999998
  0
LINE
  5
AE
100
AcDbEntity
  8
LC-001-002-----0
  6
CONTINUOUS
 62
             7
100
AcDbLine
 10
238.5002052205657
 20
-52.40613899999999
 11
238.5002082205657
 21
-54.99989200000001
  0
LINE
  5
AD
100
AcDbEntity
  8
LC-001-002-----0
  6
CONTINUOUS
 62
             7
100
AcDbLine
 10
238.50015322056561
 20
-12.99989199999999
 11
238.5002052205657
 21
-52.40613899999999
  0
LINE
  5
AC
100
AcDbEntity
  8
1
  6
CONTINUOUS
 62
             7
100
AcDbLine
 10
212.00018122056591
 20
-42.99989200000001
 11
212.00018122056591
 21
-24.99989199999998
  0
LINE
  5
AB
100
AcDbEntity
  8
1
  6
CONTINUOUS
 62
             7
100
AcDbLine
 10
214.25018122056591
 20
-15.49989199999998
 11
214.25018122056591
 21
-52.26572094999991
  0
LINE
  5
AA
100
AcDbEntity
  8
LC-006-005-----0
  6
CONTINUOUS
 62
             7
100
AcDbLine
 10
214.25018122056591
 20
-52.26572094999991
 11
216.3577202205656
 21
-50.15818100000001
  0
LINE
  5
A9
100
AcDbEntity
  8
1
  6
PHANTOM
 62
             2
100
AcDbLine
 10
237.5442549878637
 20
-33.99989199999999
 11
270.54425498786372
 21
-33.99989199999999
  0
LINE
  5
A8
100
AcDbEntity
  8
1
  6
PHANTOM
 62
             2
100
AcDbLine
 10
270.54425498786372
 20
34.00009427959347
 11
237.5442549878637
 21
34.00009427959347
  0
LINE
  5
A7
100
AcDbEntity
  8
LC-006-005-----0
  6
CONTINUOUS
 62
             7
100
AcDbLine
 10
216.3577202205656
 20
50.15838327959348
 11
214.25018122056591
 21
52.26592322959338
  0
LINE
  5
A6
100
AcDbEntity
  8
1
  6
CONTINUOUS
 62
             7
100
AcDbLine
 10
214.25018122056591
 20
52.26592322959338
 11
214.25018122056591
 21
15.50009427959346
  0
LINE
  5
A5
100
AcDbEntity
  8
1
  6
CONTINUOUS
 62
             7
100
AcDbLine
 10
212.00018122056591
 20
25.00009427959346
 11
212.00018122056591
 21
43.00009427959348
  0
LINE
  5
A4
100
AcDbEntity
  8
LC-001-002-----0
  6
CONTINUOUS
 62
             7
100
AcDbLine
 10
238.5002052205657
 20
52.40634127959346
 11
238.50015322056561
 21
13.00009427959346
  0
LINE
  5
A3
100
AcDbEntity
  8
LC-001-002-----0
  6
CONTINUOUS
 62
             7
100
AcDbLine
 10
238.5002082205657
 20
55.00009427959348
 11
238.5002052205657
 21
52.40634127959346
  0
LINE
  5
A2
100
AcDbEntity
  8
LC-001-002-----0
  6
CONTINUOUS
 62
             7
100
AcDbLine
 10
226.50018122056591
 20
18.00009427959346
 11
228.50018122056591
 21
18.00009427959346
  0
LINE
  5
A1
100
AcDbEntity
  8
LC-001-002-----0
  6
CONTINUOUS
 62
             7
100
AcDbLine
 10
228.50018122056591
 20
18.00009427959346
 11
228.50018122056591
 21
50.00009427959348
  0
LINE
  5
A0
100
AcDbEntity
  8
LC-001-002-----0
  6
CONTINUOUS
 62
             7
100
AcDbLine
 10
228.50018122056591
 20
50.00009427959348
 11
226.50018122056591
 21
50.00009427959348
  0
LINE
  5
9F
100
AcDbEntity
  8
LC-001-002-----0
  6
CONTINUOUS
 62
             7
100
AcDbLine
 10
226.50018122056591
 20
50.00009427959348
 11
226.50018122056591
 21
18.00009427959346
  0
LINE
  5
9E
100
AcDbEntity
  8
LC-001-002-----0
  6
CONTINUOUS
 62
             7
100
AcDbLine
 10
216.50018122056591
 20
18.00009427959346
 11
214.25018122056591
 21
15.50009427959346
  0
LINE
  5
9D
100
AcDbEntity
  8
LC-001-002-----0
  6
CONTINUOUS
 62
             7
100
AcDbLine
 10
214.25018122056591
 20
15.50009427959346
 11
212.00018122056591
 21
18.00009427959346
  0
LINE
  5
9C
100
AcDbEntity
  8
LC-001-002-----0
  6
CONTINUOUS
 62
             7
100
AcDbLine
 10
216.50018122056591
 20
50.00009427959348
 11
214.25018122056591
 21
52.50009427959348
  0
LINE
  5
9B
100
AcDbEntity
  8
LC-001-002-----0
  6
CONTINUOUS
 62
             7
100
AcDbLine
 10
214.25018122056591
 20
52.50009427959348
 11
212.00018122056591
 21
50.00009427959348
  0
LINE
  5
9A
100
AcDbEntity
  8
LC-001-002-----0
  6
CONTINUOUS
 62
             7
100
AcDbLine
 10
212.00018122056591
 20
18.00009427959346
 11
212.00018122056591
 21
25.00009427959346
  0
LINE
  5
99
100
AcDbEntity
  8
LC-001-002-----0
  6
CONTINUOUS
 62
             7
100
AcDbLine
 10
212.00018122056591
 20
43.00009427959348
 11
212.00018122056591
 21
50.00009427959348
  0
LINE
  5
98
100
AcDbEntity
  8
LC-001-002-----0
  6
CONTINUOUS
 62
             7
100
AcDbLine
 10
216.50018122056591
 20
50.00009427959348
 11
216.50018122056591
 21
18.00009427959346
  0
LINE
  5
97
100
AcDbEntity
  8
LC-001-002-----0
  6
CONTINUOUS
 62
             7
100
AcDbLine
 10
200.00018122056591
 20
25.00009427959346
 11
212.00018122056591
 21
25.00009427959346
  0
LINE
  5
96
100
AcDbEntity
  8
LC-001-002-----0
  6
CONTINUOUS
 62
             7
100
AcDbLine
 10
212.00018122056591
 20
43.00009427959348
 11
200.00018122056591
 21
43.00009427959348
  0
LINE
  5
95
100
AcDbEntity
  8
LC-001-002-----0
  6
CONTINUOUS
 62
             7
100
AcDbLine
 10
200.00018122056591
 20
43.00009427959348
 11
200.00018122056591
 21
25.00009427959346
  0
LINE
  5
94
100
AcDbEntity
  8
LC-006-005-----0
  6
CONTINUOUS
 62
             7
100
AcDbLine
 10
228.50018122056591
 20
49.32963127959347
 11
227.82971822056561
 21
50.00009427959348
  0
LINE
  5
93
100
AcDbEntity
  8
LC-006-005-----0
  6
CONTINUOUS
 62
             7
100
AcDbLine
 10
214.25018122056591
 20
52.26592322959338
 11
214.13925822056569
 21
52.37684627959347
  0
ENDBLK
  5
C9
100
AcDbEntity
  8
0
100
AcDbBlockEnd
  0
BLOCK
  5
33
100
AcDbEntity
  8
0
100
AcDbBlockBegin
  2
0222_3E_GI-MANSCHETTE_2_1E
 70
             0
 10
197.84453193801471
 20
-140.1341868061497
 30
0.0
  3
0222_3E_GI-MANSCHETTE_2_1E
  1

  0
ARC
  5
13A
100
AcDbEntity
  8
LC-005-002-RND-0
  6
CONTINUOUS
 62
             7
100
AcDbCircle
 10
202.60001522056561
 20
-140.03418680614911
 40
0.09999999999991
100
AcDbArc
 50
180.0
 51
-45.0
  0
ARC
  5
139
100
AcDbEntity
  8
LC-005-002-RND-0
  6
CONTINUOUS
 62
             7
100
AcDbCircle
 10
204.7086112205657
 20
-134.23560780614909
 40
0.10000000000008
100
AcDbArc
 50
90.0
 51
169.99999999973502
  0
ARC
  5
138
100
AcDbEntity
  8
LC-005-002-RND-0
  6
CONTINUOUS
 62
             7
100
AcDbCircle
 10
208.20001522056569
 20
-140.03418680614911
 40
0.10000000000008
100
AcDbArc
 50
180.0
 51
-44.99999999990789
  0
ARC
  5
137
100
AcDbEntity
  8
LC-005-002-RND-0
  6
CONTINUOUS
 62
             7
100
AcDbCircle
 10
203.67212022056569
 20
-138.96208080614909
 40
0.10000000000051
100
AcDbArc
 50
-45.0
 51
-10.00000000014896
  0
ARC
  5
136
100
AcDbEntity
  8
LC-005-002-RND-0
  6
CONTINUOUS
 62
             7
100
AcDbCircle
 10
209.27212022056571
 20
-138.96208080614909
 40
0.10000000000049
100
AcDbArc
 50
-45.00000000001151
 51
-10.00000000016876
  0
ARC
  5
135
100
AcDbEntity
  8
LC-005-002-RND-0
  6
CONTINUOUS
 62
             7
100
AcDbCircle
 10
213.80001522056571
 20
-140.03418680614911
 40
0.10000000000002
100
AcDbArc
 50
180.0
 51
-45.0
  0
ARC
  5
134
100
AcDbEntity
  8
LC-005-002-RND-0
  6
CONTINUOUS
 62
             7
100
AcDbCircle
 10
214.87212022056571
 20
-138.96208080614909
 40
0.10000000000043
100
AcDbArc
 50
-45.00000000004606
 51
-10.00000000014896
  0
ARC
  5
133
100
AcDbEntity
  8
LC-005-002-RND-0
  6
CONTINUOUS
 62
             7
100
AcDbCircle
 10
219.0000152205657
 20
-140.03418680614911
 40
0.09999999999999
100
AcDbArc
 50
180.0
 51
-44.99999999998849
  0
ARC
  5
132
100
AcDbEntity
  8
LC-005-002-RND-0
  6
CONTINUOUS
 62
             7
100
AcDbCircle
 10
220.07212022056569
 20
-138.96208080614909
 40
0.10000000000051
100
AcDbArc
 50
-45.0
 51
-10.00000000015744
  0
ARC
  5
131
100
AcDbEntity
  8
LC-005-002-RND-0
  6
CONTINUOUS
 62
             7
100
AcDbCircle
 10
202.40001522056571
 20
-134.23560780614909
 40
0.09999999999999
100
AcDbArc
 50
0.0
 51
90.0
  0
ARC
  5
130
100
AcDbEntity
  8
LC-005-002-RND-0
  6
CONTINUOUS
 62
             7
100
AcDbCircle
 10
208.0000152205657
 20
-134.23560780614909
 40
0.09999999999991
100
AcDbArc
 50
0.0
 51
90.0
  0
ARC
  5
12F
100
AcDbEntity
  8
LC-005-002-RND-0
  6
CONTINUOUS
 62
             7
100
AcDbCircle
 10
210.30861122056569
 20
-134.23560780614909
 40
0.10000000000008
100
AcDbArc
 50
90.0
 51
169.99999999975483
  0
ARC
  5
12E
100
AcDbEntity
  8
LC-005-002-RND-0
  6
CONTINUOUS
 62
             7
100
AcDbCircle
 10
213.60001522056561
 20
-134.23560780614909
 40
0.10000000000008
100
AcDbArc
 50
0.0
 51
90.0
  0
ARC
  5
12D
100
AcDbEntity
  8
LC-005-002-RND-0
  6
CONTINUOUS
 62
             7
100
AcDbCircle
 10
215.90861122056569
 20
-134.23560780614909
 40
0.10000000000008
100
AcDbArc
 50
90.0
 51
169.99999999975483
  0
ARC
  5
12C
100
AcDbEntity
  8
LC-005-002-RND-0
  6
CONTINUOUS
 62
             7
100
AcDbCircle
 10
218.80001522056571
 20
-134.23560780614909
 40
0.09999999999999
100
AcDbArc
 50
0.0
 51
90.0
  0
ARC
  5
12B
100
AcDbEntity
  8
LC-005-002-RND-0
  6
CONTINUOUS
 62
             7
100
AcDbCircle
 10
221.2764302205658
 20
-134.43560780614911
 40
0.3000000000001
100
AcDbArc
 50
90.0
 51
170.00000000001074
  0
ARC
  5
12A
100
AcDbEntity
  8
LC-005-002-RND-0
  6
CONTINUOUS
 62
             7
100
AcDbCircle
 10
221.2764302205658
 20
-86.23556282050414
 40
0.30000000000044
100
AcDbArc
 50
-170.00000000001074
 51
-90.0
  0
ARC
  5
129
100
AcDbEntity
  8
LC-005-002-RND-0
  6
CONTINUOUS
 62
             7
100
AcDbCircle
 10
218.80001522056571
 20
-86.43556282050425
 40
0.10000000000002
100
AcDbArc
 50
-90.0
 51
0.0
  0
ARC
  5
128
100
AcDbEntity
  8
LC-005-002-RND-0
  6
CONTINUOUS
 62
             7
100
AcDbCircle
 10
215.90861122056569
 20
-86.43556282050425
 40
0.09999999999984
100
AcDbArc
 50
-169.99999999980295
 51
-90.0
  0
ARC
  5
127
100
AcDbEntity
  8
LC-005-002-RND-0
  6
CONTINUOUS
 62
             7
100
AcDbCircle
 10
213.60001522056561
 20
-86.43556282050425
 40
0.10000000000002
100
AcDbArc
 50
-90.0
 51
0.0
  0
ARC
  5
126
100
AcDbEntity
  8
LC-005-002-RND-0
  6
CONTINUOUS
 62
             7
100
AcDbCircle
 10
210.30861122056569
 20
-86.43556282050425
 40
0.09999999999984
100
AcDbArc
 50
-169.99999999980295
 51
-90.0
  0
ARC
  5
125
100
AcDbEntity
  8
LC-005-002-RND-0
  6
CONTINUOUS
 62
             7
100
AcDbCircle
 10
208.0000152205657
 20
-86.43556282050425
 40
0.10000000000002
100
AcDbArc
 50
-90.0
 51
0.0
  0
ARC
  5
124
100
AcDbEntity
  8
LC-005-002-RND-0
  6
CONTINUOUS
 62
             7
100
AcDbCircle
 10
202.40001522056571
 20
-86.43556282050425
 40
0.10000000000002
100
AcDbArc
 50
-90.0
 51
0.0
  0
ARC
  5
123
100
AcDbEntity
  8
LC-005-002-RND-0
  6
CONTINUOUS
 62
             7
100
AcDbCircle
 10
220.07212022056569
 20
-81.70908982050425
 40
0.09999999999975
100
AcDbArc
 50
10.00000000020556
 51
44.99999999998849
  0
ARC
  5
122
100
AcDbEntity
  8
LC-005-002-RND-0
  6
CONTINUOUS
 62
             7
100
AcDbCircle
 10
219.0000152205657
 20
-80.63698382050417
 40
0.10000000000043
100
AcDbArc
 50
44.99999999995394
 51
180.0
  0
ARC
  5
121
100
AcDbEntity
  8
LC-005-002-RND-0
  6
CONTINUOUS
 62
             7
100
AcDbCircle
 10
214.87212022056571
 20
-81.70908982050425
 40
0.09999999999984
100
AcDbArc
 50
10.00000000019707
 51
45.00000000003455
  0
ARC
  5
120
100
AcDbEntity
  8
LC-005-002-RND-0
  6
CONTINUOUS
 62
             7
100
AcDbCircle
 10
213.80001522056571
 20
-80.63698382050417
 40
0.10000000000041
100
AcDbArc
 50
44.99999999996546
 51
180.0
  0
ARC
  5
11F
100
AcDbEntity
  8
LC-005-002-RND-0
  6
CONTINUOUS
 62
             7
100
AcDbCircle
 10
209.27212022056571
 20
-81.70908982050425
 40
0.09999999999964
100
AcDbArc
 50
10.00000000021687
 51
45.0
  0
ARC
  5
11E
100
AcDbEntity
  8
LC-005-002-RND-0
  6
CONTINUOUS
 62
             7
100
AcDbCircle
 10
203.67212022056569
 20
-81.70908982050425
 40
0.09999999999984
100
AcDbArc
 50
10.00000000019707
 51
44.99999999998849
  0
ARC
  5
11D
100
AcDbEntity
  8
LC-005-002-RND-0
  6
CONTINUOUS
 62
             7
100
AcDbCircle
 10
208.20001522056569
 20
-80.63698382050417
 40
0.10000000000057
100
AcDbArc
 50
44.99999999987334
 51
180.0
  0
ARC
  5
11C
100
AcDbEntity
  8
LC-005-002-RND-0
  6
CONTINUOUS
 62
             7
100
AcDbCircle
 10
204.7086112205657
 20
-86.43556282050425
 40
0.09999999999964
100
AcDbArc
 50
-169.99999999978314
 51
-90.0
  0
ARC
  5
11B
100
AcDbEntity
  8
LC-005-002-RND-0
  6
CONTINUOUS
 62
             7
100
AcDbCircle
 10
202.60001522056561
 20
-80.63698382050417
 40
0.10000000000041
100
AcDbArc
 50
44.99999999996546
 51
180.0
  0
LINE
  5
11A
100
AcDbEntity
  8
1
  6
PHANTOM
 62
             2
100
AcDbLine
 10
225.03003411198179
 20
-110.3355853133267
 11
197.84453193801471
 21
-110.3355853133267
  0
LINE
  5
119
100
AcDbEntity
  8
LC-006-005-----0
  6
CONTINUOUS
 62
             7
100
AcDbLine
 10
213.70001522056569
 20
-134.23560780614909
 11
213.67013722056569
 21
-134.16431380614901
  0
LINE
  5
118
100
AcDbEntity
  8
LC-006-005-----0
  6
CONTINUOUS
 62
             7
100
AcDbLine
 10
215.90861122056569
 20
-134.13560780614901
 11
215.8631552205658
 21
-134.1465368061491
  0
LINE
  5
117
100
AcDbEntity
  8
LC-006-005-----0
  6
CONTINUOUS
 62
             7
100
AcDbLine
 10
213.70001522056569
 20
-134.23560780614909
 11
213.67013722056569
 21
-134.16431380614901
  0
LINE
  5
116
100
AcDbEntity
  8
LC-006-005-----0
  6
CONTINUOUS
 62
             7
100
AcDbLine
 10
213.70001522056569
 20
-134.23560780614909
 11
213.60001522056561
 21
-134.23560780614909
  0
LINE
  5
115
100
AcDbEntity
  8
LC-006-005-----0
  6
CONTINUOUS
 62
             7
100
AcDbLine
 10
213.60001522056561
 20
-134.23560780614909
 11
213.67013722056569
 21
-134.16431380614901
  0
LINE
  5
114
100
AcDbEntity
  8
LC-006-005-----0
  6
CONTINUOUS
 62
             7
100
AcDbLine
 10
215.90861122056569
 20
-134.13560780614901
 11
215.8631552205658
 21
-134.1465368061491
  0
LINE
  5
113
100
AcDbEntity
  8
LC-006-005-----0
  6
CONTINUOUS
 62
             7
100
AcDbLine
 10
215.90861122056569
 20
-134.13560780614901
 11
215.90861122056569
 21
-134.23560780614909
  0
LINE
  5
112
100
AcDbEntity
  8
LC-006-005-----0
  6
CONTINUOUS
 62
             7
100
AcDbLine
 10
215.90861122056569
 20
-134.23560780614909
 11
215.8631552205658
 21
-134.1465368061491
  0
LINE
  5
111
100
AcDbEntity
  8
LC-006-005-----0
  6
CONTINUOUS
 62
             7
100
AcDbLine
 10
219.06861122056571
 20
-139.89834080614909
 11
220.18872322056561
 21
-138.77822880614909
  0
LINE
  5
110
100
AcDbEntity
  8
LC-001-002-----0
  6
CONTINUOUS
 62
             7
100
AcDbLine
 10
224.0000152205657
 20
-134.13560780614901
 11
221.2764302205658
 21
-134.13560780614901
  0
LINE
  5
10F
100
AcDbEntity
  8
LC-001-002-----0
  6
CONTINUOUS
 62
             7
100
AcDbLine
 10
199.0000152205657
 20
-110.33560772971209
 11
199.0000152205657
 21
-134.13560780614901
  0
LINE
  5
10E
100
AcDbEntity
  8
LC-001-002-----0
  6
CONTINUOUS
 62
             7
100
AcDbLine
 10
202.5000152205657
 20
-134.23560780614909
 11
202.5000152205657
 21
-140.03418680614911
  0
LINE
  5
10D
100
AcDbEntity
  8
LC-001-002-----0
  6
CONTINUOUS
 62
             7
100
AcDbLine
 10
202.67072522056571
 20
-140.10489780614901
 11
203.74283122056571
 21
-139.03279180614911
  0
LINE
  5
10C
100
AcDbEntity
  8
LC-001-002-----0
  6
CONTINUOUS
 62
             7
100
AcDbLine
 10
202.40001522056571
 20
-134.13560780614901
 11
199.0000152205657
 21
-134.13560780614901
  0
LINE
  5
10B
100
AcDbEntity
  8
LC-001-002-----0
  6
CONTINUOUS
 62
             7
100
AcDbLine
 10
204.61013022056571
 20
-134.2182438061491
 11
203.77060122056571
 21
-138.97944580614899
  0
LINE
  5
10A
100
AcDbEntity
  8
LC-001-002-----0
  6
CONTINUOUS
 62
             7
100
AcDbLine
 10
208.10001522056561
 20
-134.23560780614909
 11
208.10001522056561
 21
-140.03418680614911
  0
LINE
  5
109
100
AcDbEntity
  8
LC-001-002-----0
  6
CONTINUOUS
 62
             7
100
AcDbLine
 10
208.27072522056571
 20
-140.10489780614901
 11
209.3428312205657
 21
-139.03279180614911
  0
LINE
  5
108
100
AcDbEntity
  8
LC-001-002-----0
  6
CONTINUOUS
 62
             7
100
AcDbLine
 10
210.2101302205657
 20
-134.2182438061491
 11
209.3706012205657
 21
-138.97944580614899
  0
LINE
  5
107
100
AcDbEntity
  8
LC-001-002-----0
  6
CONTINUOUS
 62
             7
100
AcDbLine
 10
213.70001522056569
 20
-134.23560780614909
 11
213.70001522056569
 21
-140.03418680614911
  0
LINE
  5
106
100
AcDbEntity
  8
LC-001-002-----0
  6
CONTINUOUS
 62
             7
100
AcDbLine
 10
213.8707252205657
 20
-140.10489780614901
 11
214.94283122056569
 21
-139.03279180614911
  0
LINE
  5
105
100
AcDbEntity
  8
LC-001-002-----0
  6
CONTINUOUS
 62
             7
100
AcDbLine
 10
215.8101302205657
 20
-134.2182438061491
 11
214.97060122056561
 21
-138.97944580614899
  0
LINE
  5
104
100
AcDbEntity
  8
LC-001-002-----0
  6
CONTINUOUS
 62
             7
100
AcDbLine
 10
218.90001522056571
 20
-134.23560780614909
 11
218.90001522056571
 21
-140.03418680614911
  0
LINE
  5
103
100
AcDbEntity
  8
LC-001-002-----0
  6
CONTINUOUS
 62
             7
100
AcDbLine
 10
219.07072522056569
 20
-140.10489780614901
 11
220.1428312205658
 21
-139.03279180614911
  0
LINE
  5
102
100
AcDbEntity
  8
LC-001-002-----0
  6
CONTINUOUS
 62
             7
100
AcDbLine
 10
220.98098822056571
 20
-134.38351380614901
 11
220.17060122056569
 21
-138.97944580614899
  0
LINE
  5
101
100
AcDbEntity
  8
LC-001-002-----0
  6
CONTINUOUS
 62
             7
100
AcDbLine
 10
218.80001522056571
 20
-134.13560780614901
 11
215.90861122056569
 21
-134.13560780614901
  0
LINE
  5
100
100
AcDbEntity
  8
LC-001-002-----0
  6
CONTINUOUS
 62
             7
100
AcDbLine
 10
213.60001522056561
 20
-134.13560780614901
 11
210.30861122056569
 21
-134.13560780614901
  0
LINE
  5
FF
100
AcDbEntity
  8
LC-001-002-----0
  6
CONTINUOUS
 62
             7
100
AcDbLine
 10
208.0000152205657
 20
-134.13560780614901
 11
204.7086112205657
 21
-134.13560780614901
  0
LINE
  5
FE
100
AcDbEntity
  8
LC-001-002-----0
  6
CONTINUOUS
 62
             7
100
AcDbLine
 10
224.0000152205657
 20
-110.33564037302131
 11
224.0000152205657
 21
-134.13560780614901
  0
LINE
  5
FD
100
AcDbEntity
  8
1
  6
CONTINUOUS
 62
             7
100
AcDbLine
 10
202.40001522056571
 20
-134.23560780614909
 11
202.40001522056571
 21
-110.3355853133267
  0
LINE
  5
FC
100
AcDbEntity
  8
1
  6
CONTINUOUS
 62
             7
100
AcDbLine
 10
203.74283122056571
 20
-139.03279180614911
 11
203.74283122056571
 21
-110.3355829207964
  0
LINE
  5
FB
100
AcDbEntity
  8
1
  6
CONTINUOUS
 62
             7
100
AcDbLine
 10
204.7086112205657
 20
-134.23560780614909
 11
204.7086112205657
 21
-110.3355829207964
  0
LINE
  5
FA
100
AcDbEntity
  8
1
  6
CONTINUOUS
 62
             7
100
AcDbLine
 10
208.0000152205657
 20
-134.23560780614909
 11
208.0000152205657
 21
-110.3355853133267
  0
LINE
  5
F9
100
AcDbEntity
  8
1
  6
CONTINUOUS
 62
             7
100
AcDbLine
 10
209.27212022056571
 20
-138.96208080614909
 11
209.27212022056571
 21
-110.3355853133267
  0
LINE
  5
F8
100
AcDbEntity
  8
1
  6
CONTINUOUS
 62
             7
100
AcDbLine
 10
210.30861122056569
 20
-134.23560780614909
 11
210.30861122056569
 21
-110.3355853133267
  0
LINE
  5
F7
100
AcDbEntity
  8
1
  6
CONTINUOUS
 62
             7
100
AcDbLine
 10
213.60001522056561
 20
-134.23560780614909
 11
213.60001522056561
 21
-110.3355829207964
  0
LINE
  5
F6
100
AcDbEntity
  8
1
  6
CONTINUOUS
 62
             7
100
AcDbLine
 10
214.9706009958667
 20
-138.97944562391601
 11
214.9706009958667
 21
-110.3355853133267
  0
LINE
  5
F5
100
AcDbEntity
  8
1
  6
CONTINUOUS
 62
             7
100
AcDbLine
 10
215.90861122056569
 20
-134.23560780614909
 11
215.90861122056569
 21
-110.3355853133267
  0
LINE
  5
F4
100
AcDbEntity
  8
1
  6
CONTINUOUS
 62
             7
100
AcDbLine
 10
218.90001522056571
 20
-134.23560780614909
 11
218.90001522056571
 21
-110.3355853133267
  0
LINE
  5
F3
100
AcDbEntity
  8
1
  6
CONTINUOUS
 62
             7
100
AcDbLine
 10
220.98098789466169
 20
-134.38351335284901
 11
220.98098789466169
 21
-110.38351335284911
  0
LINE
  5
F2
100
AcDbEntity
  8
1
  6
CONTINUOUS
 62
             7
100
AcDbLine
 10
220.1428312205658
 20
-139.03279180614911
 11
220.1428312205658
 21
-110.3355829207964
  0
LINE
  5
F1
100
AcDbEntity
  8
1
  6
CONTINUOUS
 62
             7
100
AcDbLine
 10
220.1428312205658
 20
-110.3355877058569
 11
220.1428312205658
 21
-81.63837882050414
  0
LINE
  5
F0
100
AcDbEntity
  8
1
  6
CONTINUOUS
 62
             7
100
AcDbLine
 10
220.98098789466169
 20
-110.2876572738042
 11
220.98098789466169
 21
-86.28765727380424
  0
LINE
  5
EF
100
AcDbEntity
  8
1
  6
CONTINUOUS
 62
             7
100
AcDbLine
 10
218.90001522056571
 20
-110.3355853133267
 11
218.90001522056571
 21
-86.43556282050425
  0
LINE
  5
EE
100
AcDbEntity
  8
1
  6
CONTINUOUS
 62
             7
100
AcDbLine
 10
215.90861122056569
 20
-110.3355853133267
 11
215.90861122056569
 21
-86.43556282050425
  0
LINE
  5
ED
100
AcDbEntity
  8
1
  6
CONTINUOUS
 62
             7
100
AcDbLine
 10
214.9706009958667
 20
-110.3355853133267
 11
214.9706009958667
 21
-81.69172500273724
  0
LINE
  5
EC
100
AcDbEntity
  8
1
  6
CONTINUOUS
 62
             7
100
AcDbLine
 10
213.60001522056561
 20
-110.3355877058569
 11
213.60001522056561
 21
-86.43556282050425
  0
LINE
  5
EB
100
AcDbEntity
  8
1
  6
CONTINUOUS
 62
             7
100
AcDbLine
 10
210.30861122056569
 20
-110.3355853133267
 11
210.30861122056569
 21
-86.43556282050425
  0
LINE
  5
EA
100
AcDbEntity
  8
1
  6
CONTINUOUS
 62
             7
100
AcDbLine
 10
209.27212022056571
 20
-110.3355853133267
 11
209.27212022056571
 21
-81.70908982050425
  0
LINE
  5
E9
100
AcDbEntity
  8
1
  6
CONTINUOUS
 62
             7
100
AcDbLine
 10
208.0000152205657
 20
-110.3355853133267
 11
208.0000152205657
 21
-86.43556282050425
  0
LINE
  5
E8
100
AcDbEntity
  8
1
  6
CONTINUOUS
 62
             7
100
AcDbLine
 10
204.7086112205657
 20
-110.3355877058569
 11
204.7086112205657
 21
-86.43556282050425
  0
LINE
  5
E7
100
AcDbEntity
  8
1
  6
CONTINUOUS
 62
             7
100
AcDbLine
 10
203.74283122056571
 20
-110.3355877058569
 11
203.74283122056571
 21
-81.63837882050414
  0
LINE
  5
E6
100
AcDbEntity
  8
1
  6
CONTINUOUS
 62
             7
100
AcDbLine
 10
202.40001522056571
 20
-110.3355853133267
 11
202.40001522056571
 21
-86.43556282050425
  0
LINE
  5
E5
100
AcDbEntity
  8
LC-001-002-----0
  6
CONTINUOUS
 62
             7
100
AcDbLine
 10
224.0000152205657
 20
-86.53556282050427
 11
224.0000152205657
 21
-110.3355302536319
  0
LINE
  5
E4
100
AcDbEntity
  8
LC-001-002-----0
  6
CONTINUOUS
 62
             7
100
AcDbLine
 10
204.7086112205657
 20
-86.53556282050427
 11
208.0000152205657
 21
-86.53556282050427
  0
LINE
  5
E3
100
AcDbEntity
  8
LC-001-002-----0
  6
CONTINUOUS
 62
             7
100
AcDbLine
 10
210.30861122056569
 20
-86.53556282050427
 11
213.60001522056561
 21
-86.53556282050427
  0
LINE
  5
E2
100
AcDbEntity
  8
LC-001-002-----0
  6
CONTINUOUS
 62
             7
100
AcDbLine
 10
215.90861122056569
 20
-86.53556282050427
 11
218.80001522056571
 21
-86.53556282050427
  0
LINE
  5
E1
100
AcDbEntity
  8
LC-001-002-----0
  6
CONTINUOUS
 62
             7
100
AcDbLine
 10
220.17060122056569
 20
-81.69172482050426
 11
220.98098822056571
 21
-86.28765682050427
  0
LINE
  5
E0
100
AcDbEntity
  8
LC-001-002-----0
  6
CONTINUOUS
 62
             7
100
AcDbLine
 10
220.1428312205658
 20
-81.63837882050414
 11
219.07072522056569
 21
-80.56627282050427
  0
LINE
  5
DF
100
AcDbEntity
  8
LC-001-002-----0
  6
CONTINUOUS
 62
             7
100
AcDbLine
 10
218.90001522056571
 20
-80.63698382050417
 11
218.90001522056571
 21
-86.43556282050425
  0
LINE
  5
DE
100
AcDbEntity
  8
LC-001-002-----0
  6
CONTINUOUS
 62
             7
100
AcDbLine
 10
214.97060122056561
 20
-81.69172482050426
 11
215.8101302205657
 21
-86.45292682050426
  0
LINE
  5
DD
100
AcDbEntity
  8
LC-001-002-----0
  6
CONTINUOUS
 62
             7
100
AcDbLine
 10
214.94283122056569
 20
-81.63837882050414
 11
213.8707252205657
 21
-80.56627282050427
  0
LINE
  5
DC
100
AcDbEntity
  8
LC-001-002-----0
  6
CONTINUOUS
 62
             7
100
AcDbLine
 10
213.70001522056569
 20
-80.63698382050417
 11
213.70001522056569
 21
-86.43556282050425
  0
LINE
  5
DB
100
AcDbEntity
  8
LC-001-002-----0
  6
CONTINUOUS
 62
             7
100
AcDbLine
 10
209.3706012205657
 20
-81.69172482050426
 11
210.2101302205657
 21
-86.45292682050426
  0
LINE
  5
DA
100
AcDbEntity
  8
LC-001-002-----0
  6
CONTINUOUS
 62
             7
100
AcDbLine
 10
209.3428312205657
 20
-81.63837882050414
 11
208.27072522056571
 21
-80.56627282050427
  0
LINE
  5
D9
100
AcDbEntity
  8
LC-001-002-----0
  6
CONTINUOUS
 62
             7
100
AcDbLine
 10
208.10001522056561
 20
-80.63698382050417
 11
208.10001522056561
 21
-86.43556282050425
  0
LINE
  5
D8
100
AcDbEntity
  8
LC-001-002-----0
  6
CONTINUOUS
 62
             7
100
AcDbLine
 10
203.77060122056571
 20
-81.69172482050426
 11
204.61013022056571
 21
-86.45292682050426
  0
LINE
  5
D7
100
AcDbEntity
  8
LC-001-002-----0
  6
CONTINUOUS
 62
             7
100
AcDbLine
 10
199.0000152205657
 20
-86.53556282050427
 11
202.40001522056571
 21
-86.53556282050427
  0
LINE
  5
D6
100
AcDbEntity
  8
LC-001-002-----0
  6
CONTINUOUS
 62
             7
100
AcDbLine
 10
203.74283122056571
 20
-81.63837882050414
 11
202.67072522056571
 21
-80.56627282050427
  0
LINE
  5
D5
100
AcDbEntity
  8
LC-001-002-----0
  6
CONTINUOUS
 62
             7
100
AcDbLine
 10
202.5000152205657
 20
-80.63698382050417
 11
202.5000152205657
 21
-86.43556282050425
  0
LINE
  5
D4
100
AcDbEntity
  8
LC-001-002-----0
  6
CONTINUOUS
 62
             7
100
AcDbLine
 10
199.0000152205657
 20
-86.53556282050427
 11
199.0000152205657
 21
-110.3355628969412
  0
LINE
  5
D3
100
AcDbEntity
  8
LC-001-002-----0
  6
CONTINUOUS
 62
             7
100
AcDbLine
 10
221.2764302205658
 20
-86.53556282050427
 11
224.0000152205657
 21
-86.53556282050427
  0
LINE
  5
D2
100
AcDbEntity
  8
LC-006-005-----0
  6
CONTINUOUS
 62
             7
100
AcDbLine
 10
220.18872322056561
 20
-81.89294182050425
 11
219.06861122056571
 21
-80.77282982050427
  0
LINE
  5
D1
100
AcDbEntity
  8
LC-006-005-----0
  6
CONTINUOUS
 62
             7
100
AcDbLine
 10
215.8631552205658
 20
-86.52463382050426
 11
215.90861122056569
 21
-86.43556282050425
  0
LINE
  5
D0
100
AcDbEntity
  8
LC-006-005-----0
  6
CONTINUOUS
 62
             7
100
AcDbLine
 10
215.90861122056569
 20
-86.43556282050425
 11
215.90861122056569
 21
-86.53556282050427
  0
LINE
  5
CF
100
AcDbEntity
  8
LC-006-005-----0
  6
CONTINUOUS
 62
             7
100
AcDbLine
 10
215.8631552205658
 20
-86.52463382050426
 11
215.90861122056569
 21
-86.53556282050427
  0
LINE
  5
CE
100
AcDbEntity
  8
LC-006-005-----0
  6
CONTINUOUS
 62
             7
100
AcDbLine
 10
213.67013722056569
 20
-86.50685682050427
 11
213.60001522056561
 21
-86.43556282050425
  0
LINE
  5
CD
100
AcDbEntity
  8
LC-006-005-----0
  6
CONTINUOUS
 62
             7
100
AcDbLine
 10
213.60001522056561
 20
-86.43556282050425
 11
213.70001522056569
 21
-86.43556282050425
  0
LINE
  5
CC
100
AcDbEntity
  8
LC-006-005-----0
  6
CONTINUOUS
 62
             7
100
AcDbLine
 10
213.67013722056569
 20
-86.50685682050427
 11
213.70001522056569
 21
-86.43556282050425
  0
LINE
  5
CB
100
AcDbEntity
  8
LC-006-005-----0
  6
CONTINUOUS
 62
             7
100
AcDbLine
 10
215.8631552205658
 20
-86.52463382050426
 11
215.90861122056569
 21
-86.53556282050427
  0
LINE
  5
CA
100
AcDbEntity
  8
LC-006-005-----0
  6
CONTINUOUS
 62
             7
100
AcDbLine
 10
213.67013722056569
 20
-86.50685682050427
 11
213.70001522056569
 21
-86.43556282050425
  0
ENDBLK
  5
13B
100
AcDbEntity
  8
0
100
AcDbBlockEnd
  0
BLOCK
  5
7C
100
AcDbEntity
  8
0
100
AcDbBlockBegin
  2
*D4
 70
             1
 10
0.0
 20
0.0
 30
0.0
  3
*D4
  1

  0
LINE
  5
7D
100
AcDbEntity
  8
0
  6
CONTINUOUS
 62
             4
100
AcDbLine
 10
0.0
 20
70.28046800000004
 11
179.999942
 21
70.28046800000004
  0
LINE
  5
7E
100
AcDbEntity
  8
0
  6
CONTINUOUS
 62
             4
100
AcDbLine
 10
179.999942
 20
63.99695300000002
 11
179.999942
 21
72.28046800000004
  0
LINE
  5
7F
100
AcDbEntity
  8
0
  6
CONTINUOUS
 62
             4
100
AcDbLine
 10
0.0
 20
44.11390600000004
 11
0.0
 21
72.28046800000004
  0
SOLID
  5
80
100
AcDbEntity
  8
0
 62
             4
100
AcDbTrace
 10
172.999942
 20
69.35890051688827
 11
172.999942
 21
71.20203548311181
 12
179.999942
 22
70.28046800000004
 13
179.999942
 23
70.28046800000004
  0
SOLID
  5
81
100
AcDbEntity
  8
0
 62
             4
100
AcDbTrace
 10
7.0
 20
71.20203548311181
 11
7.0
 21
69.35890051688827
 12
0.0
 22
70.28046800000004
 13
0.0
 23
70.28046800000004
  0
MTEXT
  5
83
100
AcDbEntity
  8
0
 62
             1
100
AcDbMText
 10
70.40262362404701
 20
72.28046800000004
 30
0.0
 40
7.0
 41
0.0
 71
             7
 72
             1
  1
180
  7
CONVERTER_1
 11
0.99999999999706
 21
0.00000242406841
 31
0.0
  0
ENDBLK
  5
84
100
AcDbEntity
  8
0
100
AcDbBlockEnd
  0
BLOCK
  5
88
100
AcDbEntity
  8
0
100
AcDbBlockBegin
  2
*D5
 70
             1
 10
0.0
 20
0.0
 30
0.0
  3
*D5
  1

  0
LINE
  5
89
100
AcDbEntity
  8
0
  6
CONTINUOUS
 62
             4
100
AcDbLine
 10
-8.50373442202698
 20
-45.18533299999996
 11
-8.50373442202698
 21
45.18533200000001
  0
LINE
  5
8A
100
AcDbEntity
  8
0
  6
CONTINUOUS
 62
             4
100
AcDbLine
 10
3.99872400000004
 20
45.18533200000001
 11
-10.50373442202698
 21
45.18533200000001
  0
LINE
  5
8B
100
AcDbEntity
  8
0
  6
CONTINUOUS
 62
             4
100
AcDbLine
 10
3.99872400000004
 20
-45.18533299999996
 11
-10.50373442202698
 21
-45.18533299999996
  0
SOLID
  5
8C
100
AcDbEntity
  8
0
 62
             4
100
AcDbTrace
 10
-9.42530190513875
 20
-38.18533299999996
 11
-7.58216693891521
 21
-38.18533299999996
 12
-8.50373442202698
 22
-45.18533299999996
 13
-8.50373442202698
 23
-45.18533299999996
  0
SOLID
  5
8D
100
AcDbEntity
  8
0
 62
             4
100
AcDbTrace
 10
-7.58216693891521
 20
38.18533200000001
 11
-9.42530190513875
 21
38.18533200000001
 12
-8.50373442202698
 22
45.18533200000001
 13
-8.50373442202698
 23
45.18533200000001
  0
MTEXT
  5
8E
100
AcDbEntity
  8
0
 62
             1
100
AcDbMText
 10
-10.50373442202698
 20
-6.21160705210596
 30
0.0
 40
7.0
 41
0.0
 71
             7
 72
             1
  1
\C1;DN\C1;90
  7
CONVERTER_1
 11
0.0
 21
1.0
 31
0.0
  0
ENDBLK
  5
8F
100
AcDbEntity
  8
0
100
AcDbBlockEnd
  0
ENDSEC
  0
SECTION
  2
ENTITIES
  0
INSERT
  5
36
100
AcDbEntity
  8
1
100
AcDbBlockReference
  2
0222_1E_SP_LROHR_KOMPLETT
 10
-17.50373442202698
 20
-140.13401400000049
  0
INSERT
  5
37
100
AcDbEntity
  8
1
100
AcDbBlockReference
  2
HL222_90_ANSCHLUSSSTUTZEN
 10
-17.50373442202698
 20
-63.99695399999996
  0
INSERT
  5
38
100
AcDbEntity
  8
1
100
AcDbBlockReference
  2
0222_2E_MUTTER_MIT_KAPPEN
 10
198.8846888053678
 20
-54.99989223000801
  0
INSERT
  5
39
100
AcDbEntity
  8
1
100
AcDbBlockReference
  2
0222_3E_GI-MANSCHETTE_2_1E
 10
197.84453193801471
 20
-140.1341868061497
  0
ENDSEC
  0
SECTION
  2
OBJECTS
  0
DICTIONARY
  5
19
100
AcDbDictionary
  3
ACAD_GROUP
350
1A
  3
ACAD_MLINESTYLE
350
1B
  0
DICTIONARY
  5
1A
102
{ACAD_REACTORS
330
19
102
}
100
AcDbDictionary
  0
DICTIONARY
  5
1B
102
{ACAD_REACTORS
330
19
102
}
100
AcDbDictionary
  3
STANDARD
350
1C
  0
MLINESTYLE
  5
1C
102
{ACAD_REACTORS
330
1B
102
}
100
AcDbMlineStyle
  2
STANDARD
 70
             0
  3

 62
             0
 51
90.0
 52
90.0
 71
             2
 49
0.5
 62
           256
  6
BYLAYER
 49
-0.5
 62
           256
  6
BYLAYER
  0
ENDSEC
  0
EOF
