  0
SECTION
  2
HEADER
  9
$ACADVER
  1
AC1014
  9
$ACADMAINTVER
 70
             0
  9
$DWGCODEPAGE
  3
ANSI_1252
  9
$INSBASE
 10
0.0
 20
0.0
 30
0.0
  9
$EXTMIN
 10
-61.60589347710101
 20
-61.33194552728412
 30
0.0
  9
$EXTMAX
 10
75.98480711063797
 20
115.6303859999999
 30
0.0
  9
$LIMMIN
 10
0.0
 20
0.0
  9
$LIMMAX
 10
0.0
 20
0.0
  9
$ORTHOMODE
 70
             0
  9
$REGENMODE
 70
             1
  9
$FILLMODE
 70
             1
  9
$QTEXTMODE
 70
             0
  9
$MIRRTEXT
 70
             1
  9
$DRAGMODE
 70
             2
  9
$LTSCALE
 40
1.0
  9
$OSMODE
 70
             0
  9
$ATTMODE
 70
             1
  9
$TEXTSIZE
 40
0.2
  9
$TRACEWID
 40
0.05
  9
$TEXTSTYLE
  7
STANDARD
  9
$CLAYER
  8
0
  9
$CELTYPE
  6
CONTINUOUS
  9
$CECOLOR
 62
           256
  9
$CELTSCALE
 40
1.0
  9
$DELOBJ
 70
             1
  9
$DISPSILH
 70
             0
  9
$DIMSCALE
 40
1.0
  9
$DIMASZ
 40
0.18
  9
$DIMEXO
 40
0.0625
  9
$DIMDLI
 40
0.38
  9
$DIMRND
 40
0.0
  9
$DIMDLE
 40
0.0
  9
$DIMEXE
 40
0.18
  9
$DIMTP
 40
0.0
  9
$DIMTM
 40
0.0
  9
$DIMTXT
 40
0.18
  9
$DIMCEN
 40
0.09
  9
$DIMTSZ
 40
0.0
  9
$DIMTOL
 70
             0
  9
$DIMLIM
 70
             0
  9
$DIMTIH
 70
             1
  9
$DIMTOH
 70
             1
  9
$DIMSE1
 70
             0
  9
$DIMSE2
 70
             0
  9
$DIMTAD
 70
             0
  9
$DIMZIN
 70
             0
  9
$DIMBLK
  1

  9
$DIMASO
 70
             1
  9
$DIMSHO
 70
             1
  9
$DIMPOST
  1

  9
$DIMAPOST
  1

  9
$DIMALT
 70
             0
  9
$DIMALTD
 70
             2
  9
$DIMALTF
 40
25.4
  9
$DIMLFAC
 40
1.0
  9
$DIMTOFL
 70
             0
  9
$DIMTVP
 40
0.0
  9
$DIMTIX
 70
             0
  9
$DIMSOXD
 70
             0
  9
$DIMSAH
 70
             0
  9
$DIMBLK1
  1

  9
$DIMBLK2
  1

  9
$DIMSTYLE
  2
STANDARD
  9
$DIMCLRD
 70
             0
  9
$DIMCLRE
 70
             0
  9
$DIMCLRT
 70
             0
  9
$DIMTFAC
 40
1.0
  9
$DIMGAP
 40
0.09
  9
$DIMJUST
 70
             0
  9
$DIMSD1
 70
             0
  9
$DIMSD2
 70
             0
  9
$DIMTOLJ
 70
             1
  9
$DIMTZIN
 70
             0
  9
$DIMALTZ
 70
             0
  9
$DIMALTTZ
 70
             0
  9
$DIMFIT
 70
             3
  9
$DIMUPT
 70
             0
  9
$DIMUNIT
 70
             2
  9
$DIMDEC
 70
             4
  9
$DIMTDEC
 70
             4
  9
$DIMALTU
 70
             2
  9
$DIMALTTD
 70
             2
  9
$DIMTXSTY
  7
STANDARD
  9
$DIMAUNIT
 70
             0
  9
$LUNITS
 70
             2
  9
$LUPREC
 70
             4
  9
$SKETCHINC
 40
0.1
  9
$FILLETRAD
 40
0.0
  9
$AUNITS
 70
             0
  9
$AUPREC
 70
             0
  9
$MENU
  1
acad
  9
$ELEVATION
 40
0.0
  9
$PELEVATION
 40
0.0
  9
$THICKNESS
 40
0.0
  9
$LIMCHECK
 70
             0
  9
$BLIPMODE
 70
             1
  9
$CHAMFERA
 40
0.0
  9
$CHAMFERB
 40
0.0
  9
$CHAMFERC
 40
0.0
  9
$CHAMFERD
 40
0.0
  9
$SKPOLY
 70
             0
  9
$TDCREATE
 40
0.000000000
  9
$TDUPDATE
 40
0.000000000
  9
$TDINDWG
 40
0.0000000000
  9
$TDUSRTIMER
 40
0.0000000000
  9
$USRTIMER
 70
             1
  9
$ANGBASE
 50
0.0
  9
$ANGDIR
 70
             0
  9
$PDMODE
 70
             0
  9
$PDSIZE
 40
0.0
  9
$PLINEWID
 40
0.0
  9
$COORDS
 70
             0
  9
$SPLFRAME
 70
             0
  9
$SPLINETYPE
 70
             6
  9
$SPLINESEGS
 70
             8
  9
$ATTDIA
 70
             0
  9
$ATTREQ
 70
             1
  9
$HANDLING
 70
             1
  9
$HANDSEED
  5
120
  9
$SURFTAB1
 70
             6
  9
$SURFTAB2
 70
             6
  9
$SURFTYPE
 70
             6
  9
$SURFU
 70
             6
  9
$SURFV
 70
             6
  9
$UCSNAME
  2

  9
$UCSORG
 10
0.0
 20
0.0
 30
0.0
  9
$UCSXDIR
 10
1.0
 20
0.0
 30
0.0
  9
$UCSYDIR
 10
0.0
 20
1.0
 30
0.0
  9
$PUCSNAME
  2

  9
$PUCSORG
 10
0.0
 20
0.0
 30
0.0
  9
$PUCSXDIR
 10
1.0
 20
0.0
 30
0.0
  9
$PUCSYDIR
 10
0.0
 20
1.0
 30
0.0
  9
$USERI1
 70
             0
  9
$USERI2
 70
             0
  9
$USERI3
 70
             0
  9
$USERI4
 70
             0
  9
$USERI5
 70
             0
  9
$USERR1
 40
12.01
  9
$USERR2
 40
0.0
  9
$USERR3
 40
0.0
  9
$USERR4
 40
0.0
  9
$USERR5
 40
0.0
  9
$WORLDVIEW
 70
             1
  9
$SHADEDGE
 70
             3
  9
$SHADEDIF
 70
            70
  9
$TILEMODE
 70
             1
  9
$MAXACTVP
 70
            16
  9
$PINSBASE
 10
0.0
 20
0.0
 30
0.0
  9
$PLIMCHECK
 70
             0
  9
$PEXTMIN
 10
1.00000000000000E+20
 20
1.00000000000000E+20
 30
1.00000000000000E+20
  9
$PEXTMAX
 10
-1.00000000000000E+20
 20
-1.00000000000000E+20
 30
-1.00000000000000E+20
  9
$PLIMMIN
 10
0.0
 20
0.0
  9
$PLIMMAX
 10
12.0
 20
9.0
  9
$UNITMODE
 70
             0
  9
$VISRETAIN
 70
             0
  9
$PLINEGEN
 70
             1
  9
$PSLTSCALE
 70
             0
  9
$TREEDEPTH
 70
          3020
  9
$PICKSTYLE
 70
             1
  9
$CMLSTYLE
  2
STANDARD
  9
$CMLJUST
 70
             0
  9
$CMLSCALE
 40
1.0
  9
$PROXYGRAPHICS
 70
             0
  9
$MEASUREMENT
 70
             1
  0
ENDSEC
  0
SECTION
  2
CLASSES
  0
CLASS
  1
LWPOLYLINE
  2
AcDbPolyline
  3
"AutoCAD"
 90
        0
280
             0
281
             1
  0
CLASS
  1
IMAGE
  2
AcDbRasterImage
  3
ISM
 90
      127
280
             0
281
             1
  0
CLASS
  1
OLE2FRAME
  2
AcDbOle2Frame
  3
""
 90
        0
280
             0
281
             1
  0
CLASS
  1
HATCH
  2
AcDbHatch
  3
"ACAD_SEDONA"
 90
        0
280
             0
281
             1
  0
CLASS
  1
DICTIONARYVAR
  2
AcDbDictionaryVar
  3
"AutoCAD"
 90
        0
280
             0
281
             0
  0
CLASS
  1
RASTERVARIABLES
  2
AcDbRasterVariables
  3
ISM
 90
        0
280
             0
281
             0
  0
CLASS
  1
IMAGEDEF
  2
AcDbRasterImageDef
  3
ISM
 90
        0
280
             0
281
             0
  0
CLASS
  1
IMAGEDEF_REACTOR
  2
AcDbRasterImageDefReactor
  3
ISM
 90
        1
280
             0
281
             0
  0
CLASS
  1
IDBUFFER
  2
AcDbIdBuffer
  3
"Acad"
 90
        0
280
             0
281
             0
  0
CLASS
  1
SPATIAL_FILTER
  2
AcDbSpatialFilter
  3
"Acad"
 90
        0
280
             0
281
             0
  0
CLASS
  1
XRECORD
  2
AcDbXrecord
  3
"<Built In>"
 90
        0
280
             0
281
             0
  0
CLASS
  1
SORTENTSTABLE
  2
AcDbSortentsTable
  3
"AutoCAD"
 90
        0
280
             0
281
             0
  0
CLASS
  1
LAYER_INDEX
  2
AcDbLayerIndex
  3
"Acad"
 90
        0
280
             0
281
             0
  0
CLASS
  1
SPATIAL_INDEX
  2
AcDbSpatialIndex
  3
"Acad"
 90
        0
280
             0
281
             0
  0
CLASS
  1
OBJECT_PTR
  2
CAseDLPNTableRecord
  3
"ASE-LPNTableRecord"
 90
        1
280
             0
281
             0
  0
CLASS
  1
LAYOUT
  2
AcDbLayout
  3
"AutoCAD 2000"
 90
        0
280
             0
281
             0
  0
CLASS
  1
PLOTSETTINGS
  2
AcDbPlotSettings
  3
"AutoCAD 2000"
 90
        0
280
             0
281
             0
  0
CLASS
  1
ACDBDICTIONARYWDFLT
  2
AcDbDictionaryWithDefault
  3
"AutoCAD 2000"
 90
        0
280
             0
281
             0
  0
CLASS
  1
ACDBPLACEHOLDER
  2
AcDbPlaceHolder
  3
"AutoCAD 2000"
 90
        0
280
             0
281
             0
  0
ENDSEC
  0
SECTION
  2
TABLES
  0
TABLE
  2
VPORT
  5
7
100
AcDbSymbolTable
 70
             1
  0
VPORT
  5
15
100
AcDbSymbolTableRecord
100
AcDbViewportTableRecord
  2
*ACTIVE
 70
             0
 10
0.0
 20
0.0
 11
1.0
 21
1.0
 12
7.18945681676848
 22
27.14922023635789
 13
0.0
 23
0.0
 14
1.0
 24
1.0
 15
0.0
 25
0.0
 16
0.0
 26
0.0
 36
1.0
 17
0.0
 27
0.0
 37
0.0
 40
194.65856468001243
 41
1.60267857142857
 42
50.0
 43
0.0
 44
0.0
 50
0.0
 51
0.0
 71
             0
 72
           100
 73
             1
 74
             1
 75
             0
 76
             0
 77
             0
 78
             0
  0
ENDTAB
  0
TABLE
  2
LTYPE
  5
4
100
AcDbSymbolTable
 70
            11
  0
LTYPE
  5
11
100
AcDbSymbolTableRecord
100
AcDbLinetypeTableRecord
  2
BYBLOCK
 70
            64
  3

 72
            65
 73
             0
 40
0.0
  0
LTYPE
  5
12
100
AcDbSymbolTableRecord
100
AcDbLinetypeTableRecord
  2
BYLAYER
 70
            64
  3

 72
            65
 73
             0
 40
0.0
  0
LTYPE
  5
13
100
AcDbSymbolTableRecord
100
AcDbLinetypeTableRecord
  2
CONTINUOUS
 70
            64
  3
Solid line
 72
            65
 73
             0
 40
0.0
  0
LTYPE
  5
1D
100
AcDbSymbolTableRecord
100
AcDbLinetypeTableRecord
  2
DASHED
 70
            64
  3
Dashed
 72
            65
 73
             2
 40
15.0
 49
7.0
 74
             0
 49
-8.0
 74
             0
  0
LTYPE
  5
1E
100
AcDbSymbolTableRecord
100
AcDbLinetypeTableRecord
  2
DOTTED
 70
            64
  3
Dotted
 72
            65
 73
             2
 40
1.0
 49
0.0
 74
             0
 49
-1.0
 74
             0
  0
LTYPE
  5
1F
100
AcDbSymbolTableRecord
100
AcDbLinetypeTableRecord
  2
DOT_CENTER
 70
            64
  3
Dot_Center
 72
            65
 73
             4
 40
14.0
 49
12.0
 74
             0
 49
-1.0
 74
             0
 49
0.0
 74
             0
 49
-1.0
 74
             0
  0
LTYPE
  5
20
100
AcDbSymbolTableRecord
100
AcDbLinetypeTableRecord
  2
LONG_DASHED
 70
            64
  3
Long_Dashed
 72
            65
 73
             2
 40
15.0
 49
10.0
 74
             0
 49
-5.0
 74
             0
  0
LTYPE
  5
21
100
AcDbSymbolTableRecord
100
AcDbLinetypeTableRecord
  2
DASH_CENTER
 70
            64
  3
Dash_Center
 72
            65
 73
             4
 40
14.0
 49
11.0
 74
             0
 49
-1.0
 74
             0
 49
1.0
 74
             0
 49
-1.0
 74
             0
  0
LTYPE
  5
22
100
AcDbSymbolTableRecord
100
AcDbLinetypeTableRecord
  2
PHANTOM
 70
            64
  3
Phantom
 72
            65
 73
             6
 40
13.0
 49
10.0
 74
             0
 49
-1.0
 74
             0
 49
0.0
 74
             0
 49
-1.0
 74
             0
 49
0.0
 74
             0
 49
-1.0
 74
             0
  0
LTYPE
  5
23
100
AcDbSymbolTableRecord
100
AcDbLinetypeTableRecord
  2
CENTER_DASH_DASH
 70
            64
  3
Center_Dash_Dash
 72
            65
 73
             6
 40
14.0
 49
9.0
 74
             0
 49
-1.0
 74
             0
 49
1.0
 74
             0
 49
-1.0
 74
             0
 49
1.0
 74
             0
 49
-1.0
 74
             0
  0
LTYPE
  5
24
100
AcDbSymbolTableRecord
100
AcDbLinetypeTableRecord
  2
DASHDOT
 70
            64
  3
DASHDOT
 72
            65
 73
             4
 40
16.0
 49
10.0
 74
             0
 49
-3.0
 74
             0
 49
0.0
 74
             0
 49
-3.0
 74
             0
  0
ENDTAB
  0
TABLE
  2
LAYER
  5
2
100
AcDbSymbolTable
 70
             5
  0
LAYER
  5
14
100
AcDbSymbolTableRecord
100
AcDbLayerTableRecord
  2
0
 70
             0
 62
             7
  6
CONTINUOUS
  0
LAYER
  5
25
100
AcDbSymbolTableRecord
100
AcDbLayerTableRecord
  2
1
 70
             0
 62
             7
  6
CONTINUOUS
  0
LAYER
  5
26
100
AcDbSymbolTableRecord
100
AcDbLayerTableRecord
  2
LC-001-002-----0
 70
             0
 62
             7
  6
CONTINUOUS
  0
LAYER
  5
27
100
AcDbSymbolTableRecord
100
AcDbLayerTableRecord
  2
LC-003-002-RND-0
 70
             0
 62
             7
  6
CONTINUOUS
  0
LAYER
  5
28
100
AcDbSymbolTableRecord
100
AcDbLayerTableRecord
  2
LC-004-007-KH--0
 70
             0
 62
             7
  6
CONTINUOUS
  0
ENDTAB
  0
TABLE
  2
STYLE
  5
3
100
AcDbSymbolTable
 70
             2
  0
STYLE
  5
17
100
AcDbSymbolTableRecord
100
AcDbTextStyleTableRecord
  2
STANDARD
 70
             0
 40
0.0
 41
1.0
 50
0.0
 71
             0
 42
0.0
  3
txt
  4

  0
STYLE
  5
10D
100
AcDbSymbolTableRecord
100
AcDbTextStyleTableRecord
  2
CONVERTER_1
 70
             0
 40
0.0
 41
0.9
 50
0.0
 71
             0
 42
0.0
  3
txt.shx
  4

  0
ENDTAB
  0
TABLE
  2
VIEW
  5
5
100
AcDbSymbolTable
 70
             0
  0
ENDTAB
  0
TABLE
  2
UCS
  5
6
100
AcDbSymbolTable
 70
             0
  0
ENDTAB
  0
TABLE
  2
APPID
  5
8
100
AcDbSymbolTable
 70
             1
  0
APPID
  5
16
100
AcDbSymbolTableRecord
100
AcDbRegAppTableRecord
  2
ACAD
 70
             0
  0
ENDTAB
  0
TABLE
  2
DIMSTYLE
  5
9
100
AcDbSymbolTable
 70
             3
  0
DIMSTYLE
105
18
100
AcDbSymbolTableRecord
100
AcDbDimStyleTableRecord
  2
STANDARD
 70
             0
  3

  4

  5

  6

  7

 40
1.0
 41
0.18
 42
0.0625
 43
0.38
 44
0.18
 45
0.0
 46
0.0
 47
0.0
 48
0.0
 71
             0
 72
             0
 73
             1
 74
             1
 75
             0
 76
             0
 77
             0
 78
             0
140
0.18
141
0.09
142
0.0
143
25.4
144
1.0
145
0.0
146
1.0
147
0.09
170
             0
171
             2
172
             0
173
             0
174
             0
175
             0
176
             0
177
             0
178
             0
270
             2
271
             4
272
             4
273
             2
274
             2
275
             0
280
             0
281
             0
282
             0
283
             1
284
             0
285
             0
286
             0
287
             3
288
             0
340
17
  0
DIMSTYLE
105
110
100
AcDbSymbolTableRecord
100
AcDbDimStyleTableRecord
  2
ME10_DIM_0
 70
             0
  3
x115
  4

  5

  6

  7

 40
1.0
 41
7.0
 42
0.0
 43
0.38
 44
2.0
 45
0.0
 46
0.0
 47
0.0
 48
0.0
 71
             0
 72
             0
 73
             0
 74
             0
 75
             0
 76
             0
 77
             1
 78
             8
140
7.0
141
0.09
142
0.0
143
25.4
144
1.0
145
0.0
146
1.0
147
0.625
170
             0
171
             2
172
             1
173
             1
174
             0
175
             0
176
             4
177
             4
178
             1
270
             2
271
             2
272
             4
273
             2
274
             2
275
             0
280
             0
281
             0
282
             0
283
             1
284
             0
285
             0
286
             0
287
             3
288
             0
340
10D
  0
DIMSTYLE
105
11D
100
AcDbSymbolTableRecord
100
AcDbDimStyleTableRecord
  2
ME10_DIM_1
 70
             0
  3

  4

  5

  6

  7

 40
1.0
 41
7.0
 42
0.0
 43
0.38
 44
2.0
 45
0.0
 46
0.0
 47
0.0
 48
0.0
 71
             0
 72
             0
 73
             0
 74
             0
 75
             0
 76
             0
 77
             1
 78
             8
140
7.0
141
0.09
142
0.0
143
25.4
144
1.0
145
0.0
146
1.0
147
0.625
170
             0
171
             2
172
             1
173
             1
174
             0
175
             0
176
             4
177
             4
178
             1
270
             2
271
             2
272
             4
273
             2
274
             2
275
             0
280
             0
281
             0
282
             0
283
             1
284
             0
285
             0
286
             0
287
             3
288
             0
340
10D
  0
ENDTAB
  0
TABLE
  2
BLOCK_RECORD
  5
1
100
AcDbSymbolTable
 70
             4
  0
BLOCK_RECORD
  5
A
100
AcDbSymbolTableRecord
100
AcDbBlockTableRecord
  2
*MODEL_SPACE
  0
BLOCK_RECORD
  5
B
100
AcDbSymbolTableRecord
100
AcDbBlockTableRecord
  2
*PAPER_SPACE
  0
BLOCK_RECORD
  5
29
100
AcDbSymbolTableRecord
100
AcDbBlockTableRecord
  2
EINLAUFROST_115X115_ROO__1
  0
BLOCK_RECORD
  5
2B
100
AcDbSymbolTableRecord
100
AcDbBlockTableRecord
  2
EINLAUFROST_115X115_ROO__2
  0
BLOCK_RECORD
  5
106
100
AcDbSymbolTableRecord
100
AcDbBlockTableRecord
  2
*D2
  0
BLOCK_RECORD
  5
112
100
AcDbSymbolTableRecord
100
AcDbBlockTableRecord
  2
*D3
  0
ENDTAB
  0
ENDSEC
  0
SECTION
  2
BLOCKS
  0
BLOCK
  5
D
100
AcDbEntity
  8
0
100
AcDbBlockBegin
  2
*MODEL_SPACE
 70
             0
 10
0.0
 20
0.0
 30
0.0
  3
*MODEL_SPACE
  1

  0
ENDBLK
  5
E
100
AcDbEntity
  8
0
100
AcDbBlockEnd
  0
BLOCK
  5
F
100
AcDbEntity
 67
             1
  8
0
100
AcDbBlockBegin
  2
*PAPER_SPACE
 70
             0
 10
0.0
 20
0.0
 30
0.0
  3
*PAPER_SPACE
  1

  0
ENDBLK
  5
10
100
AcDbEntity
 67
             1
  8
0
100
AcDbBlockEnd
  0
BLOCK
  5
2A
100
AcDbEntity
  8
0
100
AcDbBlockBegin
  2
EINLAUFROST_115X115_ROO__1
 70
             0
 10
343.32493752289901
 20
895.38049947271588
 30
0.0
  3
EINLAUFROST_115X115_ROO__1
  1

  0
ARC
  5
8F
100
AcDbEntity
  8
LC-001-002-----0
  6
CONTINUOUS
 62
             7
100
AcDbCircle
 10
-29.38710900000001
 20
18.07340099999999
 40
2.99999999999956
100
AcDbArc
 50
-31.59197999999538
 51
45.0
  0
ARC
  5
8E
100
AcDbEntity
  8
LC-001-002-----0
  6
CONTINUOUS
 62
             7
100
AcDbCircle
 10
0.0
 20
0.0
 40
50.49999999999992
100
AcDbArc
 50
-35.30397200000055
 51
35.30397200000055
  0
ARC
  5
8D
100
AcDbEntity
  8
LC-001-002-----0
  6
CONTINUOUS
 62
             7
100
AcDbCircle
 10
0.0
 20
0.0
 40
44.50000000000014
100
AcDbArc
 50
-35.30397199999934
 51
35.30397199999934
  0
ARC
  5
8C
100
AcDbEntity
  8
LC-003-002-RND-0
  6
CONTINUOUS
 62
             7
100
AcDbCircle
 10
19.76801999999998
 20
8.45431199999996
 40
3.0000000000005
100
AcDbArc
 50
134.99999999999994
 51
-156.84475699999632
  0
ARC
  5
8B
100
AcDbEntity
  8
LC-001-002-----0
  6
CONTINUOUS
 62
             7
100
AcDbCircle
 10
0.0
 20
0.0
 40
50.49999999999994
100
AcDbArc
 50
54.69602799999942
 51
125.30397200000058
  0
ARC
  5
8A
100
AcDbEntity
  8
LC-001-002-----0
  6
CONTINUOUS
 62
             7
100
AcDbCircle
 10
0.0
 20
0.0
 40
37.49999999999976
100
AcDbArc
 50
-31.59197999999966
 51
31.59197999999966
  0
ARC
  5
89
100
AcDbEntity
  8
LC-001-002-----0
  6
CONTINUOUS
 62
             7
100
AcDbCircle
 10
0.0
 20
0.0
 40
31.50000000000009
100
AcDbArc
 50
-31.5919799999989
 51
31.59198000000031
  0
ARC
  5
88
100
AcDbEntity
  8
LC-001-002-----0
  6
CONTINUOUS
 62
             7
100
AcDbCircle
 10
0.0
 20
0.0
 40
24.50000000000036
100
AcDbArc
 50
-23.15524299999931
 51
23.15524299999931
  0
ARC
  5
87
100
AcDbEntity
  8
LC-001-002-----0
  6
CONTINUOUS
 62
             7
100
AcDbCircle
 10
0.0
 20
0.0
 40
18.49999999999966
100
AcDbArc
 50
66.84475700000117
 51
113.155242999999
  0
ARC
  5
86
100
AcDbEntity
  8
LC-001-002-----0
  6
CONTINUOUS
 62
             7
100
AcDbCircle
 10
0.0
 20
0.0
 40
44.50000000000022
100
AcDbArc
 50
54.69602800000065
 51
125.30397199999936
  0
ARC
  5
85
100
AcDbEntity
  8
LC-001-002-----0
  6
CONTINUOUS
 62
             7
100
AcDbCircle
 10
0.0
 20
0.0
 40
37.49999999999982
100
AcDbArc
 50
58.4080200000004
 51
121.59197999999968
  0
ARC
  5
84
100
AcDbEntity
  8
LC-001-002-----0
  6
CONTINUOUS
 62
             7
100
AcDbCircle
 10
0.0
 20
0.0
 40
31.50000000000062
100
AcDbArc
 50
58.40801999999975
 51
121.59197999999877
  0
ARC
  5
83
100
AcDbEntity
  8
LC-001-002-----0
  6
CONTINUOUS
 62
             7
100
AcDbCircle
 10
0.0
 20
0.0
 40
24.50000000000033
100
AcDbArc
 50
66.84475700000081
 51
113.15524299999932
  0
ARC
  5
82
100
AcDbEntity
  8
LC-001-002-----0
  6
CONTINUOUS
 62
             7
100
AcDbCircle
 10
0.0
 20
0.0
 40
18.49999999999968
100
AcDbArc
 50
-113.155242999999
 51
-66.84475700000117
  0
ARC
  5
81
100
AcDbEntity
  8
LC-001-002-----0
  6
CONTINUOUS
 62
             7
100
AcDbCircle
 10
0.0
 20
0.0
 40
24.50000000000036
100
AcDbArc
 50
-113.15524299999932
 51
-66.84475700000081
  0
ARC
  5
80
100
AcDbEntity
  8
LC-001-002-----0
  6
CONTINUOUS
 62
             7
100
AcDbCircle
 10
0.0
 20
0.0
 40
31.50000000000011
100
AcDbArc
 50
-121.59197999999877
 51
-58.40801999999975
  0
ARC
  5
7F
100
AcDbEntity
  8
LC-001-002-----0
  6
CONTINUOUS
 62
             7
100
AcDbCircle
 10
0.0
 20
0.0
 40
37.49999999999984
100
AcDbArc
 50
-121.59197999999968
 51
-58.4080200000004
  0
ARC
  5
7E
100
AcDbEntity
  8
LC-001-002-----0
  6
CONTINUOUS
 62
             7
100
AcDbCircle
 10
0.0
 20
0.0
 40
44.50000000000022
100
AcDbArc
 50
-125.30397199999936
 51
-54.69602800000065
  0
ARC
  5
7D
100
AcDbEntity
  8
LC-001-002-----0
  6
CONTINUOUS
 62
             7
100
AcDbCircle
 10
0.0
 20
0.0
 40
50.49999999999994
100
AcDbArc
 50
-125.30397200000058
 51
-54.69602799999942
  0
ARC
  5
7C
100
AcDbEntity
  8
LC-001-002-----0
  6
CONTINUOUS
 62
             7
100
AcDbCircle
 10
0.0
 20
0.0
 40
18.4999999999996
100
AcDbArc
 50
156.8447570000011
 51
-156.8447570000011
  0
ARC
  5
7B
100
AcDbEntity
  8
LC-001-002-----0
  6
CONTINUOUS
 62
             7
100
AcDbCircle
 10
0.0
 20
0.0
 40
24.50000000000036
100
AcDbArc
 50
156.84475700000067
 51
-156.84475700000067
  0
ARC
  5
7A
100
AcDbEntity
  8
LC-001-002-----0
  6
CONTINUOUS
 62
             7
100
AcDbCircle
 10
0.0
 20
0.0
 40
31.50000000000062
100
AcDbArc
 50
148.40801999999977
 51
-148.40802000000116
  0
ARC
  5
79
100
AcDbEntity
  8
LC-001-002-----0
  6
CONTINUOUS
 62
             7
100
AcDbCircle
 10
0.0
 20
0.0
 40
37.49999999999982
100
AcDbArc
 50
148.40802000000039
 51
-148.40802000000039
  0
ARC
  5
78
100
AcDbEntity
  8
LC-001-002-----0
  6
CONTINUOUS
 62
             7
100
AcDbCircle
 10
0.0
 20
0.0
 40
44.50000000000014
100
AcDbArc
 50
144.69602800000067
 51
-144.69602800000067
  0
ARC
  5
77
100
AcDbEntity
  8
LC-001-002-----0
  6
CONTINUOUS
 62
             7
100
AcDbCircle
 10
0.0
 20
0.0
 40
50.49999999999996
100
AcDbArc
 50
144.6960279999995
 51
-144.6960279999995
  0
ARC
  5
76
100
AcDbEntity
  8
LC-001-002-----0
  6
CONTINUOUS
 62
             7
100
AcDbCircle
 10
0.0
 20
0.0
 40
18.4999999999996
100
AcDbArc
 50
-23.15524299999891
 51
23.15524299999891
  0
ARC
  5
75
100
AcDbEntity
  8
LC-001-002-----0
  6
CONTINUOUS
 62
             7
100
AcDbCircle
 10
38.764633
 20
-27.45092399999999
 40
3.00000000000051
100
AcDbArc
 50
-135.0
 51
-35.30397200000398
  0
ARC
  5
74
100
AcDbEntity
  8
LC-001-002-----0
  6
CONTINUOUS
 62
             7
100
AcDbCircle
 10
38.764633
 20
-27.45092399999999
 40
3.00000000000033
100
AcDbArc
 50
144.69602799999649
 51
-135.0
  0
ARC
  5
73
100
AcDbEntity
  8
LC-003-002-RND-0
  6
CONTINUOUS
 62
             7
100
AcDbCircle
 10
27.45092399999999
 20
-38.764633
 40
3.00000000000028
100
AcDbArc
 50
-54.69602799999603
 51
45.0
  0
ARC
  5
72
100
AcDbEntity
  8
LC-001-002-----0
  6
CONTINUOUS
 62
             7
100
AcDbCircle
 10
27.45092399999999
 20
-38.764633
 40
3.00000000000051
100
AcDbArc
 50
45.0
 51
125.30397200000415
  0
ARC
  5
71
100
AcDbEntity
  8
LC-001-002-----0
  6
CONTINUOUS
 62
             7
100
AcDbCircle
 10
18.07340099999999
 20
-29.38710900000001
 40
2.99999999999955
100
AcDbArc
 50
-58.40802000000314
 51
45.0
  0
ARC
  5
70
100
AcDbEntity
  8
LC-003-002-RND-0
  6
CONTINUOUS
 62
             7
100
AcDbCircle
 10
18.07340099999999
 20
-29.38710900000001
 40
3.00000000000051
100
AcDbArc
 50
45.0
 51
121.59197999999559
  0
ARC
  5
6F
100
AcDbEntity
  8
LC-001-002-----0
  6
CONTINUOUS
 62
             7
100
AcDbCircle
 10
29.38710900000001
 20
-18.07340099999999
 40
3.00000000000051
100
AcDbArc
 50
-135.0
 51
-31.59197999999717
  0
ARC
  5
6E
100
AcDbEntity
  8
LC-001-002-----0
  6
CONTINUOUS
 62
             7
100
AcDbCircle
 10
29.38710900000001
 20
-18.07340099999999
 40
2.99999999999956
100
AcDbArc
 50
148.40802000000463
 51
-135.0
  0
ARC
  5
6D
100
AcDbEntity
  8
LC-001-002-----0
  6
CONTINUOUS
 62
             7
100
AcDbCircle
 10
19.76801999999998
 20
-8.45431199999996
 40
3.0000000000005
100
AcDbArc
 50
-134.99999999999994
 51
-23.15524300000521
  0
ARC
  5
6C
100
AcDbEntity
  8
LC-001-002-----0
  6
CONTINUOUS
 62
             7
100
AcDbCircle
 10
19.76801999999998
 20
-8.45431199999996
 40
2.99999999999985
100
AcDbArc
 50
156.84475699999632
 51
-134.99999999999994
  0
ARC
  5
6B
100
AcDbEntity
  8
LC-003-002-RND-0
  6
CONTINUOUS
 62
             7
100
AcDbCircle
 10
8.45431200000002
 20
-19.76801999999998
 40
2.99999999999991
100
AcDbArc
 50
-66.84475699999679
 51
45.00000000000072
  0
ARC
  5
6A
100
AcDbEntity
  8
LC-001-002-----0
  6
CONTINUOUS
 62
             7
100
AcDbCircle
 10
8.45431200000002
 20
-19.76801999999998
 40
3.00000000000046
100
AcDbArc
 50
45.00000000000072
 51
113.15524300000422
  0
ARC
  5
69
100
AcDbEntity
  8
LC-001-002-----0
  6
CONTINUOUS
 62
             7
100
AcDbCircle
 10
-8.45431200000002
 20
-19.76801999999998
 40
2.99999999999991
100
AcDbArc
 50
66.84475699999679
 51
135.00000000000011
  0
ARC
  5
68
100
AcDbEntity
  8
LC-003-002-RND-0
  6
CONTINUOUS
 62
             7
100
AcDbCircle
 10
-8.45431200000002
 20
-19.76801999999998
 40
3.00000000000051
100
AcDbArc
 50
135.00000000000011
 51
-113.15524300000322
  0
ARC
  5
67
100
AcDbEntity
  8
LC-001-002-----0
  6
CONTINUOUS
 62
             7
100
AcDbCircle
 10
-18.07340099999999
 20
-29.38710900000001
 40
2.99999999999964
100
AcDbArc
 50
58.40802000000441
 51
135.0
  0
ARC
  5
66
100
AcDbEntity
  8
LC-001-002-----0
  6
CONTINUOUS
 62
             7
100
AcDbCircle
 10
-18.07340099999999
 20
-29.38710900000001
 40
3.00000000000051
100
AcDbArc
 50
135.0
 51
-121.59197999999685
  0
ARC
  5
65
100
AcDbEntity
  8
LC-001-002-----0
  6
CONTINUOUS
 62
             7
100
AcDbCircle
 10
-27.45092399999999
 20
-38.764633
 40
3.00000000000028
100
AcDbArc
 50
54.69602799999586
 51
135.0
  0
ARC
  5
64
100
AcDbEntity
  8
LC-003-002-RND-0
  6
CONTINUOUS
 62
             7
100
AcDbCircle
 10
-27.45092399999999
 20
-38.764633
 40
3.00000000000051
100
AcDbArc
 50
135.0
 51
-125.30397200000493
  0
ARC
  5
63
100
AcDbEntity
  8
LC-001-002-----0
  6
CONTINUOUS
 62
             7
100
AcDbCircle
 10
-38.764633
 20
-27.45092399999999
 40
3.00000000000051
100
AcDbArc
 50
-45.0
 51
35.30397200000414
  0
ARC
  5
62
100
AcDbEntity
  8
LC-001-002-----0
  6
CONTINUOUS
 62
             7
100
AcDbCircle
 10
-38.764633
 20
-27.45092399999999
 40
3.00000000000033
100
AcDbArc
 50
-144.69602799999674
 51
-45.0
  0
ARC
  5
61
100
AcDbEntity
  8
LC-001-002-----0
  6
CONTINUOUS
 62
             7
100
AcDbCircle
 10
-29.38710900000001
 20
-18.07340099999999
 40
2.99999999999962
100
AcDbArc
 50
-148.40802000000284
 51
-45.0
  0
ARC
  5
60
100
AcDbEntity
  8
LC-001-002-----0
  6
CONTINUOUS
 62
             7
100
AcDbCircle
 10
-29.38710900000001
 20
-18.07340099999999
 40
3.00000000000051
100
AcDbArc
 50
-45.0
 51
31.59197999999538
  0
ARC
  5
5F
100
AcDbEntity
  8
LC-003-002-RND-0
  6
CONTINUOUS
 62
             7
100
AcDbCircle
 10
-19.76802000000004
 20
-8.45431199999996
 40
2.9999999999999
100
AcDbArc
 50
-156.84475699999436
 51
-45.0
  0
ARC
  5
5E
100
AcDbEntity
  8
LC-003-002-RND-0
  6
CONTINUOUS
 62
             7
100
AcDbCircle
 10
-19.76802000000004
 20
-8.45431199999996
 40
3.00000000000051
100
AcDbArc
 50
-45.0
 51
23.15524300000321
  0
ARC
  5
5D
100
AcDbEntity
  8
LC-003-002-RND-0
  6
CONTINUOUS
 62
             7
100
AcDbCircle
 10
-8.45431200000002
 20
19.76801999999998
 40
3.00000000000051
100
AcDbArc
 50
-135.00000000000011
 51
-66.84475699999679
  0
ARC
  5
5C
100
AcDbEntity
  8
LC-001-002-----0
  6
CONTINUOUS
 62
             7
100
AcDbCircle
 10
-8.45431200000002
 20
19.76801999999998
 40
2.99999999999991
100
AcDbArc
 50
113.15524300000322
 51
-135.00000000000011
  0
ARC
  5
5B
100
AcDbEntity
  8
LC-003-002-RND-0
  6
CONTINUOUS
 62
             7
100
AcDbCircle
 10
-18.07340099999999
 20
29.38710900000001
 40
3.00000000000051
100
AcDbArc
 50
-135.0
 51
-58.40802000000441
  0
ARC
  5
5A
100
AcDbEntity
  8
LC-003-002-RND-0
  6
CONTINUOUS
 62
             7
100
AcDbCircle
 10
-18.07340099999999
 20
29.38710900000001
 40
2.99999999999955
100
AcDbArc
 50
121.59197999999685
 51
-135.0
  0
ARC
  5
59
100
AcDbEntity
  8
LC-003-002-RND-0
  6
CONTINUOUS
 62
             7
100
AcDbCircle
 10
-27.45092399999999
 20
38.764633
 40
3.00000000000051
100
AcDbArc
 50
-135.0
 51
-54.69602799999586
  0
ARC
  5
58
100
AcDbEntity
  8
LC-001-002-----0
  6
CONTINUOUS
 62
             7
100
AcDbCircle
 10
-27.45092399999999
 20
38.764633
 40
3.00000000000031
100
AcDbArc
 50
125.30397200000493
 51
-135.0
  0
ARC
  5
57
100
AcDbEntity
  8
LC-003-002-RND-0
  6
CONTINUOUS
 62
             7
100
AcDbCircle
 10
-38.764633
 20
27.45092399999999
 40
3.00000000000051
100
AcDbArc
 50
45.0
 51
144.69602799999674
  0
ARC
  5
56
100
AcDbEntity
  8
LC-003-002-RND-0
  6
CONTINUOUS
 62
             7
100
AcDbCircle
 10
-38.764633
 20
27.45092399999999
 40
3.00000000000028
100
AcDbArc
 50
-35.30397200000414
 51
45.0
  0
ARC
  5
55
100
AcDbEntity
  8
LC-003-002-RND-0
  6
CONTINUOUS
 62
             7
100
AcDbCircle
 10
-29.38710900000001
 20
18.07340099999999
 40
3.00000000000051
100
AcDbArc
 50
45.0
 51
148.40802000000284
  0
ARC
  5
54
100
AcDbEntity
  8
LC-003-002-RND-0
  6
CONTINUOUS
 62
             7
100
AcDbCircle
 10
-19.76802000000004
 20
8.45431199999996
 40
3.00000000000051
100
AcDbArc
 50
45.0
 51
156.84475699999436
  0
ARC
  5
53
100
AcDbEntity
  8
LC-003-002-RND-0
  6
CONTINUOUS
 62
             7
100
AcDbCircle
 10
-19.76802000000004
 20
8.45431199999996
 40
2.99999999999991
100
AcDbArc
 50
-23.15524300000321
 51
45.0
  0
ARC
  5
52
100
AcDbEntity
  8
LC-001-002-----0
  6
CONTINUOUS
 62
             7
100
AcDbCircle
 10
8.45431200000002
 20
19.76801999999998
 40
2.99999999999993
100
AcDbArc
 50
-113.15524300000422
 51
-45.00000000000072
  0
ARC
  5
51
100
AcDbEntity
  8
LC-001-002-----0
  6
CONTINUOUS
 62
             7
100
AcDbCircle
 10
8.45431200000002
 20
19.76801999999998
 40
3.00000000000046
100
AcDbArc
 50
-45.00000000000072
 51
66.84475699999679
  0
ARC
  5
50
100
AcDbEntity
  8
LC-003-002-RND-0
  6
CONTINUOUS
 62
             7
100
AcDbCircle
 10
18.07340099999999
 20
29.38710900000001
 40
2.99999999999964
100
AcDbArc
 50
-121.59197999999559
 51
-45.0
  0
ARC
  5
4F
100
AcDbEntity
  8
LC-001-002-----0
  6
CONTINUOUS
 62
             7
100
AcDbCircle
 10
18.07340099999999
 20
29.38710900000001
 40
3.00000000000051
100
AcDbArc
 50
-45.0
 51
58.40802000000314
  0
ARC
  5
4E
100
AcDbEntity
  8
LC-003-002-RND-0
  6
CONTINUOUS
 62
             7
100
AcDbCircle
 10
27.45092399999999
 20
38.764633
 40
3.00000000000028
100
AcDbArc
 50
-125.30397200000415
 51
-45.0
  0
ARC
  5
4D
100
AcDbEntity
  8
LC-003-002-RND-0
  6
CONTINUOUS
 62
             7
100
AcDbCircle
 10
27.45092399999999
 20
38.764633
 40
3.00000000000051
100
AcDbArc
 50
-45.0
 51
54.69602799999603
  0
ARC
  5
4C
100
AcDbEntity
  8
LC-001-002-----0
  6
CONTINUOUS
 62
             7
100
AcDbCircle
 10
38.764633
 20
27.45092399999999
 40
3.00000000000028
100
AcDbArc
 50
35.30397200000398
 51
135.0
  0
ARC
  5
4B
100
AcDbEntity
  8
LC-001-002-----0
  6
CONTINUOUS
 62
             7
100
AcDbCircle
 10
38.764633
 20
27.45092399999999
 40
3.00000000000051
100
AcDbArc
 50
135.0
 51
-144.69602799999649
  0
ARC
  5
4A
100
AcDbEntity
  8
LC-001-002-----0
  6
CONTINUOUS
 62
             7
100
AcDbCircle
 10
29.38710900000001
 20
18.07340099999999
 40
2.99999999999962
100
AcDbArc
 50
31.59197999999717
 51
135.0
  0
ARC
  5
49
100
AcDbEntity
  8
LC-001-002-----0
  6
CONTINUOUS
 62
             7
100
AcDbCircle
 10
29.38710900000001
 20
18.07340099999999
 40
3.00000000000051
100
AcDbArc
 50
135.0
 51
-148.40802000000463
  0
ARC
  5
48
100
AcDbEntity
  8
LC-001-002-----0
  6
CONTINUOUS
 62
             7
100
AcDbCircle
 10
19.76801999999998
 20
8.45431199999996
 40
2.99999999999995
100
AcDbArc
 50
23.15524300000521
 51
134.99999999999994
  0
ARC
  5
47
100
AcDbEntity
  8
LC-003-002-RND-0
  6
CONTINUOUS
 62
             7
100
AcDbCircle
 10
-55.5
 20
55.5
 40
2.0
100
AcDbArc
 50
90.0
 51
180.0
  0
ARC
  5
46
100
AcDbEntity
  8
LC-003-002-RND-0
  6
CONTINUOUS
 62
             7
100
AcDbCircle
 10
-55.5
 20
-55.5
 40
2.0
100
AcDbArc
 50
180.0
 51
-90.0
  0
ARC
  5
45
100
AcDbEntity
  8
LC-003-002-RND-0
  6
CONTINUOUS
 62
             7
100
AcDbCircle
 10
55.5
 20
-55.5
 40
2.0
100
AcDbArc
 50
-90.0
 51
0.0
  0
ARC
  5
44
100
AcDbEntity
  8
LC-003-002-RND-0
  6
CONTINUOUS
 62
             7
100
AcDbCircle
 10
55.5
 20
55.5
 40
2.0
100
AcDbArc
 50
0.0
 51
90.0
  0
LINE
  5
43
100
AcDbEntity
  8
LC-001-002-----0
  6
CONTINUOUS
 62
             7
100
AcDbLine
 10
-57.5
 20
0.0
 11
-57.5
 21
55.5
  0
LINE
  5
42
100
AcDbEntity
  8
LC-004-007-KH--0
  6
DASHDOT
 62
             7
100
AcDbLine
 10
-29.57224500000001
 20
-36.64331200000004
 11
-29.57224500000001
 21
-36.64331200000004
  0
LINE
  5
41
100
AcDbEntity
  8
LC-004-007-KH--0
  6
DASHDOT
 62
             7
100
AcDbLine
 10
-36.64331200000004
 20
-29.57224499999995
 11
-36.64331200000004
 21
-29.57224499999995
  0
LINE
  5
40
100
AcDbEntity
  8
LC-004-007-KH--0
  6
DASHDOT
 62
             7
100
AcDbLine
 10
-27.26578899999998
 20
20.19472099999996
 11
-27.26578899999998
 21
20.19472099999996
  0
LINE
  5
3F
100
AcDbEntity
  8
LC-004-007-KH--0
  6
DASHDOT
 62
             7
100
AcDbLine
 10
17.64670000000001
 20
10.57563200000004
 11
17.64670000000001
 21
10.57563200000004
  0
LINE
  5
3E
100
AcDbEntity
  8
LC-004-007-KH--0
  6
DASHDOT
 62
             7
100
AcDbLine
 10
27.26578899999998
 20
20.19472099999996
 11
27.26578899999998
 21
20.19472099999996
  0
LINE
  5
3D
100
AcDbEntity
  8
LC-004-007-KH--0
  6
DASHDOT
 62
             7
100
AcDbLine
 10
29.57224500000001
 20
-36.64331200000004
 11
29.57224500000001
 21
-36.64331200000004
  0
LINE
  5
3C
100
AcDbEntity
  8
LC-004-007-KH--0
  6
DASHDOT
 62
             7
100
AcDbLine
 10
29.57224500000001
 20
36.64331200000004
 11
29.57224500000001
 21
36.64331200000004
  0
LINE
  5
3B
100
AcDbEntity
  8
LC-004-007-KH--0
  6
DASHDOT
 62
             7
100
AcDbLine
 10
-17.64670000000001
 20
10.57563200000004
 11
-17.64670000000001
 21
10.57563200000004
  0
LINE
  5
3A
100
AcDbEntity
  8
LC-004-007-KH--0
  6
DASHDOT
 62
             7
100
AcDbLine
 10
-36.64331200000004
 20
29.57224499999995
 11
-36.64331200000004
 21
29.57224499999995
  0
LINE
  5
39
100
AcDbEntity
  8
LC-004-007-KH--0
  6
DASHDOT
 62
             7
100
AcDbLine
 10
-10.57563199999999
 20
-17.64670000000001
 11
-10.57563199999999
 21
-17.64670000000001
  0
LINE
  5
38
100
AcDbEntity
  8
LC-004-007-KH--0
  6
DASHDOT
 62
             7
100
AcDbLine
 10
-20.19472100000002
 20
-27.26578900000004
 11
-20.19472100000002
 21
-27.26578900000004
  0
LINE
  5
37
100
AcDbEntity
  8
LC-001-002-----0
  6
CONTINUOUS
 62
             7
100
AcDbLine
 10
57.5
 20
0.0
 11
57.5
 21
55.5
  0
LINE
  5
36
100
AcDbEntity
  8
LC-001-002-----0
  6
CONTINUOUS
 62
             7
100
AcDbLine
 10
-55.5
 20
57.5
 11
55.5
 21
57.5
  0
LINE
  5
35
100
AcDbEntity
  8
LC-001-002-----0
  6
CONTINUOUS
 62
             7
100
AcDbLine
 10
-57.5
 20
0.0
 11
-57.5
 21
-55.5
  0
LINE
  5
34
100
AcDbEntity
  8
LC-001-002-----0
  6
CONTINUOUS
 62
             7
100
AcDbLine
 10
-55.5
 20
-57.5
 11
55.5
 21
-57.5
  0
LINE
  5
33
100
AcDbEntity
  8
LC-001-002-----0
  6
CONTINUOUS
 62
             7
100
AcDbLine
 10
57.5
 20
0.0
 11
57.5
 21
-55.5
  0
LINE
  5
32
100
AcDbEntity
  8
1
  6
PHANTOM
 62
             2
100
AcDbLine
 10
0.0
 20
59.78796049390996
 11
0.0
 21
-61.33194552728412
  0
LINE
  5
31
100
AcDbEntity
  8
1
  6
PHANTOM
 62
             2
100
AcDbLine
 10
-61.60589347710101
 20
0.0
 11
60.978329197199
 21
0.0
  0
ENDBLK
  5
90
100
AcDbEntity
  8
0
100
AcDbBlockEnd
  0
BLOCK
  5
2C
100
AcDbEntity
  8
0
100
AcDbBlockBegin
  2
EINLAUFROST_115X115_ROO__2
 70
             0
 10
347.43083100000001
 20
1050.3428309999999
 30
0.0
  3
EINLAUFROST_115X115_ROO__2
  1

  0
HATCH
  5
103
100
AcDbEntity
  8
1
  6
CONTINUOUS
 62
             3
100
AcDbHatch
 10
0.0
 20
0.0
 30
0.0
210
0.0
220
0.0
230
1.0
  2
USER
 70
             0
 71
             1
 91
        1
 92
        1
 93
       12
 72
             1
 10
-55.5
 20
98.63038599999993
 11
-52.5
 21
98.63038599999993
 72
             2
 10
-52.5
 20
96.63038599999993
 40
2.0
 50
-90.0
 51
0.0
 73
             0
 72
             1
 10
-50.5
 20
96.63038599999993
 11
-50.5
 21
96.13038599999993
 72
             1
 10
-50.5
 20
96.13038599999993
 11
-52.0
 21
96.13038599999993
 72
             1
 10
-52.0
 20
96.13038599999993
 11
-52.0
 21
96.63038599999993
 72
             2
 10
-52.5
 20
96.63038599999993
 40
0.5
 50
0.0
 51
90.0
 73
             1
 72
             1
 10
-52.5
 20
97.13038599999993
 11
-55.5
 21
97.13038599999993
 72
             2
 10
-55.5
 20
96.63038599999993
 40
0.5
 50
90.0
 51
180.0
 73
             1
 72
             1
 10
-56.0
 20
96.63038599999993
 11
-56.0
 21
93.63038599999993
 72
             1
 10
-56.0
 20
93.63038599999993
 11
-57.5
 21
93.63038599999993
 72
             1
 10
-57.5
 20
93.63038599999993
 11
-57.5
 21
96.63038599999993
 72
             2
 10
-55.5
 20
96.63038599999993
 40
2.0
 50
-180.0
 51
-90.0
 73
             0
 97
       12
330
DE
330
F4
330
DA
330
CE
330
D9
330
FA
330
DC
330
FB
330
DD
330
A6
330
E0
330
FC
 75
             1
 76
             0
 52
45.0
 41
3.0
 77
             0
 78
             1
 53
45.0
 43
0.0
 44
0.0
 45
-2.1213203435596424
 46
2.1213203435596428
 79
             0
 98
        1
 10
0.0
 20
0.0
  0
HATCH
  5
102
100
AcDbEntity
  8
1
  6
CONTINUOUS
 62
             3
100
AcDbHatch
 10
0.0
 20
0.0
 30
0.0
210
0.0
220
0.0
230
1.0
  2
USER
 70
             0
 71
             1
 91
        1
 92
        1
 93
       12
 72
             1
 10
-42.5
 20
98.63038599999993
 11
-39.5
 21
98.63038599999993
 72
             2
 10
-39.5
 20
96.63038599999993
 40
2.0
 50
-90.0
 51
0.0
 73
             0
 72
             1
 10
-37.5
 20
96.63038599999993
 11
-37.5
 21
96.13038599999993
 72
             1
 10
-37.5
 20
96.13038599999993
 11
-39.0
 21
96.13038599999993
 72
             1
 10
-39.0
 20
96.13038599999993
 11
-39.0
 21
96.63038599999993
 72
             2
 10
-39.5
 20
96.63038599999993
 40
0.5
 50
0.0
 51
90.0
 73
             1
 72
             1
 10
-39.5
 20
97.13038599999993
 11
-42.5
 21
97.13038599999993
 72
             2
 10
-42.5
 20
96.63038599999993
 40
0.5
 50
90.0
 51
180.0
 73
             1
 72
             1
 10
-43.0
 20
96.63038599999993
 11
-43.0
 21
96.13038599999993
 72
             1
 10
-43.0
 20
96.13038599999993
 11
-44.5
 21
96.13038599999993
 72
             1
 10
-44.5
 20
96.13038599999993
 11
-44.5
 21
96.63038599999993
 72
             2
 10
-42.5
 20
96.63038599999993
 40
2.0
 50
-180.0
 51
-90.0
 73
             0
 97
       12
330
C4
330
F2
330
D6
330
CC
330
D5
330
F8
330
C8
330
F9
330
D7
330
CD
330
D8
330
F3
 75
             1
 76
             0
 52
45.0
 41
3.0
 77
             0
 78
             1
 53
45.0
 43
0.0
 44
0.0
 45
-2.1213203435596424
 46
2.1213203435596428
 79
             0
 98
        1
 10
0.0
 20
0.0
  0
HATCH
  5
101
100
AcDbEntity
  8
1
  6
CONTINUOUS
 62
             3
100
AcDbHatch
 10
0.0
 20
0.0
 30
0.0
210
0.0
220
0.0
230
1.0
  2
USER
 70
             0
 71
             1
 91
        1
 92
        1
 93
       12
 72
             1
 10
-29.5
 20
98.63038599999993
 11
-26.5
 21
98.63038599999993
 72
             2
 10
-26.5
 20
96.63038599999993
 40
2.0
 50
-90.0
 51
0.0
 73
             0
 72
             1
 10
-24.5
 20
96.63038599999993
 11
-24.5
 21
96.13038599999993
 72
             1
 10
-24.5
 20
96.13038599999993
 11
-26.0
 21
96.13038599999993
 72
             1
 10
-26.0
 20
96.13038599999993
 11
-26.0
 21
96.63038599999993
 72
             2
 10
-26.5
 20
96.63038599999993
 40
0.5
 50
0.0
 51
90.0
 73
             1
 72
             1
 10
-26.5
 20
97.13038599999993
 11
-29.5
 21
97.13038599999993
 72
             2
 10
-29.5
 20
96.63038599999993
 40
0.5
 50
90.0
 51
180.0
 73
             1
 72
             1
 10
-30.0
 20
96.63038599999993
 11
-30.0
 21
96.13038599999993
 72
             1
 10
-30.0
 20
96.13038599999993
 11
-31.5
 21
96.13038599999993
 72
             1
 10
-31.5
 20
96.13038599999993
 11
-31.5
 21
96.63038599999993
 72
             2
 10
-29.5
 20
96.63038599999993
 40
2.0
 50
-180.0
 51
-90.0
 73
             0
 97
       12
330
C3
330
F0
330
D2
330
CA
330
D1
330
F6
330
C7
330
F7
330
D3
330
CB
330
D4
330
F1
 75
             1
 76
             0
 52
45.0
 41
3.0
 77
             0
 78
             1
 53
45.0
 43
0.0
 44
0.0
 45
-2.1213203435596424
 46
2.1213203435596428
 79
             0
 98
        1
 10
0.0
 20
0.0
  0
HATCH
  5
100
100
AcDbEntity
  8
1
  6
CONTINUOUS
 62
             3
100
AcDbHatch
 10
0.0
 20
0.0
 30
0.0
210
0.0
220
0.0
230
1.0
  2
USER
 70
             0
 71
             1
 91
        1
 92
        1
 93
       16
 72
             1
 10
18.5
 20
96.63038599999993
 11
18.5
 21
96.13038599999993
 72
             1
 10
18.5
 20
96.13038599999993
 11
17.0
 21
96.13038599999993
 72
             1
 10
17.0
 20
96.13038599999993
 11
17.0
 21
96.63038599999993
 72
             2
 10
16.5
 20
96.63038599999993
 40
0.5
 50
0.0
 51
90.0
 73
             1
 72
             1
 10
16.5
 20
97.13038599999993
 11
-16.5
 21
97.13038599999993
 72
             2
 10
-16.5
 20
96.63038599999993
 40
0.5
 50
90.0
 51
180.0
 73
             1
 72
             1
 10
-17.0
 20
96.63038599999993
 11
-17.0
 21
96.13038599999993
 72
             1
 10
-17.0
 20
96.13038599999993
 11
-18.5
 21
96.13038599999993
 72
             1
 10
-18.5
 20
96.13038599999993
 11
-18.5
 21
96.63038599999993
 72
             2
 10
-16.5
 20
96.63038599999993
 40
2.0
 50
-180.0
 51
-90.0
 73
             0
 72
             1
 10
-16.5
 20
98.63038599999993
 11
-14.3306
 21
98.63038599999993
 72
             1
 10
-14.3306
 20
98.63038599999993
 11
-14.3306
 21
98.430385999999885
 72
             1
 10
-14.3306
 20
98.430385999999885
 11
14.01939999999996
 21
98.430385999999885
 72
             1
 10
14.01939999999996
 20
98.430385999999885
 11
14.01939999999996
 21
98.63038599999993
 72
             1
 10
14.01939999999996
 20
98.63038599999993
 11
16.5
 21
98.63038599999993
 72
             2
 10
16.5
 20
96.63038599999993
 40
2.0
 50
-90.0
 51
0.0
 73
             0
 97
       16
330
B4
330
A8
330
B5
330
E7
330
C6
330
F5
330
D0
330
C9
330
CF
330
EF
330
A9
330
C5
330
AA
330
C2
330
9A
330
E1
 75
             1
 76
             0
 52
45.0
 41
3.0
 77
             0
 78
             1
 53
45.0
 43
0.0
 44
0.0
 45
-2.1213203435596424
 46
2.1213203435596428
 79
             0
 98
        1
 10
0.0
 20
0.0
  0
HATCH
  5
FF
100
AcDbEntity
  8
1
  6
CONTINUOUS
 62
             3
100
AcDbHatch
 10
0.0
 20
0.0
 30
0.0
210
0.0
220
0.0
230
1.0
  2
USER
 70
             0
 71
             1
 91
        1
 92
        1
 93
       12
 72
             2
 10
55.5
 20
96.63038599999993
 40
2.0
 50
-90.0
 51
0.0
 73
             0
 72
             1
 10
57.5
 20
96.63038599999993
 11
57.5
 21
93.63038599999993
 72
             1
 10
57.5
 20
93.63038599999993
 11
56.0
 21
93.63038599999993
 72
             1
 10
56.0
 20
93.63038599999993
 11
56.0
 21
96.63038599999993
 72
             2
 10
55.5
 20
96.63038599999993
 40
0.5
 50
0.0
 51
90.0
 73
             1
 72
             1
 10
55.5
 20
97.13038599999993
 11
52.5
 21
97.13038599999993
 72
             2
 10
52.5
 20
96.63038599999993
 40
0.5
 50
90.0
 51
180.0
 73
             1
 72
             1
 10
52.0
 20
96.63038599999993
 11
52.0
 21
96.13038599999993
 72
             1
 10
52.0
 20
96.13038599999993
 11
50.5
 21
96.13038599999993
 72
             1
 10
50.5
 20
96.13038599999993
 11
50.5
 21
96.63038599999993
 72
             2
 10
52.5
 20
96.63038599999993
 40
2.0
 50
-180.0
 51
-90.0
 73
             0
 72
             1
 10
52.5
 20
98.63038599999993
 11
55.5
 21
98.63038599999993
 97
       12
330
EE
330
DF
330
93
330
DB
330
ED
330
C0
330
EC
330
BE
330
B3
330
BF
330
E6
330
C1
 75
             1
 76
             0
 52
45.0
 41
3.0
 77
             0
 78
             1
 53
45.0
 43
0.0
 44
0.0
 45
-2.1213203435596424
 46
2.1213203435596428
 79
             0
 98
        1
 10
0.0
 20
0.0
  0
HATCH
  5
FE
100
AcDbEntity
  8
1
  6
CONTINUOUS
 62
             3
100
AcDbHatch
 10
0.0
 20
0.0
 30
0.0
210
0.0
220
0.0
230
1.0
  2
USER
 70
             0
 71
             1
 91
        1
 92
        1
 93
       12
 72
             2
 10
42.5
 20
96.63038599999993
 40
2.0
 50
-90.0
 51
0.0
 73
             0
 72
             1
 10
44.5
 20
96.63038599999993
 11
44.5
 21
96.13038599999993
 72
             1
 10
44.5
 20
96.13038599999993
 11
43.0
 21
96.13038599999993
 72
             1
 10
43.0
 20
96.13038599999993
 11
43.0
 21
96.63038599999993
 72
             2
 10
42.5
 20
96.63038599999993
 40
0.5
 50
0.0
 51
90.0
 73
             1
 72
             1
 10
42.5
 20
97.13038599999993
 11
39.5
 21
97.13038599999993
 72
             2
 10
39.5
 20
96.63038599999993
 40
0.5
 50
90.0
 51
180.0
 73
             1
 72
             1
 10
39.0
 20
96.63038599999993
 11
39.0
 21
96.13038599999993
 72
             1
 10
39.0
 20
96.13038599999993
 11
37.5
 21
96.13038599999993
 72
             1
 10
37.5
 20
96.13038599999993
 11
37.5
 21
96.63038599999993
 72
             2
 10
39.5
 20
96.63038599999993
 40
2.0
 50
-180.0
 51
-90.0
 73
             0
 72
             1
 10
39.5
 20
98.63038599999993
 11
42.5
 21
98.63038599999993
 97
       12
330
E5
330
BD
330
94
330
BC
330
EB
330
AE
330
EA
330
BA
330
95
330
BB
330
E4
330
96
 75
             1
 76
             0
 52
45.0
 41
3.0
 77
             0
 78
             1
 53
45.0
 43
0.0
 44
0.0
 45
-2.1213203435596424
 46
2.1213203435596428
 79
             0
 98
        1
 10
0.0
 20
0.0
  0
HATCH
  5
FD
100
AcDbEntity
  8
1
  6
CONTINUOUS
 62
             3
100
AcDbHatch
 10
0.0
 20
0.0
 30
0.0
210
0.0
220
0.0
230
1.0
  2
USER
 70
             0
 71
             1
 91
        1
 92
        1
 93
       12
 72
             1
 10
26.5
 20
98.63038599999993
 11
29.5
 21
98.63038599999993
 72
             2
 10
29.5
 20
96.63038599999993
 40
2.0
 50
-90.0
 51
0.0
 73
             0
 72
             1
 10
31.5
 20
96.63038599999993
 11
31.5
 21
96.13038599999993
 72
             1
 10
31.5
 20
96.13038599999993
 11
30.0
 21
96.13038599999993
 72
             1
 10
30.0
 20
96.13038599999993
 11
30.0
 21
96.63038599999993
 72
             2
 10
29.5
 20
96.63038599999993
 40
0.5
 50
0.0
 51
90.0
 73
             1
 72
             1
 10
29.5
 20
97.13038599999993
 11
26.5
 21
97.13038599999993
 72
             2
 10
26.5
 20
96.63038599999993
 40
0.5
 50
90.0
 51
180.0
 73
             1
 72
             1
 10
26.0
 20
96.63038599999993
 11
26.0
 21
96.13038599999993
 72
             1
 10
26.0
 20
96.13038599999993
 11
24.5
 21
96.13038599999993
 72
             1
 10
24.5
 20
96.13038599999993
 11
24.5
 21
96.63038599999993
 72
             2
 10
26.5
 20
96.63038599999993
 40
2.0
 50
-180.0
 51
-90.0
 73
             0
 97
       12
330
99
330
E3
330
B9
330
97
330
B8
330
E9
330
AD
330
E8
330
B6
330
98
330
B7
330
E2
 75
             1
 76
             0
 52
45.0
 41
3.0
 77
             0
 78
             1
 53
45.0
 43
0.0
 44
0.0
 45
-2.1213203435596424
 46
2.1213203435596428
 79
             0
 98
        1
 10
0.0
 20
0.0
  0
ARC
  5
FC
102
{ACAD_REACTORS
330
103
102
}
100
AcDbEntity
  8
LC-001-002-----0
  6
CONTINUOUS
 62
             7
100
AcDbCircle
 10
-55.5
 20
96.63038599999993
 40
2.0
100
AcDbArc
 50
90.0
 51
180.0
  0
ARC
  5
FB
102
{ACAD_REACTORS
330
103
102
}
100
AcDbEntity
  8
LC-001-002-----0
  6
CONTINUOUS
 62
             7
100
AcDbCircle
 10
-55.5
 20
96.63038599999993
 40
0.5
100
AcDbArc
 50
90.0
 51
180.0
  0
ARC
  5
FA
102
{ACAD_REACTORS
330
103
102
}
100
AcDbEntity
  8
LC-001-002-----0
  6
CONTINUOUS
 62
             7
100
AcDbCircle
 10
-52.5
 20
96.63038599999993
 40
0.5
100
AcDbArc
 50
0.0
 51
90.0
  0
ARC
  5
F9
102
{ACAD_REACTORS
330
102
102
}
100
AcDbEntity
  8
LC-001-002-----0
  6
CONTINUOUS
 62
             7
100
AcDbCircle
 10
-42.5
 20
96.63038599999993
 40
0.5
100
AcDbArc
 50
90.0
 51
180.0
  0
ARC
  5
F8
102
{ACAD_REACTORS
330
102
102
}
100
AcDbEntity
  8
LC-001-002-----0
  6
CONTINUOUS
 62
             7
100
AcDbCircle
 10
-39.5
 20
96.63038599999993
 40
0.5
100
AcDbArc
 50
0.0
 51
90.0
  0
ARC
  5
F7
102
{ACAD_REACTORS
330
101
102
}
100
AcDbEntity
  8
LC-001-002-----0
  6
CONTINUOUS
 62
             7
100
AcDbCircle
 10
-29.5
 20
96.63038599999993
 40
0.5
100
AcDbArc
 50
90.0
 51
180.0
  0
ARC
  5
F6
102
{ACAD_REACTORS
330
101
102
}
100
AcDbEntity
  8
LC-001-002-----0
  6
CONTINUOUS
 62
             7
100
AcDbCircle
 10
-26.5
 20
96.63038599999993
 40
0.5
100
AcDbArc
 50
0.0
 51
90.0
  0
ARC
  5
F5
102
{ACAD_REACTORS
330
100
102
}
100
AcDbEntity
  8
LC-001-002-----0
  6
CONTINUOUS
 62
             7
100
AcDbCircle
 10
-16.5
 20
96.63038599999993
 40
0.5
100
AcDbArc
 50
90.0
 51
180.0
  0
ARC
  5
F4
102
{ACAD_REACTORS
330
103
102
}
100
AcDbEntity
  8
LC-001-002-----0
  6
CONTINUOUS
 62
             7
100
AcDbCircle
 10
-52.5
 20
96.63038599999993
 40
2.0
100
AcDbArc
 50
0.0
 51
90.0
  0
ARC
  5
F3
102
{ACAD_REACTORS
330
102
102
}
100
AcDbEntity
  8
LC-001-002-----0
  6
CONTINUOUS
 62
             7
100
AcDbCircle
 10
-42.5
 20
96.63038599999993
 40
2.0
100
AcDbArc
 50
90.0
 51
180.0
  0
ARC
  5
F2
102
{ACAD_REACTORS
330
102
102
}
100
AcDbEntity
  8
LC-001-002-----0
  6
CONTINUOUS
 62
             7
100
AcDbCircle
 10
-39.5
 20
96.63038599999993
 40
2.0
100
AcDbArc
 50
0.0
 51
90.0
  0
ARC
  5
F1
102
{ACAD_REACTORS
330
101
102
}
100
AcDbEntity
  8
LC-001-002-----0
  6
CONTINUOUS
 62
             7
100
AcDbCircle
 10
-29.5
 20
96.63038599999993
 40
2.0
100
AcDbArc
 50
90.0
 51
180.0
  0
ARC
  5
F0
102
{ACAD_REACTORS
330
101
102
}
100
AcDbEntity
  8
LC-001-002-----0
  6
CONTINUOUS
 62
             7
100
AcDbCircle
 10
-26.5
 20
96.63038599999993
 40
2.0
100
AcDbArc
 50
0.0
 51
90.0
  0
ARC
  5
EF
102
{ACAD_REACTORS
330
100
102
}
100
AcDbEntity
  8
LC-001-002-----0
  6
CONTINUOUS
 62
             7
100
AcDbCircle
 10
-16.5
 20
96.63038599999993
 40
2.0
100
AcDbArc
 50
90.0
 51
180.0
  0
ARC
  5
EE
102
{ACAD_REACTORS
330
FF
102
}
100
AcDbEntity
  8
LC-001-002-----0
  6
CONTINUOUS
 62
             7
100
AcDbCircle
 10
55.5
 20
96.63038599999993
 40
2.0
100
AcDbArc
 50
0.0
 51
90.0
  0
ARC
  5
ED
102
{ACAD_REACTORS
330
FF
102
}
100
AcDbEntity
  8
LC-001-002-----0
  6
CONTINUOUS
 62
             7
100
AcDbCircle
 10
55.5
 20
96.63038599999993
 40
0.5
100
AcDbArc
 50
0.0
 51
90.0
  0
ARC
  5
EC
102
{ACAD_REACTORS
330
FF
102
}
100
AcDbEntity
  8
LC-001-002-----0
  6
CONTINUOUS
 62
             7
100
AcDbCircle
 10
52.5
 20
96.63038599999993
 40
0.5
100
AcDbArc
 50
90.0
 51
180.0
  0
ARC
  5
EB
102
{ACAD_REACTORS
330
FE
102
}
100
AcDbEntity
  8
LC-001-002-----0
  6
CONTINUOUS
 62
             7
100
AcDbCircle
 10
42.5
 20
96.63038599999993
 40
0.5
100
AcDbArc
 50
0.0
 51
90.0
  0
ARC
  5
EA
102
{ACAD_REACTORS
330
FE
102
}
100
AcDbEntity
  8
LC-001-002-----0
  6
CONTINUOUS
 62
             7
100
AcDbCircle
 10
39.5
 20
96.63038599999993
 40
0.5
100
AcDbArc
 50
90.0
 51
180.0
  0
ARC
  5
E9
102
{ACAD_REACTORS
330
FD
102
}
100
AcDbEntity
  8
LC-001-002-----0
  6
CONTINUOUS
 62
             7
100
AcDbCircle
 10
29.5
 20
96.63038599999993
 40
0.5
100
AcDbArc
 50
0.0
 51
90.0
  0
ARC
  5
E8
102
{ACAD_REACTORS
330
FD
102
}
100
AcDbEntity
  8
LC-001-002-----0
  6
CONTINUOUS
 62
             7
100
AcDbCircle
 10
26.5
 20
96.63038599999993
 40
0.5
100
AcDbArc
 50
90.0
 51
180.0
  0
ARC
  5
E7
102
{ACAD_REACTORS
330
100
102
}
100
AcDbEntity
  8
LC-001-002-----0
  6
CONTINUOUS
 62
             7
100
AcDbCircle
 10
16.5
 20
96.63038599999993
 40
0.5
100
AcDbArc
 50
0.0
 51
90.0
  0
ARC
  5
E6
102
{ACAD_REACTORS
330
FF
102
}
100
AcDbEntity
  8
LC-001-002-----0
  6
CONTINUOUS
 62
             7
100
AcDbCircle
 10
52.5
 20
96.63038599999993
 40
2.0
100
AcDbArc
 50
90.0
 51
180.0
  0
ARC
  5
E5
102
{ACAD_REACTORS
330
FE
102
}
100
AcDbEntity
  8
LC-001-002-----0
  6
CONTINUOUS
 62
             7
100
AcDbCircle
 10
42.5
 20
96.63038599999993
 40
2.0
100
AcDbArc
 50
0.0
 51
90.0
  0
ARC
  5
E4
102
{ACAD_REACTORS
330
FE
102
}
100
AcDbEntity
  8
LC-001-002-----0
  6
CONTINUOUS
 62
             7
100
AcDbCircle
 10
39.5
 20
96.63038599999993
 40
2.0
100
AcDbArc
 50
90.0
 51
180.0
  0
ARC
  5
E3
102
{ACAD_REACTORS
330
FD
102
}
100
AcDbEntity
  8
LC-001-002-----0
  6
CONTINUOUS
 62
             7
100
AcDbCircle
 10
29.5
 20
96.63038599999993
 40
2.0
100
AcDbArc
 50
0.0
 51
90.0
  0
ARC
  5
E2
102
{ACAD_REACTORS
330
FD
102
}
100
AcDbEntity
  8
LC-001-002-----0
  6
CONTINUOUS
 62
             7
100
AcDbCircle
 10
26.5
 20
96.63038599999993
 40
2.0
100
AcDbArc
 50
90.0
 51
180.0
  0
ARC
  5
E1
102
{ACAD_REACTORS
330
100
102
}
100
AcDbEntity
  8
LC-001-002-----0
  6
CONTINUOUS
 62
             7
100
AcDbCircle
 10
16.5
 20
96.63038599999993
 40
2.0
100
AcDbArc
 50
0.0
 51
90.0
  0
LINE
  5
E0
102
{ACAD_REACTORS
330
103
102
}
100
AcDbEntity
  8
LC-001-002-----0
  6
CONTINUOUS
 62
             7
100
AcDbLine
 10
-57.5
 20
93.63038599999993
 11
-57.5
 21
96.63038599999993
  0
LINE
  5
DF
102
{ACAD_REACTORS
330
FF
102
}
100
AcDbEntity
  8
LC-001-002-----0
  6
CONTINUOUS
 62
             7
100
AcDbLine
 10
57.5
 20
93.63038599999993
 11
57.5
 21
96.63038599999993
  0
LINE
  5
DE
102
{ACAD_REACTORS
330
103
102
}
100
AcDbEntity
  8
LC-001-002-----0
  6
CONTINUOUS
 62
             7
100
AcDbLine
 10
-55.5
 20
98.63038599999993
 11
-52.5
 21
98.63038599999993
  0
LINE
  5
DD
102
{ACAD_REACTORS
330
103
102
}
100
AcDbEntity
  8
LC-001-002-----0
  6
CONTINUOUS
 62
             7
100
AcDbLine
 10
-56.0
 20
93.63038599999993
 11
-56.0
 21
96.63038599999993
  0
LINE
  5
DC
102
{ACAD_REACTORS
330
103
102
}
100
AcDbEntity
  8
LC-001-002-----0
  6
CONTINUOUS
 62
             7
100
AcDbLine
 10
-55.5
 20
97.13038599999993
 11
-52.5
 21
97.13038599999993
  0
LINE
  5
DB
102
{ACAD_REACTORS
330
FF
102
}
100
AcDbEntity
  8
LC-001-002-----0
  6
CONTINUOUS
 62
             7
100
AcDbLine
 10
56.0
 20
93.63038599999993
 11
56.0
 21
96.63038599999993
  0
LINE
  5
DA
102
{ACAD_REACTORS
330
103
102
}
100
AcDbEntity
  8
LC-001-002-----0
  6
CONTINUOUS
 62
             7
100
AcDbLine
 10
-50.5
 20
96.13038599999993
 11
-50.5
 21
96.63038599999993
  0
LINE
  5
D9
102
{ACAD_REACTORS
330
103
102
}
100
AcDbEntity
  8
LC-001-002-----0
  6
CONTINUOUS
 62
             7
100
AcDbLine
 10
-52.0
 20
96.13038599999993
 11
-52.0
 21
96.63038599999993
  0
LINE
  5
D8
102
{ACAD_REACTORS
330
102
102
}
100
AcDbEntity
  8
LC-001-002-----0
  6
CONTINUOUS
 62
             7
100
AcDbLine
 10
-44.5
 20
96.13038599999993
 11
-44.5
 21
96.63038599999993
  0
LINE
  5
D7
102
{ACAD_REACTORS
330
102
102
}
100
AcDbEntity
  8
LC-001-002-----0
  6
CONTINUOUS
 62
             7
100
AcDbLine
 10
-43.0
 20
96.13038599999993
 11
-43.0
 21
96.63038599999993
  0
LINE
  5
D6
102
{ACAD_REACTORS
330
102
102
}
100
AcDbEntity
  8
LC-001-002-----0
  6
CONTINUOUS
 62
             7
100
AcDbLine
 10
-37.5
 20
96.13038599999993
 11
-37.5
 21
96.63038599999993
  0
LINE
  5
D5
102
{ACAD_REACTORS
330
102
102
}
100
AcDbEntity
  8
LC-001-002-----0
  6
CONTINUOUS
 62
             7
100
AcDbLine
 10
-39.0
 20
96.13038599999993
 11
-39.0
 21
96.63038599999993
  0
LINE
  5
D4
102
{ACAD_REACTORS
330
101
102
}
100
AcDbEntity
  8
LC-001-002-----0
  6
CONTINUOUS
 62
             7
100
AcDbLine
 10
-31.5
 20
96.13038599999993
 11
-31.5
 21
96.63038599999993
  0
LINE
  5
D3
102
{ACAD_REACTORS
330
101
102
}
100
AcDbEntity
  8
LC-001-002-----0
  6
CONTINUOUS
 62
             7
100
AcDbLine
 10
-30.0
 20
96.13038599999993
 11
-30.0
 21
96.63038599999993
  0
LINE
  5
D2
102
{ACAD_REACTORS
330
101
102
}
100
AcDbEntity
  8
LC-001-002-----0
  6
CONTINUOUS
 62
             7
100
AcDbLine
 10
-24.5
 20
96.13038599999993
 11
-24.5
 21
96.63038599999993
  0
LINE
  5
D1
102
{ACAD_REACTORS
330
101
102
}
100
AcDbEntity
  8
LC-001-002-----0
  6
CONTINUOUS
 62
             7
100
AcDbLine
 10
-26.0
 20
96.13038599999993
 11
-26.0
 21
96.63038599999993
  0
LINE
  5
D0
102
{ACAD_REACTORS
330
100
102
}
100
AcDbEntity
  8
LC-001-002-----0
  6
CONTINUOUS
 62
             7
100
AcDbLine
 10
-17.0
 20
96.13038599999993
 11
-17.0
 21
96.63038599999993
  0
LINE
  5
CF
102
{ACAD_REACTORS
330
100
102
}
100
AcDbEntity
  8
LC-001-002-----0
  6
CONTINUOUS
 62
             7
100
AcDbLine
 10
-18.5
 20
96.13038599999993
 11
-18.5
 21
96.63038599999993
  0
LINE
  5
CE
102
{ACAD_REACTORS
330
103
102
}
100
AcDbEntity
  8
LC-001-002-----0
  6
CONTINUOUS
 62
             7
100
AcDbLine
 10
-52.0
 20
96.13038599999993
 11
-50.5
 21
96.13038599999993
  0
LINE
  5
CD
102
{ACAD_REACTORS
330
102
102
}
100
AcDbEntity
  8
LC-001-002-----0
  6
CONTINUOUS
 62
             7
100
AcDbLine
 10
-44.5
 20
96.13038599999993
 11
-43.0
 21
96.13038599999993
  0
LINE
  5
CC
102
{ACAD_REACTORS
330
102
102
}
100
AcDbEntity
  8
LC-001-002-----0
  6
CONTINUOUS
 62
             7
100
AcDbLine
 10
-39.0
 20
96.13038599999993
 11
-37.5
 21
96.13038599999993
  0
LINE
  5
CB
102
{ACAD_REACTORS
330
101
102
}
100
AcDbEntity
  8
LC-001-002-----0
  6
CONTINUOUS
 62
             7
100
AcDbLine
 10
-31.5
 20
96.13038599999993
 11
-30.0
 21
96.13038599999993
  0
LINE
  5
CA
102
{ACAD_REACTORS
330
101
102
}
100
AcDbEntity
  8
LC-001-002-----0
  6
CONTINUOUS
 62
             7
100
AcDbLine
 10
-26.0
 20
96.13038599999993
 11
-24.5
 21
96.13038599999993
  0
LINE
  5
C9
102
{ACAD_REACTORS
330
100
102
}
100
AcDbEntity
  8
LC-001-002-----0
  6
CONTINUOUS
 62
             7
100
AcDbLine
 10
-18.5
 20
96.13038599999993
 11
-17.0
 21
96.13038599999993
  0
LINE
  5
C8
102
{ACAD_REACTORS
330
102
102
}
100
AcDbEntity
  8
LC-001-002-----0
  6
CONTINUOUS
 62
             7
100
AcDbLine
 10
-42.5
 20
97.13038599999993
 11
-39.5
 21
97.13038599999993
  0
LINE
  5
C7
102
{ACAD_REACTORS
330
101
102
}
100
AcDbEntity
  8
LC-001-002-----0
  6
CONTINUOUS
 62
             7
100
AcDbLine
 10
-29.5
 20
97.13038599999993
 11
-26.5
 21
97.13038599999993
  0
LINE
  5
C6
102
{ACAD_REACTORS
330
100
102
}
100
AcDbEntity
  8
LC-001-002-----0
  6
CONTINUOUS
 62
             7
100
AcDbLine
 10
-16.5
 20
97.13038599999993
 11
16.5
 21
97.13038599999993
  0
LINE
  5
C5
102
{ACAD_REACTORS
330
100
102
}
100
AcDbEntity
  8
LC-001-002-----0
  6
CONTINUOUS
 62
             7
100
AcDbLine
 10
-14.3306
 20
98.43038599999989
 11
-14.3306
 21
98.63038599999993
  0
LINE
  5
C4
102
{ACAD_REACTORS
330
102
102
}
100
AcDbEntity
  8
LC-001-002-----0
  6
CONTINUOUS
 62
             7
100
AcDbLine
 10
-42.5
 20
98.63038599999993
 11
-39.5
 21
98.63038599999993
  0
LINE
  5
C3
102
{ACAD_REACTORS
330
101
102
}
100
AcDbEntity
  8
LC-001-002-----0
  6
CONTINUOUS
 62
             7
100
AcDbLine
 10
-29.5
 20
98.63038599999993
 11
-26.5
 21
98.63038599999993
  0
LINE
  5
C2
102
{ACAD_REACTORS
330
100
102
}
100
AcDbEntity
  8
LC-001-002-----0
  6
CONTINUOUS
 62
             7
100
AcDbLine
 10
14.01939999999996
 20
98.43038599999989
 11
14.01939999999996
 21
98.63038599999993
  0
LINE
  5
C1
102
{ACAD_REACTORS
330
FF
102
}
100
AcDbEntity
  8
LC-001-002-----0
  6
CONTINUOUS
 62
             7
100
AcDbLine
 10
55.5
 20
98.63038599999993
 11
52.5
 21
98.63038599999993
  0
LINE
  5
C0
102
{ACAD_REACTORS
330
FF
102
}
100
AcDbEntity
  8
LC-001-002-----0
  6
CONTINUOUS
 62
             7
100
AcDbLine
 10
55.5
 20
97.13038599999993
 11
52.5
 21
97.13038599999993
  0
LINE
  5
BF
102
{ACAD_REACTORS
330
FF
102
}
100
AcDbEntity
  8
LC-001-002-----0
  6
CONTINUOUS
 62
             7
100
AcDbLine
 10
50.5
 20
96.13038599999993
 11
50.5
 21
96.63038599999993
  0
LINE
  5
BE
102
{ACAD_REACTORS
330
FF
102
}
100
AcDbEntity
  8
LC-001-002-----0
  6
CONTINUOUS
 62
             7
100
AcDbLine
 10
52.0
 20
96.13038599999993
 11
52.0
 21
96.63038599999993
  0
LINE
  5
BD
102
{ACAD_REACTORS
330
FE
102
}
100
AcDbEntity
  8
LC-001-002-----0
  6
CONTINUOUS
 62
             7
100
AcDbLine
 10
44.5
 20
96.13038599999993
 11
44.5
 21
96.63038599999993
  0
LINE
  5
BC
102
{ACAD_REACTORS
330
FE
102
}
100
AcDbEntity
  8
LC-001-002-----0
  6
CONTINUOUS
 62
             7
100
AcDbLine
 10
43.0
 20
96.13038599999993
 11
43.0
 21
96.63038599999993
  0
LINE
  5
BB
102
{ACAD_REACTORS
330
FE
102
}
100
AcDbEntity
  8
LC-001-002-----0
  6
CONTINUOUS
 62
             7
100
AcDbLine
 10
37.5
 20
96.13038599999993
 11
37.5
 21
96.63038599999993
  0
LINE
  5
BA
102
{ACAD_REACTORS
330
FE
102
}
100
AcDbEntity
  8
LC-001-002-----0
  6
CONTINUOUS
 62
             7
100
AcDbLine
 10
39.0
 20
96.13038599999993
 11
39.0
 21
96.63038599999993
  0
LINE
  5
B9
102
{ACAD_REACTORS
330
FD
102
}
100
AcDbEntity
  8
LC-001-002-----0
  6
CONTINUOUS
 62
             7
100
AcDbLine
 10
31.5
 20
96.13038599999993
 11
31.5
 21
96.63038599999993
  0
LINE
  5
B8
102
{ACAD_REACTORS
330
FD
102
}
100
AcDbEntity
  8
LC-001-002-----0
  6
CONTINUOUS
 62
             7
100
AcDbLine
 10
30.0
 20
96.13038599999993
 11
30.0
 21
96.63038599999993
  0
LINE
  5
B7
102
{ACAD_REACTORS
330
FD
102
}
100
AcDbEntity
  8
LC-001-002-----0
  6
CONTINUOUS
 62
             7
100
AcDbLine
 10
24.5
 20
96.13038599999993
 11
24.5
 21
96.63038599999993
  0
LINE
  5
B6
102
{ACAD_REACTORS
330
FD
102
}
100
AcDbEntity
  8
LC-001-002-----0
  6
CONTINUOUS
 62
             7
100
AcDbLine
 10
26.0
 20
96.13038599999993
 11
26.0
 21
96.63038599999993
  0
LINE
  5
B5
102
{ACAD_REACTORS
330
100
102
}
100
AcDbEntity
  8
LC-001-002-----0
  6
CONTINUOUS
 62
             7
100
AcDbLine
 10
17.0
 20
96.13038599999993
 11
17.0
 21
96.63038599999993
  0
LINE
  5
B4
102
{ACAD_REACTORS
330
100
102
}
100
AcDbEntity
  8
LC-001-002-----0
  6
CONTINUOUS
 62
             7
100
AcDbLine
 10
18.5
 20
96.13038599999993
 11
18.5
 21
96.63038599999993
  0
LINE
  5
B3
102
{ACAD_REACTORS
330
FF
102
}
100
AcDbEntity
  8
LC-001-002-----0
  6
CONTINUOUS
 62
             7
100
AcDbLine
 10
52.0
 20
96.13038599999993
 11
50.5
 21
96.13038599999993
  0
LINE
  5
B2
100
AcDbEntity
  8
LC-001-002-----0
  6
CONTINUOUS
 62
             7
100
AcDbLine
 10
50.5
 20
96.13038599999993
 11
44.5
 21
96.13038599999993
  0
LINE
  5
B1
100
AcDbEntity
  8
LC-001-002-----0
  6
CONTINUOUS
 62
             7
100
AcDbLine
 10
43.0
 20
96.13038599999993
 11
39.0
 21
96.13038599999993
  0
LINE
  5
B0
100
AcDbEntity
  8
LC-001-002-----0
  6
CONTINUOUS
 62
             7
100
AcDbLine
 10
37.5
 20
96.13038599999993
 11
31.5
 21
96.13038599999993
  0
LINE
  5
AF
100
AcDbEntity
  8
LC-001-002-----0
  6
CONTINUOUS
 62
             7
100
AcDbLine
 10
30.0
 20
96.13038599999993
 11
26.0
 21
96.13038599999993
  0
LINE
  5
AE
102
{ACAD_REACTORS
330
FE
102
}
100
AcDbEntity
  8
LC-001-002-----0
  6
CONTINUOUS
 62
             7
100
AcDbLine
 10
42.5
 20
97.13038599999993
 11
39.5
 21
97.13038599999993
  0
LINE
  5
AD
102
{ACAD_REACTORS
330
FD
102
}
100
AcDbEntity
  8
LC-001-002-----0
  6
CONTINUOUS
 62
             7
100
AcDbLine
 10
29.5
 20
97.13038599999993
 11
26.5
 21
97.13038599999993
  0
LINE
  5
AC
100
AcDbEntity
  8
LC-001-002-----0
  6
CONTINUOUS
 62
             7
100
AcDbLine
 10
52.5
 20
98.63038599999993
 11
42.5
 21
98.63038599999993
  0
LINE
  5
AB
100
AcDbEntity
  8
LC-001-002-----0
  6
CONTINUOUS
 62
             7
100
AcDbLine
 10
39.5
 20
98.63038599999993
 11
29.5
 21
98.63038599999993
  0
LINE
  5
AA
102
{ACAD_REACTORS
330
100
102
}
100
AcDbEntity
  8
LC-001-002-----0
  6
CONTINUOUS
 62
             7
100
AcDbLine
 10
14.01939999999996
 20
98.43038599999989
 11
-14.3306
 21
98.43038599999989
  0
LINE
  5
A9
102
{ACAD_REACTORS
330
100
102
}
100
AcDbEntity
  8
LC-001-002-----0
  6
CONTINUOUS
 62
             7
100
AcDbLine
 10
-16.5
 20
98.63038599999993
 11
-14.3306
 21
98.63038599999993
  0
LINE
  5
A8
102
{ACAD_REACTORS
330
100
102
}
100
AcDbEntity
  8
LC-001-002-----0
  6
CONTINUOUS
 62
             7
100
AcDbLine
 10
18.5
 20
96.13038599999993
 11
17.0
 21
96.13038599999993
  0
LINE
  5
A7
100
AcDbEntity
  8
LC-001-002-----0
  6
CONTINUOUS
 62
             7
100
AcDbLine
 10
26.5
 20
98.63038599999993
 11
16.5
 21
98.63038599999993
  0
LINE
  5
A6
102
{ACAD_REACTORS
330
103
102
}
100
AcDbEntity
  8
LC-001-002-----0
  6
CONTINUOUS
 62
             7
100
AcDbLine
 10
-57.5
 20
93.63038599999993
 11
-56.0
 21
93.63038599999993
  0
LINE
  5
A5
100
AcDbEntity
  8
LC-001-002-----0
  6
CONTINUOUS
 62
             7
100
AcDbLine
 10
-56.0
 20
93.63038599999993
 11
56.0
 21
93.63038599999993
  0
LINE
  5
A4
100
AcDbEntity
  8
LC-001-002-----0
  6
CONTINUOUS
 62
             7
100
AcDbLine
 10
-52.5
 20
98.63038599999993
 11
-42.5
 21
98.63038599999993
  0
LINE
  5
A3
100
AcDbEntity
  8
1
  6
CONTINUOUS
 62
             7
100
AcDbLine
 10
-50.5
 20
96.13038599999993
 11
-44.5
 21
96.13038599999993
  0
LINE
  5
A2
100
AcDbEntity
  8
LC-001-002-----0
  6
CONTINUOUS
 62
             7
100
AcDbLine
 10
-43.0
 20
96.13038599999993
 11
-39.0
 21
96.13038599999993
  0
LINE
  5
A1
100
AcDbEntity
  8
LC-001-002-----0
  6
CONTINUOUS
 62
             7
100
AcDbLine
 10
-39.5
 20
98.63038599999993
 11
-29.5
 21
98.63038599999993
  0
LINE
  5
A0
100
AcDbEntity
  8
LC-001-002-----0
  6
CONTINUOUS
 62
             7
100
AcDbLine
 10
-37.5
 20
96.13038599999993
 11
-31.5
 21
96.13038599999993
  0
LINE
  5
9F
100
AcDbEntity
  8
LC-001-002-----0
  6
CONTINUOUS
 62
             7
100
AcDbLine
 10
-30.0
 20
96.13038599999993
 11
-26.0
 21
96.13038599999993
  0
LINE
  5
9E
100
AcDbEntity
  8
LC-001-002-----0
  6
CONTINUOUS
 62
             7
100
AcDbLine
 10
-24.5
 20
96.13038599999993
 11
-18.5
 21
96.13038599999993
  0
LINE
  5
9D
100
AcDbEntity
  8
LC-001-002-----0
  6
CONTINUOUS
 62
             7
100
AcDbLine
 10
-26.5
 20
98.63038599999993
 11
-16.5
 21
98.63038599999993
  0
LINE
  5
9C
100
AcDbEntity
  8
LC-001-002-----0
  6
CONTINUOUS
 62
             7
100
AcDbLine
 10
-17.0
 20
96.13038599999993
 11
17.0
 21
96.13038599999993
  0
LINE
  5
9B
100
AcDbEntity
  8
LC-001-002-----0
  6
CONTINUOUS
 62
             7
100
AcDbLine
 10
-14.3306
 20
98.63038599999993
 11
14.01939999999996
 21
98.63038599999993
  0
LINE
  5
9A
102
{ACAD_REACTORS
330
100
102
}
100
AcDbEntity
  8
LC-001-002-----0
  6
CONTINUOUS
 62
             7
100
AcDbLine
 10
16.5
 20
98.63038599999993
 11
14.01939999999996
 21
98.63038599999993
  0
LINE
  5
99
102
{ACAD_REACTORS
330
FD
102
}
100
AcDbEntity
  8
LC-001-002-----0
  6
CONTINUOUS
 62
             7
100
AcDbLine
 10
29.5
 20
98.63038599999993
 11
26.5
 21
98.63038599999993
  0
LINE
  5
98
102
{ACAD_REACTORS
330
FD
102
}
100
AcDbEntity
  8
LC-001-002-----0
  6
CONTINUOUS
 62
             7
100
AcDbLine
 10
26.0
 20
96.13038599999993
 11
24.5
 21
96.13038599999993
  0
LINE
  5
97
102
{ACAD_REACTORS
330
FD
102
}
100
AcDbEntity
  8
LC-001-002-----0
  6
CONTINUOUS
 62
             7
100
AcDbLine
 10
31.5
 20
96.13038599999993
 11
30.0
 21
96.13038599999993
  0
LINE
  5
96
102
{ACAD_REACTORS
330
FE
102
}
100
AcDbEntity
  8
LC-001-002-----0
  6
CONTINUOUS
 62
             7
100
AcDbLine
 10
42.5
 20
98.63038599999993
 11
39.5
 21
98.63038599999993
  0
LINE
  5
95
102
{ACAD_REACTORS
330
FE
102
}
100
AcDbEntity
  8
LC-001-002-----0
  6
CONTINUOUS
 62
             7
100
AcDbLine
 10
39.0
 20
96.13038599999993
 11
37.5
 21
96.13038599999993
  0
LINE
  5
94
102
{ACAD_REACTORS
330
FE
102
}
100
AcDbEntity
  8
LC-001-002-----0
  6
CONTINUOUS
 62
             7
100
AcDbLine
 10
44.5
 20
96.13038599999993
 11
43.0
 21
96.13038599999993
  0
LINE
  5
93
102
{ACAD_REACTORS
330
FF
102
}
100
AcDbEntity
  8
LC-001-002-----0
  6
CONTINUOUS
 62
             7
100
AcDbLine
 10
56.0
 20
93.63038599999993
 11
57.5
 21
93.63038599999993
  0
LINE
  5
92
100
AcDbEntity
  8
LC-001-002-----0
  6
CONTINUOUS
 62
             7
100
AcDbLine
 10
18.5
 20
96.13038599999993
 11
17.0
 21
96.13038599999993
  0
LINE
  5
91
100
AcDbEntity
  8
1
  6
CONTINUOUS
 62
             7
100
AcDbLine
 10
18.5
 20
96.13038599999993
 11
24.5
 21
96.13038599999993
  0
ENDBLK
  5
104
100
AcDbEntity
  8
0
100
AcDbBlockEnd
  0
BLOCK
  5
107
100
AcDbEntity
  8
0
100
AcDbBlockBegin
  2
*D2
 70
             1
 10
0.0
 20
0.0
 30
0.0
  3
*D2
  1

  0
LINE
  5
108
100
AcDbEntity
  8
0
  6
CONTINUOUS
 62
             4
100
AcDbLine
 10
57.5
 20
106.6303859999999
 11
-57.5
 21
106.6303859999999
  0
LINE
  5
109
100
AcDbEntity
  8
0
  6
CONTINUOUS
 62
             4
100
AcDbLine
 10
-57.5
 20
96.6303859999999
 11
-57.5
 21
108.6303859999999
  0
LINE
  5
10A
100
AcDbEntity
  8
0
  6
CONTINUOUS
 62
             4
100
AcDbLine
 10
57.5
 20
96.6303859999999
 11
57.5
 21
108.6303859999999
  0
SOLID
  5
10B
100
AcDbEntity
  8
0
 62
             4
100
AcDbTrace
 10
50.5
 20
105.70881851688813
 11
50.5
 21
107.55195348311167
 12
57.5
 22
106.6303859999999
 13
57.5
 23
106.6303859999999
  0
SOLID
  5
10C
100
AcDbEntity
  8
0
 62
             4
100
AcDbTrace
 10
-50.5
 20
107.55195348311167
 11
-50.5
 21
105.70881851688813
 12
-57.5
 22
106.6303859999999
 13
-57.5
 23
106.6303859999999
  0
MTEXT
  5
10E
100
AcDbEntity
  8
0
 62
             1
100
AcDbMText
 10
-20.599529914458
 20
108.6303859999999
 30
0.0
 40
7.0
 41
0.0
 71
             7
 72
             1
  1
\C1;115\C1;x115
  7
CONVERTER_1
 11
0.99999999999706
 21
0.00000242406841
 31
0.0
  0
ENDBLK
  5
10F
100
AcDbEntity
  8
0
100
AcDbBlockEnd
  0
BLOCK
  5
113
100
AcDbEntity
  8
0
100
AcDbBlockBegin
  2
*D3
 70
             1
 10
0.0
 20
0.0
 30
0.0
  3
*D3
  1

  0
LINE
  5
114
100
AcDbEntity
  8
0
  6
CONTINUOUS
 62
             4
100
AcDbLine
 10
73.98480711063797
 20
93.6303859999999
 11
73.98480711063797
 21
79.6303859999999
  0
LINE
  5
115
100
AcDbEntity
  8
0
  6
CONTINUOUS
 62
             4
100
AcDbLine
 10
73.98480711063797
 20
98.6303859999999
 11
73.98480711063797
 21
93.6303859999999
  0
LINE
  5
116
100
AcDbEntity
  8
0
  6
CONTINUOUS
 62
             4
100
AcDbLine
 10
73.98480711063797
 20
112.77891204160991
 11
73.98480711063797
 21
98.6303859999999
  0
LINE
  5
117
100
AcDbEntity
  8
0
  6
CONTINUOUS
 62
             4
100
AcDbLine
 10
57.5
 20
93.6303859999999
 11
75.98480711063797
 21
93.6303859999999
  0
LINE
  5
118
100
AcDbEntity
  8
0
  6
CONTINUOUS
 62
             4
100
AcDbLine
 10
55.5
 20
98.6303859999999
 11
75.98480711063797
 21
98.6303859999999
  0
SOLID
  5
119
100
AcDbEntity
  8
0
 62
             4
100
AcDbTrace
 10
73.0632396275262
 20
105.6303859999999
 11
74.90637459374975
 21
105.6303859999999
 12
73.98480711063797
 22
98.6303859999999
 13
73.98480711063797
 23
98.6303859999999
  0
SOLID
  5
11A
100
AcDbEntity
  8
0
 62
             4
100
AcDbTrace
 10
74.90637459374975
 20
86.6303859999999
 11
73.0632396275262
 21
86.6303859999999
 12
73.98480711063797
 22
93.6303859999999
 13
73.98480711063797
 23
93.6303859999999
  0
MTEXT
  5
11B
100
AcDbEntity
  8
0
 62
             1
100
AcDbMText
 10
71.98480711063797
 20
108.57891204161001
 30
0.0
 40
7.0
 41
0.0
 71
             7
 72
             1
  1
5
  7
CONVERTER_1
 11
0.0
 21
1.0
 31
0.0
  0
ENDBLK
  5
11C
100
AcDbEntity
  8
0
100
AcDbBlockEnd
  0
ENDSEC
  0
SECTION
  2
ENTITIES
  0
DIMENSION
  5
11E
100
AcDbEntity
  8
1
100
AcDbDimension
  2
*D3
 10
73.98480711063797
 20
98.6303859999999
 11
68.48480711063797
 21
110.67891204161
 31
0.0
 53
-90.0
  1
<>
  3
ME10_DIM_1
100
AcDbAlignedDimension
 13
57.5
 23
93.63038599999993
 14
55.5
 24
98.63038599999993
 50
-90.0
100
AcDbRotatedDimension
  0
DIMENSION
  5
111
100
AcDbEntity
  8
1
100
AcDbDimension
  2
*D2
 10
57.5
 20
106.6303859999999
 11
-3.099529914458
 21
112.1303859999999
 31
0.0
 53
0.00013888888889
  1
<>
  3
ME10_DIM_0
100
AcDbAlignedDimension
 13
-57.5
 23
96.63038599999993
 14
57.5
 24
96.63038599999993
100
AcDbRotatedDimension
  0
INSERT
  5
2F
100
AcDbEntity
  8
1
100
AcDbBlockReference
  2
EINLAUFROST_115X115_ROO__1
 10
343.32493752289901
 20
895.38049947271588
  0
INSERT
  5
30
100
AcDbEntity
  8
1
100
AcDbBlockReference
  2
EINLAUFROST_115X115_ROO__2
 10
347.43083100000001
 20
1050.3428309999999
  0
ENDSEC
  0
SECTION
  2
OBJECTS
  0
DICTIONARY
  5
19
100
AcDbDictionary
  3
ACAD_GROUP
350
1A
  3
ACAD_MLINESTYLE
350
1B
  0
DICTIONARY
  5
1A
102
{ACAD_REACTORS
330
19
102
}
100
AcDbDictionary
  0
DICTIONARY
  5
1B
102
{ACAD_REACTORS
330
19
102
}
100
AcDbDictionary
  3
STANDARD
350
1C
  0
MLINESTYLE
  5
1C
102
{ACAD_REACTORS
330
1B
102
}
100
AcDbMlineStyle
  2
STANDARD
 70
             0
  3

 62
             0
 51
90.0
 52
90.0
 71
             2
 49
0.5
 62
           256
  6
BYLAYER
 49
-0.5
 62
           256
  6
BYLAYER
  0
ENDSEC
  0
EOF
