  0
SECTION
  2
HEADER
  9
$ACADVER
  1
AC1014
  9
$ACADMAINTVER
 70
             0
  9
$DWGCODEPAGE
  3
ANSI_1252
  9
$INSBASE
 10
0.0
 20
0.0
 30
0.0
  9
$EXTMIN
 10
-250.00101046707169
 20
-302.77281440445222
 30
0.0
  9
$EXTMAX
 10
268.48056647479098
 20
125.250999292117
 30
0.0
  9
$LIMMIN
 10
0.0
 20
0.0
  9
$LIMMAX
 10
0.0
 20
0.0
  9
$ORTHOMODE
 70
             0
  9
$REGENMODE
 70
             1
  9
$FILLMODE
 70
             1
  9
$QTEXTMODE
 70
             0
  9
$MIRRTEXT
 70
             1
  9
$DRAGMODE
 70
             2
  9
$LTSCALE
 40
1.0
  9
$OSMODE
 70
             0
  9
$ATTMODE
 70
             1
  9
$TEXTSIZE
 40
0.2
  9
$TRACEWID
 40
0.05
  9
$TEXTSTYLE
  7
STANDARD
  9
$CLAYER
  8
0
  9
$CELTYPE
  6
CONTINUOUS
  9
$CECOLOR
 62
           256
  9
$CELTSCALE
 40
1.0
  9
$DELOBJ
 70
             1
  9
$DISPSILH
 70
             0
  9
$DIMSCALE
 40
1.0
  9
$DIMASZ
 40
0.18
  9
$DIMEXO
 40
0.0625
  9
$DIMDLI
 40
0.38
  9
$DIMRND
 40
0.0
  9
$DIMDLE
 40
0.0
  9
$DIMEXE
 40
0.18
  9
$DIMTP
 40
0.0
  9
$DIMTM
 40
0.0
  9
$DIMTXT
 40
0.18
  9
$DIMCEN
 40
0.09
  9
$DIMTSZ
 40
0.0
  9
$DIMTOL
 70
             0
  9
$DIMLIM
 70
             0
  9
$DIMTIH
 70
             1
  9
$DIMTOH
 70
             1
  9
$DIMSE1
 70
             0
  9
$DIMSE2
 70
             0
  9
$DIMTAD
 70
             0
  9
$DIMZIN
 70
             0
  9
$DIMBLK
  1

  9
$DIMASO
 70
             1
  9
$DIMSHO
 70
             1
  9
$DIMPOST
  1

  9
$DIMAPOST
  1

  9
$DIMALT
 70
             0
  9
$DIMALTD
 70
             2
  9
$DIMALTF
 40
25.4
  9
$DIMLFAC
 40
1.0
  9
$DIMTOFL
 70
             0
  9
$DIMTVP
 40
0.0
  9
$DIMTIX
 70
             0
  9
$DIMSOXD
 70
             0
  9
$DIMSAH
 70
             0
  9
$DIMBLK1
  1

  9
$DIMBLK2
  1

  9
$DIMSTYLE
  2
STANDARD
  9
$DIMCLRD
 70
             0
  9
$DIMCLRE
 70
             0
  9
$DIMCLRT
 70
             0
  9
$DIMTFAC
 40
1.0
  9
$DIMGAP
 40
0.09
  9
$DIMJUST
 70
             0
  9
$DIMSD1
 70
             0
  9
$DIMSD2
 70
             0
  9
$DIMTOLJ
 70
             1
  9
$DIMTZIN
 70
             0
  9
$DIMALTZ
 70
             0
  9
$DIMALTTZ
 70
             0
  9
$DIMFIT
 70
             3
  9
$DIMUPT
 70
             0
  9
$DIMUNIT
 70
             2
  9
$DIMDEC
 70
             4
  9
$DIMTDEC
 70
             4
  9
$DIMALTU
 70
             2
  9
$DIMALTTD
 70
             2
  9
$DIMTXSTY
  7
STANDARD
  9
$DIMAUNIT
 70
             0
  9
$LUNITS
 70
             2
  9
$LUPREC
 70
             4
  9
$SKETCHINC
 40
0.1
  9
$FILLETRAD
 40
0.0
  9
$AUNITS
 70
             0
  9
$AUPREC
 70
             0
  9
$MENU
  1
acad
  9
$ELEVATION
 40
0.0
  9
$PELEVATION
 40
0.0
  9
$THICKNESS
 40
0.0
  9
$LIMCHECK
 70
             0
  9
$BLIPMODE
 70
             1
  9
$CHAMFERA
 40
0.0
  9
$CHAMFERB
 40
0.0
  9
$CHAMFERC
 40
0.0
  9
$CHAMFERD
 40
0.0
  9
$SKPOLY
 70
             0
  9
$TDCREATE
 40
0.000000000
  9
$TDUPDATE
 40
0.000000000
  9
$TDINDWG
 40
0.0000000000
  9
$TDUSRTIMER
 40
0.0000000000
  9
$USRTIMER
 70
             1
  9
$ANGBASE
 50
0.0
  9
$ANGDIR
 70
             0
  9
$PDMODE
 70
             0
  9
$PDSIZE
 40
0.0
  9
$PLINEWID
 40
0.0
  9
$COORDS
 70
             0
  9
$SPLFRAME
 70
             0
  9
$SPLINETYPE
 70
             6
  9
$SPLINESEGS
 70
             8
  9
$ATTDIA
 70
             0
  9
$ATTREQ
 70
             1
  9
$HANDLING
 70
             1
  9
$HANDSEED
  5
10B
  9
$SURFTAB1
 70
             6
  9
$SURFTAB2
 70
             6
  9
$SURFTYPE
 70
             6
  9
$SURFU
 70
             6
  9
$SURFV
 70
             6
  9
$UCSNAME
  2

  9
$UCSORG
 10
0.0
 20
0.0
 30
0.0
  9
$UCSXDIR
 10
1.0
 20
0.0
 30
0.0
  9
$UCSYDIR
 10
0.0
 20
1.0
 30
0.0
  9
$PUCSNAME
  2

  9
$PUCSORG
 10
0.0
 20
0.0
 30
0.0
  9
$PUCSXDIR
 10
1.0
 20
0.0
 30
0.0
  9
$PUCSYDIR
 10
0.0
 20
1.0
 30
0.0
  9
$USERI1
 70
             0
  9
$USERI2
 70
             0
  9
$USERI3
 70
             0
  9
$USERI4
 70
             0
  9
$USERI5
 70
             0
  9
$USERR1
 40
12.01
  9
$USERR2
 40
0.0
  9
$USERR3
 40
0.0
  9
$USERR4
 40
0.0
  9
$USERR5
 40
0.0
  9
$WORLDVIEW
 70
             1
  9
$SHADEDGE
 70
             3
  9
$SHADEDIF
 70
            70
  9
$TILEMODE
 70
             1
  9
$MAXACTVP
 70
            16
  9
$PINSBASE
 10
0.0
 20
0.0
 30
0.0
  9
$PLIMCHECK
 70
             0
  9
$PEXTMIN
 10
1.00000000000000E+20
 20
1.00000000000000E+20
 30
1.00000000000000E+20
  9
$PEXTMAX
 10
-1.00000000000000E+20
 20
-1.00000000000000E+20
 30
-1.00000000000000E+20
  9
$PLIMMIN
 10
0.0
 20
0.0
  9
$PLIMMAX
 10
12.0
 20
9.0
  9
$UNITMODE
 70
             0
  9
$VISRETAIN
 70
             0
  9
$PLINEGEN
 70
             1
  9
$PSLTSCALE
 70
             0
  9
$TREEDEPTH
 70
          3020
  9
$PICKSTYLE
 70
             1
  9
$CMLSTYLE
  2
STANDARD
  9
$CMLJUST
 70
             0
  9
$CMLSCALE
 40
1.0
  9
$PROXYGRAPHICS
 70
             0
  9
$MEASUREMENT
 70
             1
  0
ENDSEC
  0
SECTION
  2
CLASSES
  0
CLASS
  1
LWPOLYLINE
  2
AcDbPolyline
  3
"AutoCAD"
 90
        0
280
             0
281
             1
  0
CLASS
  1
IMAGE
  2
AcDbRasterImage
  3
ISM
 90
      127
280
             0
281
             1
  0
CLASS
  1
OLE2FRAME
  2
AcDbOle2Frame
  3
""
 90
        0
280
             0
281
             1
  0
CLASS
  1
HATCH
  2
AcDbHatch
  3
"ACAD_SEDONA"
 90
        0
280
             0
281
             1
  0
CLASS
  1
DICTIONARYVAR
  2
AcDbDictionaryVar
  3
"AutoCAD"
 90
        0
280
             0
281
             0
  0
CLASS
  1
RASTERVARIABLES
  2
AcDbRasterVariables
  3
ISM
 90
        0
280
             0
281
             0
  0
CLASS
  1
IMAGEDEF
  2
AcDbRasterImageDef
  3
ISM
 90
        0
280
             0
281
             0
  0
CLASS
  1
IMAGEDEF_REACTOR
  2
AcDbRasterImageDefReactor
  3
ISM
 90
        1
280
             0
281
             0
  0
CLASS
  1
IDBUFFER
  2
AcDbIdBuffer
  3
"Acad"
 90
        0
280
             0
281
             0
  0
CLASS
  1
SPATIAL_FILTER
  2
AcDbSpatialFilter
  3
"Acad"
 90
        0
280
             0
281
             0
  0
CLASS
  1
XRECORD
  2
AcDbXrecord
  3
"<Built In>"
 90
        0
280
             0
281
             0
  0
CLASS
  1
SORTENTSTABLE
  2
AcDbSortentsTable
  3
"AutoCAD"
 90
        0
280
             0
281
             0
  0
CLASS
  1
LAYER_INDEX
  2
AcDbLayerIndex
  3
"Acad"
 90
        0
280
             0
281
             0
  0
CLASS
  1
SPATIAL_INDEX
  2
AcDbSpatialIndex
  3
"Acad"
 90
        0
280
             0
281
             0
  0
CLASS
  1
OBJECT_PTR
  2
CAseDLPNTableRecord
  3
"ASE-LPNTableRecord"
 90
        1
280
             0
281
             0
  0
CLASS
  1
LAYOUT
  2
AcDbLayout
  3
"AutoCAD 2000"
 90
        0
280
             0
281
             0
  0
CLASS
  1
PLOTSETTINGS
  2
AcDbPlotSettings
  3
"AutoCAD 2000"
 90
        0
280
             0
281
             0
  0
CLASS
  1
ACDBDICTIONARYWDFLT
  2
AcDbDictionaryWithDefault
  3
"AutoCAD 2000"
 90
        0
280
             0
281
             0
  0
CLASS
  1
ACDBPLACEHOLDER
  2
AcDbPlaceHolder
  3
"AutoCAD 2000"
 90
        0
280
             0
281
             0
  0
ENDSEC
  0
SECTION
  2
TABLES
  0
TABLE
  2
VPORT
  5
7
100
AcDbSymbolTable
 70
             1
  0
VPORT
  5
15
100
AcDbSymbolTableRecord
100
AcDbViewportTableRecord
  2
*ACTIVE
 70
             0
 10
0.0
 20
0.0
 11
1.0
 21
1.0
 12
9.23977800385964
 22
-88.76090755616761
 13
0.0
 23
0.0
 14
1.0
 24
1.0
 15
0.0
 25
0.0
 16
0.0
 26
0.0
 36
1.0
 17
0.0
 27
0.0
 37
0.0
 40
470.82619506622621
 41
1.60267857142857
 42
50.0
 43
0.0
 44
0.0
 50
0.0
 51
0.0
 71
             0
 72
           100
 73
             1
 74
             1
 75
             0
 76
             0
 77
             0
 78
             0
  0
ENDTAB
  0
TABLE
  2
LTYPE
  5
4
100
AcDbSymbolTable
 70
            11
  0
LTYPE
  5
11
100
AcDbSymbolTableRecord
100
AcDbLinetypeTableRecord
  2
BYBLOCK
 70
            64
  3

 72
            65
 73
             0
 40
0.0
  0
LTYPE
  5
12
100
AcDbSymbolTableRecord
100
AcDbLinetypeTableRecord
  2
BYLAYER
 70
            64
  3

 72
            65
 73
             0
 40
0.0
  0
LTYPE
  5
13
100
AcDbSymbolTableRecord
100
AcDbLinetypeTableRecord
  2
CONTINUOUS
 70
            64
  3
Solid line
 72
            65
 73
             0
 40
0.0
  0
LTYPE
  5
1D
100
AcDbSymbolTableRecord
100
AcDbLinetypeTableRecord
  2
DASHED
 70
            64
  3
Dashed
 72
            65
 73
             2
 40
15.0
 49
7.0
 74
             0
 49
-8.0
 74
             0
  0
LTYPE
  5
1E
100
AcDbSymbolTableRecord
100
AcDbLinetypeTableRecord
  2
DOTTED
 70
            64
  3
Dotted
 72
            65
 73
             2
 40
1.0
 49
0.0
 74
             0
 49
-1.0
 74
             0
  0
LTYPE
  5
1F
100
AcDbSymbolTableRecord
100
AcDbLinetypeTableRecord
  2
DOT_CENTER
 70
            64
  3
Dot_Center
 72
            65
 73
             4
 40
14.0
 49
12.0
 74
             0
 49
-1.0
 74
             0
 49
0.0
 74
             0
 49
-1.0
 74
             0
  0
LTYPE
  5
20
100
AcDbSymbolTableRecord
100
AcDbLinetypeTableRecord
  2
LONG_DASHED
 70
            64
  3
Long_Dashed
 72
            65
 73
             2
 40
15.0
 49
10.0
 74
             0
 49
-5.0
 74
             0
  0
LTYPE
  5
21
100
AcDbSymbolTableRecord
100
AcDbLinetypeTableRecord
  2
DASH_CENTER
 70
            64
  3
Dash_Center
 72
            65
 73
             4
 40
14.0
 49
11.0
 74
             0
 49
-1.0
 74
             0
 49
1.0
 74
             0
 49
-1.0
 74
             0
  0
LTYPE
  5
22
100
AcDbSymbolTableRecord
100
AcDbLinetypeTableRecord
  2
PHANTOM
 70
            64
  3
Phantom
 72
            65
 73
             6
 40
13.0
 49
10.0
 74
             0
 49
-1.0
 74
             0
 49
0.0
 74
             0
 49
-1.0
 74
             0
 49
0.0
 74
             0
 49
-1.0
 74
             0
  0
LTYPE
  5
23
100
AcDbSymbolTableRecord
100
AcDbLinetypeTableRecord
  2
CENTER_DASH_DASH
 70
            64
  3
Center_Dash_Dash
 72
            65
 73
             6
 40
14.0
 49
9.0
 74
             0
 49
-1.0
 74
             0
 49
1.0
 74
             0
 49
-1.0
 74
             0
 49
1.0
 74
             0
 49
-1.0
 74
             0
  0
LTYPE
  5
24
100
AcDbSymbolTableRecord
100
AcDbLinetypeTableRecord
  2
DASHDOT
 70
            64
  3
DASHDOT
 72
            65
 73
             4
 40
16.0
 49
10.0
 74
             0
 49
-3.0
 74
             0
 49
0.0
 74
             0
 49
-3.0
 74
             0
  0
ENDTAB
  0
TABLE
  2
LAYER
  5
2
100
AcDbSymbolTable
 70
             9
  0
LAYER
  5
14
100
AcDbSymbolTableRecord
100
AcDbLayerTableRecord
  2
0
 70
             0
 62
             7
  6
CONTINUOUS
  0
LAYER
  5
25
100
AcDbSymbolTableRecord
100
AcDbLayerTableRecord
  2
1
 70
             0
 62
             7
  6
CONTINUOUS
  0
LAYER
  5
26
100
AcDbSymbolTableRecord
100
AcDbLayerTableRecord
  2
LC-001-002-----0
 70
             0
 62
             7
  6
CONTINUOUS
  0
LAYER
  5
27
100
AcDbSymbolTableRecord
100
AcDbLayerTableRecord
  2
LC-002-001-----0
 70
             0
 62
             7
  6
CONTINUOUS
  0
LAYER
  5
28
100
AcDbSymbolTableRecord
100
AcDbLayerTableRecord
  2
LC-003-002-----0
 70
             0
 62
             7
  6
CONTINUOUS
  0
LAYER
  5
29
100
AcDbSymbolTableRecord
100
AcDbLayerTableRecord
  2
LC-003-002-RND-0
 70
             0
 62
             7
  6
CONTINUOUS
  0
LAYER
  5
2A
100
AcDbSymbolTableRecord
100
AcDbLayerTableRecord
  2
LC-004-002-RND-0
 70
             0
 62
             7
  6
CONTINUOUS
  0
LAYER
  5
2B
100
AcDbSymbolTableRecord
100
AcDbLayerTableRecord
  2
LC-006-001-RND-0
 70
             0
 62
             7
  6
CONTINUOUS
  0
LAYER
  5
2C
100
AcDbSymbolTableRecord
100
AcDbLayerTableRecord
  2
LC-007-001-----0
 70
             0
 62
             7
  6
CONTINUOUS
  0
ENDTAB
  0
TABLE
  2
STYLE
  5
3
100
AcDbSymbolTable
 70
             2
  0
STYLE
  5
17
100
AcDbSymbolTableRecord
100
AcDbTextStyleTableRecord
  2
STANDARD
 70
             0
 40
0.0
 41
1.0
 50
0.0
 71
             0
 42
0.0
  3
txt
  4

  0
STYLE
  5
AD
100
AcDbSymbolTableRecord
100
AcDbTextStyleTableRecord
  2
CONVERTER_1
 70
             0
 40
0.0
 41
0.9
 50
0.0
 71
             0
 42
0.0
  3
txt.shx
  4

  0
ENDTAB
  0
TABLE
  2
VIEW
  5
5
100
AcDbSymbolTable
 70
             0
  0
ENDTAB
  0
TABLE
  2
UCS
  5
6
100
AcDbSymbolTable
 70
             0
  0
ENDTAB
  0
TABLE
  2
APPID
  5
8
100
AcDbSymbolTable
 70
             1
  0
APPID
  5
16
100
AcDbSymbolTableRecord
100
AcDbRegAppTableRecord
  2
ACAD
 70
             0
  0
ENDTAB
  0
TABLE
  2
DIMSTYLE
  5
9
100
AcDbSymbolTable
 70
            10
  0
DIMSTYLE
105
18
100
AcDbSymbolTableRecord
100
AcDbDimStyleTableRecord
  2
STANDARD
 70
             0
  3

  4

  5

  6

  7

 40
1.0
 41
0.18
 42
0.0625
 43
0.38
 44
0.18
 45
0.0
 46
0.0
 47
0.0
 48
0.0
 71
             0
 72
             0
 73
             1
 74
             1
 75
             0
 76
             0
 77
             0
 78
             0
140
0.18
141
0.09
142
0.0
143
25.4
144
1.0
145
0.0
146
1.0
147
0.09
170
             0
171
             2
172
             0
173
             0
174
             0
175
             0
176
             0
177
             0
178
             0
270
             2
271
             4
272
             4
273
             2
274
             2
275
             0
280
             0
281
             0
282
             0
283
             1
284
             0
285
             0
286
             0
287
             3
288
             0
340
17
  0
DIMSTYLE
105
B0
100
AcDbSymbolTableRecord
100
AcDbDimStyleTableRecord
  2
ME10_DIM_0
 70
             0
  3
Ø<>
  4

  5

  6

  7

 40
1.0
 41
10.0
 42
0.0
 43
0.38
 44
2.0
 45
0.0
 46
0.0
 47
0.0
 48
0.0
 71
             0
 72
             0
 73
             0
 74
             0
 75
             0
 76
             0
 77
             1
 78
             8
140
10.0
141
0.09
142
0.0
143
25.4
144
1.0
145
0.0
146
1.0
147
0.625
170
             0
171
             2
172
             1
173
             1
174
             0
175
             0
176
             4
177
             4
178
             1
270
             2
271
             0
272
             4
273
             2
274
             2
275
             0
280
             0
281
             0
282
             0
283
             1
284
             0
285
             0
286
             0
287
             3
288
             0
340
AD
  0
DIMSTYLE
105
BB
100
AcDbSymbolTableRecord
100
AcDbDimStyleTableRecord
  2
ME10_DIM_1
 70
             0
  3
15-<>
  4

  5

  6

  7

 40
1.0
 41
10.0
 42
0.0
 43
0.38
 44
2.0
 45
0.0
 46
0.0
 47
0.0
 48
0.0
 71
             0
 72
             0
 73
             0
 74
             0
 75
             0
 76
             0
 77
             1
 78
             8
140
10.0
141
0.09
142
0.0
143
25.4
144
1.0
145
0.0
146
1.0
147
0.625
170
             0
171
             2
172
             1
173
             1
174
             0
175
             0
176
             4
177
             4
178
             1
270
             2
271
             2
272
             4
273
             2
274
             2
275
             0
280
             0
281
             0
282
             0
283
             1
284
             0
285
             0
286
             0
287
             3
288
             0
340
AD
  0
DIMSTYLE
105
C6
100
AcDbSymbolTableRecord
100
AcDbDimStyleTableRecord
  2
ME10_DIM_2
 70
             0
  3
Ø<>
  4

  5

  6

  7

 40
1.0
 41
10.0
 42
0.0
 43
0.38
 44
2.0
 45
0.0
 46
0.0
 47
0.0
 48
0.0
 71
             0
 72
             0
 73
             0
 74
             0
 75
             0
 76
             0
 77
             1
 78
             8
140
10.0
141
0.09
142
0.0
143
25.4
144
1.0
145
0.0
146
1.0
147
0.625
170
             0
171
             2
172
             1
173
             1
174
             0
175
             0
176
             4
177
             4
178
             1
270
             2
271
             0
272
             4
273
             2
274
             2
275
             0
280
             0
281
             0
282
             0
283
             1
284
             0
285
             0
286
             0
287
             3
288
             0
340
AD
  0
DIMSTYLE
105
D1
100
AcDbSymbolTableRecord
100
AcDbDimStyleTableRecord
  2
ME10_DIM_3
 70
             0
  3
Ø<>
  4

  5

  6

  7

 40
1.0
 41
10.0
 42
0.0
 43
0.38
 44
2.0
 45
0.0
 46
0.0
 47
0.0
 48
0.0
 71
             0
 72
             0
 73
             0
 74
             0
 75
             0
 76
             0
 77
             1
 78
             8
140
10.0
141
0.09
142
0.0
143
25.4
144
1.0
145
0.0
146
1.0
147
0.625
170
             0
171
             2
172
             1
173
             1
174
             0
175
             0
176
             4
177
             4
178
             1
270
             2
271
             2
272
             4
273
             2
274
             2
275
             0
280
             0
281
             0
282
             0
283
             1
284
             0
285
             0
286
             0
287
             3
288
             0
340
AD
  0
DIMSTYLE
105
DC
100
AcDbSymbolTableRecord
100
AcDbDimStyleTableRecord
  2
ME10_DIM_4
 70
             0
  3
DN<>
  4

  5

  6

  7

 40
1.0
 41
10.0
 42
0.0
 43
0.38
 44
2.0
 45
0.0
 46
0.0
 47
0.0
 48
0.0
 71
             0
 72
             0
 73
             0
 74
             0
 75
             0
 76
             0
 77
             1
 78
             8
140
10.0
141
0.09
142
0.0
143
25.4
144
1.0
145
0.0
146
1.0
147
0.625
170
             0
171
             2
172
             1
173
             1
174
             0
175
             0
176
             4
177
             4
178
             1
270
             2
271
             2
272
             4
273
             2
274
             2
275
             0
280
             0
281
             0
282
             0
283
             1
284
             0
285
             0
286
             0
287
             3
288
             0
340
AD
  0
DIMSTYLE
105
E7
100
AcDbSymbolTableRecord
100
AcDbDimStyleTableRecord
  2
ME10_DIM_5
 70
             0
  3
DN<>
  4

  5

  6

  7

 40
1.0
 41
10.0
 42
0.0
 43
0.38
 44
2.0
 45
0.0
 46
0.0
 47
0.0
 48
0.0
 71
             0
 72
             0
 73
             0
 74
             0
 75
             0
 76
             0
 77
             1
 78
             8
140
10.0
141
0.09
142
0.0
143
25.4
144
1.0
145
0.0
146
1.0
147
0.625
170
             0
171
             2
172
             1
173
             1
174
             0
175
             0
176
             4
177
             4
178
             1
270
             2
271
             2
272
             4
273
             2
274
             2
275
             0
280
             0
281
             0
282
             0
283
             1
284
             0
285
             0
286
             0
287
             3
288
             0
340
AD
  0
DIMSTYLE
105
F2
100
AcDbSymbolTableRecord
100
AcDbDimStyleTableRecord
  2
ME10_DIM_6
 70
             0
  3
DN<>
  4

  5

  6

  7

 40
1.0
 41
10.0
 42
0.0
 43
0.38
 44
2.0
 45
0.0
 46
0.0
 47
0.0
 48
0.0
 71
             0
 72
             0
 73
             0
 74
             0
 75
             0
 76
             0
 77
             1
 78
             8
140
10.0
141
0.09
142
0.0
143
25.4
144
1.0
145
0.0
146
1.0
147
0.625
170
             0
171
             2
172
             1
173
             1
174
             0
175
             0
176
             4
177
             4
178
             1
270
             2
271
             2
272
             4
273
             2
274
             2
275
             0
280
             0
281
             0
282
             0
283
             1
284
             0
285
             0
286
             0
287
             3
288
             0
340
AD
  0
DIMSTYLE
105
FD
100
AcDbSymbolTableRecord
100
AcDbDimStyleTableRecord
  2
ME10_DIM_7
 70
             0
  3
x150
  4

  5

  6

  7

 40
1.0
 41
10.0
 42
0.0
 43
0.38
 44
2.0
 45
0.0
 46
0.0
 47
0.0
 48
0.0
 71
             0
 72
             0
 73
             0
 74
             0
 75
             0
 76
             0
 77
             1
 78
             8
140
10.0
141
0.09
142
0.0
143
25.4
144
1.0
145
0.0
146
1.0
147
0.625
170
             0
171
             2
172
             1
173
             1
174
             0
175
             0
176
             4
177
             4
178
             1
270
             2
271
             2
272
             4
273
             2
274
             2
275
             0
280
             0
281
             0
282
             0
283
             1
284
             0
285
             0
286
             0
287
             3
288
             0
340
AD
  0
DIMSTYLE
105
108
100
AcDbSymbolTableRecord
100
AcDbDimStyleTableRecord
  2
ME10_DIM_8
 70
             0
  3

  4

  5

  6

  7

 40
1.0
 41
10.0
 42
0.0
 43
0.38
 44
2.0
 45
0.0
 46
0.0
 47
0.0
 48
0.0
 71
             0
 72
             0
 73
             0
 74
             0
 75
             0
 76
             0
 77
             1
 78
             8
140
10.0
141
0.09
142
0.0
143
25.4
144
1.0
145
0.0
146
1.0
147
0.625
170
             0
171
             2
172
             1
173
             1
174
             0
175
             0
176
             4
177
             4
178
             1
270
             2
271
             0
272
             4
273
             2
274
             2
275
             0
280
             0
281
             0
282
             0
283
             1
284
             0
285
             0
286
             0
287
             3
288
             0
340
AD
  0
ENDTAB
  0
TABLE
  2
BLOCK_RECORD
  5
1
100
AcDbSymbolTable
 70
            12
  0
BLOCK_RECORD
  5
A
100
AcDbSymbolTableRecord
100
AcDbBlockTableRecord
  2
*MODEL_SPACE
  0
BLOCK_RECORD
  5
B
100
AcDbSymbolTableRecord
100
AcDbBlockTableRecord
  2
*PAPER_SPACE
  0
BLOCK_RECORD
  5
2D
100
AcDbSymbolTableRecord
100
AcDbBlockTableRecord
  2
HL317KH_K_RPER_M_BITUMETTE
  0
BLOCK_RECORD
  5
2F
100
AcDbSymbolTableRecord
100
AcDbBlockTableRecord
  2
0317_4E_REDUKTION
  0
BLOCK_RECORD
  5
31
100
AcDbSymbolTableRecord
100
AcDbBlockTableRecord
  2
0317_2E_AUFSATZ
  0
BLOCK_RECORD
  5
A6
100
AcDbSymbolTableRecord
100
AcDbBlockTableRecord
  2
*D3
  0
BLOCK_RECORD
  5
B2
100
AcDbSymbolTableRecord
100
AcDbBlockTableRecord
  2
*D4
  0
BLOCK_RECORD
  5
BD
100
AcDbSymbolTableRecord
100
AcDbBlockTableRecord
  2
*D5
  0
BLOCK_RECORD
  5
C8
100
AcDbSymbolTableRecord
100
AcDbBlockTableRecord
  2
*D6
  0
BLOCK_RECORD
  5
D3
100
AcDbSymbolTableRecord
100
AcDbBlockTableRecord
  2
*D7
  0
BLOCK_RECORD
  5
DE
100
AcDbSymbolTableRecord
100
AcDbBlockTableRecord
  2
*D8
  0
BLOCK_RECORD
  5
E9
100
AcDbSymbolTableRecord
100
AcDbBlockTableRecord
  2
*D9
  0
BLOCK_RECORD
  5
F4
100
AcDbSymbolTableRecord
100
AcDbBlockTableRecord
  2
*D10
  0
BLOCK_RECORD
  5
FF
100
AcDbSymbolTableRecord
100
AcDbBlockTableRecord
  2
*D11
  0
ENDTAB
  0
ENDSEC
  0
SECTION
  2
BLOCKS
  0
BLOCK
  5
D
100
AcDbEntity
  8
0
100
AcDbBlockBegin
  2
*MODEL_SPACE
 70
             0
 10
0.0
 20
0.0
 30
0.0
  3
*MODEL_SPACE
  1

  0
ENDBLK
  5
E
100
AcDbEntity
  8
0
100
AcDbBlockEnd
  0
BLOCK
  5
F
100
AcDbEntity
 67
             1
  8
0
100
AcDbBlockBegin
  2
*PAPER_SPACE
 70
             0
 10
0.0
 20
0.0
 30
0.0
  3
*PAPER_SPACE
  1

  0
ENDBLK
  5
10
100
AcDbEntity
 67
             1
  8
0
100
AcDbBlockEnd
  0
BLOCK
  5
2E
100
AcDbEntity
  8
0
100
AcDbBlockBegin
  2
HL317KH_K_RPER_M_BITUMETTE
 70
             0
 10
235.71730142957199
 20
-162.42451399999999
 30
0.0
  3
HL317KH_K_RPER_M_BITUMETTE
  1

  0
ARC
  5
73
100
AcDbEntity
  8
LC-003-002-----0
  6
CONTINUOUS
 62
             7
100
AcDbCircle
 10
91.13047750000001
 20
-22.97448778906517
 40
1.99202200000002
100
AcDbArc
 50
90.0
 51
180.0
  0
ARC
  5
72
100
AcDbEntity
  8
LC-003-002-----0
  6
CONTINUOUS
 62
             7
100
AcDbCircle
 10
91.40558049999996
 20
-17.99443178906517
 40
2.98803399999998
100
AcDbArc
 50
-90.0
 51
-2.99999999999089
  0
ARC
  5
71
100
AcDbEntity
  8
LC-003-002-----0
  6
CONTINUOUS
 62
             7
100
AcDbCircle
 10
-91.13816250000022
 20
-22.97448778906517
 40
1.99202200000013
100
AcDbArc
 50
0.0
 51
90.0
  0
ARC
  5
70
100
AcDbEntity
  8
LC-003-002-----0
  6
CONTINUOUS
 62
             7
100
AcDbCircle
 10
-91.41326550000017
 20
-17.99443178906517
 40
2.98803400000008
100
AcDbArc
 50
-177.00000000000912
 51
-90.0
  0
ARC
  5
6F
100
AcDbEntity
  8
LC-006-001-RND-0
  6
CONTINUOUS
 62
             7
100
AcDbCircle
 10
96.09684349999989
 20
-14.11979478906517
 40
1.49401700000019
100
AcDbArc
 50
93.99999700001007
 51
177.00000000000566
  0
ARC
  5
6E
100
AcDbEntity
  8
LC-006-001-RND-0
  6
CONTINUOUS
 62
             7
100
AcDbCircle
 10
-96.1045285000001
 20
-14.11979478906517
 40
1.49401699999948
100
AcDbArc
 50
2.99999999999434
 51
86.00000299998995
  0
ARC
  5
6D
100
AcDbEntity
  8
LC-004-002-RND-0
  6
CONTINUOUS
 62
             7
100
AcDbCircle
 10
148.1465814999998
 20
-5.99512778906518
 40
2.0
100
AcDbArc
 50
0.0
 51
93.99999599999995
  0
ARC
  5
6C
100
AcDbEntity
  8
LC-004-002-RND-0
  6
CONTINUOUS
 62
             7
100
AcDbCircle
 10
-148.15426650000009
 20
-5.99512778906518
 40
2.0000000000005
100
AcDbArc
 50
86.00000299998933
 51
180.0
  0
ARC
  5
6B
100
AcDbEntity
  8
LC-001-002-----0
  6
CONTINUOUS
 62
             7
100
AcDbCircle
 10
67.99944649999978
 20
-104.63333224934711
 40
12.00000000000029
100
AcDbArc
 50
-90.0001889999979
 51
-0.00003700000009
  0
ARC
  5
6A
100
AcDbEntity
  8
LC-001-002-----0
  6
CONTINUOUS
 62
             7
100
AcDbCircle
 10
-68.00071950000015
 20
-104.6334822493471
 40
12.0
100
AcDbArc
 50
180.0
 51
-89.99994199999732
  0
LINE
  5
69
100
AcDbEntity
  8
LC-003-002-----0
  6
CONTINUOUS
 62
             7
100
AcDbLine
 10
249.99900449999981
 20
0.00100121093482
 11
249.99901249999979
 21
-3.99899878906518
  0
LINE
  5
68
100
AcDbEntity
  8
LC-003-002-----0
  6
CONTINUOUS
 62
             7
100
AcDbLine
 10
-250.00099549799731
 20
-0.00100121890848
 11
249.99900449999981
 21
0.00100121093482
  0
LINE
  5
67
100
AcDbEntity
  8
LC-003-002-----0
  6
CONTINUOUS
 62
             7
100
AcDbLine
 10
148.0127784999998
 20
-3.99940678906518
 11
249.99901249999979
 21
-3.99899878906518
  0
LINE
  5
66
100
AcDbEntity
  8
LC-003-002-----0
  6
CONTINUOUS
 62
             7
100
AcDbLine
 10
-147.87575050000021
 20
-3.99999978906516
 11
-250.00098750000021
 21
-3.99999978906516
  0
LINE
  5
65
100
AcDbEntity
  8
LC-003-002-----0
  6
CONTINUOUS
 62
             7
100
AcDbLine
 10
79.93303649999987
 20
-104.68229078906511
 11
79.93303649999976
 21
-42.10822978906513
  0
LINE
  5
64
100
AcDbEntity
  8
LC-003-002-----0
  6
CONTINUOUS
 62
             7
100
AcDbLine
 10
-89.14614050000009
 20
-28.95055478906517
 11
-89.14614050000009
 21
-22.97448778906517
  0
LINE
  5
63
100
AcDbEntity
  8
LC-007-001-----0
  6
CONTINUOUS
 62
             7
100
AcDbLine
 10
-111.0937375000002
 20
-11.51315278906515
 11
-96.00030950000004
 21
-12.62941778906514
  0
LINE
  5
62
100
AcDbEntity
  8
LC-003-002-----0
  6
CONTINUOUS
 62
             7
100
AcDbLine
 10
-91.41326550000017
 20
-20.98246478906515
 11
-91.13816250000022
 21
-20.98246478906515
  0
LINE
  5
61
100
AcDbEntity
  8
LC-007-001-----0
  6
CONTINUOUS
 62
             7
100
AcDbLine
 10
111.82599949999999
 20
-11.46191778906518
 11
95.99262549999972
 21
-12.62941778906514
  0
LINE
  5
60
100
AcDbEntity
  8
LC-003-002-----0
  6
CONTINUOUS
 62
             7
100
AcDbLine
 10
-89.14614050000009
 20
-28.95055478906517
 11
-79.93303649999993
 21
-42.10822978906513
  0
LINE
  5
5F
100
AcDbEntity
  8
LC-003-002-----0
  6
CONTINUOUS
 62
             7
100
AcDbLine
 10
91.40558049999996
 20
-20.98246478906515
 11
91.13047750000001
 21
-20.98246478906515
  0
LINE
  5
5E
100
AcDbEntity
  8
LC-003-002-----0
  6
CONTINUOUS
 62
             7
100
AcDbLine
 10
89.13845549999988
 20
-28.95055478906517
 11
79.93303649999976
 21
-42.09725678906513
  0
LINE
  5
5D
100
AcDbEntity
  8
LC-003-002-----0
  6
CONTINUOUS
 62
             7
100
AcDbLine
 10
117.67971849999969
 20
-9.11602278906514
 11
111.82599949999999
 21
-11.46191778906518
  0
LINE
  5
5C
100
AcDbEntity
  8
LC-003-002-----0
  6
CONTINUOUS
 62
             7
100
AcDbLine
 10
94.60487349999985
 20
-14.04160478906516
 11
94.38951949999992
 21
-18.15081278906518
  0
LINE
  5
5B
100
AcDbEntity
  8
LC-003-002-----0
  6
CONTINUOUS
 62
             7
100
AcDbLine
 10
150.1465814999998
 20
-5.99512778906518
 11
150.14658149999991
 21
-6.84572078906518
  0
LINE
  5
5A
100
AcDbEntity
  8
LC-003-002-----0
  6
CONTINUOUS
 62
             7
100
AcDbLine
 10
150.14658149999991
 20
-6.84572078906518
 11
117.67971849999969
 21
-9.11602278906514
  0
LINE
  5
59
100
AcDbEntity
  8
LC-003-002-----0
  6
CONTINUOUS
 62
             7
100
AcDbLine
 10
-79.93303649999993
 20
-104.6788337890651
 11
-79.93303649999993
 21
-42.10822978906513
  0
LINE
  5
58
100
AcDbEntity
  8
LC-003-002-----0
  6
CONTINUOUS
 62
             7
100
AcDbLine
 10
-116.96381150000011
 20
-9.16662078906518
 11
-111.0937375000002
 21
-11.51315278906515
  0
LINE
  5
57
100
AcDbEntity
  8
LC-003-002-----0
  6
CONTINUOUS
 62
             7
100
AcDbLine
 10
-94.61255850000029
 20
-14.04160478906516
 11
-94.39720350000002
 21
-18.15081278906518
  0
LINE
  5
56
100
AcDbEntity
  8
LC-003-002-----0
  6
CONTINUOUS
 62
             7
100
AcDbLine
 10
-150.15426650000009
 20
-5.99512778906518
 11
-150.15426650000009
 21
-6.84572078906518
  0
LINE
  5
55
100
AcDbEntity
  8
LC-003-002-----0
  6
CONTINUOUS
 62
             7
100
AcDbLine
 10
-150.15426650000009
 20
-6.84572078906518
 11
-116.96381150000011
 21
-9.16662078906518
  0
LINE
  5
54
100
AcDbEntity
  8
LC-003-002-----0
  6
CONTINUOUS
 62
             7
100
AcDbLine
 10
-250.00099549799731
 20
-0.00100121890848
 11
-250.00098750000021
 21
-3.99999978906516
  0
LINE
  5
53
100
AcDbEntity
  8
1
  6
PHANTOM
 62
             2
100
AcDbLine
 10
-0.00000000000004
 20
-141.12314778906509
 11
0.00000000000003
 21
69.04516221711295
  0
LINE
  5
52
100
AcDbEntity
  8
1
  6
CONTINUOUS
 62
             7
100
AcDbLine
 10
89.13845549999988
 20
-22.97448778906517
 11
89.13845549999988
 21
-28.95055478906517
  0
LINE
  5
51
100
AcDbEntity
  8
LC-001-002-----0
  6
CONTINUOUS
 62
             7
100
AcDbLine
 10
-68.00071950000015
 20
-116.6334822493471
 11
-57.50071950000014
 21
-116.6334822493471
  0
LINE
  5
50
100
AcDbEntity
  8
LC-001-002-----0
  6
CONTINUOUS
 62
             7
100
AcDbLine
 10
67.99944649999978
 20
-116.6333342493471
 11
57.49943849999997
 21
-116.633327249347
  0
LINE
  5
4F
100
AcDbEntity
  8
LC-001-002-----0
  6
CONTINUOUS
 62
             7
100
AcDbLine
 10
37.49943849999997
 20
-116.63331424934709
 11
37.49943664971605
 21
-122.6231477890651
  0
LINE
  5
4E
100
AcDbEntity
  8
LC-001-002-----0
  6
CONTINUOUS
 62
             7
100
AcDbLine
 10
57.49943849999997
 20
-116.633327249347
 11
-37.50071950000014
 21
-116.6332654992443
  0
LINE
  5
4D
100
AcDbEntity
  8
LC-001-002-----0
  6
CONTINUOUS
 62
             7
100
AcDbLine
 10
-37.50071950000014
 20
-116.6332654992443
 11
-37.50071950000014
 21
-122.6231477890651
  0
LINE
  5
4C
100
AcDbEntity
  8
LC-001-002-----0
  6
CONTINUOUS
 62
             7
100
AcDbLine
 10
-57.50071950000014
 20
-116.6334822493471
 11
-37.50071950000014
 21
-116.6334822493471
  0
LINE
  5
4B
100
AcDbEntity
  8
1
  6
CONTINUOUS
 62
             7
100
AcDbLine
 10
79.93303649999987
 20
-104.68229078906511
 11
-79.93303649999993
 21
-104.68229078906511
  0
LINE
  5
4A
100
AcDbEntity
  8
1
  6
CONTINUOUS
 62
             7
100
AcDbLine
 10
-79.93303649999993
 20
-42.10822978906513
 11
79.93303649999976
 21
-42.10822978906513
  0
LINE
  5
49
100
AcDbEntity
  8
LC-003-002-----0
  6
CONTINUOUS
 62
             7
100
AcDbLine
 10
79.93303649999976
 20
-42.10822978906513
 11
79.93303649999976
 21
-42.09725678906513
  0
LINE
  5
48
100
AcDbEntity
  8
1
  6
CONTINUOUS
 62
             7
100
AcDbLine
 10
89.13845549999988
 20
-28.95055478906517
 11
-89.14614050000009
 21
-28.95055478906517
  0
LINE
  5
47
100
AcDbEntity
  8
1
  6
CONTINUOUS
 62
             7
100
AcDbLine
 10
-89.14614050000009
 20
-22.97448778906517
 11
89.13845549999988
 21
-22.97448778906517
  0
LINE
  5
46
100
AcDbEntity
  8
1
  6
CONTINUOUS
 62
             7
100
AcDbLine
 10
94.38951950325091
 20
-18.15081340574113
 11
-94.39720450325112
 21
-18.15081340574113
  0
LINE
  5
45
100
AcDbEntity
  8
1
  6
CONTINUOUS
 62
             7
100
AcDbLine
 10
-94.61255850000029
 20
-14.04160478906516
 11
94.60487349999985
 21
-14.04160478906516
  0
LINE
  5
44
100
AcDbEntity
  8
1
  6
CONTINUOUS
 62
             7
100
AcDbLine
 10
95.99262622040183
 20
-12.62941713393116
 11
-96.00030950000004
 21
-12.62941713393116
  0
LINE
  5
43
100
AcDbEntity
  8
1
  6
CONTINUOUS
 62
             7
100
AcDbLine
 10
-111.0937375000002
 20
-11.51315278906515
 11
111.82599949999999
 21
-11.51315278906515
  0
LINE
  5
42
100
AcDbEntity
  8
1
  6
CONTINUOUS
 62
             7
100
AcDbLine
 10
117.67971849999969
 20
-9.11602278906514
 11
-116.96381150000011
 21
-9.11602278906514
  0
LINE
  5
41
100
AcDbEntity
  8
1
  6
CONTINUOUS
 62
             7
100
AcDbLine
 10
-147.87575050000021
 20
-3.99999978906516
 11
148.0070686917978
 21
-3.99999978906516
  0
LINE
  5
40
100
AcDbEntity
  8
1
  6
CONTINUOUS
 62
             7
100
AcDbLine
 10
150.14658149999991
 20
-6.84572078906518
 11
-150.15426650000009
 21
-6.84572078906518
  0
LINE
  5
3F
100
AcDbEntity
  8
1
  6
CONTINUOUS
 62
             7
100
AcDbLine
 10
-91.13816250000022
 20
-20.98246478906515
 11
91.13047750000001
 21
-20.98246478906515
  0
POINT
  5
3E
100
AcDbEntity
  8
0
 62
             7
100
AcDbPoint
 10
148.01581449999981
 20
-3.99940678906518
  0
POINT
  5
3D
100
AcDbEntity
  8
0
 62
             7
100
AcDbPoint
 10
150.14658149999991
 20
-6.84572078906518
  0
POINT
  5
3C
100
AcDbEntity
  8
0
 62
             7
100
AcDbPoint
 10
-150.15426650000009
 20
-6.84572078906518
  0
POINT
  5
3B
100
AcDbEntity
  8
0
 62
             7
100
AcDbPoint
 10
-150.15426650000009
 20
-6.84572078906518
  0
POINT
  5
3A
100
AcDbEntity
  8
0
 62
             7
100
AcDbPoint
 10
-68.00071950000015
 20
-116.6334822493471
  0
POINT
  5
39
100
AcDbEntity
  8
0
 62
             7
100
AcDbPoint
 10
79.99944649999978
 20
-104.633339249347
  0
POINT
  5
38
100
AcDbEntity
  8
0
 62
             7
100
AcDbPoint
 10
-80.00071950000015
 20
-104.6334822493471
  0
ENDBLK
  5
74
100
AcDbEntity
  8
0
100
AcDbBlockEnd
  0
BLOCK
  5
30
100
AcDbEntity
  8
0
100
AcDbBlockBegin
  2
0317_4E_REDUKTION
 70
             0
 10
-49.00071950000037
 20
-278.40287756744408
 30
0.0
  3
0317_4E_REDUKTION
  1

  0
ARC
  5
94
100
AcDbEntity
  8
LC-003-002-RND-0
  6
CONTINUOUS
 62
             7
100
AcDbCircle
 10
-39.40071950000024
 20
-132.19421578906511
 40
5.0000000000003
100
AcDbArc
 50
134.99999999999886
 51
180.0
  0
ARC
  5
93
100
AcDbEntity
  8
LC-003-002-RND-0
  6
CONTINUOUS
 62
             7
100
AcDbCircle
 10
39.39928049999995
 20
-132.19421578906511
 40
5.0
100
AcDbArc
 50
0.0
 51
45.00000000000075
  0
ARC
  5
92
100
AcDbEntity
  8
LC-003-002-RND-0
  6
CONTINUOUS
 62
             7
100
AcDbCircle
 10
58.99928049999997
 20
-143.12314778906509
 40
2.0
100
AcDbArc
 50
0.0
 51
90.0
  0
ARC
  5
91
100
AcDbEntity
  8
LC-003-002-RND-0
  6
CONTINUOUS
 62
             7
100
AcDbCircle
 10
-47.00071950000026
 20
-143.12314778906509
 40
2.0
100
AcDbArc
 50
90.0
 51
180.0
  0
LINE
  5
90
100
AcDbEntity
  8
1
  6
CONTINUOUS
 62
             7
100
AcDbLine
 10
-37.50071950000014
 20
-122.6231477890651
 11
-38.40071950000024
 21
-122.6231477890651
  0
LINE
  5
8F
100
AcDbEntity
  8
1
  6
CONTINUOUS
 62
             7
100
AcDbLine
 10
37.49943664971605
 20
-122.6231477890651
 11
-37.50071950000014
 21
-122.6231477890651
  0
LINE
  5
8E
100
AcDbEntity
  8
1
  6
CONTINUOUS
 62
             7
100
AcDbLine
 10
38.39928049999995
 20
-122.6231477890651
 11
37.49943664971605
 21
-122.6231477890651
  0
LINE
  5
8D
100
AcDbEntity
  8
1
  6
CONTINUOUS
 62
             7
100
AcDbLine
 10
-40.40071950000024
 20
-126.1231477890651
 11
40.39928049999995
 21
-126.1231477890651
  0
LINE
  5
8C
100
AcDbEntity
  8
1
  6
CONTINUOUS
 62
             7
100
AcDbLine
 10
44.39928049999995
 20
-141.12314778906509
 11
-44.40071950000024
 21
-141.12314778906509
  0
LINE
  5
8B
100
AcDbEntity
  8
1
  6
CONTINUOUS
 62
             7
100
AcDbLine
 10
-49.00071950000037
 20
-211.12314778906509
 11
60.99928049999997
 21
-211.12314778906509
  0
LINE
  5
8A
100
AcDbEntity
  8
LC-001-002-----0
  6
CONTINUOUS
 62
             7
100
AcDbLine
 10
44.39928049999995
 20
-132.19421578906511
 11
44.39928049999995
 21
-141.12314778906509
  0
LINE
  5
89
100
AcDbEntity
  8
1
  6
CONTINUOUS
 62
             7
100
AcDbLine
 10
-37.50071950000014
 20
-222.78533646472809
 11
-37.50071950000014
 21
-219.78533646472809
  0
LINE
  5
88
100
AcDbEntity
  8
1
  6
CONTINUOUS
 62
             7
100
AcDbLine
 10
-25.00071950000014
 20
-223.43251376015311
 11
-25.00071950000014
 21
-220.43251376015311
  0
LINE
  5
87
100
AcDbEntity
  8
1
  6
CONTINUOUS
 62
             7
100
AcDbLine
 10
37.49940349999989
 20
-220.43251376015311
 11
37.49940349999989
 21
-223.43251376015311
  0
LINE
  5
86
100
AcDbEntity
  8
1
  6
CONTINUOUS
 62
             7
100
AcDbLine
 10
24.99940849999976
 20
-221.78533646472809
 11
24.99940849999976
 21
-224.78533646472809
  0
LINE
  5
85
100
AcDbEntity
  8
LC-001-002-----0
  6
CONTINUOUS
 62
             7
100
AcDbLine
 10
-47.94275750000017
 20
-217.12314778906509
 11
59.94131849999988
 21
-217.12314778906509
  0
LINE
  5
84
100
AcDbEntity
  8
LC-001-002-----0
  6
CONTINUOUS
 62
             7
100
AcDbLine
 10
40.39928049999995
 20
-122.6231477890651
 11
38.39928049999995
 21
-122.6231477890651
  0
LINE
  5
83
100
AcDbEntity
  8
LC-001-002-----0
  6
CONTINUOUS
 62
             7
100
AcDbLine
 10
-38.40071950000024
 20
-122.6231477890651
 11
-40.40071950000024
 21
-122.6231477890651
  0
LINE
  5
82
100
AcDbEntity
  8
LC-001-002-----0
  6
CONTINUOUS
 62
             7
100
AcDbLine
 10
-44.40071950000024
 20
-132.19421578906511
 11
-44.40071950000024
 21
-141.12314778906509
  0
LINE
  5
81
100
AcDbEntity
  8
LC-001-002-----0
  6
CONTINUOUS
 62
             7
100
AcDbLine
 10
-40.40071950000024
 20
-126.1231477890651
 11
-42.93625349999999
 21
-128.6586817890651
  0
LINE
  5
80
100
AcDbEntity
  8
LC-001-002-----0
  6
CONTINUOUS
 62
             7
100
AcDbLine
 10
-40.40071950000024
 20
-122.6231477890651
 11
-40.40071950000024
 21
-126.1231477890651
  0
LINE
  5
7F
100
AcDbEntity
  8
LC-001-002-----0
  6
CONTINUOUS
 62
             7
100
AcDbLine
 10
40.39928049999995
 20
-126.1231477890651
 11
42.93481449999987
 21
-128.6586817890651
  0
LINE
  5
7E
100
AcDbEntity
  8
LC-001-002-----0
  6
CONTINUOUS
 62
             7
100
AcDbLine
 10
-49.00071950000026
 20
-143.12314778906509
 11
-49.00071950000037
 21
-211.12314778906509
  0
LINE
  5
7D
100
AcDbEntity
  8
LC-001-002-----0
  6
CONTINUOUS
 62
             7
100
AcDbLine
 10
58.99928049999997
 20
-141.12314778906509
 11
44.39928049999995
 21
-141.12314778906509
  0
LINE
  5
7C
100
AcDbEntity
  8
LC-001-002-----0
  6
CONTINUOUS
 62
             7
100
AcDbLine
 10
60.99928049999997
 20
-211.12314778906509
 11
59.94131849999988
 21
-217.12314778906509
  0
LINE
  5
7B
100
AcDbEntity
  8
LC-001-002-----0
  6
CONTINUOUS
 62
             7
100
AcDbLine
 10
60.99928049999997
 20
-143.12314778906509
 11
60.99928049999997
 21
-211.12314778906509
  0
LINE
  5
7A
100
AcDbEntity
  8
LC-001-002-----0
  6
CONTINUOUS
 62
             7
100
AcDbLine
 10
-49.00071950000037
 20
-211.12314778906509
 11
-47.94275750000017
 21
-217.12314778906509
  0
LINE
  5
79
100
AcDbEntity
  8
LC-001-002-----0
  6
CONTINUOUS
 62
             7
100
AcDbLine
 10
40.39928049999995
 20
-122.6231477890651
 11
40.39928049999995
 21
-126.1231477890651
  0
LINE
  5
78
100
AcDbEntity
  8
LC-001-002-----0
  6
CONTINUOUS
 62
             7
100
AcDbLine
 10
-47.00071950000026
 20
-141.12314778906509
 11
-44.40071950000024
 21
-141.12314778906509
  0
LINE
  5
77
100
AcDbEntity
  8
LC-001-002-----0
  6
DASHDOT
 62
             2
100
AcDbLine
 10
5.99928049999985
 20
-137.71553778906511
 11
5.99928049999985
 21
-221.12314778906509
  0
LINE
  5
76
100
AcDbEntity
  8
1
  6
CONTINUOUS
 62
             7
100
AcDbLine
 10
-49.00071950000026
 20
-143.12314778906509
 11
60.99928049999997
 21
-143.12314778906509
  0
LINE
  5
75
100
AcDbEntity
  8
1
  6
CONTINUOUS
 62
             7
100
AcDbLine
 10
44.39928049999995
 20
-132.19421578906511
 11
-44.40071950000024
 21
-132.19421578906511
  0
ENDBLK
  5
95
100
AcDbEntity
  8
0
100
AcDbBlockEnd
  0
BLOCK
  5
32
100
AcDbEntity
  8
0
100
AcDbBlockBegin
  2
0317_2E_AUFSATZ
 70
             0
 10
-73.71017000000003
 20
-0.00028187859284
 30
0.0
  3
0317_2E_AUFSATZ
  1

  0
LINE
  5
A3
100
AcDbEntity
  8
LC-001-002-----0
  6
CONTINUOUS
 62
             7
100
AcDbLine
 10
-70.38413699999998
 20
-0.00028187859284
 11
-70.38413699999998
 21
46.50203021093486
  0
LINE
  5
A2
100
AcDbEntity
  8
LC-001-002-----0
  6
CONTINUOUS
 62
             7
100
AcDbLine
 10
70.38510922680382
 20
0.00028188248648
 11
70.38512599999993
 21
46.50203021093485
  0
LINE
  5
A1
100
AcDbEntity
  8
LC-001-002-----0
  6
CONTINUOUS
 62
             7
100
AcDbLine
 10
70.38512599999993
 20
46.50203021093485
 11
70.38512599999993
 21
46.50209321093487
  0
LINE
  5
A0
100
AcDbEntity
  8
1
  6
CONTINUOUS
 62
             7
100
AcDbLine
 10
-70.38413699999998
 20
46.50203021093486
 11
70.38512599999993
 21
46.50203021093485
  0
LINE
  5
9F
100
AcDbEntity
  8
LC-002-001-----0
  6
CONTINUOUS
 62
             7
100
AcDbLine
 10
-73.71017000000003
 20
47.27907221093485
 11
-72.93312699999999
 21
46.50203021093486
  0
LINE
  5
9E
100
AcDbEntity
  8
LC-001-002-----0
  6
CONTINUOUS
 62
             7
100
AcDbLine
 10
-73.71017000000003
 20
49.50203021093486
 11
-73.71017000000003
 21
49.24344221093489
  0
LINE
  5
9D
100
AcDbEntity
  8
LC-001-002-----0
  6
CONTINUOUS
 62
             7
100
AcDbLine
 10
-73.71017000000003
 20
53.50203021093486
 11
-73.71017000000003
 21
53.50203021093486
  0
LINE
  5
9C
100
AcDbEntity
  8
LC-001-002-----0
  6
CONTINUOUS
 62
             7
100
AcDbLine
 10
-73.71017000000003
 20
65.00209521093487
 11
73.70998599999993
 21
65.00209521093487
  0
LINE
  5
9B
100
AcDbEntity
  8
LC-001-002-----0
  6
CONTINUOUS
 62
             7
100
AcDbLine
 10
73.70998699999993
 20
65.00209521093487
 11
73.70997799999989
 21
51.50209221093488
  0
LINE
  5
9A
100
AcDbEntity
  8
LC-001-002-----0
  6
CONTINUOUS
 62
             7
100
AcDbLine
 10
-73.71017000000003
 20
65.00209521093487
 11
-73.71017000000003
 21
51.50203021093486
  0
LINE
  5
99
100
AcDbEntity
  8
LC-001-002-----0
  6
CONTINUOUS
 62
             7
100
AcDbLine
 10
73.70998699999993
 20
46.50209221093487
 11
70.38512599999993
 21
46.50209421093487
  0
LINE
  5
98
100
AcDbEntity
  8
LC-001-002-----0
  6
CONTINUOUS
 62
             7
100
AcDbLine
 10
73.7630639999999
 20
51.50209221093487
 11
73.70998699999993
 21
46.50209221093487
  0
LINE
  5
97
100
AcDbEntity
  8
LC-001-002-----0
  6
CONTINUOUS
 62
             7
100
AcDbLine
 10
-73.71017000000003
 20
46.50203021093486
 11
-70.38413699999998
 21
46.50203021093486
  0
LINE
  5
96
100
AcDbEntity
  8
LC-001-002-----0
  6
CONTINUOUS
 62
             7
100
AcDbLine
 10
-73.71017000000003
 20
51.50203021093486
 11
-73.71017000000003
 21
46.50203021093486
  0
ENDBLK
  5
A4
100
AcDbEntity
  8
0
100
AcDbBlockEnd
  0
BLOCK
  5
A7
100
AcDbEntity
  8
0
100
AcDbBlockBegin
  2
*D3
 70
             1
 10
0.0
 20
0.0
 30
0.0
  3
*D3
  1

  0
LINE
  5
A8
100
AcDbEntity
  8
0
  6
CONTINUOUS
 62
             4
100
AcDbLine
 10
-79.93303649999994
 20
-300.77281440445222
 11
79.93303649999986
 21
-300.77281440445222
  0
LINE
  5
A9
100
AcDbEntity
  8
0
  6
CONTINUOUS
 62
             4
100
AcDbLine
 10
79.93303649999986
 20
-104.68229078906521
 11
79.93303649999986
 21
-302.77281440445222
  0
LINE
  5
AA
100
AcDbEntity
  8
0
  6
CONTINUOUS
 62
             4
100
AcDbLine
 10
-79.93303649999994
 20
-104.67883378906521
 11
-79.93303649999994
 21
-302.77281440445222
  0
SOLID
  5
AB
100
AcDbEntity
  8
0
 62
             4
100
AcDbTrace
 10
69.93303649999986
 20
-302.08933938032618
 11
69.93303649999986
 21
-299.45628942857826
 12
79.93303649999986
 22
-300.77281440445222
 13
79.93303649999986
 23
-300.77281440445222
  0
SOLID
  5
AC
100
AcDbEntity
  8
0
 62
             4
100
AcDbTrace
 10
-69.93303649999994
 20
-299.45628942857826
 11
-69.93303649999994
 21
-302.08933938032618
 12
-79.93303649999994
 22
-300.77281440445222
 13
-79.93303649999994
 23
-300.77281440445222
  0
MTEXT
  5
AE
100
AcDbEntity
  8
0
 62
             1
100
AcDbMText
 10
-19.37480084954218
 20
-298.77283428181312
 30
0.0
 40
10.0
 41
0.0
 71
             7
 72
             1
  1
\C1;Ø\C1;160
  7
CONVERTER_1
 11
0.99999999999706
 21
0.00000242406841
 31
0.0
  0
ENDBLK
  5
AF
100
AcDbEntity
  8
0
100
AcDbBlockEnd
  0
BLOCK
  5
B3
100
AcDbEntity
  8
0
100
AcDbBlockBegin
  2
*D4
 70
             1
 10
0.0
 20
0.0
 30
0.0
  3
*D4
  1

  0
LINE
  5
B4
100
AcDbEntity
  8
0
  6
CONTINUOUS
 62
             4
100
AcDbLine
 10
266.48056647479098
 20
0.00100121093482
 11
266.48056647479098
 21
65.00209521093487
  0
LINE
  5
B5
100
AcDbEntity
  8
0
  6
CONTINUOUS
 62
             4
100
AcDbLine
 10
249.99900449999981
 20
0.00100121093482
 11
268.48056647479098
 21
0.00100121093482
  0
LINE
  5
B6
100
AcDbEntity
  8
0
  6
CONTINUOUS
 62
             4
100
AcDbLine
 10
73.70998599999987
 20
65.00209521093487
 11
268.48056647479098
 21
65.00209521093487
  0
SOLID
  5
B7
100
AcDbEntity
  8
0
 62
             4
100
AcDbTrace
 10
265.16404149891702
 20
10.00100121093482
 11
267.79709145066494
 21
10.00100121093482
 12
266.48056647479098
 22
0.00100121093482
 13
266.48056647479098
 23
0.00100121093482
  0
SOLID
  5
B8
100
AcDbEntity
  8
0
 62
             4
100
AcDbTrace
 10
267.79709145066494
 20
55.00209521093487
 11
265.16404149891702
 21
55.00209521093487
 12
266.48056647479098
 22
65.00209521093487
 13
266.48056647479098
 23
65.00209521093487
  0
MTEXT
  5
B9
100
AcDbEntity
  8
0
 62
             1
100
AcDbMText
 10
264.48056647479098
 20
12.0111590480172
 30
0.0
 40
10.0
 41
0.0
 71
             7
 72
             1
  1
\C1;15-\C1;65
  7
CONVERTER_1
 11
0.0
 21
1.0
 31
0.0
  0
ENDBLK
  5
BA
100
AcDbEntity
  8
0
100
AcDbBlockEnd
  0
BLOCK
  5
BE
100
AcDbEntity
  8
0
100
AcDbBlockBegin
  2
*D5
 70
             1
 10
0.0
 20
0.0
 30
0.0
  3
*D5
  1

  0
LINE
  5
BF
100
AcDbEntity
  8
0
  6
CONTINUOUS
 62
             4
100
AcDbLine
 10
-150.15427987890317
 20
97.01356781461598
 11
150.14656812109166
 21
97.01360681807991
  0
LINE
  5
C0
100
AcDbEntity
  8
0
  6
CONTINUOUS
 62
             4
100
AcDbLine
 10
-150.15426650000006
 20
-5.99512778906509
 11
-150.15428013866577
 21
99.01356781461595
  0
LINE
  5
C1
100
AcDbEntity
  8
0
  6
CONTINUOUS
 62
             4
100
AcDbLine
 10
150.14658149999985
 20
-5.99512778906509
 11
150.14656786132906
 21
99.01360681807989
  0
SOLID
  5
C2
100
AcDbEntity
  8
0
 62
             4
100
AcDbTrace
 10
140.14656829208371
 20
95.69708054339296
 11
140.14656795009978
 21
98.33013049514085
 12
150.14656812109166
 22
97.01360681807991
 13
150.14656812109166
 23
97.01360681807991
  0
SOLID
  5
C3
100
AcDbEntity
  8
0
 62
             4
100
AcDbTrace
 10
-140.15428004989522
 20
98.33009408930293
 11
-140.15427970791129
 21
95.69704413755504
 12
-150.15427987890317
 22
97.01356781461598
 13
-150.15427987890317
 23
97.01356781461598
  0
MTEXT
  5
C4
100
AcDbEntity
  8
0
 62
             1
100
AcDbMText
 10
-44.31600578528153
 20
99.01356274869413
 30
0.0
 40
10.0
 41
0.0
 71
             7
 72
             1
  1
\C1;Ø\C1;300
  7
CONVERTER_1
 11
0.99999999999706
 21
0.00000242406841
 31
0.0
  0
ENDBLK
  5
C5
100
AcDbEntity
  8
0
100
AcDbBlockEnd
  0
BLOCK
  5
C9
100
AcDbEntity
  8
0
100
AcDbBlockBegin
  2
*D6
 70
             1
 10
0.0
 20
0.0
 30
0.0
  3
*D6
  1

  0
LINE
  5
CA
100
AcDbEntity
  8
0
  6
CONTINUOUS
 62
             4
100
AcDbLine
 10
-250.00101020730906
 20
113.25096075753446
 11
249.99898979093962
 21
113.25102569818345
  0
LINE
  5
CB
100
AcDbEntity
  8
0
  6
CONTINUOUS
 62
             4
100
AcDbLine
 10
249.99900449999981
 20
0.00100121093479
 11
249.99898953117702
 21
115.25102569818344
  0
LINE
  5
CC
100
AcDbEntity
  8
0
  6
CONTINUOUS
 62
             4
100
AcDbLine
 10
-250.00099549799725
 20
-0.00100121890851
 11
-250.00101046707167
 21
115.25096075753444
  0
SOLID
  5
CD
100
AcDbEntity
  8
0
 62
             4
100
AcDbTrace
 10
239.99898996193167
 20
111.9344994234965
 11
239.99898961994774
 21
114.5675493752444
 12
249.99898979093962
 22
113.25102569818345
 13
249.99898979093962
 23
113.25102569818345
  0
SOLID
  5
CE
100
AcDbEntity
  8
0
 62
             4
100
AcDbTrace
 10
-240.00101037830112
 20
114.56748703222141
 11
-240.00101003631718
 21
111.93443708047351
 12
-250.00101020730906
 22
113.25096075753446
 13
-250.00101020730906
 23
113.25096075753446
  0
MTEXT
  5
CF
100
AcDbEntity
  8
0
 62
             1
100
AcDbMText
 10
14.48976220349645
 20
115.25097629760502
 30
0.0
 40
10.0
 41
0.0
 71
             7
 72
             1
  1
\C1;Ø\C1;500
  7
CONVERTER_1
 11
0.99999999999706
 21
0.00000242406841
 31
0.0
  0
ENDBLK
  5
D0
100
AcDbEntity
  8
0
100
AcDbBlockEnd
  0
BLOCK
  5
D4
100
AcDbEntity
  8
0
100
AcDbBlockBegin
  2
*D7
 70
             1
 10
0.0
 20
0.0
 30
0.0
  3
*D7
  1

  0
LINE
  5
D5
100
AcDbEntity
  8
0
  6
CONTINUOUS
 62
             4
100
AcDbLine
 10
-25.00071950000015
 20
-238.79242184871509
 11
24.99940849999975
 21
-238.79242184871509
  0
LINE
  5
D6
100
AcDbEntity
  8
0
  6
CONTINUOUS
 62
             4
100
AcDbLine
 10
-25.00071950000015
 20
-223.43251376015311
 11
-25.00071950000015
 21
-240.79242184871509
  0
LINE
  5
D7
100
AcDbEntity
  8
0
  6
CONTINUOUS
 62
             4
100
AcDbLine
 10
24.99940849999975
 20
-224.78533646472809
 11
24.99940849999975
 21
-240.79242184871509
  0
SOLID
  5
D8
100
AcDbEntity
  8
0
 62
             4
100
AcDbTrace
 10
-15.00071950000015
 20
-237.47589687284113
 11
-15.00071950000015
 21
-240.10894682458905
 12
-25.00071950000015
 22
-238.79242184871509
 13
-25.00071950000015
 23
-238.79242184871509
  0
SOLID
  5
D9
100
AcDbEntity
  8
0
 62
             4
100
AcDbTrace
 10
14.99940849999975
 20
-240.10894682458905
 11
14.99940849999975
 21
-237.47589687284113
 12
24.99940849999975
 22
-238.79242184871509
 13
24.99940849999975
 23
-238.79242184871509
  0
MTEXT
  5
DA
100
AcDbEntity
  8
0
 62
             1
100
AcDbMText
 10
-12.03968343812928
 20
-236.79246160343695
 30
0.0
 40
10.0
 41
0.0
 71
             7
 72
             1
  1
\C1;DN\C1;50
  7
CONVERTER_1
 11
0.99999999999706
 21
0.00000242406841
 31
0.0
  0
ENDBLK
  5
DB
100
AcDbEntity
  8
0
100
AcDbBlockEnd
  0
BLOCK
  5
DF
100
AcDbEntity
  8
0
100
AcDbBlockBegin
  2
*D8
 70
             1
 10
0.0
 20
0.0
 30
0.0
  3
*D8
  1

  0
LINE
  5
E0
100
AcDbEntity
  8
0
  6
CONTINUOUS
 62
             4
100
AcDbLine
 10
-37.50071950000015
 20
-258.55850076658709
 11
37.49940349999989
 21
-258.55850076658709
  0
LINE
  5
E1
100
AcDbEntity
  8
0
  6
CONTINUOUS
 62
             4
100
AcDbLine
 10
-37.50071950000015
 20
-222.78533646472809
 11
-37.50071950000015
 21
-260.55850076658709
  0
LINE
  5
E2
100
AcDbEntity
  8
0
  6
CONTINUOUS
 62
             4
100
AcDbLine
 10
37.49940349999989
 20
-223.43251376015311
 11
37.49940349999989
 21
-260.55850076658709
  0
SOLID
  5
E3
100
AcDbEntity
  8
0
 62
             4
100
AcDbTrace
 10
-27.50071950000015
 20
-257.24197579071313
 11
-27.50071950000015
 21
-259.87502574246105
 12
-37.50071950000015
 22
-258.55850076658709
 13
-37.50071950000015
 23
-258.55850076658709
  0
SOLID
  5
E4
100
AcDbEntity
  8
0
 62
             4
100
AcDbTrace
 10
27.49940349999989
 20
-259.87502574246105
 11
27.49940349999989
 21
-257.24197579071313
 12
37.49940349999989
 22
-258.55850076658709
 13
37.49940349999989
 23
-258.55850076658709
  0
MTEXT
  5
E5
100
AcDbEntity
  8
0
 62
             1
100
AcDbMText
 10
-12.55566199542501
 20
-256.55854052130894
 30
0.0
 40
10.0
 41
0.0
 71
             7
 72
             1
  1
\C1;DN\C1;75
  7
CONVERTER_1
 11
0.99999999999706
 21
0.00000242406841
 31
0.0
  0
ENDBLK
  5
E6
100
AcDbEntity
  8
0
100
AcDbBlockEnd
  0
BLOCK
  5
EA
100
AcDbEntity
  8
0
100
AcDbBlockBegin
  2
*D9
 70
             1
 10
0.0
 20
0.0
 30
0.0
  3
*D9
  1

  0
LINE
  5
EB
100
AcDbEntity
  8
0
  6
CONTINUOUS
 62
             4
100
AcDbLine
 10
-49.00071950000037
 20
-276.40287756744408
 11
60.99928049999996
 21
-276.40287756744408
  0
LINE
  5
EC
100
AcDbEntity
  8
0
  6
CONTINUOUS
 62
             4
100
AcDbLine
 10
-49.00071950000037
 20
-211.12314778906509
 11
-49.00071950000037
 21
-278.40287756744408
  0
LINE
  5
ED
100
AcDbEntity
  8
0
  6
CONTINUOUS
 62
             4
100
AcDbLine
 10
60.99928049999996
 20
-211.12314778906509
 11
60.99928049999996
 21
-278.40287756744408
  0
SOLID
  5
EE
100
AcDbEntity
  8
0
 62
             4
100
AcDbTrace
 10
-39.00071950000037
 20
-275.08635259157012
 11
-39.00071950000037
 21
-277.71940254331804
 12
-49.00071950000037
 22
-276.40287756744408
 13
-49.00071950000037
 23
-276.40287756744408
  0
SOLID
  5
EF
100
AcDbEntity
  8
0
 62
             4
100
AcDbTrace
 10
50.99928049999996
 20
-277.71940254331804
 11
50.99928049999996
 21
-275.08635259157012
 12
60.99928049999996
 22
-276.40287756744408
 13
60.99928049999996
 23
-276.40287756744408
  0
MTEXT
  5
F0
100
AcDbEntity
  8
0
 62
             1
100
AcDbMText
 10
6.25947467016494
 20
-274.40291732216593
 30
0.0
 40
10.0
 41
0.0
 71
             7
 72
             1
  1
\C1;DN\C1;110
  7
CONVERTER_1
 11
0.99999999999706
 21
0.00000242406841
 31
0.0
  0
ENDBLK
  5
F1
100
AcDbEntity
  8
0
100
AcDbBlockEnd
  0
BLOCK
  5
F5
100
AcDbEntity
  8
0
100
AcDbBlockBegin
  2
*D10
 70
             1
 10
0.0
 20
0.0
 30
0.0
  3
*D10
  1

  0
LINE
  5
F6
100
AcDbEntity
  8
0
  6
CONTINUOUS
 62
             4
100
AcDbLine
 10
-73.71017000000005
 20
76.16228032334288
 11
73.70998699999991
 21
76.16228032334288
  0
LINE
  5
F7
100
AcDbEntity
  8
0
  6
CONTINUOUS
 62
             4
100
AcDbLine
 10
-73.71017000000005
 20
65.00209521093487
 11
-73.71017000000005
 21
78.16228032334288
  0
LINE
  5
F8
100
AcDbEntity
  8
0
  6
CONTINUOUS
 62
             4
100
AcDbLine
 10
73.70998699999991
 20
65.00209521093487
 11
73.70998699999991
 21
78.16228032334288
  0
SOLID
  5
F9
100
AcDbEntity
  8
0
 62
             4
100
AcDbTrace
 10
-63.71017000000005
 20
77.47880529921685
 11
-63.71017000000005
 21
74.84575534746892
 12
-73.71017000000005
 22
76.16228032334288
 13
-73.71017000000005
 23
76.16228032334288
  0
SOLID
  5
FA
100
AcDbEntity
  8
0
 62
             4
100
AcDbTrace
 10
63.70998699999991
 20
74.84575534746892
 11
63.70998699999991
 21
77.47880529921685
 12
73.70998699999991
 22
76.16228032334288
 13
73.70998699999991
 23
76.16228032334288
  0
MTEXT
  5
FB
100
AcDbEntity
  8
0
 62
             1
100
AcDbMText
 10
-28.00644142579451
 20
78.16228032334288
 30
0.0
 40
10.0
 41
0.0
 71
             7
 72
             1
  1
\C1;150\C1;x150
  7
CONVERTER_1
 11
0.99999999999706
 21
0.00000242406841
 31
0.0
  0
ENDBLK
  5
FC
100
AcDbEntity
  8
0
100
AcDbBlockEnd
  0
BLOCK
  5
100
100
AcDbEntity
  8
0
100
AcDbBlockBegin
  2
*D11
 70
             1
 10
0.0
 20
0.0
 30
0.0
  3
*D11
  1

  0
LINE
  5
101
100
AcDbEntity
  8
0
  6
CONTINUOUS
 62
             4
100
AcDbLine
 10
266.48056647479098
 20
-116.633327249347
 11
266.48056647479098
 21
0.00100121093482
  0
LINE
  5
102
100
AcDbEntity
  8
0
  6
CONTINUOUS
 62
             4
100
AcDbLine
 10
57.49943849999997
 20
-116.633327249347
 11
268.48056647479098
 21
-116.633327249347
  0
LINE
  5
103
100
AcDbEntity
  8
0
  6
CONTINUOUS
 62
             4
100
AcDbLine
 10
249.99900449999981
 20
0.00100121093482
 11
268.48056647479098
 21
0.00100121093482
  0
SOLID
  5
104
100
AcDbEntity
  8
0
 62
             4
100
AcDbTrace
 10
265.16404149891702
 20
-106.633327249347
 11
267.79709145066494
 21
-106.633327249347
 12
266.48056647479098
 22
-116.633327249347
 13
266.48056647479098
 23
-116.633327249347
  0
SOLID
  5
105
100
AcDbEntity
  8
0
 62
             4
100
AcDbTrace
 10
267.79709145066494
 20
-9.99899878906518
 11
265.16404149891702
 21
-9.99899878906518
 12
266.48056647479098
 22
0.00100121093482
 13
266.48056647479098
 23
0.00100121093482
  0
MTEXT
  5
106
100
AcDbEntity
  8
0
 62
             1
100
AcDbMText
 10
264.48056647479098
 20
-66.21037825654651
 30
0.0
 40
10.0
 41
0.0
 71
             7
 72
             1
  1
117
  7
CONVERTER_1
 11
0.0
 21
1.0
 31
0.0
  0
ENDBLK
  5
107
100
AcDbEntity
  8
0
100
AcDbBlockEnd
  0
ENDSEC
  0
SECTION
  2
ENTITIES
  0
DIMENSION
  5
109
100
AcDbEntity
  8
1
100
AcDbDimension
  2
*D11
 10
266.48056647479098
 20
-116.633327249347
 11
259.48056647479098
 21
-57.21037825654651
 31
0.0
 53
89.99999999999999
  1
<>
  3
ME10_DIM_8
100
AcDbAlignedDimension
 13
249.99900449999981
 23
0.00100121093482
 14
57.49943849999997
 24
-116.633327249347
 50
89.99999999999999
100
AcDbRotatedDimension
  0
DIMENSION
  5
FE
100
AcDbEntity
  8
1
100
AcDbDimension
  2
*D10
 10
-73.71017000000005
 20
76.16228032334288
 11
-0.00644142579451
 21
83.16228032334288
 31
0.0
 53
0.00013888888889
  1
150
  3
ME10_DIM_7
100
AcDbAlignedDimension
 13
73.70998699999993
 23
65.00209521093487
 14
-73.71017000000003
 24
65.00209521093487
100
AcDbRotatedDimension
  0
DIMENSION
  5
F3
100
AcDbEntity
  8
1
100
AcDbDimension
  2
*D9
 10
-49.00071950000037
 20
-276.40287756744408
 11
20.65947467011676
 21
-269.40287756744408
 31
0.0
 53
180.0
  1
<>
  3
ME10_DIM_6
100
AcDbAlignedDimension
 13
60.99928049999997
 23
-211.12314778906509
 14
-49.00071950000037
 24
-211.12314778906509
 50
180.0
100
AcDbRotatedDimension
  0
DIMENSION
  5
E8
100
AcDbEntity
  8
1
100
AcDbDimension
  2
*D8
 10
-37.50071950000015
 20
-258.55850076658709
 11
0.34433800452681
 21
-251.55850076658709
 31
0.0
 53
180.0
  1
<>
  3
ME10_DIM_5
100
AcDbAlignedDimension
 13
37.49940349999989
 23
-223.43251376015311
 14
-37.50071950000014
 24
-222.78533646472809
 50
180.0
100
AcDbRotatedDimension
  0
DIMENSION
  5
DD
100
AcDbEntity
  8
1
100
AcDbDimension
  2
*D7
 10
-25.00071950000015
 20
-238.79242184871509
 11
0.86031656182253
 21
-231.79242184871509
 31
0.0
 53
0.00013888888889
  1
<>
  3
ME10_DIM_4
100
AcDbAlignedDimension
 13
24.99940849999976
 23
-224.78533646472809
 14
-25.00071950000014
 24
-223.43251376015311
100
AcDbRotatedDimension
  0
DIMENSION
  5
D2
100
AcDbEntity
  8
1
100
AcDbDimension
  2
*D6
 10
249.99898979093962
 20
113.25102569818345
 11
28.68976155406582
 21
120.25099695425369
 31
0.0
 53
0.00013888888889
  1
<>
  3
ME10_DIM_3
100
AcDbAlignedDimension
 13
-250.00099549799731
 23
-0.00100121890848
 14
249.99900449999981
 24
0.00100121093482
 50
0.00000744165021
100
AcDbRotatedDimension
  0
DIMENSION
  5
C7
100
AcDbEntity
  8
1
100
AcDbDimension
  2
*D5
 10
150.14656812109166
 20
97.01360681807991
 11
-30.11600643471216
 21
104.0135834053428
 31
0.0
 53
0.00013888888889
  1
<>
  3
ME10_DIM_2
100
AcDbAlignedDimension
 13
-150.15426650000009
 23
-5.99512778906518
 14
150.1465814999998
 24
-5.99512778906518
 50
0.00000744165021
100
AcDbRotatedDimension
  0
DIMENSION
  5
BC
100
AcDbEntity
  8
1
100
AcDbDimension
  2
*D4
 10
266.48056647479098
 20
0.00100121093482
 11
259.48056647479098
 21
31.6111590480172
 31
0.0
 53
89.99999999999999
  1
<>
  3
ME10_DIM_1
100
AcDbAlignedDimension
 13
73.70998599999993
 23
65.00209521093487
 14
249.99900449999981
 24
0.00100121093482
 50
89.99999999999999
100
AcDbRotatedDimension
  0
DIMENSION
  5
B1
100
AcDbEntity
  8
1
100
AcDbDimension
  2
*D3
 10
79.93303649999986
 20
-300.77281440445222
 11
-6.67480084956628
 21
-293.77281440445222
 31
0.0
 53
180.0
  1
<>
  3
ME10_DIM_0
100
AcDbAlignedDimension
 13
-79.93303649999993
 23
-104.6788337890651
 14
79.93303649999987
 24
-104.68229078906511
 50
180.0
100
AcDbRotatedDimension
  0
INSERT
  5
35
100
AcDbEntity
  8
0
100
AcDbBlockReference
  2
HL317KH_K_RPER_M_BITUMETTE
 10
235.71730142957199
 20
-162.42451399999999
  0
INSERT
  5
36
100
AcDbEntity
  8
1
100
AcDbBlockReference
  2
0317_4E_REDUKTION
 10
-49.00071950000037
 20
-278.40287756744408
  0
INSERT
  5
37
100
AcDbEntity
  8
1
100
AcDbBlockReference
  2
0317_2E_AUFSATZ
 10
-73.71017000000003
 20
-0.00028187859284
  0
ENDSEC
  0
SECTION
  2
OBJECTS
  0
DICTIONARY
  5
19
100
AcDbDictionary
  3
ACAD_GROUP
350
1A
  3
ACAD_MLINESTYLE
350
1B
  0
DICTIONARY
  5
1A
102
{ACAD_REACTORS
330
19
102
}
100
AcDbDictionary
  0
DICTIONARY
  5
1B
102
{ACAD_REACTORS
330
19
102
}
100
AcDbDictionary
  3
STANDARD
350
1C
  0
MLINESTYLE
  5
1C
102
{ACAD_REACTORS
330
1B
102
}
100
AcDbMlineStyle
  2
STANDARD
 70
             0
  3

 62
             0
 51
90.0
 52
90.0
 71
             2
 49
0.5
 62
           256
  6
BYLAYER
 49
-0.5
 62
           256
  6
BYLAYER
  0
ENDSEC
  0
EOF
