  0
SECTION
  2
HEADER
  9
$ACADVER
  1
AC1014
  9
$ACADMAINTVER
 70
             0
  9
$DWGCODEPAGE
  3
ANSI_1252
  9
$INSBASE
 10
0.0
 20
0.0
 30
0.0
  9
$EXTMIN
 10
1.00000000000000E+20
 20
1.00000000000000E+20
 30
1.00000000000000E+20
  9
$EXTMAX
 10
-1.00000000000000E+20
 20
-1.00000000000000E+20
 30
-1.00000000000000E+20
  9
$LIMMIN
 10
0.0
 20
0.0
  9
$LIMMAX
 10
0.0
 20
0.0
  9
$ORTHOMODE
 70
             0
  9
$REGENMODE
 70
             1
  9
$FILLMODE
 70
             1
  9
$QTEXTMODE
 70
             0
  9
$MIRRTEXT
 70
             1
  9
$DRAGMODE
 70
             2
  9
$LTSCALE
 40
1.0
  9
$OSMODE
 70
             0
  9
$ATTMODE
 70
             1
  9
$TEXTSIZE
 40
0.2
  9
$TRACEWID
 40
0.05
  9
$TEXTSTYLE
  7
STANDARD
  9
$CLAYER
  8
0
  9
$CELTYPE
  6
CONTINUOUS
  9
$CECOLOR
 62
           256
  9
$CELTSCALE
 40
1.0
  9
$DELOBJ
 70
             1
  9
$DISPSILH
 70
             0
  9
$DIMSCALE
 40
1.0
  9
$DIMASZ
 40
0.18
  9
$DIMEXO
 40
0.0625
  9
$DIMDLI
 40
0.38
  9
$DIMRND
 40
0.0
  9
$DIMDLE
 40
0.0
  9
$DIMEXE
 40
0.18
  9
$DIMTP
 40
0.0
  9
$DIMTM
 40
0.0
  9
$DIMTXT
 40
0.18
  9
$DIMCEN
 40
0.09
  9
$DIMTSZ
 40
0.0
  9
$DIMTOL
 70
             0
  9
$DIMLIM
 70
             0
  9
$DIMTIH
 70
             1
  9
$DIMTOH
 70
             1
  9
$DIMSE1
 70
             0
  9
$DIMSE2
 70
             0
  9
$DIMTAD
 70
             0
  9
$DIMZIN
 70
             0
  9
$DIMBLK
  1

  9
$DIMASO
 70
             1
  9
$DIMSHO
 70
             1
  9
$DIMPOST
  1

  9
$DIMAPOST
  1

  9
$DIMALT
 70
             0
  9
$DIMALTD
 70
             2
  9
$DIMALTF
 40
25.4
  9
$DIMLFAC
 40
1.0
  9
$DIMTOFL
 70
             0
  9
$DIMTVP
 40
0.0
  9
$DIMTIX
 70
             0
  9
$DIMSOXD
 70
             0
  9
$DIMSAH
 70
             0
  9
$DIMBLK1
  1

  9
$DIMBLK2
  1

  9
$DIMSTYLE
  2
STANDARD
  9
$DIMCLRD
 70
             0
  9
$DIMCLRE
 70
             0
  9
$DIMCLRT
 70
             0
  9
$DIMTFAC
 40
1.0
  9
$DIMGAP
 40
0.09
  9
$DIMJUST
 70
             0
  9
$DIMSD1
 70
             0
  9
$DIMSD2
 70
             0
  9
$DIMTOLJ
 70
             1
  9
$DIMTZIN
 70
             0
  9
$DIMALTZ
 70
             0
  9
$DIMALTTZ
 70
             0
  9
$DIMFIT
 70
             3
  9
$DIMUPT
 70
             0
  9
$DIMUNIT
 70
             2
  9
$DIMDEC
 70
             4
  9
$DIMTDEC
 70
             4
  9
$DIMALTU
 70
             2
  9
$DIMALTTD
 70
             2
  9
$DIMTXSTY
  7
STANDARD
  9
$DIMAUNIT
 70
             0
  9
$LUNITS
 70
             2
  9
$LUPREC
 70
             4
  9
$SKETCHINC
 40
0.1
  9
$FILLETRAD
 40
0.0
  9
$AUNITS
 70
             0
  9
$AUPREC
 70
             0
  9
$MENU
  1
acad
  9
$ELEVATION
 40
0.0
  9
$PELEVATION
 40
0.0
  9
$THICKNESS
 40
0.0
  9
$LIMCHECK
 70
             0
  9
$BLIPMODE
 70
             1
  9
$CHAMFERA
 40
0.0
  9
$CHAMFERB
 40
0.0
  9
$CHAMFERC
 40
0.0
  9
$CHAMFERD
 40
0.0
  9
$SKPOLY
 70
             0
  9
$TDCREATE
 40
0.000000000
  9
$TDUPDATE
 40
0.000000000
  9
$TDINDWG
 40
0.0000000000
  9
$TDUSRTIMER
 40
0.0000000000
  9
$USRTIMER
 70
             1
  9
$ANGBASE
 50
0.0
  9
$ANGDIR
 70
             0
  9
$PDMODE
 70
             0
  9
$PDSIZE
 40
0.0
  9
$PLINEWID
 40
0.0
  9
$COORDS
 70
             0
  9
$SPLFRAME
 70
             0
  9
$SPLINETYPE
 70
             6
  9
$SPLINESEGS
 70
             8
  9
$ATTDIA
 70
             0
  9
$ATTREQ
 70
             1
  9
$HANDLING
 70
             1
  9
$HANDSEED
  5
2A0
  9
$SURFTAB1
 70
             6
  9
$SURFTAB2
 70
             6
  9
$SURFTYPE
 70
             6
  9
$SURFU
 70
             6
  9
$SURFV
 70
             6
  9
$UCSNAME
  2

  9
$UCSORG
 10
0.0
 20
0.0
 30
0.0
  9
$UCSXDIR
 10
1.0
 20
0.0
 30
0.0
  9
$UCSYDIR
 10
0.0
 20
1.0
 30
0.0
  9
$PUCSNAME
  2

  9
$PUCSORG
 10
0.0
 20
0.0
 30
0.0
  9
$PUCSXDIR
 10
1.0
 20
0.0
 30
0.0
  9
$PUCSYDIR
 10
0.0
 20
1.0
 30
0.0
  9
$USERI1
 70
             0
  9
$USERI2
 70
             0
  9
$USERI3
 70
             0
  9
$USERI4
 70
             0
  9
$USERI5
 70
             0
  9
$USERR1
 40
11.6
  9
$USERR2
 40
0.0
  9
$USERR3
 40
0.0
  9
$USERR4
 40
0.0
  9
$USERR5
 40
0.0
  9
$WORLDVIEW
 70
             1
  9
$SHADEDGE
 70
             3
  9
$SHADEDIF
 70
            70
  9
$TILEMODE
 70
             1
  9
$MAXACTVP
 70
            16
  9
$PINSBASE
 10
0.0
 20
0.0
 30
0.0
  9
$PLIMCHECK
 70
             0
  9
$PEXTMIN
 10
1.00000000000000E+20
 20
1.00000000000000E+20
 30
1.00000000000000E+20
  9
$PEXTMAX
 10
-1.00000000000000E+20
 20
-1.00000000000000E+20
 30
-1.00000000000000E+20
  9
$PLIMMIN
 10
0.0
 20
0.0
  9
$PLIMMAX
 10
12.0
 20
9.0
  9
$UNITMODE
 70
             0
  9
$VISRETAIN
 70
             0
  9
$PLINEGEN
 70
             1
  9
$PSLTSCALE
 70
             0
  9
$TREEDEPTH
 70
          3020
  9
$PICKSTYLE
 70
             1
  9
$CMLSTYLE
  2
STANDARD
  9
$CMLJUST
 70
             0
  9
$CMLSCALE
 40
1.0
  9
$PROXYGRAPHICS
 70
             0
  9
$MEASUREMENT
 70
             1
  0
ENDSEC
  0
SECTION
  2
CLASSES
  0
CLASS
  1
LWPOLYLINE
  2
AcDbPolyline
  3
"AutoCAD"
 90
        0
280
             0
281
             1
  0
CLASS
  1
IMAGE
  2
AcDbRasterImage
  3
ISM
 90
      127
280
             0
281
             1
  0
CLASS
  1
OLE2FRAME
  2
AcDbOle2Frame
  3
""
 90
        0
280
             0
281
             1
  0
CLASS
  1
HATCH
  2
AcDbHatch
  3
"ACAD_SEDONA"
 90
        0
280
             0
281
             1
  0
CLASS
  1
DICTIONARYVAR
  2
AcDbDictionaryVar
  3
"AutoCAD"
 90
        0
280
             0
281
             0
  0
CLASS
  1
RASTERVARIABLES
  2
AcDbRasterVariables
  3
ISM
 90
        0
280
             0
281
             0
  0
CLASS
  1
IMAGEDEF
  2
AcDbRasterImageDef
  3
ISM
 90
        0
280
             0
281
             0
  0
CLASS
  1
IMAGEDEF_REACTOR
  2
AcDbRasterImageDefReactor
  3
ISM
 90
        1
280
             0
281
             0
  0
CLASS
  1
IDBUFFER
  2
AcDbIdBuffer
  3
"Acad"
 90
        0
280
             0
281
             0
  0
CLASS
  1
SPATIAL_FILTER
  2
AcDbSpatialFilter
  3
"Acad"
 90
        0
280
             0
281
             0
  0
CLASS
  1
XRECORD
  2
AcDbXrecord
  3
"<Built In>"
 90
        0
280
             0
281
             0
  0
CLASS
  1
SORTENTSTABLE
  2
AcDbSortentsTable
  3
"AutoCAD"
 90
        0
280
             0
281
             0
  0
CLASS
  1
LAYER_INDEX
  2
AcDbLayerIndex
  3
"Acad"
 90
        0
280
             0
281
             0
  0
CLASS
  1
SPATIAL_INDEX
  2
AcDbSpatialIndex
  3
"Acad"
 90
        0
280
             0
281
             0
  0
CLASS
  1
OBJECT_PTR
  2
CAseDLPNTableRecord
  3
"ASE-LPNTableRecord"
 90
        1
280
             0
281
             0
  0
CLASS
  1
LAYOUT
  2
AcDbLayout
  3
"AutoCAD 2000"
 90
        1
280
             0
281
             0
  0
CLASS
  1
PLOTSETTINGS
  2
AcDbPlotSettings
  3
"AutoCAD 2000"
 90
        1
280
             0
281
             0
  0
CLASS
  1
ACDBDICTIONARYWDFLT
  2
AcDbDictionaryWithDefault
  3
"AutoCAD 2000"
 90
        1
280
             0
281
             0
  0
CLASS
  1
ACDBPLACEHOLDER
  2
AcDbPlaceHolder
  3
"AutoCAD 2000"
 90
        1
280
             0
281
             0
  0
ENDSEC
  0
SECTION
  2
TABLES
  0
TABLE
  2
VPORT
  5
7
100
AcDbSymbolTable
 70
             1
  0
VPORT
  5
15
100
AcDbSymbolTableRecord
100
AcDbViewportTableRecord
  2
*ACTIVE
 70
             0
 10
0.0
 20
0.0
 11
1.0
 21
1.0
 12
-10.9999999999999
 22
-103.00963492997197
 13
0.0
 23
0.0
 14
1.0
 24
1.0
 15
0.0
 25
0.0
 16
0.0
 26
0.0
 36
1.0
 17
0.0
 27
0.0
 37
0.0
 40
359.95585321002801
 41
1.60267857142857
 42
50.0
 43
0.0
 44
0.0
 50
0.0
 51
0.0
 71
             0
 72
           100
 73
             1
 74
             1
 75
             0
 76
             0
 77
             0
 78
             0
  0
ENDTAB
  0
TABLE
  2
LTYPE
  5
4
100
AcDbSymbolTable
 70
            10
  0
LTYPE
  5
11
100
AcDbSymbolTableRecord
100
AcDbLinetypeTableRecord
  2
BYBLOCK
 70
            64
  3

 72
            65
 73
             0
 40
0.0
  0
LTYPE
  5
12
100
AcDbSymbolTableRecord
100
AcDbLinetypeTableRecord
  2
BYLAYER
 70
            64
  3

 72
            65
 73
             0
 40
0.0
  0
LTYPE
  5
13
100
AcDbSymbolTableRecord
100
AcDbLinetypeTableRecord
  2
CONTINUOUS
 70
            64
  3
Solid line
 72
            65
 73
             0
 40
0.0
  0
LTYPE
  5
1D
100
AcDbSymbolTableRecord
100
AcDbLinetypeTableRecord
  2
DASHED
 70
            64
  3
Dashed
 72
            65
 73
             2
 40
15.0
 49
12.0
 74
             0
 49
-3.0
 74
             0
  0
LTYPE
  5
1E
100
AcDbSymbolTableRecord
100
AcDbLinetypeTableRecord
  2
DOTTED
 70
            64
  3
Dotted
 72
            65
 73
             2
 40
3.5
 49
0.5
 74
             0
 49
-3.0
 74
             0
  0
LTYPE
  5
1F
100
AcDbSymbolTableRecord
100
AcDbLinetypeTableRecord
  2
DOT_CENTER
 70
            64
  3
Dot_Center
 72
            65
 73
             4
 40
2.0
 49
1.25
 74
             0
 49
-0.25
 74
             0
 49
0.25
 74
             0
 49
-0.25
 74
             0
  0
LTYPE
  5
20
100
AcDbSymbolTableRecord
100
AcDbLinetypeTableRecord
  2
LONG_DASHED
 70
            64
  3
Long_Dashed
 72
            65
 73
             2
 40
2.0
 49
1.5
 74
             0
 49
-0.5
 74
             0
  0
LTYPE
  5
21
100
AcDbSymbolTableRecord
100
AcDbLinetypeTableRecord
  2
DASH_CENTER
 70
            64
  3
Dash_Center
 72
            65
 73
             4
 40
36.0
 49
24.0
 74
             0
 49
-3.0
 74
             0
 49
6.0
 74
             0
 49
-3.0
 74
             0
  0
LTYPE
  5
22
100
AcDbSymbolTableRecord
100
AcDbLinetypeTableRecord
  2
PHANTOM
 70
            64
  3
Phantom
 72
            65
 73
             6
 40
2.5
 49
1.25
 74
             0
 49
-0.25
 74
             0
 49
0.25
 74
             0
 49
-0.25
 74
             0
 49
0.25
 74
             0
 49
-0.25
 74
             0
  0
LTYPE
  5
23
100
AcDbSymbolTableRecord
100
AcDbLinetypeTableRecord
  2
CENTER_DASH_DASH
 70
            64
  3
Center_Dash_Dash
 72
            65
 73
             6
 40
22.0
 49
12.0
 74
             0
 49
-3.0
 74
             0
 49
0.5
 74
             0
 49
-3.0
 74
             0
 49
0.5
 74
             0
 49
-3.0
 74
             0
  0
ENDTAB
  0
TABLE
  2
LAYER
  5
2
100
AcDbSymbolTable
 70
             4
  0
LAYER
  5
14
100
AcDbSymbolTableRecord
100
AcDbLayerTableRecord
  2
0
 70
             0
 62
             7
  6
CONTINUOUS
  0
LAYER
  5
24
100
AcDbSymbolTableRecord
100
AcDbLayerTableRecord
  2
1
 70
             0
 62
             7
  6
CONTINUOUS
  0
LAYER
  5
25
100
AcDbSymbolTableRecord
100
AcDbLayerTableRecord
  2
LC-001-002-----0
 70
             0
 62
             7
  6
CONTINUOUS
  0
LAYER
  5
26
100
AcDbSymbolTableRecord
100
AcDbLayerTableRecord
  2
LC-003-001-----0
 70
             0
 62
             7
  6
CONTINUOUS
  0
ENDTAB
  0
TABLE
  2
STYLE
  5
3
100
AcDbSymbolTable
 70
             2
  0
STYLE
  5
17
100
AcDbSymbolTableRecord
100
AcDbTextStyleTableRecord
  2
STANDARD
 70
             0
 40
0.0
 41
1.0
 50
0.0
 71
             0
 42
0.0
  3
txt
  4

  0
STYLE
  5
26E
100
AcDbSymbolTableRecord
100
AcDbTextStyleTableRecord
  2
CONVERTER_1
 70
             0
 40
0.0
 41
0.9
 50
0.0
 71
             0
 42
0.0
  3
txt.shx
  4

  0
ENDTAB
  0
TABLE
  2
VIEW
  5
5
100
AcDbSymbolTable
 70
             0
  0
ENDTAB
  0
TABLE
  2
UCS
  5
6
100
AcDbSymbolTable
 70
             0
  0
ENDTAB
  0
TABLE
  2
APPID
  5
8
100
AcDbSymbolTable
 70
             1
  0
APPID
  5
16
100
AcDbSymbolTableRecord
100
AcDbRegAppTableRecord
  2
ACAD
 70
             0
  0
ENDTAB
  0
TABLE
  2
DIMSTYLE
  5
9
100
AcDbSymbolTable
 70
             6
  0
DIMSTYLE
105
18
100
AcDbSymbolTableRecord
100
AcDbDimStyleTableRecord
  2
STANDARD
 70
             0
  3

  4

  5

  6

  7

 40
1.0
 41
0.18
 42
0.0625
 43
0.38
 44
0.18
 45
0.0
 46
0.0
 47
0.0
 48
0.0
 71
             0
 72
             0
 73
             1
 74
             1
 75
             0
 76
             0
 77
             0
 78
             0
140
0.18
141
0.09
142
0.0
143
25.4
144
1.0
145
0.0
146
1.0
147
0.09
170
             0
171
             2
172
             0
173
             0
174
             0
175
             0
176
             0
177
             0
178
             0
270
             2
271
             4
272
             4
273
             2
274
             2
275
             0
280
             0
281
             0
282
             0
283
             1
284
             0
285
             0
286
             0
287
             0
288
             0
340
17
  0
DIMSTYLE
105
271
100
AcDbSymbolTableRecord
100
AcDbDimStyleTableRecord
  2
ME10_DIM_0
 70
             0
  3
Ø<>
  4

  5

  6

  7

 40
1.0
 41
10.0
 42
0.0
 43
0.38
 44
2.0
 45
0.0
 46
0.0
 47
0.0
 48
0.0
 71
             0
 72
             0
 73
             0
 74
             0
 75
             0
 76
             0
 77
             1
 78
             8
140
10.0
141
0.09
142
0.0
143
25.4
144
1.0
145
0.0
146
1.0
147
0.625
170
             0
171
             2
172
             0
173
             1
174
             0
175
             0
176
             4
177
             4
178
             1
270
             2
271
             2
272
             4
273
             2
274
             2
275
             0
280
             0
281
             0
282
             0
283
             1
284
             0
285
             0
286
             0
287
             0
288
             0
340
17
  0
DIMSTYLE
105
27C
100
AcDbSymbolTableRecord
100
AcDbDimStyleTableRecord
  2
ME10_DIM_1
 70
             0
  3
Ø<>
  4

  5

  6

  7

 40
1.0
 41
10.0
 42
0.0
 43
0.38
 44
2.0
 45
0.0
 46
0.0
 47
0.0
 48
0.0
 71
             0
 72
             0
 73
             0
 74
             0
 75
             0
 76
             0
 77
             1
 78
             8
140
10.0
141
0.09
142
0.0
143
25.4
144
1.0
145
0.0
146
1.0
147
0.625
170
             0
171
             2
172
             0
173
             1
174
             0
175
             0
176
             4
177
             4
178
             1
270
             2
271
             2
272
             4
273
             2
274
             2
275
             0
280
             0
281
             0
282
             0
283
             1
284
             0
285
             0
286
             0
287
             0
288
             0
340
17
  0
DIMSTYLE
105
287
100
AcDbSymbolTableRecord
100
AcDbDimStyleTableRecord
  2
ME10_DIM_2
 70
             0
  3
Ø<>
  4

  5

  6

  7

 40
1.0
 41
10.0
 42
0.0
 43
0.38
 44
2.0
 45
0.0
 46
0.0
 47
0.0
 48
0.0
 71
             0
 72
             0
 73
             0
 74
             0
 75
             0
 76
             0
 77
             1
 78
             8
140
10.0
141
0.09
142
0.0
143
25.4
144
1.0
145
0.0
146
1.0
147
0.625
170
             0
171
             2
172
             0
173
             1
174
             0
175
             0
176
             4
177
             4
178
             1
270
             2
271
             2
272
             4
273
             2
274
             2
275
             0
280
             0
281
             0
282
             0
283
             1
284
             0
285
             0
286
             0
287
             0
288
             0
340
17
  0
DIMSTYLE
105
292
100
AcDbSymbolTableRecord
100
AcDbDimStyleTableRecord
  2
ME10_DIM_3
 70
             0
  3

  4

  5

  6

  7

 40
1.0
 41
10.0
 42
0.0
 43
0.38
 44
2.0
 45
0.0
 46
0.0
 47
0.0
 48
0.0
 71
             0
 72
             0
 73
             0
 74
             0
 75
             0
 76
             0
 77
             1
 78
             8
140
10.0
141
0.09
142
0.0
143
25.4
144
1.0
145
0.0
146
1.0
147
0.625
170
             0
171
             2
172
             0
173
             1
174
             0
175
             0
176
             4
177
             4
178
             1
270
             2
271
             2
272
             4
273
             2
274
             2
275
             0
280
             0
281
             0
282
             0
283
             1
284
             0
285
             0
286
             0
287
             0
288
             0
340
17
  0
DIMSTYLE
105
29D
100
AcDbSymbolTableRecord
100
AcDbDimStyleTableRecord
  2
ME10_DIM_4
 70
             0
  3

  4

  5

  6

  7

 40
1.0
 41
10.0
 42
0.0
 43
0.38
 44
2.0
 45
0.0
 46
0.0
 47
0.0
 48
0.0
 71
             0
 72
             0
 73
             0
 74
             0
 75
             0
 76
             0
 77
             1
 78
             8
140
10.0
141
0.09
142
0.0
143
25.4
144
1.0
145
0.0
146
1.0
147
0.625
170
             0
171
             2
172
             0
173
             1
174
             0
175
             0
176
             4
177
             4
178
             1
270
             2
271
             0
272
             4
273
             2
274
             2
275
             0
280
             0
281
             0
282
             0
283
             1
284
             0
285
             0
286
             0
287
             0
288
             0
340
17
  0
ENDTAB
  0
TABLE
  2
BLOCK_RECORD
  5
1
100
AcDbSymbolTable
 70
             6
  0
BLOCK_RECORD
  5
A
100
AcDbSymbolTableRecord
100
AcDbBlockTableRecord
  2
*MODEL_SPACE
  0
BLOCK_RECORD
  5
B
100
AcDbSymbolTableRecord
100
AcDbBlockTableRecord
  2
*PAPER_SPACE
  0
BLOCK_RECORD
  5
27
100
AcDbSymbolTableRecord
100
AcDbBlockTableRecord
  2
HL_350_1H_AUFSTOCKELEMT__1
  0
BLOCK_RECORD
  5
267
100
AcDbSymbolTableRecord
100
AcDbBlockTableRecord
  2
*D1
  0
BLOCK_RECORD
  5
273
100
AcDbSymbolTableRecord
100
AcDbBlockTableRecord
  2
*D2
  0
BLOCK_RECORD
  5
27E
100
AcDbSymbolTableRecord
100
AcDbBlockTableRecord
  2
*D3
  0
BLOCK_RECORD
  5
289
100
AcDbSymbolTableRecord
100
AcDbBlockTableRecord
  2
*D4
  0
BLOCK_RECORD
  5
294
100
AcDbSymbolTableRecord
100
AcDbBlockTableRecord
  2
*D5
  0
ENDTAB
  0
ENDSEC
  0
SECTION
  2
BLOCKS
  0
BLOCK
  5
D
100
AcDbEntity
  8
0
100
AcDbBlockBegin
  2
*MODEL_SPACE
 70
             0
 10
0.0
 20
0.0
 30
0.0
  3
*MODEL_SPACE
  1

  0
ENDBLK
  5
E
100
AcDbEntity
  8
0
100
AcDbBlockEnd
  0
BLOCK
  5
F
100
AcDbEntity
 67
             1
  8
0
100
AcDbBlockBegin
  2
*PAPER_SPACE
 70
             0
 10
0.0
 20
0.0
 30
0.0
  3
*PAPER_SPACE
  1

  0
ENDBLK
  5
10
100
AcDbEntity
 67
             1
  8
0
100
AcDbBlockEnd
  0
BLOCK
  5
28
100
AcDbEntity
  8
0
100
AcDbBlockBegin
  2
HL_350_1H_AUFSTOCKELEMT__1
 70
             0
 10
-251.22433299999989
 20
-308.35610600000001
 30
0.0
  3
HL_350_1H_AUFSTOCKELEMT__1
  1

  0
ARC
  5
264
100
AcDbEntity
  8
LC-001-002-----0
  6
CONTINUOUS
 62
             7
100
AcDbCircle
 10
74.5
 20
-47.19791800000002
 40
2.0
100
AcDbArc
 50
90.0
 51
180.0
  0
ARC
  5
263
100
AcDbEntity
  8
LC-001-002-----0
  6
CONTINUOUS
 62
             7
100
AcDbCircle
 10
74.94729900000016
 20
-40.19791800000002
 40
5.0
100
AcDbArc
 50
-90.0
 51
-0.0002800000053
  0
ARC
  5
262
100
AcDbEntity
  8
LC-001-002-----0
  6
CONTINUOUS
 62
             7
100
AcDbCircle
 10
-74.94729899999993
 20
-40.19791800000002
 40
4.99999999999968
100
AcDbArc
 50
-179.99971999999468
 51
-90.0
  0
ARC
  5
261
100
AcDbEntity
  8
LC-001-002-----0
  6
CONTINUOUS
 62
             7
100
AcDbCircle
 10
-74.5
 20
-47.19791800000002
 40
2.0
100
AcDbArc
 50
0.0
 51
90.0
  0
LINE
  5
260
100
AcDbEntity
  8
1
  6
CONTINUOUS
 62
             7
100
AcDbLine
 10
72.5
 20
-220.19791799999999
 11
-72.5
 21
-220.19791799999999
  0
LINE
  5
25F
100
AcDbEntity
  8
1
  6
PHANTOM
 62
             2
100
AcDbLine
 10
0.0
 20
4.46642045852116
 11
0.0
 21
-229.97889644284899
  0
LINE
  5
25E
100
AcDbEntity
  8
LC-001-002-----0
  6
CONTINUOUS
 62
             7
100
AcDbLine
 10
-150.751743
 20
-4.0
 11
-251.22433299999989
 21
-4.0
  0
LINE
  5
25D
100
AcDbEntity
  8
LC-001-002-----0
  6
CONTINUOUS
 62
             7
100
AcDbLine
 10
-150.751743
 20
0.0
 11
-251.22433299999989
 21
0.0
  0
LINE
  5
25C
100
AcDbEntity
  8
LC-001-002-----0
  6
CONTINUOUS
 62
             7
100
AcDbLine
 10
-251.22433299999989
 20
0.0
 11
-251.22433299999989
 21
-4.0
  0
LINE
  5
25B
100
AcDbEntity
  8
LC-001-002-----0
  6
CONTINUOUS
 62
             7
100
AcDbLine
 10
251.22433300000009
 20
0.00208400000002
 11
251.22433300000009
 21
-3.99791599999998
  0
LINE
  5
25A
100
AcDbEntity
  8
LC-001-002-----0
  6
CONTINUOUS
 62
             7
100
AcDbLine
 10
241.22433300000009
 20
0.00208400000002
 11
241.22433300000009
 21
-3.99791599999998
  0
LINE
  5
259
100
AcDbEntity
  8
LC-001-002-----0
  6
CONTINUOUS
 62
             7
100
AcDbLine
 10
231.22433300000009
 20
0.00208400000002
 11
231.22433300000009
 21
-3.99791599999998
  0
LINE
  5
258
100
AcDbEntity
  8
LC-001-002-----0
  6
CONTINUOUS
 62
             7
100
AcDbLine
 10
-119.0758969999999
 20
-8.33343600000001
 11
-112.99905099999999
 21
-10.76262400000002
  0
LINE
  5
257
100
AcDbEntity
  8
LC-003-001-----0
  6
CONTINUOUS
 62
             7
100
AcDbLine
 10
-112.99713899999981
 20
-10.76338800000002
 11
-92.96243207053958
 21
-12.16434953340054
  0
LINE
  5
256
100
AcDbEntity
  8
LC-001-002-----0
  6
CONTINUOUS
 62
             7
100
AcDbLine
 10
-150.751743
 20
-6.118447
 11
-119.0758969999999
 21
-8.33343600000001
  0
LINE
  5
255
100
AcDbEntity
  8
LC-001-002-----0
  6
CONTINUOUS
 62
             7
100
AcDbLine
 10
-150.751743
 20
-3.11112099999997
 11
-150.751743
 21
-6.118447
  0
LINE
  5
254
100
AcDbEntity
  8
LC-003-001-----0
  6
CONTINUOUS
 62
             7
100
AcDbLine
 10
112.9908190000001
 20
-10.76382999999998
 11
95.96243700000014
 21
-11.95456899999999
  0
LINE
  5
253
100
AcDbEntity
  8
LC-001-002-----0
  6
CONTINUOUS
 62
             7
100
AcDbLine
 10
150.751743
 20
-6.118447
 11
119.069577
 21
-8.33387799999997
  0
LINE
  5
252
100
AcDbEntity
  8
LC-001-002-----0
  6
CONTINUOUS
 62
             7
100
AcDbLine
 10
150.751743
 20
0.00208400000002
 11
150.751743
 21
0.0
  0
LINE
  5
251
100
AcDbEntity
  8
LC-001-002-----0
  6
CONTINUOUS
 62
             7
100
AcDbLine
 10
72.5
 20
-47.19791800000002
 11
72.5
 21
-65.19791800000003
  0
LINE
  5
250
100
AcDbEntity
  8
LC-001-002-----0
  6
CONTINUOUS
 62
             7
100
AcDbLine
 10
-71.1602539999999
 20
-225.19791799999999
 11
71.16025400000012
 21
-225.19791799999999
  0
LINE
  5
24F
100
AcDbEntity
  8
LC-001-002-----0
  6
CONTINUOUS
 62
             7
100
AcDbLine
 10
72.5
 20
-65.19791800000003
 11
72.5
 21
-220.19791799999999
  0
LINE
  5
24E
100
AcDbEntity
  8
LC-001-002-----0
  6
CONTINUOUS
 62
             7
100
AcDbLine
 10
72.5
 20
-220.19791799999999
 11
71.16025400000012
 21
-225.19791799999999
  0
LINE
  5
24D
100
AcDbEntity
  8
LC-001-002-----0
  6
CONTINUOUS
 62
             7
100
AcDbLine
 10
-241.22433299999989
 20
0.0
 11
-241.22433299999989
 21
-4.0
  0
LINE
  5
24C
100
AcDbEntity
  8
LC-001-002-----0
  6
CONTINUOUS
 62
             7
100
AcDbLine
 10
-231.22433299999989
 20
0.0
 11
-231.22433299999989
 21
-4.0
  0
LINE
  5
24B
100
AcDbEntity
  8
LC-001-002-----0
  6
CONTINUOUS
 62
             7
100
AcDbLine
 10
-221.22433299999989
 20
0.0
 11
-221.22433299999989
 21
-4.0
  0
LINE
  5
24A
100
AcDbEntity
  8
LC-001-002-----0
  6
CONTINUOUS
 62
             7
100
AcDbLine
 10
-211.22433299999989
 20
0.0
 11
-211.22433299999989
 21
-4.0
  0
LINE
  5
249
100
AcDbEntity
  8
LC-001-002-----0
  6
CONTINUOUS
 62
             7
100
AcDbLine
 10
-201.22433299999989
 20
0.0
 11
-201.22433299999989
 21
-4.0
  0
LINE
  5
248
100
AcDbEntity
  8
LC-001-002-----0
  6
CONTINUOUS
 62
             7
100
AcDbLine
 10
-191.22433299999989
 20
0.0
 11
-191.22433299999989
 21
-4.0
  0
LINE
  5
247
100
AcDbEntity
  8
LC-001-002-----0
  6
CONTINUOUS
 62
             7
100
AcDbLine
 10
-181.22433299999989
 20
0.0
 11
-181.22433299999989
 21
-4.0
  0
LINE
  5
246
100
AcDbEntity
  8
LC-001-002-----0
  6
CONTINUOUS
 62
             7
100
AcDbLine
 10
-171.22433299999989
 20
0.0
 11
-171.22433299999989
 21
-4.0
  0
LINE
  5
245
100
AcDbEntity
  8
LC-001-002-----0
  6
CONTINUOUS
 62
             7
100
AcDbLine
 10
-161.22433299999989
 20
0.0
 11
-161.22433299999989
 21
-4.0
  0
LINE
  5
244
100
AcDbEntity
  8
LC-001-002-----0
  6
CONTINUOUS
 62
             7
100
AcDbLine
 10
79.96162600000002
 20
-32.87473699999998
 11
90.72501699999998
 21
-32.87473699999998
  0
LINE
  5
243
100
AcDbEntity
  8
LC-003-001-----0
  6
CONTINUOUS
 62
             7
100
AcDbLine
 10
110.9627889999999
 20
-10.90338099999997
 11
92.96243212167158
 21
-12.16208711538416
  0
LINE
  5
242
100
AcDbEntity
  8
LC-001-002-----0
  6
CONTINUOUS
 62
             7
100
AcDbLine
 10
95.96243700000014
 20
-11.954455
 11
95.96221200000014
 21
-21.908028
  0
LINE
  5
241
100
AcDbEntity
  8
LC-001-002-----0
  6
CONTINUOUS
 62
             7
100
AcDbLine
 10
95.96221200000014
 20
-21.908028
 11
90.72529400000008
 21
-21.90790900000002
  0
LINE
  5
240
100
AcDbEntity
  8
LC-001-002-----0
  6
CONTINUOUS
 62
             7
100
AcDbLine
 10
90.72529400000008
 20
-21.90790900000002
 11
90.72484300000019
 21
-32.87473699999998
  0
LINE
  5
23F
100
AcDbEntity
  8
LC-001-002-----0
  6
CONTINUOUS
 62
             7
100
AcDbLine
 10
79.94733500000007
 20
-32.87473699999998
 11
79.94729900000016
 21
-40.19794200000001
  0
LINE
  5
23E
100
AcDbEntity
  8
LC-001-002-----0
  6
CONTINUOUS
 62
             7
100
AcDbLine
 10
-79.96162600000002
 20
-32.87473699999998
 11
-90.72501699999998
 21
-32.87473699999998
  0
LINE
  5
23D
100
AcDbEntity
  8
LC-001-002-----0
  6
CONTINUOUS
 62
             7
100
AcDbLine
 10
-95.96243699999991
 20
-11.954455
 11
-95.96221199999991
 21
-21.908028
  0
LINE
  5
23C
100
AcDbEntity
  8
LC-001-002-----0
  6
CONTINUOUS
 62
             7
100
AcDbLine
 10
-95.96221199999991
 20
-21.908028
 11
-90.72529399999985
 21
-21.90790900000002
  0
LINE
  5
23B
100
AcDbEntity
  8
LC-001-002-----0
  6
CONTINUOUS
 62
             7
100
AcDbLine
 10
-90.72529399999985
 20
-21.90790900000002
 11
-90.72484299999996
 21
-32.87473699999998
  0
LINE
  5
23A
100
AcDbEntity
  8
LC-001-002-----0
  6
CONTINUOUS
 62
             7
100
AcDbLine
 10
-79.96162600000002
 20
-32.87473699999998
 11
-90.72501699999998
 21
-32.87473699999998
  0
LINE
  5
239
100
AcDbEntity
  8
LC-001-002-----0
  6
CONTINUOUS
 62
             7
100
AcDbLine
 10
-79.94733499999984
 20
-32.87473699999998
 11
-79.94729899999993
 21
-40.19794200000001
  0
LINE
  5
238
100
AcDbEntity
  8
LC-001-002-----0
  6
CONTINUOUS
 62
             7
100
AcDbLine
 10
74.5
 20
-45.19791800000002
 11
74.94729900000016
 21
-45.19791800000002
  0
LINE
  5
237
100
AcDbEntity
  8
LC-001-002-----0
  6
CONTINUOUS
 62
             7
100
AcDbLine
 10
-72.5
 20
-65.19791800000003
 11
-72.5
 21
-220.19791799999999
  0
LINE
  5
236
100
AcDbEntity
  8
LC-001-002-----0
  6
CONTINUOUS
 62
             7
100
AcDbLine
 10
-72.5
 20
-47.19791800000002
 11
-72.5
 21
-65.19791800000003
  0
LINE
  5
235
100
AcDbEntity
  8
LC-001-002-----0
  6
CONTINUOUS
 62
             7
100
AcDbLine
 10
-72.5
 20
-220.19791799999999
 11
-71.1602539999999
 21
-225.19791799999999
  0
LINE
  5
234
100
AcDbEntity
  8
LC-001-002-----0
  6
CONTINUOUS
 62
             7
100
AcDbLine
 10
-74.94729899999993
 20
-45.19791800000002
 11
-74.5
 21
-45.19791800000002
  0
LINE
  5
233
100
AcDbEntity
  8
LC-001-002-----0
  6
CONTINUOUS
 62
             7
100
AcDbLine
 10
221.22433300000009
 20
0.00208400000002
 11
221.22433300000009
 21
-3.99791599999998
  0
LINE
  5
232
100
AcDbEntity
  8
LC-001-002-----0
  6
CONTINUOUS
 62
             7
100
AcDbLine
 10
211.22433300000009
 20
0.00208400000002
 11
211.22433300000009
 21
-3.99791599999998
  0
LINE
  5
231
100
AcDbEntity
  8
LC-001-002-----0
  6
CONTINUOUS
 62
             7
100
AcDbLine
 10
201.22433300000009
 20
0.00208400000002
 11
201.22433300000009
 21
-3.99791599999998
  0
LINE
  5
230
100
AcDbEntity
  8
LC-001-002-----0
  6
CONTINUOUS
 62
             7
100
AcDbLine
 10
191.22433300000009
 20
0.00208400000002
 11
191.22433300000009
 21
-3.99791599999998
  0
LINE
  5
22F
100
AcDbEntity
  8
LC-001-002-----0
  6
CONTINUOUS
 62
             7
100
AcDbLine
 10
181.22433300000009
 20
0.00208400000002
 11
181.22433300000009
 21
-3.99791599999998
  0
LINE
  5
22E
100
AcDbEntity
  8
LC-001-002-----0
  6
CONTINUOUS
 62
             7
100
AcDbLine
 10
171.22433300000009
 20
0.00208400000002
 11
171.22433300000009
 21
-3.99791599999998
  0
LINE
  5
22D
100
AcDbEntity
  8
LC-001-002-----0
  6
CONTINUOUS
 62
             7
100
AcDbLine
 10
161.22433300000009
 20
0.00208400000002
 11
161.22433300000009
 21
-3.99791599999998
  0
LINE
  5
22C
100
AcDbEntity
  8
LC-001-002-----0
  6
CONTINUOUS
 62
             7
100
AcDbLine
 10
119.069577
 20
-8.33387799999997
 11
112.9908190000001
 21
-10.76382999999998
  0
LINE
  5
22B
100
AcDbEntity
  8
LC-001-002-----0
  6
CONTINUOUS
 62
             7
100
AcDbLine
 10
150.751743
 20
0.00208400000002
 11
251.22433300000009
 21
0.00208400000002
  0
LINE
  5
22A
100
AcDbEntity
  8
0
  6
CONTINUOUS
 62
             3
100
AcDbLine
 10
-241.31083299999989
 20
-4.0
 11
-241.22433299999989
 21
-3.9135
  0
LINE
  5
229
100
AcDbEntity
  8
0
  6
CONTINUOUS
 62
             3
100
AcDbLine
 10
-241.5936759999999
 20
-4.0
 11
-241.22433299999989
 21
-3.63065699999999
  0
LINE
  5
228
100
AcDbEntity
  8
0
  6
CONTINUOUS
 62
             3
100
AcDbLine
 10
-241.87651899999989
 20
-4.0
 11
-241.22433299999989
 21
-3.34781499999997
  0
LINE
  5
227
100
AcDbEntity
  8
0
  6
CONTINUOUS
 62
             3
100
AcDbLine
 10
-242.1593609999999
 20
-4.0
 11
-241.22433299999989
 21
-3.06497200000001
  0
LINE
  5
226
100
AcDbEntity
  8
0
  6
CONTINUOUS
 62
             3
100
AcDbLine
 10
-242.44220399999989
 20
-4.0
 11
-241.22433299999989
 21
-1.782129
  0
LINE
  5
225
100
AcDbEntity
  8
0
  6
CONTINUOUS
 62
             3
100
AcDbLine
 10
-242.7250469999999
 20
-4.0
 11
-241.22433299999989
 21
-1.49928599999998
  0
LINE
  5
224
100
AcDbEntity
  8
0
  6
CONTINUOUS
 62
             3
100
AcDbLine
 10
-243.00788899999989
 20
-4.0
 11
-241.22433299999989
 21
-3.21644399999997
  0
LINE
  5
223
100
AcDbEntity
  8
0
  6
CONTINUOUS
 62
             3
100
AcDbLine
 10
-243.29073199999991
 20
-4.0
 11
-241.22433299999989
 21
-2.93360100000001
  0
LINE
  5
222
100
AcDbEntity
  8
0
  6
CONTINUOUS
 62
             3
100
AcDbLine
 10
-243.57357499999989
 20
-4.0
 11
-241.22433299999989
 21
-1.650758
  0
LINE
  5
221
100
AcDbEntity
  8
0
  6
CONTINUOUS
 62
             3
100
AcDbLine
 10
-243.85641799999991
 20
-4.0
 11
-241.22433299999989
 21
-1.36791599999998
  0
LINE
  5
220
100
AcDbEntity
  8
0
  6
CONTINUOUS
 62
             3
100
AcDbLine
 10
-244.13925999999989
 20
-4.0
 11
-241.22433299999989
 21
-1.08507299999997
  0
LINE
  5
21F
100
AcDbEntity
  8
0
  6
CONTINUOUS
 62
             3
100
AcDbLine
 10
-244.42210299999991
 20
-4.0
 11
-241.22433299999989
 21
-0.80223000000001
  0
LINE
  5
21E
100
AcDbEntity
  8
0
  6
CONTINUOUS
 62
             3
100
AcDbLine
 10
-244.70494599999989
 20
-4.0
 11
-241.22433299999989
 21
-0.51938699999999
  0
LINE
  5
21D
100
AcDbEntity
  8
0
  6
CONTINUOUS
 62
             3
100
AcDbLine
 10
-244.98778799999991
 20
-4.0
 11
-241.22433299999989
 21
-0.23654499999998
  0
LINE
  5
21C
100
AcDbEntity
  8
0
  6
CONTINUOUS
 62
             3
100
AcDbLine
 10
-245.2706309999999
 20
-4.0
 11
-241.2706309999999
 21
0.0
  0
LINE
  5
21B
100
AcDbEntity
  8
0
  6
CONTINUOUS
 62
             3
100
AcDbLine
 10
-245.55347399999991
 20
-4.0
 11
-241.55347399999991
 21
0.0
  0
LINE
  5
21A
100
AcDbEntity
  8
0
  6
CONTINUOUS
 62
             3
100
AcDbLine
 10
-245.83631700000001
 20
-4.0
 11
-241.83631700000001
 21
0.0
  0
LINE
  5
219
100
AcDbEntity
  8
0
  6
CONTINUOUS
 62
             3
100
AcDbLine
 10
-246.11915899999991
 20
-4.0
 11
-242.11915899999991
 21
0.0
  0
LINE
  5
218
100
AcDbEntity
  8
0
  6
CONTINUOUS
 62
             3
100
AcDbLine
 10
-246.4020019999999
 20
-4.0
 11
-242.4020019999999
 21
0.0
  0
LINE
  5
217
100
AcDbEntity
  8
0
  6
CONTINUOUS
 62
             3
100
AcDbLine
 10
-246.68484499999991
 20
-4.0
 11
-242.68484499999991
 21
0.0
  0
LINE
  5
216
100
AcDbEntity
  8
0
  6
CONTINUOUS
 62
             3
100
AcDbLine
 10
-246.96768700000001
 20
-4.0
 11
-242.96768700000001
 21
0.0
  0
LINE
  5
215
100
AcDbEntity
  8
0
  6
CONTINUOUS
 62
             3
100
AcDbLine
 10
-247.25052999999991
 20
-4.0
 11
-243.25052999999991
 21
0.0
  0
LINE
  5
214
100
AcDbEntity
  8
0
  6
CONTINUOUS
 62
             3
100
AcDbLine
 10
-247.5333729999999
 20
-4.0
 11
-243.5333729999999
 21
0.0
  0
LINE
  5
213
100
AcDbEntity
  8
0
  6
CONTINUOUS
 62
             3
100
AcDbLine
 10
-247.81621599999991
 20
-4.0
 11
-243.81621599999991
 21
0.0
  0
LINE
  5
212
100
AcDbEntity
  8
0
  6
CONTINUOUS
 62
             3
100
AcDbLine
 10
-248.09905800000001
 20
-4.0
 11
-244.09905800000001
 21
0.0
  0
LINE
  5
211
100
AcDbEntity
  8
0
  6
CONTINUOUS
 62
             3
100
AcDbLine
 10
-248.38190099999991
 20
-4.0
 11
-244.38190099999991
 21
0.0
  0
LINE
  5
210
100
AcDbEntity
  8
0
  6
CONTINUOUS
 62
             3
100
AcDbLine
 10
-248.6647439999999
 20
-4.0
 11
-244.6647439999999
 21
0.0
  0
LINE
  5
20F
100
AcDbEntity
  8
0
  6
CONTINUOUS
 62
             3
100
AcDbLine
 10
-248.94758599999989
 20
-4.0
 11
-244.94758599999989
 21
0.0
  0
LINE
  5
20E
100
AcDbEntity
  8
0
  6
CONTINUOUS
 62
             3
100
AcDbLine
 10
-249.2304289999999
 20
-4.0
 11
-245.2304289999999
 21
0.0
  0
LINE
  5
20D
100
AcDbEntity
  8
0
  6
CONTINUOUS
 62
             3
100
AcDbLine
 10
-249.51327199999989
 20
-4.0
 11
-245.51327199999989
 21
0.0
  0
LINE
  5
20C
100
AcDbEntity
  8
0
  6
CONTINUOUS
 62
             3
100
AcDbLine
 10
-249.7961149999999
 20
-4.0
 11
-245.7961149999999
 21
0.0
  0
LINE
  5
20B
100
AcDbEntity
  8
0
  6
CONTINUOUS
 62
             3
100
AcDbLine
 10
-250.07895699999989
 20
-4.0
 11
-246.07895699999989
 21
0.0
  0
LINE
  5
20A
100
AcDbEntity
  8
0
  6
CONTINUOUS
 62
             3
100
AcDbLine
 10
-250.3617999999999
 20
-4.0
 11
-246.3617999999999
 21
0.0
  0
LINE
  5
209
100
AcDbEntity
  8
0
  6
CONTINUOUS
 62
             3
100
AcDbLine
 10
-250.64464299999989
 20
-4.0
 11
-246.64464299999989
 21
0.0
  0
LINE
  5
208
100
AcDbEntity
  8
0
  6
CONTINUOUS
 62
             3
100
AcDbLine
 10
-250.9274849999999
 20
-4.0
 11
-246.9274849999999
 21
0.0
  0
LINE
  5
207
100
AcDbEntity
  8
0
  6
CONTINUOUS
 62
             3
100
AcDbLine
 10
-251.21032799999989
 20
-4.0
 11
-247.21032799999989
 21
0.0
  0
LINE
  5
206
100
AcDbEntity
  8
0
  6
CONTINUOUS
 62
             3
100
AcDbLine
 10
-251.22433299999989
 20
-3.73116199999998
 11
-247.4931709999999
 21
0.0
  0
LINE
  5
205
100
AcDbEntity
  8
0
  6
CONTINUOUS
 62
             3
100
AcDbLine
 10
-251.22433299999989
 20
-3.44831999999997
 11
-247.77601399999989
 21
0.0
  0
LINE
  5
204
100
AcDbEntity
  8
0
  6
CONTINUOUS
 62
             3
100
AcDbLine
 10
-251.22433299999989
 20
-3.16547700000001
 11
-248.05885599999991
 21
0.0
  0
LINE
  5
203
100
AcDbEntity
  8
0
  6
CONTINUOUS
 62
             3
100
AcDbLine
 10
-251.22433299999989
 20
-2.88263399999999
 11
-248.34169899999989
 21
0.0
  0
LINE
  5
202
100
AcDbEntity
  8
0
  6
CONTINUOUS
 62
             3
100
AcDbLine
 10
-251.22433299999989
 20
-1.59979199999998
 11
-248.62454199999991
 21
0.0
  0
LINE
  5
201
100
AcDbEntity
  8
0
  6
CONTINUOUS
 62
             3
100
AcDbLine
 10
-251.22433299999989
 20
-3.31694899999997
 11
-248.90738399999989
 21
0.0
  0
LINE
  5
200
100
AcDbEntity
  8
0
  6
CONTINUOUS
 62
             3
100
AcDbLine
 10
-251.22433299999989
 20
-3.03410600000002
 11
-249.19022699999991
 21
0.0
  0
LINE
  5
1FF
100
AcDbEntity
  8
0
  6
CONTINUOUS
 62
             3
100
AcDbLine
 10
-251.22433299999989
 20
-1.75126299999999
 11
-249.47307000000001
 21
0.0
  0
LINE
  5
1FE
100
AcDbEntity
  8
0
  6
CONTINUOUS
 62
             3
100
AcDbLine
 10
-251.22433299999989
 20
-1.46842099999998
 11
-249.75591299999991
 21
0.0
  0
LINE
  5
1FD
100
AcDbEntity
  8
0
  6
CONTINUOUS
 62
             3
100
AcDbLine
 10
-251.22433299999989
 20
-1.18557799999996
 11
-250.0387549999999
 21
0.0
  0
LINE
  5
1FC
100
AcDbEntity
  8
0
  6
CONTINUOUS
 62
             3
100
AcDbLine
 10
-251.22433299999989
 20
-0.90273500000001
 11
-250.32159799999991
 21
0.0
  0
LINE
  5
1FB
100
AcDbEntity
  8
0
  6
CONTINUOUS
 62
             3
100
AcDbLine
 10
-251.22433299999989
 20
-0.61989299999999
 11
-250.60444100000001
 21
0.0
  0
LINE
  5
1FA
100
AcDbEntity
  8
0
  6
CONTINUOUS
 62
             3
100
AcDbLine
 10
-251.22433299999989
 20
-0.33704999999998
 11
-250.88728299999991
 21
0.0
  0
LINE
  5
1F9
100
AcDbEntity
  8
0
  6
CONTINUOUS
 62
             3
100
AcDbLine
 10
-251.22433299999989
 20
-0.05420700000002
 11
-251.1701259999999
 21
0.0
  0
LINE
  5
1F8
100
AcDbEntity
  8
0
  6
CONTINUOUS
 62
             3
100
AcDbLine
 10
-221.2290009999999
 20
-4.0
 11
-221.22433299999989
 21
-3.99533300000002
  0
LINE
  5
1F7
100
AcDbEntity
  8
0
  6
CONTINUOUS
 62
             3
100
AcDbLine
 10
-221.51184299999991
 20
-4.0
 11
-221.22433299999989
 21
-3.71249
  0
LINE
  5
1F6
100
AcDbEntity
  8
0
  6
CONTINUOUS
 62
             3
100
AcDbLine
 10
-221.79468600000001
 20
-4.0
 11
-221.22433299999989
 21
-3.42964699999999
  0
LINE
  5
1F5
100
AcDbEntity
  8
0
  6
CONTINUOUS
 62
             3
100
AcDbLine
 10
-222.07752899999991
 20
-4.0
 11
-221.22433299999989
 21
-3.14680399999998
  0
LINE
  5
1F4
100
AcDbEntity
  8
0
  6
CONTINUOUS
 62
             3
100
AcDbLine
 10
-222.3603709999999
 20
-4.0
 11
-221.22433299999989
 21
-2.86396200000002
  0
LINE
  5
1F3
100
AcDbEntity
  8
0
  6
CONTINUOUS
 62
             3
100
AcDbLine
 10
-222.64321399999989
 20
-4.0
 11
-221.22433299999989
 21
-1.581119
  0
LINE
  5
1F2
100
AcDbEntity
  8
0
  6
CONTINUOUS
 62
             3
100
AcDbLine
 10
-222.92605699999999
 20
-4.0
 11
-221.22433299999989
 21
-3.29827599999999
  0
LINE
  5
1F1
100
AcDbEntity
  8
0
  6
CONTINUOUS
 62
             3
100
AcDbLine
 10
-223.20889999999989
 20
-4.0
 11
-221.22433299999989
 21
-3.01543399999998
  0
LINE
  5
1F0
100
AcDbEntity
  8
0
  6
CONTINUOUS
 62
             3
100
AcDbLine
 10
-223.4917419999999
 20
-4.0
 11
-221.22433299999989
 21
-1.73259100000001
  0
LINE
  5
1EF
100
AcDbEntity
  8
0
  6
CONTINUOUS
 62
             3
100
AcDbLine
 10
-223.77458499999989
 20
-4.0
 11
-221.22433299999989
 21
-1.449748
  0
LINE
  5
1EE
100
AcDbEntity
  8
0
  6
CONTINUOUS
 62
             3
100
AcDbLine
 10
-224.0574279999999
 20
-4.0
 11
-221.22433299999989
 21
-1.16690599999998
  0
LINE
  5
1ED
100
AcDbEntity
  8
0
  6
CONTINUOUS
 62
             3
100
AcDbLine
 10
-224.34026999999989
 20
-4.0
 11
-221.22433299999989
 21
-0.88406299999997
  0
LINE
  5
1EC
100
AcDbEntity
  8
0
  6
CONTINUOUS
 62
             3
100
AcDbLine
 10
-224.6231129999999
 20
-4.0
 11
-221.22433299999989
 21
-0.60122000000001
  0
LINE
  5
1EB
100
AcDbEntity
  8
0
  6
CONTINUOUS
 62
             3
100
AcDbLine
 10
-224.90595599999989
 20
-4.0
 11
-221.22433299999989
 21
-0.31837699999999
  0
LINE
  5
1EA
100
AcDbEntity
  8
0
  6
CONTINUOUS
 62
             3
100
AcDbLine
 10
-225.1887989999999
 20
-4.0
 11
-221.22433299999989
 21
-0.03553499999999
  0
LINE
  5
1E9
100
AcDbEntity
  8
0
  6
CONTINUOUS
 62
             3
100
AcDbLine
 10
-225.47164099999989
 20
-4.0
 11
-221.47164099999989
 21
0.0
  0
LINE
  5
1E8
100
AcDbEntity
  8
0
  6
CONTINUOUS
 62
             3
100
AcDbLine
 10
-225.75448399999991
 20
-4.0
 11
-221.75448399999991
 21
0.0
  0
LINE
  5
1E7
100
AcDbEntity
  8
0
  6
CONTINUOUS
 62
             3
100
AcDbLine
 10
-226.03732699999989
 20
-4.0
 11
-222.03732699999989
 21
0.0
  0
LINE
  5
1E6
100
AcDbEntity
  8
0
  6
CONTINUOUS
 62
             3
100
AcDbLine
 10
-226.32016899999991
 20
-4.0
 11
-222.32016899999991
 21
0.0
  0
LINE
  5
1E5
100
AcDbEntity
  8
0
  6
CONTINUOUS
 62
             3
100
AcDbLine
 10
-226.60301199999989
 20
-4.0
 11
-222.60301199999989
 21
0.0
  0
LINE
  5
1E4
100
AcDbEntity
  8
0
  6
CONTINUOUS
 62
             3
100
AcDbLine
 10
-226.88585499999991
 20
-4.0
 11
-222.88585499999991
 21
0.0
  0
LINE
  5
1E3
100
AcDbEntity
  8
0
  6
CONTINUOUS
 62
             3
100
AcDbLine
 10
-227.16869799999989
 20
-4.0
 11
-223.16869799999989
 21
0.0
  0
LINE
  5
1E2
100
AcDbEntity
  8
0
  6
CONTINUOUS
 62
             3
100
AcDbLine
 10
-227.45153999999991
 20
-4.0
 11
-223.45153999999991
 21
0.0
  0
LINE
  5
1E1
100
AcDbEntity
  8
0
  6
CONTINUOUS
 62
             3
100
AcDbLine
 10
-227.73438299999989
 20
-4.0
 11
-223.73438299999989
 21
0.0
  0
LINE
  5
1E0
100
AcDbEntity
  8
0
  6
CONTINUOUS
 62
             3
100
AcDbLine
 10
-228.01722599999991
 20
-4.0
 11
-224.01722599999991
 21
0.0
  0
LINE
  5
1DF
100
AcDbEntity
  8
0
  6
CONTINUOUS
 62
             3
100
AcDbLine
 10
-228.30006800000001
 20
-4.0
 11
-224.30006800000001
 21
0.0
  0
LINE
  5
1DE
100
AcDbEntity
  8
0
  6
CONTINUOUS
 62
             3
100
AcDbLine
 10
-228.58291099999991
 20
-4.0
 11
-224.58291099999991
 21
0.0
  0
LINE
  5
1DD
100
AcDbEntity
  8
0
  6
CONTINUOUS
 62
             3
100
AcDbLine
 10
-228.8657539999999
 20
-4.0
 11
-224.8657539999999
 21
0.0
  0
LINE
  5
1DC
100
AcDbEntity
  8
0
  6
CONTINUOUS
 62
             3
100
AcDbLine
 10
-229.14859699999991
 20
-4.0
 11
-225.14859699999991
 21
0.0
  0
LINE
  5
1DB
100
AcDbEntity
  8
0
  6
CONTINUOUS
 62
             3
100
AcDbLine
 10
-229.43143900000001
 20
-4.0
 11
-225.43143900000001
 21
0.0
  0
LINE
  5
1DA
100
AcDbEntity
  8
0
  6
CONTINUOUS
 62
             3
100
AcDbLine
 10
-229.71428199999991
 20
-4.0
 11
-225.71428199999991
 21
0.0
  0
LINE
  5
1D9
100
AcDbEntity
  8
0
  6
CONTINUOUS
 62
             3
100
AcDbLine
 10
-229.9971249999999
 20
-4.0
 11
-225.9971249999999
 21
0.0
  0
LINE
  5
1D8
100
AcDbEntity
  8
0
  6
CONTINUOUS
 62
             3
100
AcDbLine
 10
-230.27996699999991
 20
-4.0
 11
-226.27996699999991
 21
0.0
  0
LINE
  5
1D7
100
AcDbEntity
  8
0
  6
CONTINUOUS
 62
             3
100
AcDbLine
 10
-230.56281000000001
 20
-4.0
 11
-226.56281000000001
 21
0.0
  0
LINE
  5
1D6
100
AcDbEntity
  8
0
  6
CONTINUOUS
 62
             3
100
AcDbLine
 10
-230.84565299999991
 20
-4.0
 11
-226.84565299999991
 21
0.0
  0
LINE
  5
1D5
100
AcDbEntity
  8
0
  6
CONTINUOUS
 62
             3
100
AcDbLine
 10
-231.1284959999999
 20
-4.0
 11
-227.1284959999999
 21
0.0
  0
LINE
  5
1D4
100
AcDbEntity
  8
0
  6
CONTINUOUS
 62
             3
100
AcDbLine
 10
-231.22433299999989
 20
-3.812995
 11
-227.41133799999989
 21
0.0
  0
LINE
  5
1D3
100
AcDbEntity
  8
0
  6
CONTINUOUS
 62
             3
100
AcDbLine
 10
-231.22433299999989
 20
-3.53015199999999
 11
-227.6941809999999
 21
0.0
  0
LINE
  5
1D2
100
AcDbEntity
  8
0
  6
CONTINUOUS
 62
             3
100
AcDbLine
 10
-231.22433299999989
 20
-3.24730999999997
 11
-227.97702399999989
 21
0.0
  0
LINE
  5
1D1
100
AcDbEntity
  8
0
  6
CONTINUOUS
 62
             3
100
AcDbLine
 10
-231.22433299999989
 20
-2.96446700000001
 11
-228.2598659999999
 21
0.0
  0
LINE
  5
1D0
100
AcDbEntity
  8
0
  6
CONTINUOUS
 62
             3
100
AcDbLine
 10
-231.22433299999989
 20
-1.681624
 11
-228.54270899999989
 21
0.0
  0
LINE
  5
1CF
100
AcDbEntity
  8
0
  6
CONTINUOUS
 62
             3
100
AcDbLine
 10
-231.22433299999989
 20
-1.39878099999999
 11
-228.8255519999999
 21
0.0
  0
LINE
  5
1CE
100
AcDbEntity
  8
0
  6
CONTINUOUS
 62
             3
100
AcDbLine
 10
-231.22433299999989
 20
-3.11593899999997
 11
-229.10839499999989
 21
0.0
  0
LINE
  5
1CD
100
AcDbEntity
  8
0
  6
CONTINUOUS
 62
             3
100
AcDbLine
 10
-231.22433299999989
 20
-1.83309600000001
 11
-229.3912369999999
 21
0.0
  0
LINE
  5
1CC
100
AcDbEntity
  8
0
  6
CONTINUOUS
 62
             3
100
AcDbLine
 10
-231.22433299999989
 20
-1.550253
 11
-229.67407999999989
 21
0.0
  0
LINE
  5
1CB
100
AcDbEntity
  8
0
  6
CONTINUOUS
 62
             3
100
AcDbLine
 10
-231.22433299999989
 20
-1.26741099999998
 11
-229.9569229999999
 21
0.0
  0
LINE
  5
1CA
100
AcDbEntity
  8
0
  6
CONTINUOUS
 62
             3
100
AcDbLine
 10
-231.22433299999989
 20
-0.98456799999997
 11
-230.23976499999989
 21
0.0
  0
LINE
  5
1C9
100
AcDbEntity
  8
0
  6
CONTINUOUS
 62
             3
100
AcDbLine
 10
-231.22433299999989
 20
-0.70172500000001
 11
-230.52260799999991
 21
0.0
  0
LINE
  5
1C8
100
AcDbEntity
  8
0
  6
CONTINUOUS
 62
             3
100
AcDbLine
 10
-231.22433299999989
 20
-0.418882
 11
-230.80545099999989
 21
0.0
  0
LINE
  5
1C7
100
AcDbEntity
  8
0
  6
CONTINUOUS
 62
             3
100
AcDbLine
 10
-231.22433299999989
 20
-0.13603999999998
 11
-231.08829299999991
 21
0.0
  0
LINE
  5
1C6
100
AcDbEntity
  8
0
  6
CONTINUOUS
 62
             3
100
AcDbLine
 10
-201.43001099999989
 20
-4.0
 11
-201.22433299999989
 21
-3.79432300000002
  0
LINE
  5
1C5
100
AcDbEntity
  8
0
  6
CONTINUOUS
 62
             3
100
AcDbLine
 10
-201.71285299999991
 20
-4.0
 11
-201.22433299999989
 21
-3.51148000000001
  0
LINE
  5
1C4
100
AcDbEntity
  8
0
  6
CONTINUOUS
 62
             3
100
AcDbLine
 10
-201.9956959999999
 20
-4.0
 11
-201.22433299999989
 21
-3.22863699999999
  0
LINE
  5
1C3
100
AcDbEntity
  8
0
  6
CONTINUOUS
 62
             3
100
AcDbLine
 10
-202.27853899999991
 20
-4.0
 11
-201.22433299999989
 21
-2.94579399999998
  0
LINE
  5
1C2
100
AcDbEntity
  8
0
  6
CONTINUOUS
 62
             3
100
AcDbLine
 10
-202.5613819999999
 20
-4.0
 11
-201.22433299999989
 21
-1.66295200000002
  0
LINE
  5
1C1
100
AcDbEntity
  8
0
  6
CONTINUOUS
 62
             3
100
AcDbLine
 10
-202.84422399999991
 20
-4.0
 11
-201.22433299999989
 21
-1.380109
  0
LINE
  5
1C0
100
AcDbEntity
  8
0
  6
CONTINUOUS
 62
             3
100
AcDbLine
 10
-203.1270669999999
 20
-4.0
 11
-201.22433299999989
 21
-3.09726599999999
  0
LINE
  5
1BF
100
AcDbEntity
  8
0
  6
CONTINUOUS
 62
             3
100
AcDbLine
 10
-203.40990999999991
 20
-4.0
 11
-201.22433299999989
 21
-1.81442399999997
  0
LINE
  5
1BE
100
AcDbEntity
  8
0
  6
CONTINUOUS
 62
             3
100
AcDbLine
 10
-203.6927519999999
 20
-4.00000000000001
 11
-201.22433299999989
 21
-1.53158100000002
  0
LINE
  5
1BD
100
AcDbEntity
  8
0
  6
CONTINUOUS
 62
             3
100
AcDbLine
 10
-203.97559499999991
 20
-4.0
 11
-201.22433299999989
 21
-1.248738
  0
LINE
  5
1BC
100
AcDbEntity
  8
0
  6
CONTINUOUS
 62
             3
100
AcDbLine
 10
-204.2584379999999
 20
-4.0
 11
-201.22433299999989
 21
-0.96589499999999
  0
LINE
  5
1BB
100
AcDbEntity
  8
0
  6
CONTINUOUS
 62
             3
100
AcDbLine
 10
-204.54128099999991
 20
-4.0
 11
-201.22433299999989
 21
-0.68305299999997
  0
LINE
  5
1BA
100
AcDbEntity
  8
0
  6
CONTINUOUS
 62
             3
100
AcDbLine
 10
-204.8241229999999
 20
-4.0
 11
-201.22433299999989
 21
-0.40021000000002
  0
LINE
  5
1B9
100
AcDbEntity
  8
0
  6
CONTINUOUS
 62
             3
100
AcDbLine
 10
-205.10696599999989
 20
-4.0
 11
-201.22433299999989
 21
-0.117367
  0
LINE
  5
1B8
100
AcDbEntity
  8
0
  6
CONTINUOUS
 62
             3
100
AcDbLine
 10
-205.3898089999999
 20
-4.0
 11
-201.3898089999999
 21
0.0
  0
LINE
  5
1B7
100
AcDbEntity
  8
0
  6
CONTINUOUS
 62
             3
100
AcDbLine
 10
-205.67265099999989
 20
-4.0
 11
-201.67265099999989
 21
0.0
  0
LINE
  5
1B6
100
AcDbEntity
  8
0
  6
CONTINUOUS
 62
             3
100
AcDbLine
 10
-205.9554939999999
 20
-4.0
 11
-201.9554939999999
 21
0.0
  0
LINE
  5
1B5
100
AcDbEntity
  8
0
  6
CONTINUOUS
 62
             3
100
AcDbLine
 10
-206.23833699999989
 20
-4.0
 11
-202.23833699999989
 21
0.0
  0
LINE
  5
1B4
100
AcDbEntity
  8
0
  6
CONTINUOUS
 62
             3
100
AcDbLine
 10
-206.5211799999999
 20
-4.0
 11
-202.5211799999999
 21
0.0
  0
LINE
  5
1B3
100
AcDbEntity
  8
0
  6
CONTINUOUS
 62
             3
100
AcDbLine
 10
-206.80402199999989
 20
-4.0
 11
-202.80402199999989
 21
0.0
  0
LINE
  5
1B2
100
AcDbEntity
  8
0
  6
CONTINUOUS
 62
             3
100
AcDbLine
 10
-207.0868649999999
 20
-4.0
 11
-203.0868649999999
 21
0.0
  0
LINE
  5
1B1
100
AcDbEntity
  8
0
  6
CONTINUOUS
 62
             3
100
AcDbLine
 10
-207.36970799999989
 20
-4.0
 11
-203.36970799999989
 21
0.0
  0
LINE
  5
1B0
100
AcDbEntity
  8
0
  6
CONTINUOUS
 62
             3
100
AcDbLine
 10
-207.65254999999991
 20
-4.0
 11
-203.65254999999991
 21
0.0
  0
LINE
  5
1AF
100
AcDbEntity
  8
0
  6
CONTINUOUS
 62
             3
100
AcDbLine
 10
-207.93539299999989
 20
-4.0
 11
-203.93539299999989
 21
0.0
  0
LINE
  5
1AE
100
AcDbEntity
  8
0
  6
CONTINUOUS
 62
             3
100
AcDbLine
 10
-208.21823599999991
 20
-4.0
 11
-204.21823599999991
 21
0.0
  0
LINE
  5
1AD
100
AcDbEntity
  8
0
  6
CONTINUOUS
 62
             3
100
AcDbLine
 10
-208.50107899999989
 20
-4.0
 11
-204.50107899999989
 21
0.0
  0
LINE
  5
1AC
100
AcDbEntity
  8
0
  6
CONTINUOUS
 62
             3
100
AcDbLine
 10
-208.78392099999991
 20
-4.0
 11
-204.78392099999991
 21
0.0
  0
LINE
  5
1AB
100
AcDbEntity
  8
0
  6
CONTINUOUS
 62
             3
100
AcDbLine
 10
-209.06676399999989
 20
-4.0
 11
-205.06676399999989
 21
0.0
  0
LINE
  5
1AA
100
AcDbEntity
  8
0
  6
CONTINUOUS
 62
             3
100
AcDbLine
 10
-209.34960699999991
 20
-4.0
 11
-205.34960699999991
 21
0.0
  0
LINE
  5
1A9
100
AcDbEntity
  8
0
  6
CONTINUOUS
 62
             3
100
AcDbLine
 10
-209.63244900000001
 20
-4.0
 11
-205.63244899999989
 21
0.0
  0
LINE
  5
1A8
100
AcDbEntity
  8
0
  6
CONTINUOUS
 62
             3
100
AcDbLine
 10
-209.91529199999991
 20
-4.0
 11
-205.91529199999991
 21
0.0
  0
LINE
  5
1A7
100
AcDbEntity
  8
0
  6
CONTINUOUS
 62
             3
100
AcDbLine
 10
-210.19813499999989
 20
-4.0
 11
-206.19813499999989
 21
0.0
  0
LINE
  5
1A6
100
AcDbEntity
  8
0
  6
CONTINUOUS
 62
             3
100
AcDbLine
 10
-210.48097799999991
 20
-4.0
 11
-206.48097799999991
 21
0.0
  0
LINE
  5
1A5
100
AcDbEntity
  8
0
  6
CONTINUOUS
 62
             3
100
AcDbLine
 10
-210.76382000000001
 20
-4.0
 11
-206.76382000000001
 21
0.0
  0
LINE
  5
1A4
100
AcDbEntity
  8
0
  6
CONTINUOUS
 62
             3
100
AcDbLine
 10
-211.04666299999991
 20
-4.0
 11
-207.04666299999991
 21
0.0
  0
LINE
  5
1A3
100
AcDbEntity
  8
0
  6
CONTINUOUS
 62
             3
100
AcDbLine
 10
-211.22433299999989
 20
-3.89482800000002
 11
-207.3295059999999
 21
0.0
  0
LINE
  5
1A2
100
AcDbEntity
  8
0
  6
CONTINUOUS
 62
             3
100
AcDbLine
 10
-211.22433299999989
 20
-3.611985
 11
-207.61234799999991
 21
0.0
  0
LINE
  5
1A1
100
AcDbEntity
  8
0
  6
CONTINUOUS
 62
             3
100
AcDbLine
 10
-211.22433299999989
 20
-3.32914199999999
 11
-207.89519100000001
 21
0.0
  0
LINE
  5
1A0
100
AcDbEntity
  8
0
  6
CONTINUOUS
 62
             3
100
AcDbLine
 10
-211.22433299999989
 20
-3.04629899999998
 11
-208.17803399999991
 21
0.0
  0
LINE
  5
19F
100
AcDbEntity
  8
0
  6
CONTINUOUS
 62
             3
100
AcDbLine
 10
-211.22433299999989
 20
-1.76345700000002
 11
-208.4608759999999
 21
0.0
  0
LINE
  5
19E
100
AcDbEntity
  8
0
  6
CONTINUOUS
 62
             3
100
AcDbLine
 10
-211.22433299999989
 20
-1.480614
 11
-208.74371899999991
 21
0.0
  0
LINE
  5
19D
100
AcDbEntity
  8
0
  6
CONTINUOUS
 62
             3
100
AcDbLine
 10
-211.22433299999989
 20
-3.19777099999999
 11
-209.02656200000001
 21
0.0
  0
LINE
  5
19C
100
AcDbEntity
  8
0
  6
CONTINUOUS
 62
             3
100
AcDbLine
 10
-211.22433299999989
 20
-2.91492899999997
 11
-209.30940499999991
 21
0.0
  0
LINE
  5
19B
100
AcDbEntity
  8
0
  6
CONTINUOUS
 62
             3
100
AcDbLine
 10
-211.22433299999989
 20
-1.63208600000002
 11
-209.5922469999999
 21
0.0
  0
LINE
  5
19A
100
AcDbEntity
  8
0
  6
CONTINUOUS
 62
             3
100
AcDbLine
 10
-211.22433299999989
 20
-1.349243
 11
-209.87508999999989
 21
0.0
  0
LINE
  5
199
100
AcDbEntity
  8
0
  6
CONTINUOUS
 62
             3
100
AcDbLine
 10
-211.22433299999989
 20
-1.06639999999999
 11
-210.15793300000001
 21
0.0
  0
LINE
  5
198
100
AcDbEntity
  8
0
  6
CONTINUOUS
 62
             3
100
AcDbLine
 10
-211.22433299999989
 20
-0.78355799999997
 11
-210.44077499999989
 21
0.0
  0
LINE
  5
197
100
AcDbEntity
  8
0
  6
CONTINUOUS
 62
             3
100
AcDbLine
 10
-211.22433299999989
 20
-0.50071500000001
 11
-210.7236179999999
 21
0.0
  0
LINE
  5
196
100
AcDbEntity
  8
0
  6
CONTINUOUS
 62
             3
100
AcDbLine
 10
-211.22433299999989
 20
-0.217872
 11
-211.00646099999989
 21
0.0
  0
LINE
  5
195
100
AcDbEntity
  8
0
  6
CONTINUOUS
 62
             3
100
AcDbLine
 10
-181.3481779999999
 20
-4.0
 11
-181.22433299999989
 21
-3.87615499999998
  0
LINE
  5
194
100
AcDbEntity
  8
0
  6
CONTINUOUS
 62
             3
100
AcDbLine
 10
-181.63102099999989
 20
-4.0
 11
-181.22433299999989
 21
-3.59331199999997
  0
LINE
  5
193
100
AcDbEntity
  8
0
  6
CONTINUOUS
 62
             3
100
AcDbLine
 10
-181.9138639999999
 20
-4.0
 11
-181.22433299999989
 21
-3.31047000000001
  0
LINE
  5
192
100
AcDbEntity
  8
0
  6
CONTINUOUS
 62
             3
100
AcDbLine
 10
-182.19670599999989
 20
-4.0
 11
-181.22433299999989
 21
-3.027627
  0
LINE
  5
191
100
AcDbEntity
  8
0
  6
CONTINUOUS
 62
             3
100
AcDbLine
 10
-182.47954899999991
 20
-4.0
 11
-181.22433299999989
 21
-1.74478399999998
  0
LINE
  5
190
100
AcDbEntity
  8
0
  6
CONTINUOUS
 62
             3
100
AcDbLine
 10
-182.76239199999989
 20
-4.0
 11
-181.22433299999989
 21
-1.46194199999997
  0
LINE
  5
18F
100
AcDbEntity
  8
0
  6
CONTINUOUS
 62
             3
100
AcDbLine
 10
-183.04523399999991
 20
-4.0
 11
-181.22433299999989
 21
-3.17909900000001
  0
LINE
  5
18E
100
AcDbEntity
  8
0
  6
CONTINUOUS
 62
             3
100
AcDbLine
 10
-183.32807699999989
 20
-4.0
 11
-181.22433299999989
 21
-2.89625599999999
  0
LINE
  5
18D
100
AcDbEntity
  8
0
  6
CONTINUOUS
 62
             3
100
AcDbLine
 10
-183.61091999999991
 20
-4.0
 11
-181.22433299999989
 21
-1.61341299999998
  0
LINE
  5
18C
100
AcDbEntity
  8
0
  6
CONTINUOUS
 62
             3
100
AcDbLine
 10
-183.89376300000001
 20
-4.0
 11
-181.22433299999989
 21
-1.33057100000002
  0
LINE
  5
18B
100
AcDbEntity
  8
0
  6
CONTINUOUS
 62
             3
100
AcDbLine
 10
-184.17660499999991
 20
-4.0
 11
-181.22433299999989
 21
-1.04772800000001
  0
LINE
  5
18A
100
AcDbEntity
  8
0
  6
CONTINUOUS
 62
             3
100
AcDbLine
 10
-184.4594479999999
 20
-4.0
 11
-181.22433299999989
 21
-0.76488499999999
  0
LINE
  5
189
100
AcDbEntity
  8
0
  6
CONTINUOUS
 62
             3
100
AcDbLine
 10
-184.74229099999991
 20
-4.0
 11
-181.22433299999989
 21
-0.48204299999998
  0
LINE
  5
188
100
AcDbEntity
  8
0
  6
CONTINUOUS
 62
             3
100
AcDbLine
 10
-185.0251329999999
 20
-4.0
 11
-181.22433299999989
 21
-0.19920000000002
  0
LINE
  5
187
100
AcDbEntity
  8
0
  6
CONTINUOUS
 62
             3
100
AcDbLine
 10
-185.30797599999991
 20
-4.0
 11
-181.30797599999991
 21
0.0
  0
LINE
  5
186
100
AcDbEntity
  8
0
  6
CONTINUOUS
 62
             3
100
AcDbLine
 10
-185.5908189999999
 20
-4.0
 11
-181.5908189999999
 21
0.0
  0
LINE
  5
185
100
AcDbEntity
  8
0
  6
CONTINUOUS
 62
             3
100
AcDbLine
 10
-185.87366199999991
 20
-4.0
 11
-181.87366199999991
 21
0.0
  0
LINE
  5
184
100
AcDbEntity
  8
0
  6
CONTINUOUS
 62
             3
100
AcDbLine
 10
-186.1565039999999
 20
-4.0
 11
-182.1565039999999
 21
0.0
  0
LINE
  5
183
100
AcDbEntity
  8
0
  6
CONTINUOUS
 62
             3
100
AcDbLine
 10
-186.43934699999991
 20
-4.0
 11
-182.43934699999991
 21
0.0
  0
LINE
  5
182
100
AcDbEntity
  8
0
  6
CONTINUOUS
 62
             3
100
AcDbLine
 10
-186.7221899999999
 20
-4.0
 11
-182.7221899999999
 21
0.0
  0
LINE
  5
181
100
AcDbEntity
  8
0
  6
CONTINUOUS
 62
             3
100
AcDbLine
 10
-187.00503199999989
 20
-4.0
 11
-183.00503199999989
 21
0.0
  0
LINE
  5
180
100
AcDbEntity
  8
0
  6
CONTINUOUS
 62
             3
100
AcDbLine
 10
-187.2878749999999
 20
-4.0
 11
-183.2878749999999
 21
0.0
  0
LINE
  5
17F
100
AcDbEntity
  8
0
  6
CONTINUOUS
 62
             3
100
AcDbLine
 10
-187.57071799999991
 20
-4.0
 11
-183.57071799999991
 21
0.0
  0
LINE
  5
17E
100
AcDbEntity
  8
0
  6
CONTINUOUS
 62
             3
100
AcDbLine
 10
-187.8535609999999
 20
-4.0
 11
-183.8535609999999
 21
0.0
  0
LINE
  5
17D
100
AcDbEntity
  8
0
  6
CONTINUOUS
 62
             3
100
AcDbLine
 10
-188.13640299999989
 20
-4.0
 11
-184.13640299999989
 21
0.0
  0
LINE
  5
17C
100
AcDbEntity
  8
0
  6
CONTINUOUS
 62
             3
100
AcDbLine
 10
-188.4192459999999
 20
-4.0
 11
-184.4192459999999
 21
0.0
  0
LINE
  5
17B
100
AcDbEntity
  8
0
  6
CONTINUOUS
 62
             3
100
AcDbLine
 10
-188.70208899999989
 20
-4.0
 11
-184.70208899999989
 21
0.0
  0
LINE
  5
17A
100
AcDbEntity
  8
0
  6
CONTINUOUS
 62
             3
100
AcDbLine
 10
-188.9849309999999
 20
-4.0
 11
-184.9849309999999
 21
0.0
  0
LINE
  5
179
100
AcDbEntity
  8
0
  6
CONTINUOUS
 62
             3
100
AcDbLine
 10
-189.26777399999989
 20
-4.0
 11
-185.26777399999989
 21
0.0
  0
LINE
  5
178
100
AcDbEntity
  8
0
  6
CONTINUOUS
 62
             3
100
AcDbLine
 10
-189.5506169999999
 20
-4.0
 11
-185.5506169999999
 21
0.0
  0
LINE
  5
177
100
AcDbEntity
  8
0
  6
CONTINUOUS
 62
             3
100
AcDbLine
 10
-189.83345899999989
 20
-4.0
 11
-185.83345899999989
 21
0.0
  0
LINE
  5
176
100
AcDbEntity
  8
0
  6
CONTINUOUS
 62
             3
100
AcDbLine
 10
-190.11630199999991
 20
-4.0
 11
-186.11630199999991
 21
0.0
  0
LINE
  5
175
100
AcDbEntity
  8
0
  6
CONTINUOUS
 62
             3
100
AcDbLine
 10
-190.39914499999989
 20
-4.0
 11
-186.39914499999989
 21
0.0
  0
LINE
  5
174
100
AcDbEntity
  8
0
  6
CONTINUOUS
 62
             3
100
AcDbLine
 10
-190.6819879999999
 20
-4.0
 11
-186.6819879999999
 21
0.0
  0
LINE
  5
173
100
AcDbEntity
  8
0
  6
CONTINUOUS
 62
             3
100
AcDbLine
 10
-190.96482999999989
 20
-4.0
 11
-186.96482999999989
 21
0.0
  0
LINE
  5
172
100
AcDbEntity
  8
0
  6
CONTINUOUS
 62
             3
100
AcDbLine
 10
-191.22433299999989
 20
-3.97665999999998
 11
-187.24767299999991
 21
0.0
  0
LINE
  5
171
100
AcDbEntity
  8
0
  6
CONTINUOUS
 62
             3
100
AcDbLine
 10
-191.22433299999989
 20
-3.69381699999997
 11
-187.53051599999989
 21
0.0
  0
LINE
  5
170
100
AcDbEntity
  8
0
  6
CONTINUOUS
 62
             3
100
AcDbLine
 10
-191.22433299999989
 20
-3.41097500000001
 11
-187.81335799999991
 21
0.0
  0
LINE
  5
16F
100
AcDbEntity
  8
0
  6
CONTINUOUS
 62
             3
100
AcDbLine
 10
-191.22433299999989
 20
-3.12813199999999
 11
-188.09620099999989
 21
0.0
  0
LINE
  5
16E
100
AcDbEntity
  8
0
  6
CONTINUOUS
 62
             3
100
AcDbLine
 10
-191.22433299999989
 20
-1.84528899999998
 11
-188.37904399999991
 21
0.0
  0
LINE
  5
16D
100
AcDbEntity
  8
0
  6
CONTINUOUS
 62
             3
100
AcDbLine
 10
-191.22433299999989
 20
-1.56244700000002
 11
-188.66188700000001
 21
0.00000000000001
  0
LINE
  5
16C
100
AcDbEntity
  8
0
  6
CONTINUOUS
 62
             3
100
AcDbLine
 10
-191.22433299999989
 20
-3.27960400000001
 11
-188.94472899999991
 21
0.0
  0
LINE
  5
16B
100
AcDbEntity
  8
0
  6
CONTINUOUS
 62
             3
100
AcDbLine
 10
-191.22433299999989
 20
-2.99676099999999
 11
-189.2275719999999
 21
0.0
  0
LINE
  5
16A
100
AcDbEntity
  8
0
  6
CONTINUOUS
 62
             3
100
AcDbLine
 10
-191.22433299999989
 20
-1.71391799999998
 11
-189.51041499999991
 21
0.0
  0
LINE
  5
169
100
AcDbEntity
  8
0
  6
CONTINUOUS
 62
             3
100
AcDbLine
 10
-191.22433299999989
 20
-1.43107600000002
 11
-189.7932569999999
 21
0.0
  0
LINE
  5
168
100
AcDbEntity
  8
0
  6
CONTINUOUS
 62
             3
100
AcDbLine
 10
-191.22433299999989
 20
-1.148233
 11
-190.07609999999991
 21
0.0
  0
LINE
  5
167
100
AcDbEntity
  8
0
  6
CONTINUOUS
 62
             3
100
AcDbLine
 10
-191.22433299999989
 20
-0.86538999999999
 11
-190.3589429999999
 21
0.0
  0
LINE
  5
166
100
AcDbEntity
  8
0
  6
CONTINUOUS
 62
             3
100
AcDbLine
 10
-191.22433299999989
 20
-0.58254799999998
 11
-190.64178599999991
 21
0.0
  0
LINE
  5
165
100
AcDbEntity
  8
0
  6
CONTINUOUS
 62
             3
100
AcDbLine
 10
-191.22433299999989
 20
-0.29970500000002
 11
-190.9246279999999
 21
0.0
  0
LINE
  5
164
100
AcDbEntity
  8
0
  6
CONTINUOUS
 62
             3
100
AcDbLine
 10
-191.22433299999989
 20
-0.016862
 11
-191.20747099999991
 21
0.0
  0
LINE
  5
163
100
AcDbEntity
  8
0
  6
CONTINUOUS
 62
             3
100
AcDbLine
 10
-161.26634599999991
 20
-4.0
 11
-161.22433299999989
 21
-3.957988
  0
LINE
  5
162
100
AcDbEntity
  8
0
  6
CONTINUOUS
 62
             3
100
AcDbLine
 10
-161.5491879999999
 20
-4.0
 11
-161.22433299999989
 21
-3.67514499999999
  0
LINE
  5
161
100
AcDbEntity
  8
0
  6
CONTINUOUS
 62
             3
100
AcDbLine
 10
-161.83203099999989
 20
-4.0
 11
-161.22433299999989
 21
-3.39230199999997
  0
LINE
  5
160
100
AcDbEntity
  8
0
  6
CONTINUOUS
 62
             3
100
AcDbLine
 10
-162.1148739999999
 20
-4.0
 11
-161.22433299999989
 21
-3.10946000000001
  0
LINE
  5
15F
100
AcDbEntity
  8
0
  6
CONTINUOUS
 62
             3
100
AcDbLine
 10
-162.39771599999989
 20
-4.0
 11
-161.22433299999989
 21
-1.826617
  0
LINE
  5
15E
100
AcDbEntity
  8
0
  6
CONTINUOUS
 62
             3
100
AcDbLine
 10
-162.6805589999999
 20
-4.0
 11
-161.22433299999989
 21
-1.54377399999999
  0
LINE
  5
15D
100
AcDbEntity
  8
0
  6
CONTINUOUS
 62
             3
100
AcDbLine
 10
-162.96340199999989
 20
-4.0
 11
-161.22433299999989
 21
-3.26093099999997
  0
LINE
  5
15C
100
AcDbEntity
  8
0
  6
CONTINUOUS
 62
             3
100
AcDbLine
 10
-163.2462449999999
 20
-4.0
 11
-161.22433299999989
 21
-2.97808900000002
  0
LINE
  5
15B
100
AcDbEntity
  8
0
  6
CONTINUOUS
 62
             3
100
AcDbLine
 10
-163.52908699999989
 20
-4.0
 11
-161.22433299999989
 21
-1.695246
  0
LINE
  5
15A
100
AcDbEntity
  8
0
  6
CONTINUOUS
 62
             3
100
AcDbLine
 10
-163.8119299999999
 20
-4.0
 11
-161.22433299999989
 21
-1.41240299999998
  0
LINE
  5
159
100
AcDbEntity
  8
0
  6
CONTINUOUS
 62
             3
100
AcDbLine
 10
-164.09477299999989
 20
-4.0
 11
-161.22433299999989
 21
-1.12956099999996
  0
LINE
  5
158
100
AcDbEntity
  8
0
  6
CONTINUOUS
 62
             3
100
AcDbLine
 10
-164.37761499999991
 20
-4.0
 11
-161.22433299999989
 21
-0.84671800000001
  0
LINE
  5
157
100
AcDbEntity
  8
0
  6
CONTINUOUS
 62
             3
100
AcDbLine
 10
-164.66045799999989
 20
-4.0
 11
-161.22433299999989
 21
-0.563875
  0
LINE
  5
156
100
AcDbEntity
  8
0
  6
CONTINUOUS
 62
             3
100
AcDbLine
 10
-164.94330099999991
 20
-4.0
 11
-161.22433299999989
 21
-0.28103199999998
  0
LINE
  5
155
100
AcDbEntity
  8
0
  6
CONTINUOUS
 62
             3
100
AcDbLine
 10
-165.22614399999989
 20
-4.0
 11
-161.22614399999989
 21
0.0
  0
LINE
  5
154
100
AcDbEntity
  8
0
  6
CONTINUOUS
 62
             3
100
AcDbLine
 10
-165.50898599999991
 20
-4.0
 11
-161.50898599999991
 21
0.0
  0
LINE
  5
153
100
AcDbEntity
  8
0
  6
CONTINUOUS
 62
             3
100
AcDbLine
 10
-165.79182900000001
 20
-4.0
 11
-161.79182900000001
 21
0.0
  0
LINE
  5
152
100
AcDbEntity
  8
0
  6
CONTINUOUS
 62
             3
100
AcDbLine
 10
-166.07467199999991
 20
-4.0
 11
-162.07467199999991
 21
0.0
  0
LINE
  5
151
100
AcDbEntity
  8
0
  6
CONTINUOUS
 62
             3
100
AcDbLine
 10
-166.3575139999999
 20
-4.0
 11
-162.3575139999999
 21
0.0
  0
LINE
  5
150
100
AcDbEntity
  8
0
  6
CONTINUOUS
 62
             3
100
AcDbLine
 10
-166.64035699999991
 20
-4.0
 11
-162.64035699999991
 21
0.0
  0
LINE
  5
14F
100
AcDbEntity
  8
0
  6
CONTINUOUS
 62
             3
100
AcDbLine
 10
-166.92319999999989
 20
-4.0
 11
-162.92319999999989
 21
0.0
  0
LINE
  5
14E
100
AcDbEntity
  8
0
  6
CONTINUOUS
 62
             3
100
AcDbLine
 10
-167.20604299999991
 20
-4.0
 11
-163.20604299999991
 21
0.0
  0
LINE
  5
14D
100
AcDbEntity
  8
0
  6
CONTINUOUS
 62
             3
100
AcDbLine
 10
-167.4888849999999
 20
-4.0
 11
-163.4888849999999
 21
0.0
  0
LINE
  5
14C
100
AcDbEntity
  8
0
  6
CONTINUOUS
 62
             3
100
AcDbLine
 10
-167.77172799999991
 20
-4.0
 11
-163.77172799999991
 21
0.0
  0
LINE
  5
14B
100
AcDbEntity
  8
0
  6
CONTINUOUS
 62
             3
100
AcDbLine
 10
-168.0545709999999
 20
-4.0
 11
-164.0545709999999
 21
0.0
  0
LINE
  5
14A
100
AcDbEntity
  8
0
  6
CONTINUOUS
 62
             3
100
AcDbLine
 10
-168.33741299999991
 20
-4.0
 11
-164.33741299999991
 21
0.0
  0
LINE
  5
149
100
AcDbEntity
  8
0
  6
CONTINUOUS
 62
             3
100
AcDbLine
 10
-168.6202559999999
 20
-4.0
 11
-164.6202559999999
 21
0.0
  0
LINE
  5
148
100
AcDbEntity
  8
0
  6
CONTINUOUS
 62
             3
100
AcDbLine
 10
-168.90309899999991
 20
-4.0
 11
-164.90309899999991
 21
0.0
  0
LINE
  5
147
100
AcDbEntity
  8
0
  6
CONTINUOUS
 62
             3
100
AcDbLine
 10
-169.1859409999999
 20
-4.0
 11
-165.1859409999999
 21
0.0
  0
LINE
  5
146
100
AcDbEntity
  8
0
  6
CONTINUOUS
 62
             3
100
AcDbLine
 10
-169.46878399999991
 20
-4.0
 11
-165.46878399999991
 21
0.0
  0
LINE
  5
145
100
AcDbEntity
  8
0
  6
CONTINUOUS
 62
             3
100
AcDbLine
 10
-169.7516269999999
 20
-4.0
 11
-165.7516269999999
 21
0.0
  0
LINE
  5
144
100
AcDbEntity
  8
0
  6
CONTINUOUS
 62
             3
100
AcDbLine
 10
-170.03446999999991
 20
-4.0
 11
-166.03446999999991
 21
0.0
  0
LINE
  5
143
100
AcDbEntity
  8
0
  6
CONTINUOUS
 62
             3
100
AcDbLine
 10
-170.3173119999999
 20
-4.0
 11
-166.3173119999999
 21
0.0
  0
LINE
  5
142
100
AcDbEntity
  8
0
  6
CONTINUOUS
 62
             3
100
AcDbLine
 10
-170.60015499999989
 20
-4.0
 11
-166.60015499999989
 21
0.0
  0
LINE
  5
141
100
AcDbEntity
  8
0
  6
CONTINUOUS
 62
             3
100
AcDbLine
 10
-170.8829979999999
 20
-4.0
 11
-166.8829979999999
 21
0.0
  0
LINE
  5
140
100
AcDbEntity
  8
0
  6
CONTINUOUS
 62
             3
100
AcDbLine
 10
-171.16583999999989
 20
-4.0
 11
-167.16583999999989
 21
0.0
  0
LINE
  5
13F
100
AcDbEntity
  8
0
  6
CONTINUOUS
 62
             3
100
AcDbLine
 10
-171.22433299999989
 20
-3.77564999999999
 11
-167.4486829999999
 21
0.0
  0
LINE
  5
13E
100
AcDbEntity
  8
0
  6
CONTINUOUS
 62
             3
100
AcDbLine
 10
-171.22433299999989
 20
-3.49280699999997
 11
-167.73152599999989
 21
0.0
  0
LINE
  5
13D
100
AcDbEntity
  8
0
  6
CONTINUOUS
 62
             3
100
AcDbLine
 10
-171.22433299999989
 20
-3.20996500000001
 11
-168.0143689999999
 21
0.0
  0
LINE
  5
13C
100
AcDbEntity
  8
0
  6
CONTINUOUS
 62
             3
100
AcDbLine
 10
-171.22433299999989
 20
-2.927122
 11
-168.29721099999989
 21
0.0
  0
LINE
  5
13B
100
AcDbEntity
  8
0
  6
CONTINUOUS
 62
             3
100
AcDbLine
 10
-171.22433299999989
 20
-1.64427899999998
 11
-168.5800539999999
 21
0.0
  0
LINE
  5
13A
100
AcDbEntity
  8
0
  6
CONTINUOUS
 62
             3
100
AcDbLine
 10
-171.22433299999989
 20
-1.36143599999997
 11
-168.86289699999989
 21
0.00000000000001
  0
LINE
  5
139
100
AcDbEntity
  8
0
  6
CONTINUOUS
 62
             3
100
AcDbLine
 10
-171.22433299999989
 20
-3.07859400000001
 11
-169.14573899999991
 21
0.0
  0
LINE
  5
138
100
AcDbEntity
  8
0
  6
CONTINUOUS
 62
             3
100
AcDbLine
 10
-171.22433299999989
 20
-1.795751
 11
-169.42858199999989
 21
0.0
  0
LINE
  5
137
100
AcDbEntity
  8
0
  6
CONTINUOUS
 62
             3
100
AcDbLine
 10
-171.22433299999989
 20
-1.51290799999998
 11
-169.71142499999991
 21
0.0
  0
LINE
  5
136
100
AcDbEntity
  8
0
  6
CONTINUOUS
 62
             3
100
AcDbLine
 10
-171.22433299999989
 20
-1.23006599999997
 11
-169.99426799999989
 21
0.0
  0
LINE
  5
135
100
AcDbEntity
  8
0
  6
CONTINUOUS
 62
             3
100
AcDbLine
 10
-171.22433299999989
 20
-0.94722300000001
 11
-170.27710999999991
 21
0.0
  0
LINE
  5
134
100
AcDbEntity
  8
0
  6
CONTINUOUS
 62
             3
100
AcDbLine
 10
-171.22433299999989
 20
-0.66437999999999
 11
-170.55995300000001
 21
0.0
  0
LINE
  5
133
100
AcDbEntity
  8
0
  6
CONTINUOUS
 62
             3
100
AcDbLine
 10
-171.22433299999989
 20
-0.38153699999998
 11
-170.84279599999991
 21
0.0
  0
LINE
  5
132
100
AcDbEntity
  8
0
  6
CONTINUOUS
 62
             3
100
AcDbLine
 10
-171.22433299999989
 20
-0.09869500000002
 11
-171.1256379999999
 21
0.0
  0
LINE
  5
131
100
AcDbEntity
  8
0
  6
CONTINUOUS
 62
             3
100
AcDbLine
 10
171.07592600000001
 20
-3.99791599999998
 11
171.22433300000009
 21
-3.84950800000001
  0
LINE
  5
130
100
AcDbEntity
  8
0
  6
CONTINUOUS
 62
             3
100
AcDbLine
 10
170.79308300000011
 20
-3.99791599999998
 11
171.22433300000009
 21
-3.566666
  0
LINE
  5
12F
100
AcDbEntity
  8
0
  6
CONTINUOUS
 62
             3
100
AcDbLine
 10
170.51024100000009
 20
-3.99791599999998
 11
171.22433300000009
 21
-3.28382299999998
  0
LINE
  5
12E
100
AcDbEntity
  8
0
  6
CONTINUOUS
 62
             3
100
AcDbLine
 10
170.22739800000011
 20
-3.99791599999998
 11
171.22433300000009
 21
-3.00097999999997
  0
LINE
  5
12D
100
AcDbEntity
  8
0
  6
CONTINUOUS
 62
             3
100
AcDbLine
 10
169.94455500000001
 20
-3.99791599999998
 11
171.22433300000009
 21
-1.71813800000001
  0
LINE
  5
12C
100
AcDbEntity
  8
0
  6
CONTINUOUS
 62
             3
100
AcDbLine
 10
169.66171300000011
 20
-3.99791599999998
 11
171.22433300000009
 21
-1.435295
  0
LINE
  5
12B
100
AcDbEntity
  8
0
  6
CONTINUOUS
 62
             3
100
AcDbLine
 10
169.37887000000009
 20
-3.99791599999998
 11
171.22433300000009
 21
-3.15245199999999
  0
LINE
  5
12A
100
AcDbEntity
  8
0
  6
CONTINUOUS
 62
             3
100
AcDbLine
 10
169.09602699999999
 20
-3.99791599999998
 11
171.22433300000009
 21
-2.86960899999997
  0
LINE
  5
129
100
AcDbEntity
  8
0
  6
CONTINUOUS
 62
             3
100
AcDbLine
 10
168.81318400000009
 20
-3.99791599999998
 11
171.22433300000009
 21
-1.58676700000001
  0
LINE
  5
128
100
AcDbEntity
  8
0
  6
CONTINUOUS
 62
             3
100
AcDbLine
 10
168.5303420000001
 20
-3.99791599999998
 11
171.22433300000009
 21
-1.303924
  0
LINE
  5
127
100
AcDbEntity
  8
0
  6
CONTINUOUS
 62
             3
100
AcDbLine
 10
168.24749900000009
 20
-3.99791599999998
 11
171.22433300000009
 21
-1.02108099999998
  0
LINE
  5
126
100
AcDbEntity
  8
0
  6
CONTINUOUS
 62
             3
100
AcDbLine
 10
167.96465599999999
 20
-3.99791599999997
 11
171.22433300000009
 21
-0.73823899999996
  0
LINE
  5
125
100
AcDbEntity
  8
0
  6
CONTINUOUS
 62
             3
100
AcDbLine
 10
167.68181400000009
 20
-3.99791599999998
 11
171.22433300000009
 21
-0.45539600000001
  0
LINE
  5
124
100
AcDbEntity
  8
0
  6
CONTINUOUS
 62
             3
100
AcDbLine
 10
167.3989710000001
 20
-3.99791599999998
 11
171.22433300000009
 21
-0.17255299999999
  0
LINE
  5
123
100
AcDbEntity
  8
0
  6
CONTINUOUS
 62
             3
100
AcDbLine
 10
167.11612800000009
 20
-3.99791599999998
 11
171.11612800000009
 21
0.00208400000002
  0
LINE
  5
122
100
AcDbEntity
  8
0
  6
CONTINUOUS
 62
             3
100
AcDbLine
 10
166.83328499999999
 20
-3.99791599999998
 11
170.83328499999999
 21
0.00208400000002
  0
LINE
  5
121
100
AcDbEntity
  8
0
  6
CONTINUOUS
 62
             3
100
AcDbLine
 10
166.55044300000009
 20
-3.99791599999998
 11
170.55044300000009
 21
0.00208400000002
  0
LINE
  5
120
100
AcDbEntity
  8
0
  6
CONTINUOUS
 62
             3
100
AcDbLine
 10
166.2676000000001
 20
-3.99791599999998
 11
170.2676000000001
 21
0.00208400000002
  0
LINE
  5
11F
100
AcDbEntity
  8
0
  6
CONTINUOUS
 62
             3
100
AcDbLine
 10
165.98475700000009
 20
-3.99791599999998
 11
169.98475700000009
 21
0.00208400000002
  0
LINE
  5
11E
100
AcDbEntity
  8
0
  6
CONTINUOUS
 62
             3
100
AcDbLine
 10
165.70191500000001
 20
-3.99791599999998
 11
169.70191500000001
 21
0.00208400000002
  0
LINE
  5
11D
100
AcDbEntity
  8
0
  6
CONTINUOUS
 62
             3
100
AcDbLine
 10
165.41907200000011
 20
-3.99791599999998
 11
169.41907200000011
 21
0.00208400000002
  0
LINE
  5
11C
100
AcDbEntity
  8
0
  6
CONTINUOUS
 62
             3
100
AcDbLine
 10
165.1362290000001
 20
-3.99791599999998
 11
169.1362290000001
 21
0.00208400000002
  0
LINE
  5
11B
100
AcDbEntity
  8
0
  6
CONTINUOUS
 62
             3
100
AcDbLine
 10
164.85338600000011
 20
-3.99791599999998
 11
168.85338600000011
 21
0.00208400000002
  0
LINE
  5
11A
100
AcDbEntity
  8
0
  6
CONTINUOUS
 62
             3
100
AcDbLine
 10
164.57054400000001
 20
-3.99791599999998
 11
168.57054400000001
 21
0.00208400000002
  0
LINE
  5
119
100
AcDbEntity
  8
0
  6
CONTINUOUS
 62
             3
100
AcDbLine
 10
164.28770100000011
 20
-3.99791599999998
 11
168.28770100000011
 21
0.00208400000002
  0
LINE
  5
118
100
AcDbEntity
  8
0
  6
CONTINUOUS
 62
             3
100
AcDbLine
 10
164.0048580000001
 20
-3.99791599999998
 11
168.0048580000001
 21
0.00208400000002
  0
LINE
  5
117
100
AcDbEntity
  8
0
  6
CONTINUOUS
 62
             3
100
AcDbLine
 10
163.72201600000011
 20
-3.99791599999998
 11
167.72201600000011
 21
0.00208400000002
  0
LINE
  5
116
100
AcDbEntity
  8
0
  6
CONTINUOUS
 62
             3
100
AcDbLine
 10
163.43917300000001
 20
-3.99791599999998
 11
167.43917300000001
 21
0.00208400000002
  0
LINE
  5
115
100
AcDbEntity
  8
0
  6
CONTINUOUS
 62
             3
100
AcDbLine
 10
163.15633000000011
 20
-3.99791599999998
 11
167.15633000000011
 21
0.00208400000002
  0
LINE
  5
114
100
AcDbEntity
  8
0
  6
CONTINUOUS
 62
             3
100
AcDbLine
 10
162.8734870000001
 20
-3.99791599999998
 11
166.8734870000001
 21
0.00208400000002
  0
LINE
  5
113
100
AcDbEntity
  8
0
  6
CONTINUOUS
 62
             3
100
AcDbLine
 10
162.59064500000011
 20
-3.99791599999998
 11
166.59064500000011
 21
0.00208400000002
  0
LINE
  5
112
100
AcDbEntity
  8
0
  6
CONTINUOUS
 62
             3
100
AcDbLine
 10
162.30780200000001
 20
-3.99791599999998
 11
166.30780200000001
 21
0.00208400000002
  0
LINE
  5
111
100
AcDbEntity
  8
0
  6
CONTINUOUS
 62
             3
100
AcDbLine
 10
162.02495900000011
 20
-3.99791599999998
 11
166.02495900000011
 21
0.00208400000002
  0
LINE
  5
110
100
AcDbEntity
  8
0
  6
CONTINUOUS
 62
             3
100
AcDbLine
 10
161.74211700000009
 20
-3.99791599999998
 11
165.74211700000009
 21
0.00208400000002
  0
LINE
  5
10F
100
AcDbEntity
  8
0
  6
CONTINUOUS
 62
             3
100
AcDbLine
 10
161.45927400000011
 20
-3.99791599999998
 11
165.45927400000011
 21
0.00208400000002
  0
LINE
  5
10E
100
AcDbEntity
  8
0
  6
CONTINUOUS
 62
             3
100
AcDbLine
 10
161.22433300000009
 20
-3.95001400000001
 11
165.17643100000001
 21
0.00208400000002
  0
LINE
  5
10D
100
AcDbEntity
  8
0
  6
CONTINUOUS
 62
             3
100
AcDbLine
 10
161.22433300000009
 20
-3.667171
 11
164.89358900000011
 21
0.00208400000002
  0
LINE
  5
10C
100
AcDbEntity
  8
0
  6
CONTINUOUS
 62
             3
100
AcDbLine
 10
161.22433300000009
 20
-3.38432799999999
 11
164.61074600000009
 21
0.00208400000003
  0
LINE
  5
10B
100
AcDbEntity
  8
0
  6
CONTINUOUS
 62
             3
100
AcDbLine
 10
161.22433300000009
 20
-3.10148499999997
 11
164.32790299999999
 21
0.00208400000002
  0
LINE
  5
10A
100
AcDbEntity
  8
0
  6
CONTINUOUS
 62
             3
100
AcDbLine
 10
161.22433300000009
 20
-2.81864300000001
 11
164.04506000000009
 21
0.00208400000002
  0
LINE
  5
109
100
AcDbEntity
  8
0
  6
CONTINUOUS
 62
             3
100
AcDbLine
 10
161.22433300000009
 20
-1.53579999999999
 11
163.7622180000001
 21
0.00208400000003
  0
LINE
  5
108
100
AcDbEntity
  8
0
  6
CONTINUOUS
 62
             3
100
AcDbLine
 10
161.22433300000009
 20
-3.25295699999998
 11
163.47937500000009
 21
0.00208400000002
  0
LINE
  5
107
100
AcDbEntity
  8
0
  6
CONTINUOUS
 62
             3
100
AcDbLine
 10
161.22433300000009
 20
-2.97011499999996
 11
163.19653199999999
 21
0.00208400000002
  0
LINE
  5
106
100
AcDbEntity
  8
0
  6
CONTINUOUS
 62
             3
100
AcDbLine
 10
161.22433300000009
 20
-1.68727200000001
 11
162.91369000000009
 21
0.00208400000002
  0
LINE
  5
105
100
AcDbEntity
  8
0
  6
CONTINUOUS
 62
             3
100
AcDbLine
 10
161.22433300000009
 20
-1.40442899999999
 11
162.6308470000001
 21
0.00208400000002
  0
LINE
  5
104
100
AcDbEntity
  8
0
  6
CONTINUOUS
 62
             3
100
AcDbLine
 10
161.22433300000009
 20
-1.12158599999998
 11
162.34800400000009
 21
0.00208400000002
  0
LINE
  5
103
100
AcDbEntity
  8
0
  6
CONTINUOUS
 62
             3
100
AcDbLine
 10
161.22433300000009
 20
-0.83874400000002
 11
162.06516099999999
 21
0.00208400000002
  0
LINE
  5
102
100
AcDbEntity
  8
0
  6
CONTINUOUS
 62
             3
100
AcDbLine
 10
161.22433300000009
 20
-0.55590100000001
 11
161.78231900000009
 21
0.00208400000002
  0
LINE
  5
101
100
AcDbEntity
  8
0
  6
CONTINUOUS
 62
             3
100
AcDbLine
 10
161.22433300000009
 20
-0.27305799999999
 11
161.4994760000001
 21
0.00208400000002
  0
LINE
  5
100
100
AcDbEntity
  8
0
  6
CONTINUOUS
 62
             3
100
AcDbLine
 10
191.15775900000011
 20
-3.99791599999998
 11
191.22433300000009
 21
-3.93134099999997
  0
LINE
  5
FF
100
AcDbEntity
  8
0
  6
CONTINUOUS
 62
             3
100
AcDbLine
 10
190.8749160000001
 20
-3.99791599999998
 11
191.22433300000009
 21
-3.64849800000002
  0
LINE
  5
FE
100
AcDbEntity
  8
0
  6
CONTINUOUS
 62
             3
100
AcDbLine
 10
190.592073
 20
-3.99791599999998
 11
191.22433300000009
 21
-3.365656
  0
LINE
  5
FD
100
AcDbEntity
  8
0
  6
CONTINUOUS
 62
             3
100
AcDbLine
 10
190.3092310000001
 20
-3.99791599999998
 11
191.22433300000009
 21
-3.08281299999999
  0
LINE
  5
FC
100
AcDbEntity
  8
0
  6
CONTINUOUS
 62
             3
100
AcDbLine
 10
190.02638800000011
 20
-3.99791599999998
 11
191.22433300000009
 21
-2.79996999999997
  0
LINE
  5
FB
100
AcDbEntity
  8
0
  6
CONTINUOUS
 62
             3
100
AcDbLine
 10
189.74354500000001
 20
-3.99791599999998
 11
191.22433300000009
 21
-1.51712700000002
  0
LINE
  5
FA
100
AcDbEntity
  8
0
  6
CONTINUOUS
 62
             3
100
AcDbLine
 10
189.46070200000011
 20
-3.99791599999998
 11
191.22433300000009
 21
-3.23428499999999
  0
LINE
  5
F9
100
AcDbEntity
  8
0
  6
CONTINUOUS
 62
             3
100
AcDbLine
 10
189.17786000000001
 20
-3.99791599999998
 11
191.22433300000009
 21
-2.95144199999999
  0
LINE
  5
F8
100
AcDbEntity
  8
0
  6
CONTINUOUS
 62
             3
100
AcDbLine
 10
188.89501700000011
 20
-3.99791599999998
 11
191.22433300000009
 21
-1.66859899999998
  0
LINE
  5
F7
100
AcDbEntity
  8
0
  6
CONTINUOUS
 62
             3
100
AcDbLine
 10
188.6121740000001
 20
-3.99791599999998
 11
191.22433300000009
 21
-1.38575700000002
  0
LINE
  5
F6
100
AcDbEntity
  8
0
  6
CONTINUOUS
 62
             3
100
AcDbLine
 10
188.32933199999999
 20
-3.99791599999998
 11
191.22433300000009
 21
-1.102914
  0
LINE
  5
F5
100
AcDbEntity
  8
0
  6
CONTINUOUS
 62
             3
100
AcDbLine
 10
188.04648900000009
 20
-3.99791599999998
 11
191.22433300000009
 21
-0.82007099999998
  0
LINE
  5
F4
100
AcDbEntity
  8
0
  6
CONTINUOUS
 62
             3
100
AcDbLine
 10
187.76364600000011
 20
-3.99791599999998
 11
191.22433300000009
 21
-0.53722799999997
  0
LINE
  5
F3
100
AcDbEntity
  8
0
  6
CONTINUOUS
 62
             3
100
AcDbLine
 10
187.48080300000001
 20
-3.99791599999998
 11
191.22433300000009
 21
-0.25438600000001
  0
LINE
  5
F2
100
AcDbEntity
  8
0
  6
CONTINUOUS
 62
             3
100
AcDbLine
 10
187.19796100000011
 20
-3.99791599999998
 11
191.19796100000011
 21
0.00208400000002
  0
LINE
  5
F1
100
AcDbEntity
  8
0
  6
CONTINUOUS
 62
             3
100
AcDbLine
 10
186.91511800000009
 20
-3.99791599999998
 11
190.91511800000009
 21
0.00208400000002
  0
LINE
  5
F0
100
AcDbEntity
  8
0
  6
CONTINUOUS
 62
             3
100
AcDbLine
 10
186.63227499999999
 20
-3.99791599999998
 11
190.63227499999999
 21
0.00208400000002
  0
LINE
  5
EF
100
AcDbEntity
  8
0
  6
CONTINUOUS
 62
             3
100
AcDbLine
 10
186.34943300000009
 20
-3.99791599999998
 11
190.34943300000009
 21
0.00208400000002
  0
LINE
  5
EE
100
AcDbEntity
  8
0
  6
CONTINUOUS
 62
             3
100
AcDbLine
 10
186.06658999999999
 20
-3.99791599999998
 11
190.06658999999999
 21
0.00208400000002
  0
LINE
  5
ED
100
AcDbEntity
  8
0
  6
CONTINUOUS
 62
             3
100
AcDbLine
 10
185.78374700000009
 20
-3.99791599999997
 11
189.78374700000009
 21
0.00208400000002
  0
LINE
  5
EC
100
AcDbEntity
  8
0
  6
CONTINUOUS
 62
             3
100
AcDbLine
 10
185.50090400000011
 20
-3.99791599999998
 11
189.50090400000011
 21
0.00208400000002
  0
LINE
  5
EB
100
AcDbEntity
  8
0
  6
CONTINUOUS
 62
             3
100
AcDbLine
 10
185.218062
 20
-3.99791599999998
 11
189.218062
 21
0.00208400000002
  0
LINE
  5
EA
100
AcDbEntity
  8
0
  6
CONTINUOUS
 62
             3
100
AcDbLine
 10
184.9352190000001
 20
-3.99791599999998
 11
188.9352190000001
 21
0.00208400000002
  0
LINE
  5
E9
100
AcDbEntity
  8
0
  6
CONTINUOUS
 62
             3
100
AcDbLine
 10
184.65237600000009
 20
-3.99791599999998
 11
188.65237600000009
 21
0.00208400000002
  0
LINE
  5
E8
100
AcDbEntity
  8
0
  6
CONTINUOUS
 62
             3
100
AcDbLine
 10
184.36953399999999
 20
-3.99791599999998
 11
188.36953399999999
 21
0.00208400000002
  0
LINE
  5
E7
100
AcDbEntity
  8
0
  6
CONTINUOUS
 62
             3
100
AcDbLine
 10
184.08669100000009
 20
-3.99791599999998
 11
188.08669100000009
 21
0.00208400000002
  0
LINE
  5
E6
100
AcDbEntity
  8
0
  6
CONTINUOUS
 62
             3
100
AcDbLine
 10
183.80384799999999
 20
-3.99791599999998
 11
187.80384799999999
 21
0.00208400000002
  0
LINE
  5
E5
100
AcDbEntity
  8
0
  6
CONTINUOUS
 62
             3
100
AcDbLine
 10
183.52100600000011
 20
-3.99791599999998
 11
187.52100600000011
 21
0.00208400000002
  0
LINE
  5
E4
100
AcDbEntity
  8
0
  6
CONTINUOUS
 62
             3
100
AcDbLine
 10
183.2381630000001
 20
-3.99791599999998
 11
187.2381630000001
 21
0.00208400000002
  0
LINE
  5
E3
100
AcDbEntity
  8
0
  6
CONTINUOUS
 62
             3
100
AcDbLine
 10
182.95532
 20
-3.99791599999998
 11
186.95532
 21
0.00208400000002
  0
LINE
  5
E2
100
AcDbEntity
  8
0
  6
CONTINUOUS
 62
             3
100
AcDbLine
 10
182.6724770000001
 20
-3.99791599999998
 11
186.6724770000001
 21
0.00208400000002
  0
LINE
  5
E1
100
AcDbEntity
  8
0
  6
CONTINUOUS
 62
             3
100
AcDbLine
 10
182.38963500000011
 20
-3.99791599999997
 11
186.38963500000011
 21
0.00208400000002
  0
LINE
  5
E0
100
AcDbEntity
  8
0
  6
CONTINUOUS
 62
             3
100
AcDbLine
 10
182.10679200000001
 20
-3.99791599999997
 11
186.10679200000001
 21
0.00208400000002
  0
LINE
  5
DF
100
AcDbEntity
  8
0
  6
CONTINUOUS
 62
             3
100
AcDbLine
 10
181.82394900000011
 20
-3.99791599999998
 11
185.82394900000011
 21
0.00208400000002
  0
LINE
  5
DE
100
AcDbEntity
  8
0
  6
CONTINUOUS
 62
             3
100
AcDbLine
 10
181.54110700000001
 20
-3.99791599999998
 11
185.54110700000001
 21
0.00208400000002
  0
LINE
  5
DD
100
AcDbEntity
  8
0
  6
CONTINUOUS
 62
             3
100
AcDbLine
 10
181.25826400000011
 20
-3.99791599999998
 11
185.25826400000011
 21
0.00208400000002
  0
LINE
  5
DC
100
AcDbEntity
  8
0
  6
CONTINUOUS
 62
             3
100
AcDbLine
 10
181.22433300000009
 20
-3.74900300000001
 11
184.9754210000001
 21
0.00208400000002
  0
LINE
  5
DB
100
AcDbEntity
  8
0
  6
CONTINUOUS
 62
             3
100
AcDbLine
 10
181.22433300000009
 20
-3.466161
 11
184.692578
 21
0.00208400000002
  0
LINE
  5
DA
100
AcDbEntity
  8
0
  6
CONTINUOUS
 62
             3
100
AcDbLine
 10
181.22433300000009
 20
-3.18331799999999
 11
184.40973600000009
 21
0.00208400000002
  0
LINE
  5
D9
100
AcDbEntity
  8
0
  6
CONTINUOUS
 62
             3
100
AcDbLine
 10
181.22433300000009
 20
-2.90047499999997
 11
184.12689300000011
 21
0.00208400000003
  0
LINE
  5
D8
100
AcDbEntity
  8
0
  6
CONTINUOUS
 62
             3
100
AcDbLine
 10
181.22433300000009
 20
-1.61763300000001
 11
183.84405000000001
 21
0.00208400000002
  0
LINE
  5
D7
100
AcDbEntity
  8
0
  6
CONTINUOUS
 62
             3
100
AcDbLine
 10
181.22433300000009
 20
-3.33479
 11
183.56120800000011
 21
0.00208400000002
  0
LINE
  5
D6
100
AcDbEntity
  8
0
  6
CONTINUOUS
 62
             3
100
AcDbLine
 10
181.22433300000009
 20
-3.05194699999998
 11
183.27836500000001
 21
0.00208400000002
  0
LINE
  5
D5
100
AcDbEntity
  8
0
  6
CONTINUOUS
 62
             3
100
AcDbLine
 10
181.22433300000009
 20
-2.76910399999997
 11
182.99552200000011
 21
0.00208400000002
  0
LINE
  5
D4
100
AcDbEntity
  8
0
  6
CONTINUOUS
 62
             3
100
AcDbLine
 10
181.22433300000009
 20
-1.48626200000001
 11
182.71267900000009
 21
0.00208400000002
  0
LINE
  5
D3
100
AcDbEntity
  8
0
  6
CONTINUOUS
 62
             3
100
AcDbLine
 10
181.22433300000009
 20
-1.203419
 11
182.42983699999999
 21
0.00208400000002
  0
LINE
  5
D2
100
AcDbEntity
  8
0
  6
CONTINUOUS
 62
             3
100
AcDbLine
 10
181.22433300000009
 20
-0.92057599999998
 11
182.14699400000009
 21
0.00208400000002
  0
LINE
  5
D1
100
AcDbEntity
  8
0
  6
CONTINUOUS
 62
             3
100
AcDbLine
 10
181.22433300000009
 20
-0.63773399999997
 11
181.86415100000011
 21
0.00208400000002
  0
LINE
  5
D0
100
AcDbEntity
  8
0
  6
CONTINUOUS
 62
             3
100
AcDbLine
 10
181.22433300000009
 20
-0.35489100000001
 11
181.581309
 21
0.00208400000002
  0
LINE
  5
CF
100
AcDbEntity
  8
0
  6
CONTINUOUS
 62
             3
100
AcDbLine
 10
181.22433300000009
 20
-0.072048
 11
181.2984660000001
 21
0.00208400000002
  0
LINE
  5
CE
100
AcDbEntity
  8
0
  6
CONTINUOUS
 62
             3
100
AcDbLine
 10
210.95674900000009
 20
-3.99791599999998
 11
211.22433300000009
 21
-3.73033099999998
  0
LINE
  5
CD
100
AcDbEntity
  8
0
  6
CONTINUOUS
 62
             3
100
AcDbLine
 10
210.6739060000001
 20
-3.99791599999998
 11
211.22433300000009
 21
-3.44748799999996
  0
LINE
  5
CC
100
AcDbEntity
  8
0
  6
CONTINUOUS
 62
             3
100
AcDbLine
 10
210.391063
 20
-3.99791599999998
 11
211.22433300000009
 21
-3.16464500000001
  0
LINE
  5
CB
100
AcDbEntity
  8
0
  6
CONTINUOUS
 62
             3
100
AcDbLine
 10
210.1082200000001
 20
-3.99791599999998
 11
211.22433300000009
 21
-2.88180299999999
  0
LINE
  5
CA
100
AcDbEntity
  8
0
  6
CONTINUOUS
 62
             3
100
AcDbLine
 10
209.82537800000009
 20
-3.99791599999998
 11
211.22433300000009
 21
-1.59895999999998
  0
LINE
  5
C9
100
AcDbEntity
  8
0
  6
CONTINUOUS
 62
             3
100
AcDbLine
 10
209.54253499999999
 20
-3.99791599999998
 11
211.22433300000009
 21
-3.31611700000001
  0
LINE
  5
C8
100
AcDbEntity
  8
0
  6
CONTINUOUS
 62
             3
100
AcDbLine
 10
209.25969200000009
 20
-3.99791599999998
 11
211.22433300000009
 21
-3.033275
  0
LINE
  5
C7
100
AcDbEntity
  8
0
  6
CONTINUOUS
 62
             3
100
AcDbLine
 10
208.97685000000001
 20
-3.99791599999998
 11
211.22433300000009
 21
-2.75043199999999
  0
LINE
  5
C6
100
AcDbEntity
  8
0
  6
CONTINUOUS
 62
             3
100
AcDbLine
 10
208.69400700000011
 20
-3.99791599999998
 11
211.22433300000009
 21
-1.46758899999997
  0
LINE
  5
C5
100
AcDbEntity
  8
0
  6
CONTINUOUS
 62
             3
100
AcDbLine
 10
208.4111640000001
 20
-3.99791599999998
 11
211.22433300000009
 21
-1.18474600000002
  0
LINE
  5
C4
100
AcDbEntity
  8
0
  6
CONTINUOUS
 62
             3
100
AcDbLine
 10
208.128321
 20
-3.99791599999998
 11
211.22433300000009
 21
-0.90190400000001
  0
LINE
  5
C3
100
AcDbEntity
  8
0
  6
CONTINUOUS
 62
             3
100
AcDbLine
 10
207.8454790000001
 20
-3.99791599999998
 11
211.22433300000009
 21
-0.61906099999999
  0
LINE
  5
C2
100
AcDbEntity
  8
0
  6
CONTINUOUS
 62
             3
100
AcDbLine
 10
207.56263600000011
 20
-3.99791599999998
 11
211.22433300000009
 21
-0.33621799999997
  0
LINE
  5
C1
100
AcDbEntity
  8
0
  6
CONTINUOUS
 62
             3
100
AcDbLine
 10
207.27979300000001
 20
-3.99791599999998
 11
211.22433300000009
 21
-0.05337600000001
  0
LINE
  5
C0
100
AcDbEntity
  8
0
  6
CONTINUOUS
 62
             3
100
AcDbLine
 10
206.99695100000011
 20
-3.99791599999998
 11
210.99695100000011
 21
0.00208400000002
  0
LINE
  5
BF
100
AcDbEntity
  8
0
  6
CONTINUOUS
 62
             3
100
AcDbLine
 10
206.71410800000001
 20
-3.99791599999998
 11
210.71410800000001
 21
0.00208400000002
  0
LINE
  5
BE
100
AcDbEntity
  8
0
  6
CONTINUOUS
 62
             3
100
AcDbLine
 10
206.43126500000011
 20
-3.99791599999998
 11
210.43126500000011
 21
0.00208400000002
  0
LINE
  5
BD
100
AcDbEntity
  8
0
  6
CONTINUOUS
 62
             3
100
AcDbLine
 10
206.14842300000009
 20
-3.99791599999998
 11
210.14842300000009
 21
0.00208400000002
  0
LINE
  5
BC
100
AcDbEntity
  8
0
  6
CONTINUOUS
 62
             3
100
AcDbLine
 10
205.86557999999999
 20
-3.99791599999998
 11
209.86557999999999
 21
0.00208400000002
  0
LINE
  5
BB
100
AcDbEntity
  8
0
  6
CONTINUOUS
 62
             3
100
AcDbLine
 10
205.58273700000009
 20
-3.99791599999998
 11
209.58273700000009
 21
0.00208400000002
  0
LINE
  5
BA
100
AcDbEntity
  8
0
  6
CONTINUOUS
 62
             3
100
AcDbLine
 10
205.29989400000011
 20
-3.99791599999998
 11
209.29989400000011
 21
0.00208400000002
  0
LINE
  5
B9
100
AcDbEntity
  8
0
  6
CONTINUOUS
 62
             3
100
AcDbLine
 10
205.01705200000001
 20
-3.99791599999998
 11
209.01705200000001
 21
0.00208400000002
  0
LINE
  5
B8
100
AcDbEntity
  8
0
  6
CONTINUOUS
 62
             3
100
AcDbLine
 10
204.73420900000011
 20
-3.99791599999998
 11
208.73420900000011
 21
0.00208400000002
  0
LINE
  5
B7
100
AcDbEntity
  8
0
  6
CONTINUOUS
 62
             3
100
AcDbLine
 10
204.45136600000001
 20
-3.99791599999998
 11
208.45136600000001
 21
0.00208400000002
  0
LINE
  5
B6
100
AcDbEntity
  8
0
  6
CONTINUOUS
 62
             3
100
AcDbLine
 10
204.16852399999999
 20
-3.99791599999998
 11
208.16852399999999
 21
0.00208400000002
  0
LINE
  5
B5
100
AcDbEntity
  8
0
  6
CONTINUOUS
 62
             3
100
AcDbLine
 10
203.88568100000009
 20
-3.99791599999998
 11
207.88568100000009
 21
0.00208400000002
  0
LINE
  5
B4
100
AcDbEntity
  8
0
  6
CONTINUOUS
 62
             3
100
AcDbLine
 10
203.60283799999999
 20
-3.99791599999998
 11
207.60283799999999
 21
0.00208400000002
  0
LINE
  5
B3
100
AcDbEntity
  8
0
  6
CONTINUOUS
 62
             3
100
AcDbLine
 10
203.31999500000009
 20
-3.99791599999998
 11
207.31999500000009
 21
0.00208400000002
  0
LINE
  5
B2
100
AcDbEntity
  8
0
  6
CONTINUOUS
 62
             3
100
AcDbLine
 10
203.0371530000001
 20
-3.99791599999998
 11
207.0371530000001
 21
0.00208400000002
  0
LINE
  5
B1
100
AcDbEntity
  8
0
  6
CONTINUOUS
 62
             3
100
AcDbLine
 10
202.75431
 20
-3.99791599999998
 11
206.75431
 21
0.00208400000002
  0
LINE
  5
B0
100
AcDbEntity
  8
0
  6
CONTINUOUS
 62
             3
100
AcDbLine
 10
202.4714670000001
 20
-3.99791599999998
 11
206.4714670000001
 21
0.00208400000002
  0
LINE
  5
AF
100
AcDbEntity
  8
0
  6
CONTINUOUS
 62
             3
100
AcDbLine
 10
202.18862500000009
 20
-3.99791599999998
 11
206.18862500000009
 21
0.00208400000002
  0
LINE
  5
AE
100
AcDbEntity
  8
0
  6
CONTINUOUS
 62
             3
100
AcDbLine
 10
201.90578199999999
 20
-3.99791599999998
 11
205.90578199999999
 21
0.00208400000002
  0
LINE
  5
AD
100
AcDbEntity
  8
0
  6
CONTINUOUS
 62
             3
100
AcDbLine
 10
201.62293900000009
 20
-3.99791599999998
 11
205.62293900000009
 21
0.00208400000002
  0
LINE
  5
AC
100
AcDbEntity
  8
0
  6
CONTINUOUS
 62
             3
100
AcDbLine
 10
201.34009599999999
 20
-3.99791599999998
 11
205.34009599999999
 21
0.00208400000002
  0
LINE
  5
AB
100
AcDbEntity
  8
0
  6
CONTINUOUS
 62
             3
100
AcDbLine
 10
201.22433300000009
 20
-3.83083599999998
 11
205.05725400000011
 21
0.00208400000002
  0
LINE
  5
AA
100
AcDbEntity
  8
0
  6
CONTINUOUS
 62
             3
100
AcDbLine
 10
201.22433300000009
 20
-3.54799300000002
 11
204.7744110000001
 21
0.00208400000003
  0
LINE
  5
A9
100
AcDbEntity
  8
0
  6
CONTINUOUS
 62
             3
100
AcDbLine
 10
201.22433300000009
 20
-3.265151
 11
204.491568
 21
0.00208400000002
  0
LINE
  5
A8
100
AcDbEntity
  8
0
  6
CONTINUOUS
 62
             3
100
AcDbLine
 10
201.22433300000009
 20
-2.98230799999999
 11
204.2087260000001
 21
0.00208400000003
  0
LINE
  5
A7
100
AcDbEntity
  8
0
  6
CONTINUOUS
 62
             3
100
AcDbLine
 10
201.22433300000009
 20
-1.69946499999998
 11
203.92588300000011
 21
0.00208400000002
  0
LINE
  5
A6
100
AcDbEntity
  8
0
  6
CONTINUOUS
 62
             3
100
AcDbLine
 10
201.22433300000009
 20
-1.41662200000002
 11
203.64304000000001
 21
0.00208400000002
  0
LINE
  5
A5
100
AcDbEntity
  8
0
  6
CONTINUOUS
 62
             3
100
AcDbLine
 10
201.22433300000009
 20
-3.13378
 11
203.36019700000011
 21
0.00208400000002
  0
LINE
  5
A4
100
AcDbEntity
  8
0
  6
CONTINUOUS
 62
             3
100
AcDbLine
 10
201.22433300000009
 20
-2.85093699999999
 11
203.07735500000001
 21
0.00208400000002
  0
LINE
  5
A3
100
AcDbEntity
  8
0
  6
CONTINUOUS
 62
             3
100
AcDbLine
 10
201.22433300000009
 20
-1.56809399999997
 11
202.79451200000011
 21
0.00208400000002
  0
LINE
  5
A2
100
AcDbEntity
  8
0
  6
CONTINUOUS
 62
             3
100
AcDbLine
 10
201.22433300000009
 20
-1.28525200000001
 11
202.5116690000001
 21
0.00208400000002
  0
LINE
  5
A1
100
AcDbEntity
  8
0
  6
CONTINUOUS
 62
             3
100
AcDbLine
 10
201.22433300000009
 20
-1.002409
 11
202.228827
 21
0.00208400000002
  0
LINE
  5
A0
100
AcDbEntity
  8
0
  6
CONTINUOUS
 62
             3
100
AcDbLine
 10
201.22433300000009
 20
-0.71956599999999
 11
201.9459840000001
 21
0.00208400000002
  0
LINE
  5
9F
100
AcDbEntity
  8
0
  6
CONTINUOUS
 62
             3
100
AcDbLine
 10
201.22433300000009
 20
-0.43672299999997
 11
201.66314100000011
 21
0.00208400000002
  0
LINE
  5
9E
100
AcDbEntity
  8
0
  6
CONTINUOUS
 62
             3
100
AcDbLine
 10
201.22433300000009
 20
-0.15388100000001
 11
201.38029800000001
 21
0.00208400000002
  0
LINE
  5
9D
100
AcDbEntity
  8
0
  6
CONTINUOUS
 62
             3
100
AcDbLine
 10
231.03858099999999
 20
-3.99791599999998
 11
231.22433300000009
 21
-3.812163
  0
LINE
  5
9C
100
AcDbEntity
  8
0
  6
CONTINUOUS
 62
             3
100
AcDbLine
 10
230.75573800000009
 20
-3.99791599999998
 11
231.22433300000009
 21
-3.52932099999998
  0
LINE
  5
9B
100
AcDbEntity
  8
0
  6
CONTINUOUS
 62
             3
100
AcDbLine
 10
230.47289600000011
 20
-3.99791599999998
 11
231.22433300000009
 21
-3.24647799999997
  0
LINE
  5
9A
100
AcDbEntity
  8
0
  6
CONTINUOUS
 62
             3
100
AcDbLine
 10
230.19005300000001
 20
-3.99791599999998
 11
231.22433300000009
 21
-2.96363500000001
  0
LINE
  5
99
100
AcDbEntity
  8
0
  6
CONTINUOUS
 62
             3
100
AcDbLine
 10
229.90721000000011
 20
-3.99791599999998
 11
231.22433300000009
 21
-1.680793
  0
LINE
  5
98
100
AcDbEntity
  8
0
  6
CONTINUOUS
 62
             3
100
AcDbLine
 10
229.62436800000009
 20
-3.99791599999998
 11
231.22433300000009
 21
-1.39794999999998
  0
LINE
  5
97
100
AcDbEntity
  8
0
  6
CONTINUOUS
 62
             3
100
AcDbLine
 10
229.34152499999999
 20
-3.99791599999998
 11
231.22433300000009
 21
-3.11510699999997
  0
LINE
  5
96
100
AcDbEntity
  8
0
  6
CONTINUOUS
 62
             3
100
AcDbLine
 10
229.05868200000009
 20
-3.99791599999998
 11
231.22433300000009
 21
-2.83226500000001
  0
LINE
  5
95
100
AcDbEntity
  8
0
  6
CONTINUOUS
 62
             3
100
AcDbLine
 10
228.77583899999999
 20
-3.99791599999998
 11
231.22433300000009
 21
-1.54942199999999
  0
LINE
  5
94
100
AcDbEntity
  8
0
  6
CONTINUOUS
 62
             3
100
AcDbLine
 10
228.49299700000009
 20
-3.99791599999998
 11
231.22433300000009
 21
-1.26657899999998
  0
LINE
  5
93
100
AcDbEntity
  8
0
  6
CONTINUOUS
 62
             3
100
AcDbLine
 10
228.2101540000001
 20
-3.99791599999998
 11
231.22433300000009
 21
-0.98373599999997
  0
LINE
  5
92
100
AcDbEntity
  8
0
  6
CONTINUOUS
 62
             3
100
AcDbLine
 10
227.927311
 20
-3.99791599999998
 11
231.22433300000009
 21
-0.70089400000001
  0
LINE
  5
91
100
AcDbEntity
  8
0
  6
CONTINUOUS
 62
             3
100
AcDbLine
 10
227.6444690000001
 20
-3.99791599999998
 11
231.22433300000009
 21
-0.41805099999999
  0
LINE
  5
90
100
AcDbEntity
  8
0
  6
CONTINUOUS
 62
             3
100
AcDbLine
 10
227.36162600000009
 20
-3.99791599999998
 11
231.22433300000009
 21
-0.13520799999998
  0
LINE
  5
8F
100
AcDbEntity
  8
0
  6
CONTINUOUS
 62
             3
100
AcDbLine
 10
227.07878299999999
 20
-3.99791599999998
 11
231.07878299999999
 21
0.00208400000002
  0
LINE
  5
8E
100
AcDbEntity
  8
0
  6
CONTINUOUS
 62
             3
100
AcDbLine
 10
226.79594100000011
 20
-3.99791599999998
 11
230.79594100000011
 21
0.00208400000002
  0
LINE
  5
8D
100
AcDbEntity
  8
0
  6
CONTINUOUS
 62
             3
100
AcDbLine
 10
226.51309800000001
 20
-3.99791599999998
 11
230.51309800000001
 21
0.00208400000002
  0
LINE
  5
8C
100
AcDbEntity
  8
0
  6
CONTINUOUS
 62
             3
100
AcDbLine
 10
226.23025500000011
 20
-3.99791599999998
 11
230.23025500000011
 21
0.00208400000002
  0
LINE
  5
8B
100
AcDbEntity
  8
0
  6
CONTINUOUS
 62
             3
100
AcDbLine
 10
225.9474120000001
 20
-3.99791599999998
 11
229.9474120000001
 21
0.00208400000002
  0
LINE
  5
8A
100
AcDbEntity
  8
0
  6
CONTINUOUS
 62
             3
100
AcDbLine
 10
225.66457
 20
-3.99791599999998
 11
229.66457
 21
0.00208400000002
  0
LINE
  5
89
100
AcDbEntity
  8
0
  6
CONTINUOUS
 62
             3
100
AcDbLine
 10
225.3817270000001
 20
-3.99791599999998
 11
229.3817270000001
 21
0.00208400000002
  0
LINE
  5
88
100
AcDbEntity
  8
0
  6
CONTINUOUS
 62
             3
100
AcDbLine
 10
225.09888400000011
 20
-3.99791599999998
 11
229.09888400000011
 21
0.00208400000002
  0
LINE
  5
87
100
AcDbEntity
  8
0
  6
CONTINUOUS
 62
             3
100
AcDbLine
 10
224.81604200000001
 20
-3.99791599999998
 11
228.81604200000001
 21
0.00208400000002
  0
LINE
  5
86
100
AcDbEntity
  8
0
  6
CONTINUOUS
 62
             3
100
AcDbLine
 10
224.53319900000011
 20
-3.99791599999998
 11
228.53319900000011
 21
0.00208400000002
  0
LINE
  5
85
100
AcDbEntity
  8
0
  6
CONTINUOUS
 62
             3
100
AcDbLine
 10
224.25035600000001
 20
-3.99791599999998
 11
228.25035600000001
 21
0.00208400000002
  0
LINE
  5
84
100
AcDbEntity
  8
0
  6
CONTINUOUS
 62
             3
100
AcDbLine
 10
223.96751300000011
 20
-3.99791599999998
 11
227.96751300000011
 21
0.00208400000002
  0
LINE
  5
83
100
AcDbEntity
  8
0
  6
CONTINUOUS
 62
             3
100
AcDbLine
 10
223.68467100000009
 20
-3.99791599999998
 11
227.68467100000009
 21
0.00208400000002
  0
LINE
  5
82
100
AcDbEntity
  8
0
  6
CONTINUOUS
 62
             3
100
AcDbLine
 10
223.40182799999999
 20
-3.99791599999998
 11
227.40182799999999
 21
0.00208400000002
  0
LINE
  5
81
100
AcDbEntity
  8
0
  6
CONTINUOUS
 62
             3
100
AcDbLine
 10
223.11898500000009
 20
-3.99791599999998
 11
227.11898500000009
 21
0.00208400000002
  0
LINE
  5
80
100
AcDbEntity
  8
0
  6
CONTINUOUS
 62
             3
100
AcDbLine
 10
222.83614300000011
 20
-3.99791599999998
 11
226.83614300000011
 21
0.00208400000002
  0
LINE
  5
7F
100
AcDbEntity
  8
0
  6
CONTINUOUS
 62
             3
100
AcDbLine
 10
222.55330000000001
 20
-3.99791599999998
 11
226.55330000000001
 21
0.00208400000002
  0
LINE
  5
7E
100
AcDbEntity
  8
0
  6
CONTINUOUS
 62
             3
100
AcDbLine
 10
222.27045700000011
 20
-3.99791599999998
 11
226.27045700000011
 21
0.00208400000002
  0
LINE
  5
7D
100
AcDbEntity
  8
0
  6
CONTINUOUS
 62
             3
100
AcDbLine
 10
221.98761400000001
 20
-3.99791599999998
 11
225.98761400000001
 21
0.00208400000002
  0
LINE
  5
7C
100
AcDbEntity
  8
0
  6
CONTINUOUS
 62
             3
100
AcDbLine
 10
221.70477199999999
 20
-3.99791599999998
 11
225.70477199999999
 21
0.00208400000002
  0
LINE
  5
7B
100
AcDbEntity
  8
0
  6
CONTINUOUS
 62
             3
100
AcDbLine
 10
221.42192900000009
 20
-3.99791599999998
 11
225.42192900000009
 21
0.00208400000002
  0
LINE
  5
7A
100
AcDbEntity
  8
0
  6
CONTINUOUS
 62
             3
100
AcDbLine
 10
221.22433300000009
 20
-3.91266899999999
 11
225.13908599999999
 21
0.00208400000002
  0
LINE
  5
79
100
AcDbEntity
  8
0
  6
CONTINUOUS
 62
             3
100
AcDbLine
 10
221.22433300000009
 20
-3.62982599999998
 11
224.85624400000009
 21
0.00208400000003
  0
LINE
  5
78
100
AcDbEntity
  8
0
  6
CONTINUOUS
 62
             3
100
AcDbLine
 10
221.22433300000009
 20
-3.34698299999997
 11
224.5734010000001
 21
0.00208400000002
  0
LINE
  5
77
100
AcDbEntity
  8
0
  6
CONTINUOUS
 62
             3
100
AcDbLine
 10
221.22433300000009
 20
-3.06414000000001
 11
224.290558
 21
0.00208400000002
  0
LINE
  5
76
100
AcDbEntity
  8
0
  6
CONTINUOUS
 62
             3
100
AcDbLine
 10
221.22433300000009
 20
-2.78129799999999
 11
224.0077150000001
 21
0.00208400000002
  0
LINE
  5
75
100
AcDbEntity
  8
0
  6
CONTINUOUS
 62
             3
100
AcDbLine
 10
221.22433300000009
 20
-1.49845499999998
 11
223.72487300000009
 21
0.00208400000002
  0
LINE
  5
74
100
AcDbEntity
  8
0
  6
CONTINUOUS
 62
             3
100
AcDbLine
 10
221.22433300000009
 20
-3.21561199999997
 11
223.44202999999999
 21
0.00208400000002
  0
LINE
  5
73
100
AcDbEntity
  8
0
  6
CONTINUOUS
 62
             3
100
AcDbLine
 10
221.22433300000009
 20
-2.93277000000001
 11
223.15918700000009
 21
0.00208400000002
  0
LINE
  5
72
100
AcDbEntity
  8
0
  6
CONTINUOUS
 62
             3
100
AcDbLine
 10
221.22433300000009
 20
-1.64992699999999
 11
222.87634499999999
 21
0.00208400000002
  0
LINE
  5
71
100
AcDbEntity
  8
0
  6
CONTINUOUS
 62
             3
100
AcDbLine
 10
221.22433300000009
 20
-1.36708399999998
 11
222.59350200000009
 21
0.00208400000002
  0
LINE
  5
70
100
AcDbEntity
  8
0
  6
CONTINUOUS
 62
             3
100
AcDbLine
 10
221.22433300000009
 20
-1.08424100000002
 11
222.3106590000001
 21
0.00208400000002
  0
LINE
  5
6F
100
AcDbEntity
  8
0
  6
CONTINUOUS
 62
             3
100
AcDbLine
 10
221.22433300000009
 20
-0.801399
 11
222.027816
 21
0.00208400000002
  0
LINE
  5
6E
100
AcDbEntity
  8
0
  6
CONTINUOUS
 62
             3
100
AcDbLine
 10
221.22433300000009
 20
-0.51855599999999
 11
221.7449740000001
 21
0.00208400000002
  0
LINE
  5
6D
100
AcDbEntity
  8
0
  6
CONTINUOUS
 62
             3
100
AcDbLine
 10
221.22433300000009
 20
-0.23571299999998
 11
221.46213100000011
 21
0.00208400000002
  0
LINE
  5
6C
100
AcDbEntity
  8
0
  6
CONTINUOUS
 62
             3
100
AcDbLine
 10
251.1204140000001
 20
-3.99791599999998
 11
251.22433300000009
 21
-3.89399600000002
  0
LINE
  5
6B
100
AcDbEntity
  8
0
  6
CONTINUOUS
 62
             3
100
AcDbLine
 10
250.837571
 20
-3.99791599999998
 11
251.22433300000009
 21
-3.611153
  0
LINE
  5
6A
100
AcDbEntity
  8
0
  6
CONTINUOUS
 62
             3
100
AcDbLine
 10
250.5547280000001
 20
-3.99791599999998
 11
251.22433300000009
 21
-3.32831099999999
  0
LINE
  5
69
100
AcDbEntity
  8
0
  6
CONTINUOUS
 62
             3
100
AcDbLine
 10
250.27188600000011
 20
-3.99791599999998
 11
251.22433300000009
 21
-3.04546799999997
  0
LINE
  5
68
100
AcDbEntity
  8
0
  6
CONTINUOUS
 62
             3
100
AcDbLine
 10
249.98904300000001
 20
-3.99791599999998
 11
251.22433300000009
 21
-2.76262500000002
  0
LINE
  5
67
100
AcDbEntity
  8
0
  6
CONTINUOUS
 62
             3
100
AcDbLine
 10
249.70620000000011
 20
-3.99791599999998
 11
251.22433300000009
 21
-1.479783
  0
LINE
  5
66
100
AcDbEntity
  8
0
  6
CONTINUOUS
 62
             3
100
AcDbLine
 10
249.42335800000001
 20
-3.99791599999998
 11
251.22433300000009
 21
-3.19693999999997
  0
LINE
  5
65
100
AcDbEntity
  8
0
  6
CONTINUOUS
 62
             3
100
AcDbLine
 10
249.14051500000011
 20
-3.99791599999998
 11
251.22433300000009
 21
-2.91409699999997
  0
LINE
  5
64
100
AcDbEntity
  8
0
  6
CONTINUOUS
 62
             3
100
AcDbLine
 10
248.85767200000009
 20
-3.99791599999998
 11
251.22433300000009
 21
-1.63125400000001
  0
LINE
  5
63
100
AcDbEntity
  8
0
  6
CONTINUOUS
 62
             3
100
AcDbLine
 10
248.57482899999999
 20
-3.99791599999997
 11
251.22433300000009
 21
-1.348412
  0
LINE
  5
62
100
AcDbEntity
  8
0
  6
CONTINUOUS
 62
             3
100
AcDbLine
 10
248.29198700000009
 20
-3.99791599999998
 11
251.22433300000009
 21
-1.06556899999997
  0
LINE
  5
61
100
AcDbEntity
  8
0
  6
CONTINUOUS
 62
             3
100
AcDbLine
 10
248.00914400000011
 20
-3.99791599999998
 11
251.22433300000009
 21
-0.78272599999996
  0
LINE
  5
60
100
AcDbEntity
  8
0
  6
CONTINUOUS
 62
             3
100
AcDbLine
 10
247.72630100000001
 20
-3.99791599999998
 11
251.22433300000009
 21
-0.499884
  0
LINE
  5
5F
100
AcDbEntity
  8
0
  6
CONTINUOUS
 62
             3
100
AcDbLine
 10
247.4434590000001
 20
-3.99791599999998
 11
251.22433300000009
 21
-0.21704099999999
  0
LINE
  5
5E
100
AcDbEntity
  8
0
  6
CONTINUOUS
 62
             3
100
AcDbLine
 10
247.16061600000009
 20
-3.99791599999998
 11
251.16061600000009
 21
0.00208400000002
  0
LINE
  5
5D
100
AcDbEntity
  8
0
  6
CONTINUOUS
 62
             3
100
AcDbLine
 10
246.87777299999999
 20
-3.99791599999998
 11
250.87777299999999
 21
0.00208400000002
  0
LINE
  5
5C
100
AcDbEntity
  8
0
  6
CONTINUOUS
 62
             3
100
AcDbLine
 10
246.59493000000009
 20
-3.99791599999998
 11
250.59493000000009
 21
0.00208400000002
  0
LINE
  5
5B
100
AcDbEntity
  8
0
  6
CONTINUOUS
 62
             3
100
AcDbLine
 10
246.31208799999999
 20
-3.99791599999998
 11
250.31208799999999
 21
0.00208400000002
  0
LINE
  5
5A
100
AcDbEntity
  8
0
  6
CONTINUOUS
 62
             3
100
AcDbLine
 10
246.02924500000009
 20
-3.99791599999998
 11
250.02924500000009
 21
0.00208400000002
  0
LINE
  5
59
100
AcDbEntity
  8
0
  6
CONTINUOUS
 62
             3
100
AcDbLine
 10
245.7464020000001
 20
-3.99791599999998
 11
249.7464020000001
 21
0.00208400000002
  0
LINE
  5
58
100
AcDbEntity
  8
0
  6
CONTINUOUS
 62
             3
100
AcDbLine
 10
245.46356
 20
-3.99791599999998
 11
249.46356
 21
0.00208400000002
  0
LINE
  5
57
100
AcDbEntity
  8
0
  6
CONTINUOUS
 62
             3
100
AcDbLine
 10
245.1807170000001
 20
-3.99791599999998
 11
249.1807170000001
 21
0.00208400000002
  0
LINE
  5
56
100
AcDbEntity
  8
0
  6
CONTINUOUS
 62
             3
100
AcDbLine
 10
244.89787400000009
 20
-3.99791599999998
 11
248.89787400000009
 21
0.00208400000002
  0
LINE
  5
55
100
AcDbEntity
  8
0
  6
CONTINUOUS
 62
             3
100
AcDbLine
 10
244.61503099999999
 20
-3.99791599999998
 11
248.61503099999999
 21
0.00208400000002
  0
LINE
  5
54
100
AcDbEntity
  8
0
  6
CONTINUOUS
 62
             3
100
AcDbLine
 10
244.33218900000011
 20
-3.99791599999998
 11
248.33218900000011
 21
0.00208400000002
  0
LINE
  5
53
100
AcDbEntity
  8
0
  6
CONTINUOUS
 62
             3
100
AcDbLine
 10
244.04934600000001
 20
-3.99791599999998
 11
248.04934600000001
 21
0.00208400000002
  0
LINE
  5
52
100
AcDbEntity
  8
0
  6
CONTINUOUS
 62
             3
100
AcDbLine
 10
243.76650300000011
 20
-3.99791599999998
 11
247.76650300000011
 21
0.00208400000002
  0
LINE
  5
51
100
AcDbEntity
  8
0
  6
CONTINUOUS
 62
             3
100
AcDbLine
 10
243.4836610000001
 20
-3.99791599999998
 11
247.4836610000001
 21
0.00208400000002
  0
LINE
  5
50
100
AcDbEntity
  8
0
  6
CONTINUOUS
 62
             3
100
AcDbLine
 10
243.200818
 20
-3.99791599999998
 11
247.200818
 21
0.00208400000002
  0
LINE
  5
4F
100
AcDbEntity
  8
0
  6
CONTINUOUS
 62
             3
100
AcDbLine
 10
242.9179750000001
 20
-3.99791599999998
 11
246.9179750000001
 21
0.00208400000002
  0
LINE
  5
4E
100
AcDbEntity
  8
0
  6
CONTINUOUS
 62
             3
100
AcDbLine
 10
242.63513200000011
 20
-3.99791599999998
 11
246.63513200000011
 21
0.00208400000002
  0
LINE
  5
4D
100
AcDbEntity
  8
0
  6
CONTINUOUS
 62
             3
100
AcDbLine
 10
242.35229000000001
 20
-3.99791599999998
 11
246.35229000000001
 21
0.00208400000002
  0
LINE
  5
4C
100
AcDbEntity
  8
0
  6
CONTINUOUS
 62
             3
100
AcDbLine
 10
242.06944700000011
 20
-3.99791599999998
 11
246.06944700000011
 21
0.00208400000002
  0
LINE
  5
4B
100
AcDbEntity
  8
0
  6
CONTINUOUS
 62
             3
100
AcDbLine
 10
241.78660400000001
 20
-3.99791599999998
 11
245.78660400000001
 21
0.00208400000002
  0
LINE
  5
4A
100
AcDbEntity
  8
0
  6
CONTINUOUS
 62
             3
100
AcDbLine
 10
241.50376200000011
 20
-3.99791599999998
 11
245.50376200000011
 21
0.00208400000002
  0
LINE
  5
49
100
AcDbEntity
  8
0
  6
CONTINUOUS
 62
             3
100
AcDbLine
 10
241.22433300000009
 20
-3.99450100000001
 11
245.22091900000009
 21
0.00208400000002
  0
LINE
  5
48
100
AcDbEntity
  8
0
  6
CONTINUOUS
 62
             3
100
AcDbLine
 10
241.22433300000009
 20
-3.711658
 11
244.938076
 21
0.00208400000002
  0
LINE
  5
47
100
AcDbEntity
  8
0
  6
CONTINUOUS
 62
             3
100
AcDbLine
 10
241.22433300000009
 20
-3.42881599999998
 11
244.65523300000009
 21
0.00208400000002
  0
LINE
  5
46
100
AcDbEntity
  8
0
  6
CONTINUOUS
 62
             3
100
AcDbLine
 10
241.22433300000009
 20
-3.14597299999997
 11
244.37239100000011
 21
0.00208400000002
  0
LINE
  5
45
100
AcDbEntity
  8
0
  6
CONTINUOUS
 62
             3
100
AcDbLine
 10
241.22433300000009
 20
-2.86313000000001
 11
244.08954800000001
 21
0.00208400000003
  0
LINE
  5
44
100
AcDbEntity
  8
0
  6
CONTINUOUS
 62
             3
100
AcDbLine
 10
241.22433300000009
 20
-1.580288
 11
243.80670500000011
 21
0.00208400000002
  0
LINE
  5
43
100
AcDbEntity
  8
0
  6
CONTINUOUS
 62
             3
100
AcDbLine
 10
241.22433300000009
 20
-3.29744499999998
 11
243.52386300000009
 21
0.00208400000002
  0
LINE
  5
42
100
AcDbEntity
  8
0
  6
CONTINUOUS
 62
             3
100
AcDbLine
 10
241.22433300000009
 20
-3.01460199999997
 11
243.24101999999999
 21
0.00208400000002
  0
LINE
  5
41
100
AcDbEntity
  8
0
  6
CONTINUOUS
 62
             3
100
AcDbLine
 10
241.22433300000009
 20
-2.73175900000001
 11
242.95817700000009
 21
0.00208400000002
  0
LINE
  5
40
100
AcDbEntity
  8
0
  6
CONTINUOUS
 62
             3
100
AcDbLine
 10
241.22433300000009
 20
-1.44891699999999
 11
242.67533399999999
 21
0.00208400000002
  0
LINE
  5
3F
100
AcDbEntity
  8
0
  6
CONTINUOUS
 62
             3
100
AcDbLine
 10
241.22433300000009
 20
-1.16607399999998
 11
242.39249200000009
 21
0.00208400000002
  0
LINE
  5
3E
100
AcDbEntity
  8
0
  6
CONTINUOUS
 62
             3
100
AcDbLine
 10
241.22433300000009
 20
-0.88323099999997
 11
242.1096490000001
 21
0.00208400000002
  0
LINE
  5
3D
100
AcDbEntity
  8
0
  6
CONTINUOUS
 62
             3
100
AcDbLine
 10
241.22433300000009
 20
-0.60038900000001
 11
241.826806
 21
0.00208400000002
  0
LINE
  5
3C
100
AcDbEntity
  8
0
  6
CONTINUOUS
 62
             3
100
AcDbLine
 10
241.22433300000009
 20
-0.31754599999999
 11
241.5439640000001
 21
0.00208400000002
  0
LINE
  5
3B
100
AcDbEntity
  8
0
  6
CONTINUOUS
 62
             3
100
AcDbLine
 10
241.22433300000009
 20
-0.03470299999998
 11
241.26112100000009
 21
0.00208400000002
  0
LINE
  5
3A
100
AcDbEntity
  8
1
  6
CONTINUOUS
 62
             7
100
AcDbLine
 10
72.5
 20
-47.19791800000002
 11
-72.5
 21
-47.19791800000002
  0
LINE
  5
39
100
AcDbEntity
  8
1
  6
CONTINUOUS
 62
             7
100
AcDbLine
 10
-74.5
 20
-45.19791800000002
 11
74.5
 21
-45.19791800000002
  0
LINE
  5
38
100
AcDbEntity
  8
1
  6
CONTINUOUS
 62
             7
100
AcDbLine
 10
79.96162600000002
 20
-32.87473699999998
 11
-79.96162600000002
 21
-32.87473699999998
  0
LINE
  5
37
100
AcDbEntity
  8
1
  6
CONTINUOUS
 62
             7
100
AcDbLine
 10
90.72529400000008
 20
-21.90790900000002
 11
-90.72529399999985
 21
-21.90790900000002
  0
LINE
  5
36
100
AcDbEntity
  8
1
  6
CONTINUOUS
 62
             7
100
AcDbLine
 10
92.96243212167158
 20
-12.16208711538416
 11
-92.96243207053958
 21
-12.16208711538416
  0
LINE
  5
35
100
AcDbEntity
  8
LC-001-002-----0
  6
CONTINUOUS
 62
             7
100
AcDbLine
 10
150.751743
 20
-2.99791599999998
 11
150.751743
 21
-6.118447
  0
LINE
  5
34
100
AcDbEntity
  8
LC-001-002-----0
  6
CONTINUOUS
 62
             7
100
AcDbLine
 10
-150.751743
 20
0.0
 11
-150.751743
 21
-2.99791599999998
  0
LINE
  5
33
100
AcDbEntity
  8
1
  6
CONTINUOUS
 62
             7
100
AcDbLine
 10
-150.751743
 20
0.0
 11
150.751743
 21
0.0
  0
LINE
  5
32
100
AcDbEntity
  8
LC-001-002-----0
  6
CONTINUOUS
 62
             7
100
AcDbLine
 10
150.751743
 20
0.0
 11
150.751743
 21
-2.99791599999998
  0
LINE
  5
31
100
AcDbEntity
  8
1
  6
CONTINUOUS
 62
             7
100
AcDbLine
 10
150.751743
 20
-3.99791599999998
 11
-150.751743
 21
-3.99791599999998
  0
LINE
  5
30
100
AcDbEntity
  8
LC-001-002-----0
  6
CONTINUOUS
 62
             7
100
AcDbLine
 10
-150.751743
 20
-2.99791599999998
 11
-150.751743
 21
-3.0
  0
LINE
  5
2F
100
AcDbEntity
  8
1
  6
CONTINUOUS
 62
             7
100
AcDbLine
 10
-150.751743
 20
-6.118447
 11
150.751743
 21
-6.118447
  0
LINE
  5
2E
100
AcDbEntity
  8
1
  6
CONTINUOUS
 62
             7
100
AcDbLine
 10
112.9908190000001
 20
-10.76382999999998
 11
-112.99713899999981
 21
-10.76382999999998
  0
LINE
  5
2D
100
AcDbEntity
  8
1
  6
CONTINUOUS
 62
             7
100
AcDbLine
 10
-119.0758969999999
 20
-8.33343600000001
 11
119.069577
 21
-8.33343600000001
  0
LINE
  5
2C
100
AcDbEntity
  8
LC-001-002-----0
  6
CONTINUOUS
 62
             7
100
AcDbLine
 10
150.751743
 20
-3.99791599999998
 11
251.22433300000009
 21
-3.99791599999998
  0
ENDBLK
  5
265
100
AcDbEntity
  8
0
100
AcDbBlockEnd
  0
BLOCK
  5
268
100
AcDbEntity
  8
0
100
AcDbBlockBegin
  2
*D1
 70
             1
 10
0.0
 20
0.0
 30
0.0
  3
*D1
  1

  0
LINE
  5
269
100
AcDbEntity
  8
0
  6
CONTINUOUS
 62
             4
100
AcDbLine
 10
-150.75174300000003
 20
11.14982127784504
 11
150.75174299999998
 21
11.14982127784504
  0
LINE
  5
26A
100
AcDbEntity
  8
0
  6
CONTINUOUS
 62
             4
100
AcDbLine
 10
150.75174299999998
 20
0.00208400000003
 11
150.75174299999998
 21
13.14982127784504
  0
LINE
  5
26B
100
AcDbEntity
  8
0
  6
CONTINUOUS
 62
             4
100
AcDbLine
 10
-150.75174300000003
 20
0.0
 11
-150.75174300000003
 21
13.14982127784504
  0
SOLID
  5
26C
100
AcDbEntity
  8
0
 62
             4
100
AcDbTrace
 10
-140.75174300000003
 20
12.466346253719
 11
-140.75174300000003
 21
9.83329630197108
 12
-150.75174300000003
 22
11.14982127784504
 13
-150.75174300000003
 23
11.14982127784504
  0
SOLID
  5
26D
100
AcDbEntity
  8
0
 62
             4
100
AcDbTrace
 10
140.75174299999998
 20
9.83329630197108
 11
140.75174299999998
 21
12.466346253719
 12
150.75174299999998
 22
11.14982127784504
 13
150.75174299999998
 23
11.14982127784504
  0
MTEXT
  5
26F
100
AcDbEntity
  8
0
 62
             1
100
AcDbMText
 10
-37.08466828446034
 20
13.14980140048411
 30
0.0
 40
10.0
 41
0.0
 71
             7
 72
             1
  1
\C1;Ø\C1;300
  7
CONVERTER_1
 11
0.99999999999706
 21
0.00000242406841
 31
0.0
  0
ENDBLK
  5
270
100
AcDbEntity
  8
0
100
AcDbBlockEnd
  0
BLOCK
  5
274
100
AcDbEntity
  8
0
100
AcDbBlockBegin
  2
*D2
 70
             1
 10
0.0
 20
0.0
 30
0.0
  3
*D2
  1

  0
LINE
  5
275
100
AcDbEntity
  8
0
  6
CONTINUOUS
 62
             4
100
AcDbLine
 10
-72.5
 20
-246.58553120169901
 11
72.5
 21
-246.58553120169901
  0
LINE
  5
276
100
AcDbEntity
  8
0
  6
CONTINUOUS
 62
             4
100
AcDbLine
 10
72.5
 20
-220.19791799999999
 11
72.5
 21
-248.58553120169901
  0
LINE
  5
277
100
AcDbEntity
  8
0
  6
CONTINUOUS
 62
             4
100
AcDbLine
 10
-72.5
 20
-220.19791799999999
 11
-72.5
 21
-248.58553120169901
  0
SOLID
  5
278
100
AcDbEntity
  8
0
 62
             4
100
AcDbTrace
 10
62.5
 20
-247.90205617757297
 11
62.5
 21
-245.26900622582505
 12
72.5
 22
-246.58553120169901
 13
72.5
 23
-246.58553120169901
  0
SOLID
  5
279
100
AcDbEntity
  8
0
 62
             4
100
AcDbTrace
 10
-62.5
 20
-245.26900622582505
 11
-62.5
 21
-247.90205617757297
 12
-72.5
 22
-246.58553120169901
 13
-72.5
 23
-246.58553120169901
  0
MTEXT
  5
27A
100
AcDbEntity
  8
0
 62
             1
100
AcDbMText
 10
-33.14756302675786
 20
-244.58555107905994
 30
0.0
 40
10.0
 41
0.0
 71
             7
 72
             1
  1
\C1;Ø\C1;145
  7
CONVERTER_1
 11
0.99999999999706
 21
0.00000242406841
 31
0.0
  0
ENDBLK
  5
27B
100
AcDbEntity
  8
0
100
AcDbBlockEnd
  0
BLOCK
  5
27F
100
AcDbEntity
  8
0
100
AcDbBlockBegin
  2
*D3
 70
             1
 10
0.0
 20
0.0
 30
0.0
  3
*D3
  1

  0
LINE
  5
280
100
AcDbEntity
  8
0
  6
CONTINUOUS
 62
             4
100
AcDbLine
 10
-251.22433299999989
 20
30.56626134175507
 11
251.22433300000009
 21
30.56626134175507
  0
LINE
  5
281
100
AcDbEntity
  8
0
  6
CONTINUOUS
 62
             4
100
AcDbLine
 10
251.22433300000009
 20
0.00208400000003
 11
251.22433300000009
 21
32.56626134175507
  0
LINE
  5
282
100
AcDbEntity
  8
0
  6
CONTINUOUS
 62
             4
100
AcDbLine
 10
-251.22433299999989
 20
0.0
 11
-251.22433299999989
 21
32.56626134175507
  0
SOLID
  5
283
100
AcDbEntity
  8
0
 62
             4
100
AcDbTrace
 10
-241.22433299999989
 20
31.88278631762903
 11
-241.22433299999989
 21
29.24973636588112
 12
-251.22433299999989
 22
30.56626134175507
 13
-251.22433299999989
 23
30.56626134175507
  0
SOLID
  5
284
100
AcDbEntity
  8
0
 62
             4
100
AcDbTrace
 10
241.22433300000009
 20
29.24973636588112
 11
241.22433300000009
 21
31.88278631762903
 12
251.22433300000009
 22
30.56626134175507
 13
251.22433300000009
 23
30.56626134175507
  0
MTEXT
  5
285
100
AcDbEntity
  8
0
 62
             1
100
AcDbMText
 10
11.86158410307318
 20
32.56624146439415
 30
0.0
 40
10.0
 41
0.0
 71
             7
 72
             1
  1
\C1;Ø\C1;500
  7
CONVERTER_1
 11
0.99999999999706
 21
0.00000242406841
 31
0.0
  0
ENDBLK
  5
286
100
AcDbEntity
  8
0
100
AcDbBlockEnd
  0
BLOCK
  5
28A
100
AcDbEntity
  8
0
100
AcDbBlockBegin
  2
*D4
 70
             1
 10
0.0
 20
0.0
 30
0.0
  3
*D4
  1

  0
LINE
  5
28B
100
AcDbEntity
  8
0
  6
CONTINUOUS
 62
             4
100
AcDbLine
 10
-91.53697075777595
 20
-225.19791799999999
 11
-91.53697075777595
 21
-45.19791800000002
  0
LINE
  5
28C
100
AcDbEntity
  8
0
  6
CONTINUOUS
 62
             4
100
AcDbLine
 10
-74.5
 20
-45.19791800000002
 11
-93.53697075777595
 21
-45.19791800000002
  0
LINE
  5
28D
100
AcDbEntity
  8
0
  6
CONTINUOUS
 62
             4
100
AcDbLine
 10
-71.1602539999999
 20
-225.19791799999999
 11
-93.53697075777595
 21
-225.19791799999999
  0
SOLID
  5
28E
100
AcDbEntity
  8
0
 62
             4
100
AcDbTrace
 10
-92.85349573364991
 20
-215.19791799999999
 11
-90.22044578190199
 21
-215.19791799999999
 12
-91.53697075777595
 22
-225.19791799999999
 13
-91.53697075777595
 23
-225.19791799999999
  0
SOLID
  5
28F
100
AcDbEntity
  8
0
 62
             4
100
AcDbTrace
 10
-90.22044578190199
 20
-55.19791800000002
 11
-92.85349573364991
 21
-55.19791800000002
 12
-91.53697075777595
 22
-45.19791800000002
 13
-91.53697075777595
 23
-45.19791800000002
  0
MTEXT
  5
290
100
AcDbEntity
  8
0
 62
             1
100
AcDbMText
 10
-93.53697075777595
 20
-152.13899241996199
 30
0.0
 40
10.0
 41
0.0
 71
             7
 72
             1
  1
180
  7
CONVERTER_1
 11
0.0
 21
1.0
 31
0.0
  0
ENDBLK
  5
291
100
AcDbEntity
  8
0
100
AcDbBlockEnd
  0
BLOCK
  5
295
100
AcDbEntity
  8
0
100
AcDbBlockBegin
  2
*D5
 70
             1
 10
0.0
 20
0.0
 30
0.0
  3
*D5
  1

  0
LINE
  5
296
100
AcDbEntity
  8
0
  6
CONTINUOUS
 62
             4
100
AcDbLine
 10
-261.22433299999989
 20
-225.19791800000002
 11
-261.22433299999989
 21
0.0
  0
LINE
  5
297
100
AcDbEntity
  8
0
  6
CONTINUOUS
 62
             4
100
AcDbLine
 10
-251.22433299999989
 20
0.0
 11
-263.22433299999989
 21
0.0
  0
LINE
  5
298
100
AcDbEntity
  8
0
  6
CONTINUOUS
 62
             4
100
AcDbLine
 10
-71.1602539999999
 20
-225.19791800000002
 11
-263.22433299999989
 21
-225.19791800000002
  0
SOLID
  5
299
100
AcDbEntity
  8
0
 62
             4
100
AcDbTrace
 10
-262.54085797587385
 20
-215.19791800000002
 11
-259.90780802412593
 21
-215.19791800000002
 12
-261.22433299999989
 22
-225.19791800000002
 13
-261.22433299999989
 23
-225.19791800000002
  0
SOLID
  5
29A
100
AcDbEntity
  8
0
 62
             4
100
AcDbTrace
 10
-259.90780802412593
 20
-10.0
 11
-262.54085797587385
 21
-10.0
 12
-261.22433299999989
 22
0.0
 13
-261.22433299999989
 23
0.0
  0
MTEXT
  5
29B
100
AcDbEntity
  8
0
 62
             1
100
AcDbMText
 10
-263.22433299999989
 20
-126.9685668497832
 30
0.0
 40
10.0
 41
0.0
 71
             7
 72
             1
  1
225
  7
CONVERTER_1
 11
0.0
 21
1.0
 31
0.0
  0
ENDBLK
  5
29C
100
AcDbEntity
  8
0
100
AcDbBlockEnd
  0
ENDSEC
  0
SECTION
  2
ENTITIES
  0
DIMENSION
  5
29E
100
AcDbEntity
  8
1
100
AcDbDimension
  2
*D5
 10
-261.22433299999989
 20
-225.19791800000002
 11
-268.22433299999989
 21
-114.9685668497832
 31
0.0
 53
90.0
  1
<>
  3
ME10_DIM_4
100
AcDbAlignedDimension
 13
-251.22433299999989
 23
0.0
 14
-71.1602539999999
 24
-225.19791799999999
 50
90.0
100
AcDbRotatedDimension
  0
DIMENSION
  5
293
100
AcDbEntity
  8
1
100
AcDbDimension
  2
*D4
 10
-91.53697075777595
 20
-225.19791799999999
 11
-98.53697075777595
 21
-141.63899241996199
 31
0.0
 53
90.0
  1
<>
  3
ME10_DIM_3
100
AcDbAlignedDimension
 13
-74.5
 23
-45.19791800000002
 14
-71.1602539999999
 24
-225.19791799999999
 50
90.0
100
AcDbRotatedDimension
  0
DIMENSION
  5
288
100
AcDbEntity
  8
1
100
AcDbDimension
  2
*D3
 10
-251.22433299999989
 20
30.56626134175507
 11
26.06158410304909
 21
37.56626134175507
 31
0.0
 53
180.0
  1
Ø500
  3
ME10_DIM_2
100
AcDbAlignedDimension
 13
251.22433300000009
 23
0.00208400000002
 14
-251.22433299999989
 24
0.0
 50
180.0
100
AcDbRotatedDimension
  0
DIMENSION
  5
27D
100
AcDbEntity
  8
1
100
AcDbDimension
  2
*D2
 10
72.5
 20
-246.58553120169901
 11
-20.44756302678195
 21
-239.58553120169901
 31
0.0
 53
180.0
  1
<>
  3
ME10_DIM_1
100
AcDbAlignedDimension
 13
-72.5
 23
-220.19791799999999
 14
72.5
 24
-220.19791799999999
 50
180.0
100
AcDbRotatedDimension
  0
DIMENSION
  5
272
100
AcDbEntity
  8
1
100
AcDbDimension
  2
*D1
 10
-150.75174300000003
 20
11.14982127784504
 11
-22.88466828448443
 21
18.14982127784504
 31
0.0
 53
180.0
  1
Ø300
  3
ME10_DIM_0
100
AcDbAlignedDimension
 13
150.751743
 23
0.00208400000002
 14
-150.751743
 24
0.0
 50
180.0
100
AcDbRotatedDimension
  0
INSERT
  5
2B
100
AcDbEntity
  8
1
100
AcDbBlockReference
  2
HL_350_1H_AUFSTOCKELEMT__1
 10
-251.22433299999989
 20
-308.35610600000001
  0
ENDSEC
  0
SECTION
  2
OBJECTS
  0
DICTIONARY
  5
19
100
AcDbDictionary
  3
ACAD_GROUP
350
1A
  3
ACAD_MLINESTYLE
350
1B
  0
DICTIONARY
  5
1A
102
{ACAD_REACTORS
330
19
102
}
100
AcDbDictionary
  0
DICTIONARY
  5
1B
102
{ACAD_REACTORS
330
19
102
}
100
AcDbDictionary
  3
STANDARD
350
1C
  0
MLINESTYLE
  5
1C
102
{ACAD_REACTORS
330
1B
102
}
100
AcDbMlineStyle
  2
STANDARD
 70
             0
  3

 62
             0
 51
90.0
 52
90.0
 71
             2
 49
0.5
 62
           256
  6
BYLAYER
 49
-0.5
 62
           256
  6
BYLAYER
  0
ENDSEC
  0
EOF
