  0
SECTION
  2
HEADER
  9
$ACADVER
  1
AC1015
  9
$ACADMAINTVER
 70
     6
  9
$DWGCODEPAGE
  3
ANSI_1252
  9
$INSBASE
 10
0.0
 20
0.0
 30
0.0
  9
$EXTMIN
 10
-351.7882186318452
 20
255.5
 30
0.0
  9
$EXTMAX
 10
-173.647982958917
 20
654.068486305072
 30
0.0
  9
$LIMMIN
 10
0.0
 20
0.0
  9
$LIMMAX
 10
12.0
 20
9.0
  9
$ORTHOMODE
 70
     0
  9
$REGENMODE
 70
     1
  9
$FILLMODE
 70
     1
  9
$QTEXTMODE
 70
     0
  9
$MIRRTEXT
 70
     1
  9
$LTSCALE
 40
1.0
  9
$ATTMODE
 70
     1
  9
$TEXTSIZE
 40
0.2
  9
$TRACEWID
 40
0.05
  9
$TEXTSTYLE
  7
Standard
  9
$CLAYER
  8
0
  9
$CELTYPE
  6
ByLayer
  9
$CECOLOR
 62
   256
  9
$CELTSCALE
 40
1.0
  9
$DISPSILH
 70
     0
  9
$DIMSCALE
 40
1.0
  9
$DIMASZ
 40
0.18
  9
$DIMEXO
 40
0.0625
  9
$DIMDLI
 40
0.38
  9
$DIMRND
 40
0.0
  9
$DIMDLE
 40
0.0
  9
$DIMEXE
 40
0.18
  9
$DIMTP
 40
0.0
  9
$DIMTM
 40
0.0
  9
$DIMTXT
 40
0.18
  9
$DIMCEN
 40
0.09
  9
$DIMTSZ
 40
0.0
  9
$DIMTOL
 70
     0
  9
$DIMLIM
 70
     0
  9
$DIMTIH
 70
     1
  9
$DIMTOH
 70
     1
  9
$DIMSE1
 70
     0
  9
$DIMSE2
 70
     0
  9
$DIMTAD
 70
     0
  9
$DIMZIN
 70
     0
  9
$DIMBLK
  1

  9
$DIMASO
 70
     1
  9
$DIMSHO
 70
     1
  9
$DIMPOST
  1

  9
$DIMAPOST
  1

  9
$DIMALT
 70
     0
  9
$DIMALTD
 70
     2
  9
$DIMALTF
 40
25.4
  9
$DIMLFAC
 40
1.0
  9
$DIMTOFL
 70
     0
  9
$DIMTVP
 40
0.0
  9
$DIMTIX
 70
     0
  9
$DIMSOXD
 70
     0
  9
$DIMSAH
 70
     0
  9
$DIMBLK1
  1

  9
$DIMBLK2
  1

  9
$DIMSTYLE
  2
Standard
  9
$DIMCLRD
 70
     0
  9
$DIMCLRE
 70
     0
  9
$DIMCLRT
 70
     0
  9
$DIMTFAC
 40
1.0
  9
$DIMGAP
 40
0.09
  9
$DIMJUST
 70
     0
  9
$DIMSD1
 70
     0
  9
$DIMSD2
 70
     0
  9
$DIMTOLJ
 70
     1
  9
$DIMTZIN
 70
     0
  9
$DIMALTZ
 70
     0
  9
$DIMALTTZ
 70
     0
  9
$DIMUPT
 70
     0
  9
$DIMDEC
 70
     4
  9
$DIMTDEC
 70
     4
  9
$DIMALTU
 70
     2
  9
$DIMALTTD
 70
     2
  9
$DIMTXSTY
  7
Standard
  9
$DIMAUNIT
 70
     0
  9
$DIMADEC
 70
     0
  9
$DIMALTRND
 40
0.0
  9
$DIMAZIN
 70
     0
  9
$DIMDSEP
 70
    46
  9
$DIMATFIT
 70
     3
  9
$DIMFRAC
 70
     0
  9
$DIMLDRBLK
  1

  9
$DIMLUNIT
 70
     2
  9
$DIMLWD
 70
    -2
  9
$DIMLWE
 70
    -2
  9
$DIMTMOVE
 70
     0
  9
$LUNITS
 70
     2
  9
$LUPREC
 70
     4
  9
$SKETCHINC
 40
0.1
  9
$FILLETRAD
 40
0.5
  9
$AUNITS
 70
     0
  9
$AUPREC
 70
     0
  9
$MENU
  1
.
  9
$ELEVATION
 40
0.0
  9
$PELEVATION
 40
0.0
  9
$THICKNESS
 40
0.0
  9
$LIMCHECK
 70
     0
  9
$CHAMFERA
 40
0.0
  9
$CHAMFERB
 40
0.0
  9
$CHAMFERC
 40
0.0
  9
$CHAMFERD
 40
0.0
  9
$SKPOLY
 70
     0
  9
$TDCREATE
 40
2459788.67249081
  9
$TDUCREATE
 40
2459788.589157477
  9
$TDUPDATE
 40
2459788.672490995
  9
$TDUUPDATE
 40
2459788.589157662
  9
$TDINDWG
 40
0.0000000116
  9
$TDUSRTIMER
 40
0.0000000116
  9
$USRTIMER
 70
     1
  9
$ANGBASE
 50
0.0
  9
$ANGDIR
 70
     0
  9
$PDMODE
 70
     0
  9
$PDSIZE
 40
0.0
  9
$PLINEWID
 40
0.0
  9
$SPLFRAME
 70
     0
  9
$SPLINETYPE
 70
     6
  9
$SPLINESEGS
 70
     8
  9
$HANDSEED
  5
428
  9
$SURFTAB1
 70
     6
  9
$SURFTAB2
 70
     6
  9
$SURFTYPE
 70
     6
  9
$SURFU
 70
     6
  9
$SURFV
 70
     6
  9
$UCSBASE
  2

  9
$UCSNAME
  2

  9
$UCSORG
 10
0.0
 20
0.0
 30
0.0
  9
$UCSXDIR
 10
1.0
 20
0.0
 30
0.0
  9
$UCSYDIR
 10
0.0
 20
1.0
 30
0.0
  9
$UCSORTHOREF
  2

  9
$UCSORTHOVIEW
 70
     0
  9
$UCSORGTOP
 10
0.0
 20
0.0
 30
0.0
  9
$UCSORGBOTTOM
 10
0.0
 20
0.0
 30
0.0
  9
$UCSORGLEFT
 10
0.0
 20
0.0
 30
0.0
  9
$UCSORGRIGHT
 10
0.0
 20
0.0
 30
0.0
  9
$UCSORGFRONT
 10
0.0
 20
0.0
 30
0.0
  9
$UCSORGBACK
 10
0.0
 20
0.0
 30
0.0
  9
$PUCSBASE
  2

  9
$PUCSNAME
  2

  9
$PUCSORG
 10
0.0
 20
0.0
 30
0.0
  9
$PUCSXDIR
 10
1.0
 20
0.0
 30
0.0
  9
$PUCSYDIR
 10
0.0
 20
1.0
 30
0.0
  9
$PUCSORTHOREF
  2

  9
$PUCSORTHOVIEW
 70
     0
  9
$PUCSORGTOP
 10
0.0
 20
0.0
 30
0.0
  9
$PUCSORGBOTTOM
 10
0.0
 20
0.0
 30
0.0
  9
$PUCSORGLEFT
 10
0.0
 20
0.0
 30
0.0
  9
$PUCSORGRIGHT
 10
0.0
 20
0.0
 30
0.0
  9
$PUCSORGFRONT
 10
0.0
 20
0.0
 30
0.0
  9
$PUCSORGBACK
 10
0.0
 20
0.0
 30
0.0
  9
$USERI1
 70
     0
  9
$USERI2
 70
     0
  9
$USERI3
 70
     0
  9
$USERI4
 70
     0
  9
$USERI5
 70
     0
  9
$USERR1
 40
20.4
  9
$USERR2
 40
0.0
  9
$USERR3
 40
0.0
  9
$USERR4
 40
0.0
  9
$USERR5
 40
0.0
  9
$WORLDVIEW
 70
     1
  9
$SHADEDGE
 70
     3
  9
$SHADEDIF
 70
    70
  9
$TILEMODE
 70
     1
  9
$MAXACTVP
 70
    64
  9
$PINSBASE
 10
0.0
 20
0.0
 30
0.0
  9
$PLIMCHECK
 70
     0
  9
$PEXTMIN
 10
1.00000000000000E+20
 20
1.00000000000000E+20
 30
1.00000000000000E+20
  9
$PEXTMAX
 10
-1.00000000000000E+20
 20
-1.00000000000000E+20
 30
-1.00000000000000E+20
  9
$PLIMMIN
 10
0.0
 20
0.0
  9
$PLIMMAX
 10
12.0
 20
9.0
  9
$UNITMODE
 70
     0
  9
$VISRETAIN
 70
     1
  9
$PLINEGEN
 70
     0
  9
$PSLTSCALE
 70
     1
  9
$TREEDEPTH
 70
  3020
  9
$CMLSTYLE
  2
Standard
  9
$CMLJUST
 70
     0
  9
$CMLSCALE
 40
1.0
  9
$PROXYGRAPHICS
 70
     1
  9
$MEASUREMENT
 70
     1
  9
$CELWEIGHT
370
    -1
  9
$ENDCAPS
280
     0
  9
$JOINSTYLE
280
     0
  9
$LWDISPLAY
290
     0
  9
$INSUNITS
 70
     4
  9
$HYPERLINKBASE
  1

  9
$STYLESHEET
  1

  9
$XEDIT
290
     1
  9
$CEPSNTYPE
380
     0
  9
$PSTYLEMODE
290
     1
  9
$FINGERPRINTGUID
  2
{522d9caf-6962-4eea-a7ed-d1dc05c12977}
  9
$VERSIONGUID
  2
{FAEB1C32-E019-11D5-929B-00C0DF256EC4}
  9
$EXTNAMES
290
     1
  9
$PSVPSCALE
 40
0.0
  9
$OLESTARTUP
290
     0
  0
ENDSEC
  0
SECTION
  2
CLASSES
  0
CLASS
  1
ACDBDICTIONARYWDFLT
  2
AcDbDictionaryWithDefault
  3
ObjectDBX Classes
 90
        0
280
     0
281
     0
  0
CLASS
  1
VISUALSTYLE
  2
AcDbVisualStyle
  3
ObjectDBX Classes
 90
     4095
280
     0
281
     0
  0
CLASS
  1
MATERIAL
  2
AcDbMaterial
  3
ObjectDBX Classes
 90
     1153
280
     0
281
     0
  0
CLASS
  1
SCALE
  2
AcDbScale
  3
ObjectDBX Classes
 90
     1153
280
     0
281
     0
  0
CLASS
  1
TABLESTYLE
  2
AcDbTableStyle
  3
ObjectDBX Classes
 90
     4095
280
     0
281
     0
  0
CLASS
  1
MLEADERSTYLE
  2
AcDbMLeaderStyle
  3
ACDB_MLEADERSTYLE_CLASS
 90
     4095
280
     0
281
     0
  0
CLASS
  1
SUN
  2
AcDbSun
  3
SCENEOE
 90
     1153
280
     0
281
     0
  0
CLASS
  1
DICTIONARYVAR
  2
AcDbDictionaryVar
  3
ObjectDBX Classes
 90
        0
280
     0
281
     0
  0
CLASS
  1
ACDBPLACEHOLDER
  2
AcDbPlaceHolder
  3
ObjectDBX Classes
 90
        0
280
     0
281
     0
  0
CLASS
  1
LAYOUT
  2
AcDbLayout
  3
ObjectDBX Classes
 90
        0
280
     0
281
     0
  0
ENDSEC
  0
SECTION
  2
TABLES
  0
TABLE
  2
VPORT
  5
8
102
{ACAD_XDICTIONARY
360
3EB
102
}
330
0
100
AcDbSymbolTable
 70
     1
  0
VPORT
  5
29
330
8
100
AcDbSymbolTableRecord
100
AcDbViewportTableRecord
  2
*Active
 70
     0
 10
0.0
 20
0.0
 11
1.0
 21
1.0
 12
-262.7181007953811
 22
454.784243152536
 13
0.0
 23
0.0
 14
0.5
 24
0.5
 15
0.5
 25
0.5
 16
0.0
 26
0.0
 36
1.0
 17
0.0
 27
0.0
 37
0.0
 40
438.4253349355793
 41
1.60267857142857
 42
50.0
 43
0.0
 44
0.0
 50
0.0
 51
0.0
 71
     0
 72
   100
 73
     1
 74
     3
 75
     0
 76
     0
 77
     0
 78
     0
281
     0
 65
     1
110
0.0
120
0.0
130
0.0
111
1.0
121
0.0
131
0.0
112
0.0
122
1.0
132
0.0
 79
     0
146
0.0
  0
ENDTAB
  0
TABLE
  2
LTYPE
  5
5
330
0
100
AcDbSymbolTable
 70
     8
  0
LTYPE
  5
14
330
5
100
AcDbSymbolTableRecord
100
AcDbLinetypeTableRecord
  2
ByBlock
 70
     0
  3

 72
    65
 73
     0
 40
0.0
  0
LTYPE
  5
15
330
5
100
AcDbSymbolTableRecord
100
AcDbLinetypeTableRecord
  2
ByLayer
 70
     0
  3

 72
    65
 73
     0
 40
0.0
  0
LTYPE
  5
16
330
5
100
AcDbSymbolTableRecord
100
AcDbLinetypeTableRecord
  2
Continuous
 70
     0
  3
Solid line
 72
    65
 73
     0
 40
0.0
  0
LTYPE
  5
6E
330
5
100
AcDbSymbolTableRecord
100
AcDbLinetypeTableRecord
  2
DASHED
 70
     0
  3
Dashed
 72
    65
 73
     2
 40
15.0
 49
7.0
 74
     0
 49
-8.0
 74
     0
  0
LTYPE
  5
6F
330
5
100
AcDbSymbolTableRecord
100
AcDbLinetypeTableRecord
  2
DOTTED
 70
     0
  3
Dotted
 72
    65
 73
     2
 40
1.0
 49
0.0
 74
     0
 49
-1.0
 74
     0
  0
LTYPE
  5
70
330
5
100
AcDbSymbolTableRecord
100
AcDbLinetypeTableRecord
  2
DOT_CENTER
 70
     0
  3
Dot_Center
 72
    65
 73
     4
 40
14.0
 49
12.0
 74
     0
 49
-1.0
 74
     0
 49
0.0
 74
     0
 49
-1.0
 74
     0
  0
LTYPE
  5
71
330
5
100
AcDbSymbolTableRecord
100
AcDbLinetypeTableRecord
  2
LONG_DASHED
 70
     0
  3
Long_Dashed
 72
    65
 73
     2
 40
15.0
 49
10.0
 74
     0
 49
-5.0
 74
     0
  0
LTYPE
  5
72
330
5
100
AcDbSymbolTableRecord
100
AcDbLinetypeTableRecord
  2
DASH_CENTER
 70
     0
  3
Dash_Center
 72
    65
 73
     4
 40
14.0
 49
11.0
 74
     0
 49
-1.0
 74
     0
 49
1.0
 74
     0
 49
-1.0
 74
     0
  0
LTYPE
  5
73
330
5
100
AcDbSymbolTableRecord
100
AcDbLinetypeTableRecord
  2
PHANTOM
 70
     0
  3
Phantom
 72
    65
 73
     6
 40
13.0
 49
10.0
 74
     0
 49
-1.0
 74
     0
 49
0.0
 74
     0
 49
-1.0
 74
     0
 49
0.0
 74
     0
 49
-1.0
 74
     0
  0
LTYPE
  5
74
330
5
100
AcDbSymbolTableRecord
100
AcDbLinetypeTableRecord
  2
CENTER_DASH_DASH
 70
     0
  3
Center_Dash_Dash
 72
    65
 73
     6
 40
14.0
 49
9.0
 74
     0
 49
-1.0
 74
     0
 49
1.0
 74
     0
 49
-1.0
 74
     0
 49
1.0
 74
     0
 49
-1.0
 74
     0
  0
ENDTAB
  0
TABLE
  2
LAYER
  5
2
330
0
100
AcDbSymbolTable
 70
     2
  0
LAYER
  5
10
330
2
100
AcDbSymbolTableRecord
100
AcDbLayerTableRecord
  2
0
 70
     0
 62
     7
  6
Continuous
370
    -3
390
F
  0
LAYER
  5
75
330
2
100
AcDbSymbolTableRecord
100
AcDbLayerTableRecord
  2
1
 70
     0
 62
     7
  6
Continuous
370
    -3
390
F
  0
ENDTAB
  0
TABLE
  2
STYLE
  5
3
330
0
100
AcDbSymbolTable
 70
     2
  0
STYLE
  5
11
330
3
100
AcDbSymbolTableRecord
100
AcDbTextStyleTableRecord
  2
Standard
 70
     0
 40
0.0
 41
1.0
 50
0.0
 71
     0
 42
0.2
  3
txt
  4

  0
STYLE
  5
21D
330
3
100
AcDbSymbolTableRecord
100
AcDbTextStyleTableRecord
  2
CONVERTER_11
 70
     0
 40
0.0
 41
0.9
 50
0.0
 71
     0
 42
0.2
  3
txt.shx
  4

  0
ENDTAB
  0
TABLE
  2
VIEW
  5
6
330
0
100
AcDbSymbolTable
 70
     0
  0
ENDTAB
  0
TABLE
  2
UCS
  5
7
330
0
100
AcDbSymbolTable
 70
     0
  0
ENDTAB
  0
TABLE
  2
APPID
  5
9
330
0
100
AcDbSymbolTable
 70
     2
  0
APPID
  5
12
330
9
100
AcDbSymbolTableRecord
100
AcDbRegAppTableRecord
  2
ACAD
 70
     0
  0
APPID
  5
425
330
9
100
AcDbSymbolTableRecord
100
AcDbRegAppTableRecord
  2
ACAD_MLEADERVER
 70
     0
  0
ENDTAB
  0
TABLE
  2
DIMSTYLE
  5
A
330
0
100
AcDbSymbolTable
 70
     7
100
AcDbDimStyleTable
  0
DIMSTYLE
105
27
330
A
100
AcDbSymbolTableRecord
100
AcDbDimStyleTableRecord
  2
Standard
 70
     0
178
     0
340
11
  0
DIMSTYLE
105
228
102
{ACAD_REACTORS
330
229
102
}
330
A
100
AcDbSymbolTableRecord
100
AcDbDimStyleTableRecord
  2
ME10_DIM_10
 70
     0
  3
DN<>
 41
5.0
 42
0.0
 44
2.0
 73
     0
 74
     0
 77
     1
 78
     8
140
5.0
147
2.0
172
     1
173
     1
174
     1
175
     1
176
     4
177
     4
271
     2
178
     1
271
     2
340
21D
  0
DIMSTYLE
105
233
102
{ACAD_REACTORS
330
234
102
}
330
A
100
AcDbSymbolTableRecord
100
AcDbDimStyleTableRecord
  2
ME10_DIM_11
 70
     0
  3
<>
 41
5.0
 42
0.0
 44
2.0
 73
     0
 74
     0
 77
     1
 78
     8
140
5.0
147
2.0
172
     1
173
     1
174
     1
175
     1
176
     4
177
     4
271
     0
178
     1
271
     0
340
21D
  0
DIMSTYLE
105
23F
102
{ACAD_REACTORS
330
240
102
}
330
A
100
AcDbSymbolTableRecord
100
AcDbDimStyleTableRecord
  2
ME10_DIM_12
 70
     0
 41
5.0
 42
0.0
 44
2.0
 73
     0
 74
     0
 77
     1
 78
     8
140
5.0
147
2.0
172
     1
173
     1
174
     1
175
     1
176
     4
177
     4
271
     0
178
     1
271
     0
340
21D
  0
DIMSTYLE
105
24A
102
{ACAD_REACTORS
330
24B
102
}
330
A
100
AcDbSymbolTableRecord
100
AcDbDimStyleTableRecord
  2
ME10_DIM_13
 70
     0
  3
x150
 41
5.0
 42
0.0
 44
2.0
 73
     0
 74
     0
 77
     1
 78
     8
140
5.0
147
2.0
172
     1
173
     1
174
     1
175
     1
176
     4
177
     4
271
     2
178
     1
271
     2
340
21D
  0
DIMSTYLE
105
255
102
{ACAD_REACTORS
330
256
102
}
330
A
100
AcDbSymbolTableRecord
100
AcDbDimStyleTableRecord
  2
ME10_DIM_14
 70
     0
  3
{\Fgdt;n}<>
 41
5.0
 42
0.0
 44
2.0
 73
     0
 74
     0
 77
     1
 78
     8
140
5.0
147
2.0
172
     1
173
     1
174
     1
175
     1
176
     4
177
     4
271
     2
178
     1
271
     2
340
21D
  0
DIMSTYLE
105
260
102
{ACAD_REACTORS
330
261
102
}
330
A
100
AcDbSymbolTableRecord
100
AcDbDimStyleTableRecord
  2
ME10_DIM_15
 70
     0
  3
{\Fgdt;n}<>
 41
5.0
 42
0.0
 44
2.0
 73
     0
 74
     0
 77
     1
 78
     8
140
5.0
147
2.0
172
     1
173
     1
174
     1
175
     1
176
     4
177
     4
271
     2
178
     1
271
     2
340
21D
  0
ENDTAB
  0
TABLE
  2
BLOCK_RECORD
  5
1
330
0
100
AcDbSymbolTable
 70
    22
  0
BLOCK_RECORD
  5
1F
330
1
100
AcDbSymbolTableRecord
100
AcDbBlockTableRecord
  2
*Model_Space
340
22
  0
BLOCK_RECORD
  5
1B
330
1
100
AcDbSymbolTableRecord
100
AcDbBlockTableRecord
  2
*Paper_Space
340
1E
  0
BLOCK_RECORD
  5
23
330
1
100
AcDbSymbolTableRecord
100
AcDbBlockTableRecord
  2
*Paper_Space0
340
26
  0
BLOCK_RECORD
  5
76
330
1
100
AcDbSymbolTableRecord
100
AcDbBlockTableRecord
  2
Rost-301020056_1__1
340
0
102
{BLKREFS
331
89
102
}
  0
BLOCK_RECORD
  5
79
330
1
100
AcDbSymbolTableRecord
100
AcDbBlockTableRecord
  2
Ring75-301020055__2
340
0
102
{BLKREFS
331
8A
102
}
  0
BLOCK_RECORD
  5
7C
330
1
100
AcDbSymbolTableRecord
100
AcDbBlockTableRecord
  2
Rost-301020056__3
340
0
102
{BLKREFS
331
8B
102
}
  0
BLOCK_RECORD
  5
7F
330
1
100
AcDbSymbolTableRecord
100
AcDbBlockTableRecord
  2
Aufsatz-150x150-309701876__4
340
0
102
{BLKREFS
331
8C
102
}
  0
BLOCK_RECORD
  5
82
330
1
100
AcDbSymbolTableRecord
100
AcDbBlockTableRecord
  2
Distanzring-304051867
340
0
102
{BLKREFS
331
8D
102
}
  0
BLOCK_RECORD
  5
85
330
1
100
AcDbSymbolTableRecord
100
AcDbBlockTableRecord
  2
Aufsatz-D110-300021825
340
0
102
{BLKREFS
331
8E
102
}
  0
BLOCK_RECORD
  5
88
330
1
100
AcDbSymbolTableRecord
100
AcDbBlockTableRecord
  2
HL39D-WEB-Zeichnung__5
340
0
102
{BLKREFS
331
92
102
}
  0
BLOCK_RECORD
  5
91
330
1
100
AcDbSymbolTableRecord
100
AcDbBlockTableRecord
  2
Untsicht1
340
0
102
{BLKREFS
331
B0
102
}
  0
BLOCK_RECORD
  5
95
330
1
100
AcDbSymbolTableRecord
100
AcDbBlockTableRecord
  2
Rost-301020056__6
340
0
102
{BLKREFS
331
A5
102
}
  0
BLOCK_RECORD
  5
98
330
1
100
AcDbSymbolTableRecord
100
AcDbBlockTableRecord
  2
Aufsatz-150x150-309701876__7
340
0
102
{BLKREFS
331
A6
102
}
  0
BLOCK_RECORD
  5
9B
330
1
100
AcDbSymbolTableRecord
100
AcDbBlockTableRecord
  2
Rost-301020056_1__8
340
0
102
{BLKREFS
331
A7
102
}
  0
BLOCK_RECORD
  5
9E
330
1
100
AcDbSymbolTableRecord
100
AcDbBlockTableRecord
  2
Ring75-301020055__9
340
0
102
{BLKREFS
331
A8
102
}
  0
BLOCK_RECORD
  5
A1
330
1
100
AcDbSymbolTableRecord
100
AcDbBlockTableRecord
  2
Ring50-301020054
340
0
102
{BLKREFS
331
A9
102
}
  0
BLOCK_RECORD
  5
A4
330
1
100
AcDbSymbolTableRecord
100
AcDbBlockTableRecord
  2
HL39D-WEB-Zeichnung__10
340
0
102
{BLKREFS
331
AD
102
}
  0
BLOCK_RECORD
  5
AC
330
1
100
AcDbSymbolTableRecord
100
AcDbBlockTableRecord
  2
Vordans2
340
0
102
{BLKREFS
331
B1
102
}
  0
BLOCK_RECORD
  5
21F
330
1
100
AcDbSymbolTableRecord
100
AcDbBlockTableRecord
  2
*D16
340
0
  0
BLOCK_RECORD
  5
22A
330
1
100
AcDbSymbolTableRecord
100
AcDbBlockTableRecord
  2
*D17
340
0
  0
BLOCK_RECORD
  5
235
330
1
100
AcDbSymbolTableRecord
100
AcDbBlockTableRecord
  2
*D18
340
0
  0
BLOCK_RECORD
  5
241
330
1
100
AcDbSymbolTableRecord
100
AcDbBlockTableRecord
  2
*D19
340
0
  0
BLOCK_RECORD
  5
24C
330
1
100
AcDbSymbolTableRecord
100
AcDbBlockTableRecord
  2
*D20
340
0
  0
BLOCK_RECORD
  5
257
330
1
100
AcDbSymbolTableRecord
100
AcDbBlockTableRecord
  2
*D21
340
0
  0
ENDTAB
  0
ENDSEC
  0
SECTION
  2
BLOCKS
  0
BLOCK
  5
20
330
1F
100
AcDbEntity
  8
0
100
AcDbBlockBegin
  2
*Model_Space
 70
     0
 10
0.0
 20
0.0
 30
0.0
  3
*Model_Space
  1

  0
ENDBLK
  5
21
330
1F
100
AcDbEntity
  8
0
100
AcDbBlockEnd
  0
BLOCK
  5
1C
330
1B
100
AcDbEntity
 67
     1
  8
0
100
AcDbBlockBegin
  2
*Paper_Space
 70
     0
 10
0.0
 20
0.0
 30
0.0
  3
*Paper_Space
  1

  0
ENDBLK
  5
1D
330
1B
100
AcDbEntity
 67
     1
  8
0
100
AcDbBlockEnd
  0
BLOCK
  5
24
330
23
100
AcDbEntity
  8
0
100
AcDbBlockBegin
  2
*Paper_Space0
 70
     0
 10
0.0
 20
0.0
 30
0.0
  3
*Paper_Space0
  1

  0
ENDBLK
  5
25
330
23
100
AcDbEntity
  8
0
100
AcDbBlockEnd
  0
BLOCK
  5
77
330
76
100
AcDbEntity
  8
0
100
AcDbBlockBegin
  2
Rost-301020056_1__1
 70
     0
 10
-273.9999999999999
 20
602.7500000024639
 30
0.0
  3
Rost-301020056_1__1
  1

  0
LINE
  5
B2
330
76
100
AcDbEntity
  8
0
  6
Continuous
 62
     7
100
AcDbLine
 10
-233.2152337862827
 20
602.7500000024642
 30
0.0
 11
-233.4999999999999
 21
602.7500000024644
 31
0.0
  0
LINE
  5
B3
330
76
100
AcDbEntity
  8
0
  6
Continuous
 62
     7
100
AcDbLine
 10
-231.9999999999999
 20
602.7500000024642
 30
0.0
 11
-233.2152337862827
 21
602.7500000024642
 31
0.0
  0
LINE
  5
B4
330
76
100
AcDbEntity
  8
0
  6
Continuous
 62
     7
100
AcDbLine
 10
-231.5735931717798
 20
602.7500000024639
 30
0.0
 11
-231.9999999999999
 21
602.7500000024642
 31
0.0
  0
LINE
  5
B5
330
76
100
AcDbEntity
  8
0
  6
Continuous
 62
     7
100
AcDbLine
 10
-231.1977382503906
 20
602.7500000024642
 30
0.0
 11
-231.5735931717798
 21
602.7500000024639
 31
0.0
  0
LINE
  5
B6
330
76
100
AcDbEntity
  8
0
  6
Continuous
 62
     7
100
AcDbLine
 10
-230.4389545108926
 20
602.7500000024642
 30
0.0
 11
-231.1977382503906
 21
602.7500000024642
 31
0.0
  0
LINE
  5
B7
330
76
100
AcDbEntity
  8
0
  6
Continuous
 62
     7
100
AcDbLine
 10
-229.6567825108926
 20
602.7500000024642
 30
0.0
 11
-230.4389545108926
 21
602.7500000024642
 31
0.0
  0
LINE
  5
B8
330
76
100
AcDbEntity
  8
0
  6
Continuous
 62
     7
100
AcDbLine
 10
-229.4522728282201
 20
602.7500000024639
 30
0.0
 11
-229.6567825108926
 21
602.7500000024642
 31
0.0
  0
LINE
  5
B9
330
76
100
AcDbEntity
  8
0
  6
Continuous
 62
     7
100
AcDbLine
 10
-229.1920736975603
 20
602.750000002464
 30
0.0
 11
-229.4522728282201
 21
602.7500000024639
 31
0.0
  0
LINE
  5
BA
330
76
100
AcDbEntity
  8
0
  6
Continuous
 62
     7
100
AcDbLine
 10
-270.7547675108926
 20
602.750000002464
 30
0.0
 11
-273.9999999999999
 21
602.7500000024642
 31
0.0
  0
LINE
  5
BB
330
76
100
AcDbEntity
  8
0
  6
Continuous
 62
     7
100
AcDbLine
 10
-269.5078866975603
 20
602.7500000024644
 30
0.0
 11
-270.7547675108926
 21
602.750000002464
 31
0.0
  0
LINE
  5
BC
330
76
100
AcDbEntity
  8
0
  6
Continuous
 62
     7
100
AcDbLine
 10
-238.6446608282201
 20
602.7500000024643
 30
0.0
 11
-240.7659811717802
 21
602.7500000024643
 31
0.0
  0
LINE
  5
BD
330
76
100
AcDbEntity
  8
0
  6
Continuous
 62
     7
100
AcDbLine
 10
-240.7659811717802
 20
602.7500000024643
 30
0.0
 11
-241.3805822137174
 21
602.7500000024644
 31
0.0
  0
LINE
  5
BE
330
76
100
AcDbEntity
  8
0
  6
Continuous
 62
     7
100
AcDbLine
 10
-241.3805822137174
 20
602.7500000024644
 30
0.0
 11
-242.0361062503906
 21
602.7500000024639
 31
0.0
  0
LINE
  5
BF
330
76
100
AcDbEntity
  8
0
  6
Continuous
 62
     7
100
AcDbLine
 10
-235.4851857862828
 20
602.7500000024643
 30
0.0
 11
-238.6446608282201
 21
602.7500000024643
 31
0.0
  0
LINE
  5
C0
330
76
100
AcDbEntity
  8
0
  6
Continuous
 62
     7
100
AcDbLine
 10
-234.8296617496093
 20
602.750000002464
 30
0.0
 11
-235.4851857862828
 21
602.7500000024643
 31
0.0
  0
LINE
  5
C1
330
76
100
AcDbEntity
  8
0
  6
Continuous
 62
     7
100
AcDbLine
 10
-233.4999999999999
 20
602.7500000024644
 30
0.0
 11
-234.8296617496093
 21
602.750000002464
 31
0.0
  0
LINE
  5
C2
330
76
100
AcDbEntity
  8
0
  6
Continuous
 62
     7
100
AcDbLine
 10
-264.5694456975602
 20
602.7500000024644
 30
0.0
 11
-267.1613703024395
 21
602.750000002464
 31
0.0
  0
LINE
  5
C3
330
76
100
AcDbEntity
  8
0
  6
Continuous
 62
     7
100
AcDbLine
 10
-267.1613703024395
 20
602.750000002464
 30
0.0
 11
-268.8775545108927
 21
602.750000002464
 31
0.0
  0
LINE
  5
C4
330
76
100
AcDbEntity
  8
0
  6
Continuous
 62
     7
100
AcDbLine
 10
-268.8775545108927
 20
602.750000002464
 30
0.0
 11
-269.5078866975603
 21
602.7500000024644
 31
0.0
  0
LINE
  5
C5
330
76
100
AcDbEntity
  8
0
  6
Continuous
 62
     7
100
AcDbLine
 10
-251.5699067496093
 20
602.7500000024643
 30
0.0
 11
-256.0249387496093
 21
602.7500000024644
 31
0.0
  0
LINE
  5
C6
330
76
100
AcDbEntity
  8
0
  6
Continuous
 62
     7
100
AcDbLine
 10
-262.8532614891072
 20
602.7500000024644
 30
0.0
 11
-264.5694456975602
 21
602.7500000024644
 31
0.0
  0
LINE
  5
C7
330
76
100
AcDbEntity
  8
0
  6
Continuous
 62
     7
100
AcDbLine
 10
-262.2229283024396
 20
602.750000002464
 30
0.0
 11
-262.8532614891072
 21
602.7500000024644
 31
0.0
  0
LINE
  5
C8
330
76
100
AcDbEntity
  8
0
  6
Continuous
 62
     7
100
AcDbLine
 10
-256.6804627862825
 20
602.750000002464
 30
0.0
 11
-260.9760474891072
 21
602.7500000024644
 31
0.0
  0
LINE
  5
C9
330
76
100
AcDbEntity
  8
0
  6
Continuous
 62
     7
100
AcDbLine
 10
-260.9760474891072
 20
602.7500000024644
 30
0.0
 11
-262.2229283024396
 21
602.750000002464
 31
0.0
  0
LINE
  5
CA
330
76
100
AcDbEntity
  8
0
  6
Continuous
 62
     7
100
AcDbLine
 10
-256.0249387496093
 20
602.7500000024644
 30
0.0
 11
-256.6804627862825
 21
602.750000002464
 31
0.0
  0
LINE
  5
CB
330
76
100
AcDbEntity
  8
0
  6
Continuous
 62
     7
100
AcDbLine
 10
-249.5524112137173
 20
602.7500000024643
 30
0.0
 11
-251.5699067496093
 21
602.7500000024643
 31
0.0
  0
LINE
  5
CC
330
76
100
AcDbEntity
  8
0
  6
Continuous
 62
     7
100
AcDbLine
 10
-246.4911382503906
 20
602.7500000024639
 30
0.0
 11
-248.5086337862825
 21
602.7500000024639
 31
0.0
  0
LINE
  5
CD
330
76
100
AcDbEntity
  8
0
  6
Continuous
 62
     7
100
AcDbLine
 10
-248.5086337862825
 20
602.7500000024639
 30
0.0
 11
-249.5524112137173
 21
602.7500000024643
 31
0.0
  0
LINE
  5
CE
330
76
100
AcDbEntity
  8
0
  6
Continuous
 62
     7
100
AcDbLine
 10
-244.3015151717802
 20
602.7500000024643
 30
0.0
 11
-246.4911382503906
 21
602.7500000024639
 31
0.0
  0
LINE
  5
CF
330
76
100
AcDbEntity
  8
0
  6
Continuous
 62
     7
100
AcDbLine
 10
-242.0361062503906
 20
602.7500000024639
 30
0.0
 11
-244.3015151717802
 21
602.7500000024643
 31
0.0
  0
LINE
  5
D0
330
76
100
AcDbEntity
  8
0
  6
Continuous
 62
     7
100
AcDbLine
 10
-227.9405983024396
 20
602.7500000024642
 30
0.0
 11
-229.1920736975603
 21
602.750000002464
 31
0.0
  0
LINE
  5
D1
330
76
100
AcDbEntity
  8
0
  6
Continuous
 62
     7
100
AcDbLine
 10
-214.8414574891072
 20
602.750000002464
 30
0.0
 11
-215.1596202503906
 21
602.7500000024642
 31
0.0
  0
LINE
  5
D2
330
76
100
AcDbEntity
  8
0
  6
Continuous
 62
     7
100
AcDbLine
 10
-215.1596202503906
 20
602.7500000024642
 30
0.0
 11
-215.6236294891072
 21
602.750000002464
 31
0.0
  0
LINE
  5
D3
330
76
100
AcDbEntity
  8
0
  6
Continuous
 62
     7
100
AcDbLine
 10
-218.7915447496093
 20
602.7500000024639
 30
0.0
 11
-225.9167388282201
 21
602.7500000024639
 31
0.0
  0
LINE
  5
D4
330
76
100
AcDbEntity
  8
0
  6
Continuous
 62
     7
100
AcDbLine
 10
-216.0883383024396
 20
602.750000002464
 30
0.0
 11
-216.7740492137174
 21
602.7500000024639
 31
0.0
  0
LINE
  5
D5
330
76
100
AcDbEntity
  8
0
  6
Continuous
 62
     7
100
AcDbLine
 10
-217.3398136975603
 20
602.750000002464
 30
0.0
 11
-218.7915447496093
 21
602.7500000024639
 31
0.0
  0
LINE
  5
D6
330
76
100
AcDbEntity
  8
0
  6
Continuous
 62
     7
100
AcDbLine
 10
-216.7740492137174
 20
602.7500000024639
 30
0.0
 11
-217.3398136975603
 21
602.750000002464
 31
0.0
  0
LINE
  5
D7
330
76
100
AcDbEntity
  8
0
  6
Continuous
 62
     7
100
AcDbLine
 10
-215.6236294891072
 20
602.750000002464
 30
0.0
 11
-216.0883383024396
 21
602.750000002464
 31
0.0
  0
LINE
  5
D8
330
76
100
AcDbEntity
  8
0
  6
Continuous
 62
     7
100
AcDbLine
 10
-225.9167388282201
 20
602.7500000024639
 30
0.0
 11
-227.9405983024396
 21
602.7500000024642
 31
0.0
  0
LINE
  5
D9
330
76
100
AcDbEntity
  8
0
  6
Continuous
 62
     7
100
AcDbLine
 10
-208.4999999999999
 20
602.7500000024643
 30
0.0
 11
-214.5040962137174
 21
602.7500000024639
 31
0.0
  0
LINE
  5
DA
330
76
100
AcDbEntity
  8
0
  6
Continuous
 62
     7
100
AcDbLine
 10
-214.5040962137174
 20
602.7500000024639
 30
0.0
 11
-214.8414574891072
 21
602.750000002464
 31
0.0
  0
ENDBLK
  5
78
330
76
100
AcDbEntity
  8
0
100
AcDbBlockEnd
  0
BLOCK
  5
7A
330
79
100
AcDbEntity
  8
0
100
AcDbBlockBegin
  2
Ring75-301020055__2
 70
     0
 10
-315.0824094491027
 20
589.750000002464
 30
0.0
  3
Ring75-301020055__2
  1

  0
LINE
  5
DB
330
79
100
AcDbEntity
  8
0
  6
Continuous
 62
     7
100
AcDbLine
 10
-306.3057107383256
 20
589.7500000024645
 30
0.0
 11
-308.90442678092
 21
589.7500000024644
 31
0.0
  0
LINE
  5
DC
330
79
100
AcDbEntity
  8
0
  6
Continuous
 62
     7
100
AcDbLine
 10
-314.0824094491027
 20
589.7500000024644
 30
0.0
 11
-311.7413708030842
 21
589.7500000024645
 31
0.0
  0
LINE
  5
DD
330
79
100
AcDbEntity
  8
0
  6
Continuous
 62
     7
100
AcDbLine
 10
-314.879301837567
 20
589.7500000024645
 30
0.0
 11
-314.0824094491027
 21
589.7500000024644
 31
0.0
  0
LINE
  5
DE
330
79
100
AcDbEntity
  8
0
  6
Continuous
 62
     7
100
AcDbLine
 10
-303.90442678092
 20
589.7500000024643
 30
0.0
 11
-306.3057107383256
 21
589.7500000024645
 31
0.0
  0
LINE
  5
DF
330
79
100
AcDbEntity
  8
0
  6
Continuous
 62
     7
100
AcDbLine
 10
-311.7413708030842
 20
589.7500000024645
 30
0.0
 11
-311.3057107383256
 21
589.7500000024645
 31
0.0
  0
LINE
  5
E0
330
79
100
AcDbEntity
  8
0
  6
Continuous
 62
     7
100
AcDbLine
 10
-311.3057107383256
 20
589.7500000024645
 30
0.0
 11
-309.0824094491026
 21
589.7500000024645
 31
0.0
  0
LINE
  5
E1
330
79
100
AcDbEntity
  8
0
  6
Continuous
 62
     7
100
AcDbLine
 10
-315.0824094491027
 20
589.7500000024644
 30
0.0
 11
-314.879301837567
 21
589.7500000024645
 31
0.0
  0
LINE
  5
E2
330
79
100
AcDbEntity
  8
0
  6
Continuous
 62
     7
100
AcDbLine
 10
-277.1379310344825
 20
589.7500000024645
 30
0.0
 11
-278.9999999999997
 21
589.7500000024644
 31
0.0
  0
LINE
  5
E3
330
79
100
AcDbEntity
  8
0
  6
Continuous
 62
     7
100
AcDbLine
 10
-309.0824094491026
 20
589.7500000024645
 30
0.0
 11
-308.90442678092
 21
589.7500000024644
 31
0.0
  0
LINE
  5
E4
330
79
100
AcDbEntity
  8
0
  6
Continuous
 62
     7
100
AcDbLine
 10
-233.4999999999999
 20
602.7500000024644
 30
0.0
 11
-233.4999999999999
 21
611.7500000024642
 31
0.0
  0
LINE
  5
E5
330
79
100
AcDbEntity
  8
0
  6
Continuous
 62
     7
100
AcDbLine
 10
-314.4999999999999
 20
611.7500000024645
 30
0.0
 11
-233.4999999999999
 21
611.7500000024642
 31
0.0
  0
LINE
  5
E6
330
79
100
AcDbEntity
  8
0
  6
Continuous
 62
     7
100
AcDbLine
 10
-314.4999999999999
 20
602.7500000024647
 30
0.0
 11
-314.4999999999999
 21
611.7500000024645
 31
0.0
  0
LINE
  5
E7
330
79
100
AcDbEntity
  8
0
  6
Continuous
 62
     7
100
AcDbLine
 10
-274.0
 20
589.7500000024643
 30
0.0
 11
-277.1379310344825
 21
589.7500000024645
 31
0.0
  0
LINE
  5
E8
330
79
100
AcDbEntity
  8
0
  6
Continuous
 62
     7
100
AcDbLine
 10
-270.8620689655169
 20
589.7500000024644
 30
0.0
 11
-274.0
 21
589.7500000024643
 31
0.0
  0
LINE
  5
E9
330
79
100
AcDbEntity
  8
0
  6
Continuous
 62
     7
100
AcDbLine
 10
-239.0955732190803
 20
589.750000002464
 30
0.0
 11
-241.6942892616741
 21
589.7500000024643
 31
0.0
  0
LINE
  5
EA
330
79
100
AcDbEntity
  8
0
  6
Continuous
 62
     7
100
AcDbLine
 10
-233.1206981624327
 20
589.7500000024642
 30
0.0
 11
-232.9175905508972
 21
589.7500000024642
 31
0.0
  0
LINE
  5
EB
330
79
100
AcDbEntity
  8
0
  6
Continuous
 62
     7
100
AcDbLine
 10
-233.9175905508976
 20
589.750000002464
 30
0.0
 11
-233.1206981624327
 21
589.7500000024642
 31
0.0
  0
LINE
  5
EC
330
79
100
AcDbEntity
  8
0
  6
Continuous
 62
     7
100
AcDbLine
 10
-236.2586291969154
 20
589.7500000024643
 30
0.0
 11
-233.9175905508976
 21
589.750000002464
 31
0.0
  0
LINE
  5
ED
330
79
100
AcDbEntity
  8
0
  6
Continuous
 62
     7
100
AcDbLine
 10
-238.9175905508971
 20
589.7500000024643
 30
0.0
 11
-236.6942892616742
 21
589.7500000024642
 31
0.0
  0
LINE
  5
EE
330
79
100
AcDbEntity
  8
0
  6
Continuous
 62
     7
100
AcDbLine
 10
-239.0955732190803
 20
589.750000002464
 30
0.0
 11
-238.9175905508971
 21
589.7500000024643
 31
0.0
  0
LINE
  5
EF
330
79
100
AcDbEntity
  8
0
  6
Continuous
 62
     7
100
AcDbLine
 10
-236.6942892616742
 20
589.7500000024642
 30
0.0
 11
-236.2586291969154
 21
589.7500000024643
 31
0.0
  0
LINE
  5
F0
330
79
100
AcDbEntity
  8
0
  6
Continuous
 62
     7
100
AcDbLine
 10
-241.6942892616741
 20
589.7500000024643
 30
0.0
 11
-244.0955732190803
 21
589.750000002464
 31
0.0
  0
LINE
  5
F1
330
79
100
AcDbEntity
  8
0
  6
Continuous
 62
     7
100
AcDbLine
 10
-268.9999999999997
 20
589.7500000024644
 30
0.0
 11
-270.8620689655169
 21
589.7500000024644
 31
0.0
  0
ENDBLK
  5
7B
330
79
100
AcDbEntity
  8
0
100
AcDbBlockEnd
  0
BLOCK
  5
7D
330
7C
100
AcDbEntity
  8
0
100
AcDbBlockBegin
  2
Rost-301020056__3
 70
     0
 10
-339.4999999999999
 20
602.750000002464
 30
0.0
  3
Rost-301020056__3
  1

  0
LINE
  5
F2
330
7C
100
AcDbEntity
  8
0
  6
Continuous
 62
     7
100
AcDbLine
 10
-296.4300932503907
 20
602.7500000024645
 30
0.0
 11
-291.9750612503906
 21
602.7500000024645
 31
0.0
  0
LINE
  5
F3
330
7C
100
AcDbEntity
  8
0
  6
Continuous
 62
     7
100
AcDbLine
 10
-301.5088617496093
 20
602.7500000024642
 30
0.0
 11
-299.4913662137177
 21
602.7500000024642
 31
0.0
  0
LINE
  5
F4
330
7C
100
AcDbEntity
  8
0
  6
Continuous
 62
     7
100
AcDbLine
 10
-299.4913662137177
 20
602.7500000024642
 30
0.0
 11
-298.4475887862825
 21
602.7500000024645
 31
0.0
  0
LINE
  5
F5
330
7C
100
AcDbEntity
  8
0
  6
Continuous
 62
     7
100
AcDbLine
 10
-298.4475887862825
 20
602.7500000024645
 30
0.0
 11
-296.4300932503907
 21
602.7500000024645
 31
0.0
  0
LINE
  5
F6
330
7C
100
AcDbEntity
  8
0
  6
Continuous
 62
     7
100
AcDbLine
 10
-309.3553391717802
 20
602.7500000024645
 30
0.0
 11
-307.2340188282201
 21
602.7500000024645
 31
0.0
  0
LINE
  5
F7
330
7C
100
AcDbEntity
  8
0
  6
Continuous
 62
     7
100
AcDbLine
 10
-307.2340188282201
 20
602.7500000024645
 30
0.0
 11
-306.6194177862825
 21
602.7500000024646
 31
0.0
  0
LINE
  5
F8
330
7C
100
AcDbEntity
  8
0
  6
Continuous
 62
     7
100
AcDbLine
 10
-285.7770716975603
 20
602.750000002464
 30
0.0
 11
-285.1467385108927
 21
602.7500000024645
 31
0.0
  0
LINE
  5
F9
330
7C
100
AcDbEntity
  8
0
  6
Continuous
 62
     7
100
AcDbLine
 10
-314.7847662137174
 20
602.7500000024645
 30
0.0
 11
-313.1703382503906
 21
602.7500000024643
 31
0.0
  0
LINE
  5
FA
330
7C
100
AcDbEntity
  8
0
  6
Continuous
 62
     7
100
AcDbLine
 10
-313.1703382503906
 20
602.7500000024643
 30
0.0
 11
-312.5148142137174
 21
602.7500000024645
 31
0.0
  0
LINE
  5
FB
330
7C
100
AcDbEntity
  8
0
  6
Continuous
 62
     7
100
AcDbLine
 10
-312.5148142137174
 20
602.7500000024645
 30
0.0
 11
-309.3553391717802
 21
602.7500000024645
 31
0.0
  0
LINE
  5
FC
330
7C
100
AcDbEntity
  8
0
  6
Continuous
 62
     7
100
AcDbLine
 10
-291.3195372137177
 20
602.7500000024642
 30
0.0
 11
-287.0239525108927
 21
602.7500000024645
 31
0.0
  0
LINE
  5
FD
330
7C
100
AcDbEntity
  8
0
  6
Continuous
 62
     7
100
AcDbLine
 10
-291.9750612503906
 20
602.7500000024645
 30
0.0
 11
-291.3195372137177
 21
602.7500000024642
 31
0.0
  0
LINE
  5
FE
330
7C
100
AcDbEntity
  8
0
  6
Continuous
 62
     7
100
AcDbLine
 10
-287.0239525108927
 20
602.7500000024645
 30
0.0
 11
-285.7770716975603
 21
602.750000002464
 31
0.0
  0
LINE
  5
FF
330
7C
100
AcDbEntity
  8
0
  6
Continuous
 62
     7
100
AcDbLine
 10
-303.6984848282199
 20
602.7500000024643
 30
0.0
 11
-301.5088617496093
 21
602.7500000024642
 31
0.0
  0
LINE
  5
100
330
7C
100
AcDbEntity
  8
0
  6
Continuous
 62
     7
100
AcDbLine
 10
-306.6194177862825
 20
602.7500000024646
 30
0.0
 11
-305.9638937496093
 21
602.7500000024642
 31
0.0
  0
LINE
  5
101
330
7C
100
AcDbEntity
  8
0
  6
Continuous
 62
     7
100
AcDbLine
 10
-305.9638937496093
 20
602.7500000024642
 30
0.0
 11
-303.6984848282199
 21
602.7500000024643
 31
0.0
  0
LINE
  5
102
330
7C
100
AcDbEntity
  8
0
  6
Continuous
 62
     7
100
AcDbLine
 10
-277.2452324891073
 20
602.7500000024642
 30
0.0
 11
-273.9999999999999
 21
602.7500000024642
 31
0.0
  0
LINE
  5
103
330
7C
100
AcDbEntity
  8
0
  6
Continuous
 62
     7
100
AcDbLine
 10
-278.4921133024396
 20
602.7500000024645
 30
0.0
 11
-277.2452324891073
 21
602.7500000024642
 31
0.0
  0
LINE
  5
104
330
7C
100
AcDbEntity
  8
0
  6
Continuous
 62
     7
100
AcDbLine
 10
-279.1224454891072
 20
602.750000002464
 30
0.0
 11
-278.4921133024396
 21
602.7500000024645
 31
0.0
  0
LINE
  5
105
330
7C
100
AcDbEntity
  8
0
  6
Continuous
 62
     7
100
AcDbLine
 10
-285.1467385108927
 20
602.7500000024645
 30
0.0
 11
-283.4305543024397
 21
602.7500000024645
 31
0.0
  0
LINE
  5
106
330
7C
100
AcDbEntity
  8
0
  6
Continuous
 62
     7
100
AcDbLine
 10
-280.8386296975603
 20
602.750000002464
 30
0.0
 11
-279.1224454891072
 21
602.750000002464
 31
0.0
  0
LINE
  5
107
330
7C
100
AcDbEntity
  8
0
  6
Continuous
 62
     7
100
AcDbLine
 10
-283.4305543024397
 20
602.7500000024645
 30
0.0
 11
-280.8386296975603
 21
602.750000002464
 31
0.0
  0
LINE
  5
108
330
7C
100
AcDbEntity
  8
0
  6
Continuous
 62
     7
100
AcDbLine
 10
-315.9999999999999
 20
602.7500000024644
 30
0.0
 11
-314.7847662137174
 21
602.7500000024645
 31
0.0
  0
LINE
  5
109
330
7C
100
AcDbEntity
  8
0
  6
Continuous
 62
     7
100
AcDbLine
 10
-316.4264068282197
 20
602.7500000024643
 30
0.0
 11
-316.8022617496093
 21
602.7500000024645
 31
0.0
  0
LINE
  5
10A
330
7C
100
AcDbEntity
  8
0
  6
Continuous
 62
     7
100
AcDbLine
 10
-315.9999999999999
 20
602.7500000024644
 30
0.0
 11
-316.4264068282197
 21
602.7500000024643
 31
0.0
  0
LINE
  5
10B
330
7C
100
AcDbEntity
  8
0
  6
Continuous
 62
     7
100
AcDbLine
 10
-316.8022617496093
 20
602.7500000024645
 30
0.0
 11
-317.5610454891072
 21
602.7500000024645
 31
0.0
  0
LINE
  5
10C
330
7C
100
AcDbEntity
  8
0
  6
Continuous
 62
     7
100
AcDbLine
 10
-318.5477271717793
 20
602.7500000024643
 30
0.0
 11
-318.8079263024396
 21
602.7500000024644
 31
0.0
  0
LINE
  5
10D
330
7C
100
AcDbEntity
  8
0
  6
Continuous
 62
     7
100
AcDbLine
 10
-317.5610454891072
 20
602.7500000024645
 30
0.0
 11
-318.3432174891073
 21
602.7500000024645
 31
0.0
  0
LINE
  5
10E
330
7C
100
AcDbEntity
  8
0
  6
Continuous
 62
     7
100
AcDbLine
 10
-318.3432174891073
 20
602.7500000024645
 30
0.0
 11
-318.5477271717793
 21
602.7500000024643
 31
0.0
  0
LINE
  5
10F
330
7C
100
AcDbEntity
  8
0
  6
Continuous
 62
     7
100
AcDbLine
 10
-318.8079263024396
 20
602.7500000024644
 30
0.0
 11
-320.0594016975603
 21
602.7500000024645
 31
0.0
  0
LINE
  5
110
330
7C
100
AcDbEntity
  8
0
  6
Continuous
 62
     7
100
AcDbLine
 10
-320.0594016975603
 20
602.7500000024645
 30
0.0
 11
-322.0832611717793
 21
602.7500000024643
 31
0.0
  0
LINE
  5
111
330
7C
100
AcDbEntity
  8
0
  6
Continuous
 62
     7
100
AcDbLine
 10
-333.4959037862825
 20
602.7500000024644
 30
0.0
 11
-339.4999999999999
 21
602.7500000024647
 31
0.0
  0
LINE
  5
112
330
7C
100
AcDbEntity
  8
0
  6
Continuous
 62
     7
100
AcDbLine
 10
-333.1585425108927
 20
602.7500000024645
 30
0.0
 11
-333.4959037862825
 21
602.7500000024644
 31
0.0
  0
LINE
  5
113
330
7C
100
AcDbEntity
  8
0
  6
Continuous
 62
     7
100
AcDbLine
 10
-332.8403797496093
 20
602.7500000024646
 30
0.0
 11
-333.1585425108927
 21
602.7500000024645
 31
0.0
  0
LINE
  5
114
330
7C
100
AcDbEntity
  8
0
  6
Continuous
 62
     7
100
AcDbLine
 10
-331.9116616975603
 20
602.7500000024645
 30
0.0
 11
-332.3763705108927
 21
602.7500000024645
 31
0.0
  0
LINE
  5
115
330
7C
100
AcDbEntity
  8
0
  6
Continuous
 62
     7
100
AcDbLine
 10
-331.2259507862825
 20
602.7500000024644
 30
0.0
 11
-331.9116616975603
 21
602.7500000024645
 31
0.0
  0
LINE
  5
116
330
7C
100
AcDbEntity
  8
0
  6
Continuous
 62
     7
100
AcDbLine
 10
-332.3763705108927
 20
602.7500000024645
 30
0.0
 11
-332.8403797496093
 21
602.7500000024646
 31
0.0
  0
LINE
  5
117
330
7C
100
AcDbEntity
  8
0
  6
Continuous
 62
     7
100
AcDbLine
 10
-322.0832611717793
 20
602.7500000024643
 30
0.0
 11
-329.2084552503906
 21
602.7500000024644
 31
0.0
  0
LINE
  5
118
330
7C
100
AcDbEntity
  8
0
  6
Continuous
 62
     7
100
AcDbLine
 10
-329.2084552503906
 20
602.7500000024644
 30
0.0
 11
-330.6601863024396
 21
602.7500000024644
 31
0.0
  0
LINE
  5
119
330
7C
100
AcDbEntity
  8
0
  6
Continuous
 62
     7
100
AcDbLine
 10
-330.6601863024396
 20
602.7500000024644
 30
0.0
 11
-331.2259507862825
 21
602.7500000024644
 31
0.0
  0
ENDBLK
  5
7E
330
7C
100
AcDbEntity
  8
0
100
AcDbBlockEnd
  0
BLOCK
  5
80
330
7F
100
AcDbEntity
  8
0
100
AcDbBlockBegin
  2
Aufsatz-150x150-309701876__4
 70
     0
 10
-348.0
 20
584.750000002464
 30
0.0
  3
Aufsatz-150x150-309701876__4
  1

  0
LINE
  5
11A
330
7F
100
AcDbEntity
  8
1
  6
DOT_CENTER
 62
     2
100
AcDbLine
 10
-215.0
 20
589.750000002464
 30
0.0
 11
-215.0
 21
588.2500000024639
 31
0.0
  0
LINE
  5
11B
330
7F
100
AcDbEntity
  8
1
  6
DOT_CENTER
 62
     2
100
AcDbLine
 10
-333.0
 20
589.7500000024645
 30
0.0
 11
-333.0
 21
588.2500000024644
 31
0.0
  0
LINE
  5
11C
330
7F
100
AcDbEntity
  8
1
  6
DOT_CENTER
 62
     2
100
AcDbLine
 10
-274.0000000000006
 20
471.889162822989
 30
0.0
 11
-273.9999999999999
 21
615.6614031686139
 31
0.0
  0
LINE
  5
11D
330
7F
100
AcDbEntity
  8
0
  6
Continuous
 62
     7
100
AcDbLine
 10
-206.5
 20
590.750000002464
 30
0.0
 11
-341.5
 21
590.7500000024645
 31
0.0
  0
LINE
  5
11E
330
7F
100
AcDbEntity
  8
0
  6
Continuous
 62
     7
100
AcDbLine
 10
-208.0
 20
589.7500000024639
 30
0.0
 11
-208.0
 21
588.2500000024639
 31
0.0
  0
LINE
  5
11F
330
7F
100
AcDbEntity
  8
0
  6
Continuous
 62
     7
100
AcDbLine
 10
-208.0
 20
588.2500000024639
 30
0.0
 11
-222.0
 21
588.250000002464
 31
0.0
  0
LINE
  5
120
330
7F
100
AcDbEntity
  8
0
  6
Continuous
 62
     7
100
AcDbLine
 10
-230.2297388406935
 20
584.7500000024642
 30
0.0
 11
-230.3
 21
584.750000002464
 31
0.0
  0
LINE
  5
121
330
7F
100
AcDbEntity
  8
0
  6
Continuous
 62
     7
100
AcDbLine
 10
-208.0
 20
589.7500000024639
 30
0.0
 11
-222.0
 21
589.750000002464
 31
0.0
  0
LINE
  5
122
330
7F
100
AcDbEntity
  8
0
  6
Continuous
 62
     7
100
AcDbLine
 10
-206.5
 20
589.750000002464
 30
0.0
 11
-208.0
 21
589.7500000024639
 31
0.0
  0
LINE
  5
123
330
7F
100
AcDbEntity
  8
0
  6
Continuous
 62
     7
100
AcDbLine
 10
-306.155273853252
 20
584.7500000024644
 30
0.0
 11
-317.7
 21
584.7500000024644
 31
0.0
  0
LINE
  5
124
330
7F
100
AcDbEntity
  8
0
  6
Continuous
 62
     7
100
AcDbLine
 10
-326.0
 20
589.7500000024644
 30
0.0
 11
-326.0
 21
588.2500000024644
 31
0.0
  0
LINE
  5
125
330
7F
100
AcDbEntity
  8
0
  6
Continuous
 62
     7
100
AcDbLine
 10
-340.0
 20
589.7500000024645
 30
0.0
 11
-340.0
 21
588.2500000024645
 31
0.0
  0
LINE
  5
126
330
7F
100
AcDbEntity
  8
0
  6
Continuous
 62
     7
100
AcDbLine
 10
-326.0
 20
589.7500000024644
 30
0.0
 11
-340.0
 21
589.7500000024645
 31
0.0
  0
LINE
  5
127
330
7F
100
AcDbEntity
  8
0
  6
Continuous
 62
     7
100
AcDbLine
 10
-322.5
 20
589.7500000024644
 30
0.0
 11
-326.0
 21
589.7500000024644
 31
0.0
  0
LINE
  5
128
330
7F
100
AcDbEntity
  8
0
  6
Continuous
 62
     7
100
AcDbLine
 10
-326.0
 20
588.2500000024644
 30
0.0
 11
-340.0
 21
588.2500000024645
 31
0.0
  0
LINE
  5
129
330
7F
100
AcDbEntity
  8
0
  6
Continuous
 62
     7
100
AcDbLine
 10
-222.0
 20
589.750000002464
 30
0.0
 11
-222.0
 21
588.250000002464
 31
0.0
  0
LINE
  5
12A
330
7F
100
AcDbEntity
  8
0
  6
Continuous
 62
     7
100
AcDbLine
 10
-317.7
 20
584.7500000024644
 30
0.0
 11
-317.7702611593065
 21
584.7500000024644
 31
0.0
  0
LINE
  5
12B
330
7F
100
AcDbEntity
  8
0
  6
Continuous
 62
     7
100
AcDbLine
 10
-303.8895883082719
 20
584.7500000024644
 30
0.0
 11
-306.0109086518315
 21
584.7500000024643
 31
0.0
  0
LINE
  5
12C
330
7F
100
AcDbEntity
  8
0
  6
Continuous
 62
     7
100
AcDbLine
 10
-306.0109086518315
 20
584.7500000024643
 30
0.0
 11
-306.155273853252
 21
584.7500000024644
 31
0.0
  0
LINE
  5
12D
330
7F
100
AcDbEntity
  8
0
  6
Continuous
 62
     7
100
AcDbLine
 10
-317.7702611593065
 20
584.7500000024644
 30
0.0
 11
-321.9999998435594
 21
584.7500000024645
 31
0.0
  0
LINE
  5
12E
330
7F
100
AcDbEntity
  8
0
  6
Continuous
 62
     7
100
AcDbLine
 10
-275.4999999999999
 20
584.7500000024643
 30
0.0
 11
-303.8895883082719
 21
584.7500000024644
 31
0.0
  0
LINE
  5
12F
330
7F
100
AcDbEntity
  8
0
  6
Continuous
 62
     7
100
AcDbLine
 10
-296.4300932503907
 20
602.7500000024645
 30
0.0
 11
-291.9750612503906
 21
602.7500000024645
 31
0.0
  0
LINE
  5
130
330
7F
100
AcDbEntity
  8
0
  6
Continuous
 62
     7
100
AcDbLine
 10
-301.5088617496093
 20
602.7500000024642
 30
0.0
 11
-299.4913662137177
 21
602.7500000024642
 31
0.0
  0
LINE
  5
131
330
7F
100
AcDbEntity
  8
0
  6
Continuous
 62
     7
100
AcDbLine
 10
-299.4913662137177
 20
602.7500000024642
 30
0.0
 11
-298.4475887862825
 21
602.7500000024645
 31
0.0
  0
LINE
  5
132
330
7F
100
AcDbEntity
  8
0
  6
Continuous
 62
     7
100
AcDbLine
 10
-298.4475887862825
 20
602.7500000024645
 30
0.0
 11
-296.4300932503907
 21
602.7500000024645
 31
0.0
  0
LINE
  5
133
330
7F
100
AcDbEntity
  8
0
  6
Continuous
 62
     7
100
AcDbLine
 10
-309.3553391717802
 20
602.7500000024645
 30
0.0
 11
-307.2340188282201
 21
602.7500000024645
 31
0.0
  0
LINE
  5
134
330
7F
100
AcDbEntity
  8
0
  6
Continuous
 62
     7
100
AcDbLine
 10
-307.2340188282201
 20
602.7500000024645
 30
0.0
 11
-306.6194177862825
 21
602.7500000024646
 31
0.0
  0
LINE
  5
135
330
7F
100
AcDbEntity
  8
0
  6
Continuous
 62
     7
100
AcDbLine
 10
-285.7770716975603
 20
602.750000002464
 30
0.0
 11
-285.1467385108927
 21
602.7500000024645
 31
0.0
  0
LINE
  5
136
330
7F
100
AcDbEntity
  8
0
  6
Continuous
 62
     7
100
AcDbLine
 10
-314.7847662137174
 20
602.7500000024645
 30
0.0
 11
-313.1703382503906
 21
602.7500000024643
 31
0.0
  0
LINE
  5
137
330
7F
100
AcDbEntity
  8
0
  6
Continuous
 62
     7
100
AcDbLine
 10
-313.1703382503906
 20
602.7500000024643
 30
0.0
 11
-312.5148142137174
 21
602.7500000024645
 31
0.0
  0
LINE
  5
138
330
7F
100
AcDbEntity
  8
0
  6
Continuous
 62
     7
100
AcDbLine
 10
-312.5148142137174
 20
602.7500000024645
 30
0.0
 11
-309.3553391717802
 21
602.7500000024645
 31
0.0
  0
LINE
  5
139
330
7F
100
AcDbEntity
  8
0
  6
Continuous
 62
     7
100
AcDbLine
 10
-291.3195372137177
 20
602.7500000024642
 30
0.0
 11
-287.0239525108927
 21
602.7500000024645
 31
0.0
  0
LINE
  5
13A
330
7F
100
AcDbEntity
  8
0
  6
Continuous
 62
     7
100
AcDbLine
 10
-291.9750612503906
 20
602.7500000024645
 30
0.0
 11
-291.3195372137177
 21
602.7500000024642
 31
0.0
  0
LINE
  5
13B
330
7F
100
AcDbEntity
  8
0
  6
Continuous
 62
     7
100
AcDbLine
 10
-287.0239525108927
 20
602.7500000024645
 30
0.0
 11
-285.7770716975603
 21
602.750000002464
 31
0.0
  0
LINE
  5
13C
330
7F
100
AcDbEntity
  8
0
  6
Continuous
 62
     7
100
AcDbLine
 10
-303.6984848282199
 20
602.7500000024643
 30
0.0
 11
-301.5088617496093
 21
602.7500000024642
 31
0.0
  0
LINE
  5
13D
330
7F
100
AcDbEntity
  8
0
  6
Continuous
 62
     7
100
AcDbLine
 10
-306.6194177862825
 20
602.7500000024646
 30
0.0
 11
-305.9638937496093
 21
602.7500000024642
 31
0.0
  0
LINE
  5
13E
330
7F
100
AcDbEntity
  8
0
  6
Continuous
 62
     7
100
AcDbLine
 10
-305.9638937496093
 20
602.7500000024642
 30
0.0
 11
-303.6984848282199
 21
602.7500000024643
 31
0.0
  0
LINE
  5
13F
330
7F
100
AcDbEntity
  8
0
  6
Continuous
 62
     7
100
AcDbLine
 10
-277.2452324891073
 20
602.7500000024642
 30
0.0
 11
-273.9999999999999
 21
602.7500000024642
 31
0.0
  0
LINE
  5
140
330
7F
100
AcDbEntity
  8
0
  6
Continuous
 62
     7
100
AcDbLine
 10
-278.4921133024396
 20
602.7500000024645
 30
0.0
 11
-277.2452324891073
 21
602.7500000024642
 31
0.0
  0
LINE
  5
141
330
7F
100
AcDbEntity
  8
0
  6
Continuous
 62
     7
100
AcDbLine
 10
-279.1224454891072
 20
602.750000002464
 30
0.0
 11
-278.4921133024396
 21
602.7500000024645
 31
0.0
  0
LINE
  5
142
330
7F
100
AcDbEntity
  8
0
  6
Continuous
 62
     7
100
AcDbLine
 10
-278.9999999999997
 20
589.7500000024644
 30
0.0
 11
-303.90442678092
 21
589.7500000024643
 31
0.0
  0
LINE
  5
143
330
7F
100
AcDbEntity
  8
0
  6
Continuous
 62
     7
100
AcDbLine
 10
-306.3057107383256
 20
589.7500000024645
 30
0.0
 11
-308.90442678092
 21
589.7500000024644
 31
0.0
  0
LINE
  5
144
330
7F
100
AcDbEntity
  8
0
  6
Continuous
 62
     7
100
AcDbLine
 10
-314.0824094491027
 20
589.7500000024644
 30
0.0
 11
-311.7413708030842
 21
589.7500000024645
 31
0.0
  0
LINE
  5
145
330
7F
100
AcDbEntity
  8
0
  6
Continuous
 62
     7
100
AcDbLine
 10
-314.879301837567
 20
589.7500000024645
 30
0.0
 11
-314.0824094491027
 21
589.7500000024644
 31
0.0
  0
LINE
  5
146
330
7F
100
AcDbEntity
  8
0
  6
Continuous
 62
     7
100
AcDbLine
 10
-303.90442678092
 20
589.7500000024643
 30
0.0
 11
-306.3057107383256
 21
589.7500000024645
 31
0.0
  0
LINE
  5
147
330
7F
100
AcDbEntity
  8
0
  6
Continuous
 62
     7
100
AcDbLine
 10
-311.7413708030842
 20
589.7500000024645
 30
0.0
 11
-311.3057107383256
 21
589.7500000024645
 31
0.0
  0
LINE
  5
148
330
7F
100
AcDbEntity
  8
0
  6
Continuous
 62
     7
100
AcDbLine
 10
-311.3057107383256
 20
589.7500000024645
 30
0.0
 11
-309.0824094491026
 21
589.7500000024645
 31
0.0
  0
LINE
  5
149
330
7F
100
AcDbEntity
  8
0
  6
Continuous
 62
     7
100
AcDbLine
 10
-315.0824094491027
 20
589.7500000024644
 30
0.0
 11
-314.879301837567
 21
589.7500000024645
 31
0.0
  0
LINE
  5
14A
330
7F
100
AcDbEntity
  8
0
  6
Continuous
 62
     7
100
AcDbLine
 10
-277.1379310344825
 20
589.7500000024645
 30
0.0
 11
-278.9999999999997
 21
589.7500000024644
 31
0.0
  0
LINE
  5
14B
330
7F
100
AcDbEntity
  8
0
  6
Continuous
 62
     7
100
AcDbLine
 10
-309.0824094491026
 20
589.7500000024645
 30
0.0
 11
-308.90442678092
 21
589.7500000024644
 31
0.0
  0
LINE
  5
14C
330
7F
100
AcDbEntity
  8
0
  6
Continuous
 62
     7
100
AcDbLine
 10
-285.1467385108927
 20
602.7500000024645
 30
0.0
 11
-283.4305543024397
 21
602.7500000024645
 31
0.0
  0
LINE
  5
14D
330
7F
100
AcDbEntity
  8
0
  6
Continuous
 62
     7
100
AcDbLine
 10
-280.8386296975603
 20
602.750000002464
 30
0.0
 11
-279.1224454891072
 21
602.750000002464
 31
0.0
  0
LINE
  5
14E
330
7F
100
AcDbEntity
  8
0
  6
Continuous
 62
     7
100
AcDbLine
 10
-283.4305543024397
 20
602.7500000024645
 30
0.0
 11
-280.8386296975603
 21
602.750000002464
 31
0.0
  0
LINE
  5
14F
330
7F
100
AcDbEntity
  8
0
  6
Continuous
 62
     7
100
AcDbLine
 10
-315.9999999999999
 20
602.7500000024644
 30
0.0
 11
-314.7847662137174
 21
602.7500000024645
 31
0.0
  0
LINE
  5
150
330
7F
100
AcDbEntity
  8
0
  6
Continuous
 62
     7
100
AcDbLine
 10
-316.4264068282197
 20
602.7500000024643
 30
0.0
 11
-316.8022617496093
 21
602.7500000024645
 31
0.0
  0
LINE
  5
151
330
7F
100
AcDbEntity
  8
0
  6
Continuous
 62
     7
100
AcDbLine
 10
-315.9999999999999
 20
602.7500000024644
 30
0.0
 11
-316.4264068282197
 21
602.7500000024643
 31
0.0
  0
LINE
  5
152
330
7F
100
AcDbEntity
  8
0
  6
Continuous
 62
     7
100
AcDbLine
 10
-316.8022617496093
 20
602.7500000024645
 30
0.0
 11
-317.5610454891072
 21
602.7500000024645
 31
0.0
  0
LINE
  5
153
330
7F
100
AcDbEntity
  8
0
  6
Continuous
 62
     7
100
AcDbLine
 10
-318.5477271717793
 20
602.7500000024643
 30
0.0
 11
-318.8079263024396
 21
602.7500000024644
 31
0.0
  0
LINE
  5
154
330
7F
100
AcDbEntity
  8
0
  6
Continuous
 62
     7
100
AcDbLine
 10
-317.5610454891072
 20
602.7500000024645
 30
0.0
 11
-318.3432174891073
 21
602.7500000024645
 31
0.0
  0
LINE
  5
155
330
7F
100
AcDbEntity
  8
0
  6
Continuous
 62
     7
100
AcDbLine
 10
-318.3432174891073
 20
602.7500000024645
 30
0.0
 11
-318.5477271717793
 21
602.7500000024643
 31
0.0
  0
LINE
  5
156
330
7F
100
AcDbEntity
  8
0
  6
Continuous
 62
     7
100
AcDbLine
 10
-318.8079263024396
 20
602.7500000024644
 30
0.0
 11
-320.0594016975603
 21
602.7500000024645
 31
0.0
  0
LINE
  5
157
330
7F
100
AcDbEntity
  8
0
  6
Continuous
 62
     7
100
AcDbLine
 10
-320.0594016975603
 20
602.7500000024645
 30
0.0
 11
-322.0832611717793
 21
602.7500000024643
 31
0.0
  0
LINE
  5
158
330
7F
100
AcDbEntity
  8
0
  6
Continuous
 62
     7
100
AcDbLine
 10
-315.0824094491027
 20
589.7500000024644
 30
0.0
 11
-322.5
 21
589.7500000024644
 31
0.0
  0
LINE
  5
159
330
7F
100
AcDbEntity
  8
0
  6
Continuous
 62
     7
100
AcDbLine
 10
-274.0
 20
584.7500000024643
 30
0.0
 11
-275.4999999999999
 21
584.7500000024643
 31
0.0
  0
LINE
  5
15A
330
7F
100
AcDbEntity
  8
0
  6
Continuous
 62
     7
100
AcDbLine
 10
-340.0
 20
589.7500000024645
 30
0.0
 11
-341.5
 21
589.7500000024645
 31
0.0
  0
LINE
  5
15B
330
7F
100
AcDbEntity
  8
0
  6
Continuous
 62
     7
100
AcDbLine
 10
-322.5
 20
584.7500000024644
 30
0.0
 11
-321.9999998435594
 21
584.7500000024645
 31
0.0
  0
LINE
  5
15C
330
7F
100
AcDbEntity
  8
0
  6
Continuous
 62
     7
100
AcDbLine
 10
-322.5
 20
584.7500000024644
 30
0.0
 11
-322.5
 21
589.7500000024644
 31
0.0
  0
LINE
  5
15D
330
7F
100
AcDbEntity
  8
0
  6
Continuous
 62
     7
100
AcDbLine
 10
-341.5
 20
590.7500000024645
 30
0.0
 11
-341.5
 21
589.7500000024645
 31
0.0
  0
LINE
  5
15E
330
7F
100
AcDbEntity
  8
0
  6
Continuous
 62
     7
100
AcDbLine
 10
-333.4959037862825
 20
602.7500000024644
 30
0.0
 11
-339.4999999999999
 21
602.7500000024647
 31
0.0
  0
LINE
  5
15F
330
7F
100
AcDbEntity
  8
0
  6
Continuous
 62
     7
100
AcDbLine
 10
-333.1585425108927
 20
602.7500000024645
 30
0.0
 11
-333.4959037862825
 21
602.7500000024644
 31
0.0
  0
LINE
  5
160
330
7F
100
AcDbEntity
  8
0
  6
Continuous
 62
     7
100
AcDbLine
 10
-332.8403797496093
 20
602.7500000024646
 30
0.0
 11
-333.1585425108927
 21
602.7500000024645
 31
0.0
  0
LINE
  5
161
330
7F
100
AcDbEntity
  8
0
  6
Continuous
 62
     7
100
AcDbLine
 10
-331.9116616975603
 20
602.7500000024645
 30
0.0
 11
-332.3763705108927
 21
602.7500000024645
 31
0.0
  0
LINE
  5
162
330
7F
100
AcDbEntity
  8
0
  6
Continuous
 62
     7
100
AcDbLine
 10
-331.2259507862825
 20
602.7500000024644
 30
0.0
 11
-331.9116616975603
 21
602.7500000024645
 31
0.0
  0
LINE
  5
163
330
7F
100
AcDbEntity
  8
0
  6
Continuous
 62
     7
100
AcDbLine
 10
-332.3763705108927
 20
602.7500000024645
 30
0.0
 11
-332.8403797496093
 21
602.7500000024646
 31
0.0
  0
LINE
  5
164
330
7F
100
AcDbEntity
  8
0
  6
Continuous
 62
     7
100
AcDbLine
 10
-322.0832611717793
 20
602.7500000024643
 30
0.0
 11
-329.2084552503906
 21
602.7500000024644
 31
0.0
  0
LINE
  5
165
330
7F
100
AcDbEntity
  8
0
  6
Continuous
 62
     7
100
AcDbLine
 10
-329.2084552503906
 20
602.7500000024644
 30
0.0
 11
-330.6601863024396
 21
602.7500000024644
 31
0.0
  0
LINE
  5
166
330
7F
100
AcDbEntity
  8
0
  6
Continuous
 62
     7
100
AcDbLine
 10
-330.6601863024396
 20
602.7500000024644
 30
0.0
 11
-331.2259507862825
 21
602.7500000024644
 31
0.0
  0
LINE
  5
167
330
7F
100
AcDbEntity
  8
0
  6
Continuous
 62
     7
100
AcDbLine
 10
-339.4999999999999
 20
602.7500000024647
 30
0.0
 11
-341.4999999999999
 21
602.7500000024645
 31
0.0
  0
LINE
  5
168
330
7F
100
AcDbEntity
  8
0
  6
Continuous
 62
     7
100
AcDbLine
 10
-341.4999999999999
 20
602.2500000024645
 30
0.0
 11
-341.5
 21
590.7500000024645
 31
0.0
  0
LINE
  5
169
330
7F
100
AcDbEntity
  8
0
  6
Continuous
 62
     7
100
AcDbLine
 10
-341.4999999999999
 20
602.2500000024645
 30
0.0
 11
-341.4999999999999
 21
602.7500000024645
 31
0.0
  0
LINE
  5
16A
330
7F
100
AcDbEntity
  8
0
  6
Continuous
 62
     7
100
AcDbLine
 10
-346.9999999999999
 20
602.2500000024645
 30
0.0
 11
-341.4999999999999
 21
602.2500000024645
 31
0.0
  0
LINE
  5
16B
330
7F
100
AcDbEntity
  8
0
  6
Continuous
 62
     7
100
AcDbLine
 10
-341.5
 20
590.7500000024645
 30
0.0
 11
-347.0
 21
590.7500000024645
 31
0.0
  0
LINE
  5
16C
330
7F
100
AcDbEntity
  8
0
  6
Continuous
 62
     7
100
AcDbLine
 10
-346.4999999999999
 20
602.7500000024645
 30
0.0
 11
-341.4999999999999
 21
602.7500000024645
 31
0.0
  0
LINE
  5
16D
330
7F
100
AcDbEntity
  8
0
  6
Continuous
 62
     7
100
AcDbLine
 10
-347.0
 20
590.7500000024645
 30
0.0
 11
-346.9999999999999
 21
602.2500000024645
 31
0.0
  0
LINE
  5
16E
330
7F
100
AcDbEntity
  8
0
  6
Continuous
 62
     7
100
AcDbLine
 10
-347.0
 20
590.7500000024645
 30
0.0
 11
-348.0
 21
590.7500000024645
 31
0.0
  0
LINE
  5
16F
330
7F
100
AcDbEntity
  8
0
  6
Continuous
 62
     7
100
AcDbLine
 10
-348.0
 20
590.7500000024645
 30
0.0
 11
-348.0
 21
589.7500000024645
 31
0.0
  0
LINE
  5
170
330
7F
100
AcDbEntity
  8
0
  6
Continuous
 62
     7
100
AcDbLine
 10
-341.5
 20
589.7500000024645
 30
0.0
 11
-348.0
 21
589.7500000024645
 31
0.0
  0
LINE
  5
171
330
7F
100
AcDbEntity
  8
0
  6
Continuous
 62
     7
100
AcDbLine
 10
-272.4999999999998
 20
584.7500000024643
 30
0.0
 11
-274.0
 21
584.7500000024643
 31
0.0
  0
LINE
  5
172
330
7F
100
AcDbEntity
  8
0
  6
Continuous
 62
     7
100
AcDbLine
 10
-244.1104116917279
 20
584.7500000024642
 30
0.0
 11
-272.4999999999998
 21
584.7500000024643
 31
0.0
  0
LINE
  5
173
330
7F
100
AcDbEntity
  8
0
  6
Continuous
 62
     7
100
AcDbLine
 10
-241.9890913481682
 20
584.7500000024642
 30
0.0
 11
-244.1104116917279
 21
584.7500000024642
 31
0.0
  0
LINE
  5
174
330
7F
100
AcDbEntity
  8
0
  6
Continuous
 62
     7
100
AcDbLine
 10
-241.8447261467478
 20
584.7500000024642
 30
0.0
 11
-241.9890913481682
 21
584.7500000024642
 31
0.0
  0
LINE
  5
175
330
7F
100
AcDbEntity
  8
0
  6
Continuous
 62
     7
100
AcDbLine
 10
-230.3
 20
584.750000002464
 30
0.0
 11
-241.8447261467478
 21
584.7500000024642
 31
0.0
  0
LINE
  5
176
330
7F
100
AcDbEntity
  8
0
  6
Continuous
 62
     7
100
AcDbLine
 10
-233.2152337862827
 20
602.7500000024642
 30
0.0
 11
-233.4999999999999
 21
602.7500000024644
 31
0.0
  0
LINE
  5
177
330
7F
100
AcDbEntity
  8
0
  6
Continuous
 62
     7
100
AcDbLine
 10
-231.9999999999999
 20
602.7500000024642
 30
0.0
 11
-233.2152337862827
 21
602.7500000024642
 31
0.0
  0
LINE
  5
178
330
7F
100
AcDbEntity
  8
0
  6
Continuous
 62
     7
100
AcDbLine
 10
-231.5735931717798
 20
602.7500000024639
 30
0.0
 11
-231.9999999999999
 21
602.7500000024642
 31
0.0
  0
LINE
  5
179
330
7F
100
AcDbEntity
  8
0
  6
Continuous
 62
     7
100
AcDbLine
 10
-231.1977382503906
 20
602.7500000024642
 30
0.0
 11
-231.5735931717798
 21
602.7500000024639
 31
0.0
  0
LINE
  5
17A
330
7F
100
AcDbEntity
  8
0
  6
Continuous
 62
     7
100
AcDbLine
 10
-230.4389545108926
 20
602.7500000024642
 30
0.0
 11
-231.1977382503906
 21
602.7500000024642
 31
0.0
  0
LINE
  5
17B
330
7F
100
AcDbEntity
  8
0
  6
Continuous
 62
     7
100
AcDbLine
 10
-229.6567825108926
 20
602.7500000024642
 30
0.0
 11
-230.4389545108926
 21
602.7500000024642
 31
0.0
  0
LINE
  5
17C
330
7F
100
AcDbEntity
  8
0
  6
Continuous
 62
     7
100
AcDbLine
 10
-229.4522728282201
 20
602.7500000024639
 30
0.0
 11
-229.6567825108926
 21
602.7500000024642
 31
0.0
  0
LINE
  5
17D
330
7F
100
AcDbEntity
  8
0
  6
Continuous
 62
     7
100
AcDbLine
 10
-229.1920736975603
 20
602.750000002464
 30
0.0
 11
-229.4522728282201
 21
602.7500000024639
 31
0.0
  0
LINE
  5
17E
330
7F
100
AcDbEntity
  8
0
  6
Continuous
 62
     7
100
AcDbLine
 10
-274.0
 20
589.7500000024643
 30
0.0
 11
-277.1379310344825
 21
589.7500000024645
 31
0.0
  0
LINE
  5
17F
330
7F
100
AcDbEntity
  8
0
  6
Continuous
 62
     7
100
AcDbLine
 10
-270.7547675108926
 20
602.750000002464
 30
0.0
 11
-273.9999999999999
 21
602.7500000024642
 31
0.0
  0
LINE
  5
180
330
7F
100
AcDbEntity
  8
0
  6
Continuous
 62
     7
100
AcDbLine
 10
-269.5078866975603
 20
602.7500000024644
 30
0.0
 11
-270.7547675108926
 21
602.750000002464
 31
0.0
  0
LINE
  5
181
330
7F
100
AcDbEntity
  8
0
  6
Continuous
 62
     7
100
AcDbLine
 10
-238.6446608282201
 20
602.7500000024643
 30
0.0
 11
-240.7659811717802
 21
602.7500000024643
 31
0.0
  0
LINE
  5
182
330
7F
100
AcDbEntity
  8
0
  6
Continuous
 62
     7
100
AcDbLine
 10
-240.7659811717802
 20
602.7500000024643
 30
0.0
 11
-241.3805822137174
 21
602.7500000024644
 31
0.0
  0
LINE
  5
183
330
7F
100
AcDbEntity
  8
0
  6
Continuous
 62
     7
100
AcDbLine
 10
-241.3805822137174
 20
602.7500000024644
 30
0.0
 11
-242.0361062503906
 21
602.7500000024639
 31
0.0
  0
LINE
  5
184
330
7F
100
AcDbEntity
  8
0
  6
Continuous
 62
     7
100
AcDbLine
 10
-235.4851857862828
 20
602.7500000024643
 30
0.0
 11
-238.6446608282201
 21
602.7500000024643
 31
0.0
  0
LINE
  5
185
330
7F
100
AcDbEntity
  8
0
  6
Continuous
 62
     7
100
AcDbLine
 10
-234.8296617496093
 20
602.750000002464
 30
0.0
 11
-235.4851857862828
 21
602.7500000024643
 31
0.0
  0
LINE
  5
186
330
7F
100
AcDbEntity
  8
0
  6
Continuous
 62
     7
100
AcDbLine
 10
-233.4999999999999
 20
602.7500000024644
 30
0.0
 11
-234.8296617496093
 21
602.750000002464
 31
0.0
  0
LINE
  5
187
330
7F
100
AcDbEntity
  8
0
  6
Continuous
 62
     7
100
AcDbLine
 10
-264.5694456975602
 20
602.7500000024644
 30
0.0
 11
-267.1613703024395
 21
602.750000002464
 31
0.0
  0
LINE
  5
188
330
7F
100
AcDbEntity
  8
0
  6
Continuous
 62
     7
100
AcDbLine
 10
-267.1613703024395
 20
602.750000002464
 30
0.0
 11
-268.8775545108927
 21
602.750000002464
 31
0.0
  0
LINE
  5
189
330
7F
100
AcDbEntity
  8
0
  6
Continuous
 62
     7
100
AcDbLine
 10
-268.8775545108927
 20
602.750000002464
 30
0.0
 11
-269.5078866975603
 21
602.7500000024644
 31
0.0
  0
LINE
  5
18A
330
7F
100
AcDbEntity
  8
0
  6
Continuous
 62
     7
100
AcDbLine
 10
-251.5699067496093
 20
602.7500000024643
 30
0.0
 11
-256.0249387496093
 21
602.7500000024644
 31
0.0
  0
LINE
  5
18B
330
7F
100
AcDbEntity
  8
0
  6
Continuous
 62
     7
100
AcDbLine
 10
-262.8532614891072
 20
602.7500000024644
 30
0.0
 11
-264.5694456975602
 21
602.7500000024644
 31
0.0
  0
LINE
  5
18C
330
7F
100
AcDbEntity
  8
0
  6
Continuous
 62
     7
100
AcDbLine
 10
-262.2229283024396
 20
602.750000002464
 30
0.0
 11
-262.8532614891072
 21
602.7500000024644
 31
0.0
  0
LINE
  5
18D
330
7F
100
AcDbEntity
  8
0
  6
Continuous
 62
     7
100
AcDbLine
 10
-256.6804627862825
 20
602.750000002464
 30
0.0
 11
-260.9760474891072
 21
602.7500000024644
 31
0.0
  0
LINE
  5
18E
330
7F
100
AcDbEntity
  8
0
  6
Continuous
 62
     7
100
AcDbLine
 10
-260.9760474891072
 20
602.7500000024644
 30
0.0
 11
-262.2229283024396
 21
602.750000002464
 31
0.0
  0
LINE
  5
18F
330
7F
100
AcDbEntity
  8
0
  6
Continuous
 62
     7
100
AcDbLine
 10
-256.0249387496093
 20
602.7500000024644
 30
0.0
 11
-256.6804627862825
 21
602.750000002464
 31
0.0
  0
LINE
  5
190
330
7F
100
AcDbEntity
  8
0
  6
Continuous
 62
     7
100
AcDbLine
 10
-249.5524112137173
 20
602.7500000024643
 30
0.0
 11
-251.5699067496093
 21
602.7500000024643
 31
0.0
  0
LINE
  5
191
330
7F
100
AcDbEntity
  8
0
  6
Continuous
 62
     7
100
AcDbLine
 10
-246.4911382503906
 20
602.7500000024639
 30
0.0
 11
-248.5086337862825
 21
602.7500000024639
 31
0.0
  0
LINE
  5
192
330
7F
100
AcDbEntity
  8
0
  6
Continuous
 62
     7
100
AcDbLine
 10
-248.5086337862825
 20
602.7500000024639
 30
0.0
 11
-249.5524112137173
 21
602.7500000024643
 31
0.0
  0
LINE
  5
193
330
7F
100
AcDbEntity
  8
0
  6
Continuous
 62
     7
100
AcDbLine
 10
-244.3015151717802
 20
602.7500000024643
 30
0.0
 11
-246.4911382503906
 21
602.7500000024639
 31
0.0
  0
LINE
  5
194
330
7F
100
AcDbEntity
  8
0
  6
Continuous
 62
     7
100
AcDbLine
 10
-242.0361062503906
 20
602.7500000024639
 30
0.0
 11
-244.3015151717802
 21
602.7500000024643
 31
0.0
  0
LINE
  5
195
330
7F
100
AcDbEntity
  8
0
  6
Continuous
 62
     7
100
AcDbLine
 10
-244.0955732190803
 20
589.750000002464
 30
0.0
 11
-268.9999999999997
 21
589.7500000024644
 31
0.0
  0
LINE
  5
196
330
7F
100
AcDbEntity
  8
0
  6
Continuous
 62
     7
100
AcDbLine
 10
-226.0000001564407
 20
584.750000002464
 30
0.0
 11
-230.2297388406935
 21
584.7500000024642
 31
0.0
  0
LINE
  5
197
330
7F
100
AcDbEntity
  8
0
  6
Continuous
 62
     7
100
AcDbLine
 10
-226.0000001564407
 20
584.750000002464
 30
0.0
 11
-225.5
 21
584.750000002464
 31
0.0
  0
LINE
  5
198
330
7F
100
AcDbEntity
  8
0
  6
Continuous
 62
     7
100
AcDbLine
 10
-270.8620689655169
 20
589.7500000024644
 30
0.0
 11
-274.0
 21
589.7500000024643
 31
0.0
  0
LINE
  5
199
330
7F
100
AcDbEntity
  8
0
  6
Continuous
 62
     7
100
AcDbLine
 10
-239.0955732190803
 20
589.750000002464
 30
0.0
 11
-241.6942892616741
 21
589.7500000024643
 31
0.0
  0
LINE
  5
19A
330
7F
100
AcDbEntity
  8
0
  6
Continuous
 62
     7
100
AcDbLine
 10
-233.1206981624327
 20
589.7500000024642
 30
0.0
 11
-232.9175905508972
 21
589.7500000024642
 31
0.0
  0
LINE
  5
19B
330
7F
100
AcDbEntity
  8
0
  6
Continuous
 62
     7
100
AcDbLine
 10
-225.5
 20
589.750000002464
 30
0.0
 11
-232.9175905508972
 21
589.7500000024642
 31
0.0
  0
LINE
  5
19C
330
7F
100
AcDbEntity
  8
0
  6
Continuous
 62
     7
100
AcDbLine
 10
-233.9175905508976
 20
589.750000002464
 30
0.0
 11
-233.1206981624327
 21
589.7500000024642
 31
0.0
  0
LINE
  5
19D
330
7F
100
AcDbEntity
  8
0
  6
Continuous
 62
     7
100
AcDbLine
 10
-236.2586291969154
 20
589.7500000024643
 30
0.0
 11
-233.9175905508976
 21
589.750000002464
 31
0.0
  0
LINE
  5
19E
330
7F
100
AcDbEntity
  8
0
  6
Continuous
 62
     7
100
AcDbLine
 10
-238.9175905508971
 20
589.7500000024643
 30
0.0
 11
-236.6942892616742
 21
589.7500000024642
 31
0.0
  0
LINE
  5
19F
330
7F
100
AcDbEntity
  8
0
  6
Continuous
 62
     7
100
AcDbLine
 10
-239.0955732190803
 20
589.750000002464
 30
0.0
 11
-238.9175905508971
 21
589.7500000024643
 31
0.0
  0
LINE
  5
1A0
330
7F
100
AcDbEntity
  8
0
  6
Continuous
 62
     7
100
AcDbLine
 10
-236.6942892616742
 20
589.7500000024642
 30
0.0
 11
-236.2586291969154
 21
589.7500000024643
 31
0.0
  0
LINE
  5
1A1
330
7F
100
AcDbEntity
  8
0
  6
Continuous
 62
     7
100
AcDbLine
 10
-241.6942892616741
 20
589.7500000024643
 30
0.0
 11
-244.0955732190803
 21
589.750000002464
 31
0.0
  0
LINE
  5
1A2
330
7F
100
AcDbEntity
  8
0
  6
Continuous
 62
     7
100
AcDbLine
 10
-268.9999999999997
 20
589.7500000024644
 30
0.0
 11
-270.8620689655169
 21
589.7500000024644
 31
0.0
  0
LINE
  5
1A3
330
7F
100
AcDbEntity
  8
0
  6
Continuous
 62
     7
100
AcDbLine
 10
-225.5
 20
584.750000002464
 30
0.0
 11
-225.5
 21
589.750000002464
 31
0.0
  0
LINE
  5
1A4
330
7F
100
AcDbEntity
  8
0
  6
Continuous
 62
     7
100
AcDbLine
 10
-206.4999999999999
 20
602.750000002464
 30
0.0
 11
-206.5
 21
602.2500000024639
 31
0.0
  0
LINE
  5
1A5
330
7F
100
AcDbEntity
  8
0
  6
Continuous
 62
     7
100
AcDbLine
 10
-206.5
 20
602.2500000024639
 30
0.0
 11
-341.4999999999999
 21
602.2500000024645
 31
0.0
  0
LINE
  5
1A6
330
7F
100
AcDbEntity
  8
0
  6
Continuous
 62
     7
100
AcDbLine
 10
-222.0
 20
589.750000002464
 30
0.0
 11
-225.5
 21
589.750000002464
 31
0.0
  0
LINE
  5
1A7
330
7F
100
AcDbEntity
  8
0
  6
Continuous
 62
     7
100
AcDbLine
 10
-206.5
 20
590.750000002464
 30
0.0
 11
-206.5
 21
589.750000002464
 31
0.0
  0
LINE
  5
1A8
330
7F
100
AcDbEntity
  8
0
  6
Continuous
 62
     7
100
AcDbLine
 10
-206.5
 20
590.750000002464
 30
0.0
 11
-206.5
 21
602.2500000024639
 31
0.0
  0
LINE
  5
1A9
330
7F
100
AcDbEntity
  8
0
  6
Continuous
 62
     7
100
AcDbLine
 10
-206.4999999999999
 20
602.750000002464
 30
0.0
 11
-208.4999999999999
 21
602.7500000024643
 31
0.0
  0
LINE
  5
1AA
330
7F
100
AcDbEntity
  8
0
  6
Continuous
 62
     7
100
AcDbLine
 10
-227.9405983024396
 20
602.7500000024642
 30
0.0
 11
-229.1920736975603
 21
602.750000002464
 31
0.0
  0
LINE
  5
1AB
330
7F
100
AcDbEntity
  8
0
  6
Continuous
 62
     7
100
AcDbLine
 10
-214.8414574891072
 20
602.750000002464
 30
0.0
 11
-215.1596202503906
 21
602.7500000024642
 31
0.0
  0
LINE
  5
1AC
330
7F
100
AcDbEntity
  8
0
  6
Continuous
 62
     7
100
AcDbLine
 10
-215.1596202503906
 20
602.7500000024642
 30
0.0
 11
-215.6236294891072
 21
602.750000002464
 31
0.0
  0
LINE
  5
1AD
330
7F
100
AcDbEntity
  8
0
  6
Continuous
 62
     7
100
AcDbLine
 10
-218.7915447496093
 20
602.7500000024639
 30
0.0
 11
-225.9167388282201
 21
602.7500000024639
 31
0.0
  0
LINE
  5
1AE
330
7F
100
AcDbEntity
  8
0
  6
Continuous
 62
     7
100
AcDbLine
 10
-216.0883383024396
 20
602.750000002464
 30
0.0
 11
-216.7740492137174
 21
602.7500000024639
 31
0.0
  0
LINE
  5
1AF
330
7F
100
AcDbEntity
  8
0
  6
Continuous
 62
     7
100
AcDbLine
 10
-217.3398136975603
 20
602.750000002464
 30
0.0
 11
-218.7915447496093
 21
602.7500000024639
 31
0.0
  0
LINE
  5
1B0
330
7F
100
AcDbEntity
  8
0
  6
Continuous
 62
     7
100
AcDbLine
 10
-216.7740492137174
 20
602.7500000024639
 30
0.0
 11
-217.3398136975603
 21
602.750000002464
 31
0.0
  0
LINE
  5
1B1
330
7F
100
AcDbEntity
  8
0
  6
Continuous
 62
     7
100
AcDbLine
 10
-215.6236294891072
 20
602.750000002464
 30
0.0
 11
-216.0883383024396
 21
602.750000002464
 31
0.0
  0
LINE
  5
1B2
330
7F
100
AcDbEntity
  8
0
  6
Continuous
 62
     7
100
AcDbLine
 10
-225.9167388282201
 20
602.7500000024639
 30
0.0
 11
-227.9405983024396
 21
602.7500000024642
 31
0.0
  0
LINE
  5
1B3
330
7F
100
AcDbEntity
  8
0
  6
Continuous
 62
     7
100
AcDbLine
 10
-208.4999999999999
 20
602.7500000024643
 30
0.0
 11
-214.5040962137174
 21
602.7500000024639
 31
0.0
  0
LINE
  5
1B4
330
7F
100
AcDbEntity
  8
0
  6
Continuous
 62
     7
100
AcDbLine
 10
-214.5040962137174
 20
602.7500000024639
 30
0.0
 11
-214.8414574891072
 21
602.750000002464
 31
0.0
  0
LINE
  5
1B5
330
7F
100
AcDbEntity
  8
0
  6
Continuous
 62
     7
100
AcDbLine
 10
-206.5
 20
602.2500000024639
 30
0.0
 11
-200.9999999999999
 21
602.2500000024639
 31
0.0
  0
LINE
  5
1B6
330
7F
100
AcDbEntity
  8
0
  6
Continuous
 62
     7
100
AcDbLine
 10
-201.0
 20
590.750000002464
 30
0.0
 11
-200.9999999999999
 21
602.2500000024639
 31
0.0
  0
LINE
  5
1B7
330
7F
100
AcDbEntity
  8
0
  6
Continuous
 62
     7
100
AcDbLine
 10
-201.0
 20
590.750000002464
 30
0.0
 11
-206.5
 21
590.750000002464
 31
0.0
  0
LINE
  5
1B8
330
7F
100
AcDbEntity
  8
0
  6
Continuous
 62
     7
100
AcDbLine
 10
-206.4999999999999
 20
602.750000002464
 30
0.0
 11
-201.4999999999999
 21
602.7500000024639
 31
0.0
  0
LINE
  5
1B9
330
7F
100
AcDbEntity
  8
0
  6
Continuous
 62
     7
100
AcDbLine
 10
-200.0
 20
590.7500000024639
 30
0.0
 11
-200.0
 21
589.7500000024639
 31
0.0
  0
LINE
  5
1BA
330
7F
100
AcDbEntity
  8
0
  6
Continuous
 62
     7
100
AcDbLine
 10
-200.0
 20
590.7500000024639
 30
0.0
 11
-201.0
 21
590.750000002464
 31
0.0
  0
LINE
  5
1BB
330
7F
100
AcDbEntity
  8
0
  6
Continuous
 62
     7
100
AcDbLine
 10
-200.0
 20
589.7500000024639
 30
0.0
 11
-206.5
 21
589.750000002464
 31
0.0
  0
ARC
  5
1BC
330
7F
100
AcDbEntity
  8
0
  6
Continuous
 62
     7
100
AcDbCircle
 10
-346.4999999999999
 20
602.2500000024645
 30
0.0
 40
0.5
100
AcDbArc
 50
90.0
 51
180.0
  0
ARC
  5
1BD
330
7F
100
AcDbEntity
  8
0
  6
Continuous
 62
     7
100
AcDbCircle
 10
-201.4999999999999
 20
602.2500000024639
 30
0.0
 40
0.5
100
AcDbArc
 50
0.0
 51
90.0
  0
ENDBLK
  5
81
330
7F
100
AcDbEntity
  8
0
100
AcDbBlockEnd
  0
BLOCK
  5
83
330
82
100
AcDbEntity
  8
0
100
AcDbBlockBegin
  2
Distanzring-304051867
 70
     0
 10
-334.0000000000006
 20
432.2500000024641
 30
0.0
  3
Distanzring-304051867
  1

  0
LINE
  5
1BE
330
82
100
AcDbEntity
  8
1
  6
DOT_CENTER
 62
     2
100
AcDbLine
 10
-274.0000000000008
 20
433.7500000024641
 30
0.0
 11
-274.0000000000008
 21
442.2500000024641
 31
0.0
  0
LINE
  5
1BF
330
82
100
AcDbEntity
  8
0
  6
Continuous
 62
     7
100
AcDbLine
 10
-275.5000000000009
 20
433.7500000024641
 30
0.0
 11
-272.5000000000007
 21
433.7500000024641
 31
0.0
  0
LINE
  5
1C0
330
82
100
AcDbEntity
  8
0
  6
Continuous
 62
     7
100
AcDbLine
 10
-334.0000000000006
 20
433.7500000024645
 30
0.0
 11
-332.4807692307698
 21
433.7500000024645
 31
0.0
  0
LINE
  5
1C1
330
82
100
AcDbEntity
  8
0
  6
Continuous
 62
     7
100
AcDbLine
 10
-215.5192307692313
 20
433.7500000024641
 30
0.0
 11
-214.0000000000005
 21
433.7500000024641
 31
0.0
  0
LINE
  5
1C2
330
82
100
AcDbEntity
  8
0
  6
Continuous
 62
     7
100
AcDbLine
 10
-233.7084245081196
 20
433.7500000024643
 30
0.0
 11
-231.1342533005876
 21
433.750000002464
 31
0.0
  0
LINE
  5
1C3
330
82
100
AcDbEntity
  8
0
  6
Continuous
 62
     7
100
AcDbLine
 10
-272.5000000000007
 20
433.7500000024641
 30
0.0
 11
-272.5000000000006
 21
435.2500000024641
 31
0.0
  0
LINE
  5
1C4
330
82
100
AcDbEntity
  8
0
  6
Continuous
 62
     7
100
AcDbLine
 10
-218.7500000000005
 20
450.2500000024641
 30
0.0
 11
-216.7500000000005
 21
452.2500000024641
 31
0.0
  0
LINE
  5
1C5
330
82
100
AcDbEntity
  8
0
  6
Continuous
 62
     7
100
AcDbLine
 10
-275.5000000000008
 20
442.2500000024641
 30
0.0
 11
-313.4212030511503
 21
442.2500000024646
 31
0.0
  0
LINE
  5
1C6
330
82
100
AcDbEntity
  8
0
  6
Continuous
 62
     7
100
AcDbLine
 10
-216.7500000000005
 20
442.2500000024641
 30
0.0
 11
-231.1342533005875
 21
442.2500000024639
 31
0.0
  0
LINE
  5
1C7
330
82
100
AcDbEntity
  8
0
  6
Continuous
 62
     7
100
AcDbLine
 10
-233.7084245081195
 20
442.2500000024643
 30
0.0
 11
-234.5787969488501
 21
442.2500000024643
 31
0.0
  0
LINE
  5
1C8
330
82
100
AcDbEntity
  8
0
  6
Continuous
 62
     7
100
AcDbLine
 10
-316.8657466994133
 20
442.2500000024646
 30
0.0
 11
-315.5425233947103
 21
442.2500000024643
 31
0.0
  0
LINE
  5
1C9
330
82
100
AcDbEntity
  8
0
  6
Continuous
 62
     7
100
AcDbLine
 10
-315.5425233947103
 20
442.2500000024643
 30
0.0
 11
-314.2915754918807
 21
442.2500000024646
 31
0.0
  0
LINE
  5
1CA
330
82
100
AcDbEntity
  8
0
  6
Continuous
 62
     7
100
AcDbLine
 10
-234.5787969488501
 20
442.2500000024643
 30
0.0
 11
-272.5001232792275
 21
442.2500000024645
 31
0.0
  0
LINE
  5
1CB
330
82
100
AcDbEntity
  8
0
  6
Continuous
 62
     7
100
AcDbLine
 10
-313.4212030511503
 20
442.2500000024646
 30
0.0
 11
-314.2915754918807
 21
442.2500000024646
 31
0.0
  0
LINE
  5
1CC
330
82
100
AcDbEntity
  8
0
  6
Continuous
 62
     7
100
AcDbLine
 10
-231.1342533005875
 20
442.2500000024639
 30
0.0
 11
-232.4574766052905
 21
442.2500000024643
 31
0.0
  0
LINE
  5
1CD
330
82
100
AcDbEntity
  8
0
  6
Continuous
 62
     7
100
AcDbLine
 10
-233.7084245081195
 20
442.2500000024643
 30
0.0
 11
-232.4574766052905
 21
442.2500000024643
 31
0.0
  0
LINE
  5
1CE
330
82
100
AcDbEntity
  8
0
  6
Continuous
 62
     7
100
AcDbLine
 10
-215.5192307692313
 20
442.2500000024641
 30
0.0
 11
-214.0000000000005
 21
442.2500000024641
 31
0.0
  0
LINE
  5
1CF
330
82
100
AcDbEntity
  8
0
  6
Continuous
 62
     7
100
AcDbLine
 10
-216.7500000000005
 20
452.2500000024641
 30
0.0
 11
-216.7500000000005
 21
442.2500000024641
 31
0.0
  0
LINE
  5
1D0
330
82
100
AcDbEntity
  8
0
  6
Continuous
 62
     7
100
AcDbLine
 10
-218.7500000000005
 20
442.2500000024643
 30
0.0
 11
-218.7500000000005
 21
450.2500000024641
 31
0.0
  0
LINE
  5
1D1
330
82
100
AcDbEntity
  8
0
  6
Continuous
 62
     7
100
AcDbLine
 10
-329.2500000000005
 20
450.2500000024645
 30
0.0
 11
-331.2500000000005
 21
452.2500000024645
 31
0.0
  0
LINE
  5
1D2
330
82
100
AcDbEntity
  8
0
  6
Continuous
 62
     7
100
AcDbLine
 10
-235.9930105112233
 20
450.2500000024643
 30
0.0
 11
-234.5787969488501
 21
452.2500000024643
 31
0.0
  0
LINE
  5
1D3
330
82
100
AcDbEntity
  8
0
  6
Continuous
 62
     7
100
AcDbLine
 10
-234.5787969488501
 20
452.2500000024643
 30
0.0
 11
-234.5787969488501
 21
442.2500000024643
 31
0.0
  0
LINE
  5
1D4
330
82
100
AcDbEntity
  8
0
  6
Continuous
 62
     7
100
AcDbLine
 10
-316.8657466994133
 20
442.2500000024646
 30
0.0
 11
-331.2500000000005
 21
442.2500000024645
 31
0.0
  0
LINE
  5
1D5
330
82
100
AcDbEntity
  8
0
  6
Continuous
 62
     7
100
AcDbLine
 10
-272.5001232792275
 20
442.2500000024645
 30
0.0
 11
-272.5000000000005
 21
450.2500000024641
 31
0.0
  0
LINE
  5
1D6
330
82
100
AcDbEntity
  8
0
  6
Continuous
 62
     7
100
AcDbLine
 10
-331.2500000000005
 20
442.2500000024645
 30
0.0
 11
-332.4807692307698
 21
442.2500000024645
 31
0.0
  0
LINE
  5
1D7
330
82
100
AcDbEntity
  8
0
  6
Continuous
 62
     7
100
AcDbLine
 10
-334.0000000000006
 20
442.2500000024645
 30
0.0
 11
-332.4807692307698
 21
442.2500000024645
 31
0.0
  0
LINE
  5
1D8
330
82
100
AcDbEntity
  8
0
  6
Continuous
 62
     7
100
AcDbLine
 10
-272.5000000000005
 20
450.2500000024641
 30
0.0
 11
-272.5000000000005
 21
452.2500000024641
 31
0.0
  0
LINE
  5
1D9
330
82
100
AcDbEntity
  8
0
  6
Continuous
 62
     7
100
AcDbLine
 10
-275.5000000000005
 20
452.2500000024641
 30
0.0
 11
-272.5000000000005
 21
452.2500000024641
 31
0.0
  0
LINE
  5
1DA
330
82
100
AcDbEntity
  8
0
  6
Continuous
 62
     7
100
AcDbLine
 10
-312.0069894887776
 20
442.2500000024647
 30
0.0
 11
-312.0069894887775
 21
450.2500000024642
 31
0.0
  0
LINE
  5
1DB
330
82
100
AcDbEntity
  8
0
  6
Continuous
 62
     7
100
AcDbLine
 10
-329.2500000000005
 20
442.2500000024647
 30
0.0
 11
-329.2500000000005
 21
450.2500000024645
 31
0.0
  0
LINE
  5
1DC
330
82
100
AcDbEntity
  8
0
  6
Continuous
 62
     7
100
AcDbLine
 10
-275.5000000000008
 20
442.2500000024641
 30
0.0
 11
-275.5000000000005
 21
452.2500000024641
 31
0.0
  0
LINE
  5
1DD
330
82
100
AcDbEntity
  8
0
  6
Continuous
 62
     7
100
AcDbLine
 10
-235.9930105112233
 20
442.2500000024644
 30
0.0
 11
-235.9930105112233
 21
450.2500000024643
 31
0.0
  0
LINE
  5
1DE
330
82
100
AcDbEntity
  8
0
  6
Continuous
 62
     7
100
AcDbLine
 10
-275.5000000000008
 20
442.2500000024641
 30
0.0
 11
-272.5001232792275
 21
442.2500000024645
 31
0.0
  0
LINE
  5
1DF
330
82
100
AcDbEntity
  8
0
  6
Continuous
 62
     7
100
AcDbLine
 10
-232.4574766052905
 20
452.2500000024643
 30
0.0
 11
-232.4574766052905
 21
442.2500000024643
 31
0.0
  0
LINE
  5
1E0
330
82
100
AcDbEntity
  8
0
  6
Continuous
 62
     7
100
AcDbLine
 10
-232.4574766052905
 20
452.2500000024643
 30
0.0
 11
-234.5787969488501
 21
452.2500000024643
 31
0.0
  0
LINE
  5
1E1
330
82
100
AcDbEntity
  8
0
  6
Continuous
 62
     7
100
AcDbLine
 10
-316.8657466994133
 20
433.7500000024646
 30
0.0
 11
-314.2915754918807
 21
433.7500000024646
 31
0.0
  0
LINE
  5
1E2
330
82
100
AcDbEntity
  8
0
  6
Continuous
 62
     7
100
AcDbLine
 10
-312.0069894887775
 20
450.2500000024642
 30
0.0
 11
-313.4212030511506
 21
452.2500000024643
 31
0.0
  0
LINE
  5
1E3
330
82
100
AcDbEntity
  8
0
  6
Continuous
 62
     7
100
AcDbLine
 10
-315.5425233947103
 20
452.2500000024643
 30
0.0
 11
-315.5425233947103
 21
442.2500000024643
 31
0.0
  0
LINE
  5
1E4
330
82
100
AcDbEntity
  8
0
  6
Continuous
 62
     7
100
AcDbLine
 10
-316.8657466994133
 20
433.7500000024646
 30
0.0
 11
-316.8657466994133
 21
442.2500000024646
 31
0.0
  0
LINE
  5
1E5
330
82
100
AcDbEntity
  8
0
  6
Continuous
 62
     7
100
AcDbLine
 10
-315.5425233947103
 20
452.2500000024643
 30
0.0
 11
-313.4212030511506
 21
452.2500000024643
 31
0.0
  0
LINE
  5
1E6
330
82
100
AcDbEntity
  8
0
  6
Continuous
 62
     7
100
AcDbLine
 10
-313.4212030511506
 20
452.2500000024643
 30
0.0
 11
-313.4212030511503
 21
442.2500000024646
 31
0.0
  0
LINE
  5
1E7
330
82
100
AcDbEntity
  8
0
  6
Continuous
 62
     7
100
AcDbLine
 10
-332.4807692307698
 20
433.7500000024645
 30
0.0
 11
-332.4807692307698
 21
442.2500000024645
 31
0.0
  0
LINE
  5
1E8
330
82
100
AcDbEntity
  8
0
  6
Continuous
 62
     7
100
AcDbLine
 10
-331.2500000000005
 20
452.2500000024645
 30
0.0
 11
-331.2500000000005
 21
442.2500000024645
 31
0.0
  0
LINE
  5
1E9
330
82
100
AcDbEntity
  8
0
  6
Continuous
 62
     7
100
AcDbLine
 10
-334.0000000000006
 20
433.7500000024645
 30
0.0
 11
-334.0000000000006
 21
442.2500000024645
 31
0.0
  0
LINE
  5
1EA
330
82
100
AcDbEntity
  8
0
  6
Continuous
 62
     7
100
AcDbLine
 10
-314.2915754918807
 20
433.7500000024646
 30
0.0
 11
-314.2915754918807
 21
442.2500000024646
 31
0.0
  0
LINE
  5
1EB
330
82
100
AcDbEntity
  8
0
  6
Continuous
 62
     7
100
AcDbLine
 10
-315.3657466994133
 20
432.2500000024646
 30
0.0
 11
-332.5000000000006
 21
432.2500000024645
 31
0.0
  0
LINE
  5
1EC
330
82
100
AcDbEntity
  8
0
  6
Continuous
 62
     7
100
AcDbLine
 10
-275.5000000000009
 20
433.7500000024641
 30
0.0
 11
-275.5000000000008
 21
442.2500000024641
 31
0.0
  0
LINE
  5
1ED
330
82
100
AcDbEntity
  8
0
  6
Continuous
 62
     7
100
AcDbLine
 10
-233.7084245081196
 20
433.7500000024643
 30
0.0
 11
-233.7084245081195
 21
442.2500000024643
 31
0.0
  0
LINE
  5
1EE
330
82
100
AcDbEntity
  8
0
  6
Continuous
 62
     7
100
AcDbLine
 10
-232.634253300587
 20
432.2500000024643
 30
0.0
 11
-273.9999999999999
 21
432.2500000024645
 31
0.0
  0
LINE
  5
1EF
330
82
100
AcDbEntity
  8
0
  6
Continuous
 62
     7
100
AcDbLine
 10
-215.5000000000006
 20
432.2500000024641
 30
0.0
 11
-232.634253300587
 21
432.2500000024643
 31
0.0
  0
LINE
  5
1F0
330
82
100
AcDbEntity
  8
0
  6
Continuous
 62
     7
100
AcDbLine
 10
-273.9999999999999
 20
432.2500000024645
 30
0.0
 11
-315.3657466994133
 21
432.2500000024646
 31
0.0
  0
LINE
  5
1F1
330
82
100
AcDbEntity
  8
0
  6
Continuous
 62
     7
100
AcDbLine
 10
-231.1342533005876
 20
433.750000002464
 30
0.0
 11
-231.1342533005875
 21
442.2500000024639
 31
0.0
  0
LINE
  5
1F2
330
82
100
AcDbEntity
  8
0
  6
Continuous
 62
     7
100
AcDbLine
 10
-215.5192307692313
 20
433.7500000024641
 30
0.0
 11
-215.5192307692313
 21
442.2500000024641
 31
0.0
  0
LINE
  5
1F3
330
82
100
AcDbEntity
  8
0
  6
Continuous
 62
     7
100
AcDbLine
 10
-214.0000000000005
 20
433.7500000024641
 30
0.0
 11
-214.0000000000005
 21
442.2500000024641
 31
0.0
  0
LINE
  5
1F4
330
82
100
AcDbEntity
  8
0
  6
Continuous
 62
     7
100
AcDbLine
 10
-215.5192307692313
 20
442.2500000024641
 30
0.0
 11
-216.7500000000005
 21
442.2500000024641
 31
0.0
  0
LINE
  5
1F5
330
82
100
AcDbEntity
  8
0
  6
Continuous
 62
     7
100
AcDbLine
 10
-272.5000000000006
 20
435.2500000024641
 30
0.0
 11
-272.5001232792275
 21
442.2500000024645
 31
0.0
  0
ARC
  5
1F6
330
82
100
AcDbEntity
  8
0
  6
Continuous
 62
     7
100
AcDbCircle
 10
-315.3657466994138
 20
433.7500000024643
 30
0.0
 40
1.499999999999488
100
AcDbArc
 50
179.999999999987
 51
270.0000000000196
  0
ARC
  5
1F7
330
82
100
AcDbEntity
  8
0
  6
Continuous
 62
     7
100
AcDbCircle
 10
-274.0000000000008
 20
433.7500000024641
 30
0.0
 40
1.500000000000114
100
AcDbArc
 50
180.0
 51
258.7658271932798
  0
ARC
  5
1F8
330
82
100
AcDbEntity
  8
0
  6
Continuous
 62
     7
100
AcDbCircle
 10
-274.0000000000008
 20
433.7500000024641
 30
0.0
 40
1.499999999999602
100
AcDbArc
 50
270.0000000000347
 51
0.0
  0
ARC
  5
1F9
330
82
100
AcDbEntity
  8
0
  6
Continuous
 62
     7
100
AcDbCircle
 10
-232.634253300587
 20
433.7500000024643
 30
0.0
 40
1.5
100
AcDbArc
 50
270.0
 51
359.9999999999891
  0
ARC
  5
1FA
330
82
100
AcDbEntity
  8
0
  6
Continuous
 62
     7
100
AcDbCircle
 10
-332.5000000000006
 20
433.7500000024645
 30
0.0
 40
1.5
100
AcDbArc
 50
180.0
 51
270.0
  0
ARC
  5
1FB
330
82
100
AcDbEntity
  8
0
  6
Continuous
 62
     7
100
AcDbCircle
 10
-215.5000000000006
 20
433.7500000024641
 30
0.0
 40
1.5
100
AcDbArc
 50
270.0
 51
0.0
  0
ARC
  5
1FC
330
82
100
AcDbEntity
  8
0
  6
Continuous
 62
     7
100
AcDbCircle
 10
-274.0000000000008
 20
433.7500000024641
 30
0.0
 40
1.49999999999949
100
AcDbArc
 50
258.7658271932798
 51
270.0000000000347
  0
SPLINE
  5
1FD
330
82
100
AcDbEntity
  8
0
  6
Continuous
 62
     7
100
AcDbSpline
210
0.0
220
0.0
230
1.0
 70
  1064
 71
     3
 72
    15
 73
    11
 74
     9
 42
0.000000001
 43
0.0000000001
 44
0.00000001
 40
0.0
 40
0.0
 40
0.0
 40
0.0
 40
0.2561399934304845
 40
0.4575586652929738
 40
0.7289287592462743
 40
1.060338345805663
 40
1.274927368160082
 40
1.427717817401602
 40
1.463940509387029
 40
1.500163201399428
 40
1.500163201399428
 40
1.500163201399428
 40
1.500163201399428
 10
-332.4807692307698
 20
433.7500000024645
 30
0.0
 10
-332.4808752789243
 20
433.6646199259424
 30
0.0
 10
-332.4810647328689
 20
433.5121002302674
 30
0.0
 10
-332.4825998723066
 20
433.2691280740498
 30
0.0
 10
-332.4852974241094
 20
433.0010747526392
 30
0.0
 10
-332.4894723261506
 20
432.7286488474309
 30
0.0
 10
-332.494114071721
 20
432.4957649453452
 30
0.0
 10
-332.4972260231361
 20
432.3612667284482
 30
0.0
 10
-332.4990728715826
 20
432.2862108298996
 30
0.0
 10
-332.4996909523899
 20
432.262070278157
 30
0.0
 10
-332.5000000000006
 20
432.2500000024645
 30
0.0
 11
-332.4807692307698
 21
433.7500000024645
 31
0.0
 11
-332.4813299855738
 21
433.4938606228736
 31
0.0
 11
-332.482559659672
 21
433.2924457046679
 31
0.0
 11
-332.4853102344492
 21
433.0210895508181
 31
0.0
 11
-332.4903777471795
 21
432.6897187096292
 31
0.0
 11
-332.4946584143439
 21
432.4751723873214
 31
0.0
 11
-332.4981852203119
 21
432.3224226473856
 31
0.0
 11
-332.4990788756153
 21
432.2862109807625
 31
0.0
 11
-332.5000000000006
 21
432.2500000024645
 31
0.0
  0
SPLINE
  5
1FE
330
82
100
AcDbEntity
  8
0
  6
Continuous
 62
     7
100
AcDbSpline
210
0.0
220
0.0
230
1.0
 70
  1064
 71
     3
 72
    17
 73
    13
 74
    11
 42
0.000000001
 43
0.0000000001
 44
0.00000001
 40
0.0
 40
0.0
 40
0.0
 40
0.0
 40
0.0357883152454321
 40
0.0715766304942408
 40
0.2365587401447239
 40
0.4390671799917709
 40
0.6484306049592397
 40
0.8244803654053187
 40
0.9580482341439769
 40
1.039964354870392
 40
1.266649334487335
 40
1.500163622637542
 40
1.500163622637542
 40
1.500163622637542
 40
1.500163622637542
 10
-215.5000000000006
 20
432.2500000024641
 30
0.0
 10
-215.5003037962341
 20
432.2619255724687
 30
0.0
 10
-215.5009113742954
 20
432.2857767128443
 30
0.0
 10
-215.5028578792161
 20
432.3646056021212
 30
0.0
 10
-215.5059512438889
 20
432.4989964804575
 30
0.0
 10
-215.5097725737986
 20
432.6912435569214
 30
0.0
 10
-215.512966598547
 20
432.8871918369643
 30
0.0
 10
-215.5152276287747
 20
433.0601709728388
 30
0.0
 10
-215.5165983457303
 20
433.1906751719974
 30
0.0
 10
-215.5178393397048
 20
433.3380596017233
 30
0.0
 10
-215.518956451132
 20
433.5187620178144
 30
0.0
 10
-215.5191384346195
 20
433.6721618617429
 30
0.0
 10
-215.5192307692313
 20
433.7500000024641
 30
0.0
 11
-215.5000000000006
 21
432.2500000024641
 31
0.0
 11
-215.5009067304412
 21
432.2857768294656
 31
0.0
 11
-215.5017912692728
 21
432.3215542120063
 31
0.0
 11
-215.5055859246435
 21
432.4864926766637
 31
0.0
 11
-215.509608517744
 21
432.6889611605629
 31
0.0
 11
-215.5130252118848
 21
432.8982967044316
 31
0.0
 11
-215.5153270525649
 21
433.0743314160259
 31
0.0
 11
-215.5167217015274
 21
433.2078920034565
 31
0.0
 11
-215.5174168205152
 21
433.2898051748339
 31
0.0
 11
-215.5187564503974
 21
433.5164861960509
 31
0.0
 11
-215.5192307692313
 21
433.7500000024641
 31
0.0
  0
SPLINE
  5
1FF
330
82
100
AcDbEntity
  8
0
  6
Continuous
 62
     7
100
AcDbSpline
210
0.0
220
0.0
230
1.0
 70
  1064
 71
     3
 72
    15
 73
    11
 74
     9
 42
0.000000001
 43
0.0000000001
 44
0.00000001
 40
0.0
 40
0.0
 40
0.0
 40
0.0
 40
0.1999044563175868
 40
0.4612114341749514
 40
0.8165555493208396
 40
1.122935941179766
 40
1.40087296831214
 40
1.693408141645385
 40
1.836819681011792
 40
2.029940204761499
 40
2.029940204761499
 40
2.029940204761499
 40
2.029940204761499
 10
-314.2915754918807
 20
433.7500000024646
 30
0.0
 10
-314.2934660549088
 20
433.6833396283093
 30
0.0
 10
-314.2978279000963
 20
433.5295435240002
 30
0.0
 10
-314.3432154629542
 20
433.2601811590629
 30
0.0
 10
-314.4396460725857
 20
432.966064071451
 30
0.0
 10
-314.5948427588484
 20
432.6915916141246
 30
0.0
 10
-314.7896920478278
 20
432.4705910488553
 30
0.0
 10
-314.9903313209634
 20
432.3363271316312
 30
0.0
 10
-315.188734711655
 20
432.2633345978038
 30
0.0
 10
-315.3012050565198
 20
432.2548620227847
 30
0.0
 10
-315.3657466994133
 20
432.2500000024646
 30
0.0
 11
-314.2915754918807
 21
433.7500000024646
 31
0.0
 11
-314.3012438542913
 21
433.5503294916653
 31
0.0
 11
-314.3434017522769
 21
433.2924457046679
 31
0.0
 11
-314.4563423056854
 21
432.9555275074339
 31
0.0
 11
-314.6087057791879
 21
432.6897187096293
 31
0.0
 11
-314.7944156110542
 21
432.4829317411802
 31
0.0
 11
-315.0389839266829
 21
432.3224226473857
 31
0.0
 11
-315.1742064575185
 21
432.2746551078282
 31
0.0
 11
-315.3657466994133
 21
432.2500000024646
 31
0.0
  0
SPLINE
  5
200
330
82
100
AcDbEntity
  8
0
  6
Continuous
 62
     7
100
AcDbSpline
210
0.0
220
0.0
230
1.0
 70
  1064
 71
     3
 72
    15
 73
    11
 74
     9
 42
0.000000001
 43
0.0000000001
 44
0.00000001
 40
0.0
 40
0.0
 40
0.0
 40
0.0
 40
0.1416512504224854
 40
0.33452227640595
 40
0.6197225444900418
 40
0.9061899359343117
 40
1.16419529056245
 40
1.566023436779625
 40
1.759409408549038
 40
2.029931196667929
 40
2.029931196667929
 40
2.029931196667929
 40
2.029931196667929
 10
-232.634253300587
 20
432.2500000024643
 30
0.0
 10
-232.6815319049118
 20
432.2526517003012
 30
0.0
 10
-232.7931846158684
 20
432.2589139403543
 30
0.0
 10
-232.9916944328309
 20
432.3253266937862
 30
0.0
 10
-233.207249029481
 20
432.4674110252995
 30
0.0
 10
-233.3924803190101
 20
432.676240978825
 30
0.0
 10
-233.5529831205549
 20
432.9493111244377
 30
0.0
 10
-233.6462183935092
 20
433.2207303235658
 30
0.0
 10
-233.6992431672129
 20
433.5049614514179
 30
0.0
 10
-233.7050426323324
 20
433.6597418321714
 30
0.0
 10
-233.7084245081196
 20
433.7500000024643
 30
0.0
 11
-232.634253300587
 21
432.2500000024643
 31
0.0
 11
-232.7752825393325
 21
432.2632601666176
 31
0.0
 11
-232.9591331281885
 21
432.3215542120066
 31
0.0
 11
-233.1985421944525
 21
432.4765461263595
 31
0.0
 11
-233.390748906638
 21
432.6889611605631
 31
0.0
 11
-233.5225022817144
 21
432.9107894982711
 31
0.0
 11
-233.6559675426757
 21
433.2898051748341
 31
0.0
 11
-233.6905889942877
 21
433.4800668073109
 31
0.0
 11
-233.7084245081196
 21
433.7500000024643
 31
0.0
  0
ENDBLK
  5
84
330
82
100
AcDbEntity
  8
0
100
AcDbBlockEnd
  0
BLOCK
  5
86
330
85
100
AcDbEntity
  8
0
100
AcDbBlockBegin
  2
Aufsatz-D110-300021825
 70
     0
 10
-329.0000000000002
 20
475.2500000024641
 30
0.0
  3
Aufsatz-D110-300021825
  1

  0
LINE
  5
201
330
85
100
AcDbEntity
  8
0
  6
Continuous
 62
     7
100
AcDbLine
 10
-321.9999998435594
 20
584.7500000024645
 30
0.0
 11
-328.9999999999999
 21
577.7499998460243
 31
0.0
  0
LINE
  5
202
330
85
100
AcDbEntity
  8
0
  6
Continuous
 62
     7
100
AcDbLine
 10
-220.0000000000005
 20
475.2500000024641
 30
0.0
 11
-219.0000000000006
 21
476.2500000024641
 31
0.0
  0
LINE
  5
203
330
85
100
AcDbEntity
  8
0
  6
Continuous
 62
     7
100
AcDbLine
 10
-220.0000000000005
 20
475.2500000024641
 30
0.0
 11
-328.0000000000003
 21
475.2500000024645
 31
0.0
  0
LINE
  5
204
330
85
100
AcDbEntity
  8
0
  6
Continuous
 62
     7
100
AcDbLine
 10
-219.0000000000002
 20
577.7499998460239
 30
0.0
 11
-328.9999999999999
 21
577.7499998460243
 31
0.0
  0
LINE
  5
205
330
85
100
AcDbEntity
  8
0
  6
Continuous
 62
     7
100
AcDbLine
 10
-230.2297388406935
 20
584.7500000024642
 30
0.0
 11
-230.3
 21
584.750000002464
 31
0.0
  0
LINE
  5
206
330
85
100
AcDbEntity
  8
0
  6
Continuous
 62
     7
100
AcDbLine
 10
-306.155273853252
 20
584.7500000024644
 30
0.0
 11
-317.7
 21
584.7500000024644
 31
0.0
  0
LINE
  5
207
330
85
100
AcDbEntity
  8
0
  6
Continuous
 62
     7
100
AcDbLine
 10
-317.7
 20
584.7500000024644
 30
0.0
 11
-317.7702611593065
 21
584.7500000024644
 31
0.0
  0
LINE
  5
208
330
85
100
AcDbEntity
  8
0
  6
Continuous
 62
     7
100
AcDbLine
 10
-303.8895883082719
 20
584.7500000024644
 30
0.0
 11
-306.0109086518315
 21
584.7500000024643
 31
0.0
  0
LINE
  5
209
330
85
100
AcDbEntity
  8
0
  6
Continuous
 62
     7
100
AcDbLine
 10
-306.0109086518315
 20
584.7500000024643
 30
0.0
 11
-306.155273853252
 21
584.7500000024644
 31
0.0
  0
LINE
  5
20A
330
85
100
AcDbEntity
  8
0
  6
Continuous
 62
     7
100
AcDbLine
 10
-317.7702611593065
 20
584.7500000024644
 30
0.0
 11
-321.9999998435594
 21
584.7500000024645
 31
0.0
  0
LINE
  5
20B
330
85
100
AcDbEntity
  8
0
  6
Continuous
 62
     7
100
AcDbLine
 10
-275.4999999999999
 20
584.7500000024643
 30
0.0
 11
-303.8895883082719
 21
584.7500000024644
 31
0.0
  0
LINE
  5
20C
330
85
100
AcDbEntity
  8
0
  6
Continuous
 62
     7
100
AcDbLine
 10
-274.0
 20
584.7500000024643
 30
0.0
 11
-275.4999999999999
 21
584.7500000024643
 31
0.0
  0
LINE
  5
20D
330
85
100
AcDbEntity
  8
0
  6
Continuous
 62
     7
100
AcDbLine
 10
-328.0000000000003
 20
475.2500000024645
 30
0.0
 11
-329.0000000000002
 21
476.2500000024645
 31
0.0
  0
LINE
  5
20E
330
85
100
AcDbEntity
  8
0
  6
Continuous
 62
     7
100
AcDbLine
 10
-328.9999999999999
 20
577.7499998460243
 30
0.0
 11
-329.0000000000002
 21
476.2500000024645
 31
0.0
  0
LINE
  5
20F
330
85
100
AcDbEntity
  8
0
  6
Continuous
 62
     7
100
AcDbLine
 10
-274.0000000000004
 20
476.2500000024643
 30
0.0
 11
-329.0000000000002
 21
476.2500000024645
 31
0.0
  0
LINE
  5
210
330
85
100
AcDbEntity
  8
0
  6
Continuous
 62
     7
100
AcDbLine
 10
-272.4999999999998
 20
584.7500000024643
 30
0.0
 11
-274.0
 21
584.7500000024643
 31
0.0
  0
LINE
  5
211
330
85
100
AcDbEntity
  8
0
  6
Continuous
 62
     7
100
AcDbLine
 10
-244.1104116917279
 20
584.7500000024642
 30
0.0
 11
-272.4999999999998
 21
584.7500000024643
 31
0.0
  0
LINE
  5
212
330
85
100
AcDbEntity
  8
0
  6
Continuous
 62
     7
100
AcDbLine
 10
-241.9890913481682
 20
584.7500000024642
 30
0.0
 11
-244.1104116917279
 21
584.7500000024642
 31
0.0
  0
LINE
  5
213
330
85
100
AcDbEntity
  8
0
  6
Continuous
 62
     7
100
AcDbLine
 10
-241.8447261467478
 20
584.7500000024642
 30
0.0
 11
-241.9890913481682
 21
584.7500000024642
 31
0.0
  0
LINE
  5
214
330
85
100
AcDbEntity
  8
0
  6
Continuous
 62
     7
100
AcDbLine
 10
-230.3
 20
584.750000002464
 30
0.0
 11
-241.8447261467478
 21
584.7500000024642
 31
0.0
  0
LINE
  5
215
330
85
100
AcDbEntity
  8
0
  6
Continuous
 62
     7
100
AcDbLine
 10
-226.0000001564407
 20
584.750000002464
 30
0.0
 11
-219.0000000000002
 21
577.7499998460239
 31
0.0
  0
LINE
  5
216
330
85
100
AcDbEntity
  8
0
  6
Continuous
 62
     7
100
AcDbLine
 10
-219.0000000000006
 20
476.2500000024641
 30
0.0
 11
-274.0000000000004
 21
476.2500000024643
 31
0.0
  0
LINE
  5
217
330
85
100
AcDbEntity
  8
0
  6
Continuous
 62
     7
100
AcDbLine
 10
-219.0000000000002
 20
577.7499998460239
 30
0.0
 11
-219.0000000000006
 21
476.2500000024641
 31
0.0
  0
LINE
  5
218
330
85
100
AcDbEntity
  8
0
  6
Continuous
 62
     7
100
AcDbLine
 10
-226.0000001564407
 20
584.750000002464
 30
0.0
 11
-230.2297388406935
 21
584.7500000024642
 31
0.0
  0
ENDBLK
  5
87
330
85
100
AcDbEntity
  8
0
100
AcDbBlockEnd
  0
BLOCK
  5
8F
330
88
100
AcDbEntity
  8
0
100
AcDbBlockBegin
  2
HL39D-WEB-Zeichnung__5
 70
     0
 10
-348.0
 20
432.2500000024641
 30
0.0
  3
HL39D-WEB-Zeichnung__5
  1

  0
INSERT
  5
89
330
88
100
AcDbEntity
  8
0
100
AcDbBlockReference
  2
Rost-301020056_1__1
 10
-273.9999999999999
 20
602.7500000024639
 30
0.0
  0
INSERT
  5
8A
330
88
100
AcDbEntity
  8
0
100
AcDbBlockReference
  2
Ring75-301020055__2
 10
-315.0824094491027
 20
589.750000002464
 30
0.0
  0
INSERT
  5
8B
330
88
100
AcDbEntity
  8
0
100
AcDbBlockReference
  2
Rost-301020056__3
 10
-339.4999999999999
 20
602.750000002464
 30
0.0
  0
INSERT
  5
8C
330
88
100
AcDbEntity
  8
0
100
AcDbBlockReference
  2
Aufsatz-150x150-309701876__4
 10
-348.0
 20
584.750000002464
 30
0.0
  0
INSERT
  5
8D
330
88
100
AcDbEntity
  8
0
100
AcDbBlockReference
  2
Distanzring-304051867
 10
-334.0000000000006
 20
432.2500000024641
 30
0.0
  0
INSERT
  5
8E
330
88
100
AcDbEntity
  8
0
100
AcDbBlockReference
  2
Aufsatz-D110-300021825
 10
-329.0000000000002
 20
475.2500000024641
 30
0.0
  0
ENDBLK
  5
90
330
88
100
AcDbEntity
  8
0
100
AcDbBlockEnd
  0
BLOCK
  5
93
330
91
100
AcDbEntity
  8
0
100
AcDbBlockBegin
  2
Untsicht1
 70
     0
 10
-274.0
 20
542.0000000012301
 30
0.0
  3
Untsicht1
  1

  0
INSERT
  5
92
330
91
100
AcDbEntity
  8
0
100
AcDbBlockReference
  2
HL39D-WEB-Zeichnung__5
 10
-348.0
 20
432.2500000024641
 30
0.0
  0
LINE
  5
219
330
91
100
AcDbEntity
  8
1
  6
Continuous
 62
     4
100
AcDbLine
 10
-236.5000025050088
 20
612.7500000024644
 30
0.0
 11
-236.5000025050088
 21
613.7500000024642
 31
0.0
  0
LINE
  5
21A
330
91
100
AcDbEntity
  8
1
  6
Continuous
 62
     4
100
AcDbLine
 10
-311.5000025050088
 20
612.7500000024644
 30
0.0
 11
-311.5000025050088
 21
613.7500000024646
 31
0.0
  0
LINE
  5
21B
330
91
100
AcDbEntity
  8
1
  6
Continuous
 62
     4
100
AcDbLine
 10
-245.5000025050088
 20
612.7500000024644
 30
0.0
 11
-245.5000025050088
 21
613.7500000024642
 31
0.0
  0
LINE
  5
21C
330
91
100
AcDbEntity
  8
1
  6
Continuous
 62
     4
100
AcDbLine
 10
-302.5000025050088
 20
612.7500000024644
 30
0.0
 11
-302.5000025050088
 21
613.7500000024646
 31
0.0
  0
MTEXT
  5
21E
330
91
100
AcDbEntity
  8
1
 62
     1
100
AcDbMText
 10
-273.9999999999998
 20
467.2500000012296
 30
0.0
 40
3.5
 41
0.0
 71
     2
 72
     1
  1
 
  7
CONVERTER_11
 73
     1
 44
1.32052821128451
  0
DIMENSION
  5
229
330
91
100
AcDbEntity
  8
1
100
AcDbDimension
  2
*D16
 10
-219.0000000000006
 20
460.4728749444038
 30
0.0
 11
-290.168173953127
 21
464.9728749444038
 31
0.0
 70
    32
  1
<>
 71
     5
 42
-1.0
 53
0.00013888888889
  3
ME10_DIM_10
100
AcDbAlignedDimension
 13
-329.0000000000002
 23
476.2500000024645
 33
0.0
 14
-219.0000000000006
 24
476.2500000024641
 34
0.0
100
AcDbRotatedDimension
  0
DIMENSION
  5
234
330
91
100
AcDbEntity
  8
1
100
AcDbDimension
  2
*D17
 10
-175.647982958917
 20
602.7500000024639
 30
0.0
 11
-180.147982958917
 21
539.842377748967
 31
0.0
 70
    32
  1
<>
 71
     5
 42
-1.0
 53
90.0
  3
ME10_DIM_11
100
AcDbAlignedDimension
 13
-220.0000000000005
 23
475.2500000024641
 33
0.0
 14
-201.4999999999999
 24
602.7500000024639
 34
0.0
 50
90.0
100
AcDbRotatedDimension
  0
DIMENSION
  5
240
330
91
100
AcDbEntity
  8
1
100
AcDbDimension
  2
*D18
 10
-188.119751601217
 20
588.2500000024639
 30
0.0
 11
-192.619751601217
 21
612.660579240348
 31
0.0
 70
    32
  1
14
 71
     5
 42
-1.0
 53
90.0
  3
ME10_DIM_12
100
AcDbAlignedDimension
 13
-201.4999999999999
 23
602.7500000024639
 33
0.0
 14
-208.0
 24
588.2500000024639
 34
0.0
 50
90.0
100
AcDbRotatedDimension
  0
DIMENSION
  5
24B
330
91
100
AcDbEntity
  8
1
100
AcDbDimension
  2
*D19
 10
-348.0
 20
647.068486305072
 30
0.0
 11
-267.675995771868
 21
651.568486305072
 31
0.0
 70
    32
  1
150x150
 71
     5
 42
-1.0
 53
0.00013888888889
  3
ME10_DIM_13
100
AcDbAlignedDimension
 13
-200.0
 23
590.7500000024639
 33
0.0
 14
-348.0
 24
590.7500000024645
 34
0.0
100
AcDbRotatedDimension
  0
DIMENSION
  5
256
330
91
100
AcDbEntity
  8
1
100
AcDbDimension
  2
*D20
 10
-311.5000025050088
 20
635.814438141822
 30
0.0
 11
-281.192407435404
 21
640.314438141822
 31
0.0
 70
    32
  1
<>
 71
     5
 42
-1.0
 53
0.00013888888889
  3
ME10_DIM_14
100
AcDbAlignedDimension
 13
-236.5000025050088
 23
613.7500000024642
 33
0.0
 14
-311.5000025050088
 24
613.7500000024646
 34
0.0
100
AcDbRotatedDimension
  0
DIMENSION
  5
261
330
91
100
AcDbEntity
  8
1
100
AcDbDimension
  2
*D21
 10
-302.5000025050088
 20
624.732850421761
 30
0.0
 11
-265.453650021589
 21
629.232850421761
 31
0.0
 70
    32
  1
<>
 71
     5
 42
-1.0
 53
0.00013888888889
  3
ME10_DIM_15
100
AcDbAlignedDimension
 13
-245.5000025050088
 23
613.7500000024642
 33
0.0
 14
-302.5000025050088
 24
613.7500000024646
 34
0.0
100
AcDbRotatedDimension
  0
ENDBLK
  5
94
330
91
100
AcDbEntity
  8
0
100
AcDbBlockEnd
  0
BLOCK
  5
96
330
95
100
AcDbEntity
  8
0
100
AcDbBlockBegin
  2
Rost-301020056__6
 70
     0
 10
-342.0000000000002
 20
268.4999999999998
 30
0.0
  3
Rost-301020056__6
  1

  0
LINE
  5
262
330
95
100
AcDbEntity
  8
0
  6
Continuous
 62
     7
100
AcDbLine
 10
-274.0000000000002
 20
384.4999999999998
 30
0.0
 11
-274.0000000000002
 21
392.9999999999994
 31
0.0
  0
LINE
  5
263
330
95
100
AcDbEntity
  8
0
  6
Continuous
 62
     7
100
AcDbLine
 10
-274.0000000000002
 20
380.9999999999998
 30
0.0
 11
-274.0000000000002
 21
384.4999999999998
 31
0.0
  0
LINE
  5
264
330
95
100
AcDbEntity
  8
0
  6
Continuous
 62
     7
100
AcDbLine
 10
-274.0000000000002
 20
380.0000000000002
 30
0.0
 11
-274.0000000000002
 21
380.9999999999998
 31
0.0
  0
LINE
  5
265
330
95
100
AcDbEntity
  8
0
  6
Continuous
 62
     7
100
AcDbLine
 10
-274.0000000000002
 20
290.0000001564404
 30
0.0
 11
-274.0000000000002
 21
294.024859273857
 31
0.0
  0
LINE
  5
266
330
95
100
AcDbEntity
  8
0
  6
Continuous
 62
     7
100
AcDbLine
 10
-274.0000000000002
 20
294.024859273857
 30
0.0
 11
-274.0000000000002
 21
296.0000000000002
 31
0.0
  0
LINE
  5
267
330
95
100
AcDbEntity
  8
0
  6
Continuous
 62
     7
100
AcDbLine
 10
-291.975061250391
 20
297.2152337862827
 30
0.0
 11
-296.4300932503909
 21
299.4851867862827
 31
0.0
  0
LINE
  5
268
330
95
100
AcDbEntity
  8
0
  6
Continuous
 62
     7
100
AcDbLine
 10
-303.6984848282204
 20
304.76598217178
 30
0.0
 11
-307.2340188282204
 21
308.30151517178
 31
0.0
  0
LINE
  5
269
330
95
100
AcDbEntity
  8
0
  6
Continuous
 62
     7
100
AcDbLine
 10
-299.4913662137176
 20
279.1596212503908
 30
0.0
 11
-291.3195372137178
 21
295.1977382503908
 31
0.0
  0
LINE
  5
26A
330
95
100
AcDbEntity
  8
0
  6
Continuous
 62
     7
100
AcDbLine
 10
-278.49211330244
 20
293.6567835108929
 30
0.0
 11
-283.4305543024399
 21
294.4389555108929
 31
0.0
  0
LINE
  5
26B
330
95
100
AcDbEntity
  8
0
  6
Continuous
 62
     7
100
AcDbLine
 10
-285.1467385108929
 20
293.1920746975605
 30
0.0
 11
-287.0239525108931
 21
281.3398146975605
 31
0.0
  0
LINE
  5
26C
330
95
100
AcDbEntity
  8
0
  6
Continuous
 62
     7
100
AcDbLine
 10
-279.1224454891076
 20
280.0883383024399
 30
0.0
 11
-277.2452324891075
 21
291.9405993024399
 31
0.0
  0
LINE
  5
26D
330
95
100
AcDbEntity
  8
0
  6
Continuous
 62
     7
100
AcDbLine
 10
-316.8022617496097
 20
320.6804637862827
 30
0.0
 11
-332.8403797496097
 21
312.5086347862828
 31
0.0
  0
LINE
  5
26E
330
95
100
AcDbEntity
  8
0
  6
Continuous
 62
     7
100
AcDbLine
 10
-320.0594016975607
 20
334.7547685108929
 30
0.0
 11
-331.9116616975607
 21
332.8775545108929
 31
0.0
  0
LINE
  5
26F
330
95
100
AcDbEntity
  8
0
  6
Continuous
 62
     7
100
AcDbLine
 10
-317.5610454891075
 20
328.5694456975606
 30
0.0
 11
-318.3432174891075
 21
333.5078876975605
 31
0.0
  0
LINE
  5
270
330
95
100
AcDbEntity
  8
0
  6
Continuous
 62
     7
100
AcDbLine
 10
-333.158542510893
 20
331.1613703024399
 30
0.0
 11
-332.3763705108931
 21
326.2229293024399
 31
0.0
  0
LINE
  5
271
330
95
100
AcDbEntity
  8
0
  6
Continuous
 62
     7
100
AcDbLine
 10
-330.66018630244
 20
324.9760484891075
 30
0.0
 11
-318.80792630244
 21
326.8532614891075
 31
0.0
  0
LINE
  5
272
330
95
100
AcDbEntity
  8
0
  6
Continuous
 62
     7
100
AcDbLine
 10
-333.4959037862828
 20
310.4911392503909
 30
0.0
 11
-331.225950786283
 21
306.0361062503908
 31
0.0
  0
LINE
  5
273
330
95
100
AcDbEntity
  8
0
  6
Continuous
 62
     7
100
AcDbLine
 10
-329.208455250391
 20
305.3805822137176
 30
0.0
 11
-313.170338250391
 21
313.5524112137176
 31
0.0
  0
LINE
  5
274
330
95
100
AcDbEntity
  8
0
  6
Continuous
 62
     7
100
AcDbLine
 10
-312.5148142137177
 20
315.5699067496095
 30
0.0
 11
-314.7847662137178
 21
320.0249397496095
 31
0.0
  0
LINE
  5
275
330
95
100
AcDbEntity
  8
0
  6
Continuous
 62
     7
100
AcDbLine
 10
-306.6194177862828
 20
393.2084562503909
 30
0.0
 11
-298.4475887862828
 21
377.1703382503908
 31
0.0
  0
LINE
  5
276
330
95
100
AcDbEntity
  8
0
  6
Continuous
 62
     7
100
AcDbLine
 10
-291.319537213718
 20
380.8022627496101
 30
0.0
 11
-299.491366213718
 21
396.8403797496101
 31
0.0
  0
LINE
  5
277
330
95
100
AcDbEntity
  8
0
  6
Continuous
 62
     7
100
AcDbLine
 10
-301.5088617496097
 20
397.4959037862828
 30
0.0
 11
-305.9638937496097
 21
395.2259517862827
 31
0.0
  0
LINE
  5
278
330
95
100
AcDbEntity
  8
0
  6
Continuous
 62
     7
100
AcDbLine
 10
-287.0239525108931
 20
394.6601863024399
 30
0.0
 11
-285.146738510893
 21
382.8079263024399
 31
0.0
  0
LINE
  5
279
330
95
100
AcDbEntity
  8
0
  6
Continuous
 62
     7
100
AcDbLine
 10
-280.8386296975606
 20
397.1585425108929
 30
0.0
 11
-285.7770716975606
 21
396.3763705108929
 31
0.0
  0
LINE
  5
27A
330
95
100
AcDbEntity
  8
0
  6
Continuous
 62
     7
100
AcDbLine
 10
-283.4305543024399
 20
381.5610454891075
 30
0.0
 11
-278.49211330244
 21
382.3432174891075
 31
0.0
  0
LINE
  5
27B
330
95
100
AcDbEntity
  8
0
  6
Continuous
 62
     7
100
AcDbLine
 10
-277.2452324891075
 20
384.0594016975605
 30
0.0
 11
-279.1224454891076
 21
395.9116616975605
 31
0.0
  0
LINE
  5
27C
330
95
100
AcDbEntity
  8
0
  6
Continuous
 62
     7
100
AcDbLine
 10
-296.4300932503909
 20
376.5148142137176
 30
0.0
 11
-291.975061250391
 21
378.7847672137176
 31
0.0
  0
LINE
  5
27D
330
95
100
AcDbEntity
  8
0
  6
Continuous
 62
     7
100
AcDbLine
 10
-285.7770716975606
 20
279.6236304891075
 30
0.0
 11
-280.8386296975606
 21
278.8414574891074
 31
0.0
  0
LINE
  5
27E
330
95
100
AcDbEntity
  8
0
  6
Continuous
 62
     7
100
AcDbLine
 10
-309.3553391717805
 20
308.3015151717797
 30
0.0
 11
-322.0832611717806
 21
295.5735931717796
 31
0.0
  0
LINE
  5
27F
330
95
100
AcDbEntity
  8
0
  6
Continuous
 62
     7
100
AcDbLine
 10
-316.4264068282205
 20
289.9167388282203
 30
0.0
 11
-303.6984848282204
 21
302.6446618282204
 31
0.0
  0
LINE
  5
280
330
95
100
AcDbEntity
  8
0
  6
Continuous
 62
     7
100
AcDbLine
 10
-298.4475887862828
 20
298.8296627496095
 30
0.0
 11
-306.6194177862828
 21
282.7915447496096
 31
0.0
  0
LINE
  5
281
330
95
100
AcDbEntity
  8
0
  6
Continuous
 62
     7
100
AcDbLine
 10
-303.6984848282203
 20
373.3553391717807
 30
0.0
 11
-316.4264068282201
 21
386.0832611717805
 31
0.0
  0
LINE
  5
282
330
95
100
AcDbEntity
  8
0
  6
Continuous
 62
     7
100
AcDbLine
 10
-332.8403797496097
 20
363.4913662137176
 30
0.0
 11
-316.8022617496097
 21
355.3195372137177
 31
0.0
  0
LINE
  5
283
330
95
100
AcDbEntity
  8
0
  6
Continuous
 62
     7
100
AcDbLine
 10
-313.170338250391
 20
362.4475897862835
 30
0.0
 11
-329.208455250391
 21
370.6194187862835
 31
0.0
  0
LINE
  5
284
330
95
100
AcDbEntity
  8
0
  6
Continuous
 62
     7
100
AcDbLine
 10
-318.3432174891075
 20
342.4921133024399
 30
0.0
 11
-317.5610454891076
 21
347.4305553024399
 31
0.0
  0
LINE
  5
285
330
95
100
AcDbEntity
  8
0
  6
Continuous
 62
     7
100
AcDbLine
 10
-318.80792630244
 20
349.1467395108929
 30
0.0
 11
-330.66018630244
 21
351.0239525108929
 31
0.0
  0
LINE
  5
286
330
95
100
AcDbEntity
  8
0
  6
Continuous
 62
     7
100
AcDbLine
 10
-331.9116616975607
 20
343.1224464891075
 30
0.0
 11
-320.0594016975607
 21
341.2452324891075
 31
0.0
  0
LINE
  5
287
330
95
100
AcDbEntity
  8
0
  6
Continuous
 62
     7
100
AcDbLine
 10
-314.7847662137174
 20
355.9750612503915
 30
0.0
 11
-312.5148142137174
 21
360.4300942503915
 31
0.0
  0
LINE
  5
288
330
95
100
AcDbEntity
  8
0
  6
Continuous
 62
     7
100
AcDbLine
 10
-322.0832611717802
 20
380.4264068282204
 30
0.0
 11
-309.35533917178
 21
367.6984848282204
 31
0.0
  0
LINE
  5
289
330
95
100
AcDbEntity
  8
0
  6
Continuous
 62
     7
100
AcDbLine
 10
-307.23401882822
 20
367.6984848282208
 30
0.0
 11
-303.6984848282201
 21
371.2340188282209
 31
0.0
  0
LINE
  5
28A
330
95
100
AcDbEntity
  8
0
  6
Continuous
 62
     7
100
AcDbLine
 10
-332.3763705108931
 20
349.7770716975606
 30
0.0
 11
-333.158542510893
 21
344.8386306975606
 31
0.0
  0
LINE
  5
28B
330
95
100
AcDbEntity
  8
0
  6
Continuous
 62
     7
100
AcDbLine
 10
-318.5477271717796
 20
386.0832611717805
 30
0.0
 11
-322.0832611717797
 21
382.5477271717805
 31
0.0
  0
LINE
  5
28C
330
95
100
AcDbEntity
  8
0
  6
Continuous
 62
     7
100
AcDbLine
 10
-331.2259507862829
 20
369.9638947496096
 30
0.0
 11
-333.4959037862828
 21
365.5088617496095
 31
0.0
  0
LINE
  5
28D
330
95
100
AcDbEntity
  8
0
  6
Continuous
 62
     7
100
AcDbLine
 10
-322.0832611717802
 20
293.4522728282204
 30
0.0
 11
-318.5477271717801
 21
289.9167388282203
 31
0.0
  0
LINE
  5
28E
330
95
100
AcDbEntity
  8
0
  6
Continuous
 62
     7
100
AcDbLine
 10
-305.9638937496097
 20
280.7740492137176
 30
0.0
 11
-301.5088617496097
 21
278.5040972137176
 31
0.0
  0
LINE
  5
28F
330
95
100
AcDbEntity
  8
0
  6
Continuous
 62
     7
100
AcDbLine
 10
-274.0000000000002
 20
405.0000000000002
 30
0.0
 11
-339.5000000000002
 21
405.0000000000002
 31
0.0
  0
LINE
  5
290
330
95
100
AcDbEntity
  8
0
  6
Continuous
 62
     7
100
AcDbLine
 10
-293.0000000000002
 20
407.4999999999998
 30
0.0
 11
-274.0000000000002
 21
407.5000000000002
 31
0.0
  0
LINE
  5
291
330
95
100
AcDbEntity
  8
0
  6
Continuous
 62
     7
100
AcDbLine
 10
-340.0000000000002
 20
407.5000000000002
 30
0.0
 11
-293.0000000000002
 21
407.4999999999998
 31
0.0
  0
LINE
  5
292
330
95
100
AcDbEntity
  8
0
  6
Continuous
 62
     7
100
AcDbLine
 10
-339.5000000000002
 20
405.0000000000002
 30
0.0
 11
-339.5000000000002
 21
271.0000000000002
 31
0.0
  0
LINE
  5
293
330
95
100
AcDbEntity
  8
0
  6
Continuous
 62
     7
100
AcDbLine
 10
-293.0000000000007
 20
268.4999999999998
 30
0.0
 11
-340.0000000000002
 21
268.5000000000002
 31
0.0
  0
LINE
  5
294
330
95
100
AcDbEntity
  8
0
  6
Continuous
 62
     7
100
AcDbLine
 10
-339.5000000000002
 20
271.0000000000002
 30
0.0
 11
-274.0000000000002
 21
271.0000000000002
 31
0.0
  0
LINE
  5
295
330
95
100
AcDbEntity
  8
0
  6
Continuous
 62
     7
100
AcDbLine
 10
-274.0000000000002
 20
271.0000000000002
 30
0.0
 11
-274.0000000000002
 21
268.5000000000002
 31
0.0
  0
LINE
  5
296
330
95
100
AcDbEntity
  8
0
  6
Continuous
 62
     7
100
AcDbLine
 10
-274.0000000000002
 20
268.5000000000002
 30
0.0
 11
-293.0000000000007
 21
268.4999999999998
 31
0.0
  0
LINE
  5
297
330
95
100
AcDbEntity
  8
0
  6
Continuous
 62
     7
100
AcDbLine
 10
-274.0000000000002
 20
407.5000000000002
 30
0.0
 11
-274.0000000000002
 21
405.0000000000002
 31
0.0
  0
LINE
  5
298
330
95
100
AcDbEntity
  8
0
  6
Continuous
 62
     7
100
AcDbLine
 10
-342.0000000000002
 20
270.5000000000002
 30
0.0
 11
-342.0000000000002
 21
405.5000000000002
 31
0.0
  0
LINE
  5
299
330
95
100
AcDbEntity
  8
0
  6
Continuous
 62
     7
100
AcDbLine
 10
-274.0000000000002
 20
392.9999999999994
 30
0.0
 11
-274.0000000000002
 21
405.0000000000002
 31
0.0
  0
LINE
  5
29A
330
95
100
AcDbEntity
  8
0
  6
Continuous
 62
     7
100
AcDbLine
 10
-274.0000000000002
 20
274.2499999999998
 30
0.0
 11
-274.0000000000002
 21
289.4999999999998
 31
0.0
  0
LINE
  5
29B
330
95
100
AcDbEntity
  8
0
  6
Continuous
 62
     7
100
AcDbLine
 10
-274.0000000000002
 20
289.4999999999998
 30
0.0
 11
-274.0000000000002
 21
290.0000001564404
 31
0.0
  0
LINE
  5
29C
330
95
100
AcDbEntity
  8
0
  6
Continuous
 62
     7
100
AcDbLine
 10
-274.0000000000002
 20
271.0000000000002
 30
0.0
 11
-274.0000000000002
 21
274.2499999999998
 31
0.0
  0
ARC
  5
29D
330
95
100
AcDbEntity
  8
0
  6
Continuous
 62
     7
100
AcDbCircle
 10
-297.1110790000003
 20
298.1486770000002
 30
0.0
 40
1.500000000000029
100
AcDbArc
 50
62.99999999999631
 51
152.9999999999992
  0
ARC
  5
29E
330
95
100
AcDbEntity
  8
0
  6
Continuous
 62
     7
100
AcDbCircle
 10
-292.6560470000002
 20
295.8787240000002
 30
0.0
 40
1.499999999999928
100
AcDbArc
 50
332.9999999999943
 51
63.00000000000112
  0
ARC
  5
29F
330
95
100
AcDbEntity
  8
0
  6
Continuous
 62
     7
100
AcDbCircle
 10
-274.0000000000002
 20
338.0000000000002
 30
0.0
 40
42.00000000000002
100
AcDbArc
 50
263.1628588318643
 51
270.0
  0
ARC
  5
2A0
330
95
100
AcDbEntity
  8
0
  6
Continuous
 62
     7
100
AcDbCircle
 10
-304.7591450000003
 20
303.7053220000002
 30
0.0
 40
1.500000000000012
100
AcDbArc
 50
315.000000000003
 51
44.99999999999847
  0
ARC
  5
2A1
330
95
100
AcDbEntity
  8
0
  6
Continuous
 62
     7
100
AcDbCircle
 10
-274.0000000000002
 20
338.0000000000002
 30
0.0
 40
42.0
100
AcDbArc
 50
90.0
 51
263.1628588318643
  0
ARC
  5
2A2
330
95
100
AcDbEntity
  8
0
  6
Continuous
 62
     7
100
AcDbCircle
 10
-278.7267650000002
 20
292.1752510000002
 30
0.0
 40
1.500000000000026
100
AcDbArc
 50
351.0000000000038
 51
81.0000000000038
  0
ARC
  5
2A3
330
95
100
AcDbEntity
  8
0
  6
Continuous
 62
     7
100
AcDbCircle
 10
-283.6652060000002
 20
292.9574230000002
 30
0.0
 40
1.500000000000035
100
AcDbArc
 50
81.00000000000163
 51
171.0000000000013
  0
ARC
  5
2A4
330
95
100
AcDbEntity
  8
0
  6
Continuous
 62
     7
100
AcDbCircle
 10
-305.2829080000003
 20
282.1105590000002
 30
0.0
 40
1.499999999999978
100
AcDbArc
 50
152.9999999999953
 51
242.9999999999973
  0
ARC
  5
2A5
330
95
100
AcDbEntity
  8
0
  6
Continuous
 62
     7
100
AcDbCircle
 10
-285.5424200000003
 20
281.1051630000002
 30
0.0
 40
1.500000000000091
100
AcDbArc
 50
171.000000000002
 51
261.0000000000013
  0
ARC
  5
2A6
330
95
100
AcDbEntity
  8
0
  6
Continuous
 62
     7
100
AcDbCircle
 10
-319.0425780000003
 20
328.3347940000002
 30
0.0
 40
1.49999999999997
100
AcDbArc
 50
278.9999999999965
 51
9.0000000000005
  0
ARC
  5
2A7
330
95
100
AcDbEntity
  8
0
  6
Continuous
 62
     7
100
AcDbCircle
 10
-331.6770100000003
 20
331.3960220000002
 30
0.0
 40
1.499999999999997
100
AcDbArc
 50
99.00000000000298
 51
188.9999999999983
  0
ARC
  5
2A8
330
95
100
AcDbEntity
  8
0
  6
Continuous
 62
     7
100
AcDbCircle
 10
-330.8948380000003
 20
326.4575810000002
 30
0.0
 40
1.500000000000083
100
AcDbArc
 50
188.9999999999959
 51
278.9999999999965
  0
ARC
  5
2A9
330
95
100
AcDbEntity
  8
0
  6
Continuous
 62
     7
100
AcDbCircle
 10
-319.8247500000003
 20
333.2732360000002
 30
0.0
 40
1.500000000000083
100
AcDbArc
 50
8.99999999999588
 51
99.00000000000298
  0
ARC
  5
2AA
330
95
100
AcDbEntity
  8
0
  6
Continuous
 62
     7
100
AcDbCircle
 10
-332.1593940000003
 20
311.1721250000002
 30
0.0
 40
1.50000000000008
100
AcDbArc
 50
117.0000000000027
 51
207.0000000000008
  0
ARC
  5
2AB
330
95
100
AcDbEntity
  8
0
  6
Continuous
 62
     7
100
AcDbCircle
 10
-329.8894410000004
 20
306.7170920000002
 30
0.0
 40
1.50000000000013
100
AcDbArc
 50
207.0000000000017
 51
297.0000000000007
  0
ARC
  5
2AC
330
95
100
AcDbEntity
  8
0
  6
Continuous
 62
     7
100
AcDbCircle
 10
-316.1212760000004
 20
319.3439540000002
 30
0.0
 40
1.500000000000053
100
AcDbArc
 50
26.99999999999592
 51
117.0000000000008
  0
ARC
  5
2AD
330
95
100
AcDbEntity
  8
0
  6
Continuous
 62
     7
100
AcDbCircle
 10
-313.8513240000004
 20
314.8889210000002
 30
0.0
 40
1.500000000000054
100
AcDbArc
 50
297.0000000000007
 51
26.99999999999785
  0
ARC
  5
2AE
330
95
100
AcDbEntity
  8
0
  6
Continuous
 62
     7
100
AcDbCircle
 10
-308.2946790000004
 20
307.2408550000002
 30
0.0
 40
1.500000000000093
100
AcDbArc
 50
44.99999999999693
 51
135.0000000000154
  0
ARC
  5
2AF
330
95
100
AcDbEntity
  8
0
  6
Continuous
 62
     7
100
AcDbCircle
 10
-319.8247500000003
 20
342.7267650000002
 30
0.0
 40
1.500000000000053
100
AcDbArc
 50
260.9999999999973
 51
351.000000000002
  0
ARC
  5
2B0
330
95
100
AcDbEntity
  8
0
  6
Continuous
 62
     7
100
AcDbCircle
 10
-280.6039780000004
 20
395.6770100000002
 30
0.0
 40
1.500000000000083
100
AcDbArc
 50
8.99999999999588
 51
98.99999999999442
  0
ARC
  5
2B1
330
95
100
AcDbEntity
  8
0
  6
Continuous
 62
     7
100
AcDbCircle
 10
-278.7267650000002
 20
383.8247500000002
 30
0.0
 40
1.500000000000026
100
AcDbArc
 50
278.9999999999962
 51
8.99999999999622
  0
ARC
  5
2B2
330
95
100
AcDbEntity
  8
0
  6
Continuous
 62
     7
100
AcDbCircle
 10
-283.6652060000002
 20
383.0425780000002
 30
0.0
 40
1.500000000000091
100
AcDbArc
 50
188.999999999998
 51
278.9999999999987
  0
ARC
  5
2B3
330
95
100
AcDbEntity
  8
0
  6
Continuous
 62
     7
100
AcDbCircle
 10
-285.5424200000003
 20
394.8948380000002
 30
0.0
 40
1.499999999999979
100
AcDbArc
 50
98.9999999999987
 51
188.999999999998
  0
ARC
  5
2B4
330
95
100
AcDbEntity
  8
0
  6
Continuous
 62
     7
100
AcDbCircle
 10
-300.8278760000002
 20
396.1593940000002
 30
0.0
 40
1.499999999999957
100
AcDbArc
 50
27.00000000002703
 51
117.0000000000066
  0
ARC
  5
2B5
330
95
100
AcDbEntity
  8
0
  6
Continuous
 62
     7
100
AcDbCircle
 10
-305.2829080000003
 20
393.8894420000002
 30
0.0
 40
1.499999999999978
100
AcDbArc
 50
117.0000000000047
 51
207.0000000000008
  0
ARC
  5
2B6
330
95
100
AcDbEntity
  8
0
  6
Continuous
 62
     7
100
AcDbCircle
 10
-292.6560470000002
 20
380.1212770000002
 30
0.0
 40
1.500000000000002
100
AcDbArc
 50
296.9999999999969
 51
27.00000000002604
  0
ARC
  5
2B7
330
95
100
AcDbEntity
  8
0
  6
Continuous
 62
     7
100
AcDbCircle
 10
-297.1110790000003
 20
377.8513240000002
 30
0.0
 40
1.499999999999978
100
AcDbArc
 50
207.0000000000047
 51
297.0000000000027
  0
ARC
  5
2B8
330
95
100
AcDbEntity
  8
0
  6
Continuous
 62
     7
100
AcDbCircle
 10
-304.7591449999999
 20
372.2946790000007
 30
0.0
 40
1.499999999999972
100
AcDbArc
 50
314.9999999999985
 51
45.00000000001075
  0
ARC
  5
2B9
330
95
100
AcDbEntity
  8
0
  6
Continuous
 62
     7
100
AcDbCircle
 10
-317.4870669999999
 20
385.0226010000007
 30
0.0
 40
1.500000000000012
100
AcDbArc
 50
45.0
 51
134.9999999999969
  0
ARC
  5
2BA
330
95
100
AcDbEntity
  8
0
  6
Continuous
 62
     7
100
AcDbCircle
 10
-300.8278760000002
 20
279.8406070000002
 30
0.0
 40
1.500000000000131
100
AcDbArc
 50
242.9999999999934
 51
332.9999999999973
  0
ARC
  5
2BB
330
95
100
AcDbEntity
  8
0
  6
Continuous
 62
     7
100
AcDbCircle
 10
-280.6039780000004
 20
280.3229900000002
 30
0.0
 40
1.500000000000018
100
AcDbArc
 50
261.000000000006
 51
351.0000000000041
  0
ARC
  5
2BC
330
95
100
AcDbEntity
  8
0
  6
Continuous
 62
     7
100
AcDbCircle
 10
-329.889441
 20
369.2829090000008
 30
0.0
 40
1.499999999999974
100
AcDbArc
 50
63.00000000001474
 51
153.0000000000245
  0
ARC
  5
2BD
330
95
100
AcDbEntity
  8
0
  6
Continuous
 62
     7
100
AcDbCircle
 10
-319.0425780000003
 20
347.6652070000002
 30
0.0
 40
1.49999999999997
100
AcDbArc
 50
351.0000000000035
 51
81.0000000000038
  0
ARC
  5
2BE
330
95
100
AcDbEntity
  8
0
  6
Continuous
 62
     7
100
AcDbCircle
 10
-330.8948380000003
 20
349.5424200000002
 30
0.0
 40
1.49999999999997
100
AcDbArc
 50
81.00000000000345
 51
170.9999999999999
  0
ARC
  5
2BF
330
95
100
AcDbEntity
  8
0
  6
Continuous
 62
     7
100
AcDbCircle
 10
-316.1212760000004
 20
356.6560470000002
 30
0.0
 40
1.499999999999977
100
AcDbArc
 50
243.0000000000001
 51
333.0000000000284
  0
ARC
  5
2C0
330
95
100
AcDbEntity
  8
0
  6
Continuous
 62
     7
100
AcDbCircle
 10
-313.851324
 20
361.1110800000008
 30
0.0
 40
1.500000000000028
100
AcDbArc
 50
333.0000000000012
 51
63.00000000001474
  0
ARC
  5
2C1
330
95
100
AcDbEntity
  8
0
  6
Continuous
 62
     7
100
AcDbCircle
 10
-308.2946790000004
 20
368.7591450000002
 30
0.0
 40
1.499999999999851
100
AcDbArc
 50
225.0000000000061
 51
315.0000000000261
  0
ARC
  5
2C2
330
95
100
AcDbEntity
  8
0
  6
Continuous
 62
     7
100
AcDbCircle
 10
-331.6770100000003
 20
344.6039790000002
 30
0.0
 40
1.500000000000044
100
AcDbArc
 50
170.9999999999995
 51
260.999999999997
  0
ARC
  5
2C3
330
95
100
AcDbEntity
  8
0
  6
Continuous
 62
     7
100
AcDbCircle
 10
-321.0226010000002
 20
381.4870670000002
 30
0.0
 40
1.500000000000133
100
AcDbArc
 50
134.99999999998
 51
224.9999999999938
  0
ARC
  5
2C4
330
95
100
AcDbEntity
  8
0
  6
Continuous
 62
     7
100
AcDbCircle
 10
-332.1593940000003
 20
364.8278760000002
 30
0.0
 40
1.499999999999927
100
AcDbArc
 50
152.9999999999992
 51
242.9999999999973
  0
ARC
  5
2C5
330
95
100
AcDbEntity
  8
0
  6
Continuous
 62
     7
100
AcDbCircle
 10
-321.0226010000002
 20
294.5129330000002
 30
0.0
 40
1.500000000000092
100
AcDbArc
 50
135.0000000000276
 51
224.9999999999954
  0
ARC
  5
2C6
330
95
100
AcDbEntity
  8
0
  6
Continuous
 62
     7
100
AcDbCircle
 10
-317.4870670000004
 20
290.9773990000002
 30
0.0
 40
1.499999999999972
100
AcDbArc
 50
225.0000000000077
 51
315.0
  0
ARC
  5
2C7
330
95
100
AcDbEntity
  8
0
  6
Continuous
 62
     7
100
AcDbCircle
 10
-340.0000000000002
 20
270.5000000000002
 30
0.0
 40
2.0
100
AcDbArc
 50
180.0
 51
270.0
  0
ARC
  5
2C8
330
95
100
AcDbEntity
  8
0
  6
Continuous
 62
     7
100
AcDbCircle
 10
-340.0000000000002
 20
405.5000000000002
 30
0.0
 40
2.0
100
AcDbArc
 50
90.0
 51
180.0
  0
SPLINE
  5
2C9
330
95
100
AcDbEntity
  8
0
  6
Continuous
 62
     7
100
AcDbSpline
210
0.0
220
0.0
230
1.0
 70
  1080
 71
     3
 72
    15
 73
    11
 74
     9
 42
0.000000001
 43
0.0000000001
 44
0.00000001
 40
0.0
 40
0.0
 40
0.0
 40
0.0
 40
0.0895027057412185
 40
0.1790054114823255
 40
0.4191003240481875
 40
0.7467341190638704
 40
1.150558658554127
 40
1.61104870334288
 40
2.072120592132934
 40
2.549509756796392
 40
2.549509756796392
 40
2.549509756796392
 40
2.549509756796392
 10
-340.0000000000002
 20
407.5000000000002
 30
0.0
 10
-339.9941490250889
 20
407.4707451254429
 30
0.0
 10
-339.9824470752662
 20
407.4122353763285
 30
0.0
 10
-339.9550496300038
 20
407.2752481500156
 30
0.0
 10
-339.9120850684473
 20
407.0604253422287
 30
0.0
 10
-339.8485726458152
 20
406.7428632290675
 30
0.0
 10
-339.7706525426714
 20
406.3532627133484
 30
0.0
 10
-339.6840093184499
 20
405.9200465922439
 30
0.0
 10
-339.5925570242376
 20
405.4627851211862
 30
0.0
 10
-339.5312079059771
 20
405.1560395298847
 30
0.0
 10
-339.5000000000002
 20
405.0000000000002
 30
0.0
 11
-340.0000000000002
 21
407.5000000000002
 31
0.0
 11
-339.982447075266
 21
407.4122353763282
 31
0.0
 11
-339.9648941505316
 21
407.3244707526563
 31
0.0
 11
-339.9178076642127
 21
407.0890383210624
 31
0.0
 11
-339.8535533905936
 21
406.7677669529666
 31
0.0
 11
-339.7743568826348
 21
406.3717844131727
 31
0.0
 11
-339.6840473547812
 21
405.9202367739049
 31
0.0
 11
-339.5936237179308
 21
405.4681185896532
 31
0.0
 11
-339.5000000000002
 21
405.0000000000002
 31
0.0
  0
SPLINE
  5
2CA
330
95
100
AcDbEntity
  8
0
  6
Continuous
 62
     7
100
AcDbSpline
210
0.0
220
0.0
230
1.0
 70
  1080
 71
     3
 72
    15
 73
    11
 74
     9
 42
0.000000001
 43
0.0000000001
 44
0.00000001
 40
0.0
 40
0.0
 40
0.0
 40
0.0
 40
0.0895027057413968
 40
0.1790054114827602
 40
0.4191003240491127
 40
0.7467341190649406
 40
1.150558658554919
 40
1.611048703343627
 40
2.072120592133358
 40
2.549509756796392
 40
2.549509756796392
 40
2.549509756796392
 40
2.549509756796392
 10
-340.0000000000002
 20
268.5000000000002
 30
0.0
 10
-339.9941490250888
 20
268.5292548745576
 30
0.0
 10
-339.9824470752662
 20
268.5877646236723
 30
0.0
 10
-339.9550496300035
 20
268.7247518499851
 30
0.0
 10
-339.9120850684469
 20
268.9395746577727
 30
0.0
 10
-339.8485726458146
 20
269.2571367709339
 30
0.0
 10
-339.7706525426706
 20
269.646737286653
 30
0.0
 10
-339.6840093184495
 20
270.0799534077572
 30
0.0
 10
-339.5925570242375
 20
270.5372148788146
 30
0.0
 10
-339.5312079059771
 20
270.843960470116
 30
0.0
 10
-339.5000000000002
 20
271.0000000000002
 30
0.0
 11
-340.0000000000002
 21
268.5000000000002
 31
0.0
 11
-339.982447075266
 21
268.5877646236722
 31
0.0
 11
-339.9648941505316
 21
268.6755292473441
 31
0.0
 11
-339.9178076642127
 21
268.9109616789381
 31
0.0
 11
-339.8535533905936
 21
269.2322330470338
 31
0.0
 11
-339.7743568826348
 21
269.6282155868275
 31
0.0
 11
-339.6840473547812
 21
270.0797632260955
 31
0.0
 11
-339.5936237179308
 21
270.5318814103473
 31
0.0
 11
-339.5000000000002
 21
271.0000000000002
 31
0.0
  0
SPLINE
  5
2CB
330
95
100
AcDbEntity
  8
0
  6
Continuous
 62
     7
100
AcDbSpline
210
0.0
220
0.0
230
1.0
 70
  1080
 71
     3
 72
    15
 73
    11
 74
     9
 42
0.000000001
 43
0.0000000001
 44
0.00000001
 40
0.0
 40
0.0
 40
0.0
 40
0.0
 40
0.0895027057415418
 40
0.1790054114828828
 40
0.4191003240490682
 40
0.7467341190649072
 40
1.150558658554986
 40
1.611048703343471
 40
2.072120592133146
 40
2.549509756796392
 40
2.549509756796392
 40
2.549509756796392
 40
2.549509756796392
 10
-342.0000000000002
 20
270.5000000000002
 30
0.0
 10
-341.9707451254428
 20
270.5058509749117
 30
0.0
 10
-341.9122353763279
 20
270.5175529247344
 30
0.0
 10
-341.7752481500155
 20
270.5449503699974
 30
0.0
 10
-341.5604253422278
 20
270.5879149315543
 30
0.0
 10
-341.2428632290668
 20
270.6514273541866
 30
0.0
 10
-340.8532627133476
 20
270.7293474573305
 30
0.0
 10
-340.4200465922434
 20
270.8159906815513
 30
0.0
 10
-339.962785121186
 20
270.907442975763
 30
0.0
 10
-339.6560395298846
 20
270.9687920940233
 30
0.0
 10
-339.5000000000002
 20
271.0000000000002
 30
0.0
 11
-342.0000000000002
 21
270.5000000000002
 31
0.0
 11
-341.9122353763282
 21
270.5175529247346
 31
0.0
 11
-341.8244707526563
 21
270.535105849469
 31
0.0
 11
-341.5890383210624
 21
270.5821923357878
 31
0.0
 11
-341.2677669529667
 21
270.646446609407
 31
0.0
 11
-340.8717844131729
 21
270.7256431173657
 31
0.0
 11
-340.420236773905
 21
270.8159526452193
 31
0.0
 11
-339.9681185896533
 21
270.9063762820696
 31
0.0
 11
-339.5000000000002
 21
271.0000000000002
 31
0.0
  0
SPLINE
  5
2CC
330
95
100
AcDbEntity
  8
0
  6
Continuous
 62
     7
100
AcDbSpline
210
0.0
220
0.0
230
1.0
 70
  1080
 71
     3
 72
    15
 73
    11
 74
     9
 42
0.000000001
 43
0.0000000001
 44
0.00000001
 40
0.0
 40
0.0
 40
0.0
 40
0.0
 40
0.0895027057413522
 40
0.1790054114826933
 40
0.4191003240487002
 40
0.7467341190644166
 40
1.150558658554685
 40
1.61104870334327
 40
2.072120592133235
 40
2.549509756796392
 40
2.549509756796392
 40
2.549509756796392
 40
2.549509756796392
 10
-342.0000000000002
 20
405.5000000000002
 30
0.0
 10
-341.9707451254429
 20
405.4941490250887
 30
0.0
 10
-341.9122353763281
 20
405.4824470752656
 30
0.0
 10
-341.7752481500158
 20
405.4550496300034
 30
0.0
 10
-341.5604253422284
 20
405.4120850684454
 30
0.0
 10
-341.2428632290673
 20
405.3485726458132
 30
0.0
 10
-340.8532627133482
 20
405.2706525426692
 30
0.0
 10
-340.4200465922437
 20
405.1840093184484
 30
0.0
 10
-339.9627851211862
 20
405.092557024237
 30
0.0
 10
-339.6560395298845
 20
405.0312079059769
 30
0.0
 10
-339.5000000000002
 20
405.0000000000002
 30
0.0
 11
-342.0000000000002
 21
405.5000000000002
 31
0.0
 11
-341.9122353763282
 21
405.4824470752658
 31
0.0
 11
-341.8244707526563
 21
405.4648941505315
 31
0.0
 11
-341.5890383210624
 21
405.4178076642127
 31
0.0
 11
-341.2677669529667
 21
405.3535533905935
 31
0.0
 11
-340.8717844131729
 21
405.2743568826348
 31
0.0
 11
-340.420236773905
 21
405.1840473547812
 31
0.0
 11
-339.9681185896533
 21
405.0936237179308
 31
0.0
 11
-339.5000000000002
 21
405.0000000000002
 31
0.0
  0
ENDBLK
  5
97
330
95
100
AcDbEntity
  8
0
100
AcDbBlockEnd
  0
BLOCK
  5
99
330
98
100
AcDbEntity
  8
0
100
AcDbBlockBegin
  2
Aufsatz-150x150-309701876__7
 70
     0
 10
-348.0000000000002
 20
263.9999999999998
 30
0.0
  3
Aufsatz-150x150-309701876__7
  1

  0
LINE
  5
2CD
330
98
100
AcDbEntity
  8
1
  6
DOT_CENTER
 62
     2
100
AcDbLine
 10
-274.0000000000002
 20
415.8509034741239
 30
0.0
 11
-274.0000000000002
 21
259.4358055990979
 31
0.0
  0
LINE
  5
2CE
330
98
100
AcDbEntity
  8
1
  6
DOT_CENTER
 62
     2
100
AcDbLine
 10
-196.1109278222682
 20
338.0000000000002
 30
0.0
 11
-351.7882186318452
 21
338.0000000000002
 31
0.0
  0
LINE
  5
2CF
330
98
100
AcDbEntity
  8
0
  6
Continuous
 62
     7
100
AcDbLine
 10
-204.0000000000003
 20
270.4999999999998
 30
0.0
 11
-204.0000000000003
 21
405.4999999999997
 31
0.0
  0
LINE
  5
2D0
330
98
100
AcDbEntity
  8
0
  6
Continuous
 62
     7
100
AcDbLine
 10
-204.5000000000003
 20
356.9999999999995
 30
0.0
 11
-204.5000000000003
 21
405.4999999999997
 31
0.0
  0
LINE
  5
2D1
330
98
100
AcDbEntity
  8
0
  6
Continuous
 62
     7
100
AcDbLine
 10
-204.5000000000003
 20
318.9999999999995
 30
0.0
 11
-204.5000000000003
 21
356.9999999999995
 31
0.0
  0
LINE
  5
2D2
330
98
100
AcDbEntity
  8
0
  6
Continuous
 62
     7
100
AcDbLine
 10
-204.5000000000003
 20
270.4999999999998
 30
0.0
 11
-204.5000000000003
 21
318.9999999999995
 31
0.0
  0
LINE
  5
2D3
330
98
100
AcDbEntity
  8
0
  6
Continuous
 62
     7
100
AcDbLine
 10
-204.5000000000003
 20
405.4999999999997
 30
0.0
 11
-204.0000000000003
 21
405.4999999999997
 31
0.0
  0
LINE
  5
2D4
330
98
100
AcDbEntity
  8
0
  6
Continuous
 62
     7
100
AcDbLine
 10
-201.5000000000003
 20
270.4999999999998
 30
0.0
 11
-201.5000000000003
 21
405.4999999999997
 31
0.0
  0
LINE
  5
2D5
330
98
100
AcDbEntity
  8
0
  6
Continuous
 62
     7
100
AcDbLine
 10
-200.0000000000003
 20
405.4999999999998
 30
0.0
 11
-200.0000000000003
 21
270.4999999999998
 31
0.0
  0
LINE
  5
2D6
330
98
100
AcDbEntity
  8
0
  6
Continuous
 62
     7
100
AcDbLine
 10
-201.5000000000003
 20
405.4999999999997
 30
0.0
 11
-201.0000000000003
 21
405.4999999999997
 31
0.0
  0
LINE
  5
2D7
330
98
100
AcDbEntity
  8
0
  6
Continuous
 62
     7
100
AcDbLine
 10
-201.0000000000003
 20
270.4999999999998
 30
0.0
 11
-201.0000000000003
 21
405.4999999999997
 31
0.0
  0
LINE
  5
2D8
330
98
100
AcDbEntity
  8
0
  6
Continuous
 62
     7
100
AcDbLine
 10
-201.5000000000003
 20
270.4999999999998
 30
0.0
 11
-201.0000000000003
 21
270.4999999999998
 31
0.0
  0
LINE
  5
2D9
330
98
100
AcDbEntity
  8
0
  6
Continuous
 62
     7
100
AcDbLine
 10
-255.0000000000002
 20
407.4999999999998
 30
0.0
 11
-208.0000000000002
 21
407.5000000000002
 31
0.0
  0
LINE
  5
2DA
330
98
100
AcDbEntity
  8
0
  6
Continuous
 62
     7
100
AcDbLine
 10
-274.0000000000002
 20
407.5000000000002
 30
0.0
 11
-255.0000000000002
 21
407.4999999999998
 31
0.0
  0
LINE
  5
2DB
330
98
100
AcDbEntity
  8
0
  6
Continuous
 62
     7
100
AcDbLine
 10
-293.0000000000002
 20
407.4999999999998
 30
0.0
 11
-274.0000000000002
 21
407.5000000000002
 31
0.0
  0
LINE
  5
2DC
330
98
100
AcDbEntity
  8
0
  6
Continuous
 62
     7
100
AcDbLine
 10
-206.5000000000003
 20
407.4999999999997
 30
0.0
 11
-208.0000000000002
 21
407.5000000000002
 31
0.0
  0
LINE
  5
2DD
330
98
100
AcDbEntity
  8
0
  6
Continuous
 62
     7
100
AcDbLine
 10
-340.0000000000002
 20
407.5000000000002
 30
0.0
 11
-293.0000000000002
 21
407.4999999999998
 31
0.0
  0
LINE
  5
2DE
330
98
100
AcDbEntity
  8
0
  6
Continuous
 62
     7
100
AcDbLine
 10
-206.5000000000003
 20
407.9999999999997
 30
0.0
 11
-341.5000000000002
 21
407.9999999999997
 31
0.0
  0
LINE
  5
2DF
330
98
100
AcDbEntity
  8
0
  6
Continuous
 62
     7
100
AcDbLine
 10
-341.5000000000002
 20
407.9999999999997
 30
0.0
 11
-341.5000000000002
 21
407.4999999999997
 31
0.0
  0
LINE
  5
2E0
330
98
100
AcDbEntity
  8
0
  6
Continuous
 62
     7
100
AcDbLine
 10
-206.5000000000003
 20
407.9999999999997
 30
0.0
 11
-206.5000000000003
 21
407.4999999999997
 31
0.0
  0
LINE
  5
2E1
330
98
100
AcDbEntity
  8
0
  6
Continuous
 62
     7
100
AcDbLine
 10
-340.0000000000002
 20
407.5000000000002
 30
0.0
 11
-341.5000000000002
 21
407.4999999999997
 31
0.0
  0
LINE
  5
2E2
330
98
100
AcDbEntity
  8
0
  6
Continuous
 62
     7
100
AcDbLine
 10
-206.5000000000003
 20
410.4999999999998
 30
0.0
 11
-341.5000000000002
 21
410.4999999999998
 31
0.0
  0
LINE
  5
2E3
330
98
100
AcDbEntity
  8
0
  6
Continuous
 62
     7
100
AcDbLine
 10
-206.5000000000003
 20
410.4999999999998
 30
0.0
 11
-206.5000000000003
 21
410.9999999999998
 31
0.0
  0
LINE
  5
2E4
330
98
100
AcDbEntity
  8
0
  6
Continuous
 62
     7
100
AcDbLine
 10
-341.5000000000002
 20
410.4999999999998
 30
0.0
 11
-341.5000000000002
 21
410.9999999999998
 31
0.0
  0
LINE
  5
2E5
330
98
100
AcDbEntity
  8
0
  6
Continuous
 62
     7
100
AcDbLine
 10
-206.5000000000003
 20
410.9999999999998
 30
0.0
 11
-341.5000000000002
 21
410.9999999999998
 31
0.0
  0
LINE
  5
2E6
330
98
100
AcDbEntity
  8
0
  6
Continuous
 62
     7
100
AcDbLine
 10
-341.5000000000002
 20
411.9999999999998
 30
0.0
 11
-206.5000000000003
 21
411.9999999999998
 31
0.0
  0
LINE
  5
2E7
330
98
100
AcDbEntity
  8
0
  6
Continuous
 62
     7
100
AcDbLine
 10
-293.0000000000007
 20
268.4999999999998
 30
0.0
 11
-340.0000000000002
 21
268.5000000000002
 31
0.0
  0
LINE
  5
2E8
330
98
100
AcDbEntity
  8
0
  6
Continuous
 62
     7
100
AcDbLine
 10
-274.0000000000002
 20
268.5000000000002
 30
0.0
 11
-293.0000000000007
 21
268.4999999999998
 31
0.0
  0
LINE
  5
2E9
330
98
100
AcDbEntity
  8
0
  6
Continuous
 62
     7
100
AcDbLine
 10
-255.0000000000007
 20
268.4999999999998
 30
0.0
 11
-274.0000000000002
 21
268.5000000000002
 31
0.0
  0
LINE
  5
2EA
330
98
100
AcDbEntity
  8
0
  6
Continuous
 62
     7
100
AcDbLine
 10
-208.0000000000002
 20
268.5000000000002
 30
0.0
 11
-255.0000000000007
 21
268.4999999999998
 31
0.0
  0
LINE
  5
2EB
330
98
100
AcDbEntity
  8
0
  6
Continuous
 62
     7
100
AcDbLine
 10
-206.5000000000003
 20
267.9999999999998
 30
0.0
 11
-206.5000000000003
 21
268.4999999999998
 31
0.0
  0
LINE
  5
2EC
330
98
100
AcDbEntity
  8
0
  6
Continuous
 62
     7
100
AcDbLine
 10
-206.5000000000003
 20
268.4999999999998
 30
0.0
 11
-208.0000000000002
 21
268.5000000000002
 31
0.0
  0
LINE
  5
2ED
330
98
100
AcDbEntity
  8
0
  6
Continuous
 62
     7
100
AcDbLine
 10
-204.0000000000003
 20
270.4999999999998
 30
0.0
 11
-204.5000000000003
 21
270.4999999999998
 31
0.0
  0
LINE
  5
2EE
330
98
100
AcDbEntity
  8
0
  6
Continuous
 62
     7
100
AcDbLine
 10
-341.5000000000002
 20
267.9999999999998
 30
0.0
 11
-341.5000000000002
 21
268.4999999999998
 31
0.0
  0
LINE
  5
2EF
330
98
100
AcDbEntity
  8
0
  6
Continuous
 62
     7
100
AcDbLine
 10
-340.0000000000002
 20
268.5000000000002
 30
0.0
 11
-341.5000000000002
 21
268.4999999999998
 31
0.0
  0
LINE
  5
2F0
330
98
100
AcDbEntity
  8
0
  6
Continuous
 62
     7
100
AcDbLine
 10
-206.5000000000003
 20
267.9999999999998
 30
0.0
 11
-341.5000000000002
 21
267.9999999999998
 31
0.0
  0
LINE
  5
2F1
330
98
100
AcDbEntity
  8
0
  6
Continuous
 62
     7
100
AcDbLine
 10
-206.5000000000003
 20
265.4999999999998
 30
0.0
 11
-341.5000000000002
 21
265.4999999999998
 31
0.0
  0
LINE
  5
2F2
330
98
100
AcDbEntity
  8
0
  6
Continuous
 62
     7
100
AcDbLine
 10
-206.5000000000003
 20
263.9999999999998
 30
0.0
 11
-341.5000000000002
 21
263.9999999999998
 31
0.0
  0
LINE
  5
2F3
330
98
100
AcDbEntity
  8
0
  6
Continuous
 62
     7
100
AcDbLine
 10
-206.5000000000003
 20
265.4999999999998
 30
0.0
 11
-206.5000000000003
 21
264.9999999999998
 31
0.0
  0
LINE
  5
2F4
330
98
100
AcDbEntity
  8
0
  6
Continuous
 62
     7
100
AcDbLine
 10
-206.5000000000003
 20
264.9999999999998
 30
0.0
 11
-341.5000000000002
 21
264.9999999999998
 31
0.0
  0
LINE
  5
2F5
330
98
100
AcDbEntity
  8
0
  6
Continuous
 62
     7
100
AcDbLine
 10
-341.5000000000002
 20
264.9999999999998
 30
0.0
 11
-341.5000000000002
 21
265.4999999999998
 31
0.0
  0
LINE
  5
2F6
330
98
100
AcDbEntity
  8
0
  6
Continuous
 62
     7
100
AcDbLine
 10
-343.5000000000002
 20
357.0000000000005
 30
0.0
 11
-343.5000000000002
 21
405.4999999999997
 31
0.0
  0
LINE
  5
2F7
330
98
100
AcDbEntity
  8
0
  6
Continuous
 62
     7
100
AcDbLine
 10
-343.5000000000002
 20
319.0000000000005
 30
0.0
 11
-343.5000000000002
 21
357.0000000000005
 31
0.0
  0
LINE
  5
2F8
330
98
100
AcDbEntity
  8
0
  6
Continuous
 62
     7
100
AcDbLine
 10
-343.5000000000002
 20
270.4999999999998
 30
0.0
 11
-343.5000000000002
 21
319.0000000000005
 31
0.0
  0
LINE
  5
2F9
330
98
100
AcDbEntity
  8
0
  6
Continuous
 62
     7
100
AcDbLine
 10
-344.0000000000002
 20
270.4999999999998
 30
0.0
 11
-344.0000000000002
 21
405.4999999999997
 31
0.0
  0
LINE
  5
2FA
330
98
100
AcDbEntity
  8
0
  6
Continuous
 62
     7
100
AcDbLine
 10
-344.0000000000002
 20
405.4999999999997
 30
0.0
 11
-343.5000000000002
 21
405.4999999999997
 31
0.0
  0
LINE
  5
2FB
330
98
100
AcDbEntity
  8
0
  6
Continuous
 62
     7
100
AcDbLine
 10
-344.0000000000002
 20
270.4999999999998
 30
0.0
 11
-343.5000000000002
 21
270.4999999999998
 31
0.0
  0
LINE
  5
2FC
330
98
100
AcDbEntity
  8
0
  6
Continuous
 62
     7
100
AcDbLine
 10
-346.5000000000002
 20
270.4999999999998
 30
0.0
 11
-346.5000000000002
 21
405.4999999999997
 31
0.0
  0
LINE
  5
2FD
330
98
100
AcDbEntity
  8
0
  6
Continuous
 62
     7
100
AcDbLine
 10
-346.5000000000002
 20
270.4999999999998
 30
0.0
 11
-347.0000000000002
 21
270.4999999999998
 31
0.0
  0
LINE
  5
2FE
330
98
100
AcDbEntity
  8
0
  6
Continuous
 62
     7
100
AcDbLine
 10
-347.0000000000002
 20
270.4999999999998
 30
0.0
 11
-347.0000000000003
 21
405.4999999999997
 31
0.0
  0
LINE
  5
2FF
330
98
100
AcDbEntity
  8
0
  6
Continuous
 62
     7
100
AcDbLine
 10
-347.0000000000003
 20
405.4999999999997
 30
0.0
 11
-346.5000000000002
 21
405.4999999999997
 31
0.0
  0
LINE
  5
300
330
98
100
AcDbEntity
  8
0
  6
Continuous
 62
     7
100
AcDbLine
 10
-348.0000000000002
 20
270.4999999999998
 30
0.0
 11
-348.0000000000002
 21
405.4999999999998
 31
0.0
  0
ARC
  5
301
330
98
100
AcDbEntity
  8
0
  6
Continuous
 62
     7
100
AcDbCircle
 10
-274.0000000000002
 20
338.0000000000002
 30
0.0
 40
42.0
100
AcDbArc
 50
270.0
 51
90.0
  0
ARC
  5
302
330
98
100
AcDbEntity
  8
0
  6
Continuous
 62
     7
100
AcDbCircle
 10
-274.0000000000002
 20
338.0000000000002
 30
0.0
 40
46.49999999999964
100
AcDbArc
 50
76.06523220462158
 51
85.93476728265907
  0
ARC
  5
303
330
98
100
AcDbEntity
  8
0
  6
Continuous
 62
     7
100
AcDbCircle
 10
-274.0000000000002
 20
338.0000000000002
 30
0.0
 40
48.49999999999952
100
AcDbArc
 50
76.26920145857106
 51
85.73079810713303
  0
ARC
  5
304
330
98
100
AcDbEntity
  8
0
  6
Continuous
 62
     7
100
AcDbCircle
 10
-274.0000000000002
 20
338.0000000000002
 30
0.0
 40
48.50000000000027
100
AcDbArc
 50
328.269200667574
 51
337.7307981373949
  0
ARC
  5
305
330
98
100
AcDbEntity
  8
0
  6
Continuous
 62
     7
100
AcDbCircle
 10
-274.0000000000002
 20
338.0000000000002
 30
0.0
 40
46.50000000000014
100
AcDbArc
 50
328.0652313186569
 51
337.9347674275995
  0
ARC
  5
306
330
98
100
AcDbEntity
  8
0
  6
Continuous
 62
     7
100
AcDbCircle
 10
-274.0000000000002
 20
338.0000000000002
 30
0.0
 40
46.50000000000001
100
AcDbArc
 50
346.0652312099185
 51
355.9347674374956
  0
ARC
  5
307
330
98
100
AcDbEntity
  8
0
  6
Continuous
 62
     7
100
AcDbCircle
 10
-274.0000000000002
 20
338.0000000000002
 30
0.0
 40
48.50000000000008
100
AcDbArc
 50
346.2692007010028
 51
355.7307980286943
  0
ARC
  5
308
330
98
100
AcDbEntity
  8
0
  6
Continuous
 62
     7
100
AcDbCircle
 10
-274.0000000000002
 20
338.0000000000002
 30
0.0
 40
63.74999999999964
100
AcDbArc
 50
41.40260754156332
 51
48.59739244514895
  0
ARC
  5
309
330
98
100
AcDbEntity
  8
0
  6
Continuous
 62
     7
100
AcDbCircle
 10
-274.0000000000002
 20
338.0000000000002
 30
0.0
 40
46.49999999999986
100
AcDbArc
 50
4.06523134097921
 51
13.93476756855644
  0
ARC
  5
30A
330
98
100
AcDbEntity
  8
0
  6
Continuous
 62
     7
100
AcDbCircle
 10
-274.0000000000002
 20
338.0000000000002
 30
0.0
 40
48.49999999999996
100
AcDbArc
 50
4.2692008005051
 51
13.73079812819672
  0
ARC
  5
30B
330
98
100
AcDbEntity
  8
0
  6
Continuous
 62
     7
100
AcDbCircle
 10
-274.0000000000002
 20
338.0000000000002
 30
0.0
 40
63.74999999999979
100
AcDbArc
 50
23.40260698348396
 51
30.59739228112486
  0
ARC
  5
30C
330
98
100
AcDbEntity
  8
0
  6
Continuous
 62
     7
100
AcDbCircle
 10
-274.0000000000002
 20
338.0000000000002
 30
0.0
 40
48.49999999999986
100
AcDbArc
 50
22.26920080641043
 51
31.73079827623099
  0
ARC
  5
30D
330
98
100
AcDbEntity
  8
0
  6
Continuous
 62
     7
100
AcDbCircle
 10
-274.0000000000002
 20
338.0000000000002
 30
0.0
 40
46.49999999999987
100
AcDbArc
 50
22.06523147044672
 51
31.93476757938847
  0
ARC
  5
30E
330
98
100
AcDbEntity
  8
0
  6
Continuous
 62
     7
100
AcDbCircle
 10
-274.0000000000002
 20
338.0000000000002
 30
0.0
 40
48.49999999999959
100
AcDbArc
 50
58.26920125541528
 51
67.7307980675912
  0
ARC
  5
30F
330
98
100
AcDbEntity
  8
0
  6
Continuous
 62
     7
100
AcDbCircle
 10
-274.0000000000002
 20
338.0000000000002
 30
0.0
 40
46.49999999999952
100
AcDbArc
 50
58.0652318693581
 51
67.93476741737982
  0
ARC
  5
310
330
98
100
AcDbEntity
  8
0
  6
Continuous
 62
     7
100
AcDbCircle
 10
-274.0000000000002
 20
338.0000000000002
 30
0.0
 40
48.49999999999977
100
AcDbArc
 50
40.26920128713502
 51
49.73079798338699
  0
ARC
  5
311
330
98
100
AcDbEntity
  8
0
  6
Continuous
 62
     7
100
AcDbCircle
 10
-274.0000000000002
 20
338.0000000000002
 30
0.0
 40
46.49999999999966
100
AcDbArc
 50
40.06523193722524
 51
49.93476720417733
  0
ARC
  5
312
330
98
100
AcDbEntity
  8
0
  6
Continuous
 62
     7
100
AcDbCircle
 10
-274.0000000000002
 20
338.0000000000002
 30
0.0
 40
48.50000000000041
100
AcDbArc
 50
274.2692017435097
 51
283.7307983559922
  0
ARC
  5
313
330
98
100
AcDbEntity
  8
0
  6
Continuous
 62
     7
100
AcDbCircle
 10
-274.0000000000002
 20
338.0000000000002
 30
0.0
 40
46.50000000000039
100
AcDbArc
 50
274.065232529153
 51
283.9347676019077
  0
ARC
  5
314
330
98
100
AcDbEntity
  8
0
  6
Continuous
 62
     7
100
AcDbCircle
 10
-274.0000000000002
 20
338.0000000000002
 30
0.0
 40
48.50000000000042
100
AcDbArc
 50
310.2692012871344
 51
319.7307987128647
  0
ARC
  5
315
330
98
100
AcDbEntity
  8
0
  6
Continuous
 62
     7
100
AcDbCircle
 10
-274.0000000000002
 20
338.0000000000002
 30
0.0
 40
46.50000000000031
100
AcDbArc
 50
310.0652319372245
 51
319.9347680627747
  0
ARC
  5
316
330
98
100
AcDbEntity
  8
0
  6
Continuous
 62
     7
100
AcDbCircle
 10
-274.0000000000002
 20
338.0000000000002
 30
0.0
 40
46.50000000000038
100
AcDbArc
 50
292.065232021147
 51
301.9347675691684
  0
ARC
  5
317
330
98
100
AcDbEntity
  8
0
  6
Continuous
 62
     7
100
AcDbCircle
 10
-274.0000000000002
 20
338.0000000000002
 30
0.0
 40
48.50000000000048
100
AcDbArc
 50
292.269201394251
 51
301.7307982064267
  0
ARC
  5
318
330
98
100
AcDbEntity
  8
0
  6
Continuous
 62
     7
100
AcDbCircle
 10
-274.0000000000002
 20
338.0000000000002
 30
0.0
 40
63.75000000000029
100
AcDbArc
 50
311.4026075415626
 51
318.5973924584367
  0
ARC
  5
319
330
98
100
AcDbEntity
  8
0
  6
Continuous
 62
     7
100
AcDbCircle
 10
-274.0000000000002
 20
338.0000000000002
 30
0.0
 40
63.75000000000018
100
AcDbArc
 50
329.4026069164949
 51
336.5973922141362
  0
ARC
  5
31A
330
98
100
AcDbEntity
  8
0
  6
Continuous
 62
     7
100
AcDbCircle
 10
-274.0000000000002
 20
338.0000000000002
 30
0.0
 40
48.50000000000039
100
AcDbArc
 50
220.2692012871351
 51
229.7307979833867
  0
ARC
  5
31B
330
98
100
AcDbEntity
  8
0
  6
Continuous
 62
     7
100
AcDbCircle
 10
-274.0000000000002
 20
338.0000000000002
 30
0.0
 40
42.00000000000002
100
AcDbArc
 50
263.1628588318643
 51
270.0
  0
ARC
  5
31C
330
98
100
AcDbEntity
  8
0
  6
Continuous
 62
     7
100
AcDbCircle
 10
-274.0000000000002
 20
338.0000000000002
 30
0.0
 40
46.50000000000028
100
AcDbArc
 50
220.0652319372253
 51
229.9347672041771
  0
ARC
  5
31D
330
98
100
AcDbEntity
  8
0
  6
Continuous
 62
     7
100
AcDbCircle
 10
-274.0000000000002
 20
338.0000000000002
 30
0.0
 40
46.50000000000043
100
AcDbArc
 50
238.0652318693582
 51
247.9347674173794
  0
ARC
  5
31E
330
98
100
AcDbEntity
  8
0
  6
Continuous
 62
     7
100
AcDbCircle
 10
-274.0000000000002
 20
338.0000000000002
 30
0.0
 40
63.74999999999953
100
AcDbArc
 50
59.40260771034392
 51
66.5973918138349
  0
ARC
  5
31F
330
98
100
AcDbEntity
  8
0
  6
Continuous
 62
     7
100
AcDbCircle
 10
-274.0000000000002
 20
338.0000000000002
 30
0.0
 40
63.75000000000035
100
AcDbArc
 50
293.4026077773324
 51
300.5973918808232
  0
ARC
  5
320
330
98
100
AcDbEntity
  8
0
  6
Continuous
 62
     7
100
AcDbCircle
 10
-274.0000000000002
 20
338.0000000000002
 30
0.0
 40
42.0
100
AcDbArc
 50
90.0
 51
263.1628588318643
  0
ARC
  5
321
330
98
100
AcDbEntity
  8
0
  6
Continuous
 62
     7
100
AcDbCircle
 10
-274.0000000000002
 20
338.0000000000002
 30
0.0
 40
48.50000000000043
100
AcDbArc
 50
256.2692014585709
 51
265.730798107133
  0
ARC
  5
322
330
98
100
AcDbEntity
  8
0
  6
Continuous
 62
     7
100
AcDbCircle
 10
-274.0000000000002
 20
338.0000000000002
 30
0.0
 40
46.50000000000044
100
AcDbArc
 50
256.0652322046214
 51
265.9347672826588
  0
ARC
  5
323
330
98
100
AcDbEntity
  8
0
  6
Continuous
 62
     7
100
AcDbCircle
 10
-274.0000000000002
 20
338.0000000000002
 30
0.0
 40
48.50000000000049
100
AcDbArc
 50
238.2692012554153
 51
247.7307980675907
  0
ARC
  5
324
330
98
100
AcDbEntity
  8
0
  6
Continuous
 62
     7
100
AcDbCircle
 10
-274.0000000000002
 20
338.0000000000002
 30
0.0
 40
63.75000000000043
100
AcDbArc
 50
239.4026077103439
 51
246.5973918138346
  0
ARC
  5
325
330
98
100
AcDbEntity
  8
0
  6
Continuous
 62
     7
100
AcDbCircle
 10
-274.0000000000002
 20
338.0000000000002
 30
0.0
 40
48.49999999999999
100
AcDbArc
 50
184.2692008005052
 51
193.7307981281967
  0
ARC
  5
326
330
98
100
AcDbEntity
  8
0
  6
Continuous
 62
     7
100
AcDbCircle
 10
-274.0000000000002
 20
338.0000000000002
 30
0.0
 40
46.50000000000001
100
AcDbArc
 50
184.0652313409793
 51
193.9347675685564
  0
ARC
  5
327
330
98
100
AcDbEntity
  8
0
  6
Continuous
 62
     7
100
AcDbCircle
 10
-274.0000000000002
 20
338.0000000000002
 30
0.0
 40
63.75000000000029
100
AcDbArc
 50
203.402606983484
 51
210.5973922811249
  0
ARC
  5
328
330
98
100
AcDbEntity
  8
0
  6
Continuous
 62
     7
100
AcDbCircle
 10
-274.0000000000002
 20
338.0000000000002
 30
0.0
 40
48.50000000000028
100
AcDbArc
 50
202.2692008064105
 51
211.7307982762308
  0
ARC
  5
329
330
98
100
AcDbEntity
  8
0
  6
Continuous
 62
     7
100
AcDbCircle
 10
-274.0000000000002
 20
338.0000000000002
 30
0.0
 40
46.50000000000031
100
AcDbArc
 50
202.0652314704466
 51
211.9347675793885
  0
ARC
  5
32A
330
98
100
AcDbEntity
  8
0
  6
Continuous
 62
     7
100
AcDbCircle
 10
-274.0000000000002
 20
338.0000000000002
 30
0.0
 40
46.49999999999954
100
AcDbArc
 50
94.06523252915312
 51
103.934767601908
  0
ARC
  5
32B
330
98
100
AcDbEntity
  8
0
  6
Continuous
 62
     7
100
AcDbCircle
 10
-274.0000000000002
 20
338.0000000000002
 30
0.0
 40
48.49999999999955
100
AcDbArc
 50
94.26920174350977
 51
103.7307983559927
  0
ARC
  5
32C
330
98
100
AcDbEntity
  8
0
  6
Continuous
 62
     7
100
AcDbCircle
 10
-274.0000000000002
 20
338.0000000000002
 30
0.0
 40
63.74999999999962
100
AcDbArc
 50
113.4026077773325
 51
120.5973918808233
  0
ARC
  5
32D
330
98
100
AcDbEntity
  8
0
  6
Continuous
 62
     7
100
AcDbCircle
 10
-274.0000000000002
 20
338.0000000000002
 30
0.0
 40
48.49999999999955
100
AcDbArc
 50
112.269201394251
 51
121.730798206427
  0
ARC
  5
32E
330
98
100
AcDbEntity
  8
0
  6
Continuous
 62
     7
100
AcDbCircle
 10
-274.0000000000002
 20
338.0000000000002
 30
0.0
 40
46.49999999999969
100
AcDbArc
 50
112.065232021147
 51
121.9347675691687
  0
ARC
  5
32F
330
98
100
AcDbEntity
  8
0
  6
Continuous
 62
     7
100
AcDbCircle
 10
-274.0000000000002
 20
338.0000000000002
 30
0.0
 40
48.49999999999974
100
AcDbArc
 50
130.2692012871345
 51
139.730798712865
  0
ARC
  5
330
330
98
100
AcDbEntity
  8
0
  6
Continuous
 62
     7
100
AcDbCircle
 10
-274.0000000000002
 20
338.0000000000002
 30
0.0
 40
46.49999999999969
100
AcDbArc
 50
130.0652319372246
 51
139.9347680627748
  0
ARC
  5
331
330
98
100
AcDbEntity
  8
0
  6
Continuous
 62
     7
100
AcDbCircle
 10
-274.0000000000002
 20
338.0000000000002
 30
0.0
 40
46.49999999999983
100
AcDbArc
 50
166.0652312099185
 51
175.9347674374957
  0
ARC
  5
332
330
98
100
AcDbEntity
  8
0
  6
Continuous
 62
     7
100
AcDbCircle
 10
-274.0000000000002
 20
338.0000000000002
 30
0.0
 40
63.75000000000035
100
AcDbArc
 50
221.4026075415632
 51
228.5973924451488
  0
ARC
  5
333
330
98
100
AcDbEntity
  8
0
  6
Continuous
 62
     7
100
AcDbCircle
 10
-274.0000000000002
 20
338.0000000000002
 30
0.0
 40
48.50000000000004
100
AcDbArc
 50
166.2692007010029
 51
175.7307980286945
  0
ARC
  5
334
330
98
100
AcDbEntity
  8
0
  6
Continuous
 62
     7
100
AcDbCircle
 10
-274.0000000000002
 20
338.0000000000002
 30
0.0
 40
48.49999999999984
100
AcDbArc
 50
148.269200667574
 51
157.7307981373952
  0
ARC
  5
335
330
98
100
AcDbEntity
  8
0
  6
Continuous
 62
     7
100
AcDbCircle
 10
-274.0000000000002
 20
338.0000000000002
 30
0.0
 40
46.49999999999987
100
AcDbArc
 50
148.0652313186571
 51
157.9347674275998
  0
ARC
  5
336
330
98
100
AcDbEntity
  8
0
  6
Continuous
 62
     7
100
AcDbCircle
 10
-274.0000000000002
 20
338.0000000000002
 30
0.0
 40
63.74999999999974
100
AcDbArc
 50
149.4026069164949
 51
156.5973922141364
  0
ARC
  5
337
330
98
100
AcDbEntity
  8
0
  6
Continuous
 62
     7
100
AcDbCircle
 10
-274.0000000000002
 20
338.0000000000002
 30
0.0
 40
63.74999999999969
100
AcDbArc
 50
131.4026075415628
 51
138.5973924584368
  0
ARC
  5
338
330
98
100
AcDbEntity
  8
0
  6
Continuous
 62
     7
100
AcDbCircle
 10
-204.5000000000003
 20
358.9999999999995
 30
0.0
 40
1.999999999999918
100
AcDbArc
 50
221.4096221092731
 51
270.0
  0
ARC
  5
339
330
98
100
AcDbEntity
  8
0
  6
Continuous
 62
     7
100
AcDbCircle
 10
-204.5000000000003
 20
316.9999999999995
 30
0.0
 40
2.0
100
AcDbArc
 50
90.0
 51
138.5903778907244
  0
ARC
  5
33A
330
98
100
AcDbEntity
  8
0
  6
Continuous
 62
     7
100
AcDbCircle
 10
-206.5000000000003
 20
405.4999999999997
 30
0.0
 40
5.5
100
AcDbArc
 50
0.0
 51
90.0
  0
ARC
  5
33B
330
98
100
AcDbEntity
  8
0
  6
Continuous
 62
     7
100
AcDbCircle
 10
-206.5000000000003
 20
405.4999999999997
 30
0.0
 40
6.5
100
AcDbArc
 50
0.0000000000005
 51
90.0
  0
ARC
  5
33C
330
98
100
AcDbEntity
  8
0
  6
Continuous
 62
     7
100
AcDbCircle
 10
-206.5000000000003
 20
405.4999999999997
 30
0.0
 40
5.0
100
AcDbArc
 50
0.0
 51
90.0
  0
ARC
  5
33D
330
98
100
AcDbEntity
  8
0
  6
Continuous
 62
     7
100
AcDbCircle
 10
-206.5000000000003
 20
405.4999999999997
 30
0.0
 40
2.5
100
AcDbArc
 50
0.0
 51
90.0
  0
ARC
  5
33E
330
98
100
AcDbEntity
  8
0
  6
Continuous
 62
     7
100
AcDbCircle
 10
-206.5000000000003
 20
405.4999999999997
 30
0.0
 40
2.0
100
AcDbArc
 50
0.0
 51
90.0
  0
ARC
  5
33F
330
98
100
AcDbEntity
  8
0
  6
Continuous
 62
     7
100
AcDbCircle
 10
-206.5000000000003
 20
270.4999999999998
 30
0.0
 40
6.5
100
AcDbArc
 50
270.0
 51
0.0
  0
ARC
  5
340
330
98
100
AcDbEntity
  8
0
  6
Continuous
 62
     7
100
AcDbCircle
 10
-206.5000000000003
 20
270.4999999999998
 30
0.0
 40
5.0
100
AcDbArc
 50
270.0
 51
0.0
  0
ARC
  5
341
330
98
100
AcDbEntity
  8
0
  6
Continuous
 62
     7
100
AcDbCircle
 10
-206.5000000000003
 20
270.4999999999998
 30
0.0
 40
2.0
100
AcDbArc
 50
270.0
 51
0.0
  0
ARC
  5
342
330
98
100
AcDbEntity
  8
0
  6
Continuous
 62
     7
100
AcDbCircle
 10
-206.5000000000003
 20
270.4999999999998
 30
0.0
 40
2.5
100
AcDbArc
 50
270.0
 51
0.0
  0
ARC
  5
343
330
98
100
AcDbEntity
  8
0
  6
Continuous
 62
     7
100
AcDbCircle
 10
-206.5000000000003
 20
270.4999999999998
 30
0.0
 40
5.5
100
AcDbArc
 50
270.0
 51
0.0
  0
ARC
  5
344
330
98
100
AcDbEntity
  8
0
  6
Continuous
 62
     7
100
AcDbCircle
 10
-341.5000000000002
 20
405.4999999999998
 30
0.0
 40
6.5
100
AcDbArc
 50
90.0
 51
180.0
  0
ARC
  5
345
330
98
100
AcDbEntity
  8
0
  6
Continuous
 62
     7
100
AcDbCircle
 10
-341.5000000000002
 20
270.4999999999998
 30
0.0
 40
6.5
100
AcDbArc
 50
180.0
 51
270.0
  0
ARC
  5
346
330
98
100
AcDbEntity
  8
0
  6
Continuous
 62
     7
100
AcDbCircle
 10
-341.5000000000002
 20
270.4999999999998
 30
0.0
 40
5.0
100
AcDbArc
 50
180.0
 51
270.0
  0
ARC
  5
347
330
98
100
AcDbEntity
  8
0
  6
Continuous
 62
     7
100
AcDbCircle
 10
-341.5000000000002
 20
405.4999999999998
 30
0.0
 40
1.999999999999943
100
AcDbArc
 50
90.0
 51
180.0000000000016
  0
ARC
  5
348
330
98
100
AcDbEntity
  8
0
  6
Continuous
 62
     7
100
AcDbCircle
 10
-341.5000000000002
 20
405.4999999999998
 30
0.0
 40
5.0
100
AcDbArc
 50
90.0
 51
180.0000000000006
  0
ARC
  5
349
330
98
100
AcDbEntity
  8
0
  6
Continuous
 62
     7
100
AcDbCircle
 10
-341.5000000000002
 20
405.4999999999998
 30
0.0
 40
2.499999999999943
100
AcDbArc
 50
90.0
 51
180.0000000000013
  0
ARC
  5
34A
330
98
100
AcDbEntity
  8
0
  6
Continuous
 62
     7
100
AcDbCircle
 10
-341.5000000000002
 20
270.4999999999998
 30
0.0
 40
2.0
100
AcDbArc
 50
180.0
 51
270.0
  0
ARC
  5
34B
330
98
100
AcDbEntity
  8
0
  6
Continuous
 62
     7
100
AcDbCircle
 10
-341.5000000000002
 20
270.4999999999998
 30
0.0
 40
2.5
100
AcDbArc
 50
180.0
 51
270.0
  0
ARC
  5
34C
330
98
100
AcDbEntity
  8
0
  6
Continuous
 62
     7
100
AcDbCircle
 10
-343.5000000000002
 20
317.0000000000005
 30
0.0
 40
2.000000000000003
100
AcDbArc
 50
41.40962210927096
 51
90.0
  0
ARC
  5
34D
330
98
100
AcDbEntity
  8
0
  6
Continuous
 62
     7
100
AcDbCircle
 10
-343.5000000000002
 20
359.0000000000005
 30
0.0
 40
2.0
100
AcDbArc
 50
270.0
 51
318.590377890729
  0
ARC
  5
34E
330
98
100
AcDbEntity
  8
0
  6
Continuous
 62
     7
100
AcDbCircle
 10
-341.5000000000002
 20
270.4999999999998
 30
0.0
 40
5.5
100
AcDbArc
 50
180.0
 51
270.0
  0
ARC
  5
34F
330
98
100
AcDbEntity
  8
0
  6
Continuous
 62
     7
100
AcDbCircle
 10
-341.5000000000002
 20
405.4999999999998
 30
0.0
 40
5.5
100
AcDbArc
 50
90.0
 51
180.0000000000006
  0
ENDBLK
  5
9A
330
98
100
AcDbEntity
  8
0
100
AcDbBlockEnd
  0
BLOCK
  5
9C
330
9B
100
AcDbEntity
  8
0
100
AcDbBlockBegin
  2
Rost-301020056_1__8
 70
     0
 10
-274.0000000000002
 20
268.4999999999998
 30
0.0
  3
Rost-301020056_1__8
  1

  0
LINE
  5
350
330
9B
100
AcDbEntity
  8
0
  6
Continuous
 62
     7
100
AcDbLine
 10
-274.0000000000002
 20
384.4999999999998
 30
0.0
 11
-274.0000000000002
 21
392.9999999999994
 31
0.0
  0
LINE
  5
351
330
9B
100
AcDbEntity
  8
0
  6
Continuous
 62
     7
100
AcDbLine
 10
-274.0000000000002
 20
380.9999999999998
 30
0.0
 11
-274.0000000000002
 21
384.4999999999998
 31
0.0
  0
LINE
  5
352
330
9B
100
AcDbEntity
  8
0
  6
Continuous
 62
     7
100
AcDbLine
 10
-274.0000000000002
 20
380.0000000000002
 30
0.0
 11
-274.0000000000002
 21
380.9999999999998
 31
0.0
  0
LINE
  5
353
330
9B
100
AcDbEntity
  8
0
  6
Continuous
 62
     7
100
AcDbLine
 10
-269.5078866975605
 20
382.3432164891075
 30
0.0
 11
-264.5694456975606
 21
381.5610444891075
 31
0.0
  0
LINE
  5
354
330
9B
100
AcDbEntity
  8
0
  6
Continuous
 62
     7
100
AcDbLine
 10
-225.9167388282205
 20
295.57359317178
 30
0.0
 11
-238.6446608282205
 21
308.30151517178
 31
0.0
  0
LINE
  5
355
330
9B
100
AcDbEntity
  8
0
  6
Continuous
 62
     7
100
AcDbLine
 10
-233.2152337862831
 20
320.0249387496089
 30
0.0
 11
-235.4851857862832
 21
315.5699057496089
 31
0.0
  0
LINE
  5
356
330
9B
100
AcDbEntity
  8
0
  6
Continuous
 62
     7
100
AcDbLine
 10
-216.08833830244
 20
332.8775535108929
 30
0.0
 11
-227.94059830244
 21
334.7547675108929
 31
0.0
  0
LINE
  5
357
330
9B
100
AcDbEntity
  8
0
  6
Continuous
 62
     7
100
AcDbLine
 10
-229.1920736975606
 20
326.8532604891075
 30
0.0
 11
-217.3398136975605
 21
324.9760474891075
 31
0.0
  0
LINE
  5
358
330
9B
100
AcDbEntity
  8
0
  6
Continuous
 62
     7
100
AcDbLine
 10
-229.656782510893
 20
333.5078866975605
 30
0.0
 11
-230.4389545108929
 21
328.5694446975605
 31
0.0
  0
LINE
  5
359
330
9B
100
AcDbEntity
  8
0
  6
Continuous
 62
     7
100
AcDbLine
 10
-234.8296617496097
 20
313.5524102137169
 30
0.0
 11
-218.7915447496097
 21
305.3805812137169
 31
0.0
  0
LINE
  5
35A
330
9B
100
AcDbEntity
  8
0
  6
Continuous
 62
     7
100
AcDbLine
 10
-238.6446608282201
 20
367.6984848282207
 30
0.0
 11
-225.9167388282201
 21
380.4264068282208
 31
0.0
  0
LINE
  5
35B
330
9B
100
AcDbEntity
  8
0
  6
Continuous
 62
     7
100
AcDbLine
 10
-231.197738250391
 20
355.3195362137177
 30
0.0
 11
-215.1596202503908
 21
363.4913652137176
 31
0.0
  0
LINE
  5
35C
330
9B
100
AcDbEntity
  8
0
  6
Continuous
 62
     7
100
AcDbLine
 10
-218.7915447496097
 20
370.6194177862828
 30
0.0
 11
-234.8296617496097
 21
362.4475887862828
 31
0.0
  0
LINE
  5
35D
330
9B
100
AcDbEntity
  8
0
  6
Continuous
 62
     7
100
AcDbLine
 10
-217.3398136975607
 20
351.0239515108929
 30
0.0
 11
-229.1920736975606
 21
349.1467385108929
 31
0.0
  0
LINE
  5
35E
330
9B
100
AcDbEntity
  8
0
  6
Continuous
 62
     7
100
AcDbLine
 10
-227.94059830244
 20
341.2452314891075
 30
0.0
 11
-216.08833830244
 21
343.1224454891075
 31
0.0
  0
LINE
  5
35F
330
9B
100
AcDbEntity
  8
0
  6
Continuous
 62
     7
100
AcDbLine
 10
-230.4389545108929
 20
347.4305543024398
 30
0.0
 11
-229.656782510893
 21
342.4921123024399
 31
0.0
  0
LINE
  5
360
330
9B
100
AcDbEntity
  8
0
  6
Continuous
 62
     7
100
AcDbLine
 10
-214.5040962137177
 20
365.5088607496095
 30
0.0
 11
-216.7740492137178
 21
369.9638937496096
 31
0.0
  0
LINE
  5
361
330
9B
100
AcDbEntity
  8
0
  6
Continuous
 62
     7
100
AcDbLine
 10
-214.8414574891075
 20
344.8386296975605
 30
0.0
 11
-215.6236294891074
 21
349.7770706975605
 31
0.0
  0
LINE
  5
362
330
9B
100
AcDbEntity
  8
0
  6
Continuous
 62
     7
100
AcDbLine
 10
-235.4851857862828
 20
360.4300932503909
 30
0.0
 11
-233.2152337862827
 21
355.9750602503909
 31
0.0
  0
LINE
  5
363
330
9B
100
AcDbEntity
  8
0
  6
Continuous
 62
     7
100
AcDbLine
 10
-249.5524112137177
 20
377.1703372503909
 30
0.0
 11
-241.3805822137177
 21
393.2084552503909
 31
0.0
  0
LINE
  5
364
330
9B
100
AcDbEntity
  8
0
  6
Continuous
 62
     7
100
AcDbLine
 10
-262.8532614891076
 20
382.8079253024399
 30
0.0
 11
-260.9760474891075
 21
394.6601853024398
 31
0.0
  0
LINE
  5
365
330
9B
100
AcDbEntity
  8
0
  6
Continuous
 62
     7
100
AcDbLine
 10
-268.8775545108931
 20
395.9116616975605
 30
0.0
 11
-270.754767510893
 21
384.0594006975605
 31
0.0
  0
LINE
  5
366
330
9B
100
AcDbEntity
  8
0
  6
Continuous
 62
     7
100
AcDbLine
 10
-256.0249387496097
 20
378.7847662137177
 30
0.0
 11
-251.5699067496096
 21
376.5148132137177
 31
0.0
  0
LINE
  5
367
330
9B
100
AcDbEntity
  8
0
  6
Continuous
 62
     7
100
AcDbLine
 10
-231.57359317178
 20
386.0832611717801
 30
0.0
 11
-244.3015151717802
 21
373.35533817178
 31
0.0
  0
LINE
  5
368
330
9B
100
AcDbEntity
  8
0
  6
Continuous
 62
     7
100
AcDbLine
 10
-244.3015151717802
 20
371.2340178282204
 30
0.0
 11
-240.76598117178
 21
367.6984848282204
 31
0.0
  0
LINE
  5
369
330
9B
100
AcDbEntity
  8
0
  6
Continuous
 62
     7
100
AcDbLine
 10
-225.9167388282205
 20
382.54772717178
 30
0.0
 11
-229.4522728282204
 21
386.0832611717801
 31
0.0
  0
LINE
  5
36A
330
9B
100
AcDbEntity
  8
0
  6
Continuous
 62
     7
100
AcDbLine
 10
-229.4522728282209
 20
289.9167388282199
 30
0.0
 11
-225.916738828221
 21
293.4522728282199
 31
0.0
  0
LINE
  5
36B
330
9B
100
AcDbEntity
  8
0
  6
Continuous
 62
     7
100
AcDbLine
 10
-215.1596202503908
 20
312.5086337862828
 30
0.0
 11
-231.197738250391
 21
320.6804627862827
 31
0.0
  0
LINE
  5
36C
330
9B
100
AcDbEntity
  8
0
  6
Continuous
 62
     7
100
AcDbLine
 10
-216.7740492137178
 20
306.0361052503909
 30
0.0
 11
-214.5040962137177
 21
310.4911382503909
 31
0.0
  0
LINE
  5
36D
330
9B
100
AcDbEntity
  8
0
  6
Continuous
 62
     7
100
AcDbLine
 10
-215.6236294891075
 20
326.2229283024399
 30
0.0
 11
-214.8414574891075
 21
331.1613693024398
 31
0.0
  0
LINE
  5
36E
330
9B
100
AcDbEntity
  8
0
  6
Continuous
 62
     7
100
AcDbLine
 10
-264.5694456975606
 20
294.4389545108929
 30
0.0
 11
-269.5078866975605
 21
293.6567825108929
 31
0.0
  0
LINE
  5
36F
330
9B
100
AcDbEntity
  8
0
  6
Continuous
 62
     7
100
AcDbLine
 10
-260.9760474891075
 20
281.3398136975605
 30
0.0
 11
-262.8532614891076
 21
293.1920736975606
 31
0.0
  0
LINE
  5
370
330
9B
100
AcDbEntity
  8
0
  6
Continuous
 62
     7
100
AcDbLine
 10
-270.754767510893
 20
291.9405983024399
 30
0.0
 11
-268.8775545108929
 21
280.0883383024399
 31
0.0
  0
LINE
  5
371
330
9B
100
AcDbEntity
  8
0
  6
Continuous
 62
     7
100
AcDbLine
 10
-240.7659811717805
 20
308.3015151717796
 30
0.0
 11
-244.3015151717806
 21
304.7659811717795
 31
0.0
  0
LINE
  5
372
330
9B
100
AcDbEntity
  8
0
  6
Continuous
 62
     7
100
AcDbLine
 10
-251.5699067496096
 20
299.4851857862828
 30
0.0
 11
-256.0249387496097
 21
297.2152327862827
 31
0.0
  0
LINE
  5
373
330
9B
100
AcDbEntity
  8
0
  6
Continuous
 62
     7
100
AcDbLine
 10
-241.3805822137177
 20
282.7915437496096
 30
0.0
 11
-249.5524112137177
 21
298.8296617496095
 31
0.0
  0
LINE
  5
374
330
9B
100
AcDbEntity
  8
0
  6
Continuous
 62
     7
100
AcDbLine
 10
-244.3015151717804
 20
302.6446608282197
 30
0.0
 11
-231.5735931717805
 21
289.9167388282199
 31
0.0
  0
LINE
  5
375
330
9B
100
AcDbEntity
  8
0
  6
Continuous
 62
     7
100
AcDbLine
 10
-274.0000000000002
 20
290.0000001564404
 30
0.0
 11
-274.0000000000002
 21
294.024859273857
 31
0.0
  0
LINE
  5
376
330
9B
100
AcDbEntity
  8
0
  6
Continuous
 62
     7
100
AcDbLine
 10
-274.0000000000002
 20
294.024859273857
 30
0.0
 11
-274.0000000000002
 21
296.0000000000002
 31
0.0
  0
LINE
  5
377
330
9B
100
AcDbEntity
  8
0
  6
Continuous
 62
     7
100
AcDbLine
 10
-242.0361062503908
 20
395.2259507862827
 30
0.0
 11
-246.491138250391
 21
397.4959027862828
 31
0.0
  0
LINE
  5
378
330
9B
100
AcDbEntity
  8
0
  6
Continuous
 62
     7
100
AcDbLine
 10
-267.1613703024399
 20
278.8414574891075
 30
0.0
 11
-262.22292830244
 21
279.6236294891075
 31
0.0
  0
LINE
  5
379
330
9B
100
AcDbEntity
  8
0
  6
Continuous
 62
     7
100
AcDbLine
 10
-248.5086337862829
 20
396.8403787496096
 30
0.0
 11
-256.6804627862829
 21
380.8022617496096
 31
0.0
  0
LINE
  5
37A
330
9B
100
AcDbEntity
  8
0
  6
Continuous
 62
     7
100
AcDbLine
 10
-256.6804627862825
 20
295.1977372503903
 30
0.0
 11
-248.5086337862825
 21
279.1596202503903
 31
0.0
  0
LINE
  5
37B
330
9B
100
AcDbEntity
  8
0
  6
Continuous
 62
     7
100
AcDbLine
 10
-246.491138250391
 20
278.5040962137176
 30
0.0
 11
-242.0361062503908
 21
280.7740482137176
 31
0.0
  0
LINE
  5
37C
330
9B
100
AcDbEntity
  8
0
  6
Continuous
 62
     7
100
AcDbLine
 10
-262.22292830244
 20
396.3763695108929
 30
0.0
 11
-267.1613703024399
 21
397.158542510893
 31
0.0
  0
LINE
  5
37D
330
9B
100
AcDbEntity
  8
0
  6
Continuous
 62
     7
100
AcDbLine
 10
-206.0000000000002
 20
405.5000000000002
 30
0.0
 11
-206.0000000000002
 21
270.5000000000002
 31
0.0
  0
LINE
  5
37E
330
9B
100
AcDbEntity
  8
0
  6
Continuous
 62
     7
100
AcDbLine
 10
-255.0000000000002
 20
407.4999999999998
 30
0.0
 11
-208.0000000000002
 21
407.5000000000002
 31
0.0
  0
LINE
  5
37F
330
9B
100
AcDbEntity
  8
0
  6
Continuous
 62
     7
100
AcDbLine
 10
-274.0000000000002
 20
407.5000000000002
 30
0.0
 11
-255.0000000000002
 21
407.4999999999998
 31
0.0
  0
LINE
  5
380
330
9B
100
AcDbEntity
  8
0
  6
Continuous
 62
     7
100
AcDbLine
 10
-274.0000000000002
 20
271.0000000000002
 30
0.0
 11
-208.5000000000002
 21
271.0000000000002
 31
0.0
  0
LINE
  5
381
330
9B
100
AcDbEntity
  8
0
  6
Continuous
 62
     7
100
AcDbLine
 10
-274.0000000000002
 20
271.0000000000002
 30
0.0
 11
-274.0000000000002
 21
268.5000000000002
 31
0.0
  0
LINE
  5
382
330
9B
100
AcDbEntity
  8
0
  6
Continuous
 62
     7
100
AcDbLine
 10
-255.0000000000007
 20
268.4999999999998
 30
0.0
 11
-274.0000000000002
 21
268.5000000000002
 31
0.0
  0
LINE
  5
383
330
9B
100
AcDbEntity
  8
0
  6
Continuous
 62
     7
100
AcDbLine
 10
-208.0000000000002
 20
268.5000000000002
 30
0.0
 11
-255.0000000000007
 21
268.4999999999998
 31
0.0
  0
LINE
  5
384
330
9B
100
AcDbEntity
  8
0
  6
Continuous
 62
     7
100
AcDbLine
 10
-274.0000000000002
 20
407.5000000000002
 30
0.0
 11
-274.0000000000002
 21
405.0000000000002
 31
0.0
  0
LINE
  5
385
330
9B
100
AcDbEntity
  8
0
  6
Continuous
 62
     7
100
AcDbLine
 10
-274.0000000000002
 20
392.9999999999994
 30
0.0
 11
-274.0000000000002
 21
405.0000000000002
 31
0.0
  0
LINE
  5
386
330
9B
100
AcDbEntity
  8
0
  6
Continuous
 62
     7
100
AcDbLine
 10
-274.0000000000002
 20
274.2499999999998
 30
0.0
 11
-274.0000000000002
 21
289.4999999999998
 31
0.0
  0
LINE
  5
387
330
9B
100
AcDbEntity
  8
0
  6
Continuous
 62
     7
100
AcDbLine
 10
-274.0000000000002
 20
289.4999999999998
 30
0.0
 11
-274.0000000000002
 21
290.0000001564404
 31
0.0
  0
LINE
  5
388
330
9B
100
AcDbEntity
  8
0
  6
Continuous
 62
     7
100
AcDbLine
 10
-274.0000000000002
 20
271.0000000000002
 30
0.0
 11
-274.0000000000002
 21
274.2499999999998
 31
0.0
  0
LINE
  5
389
330
9B
100
AcDbEntity
  8
0
  6
Continuous
 62
     7
100
AcDbLine
 10
-208.5000000000002
 20
405.0000000000002
 30
0.0
 11
-274.0000000000002
 21
405.0000000000002
 31
0.0
  0
LINE
  5
38A
330
9B
100
AcDbEntity
  8
0
  6
Continuous
 62
     7
100
AcDbLine
 10
-208.5000000000002
 20
271.0000000000002
 30
0.0
 11
-208.5000000000002
 21
405.0000000000002
 31
0.0
  0
ARC
  5
38B
330
9B
100
AcDbEntity
  8
0
  6
Continuous
 62
     7
100
AcDbCircle
 10
-274.0000000000002
 20
338.0000000000002
 30
0.0
 40
42.0
100
AcDbArc
 50
270.0
 51
90.0
  0
ARC
  5
38C
330
9B
100
AcDbEntity
  8
0
  6
Continuous
 62
     7
100
AcDbCircle
 10
-264.3347940000003
 20
383.0425770000002
 30
0.0
 40
1.500000000000035
100
AcDbArc
 50
261.0000000000016
 51
351.0000000000013
  0
ARC
  5
38D
330
9B
100
AcDbEntity
  8
0
  6
Continuous
 62
     7
100
AcDbCircle
 10
-269.2732350000002
 20
383.8247490000002
 30
0.0
 40
1.500000000000026
100
AcDbArc
 50
171.0000000000038
 51
261.0000000000038
  0
ARC
  5
38E
330
9B
100
AcDbEntity
  8
0
  6
Continuous
 62
     7
100
AcDbCircle
 10
-231.8787240000003
 20
319.3439530000002
 30
0.0
 40
1.499999999999914
100
AcDbArc
 50
63.00000000000016
 51
153.0000000000264
  0
ARC
  5
38F
330
9B
100
AcDbEntity
  8
0
  6
Continuous
 62
     7
100
AcDbCircle
 10
-234.1486760000005
 20
314.8889199999996
 30
0.0
 40
1.500000000000129
100
AcDbArc
 50
153.0000000000031
 51
243.000000000007
  0
ARC
  5
390
330
9B
100
AcDbEntity
  8
0
  6
Continuous
 62
     7
100
AcDbCircle
 10
-228.1752500000002
 20
333.2732350000002
 30
0.0
 40
1.499999999999961
100
AcDbArc
 50
81.00000000000558
 51
171.0000000000041
  0
ARC
  5
391
330
9B
100
AcDbEntity
  8
0
  6
Continuous
 62
     7
100
AcDbCircle
 10
-218.1105590000005
 20
306.7170909999996
 30
0.0
 40
1.500000000000078
100
AcDbArc
 50
243.000000000007
 51
333.0000000000244
  0
ARC
  5
392
330
9B
100
AcDbEntity
  8
0
  6
Continuous
 62
     7
100
AcDbCircle
 10
-217.1051620000002
 20
326.4575800000002
 30
0.0
 40
1.499999999999975
100
AcDbArc
 50
261.0000000000024
 51
351.0000000000036
  0
ARC
  5
393
330
9B
100
AcDbEntity
  8
0
  6
Continuous
 62
     7
100
AcDbCircle
 10
-228.9574220000002
 20
328.3347930000002
 30
0.0
 40
1.499999999999979
100
AcDbArc
 50
171.0000000000013
 51
260.9999999999981
  0
ARC
  5
394
330
9B
100
AcDbEntity
  8
0
  6
Continuous
 62
     7
100
AcDbCircle
 10
-239.7053210000003
 20
307.2408550000002
 30
0.0
 40
1.499999999999992
100
AcDbArc
 50
45.00000000000077
 51
135.0000000000207
  0
ARC
  5
395
330
9B
100
AcDbEntity
  8
0
  6
Continuous
 62
     7
100
AcDbCircle
 10
-230.5129330000003
 20
385.0226010000002
 30
0.0
 40
1.500000000000133
100
AcDbArc
 50
45.00000000000154
 51
134.9999999999939
  0
ARC
  5
396
330
9B
100
AcDbEntity
  8
0
  6
Continuous
 62
     7
100
AcDbCircle
 10
-215.8406060000003
 20
364.8278750000002
 30
0.0
 40
1.500000000000118
100
AcDbArc
 50
297.0000000000056
 51
26.99999999999884
  0
ARC
  5
397
330
9B
100
AcDbEntity
  8
0
  6
Continuous
 62
     7
100
AcDbCircle
 10
-217.1051620000002
 20
349.5424190000002
 30
0.0
 40
1.500000000000083
100
AcDbArc
 50
8.99999999999588
 51
99.00000000000514
  0
ARC
  5
398
330
9B
100
AcDbEntity
  8
0
  6
Continuous
 62
     7
100
AcDbCircle
 10
-228.1752500000002
 20
342.7267640000002
 30
0.0
 40
1.500000000000083
100
AcDbArc
 50
188.9999999999959
 51
278.9999999999944
  0
ARC
  5
399
330
9B
100
AcDbEntity
  8
0
  6
Continuous
 62
     7
100
AcDbCircle
 10
-228.9574220000002
 20
347.6652060000002
 30
0.0
 40
1.499999999999992
100
AcDbArc
 50
99.00000000000193
 51
189.0000000000009
  0
ARC
  5
39A
330
9B
100
AcDbEntity
  8
0
  6
Continuous
 62
     7
100
AcDbCircle
 10
-216.3229900000002
 20
344.6039780000002
 30
0.0
 40
1.499999999999961
100
AcDbArc
 50
278.9999999999944
 51
8.9999999999987
  0
ARC
  5
39B
330
9B
100
AcDbEntity
  8
0
  6
Continuous
 62
     7
100
AcDbCircle
 10
-218.1105590000004
 20
369.2829080000002
 30
0.0
 40
1.50000000000008
100
AcDbArc
 50
27.00000000000271
 51
116.9999999999989
  0
ARC
  5
39C
330
9B
100
AcDbEntity
  8
0
  6
Continuous
 62
     7
100
AcDbCircle
 10
-231.8787240000003
 20
356.6560460000002
 30
0.0
 40
1.49999999999985
100
AcDbArc
 50
206.9999999999999
 51
296.9999999999999
  0
ARC
  5
39D
330
9B
100
AcDbEntity
  8
0
  6
Continuous
 62
     7
100
AcDbCircle
 10
-234.1486760000003
 20
361.1110790000002
 30
0.0
 40
1.500000000000067
100
AcDbArc
 50
117.0000000000018
 51
207.0000000000003
  0
ARC
  5
39E
330
9B
100
AcDbEntity
  8
0
  6
Continuous
 62
     7
100
AcDbCircle
 10
-239.7053210000003
 20
368.7591450000002
 30
0.0
 40
1.499999999999912
100
AcDbArc
 50
225.0000000000038
 51
315.0000000000192
  0
ARC
  5
39F
330
9B
100
AcDbEntity
  8
0
  6
Continuous
 62
     7
100
AcDbCircle
 10
-242.7170920000003
 20
393.8894410000002
 30
0.0
 40
1.500000000000028
100
AcDbArc
 50
333.0000000000012
 51
62.99999999999243
  0
ARC
  5
3A0
330
9B
100
AcDbEntity
  8
0
  6
Continuous
 62
     7
100
AcDbCircle
 10
-255.3439530000003
 20
380.1212760000002
 30
0.0
 40
1.500000000000054
100
AcDbArc
 50
152.9999999999968
 51
242.9999999999963
  0
ARC
  5
3A1
330
9B
100
AcDbEntity
  8
0
  6
Continuous
 62
     7
100
AcDbCircle
 10
-262.4575800000002
 20
394.8948370000002
 30
0.0
 40
1.499999999999997
100
AcDbArc
 50
350.999999999997
 51
81.00000000000558
  0
ARC
  5
3A2
330
9B
100
AcDbEntity
  8
0
  6
Continuous
 62
     7
100
AcDbCircle
 10
-250.8889210000003
 20
377.8513230000002
 30
0.0
 40
1.499999999999977
100
AcDbArc
 50
243.0000000000001
 51
333.0000000000012
  0
ARC
  5
3A3
330
9B
100
AcDbEntity
  8
0
  6
Continuous
 62
     7
100
AcDbCircle
 10
-243.2408550000002
 20
372.2946780000002
 30
0.0
 40
1.500000000000093
100
AcDbArc
 50
135.0000000000062
 51
224.9999999999954
  0
ARC
  5
3A4
330
9B
100
AcDbEntity
  8
0
  6
Continuous
 62
     7
100
AcDbCircle
 10
-226.9773990000003
 20
381.4870670000002
 30
0.0
 40
1.499999999999952
100
AcDbArc
 50
315.0000000000222
 51
45.00000000000077
  0
ARC
  5
3A5
330
9B
100
AcDbEntity
  8
0
  6
Continuous
 62
     7
100
AcDbCircle
 10
-215.8406060000003
 20
311.1721240000002
 30
0.0
 40
1.500000000000028
100
AcDbArc
 50
333.0000000000012
 51
62.99999999999439
  0
ARC
  5
3A6
330
9B
100
AcDbEntity
  8
0
  6
Continuous
 62
     7
100
AcDbCircle
 10
-216.3229900000002
 20
331.3960210000002
 30
0.0
 40
1.499999999999988
100
AcDbArc
 50
350.9999999999991
 51
81.00000000000558
  0
ARC
  5
3A7
330
9B
100
AcDbEntity
  8
0
  6
Continuous
 62
     7
100
AcDbCircle
 10
-242.7170920000003
 20
282.1105580000002
 30
0.0
 40
1.500000000000118
100
AcDbArc
 50
297.0000000000056
 51
27.00000000000271
  0
ARC
  5
3A8
330
9B
100
AcDbEntity
  8
0
  6
Continuous
 62
     7
100
AcDbCircle
 10
-269.2732350000002
 20
292.1752500000002
 30
0.0
 40
1.500000000000026
100
AcDbArc
 50
98.99999999999623
 51
188.9999999999962
  0
ARC
  5
3A9
330
9B
100
AcDbEntity
  8
0
  6
Continuous
 62
     7
100
AcDbCircle
 10
-264.3347940000003
 20
292.9574220000002
 30
0.0
 40
1.499999999999997
100
AcDbArc
 50
9.00000000000299
 51
98.99999999999837
  0
ARC
  5
3AA
330
9B
100
AcDbEntity
  8
0
  6
Continuous
 62
     7
100
AcDbCircle
 10
-262.4575800000002
 20
281.1051620000002
 30
0.0
 40
1.499999999999961
100
AcDbArc
 50
278.9999999999944
 51
8.9999999999987
  0
ARC
  5
3AB
330
9B
100
AcDbEntity
  8
0
  6
Continuous
 62
     7
100
AcDbCircle
 10
-243.2408550000008
 20
303.7053209999997
 30
0.0
 40
1.499999999999992
100
AcDbArc
 50
134.9999999999992
 51
225.0000000000107
  0
ARC
  5
3AC
330
9B
100
AcDbEntity
  8
0
  6
Continuous
 62
     7
100
AcDbCircle
 10
-255.3439530000003
 20
295.8787230000002
 30
0.0
 40
1.499999999999966
100
AcDbArc
 50
117.0000000000037
 51
207.0000000000275
  0
ARC
  5
3AD
330
9B
100
AcDbEntity
  8
0
  6
Continuous
 62
     7
100
AcDbCircle
 10
-250.8889210000003
 20
298.1486760000002
 30
0.0
 40
1.500000000000028
100
AcDbArc
 50
26.99999999999884
 51
116.9999999999989
  0
ARC
  5
3AE
330
9B
100
AcDbEntity
  8
0
  6
Continuous
 62
     7
100
AcDbCircle
 10
-226.9773990000003
 20
294.5129330000002
 30
0.0
 40
1.499999999999952
100
AcDbArc
 50
314.9999999999732
 51
44.99999999999923
  0
ARC
  5
3AF
330
9B
100
AcDbEntity
  8
0
  6
Continuous
 62
     7
100
AcDbCircle
 10
-230.5129330000008
 20
290.9773989999997
 30
0.0
 40
1.499999999999912
100
AcDbArc
 50
225.0000000000038
 51
315.0000000000015
  0
ARC
  5
3B0
330
9B
100
AcDbEntity
  8
0
  6
Continuous
 62
     7
100
AcDbCircle
 10
-247.1721240000003
 20
279.8406060000002
 30
0.0
 40
1.499999999999957
100
AcDbArc
 50
207.000000000027
 51
296.9999999999988
  0
ARC
  5
3B1
330
9B
100
AcDbEntity
  8
0
  6
Continuous
 62
     7
100
AcDbCircle
 10
-247.1721240000003
 20
396.1593930000002
 30
0.0
 40
1.500000000000028
100
AcDbArc
 50
63.00000000000116
 51
152.9999999999973
  0
ARC
  5
3B2
330
9B
100
AcDbEntity
  8
0
  6
Continuous
 62
     7
100
AcDbCircle
 10
-267.3960220000002
 20
395.6770100000002
 30
0.0
 40
1.500000000000091
100
AcDbArc
 50
81.00000000000198
 51
171.0000000000048
  0
ARC
  5
3B3
330
9B
100
AcDbEntity
  8
0
  6
Continuous
 62
     7
100
AcDbCircle
 10
-267.3960220000002
 20
280.3229900000002
 30
0.0
 40
1.49999999999997
100
AcDbArc
 50
188.9999999999965
 51
278.9999999999987
  0
ARC
  5
3B4
330
9B
100
AcDbEntity
  8
0
  6
Continuous
 62
     7
100
AcDbCircle
 10
-208.0000000000002
 20
405.5000000000002
 30
0.0
 40
2.0
100
AcDbArc
 50
0.0
 51
90.0
  0
ARC
  5
3B5
330
9B
100
AcDbEntity
  8
0
  6
Continuous
 62
     7
100
AcDbCircle
 10
-208.0000000000002
 20
270.5000000000002
 30
0.0
 40
2.0
100
AcDbArc
 50
270.0
 51
0.0
  0
SPLINE
  5
3B6
330
9B
100
AcDbEntity
  8
0
  6
Continuous
 62
     7
100
AcDbSpline
210
0.0
220
0.0
230
1.0
 70
  1080
 71
     3
 72
    15
 73
    11
 74
     9
 42
0.000000001
 43
0.0000000001
 44
0.00000001
 40
0.0
 40
0.0
 40
0.0
 40
0.0
 40
0.0895027057415195
 40
0.1790054114828606
 40
0.4191003240490849
 40
0.7467341190648626
 40
1.150558658555008
 40
1.611048703343632
 40
2.072120592133441
 40
2.549509756796392
 40
2.549509756796392
 40
2.549509756796392
 40
2.549509756796392
 10
-206.0000000000002
 20
405.5000000000002
 30
0.0
 10
-206.0292548745576
 20
405.4941490250888
 30
0.0
 10
-206.0877646236723
 20
405.482447075266
 30
0.0
 10
-206.2247518499852
 20
405.4550496300039
 30
0.0
 10
-206.4395746577726
 20
405.4120850684467
 30
0.0
 10
-206.7571367709338
 20
405.3485726458146
 30
0.0
 10
-207.146737286653
 20
405.2706525426707
 30
0.0
 10
-207.5799534077572
 20
405.1840093184495
 30
0.0
 10
-208.0372148788146
 20
405.0925570242376
 30
0.0
 10
-208.343960470116
 20
405.0312079059771
 30
0.0
 10
-208.5000000000002
 20
405.0000000000002
 30
0.0
 11
-206.0000000000002
 21
405.5000000000002
 31
0.0
 11
-206.0877646236723
 21
405.4824470752658
 31
0.0
 11
-206.1755292473442
 21
405.4648941505315
 31
0.0
 11
-206.4109616789382
 21
405.4178076642127
 31
0.0
 11
-206.7322330470338
 21
405.3535533905935
 31
0.0
 11
-207.1282155868277
 21
405.2743568826348
 31
0.0
 11
-207.5797632260956
 21
405.1840473547812
 31
0.0
 11
-208.0318814103474
 21
405.0936237179308
 31
0.0
 11
-208.5000000000002
 21
405.0000000000002
 31
0.0
  0
SPLINE
  5
3B7
330
9B
100
AcDbEntity
  8
0
  6
Continuous
 62
     7
100
AcDbSpline
210
0.0
220
0.0
230
1.0
 70
  1080
 71
     3
 72
    15
 73
    11
 74
     9
 42
0.000000001
 43
0.0000000001
 44
0.00000001
 40
0.0
 40
0.0
 40
0.0
 40
0.0
 40
0.089502705741185
 40
0.1790054114823143
 40
0.419100324048154
 40
0.7467341190638201
 40
1.150558658554099
 40
1.611048703343058
 40
2.072120592133241
 40
2.549509756796393
 40
2.549509756796393
 40
2.549509756796393
 40
2.549509756796393
 10
-208.0000000000002
 20
407.5000000000002
 30
0.0
 10
-208.0058509749117
 20
407.470745125443
 30
0.0
 10
-208.0175529247346
 20
407.4122353763283
 30
0.0
 10
-208.0449503699975
 20
407.2752481500162
 30
0.0
 10
-208.0879149315549
 20
407.0604253422289
 30
0.0
 10
-208.1514273541875
 20
406.742863229068
 30
0.0
 10
-208.229347457331
 20
406.3532627133485
 30
0.0
 10
-208.3159906815518
 20
405.9200465922439
 30
0.0
 10
-208.4074429757631
 20
405.4627851211862
 30
0.0
 10
-208.4687920940233
 20
405.1560395298844
 30
0.0
 10
-208.5000000000002
 20
405.0000000000002
 30
0.0
 11
-208.0000000000002
 21
407.5000000000002
 31
0.0
 11
-208.0175529247347
 21
407.4122353763282
 31
0.0
 11
-208.0351058494691
 21
407.3244707526563
 31
0.0
 11
-208.0821923357878
 21
407.0890383210624
 31
0.0
 11
-208.1464466094071
 21
406.7677669529666
 31
0.0
 11
-208.2256431173657
 21
406.3717844131727
 31
0.0
 11
-208.3159526452193
 21
405.9202367739049
 31
0.0
 11
-208.4063762820696
 21
405.4681185896532
 31
0.0
 11
-208.5000000000002
 21
405.0000000000002
 31
0.0
  0
SPLINE
  5
3B8
330
9B
100
AcDbEntity
  8
0
  6
Continuous
 62
     7
100
AcDbSpline
210
0.0
220
0.0
230
1.0
 70
  1080
 71
     3
 72
    15
 73
    11
 74
     9
 42
0.000000001
 43
0.0000000001
 44
0.00000001
 40
0.0
 40
0.0
 40
0.0
 40
0.0
 40
0.0895027057413522
 40
0.1790054114826432
 40
0.4191003240487727
 40
0.7467341190645951
 40
1.150558658554545
 40
1.61104870334341
 40
2.072120592133308
 40
2.549509756796392
 40
2.549509756796392
 40
2.549509756796392
 40
2.549509756796392
 10
-208.0000000000002
 20
268.5000000000002
 30
0.0
 10
-208.0058509749117
 20
268.5292548745576
 30
0.0
 10
-208.0175529247347
 20
268.5877646236722
 30
0.0
 10
-208.0449503699974
 20
268.724751849985
 30
0.0
 10
-208.0879149315551
 20
268.9395746577721
 30
0.0
 10
-208.1514273541873
 20
269.2571367709333
 30
0.0
 10
-208.2293474573311
 20
269.6467372866524
 30
0.0
 10
-208.3159906815519
 20
270.0799534077568
 30
0.0
 10
-208.4074429757631
 20
270.5372148788144
 30
0.0
 10
-208.4687920940234
 20
270.843960470116
 30
0.0
 10
-208.5000000000002
 20
271.0000000000002
 30
0.0
 11
-208.0000000000002
 21
268.5000000000002
 31
0.0
 11
-208.0175529247347
 21
268.5877646236722
 31
0.0
 11
-208.0351058494691
 21
268.6755292473441
 31
0.0
 11
-208.0821923357878
 21
268.9109616789381
 31
0.0
 11
-208.1464466094071
 21
269.2322330470338
 31
0.0
 11
-208.2256431173657
 21
269.6282155868275
 31
0.0
 11
-208.3159526452193
 21
270.0797632260955
 31
0.0
 11
-208.4063762820696
 21
270.5318814103473
 31
0.0
 11
-208.5000000000002
 21
271.0000000000002
 31
0.0
  0
SPLINE
  5
3B9
330
9B
100
AcDbEntity
  8
0
  6
Continuous
 62
     7
100
AcDbSpline
210
0.0
220
0.0
230
1.0
 70
  1080
 71
     3
 72
    15
 73
    11
 74
     9
 42
0.000000001
 43
0.0000000001
 44
0.00000001
 40
0.0
 40
0.0
 40
0.0
 40
0.0
 40
0.0895027057412742
 40
0.1790054114825094
 40
0.4191003240484272
 40
0.7467341190640376
 40
1.150558658554256
 40
1.61104870334317
 40
2.072120592133263
 40
2.549509756796393
 40
2.549509756796393
 40
2.549509756796393
 40
2.549509756796393
 10
-206.0000000000002
 20
270.5000000000002
 30
0.0
 10
-206.0292548745575
 20
270.5058509749117
 30
0.0
 10
-206.0877646236721
 20
270.5175529247346
 30
0.0
 10
-206.2247518499847
 20
270.544950369997
 30
0.0
 10
-206.4395746577718
 20
270.5879149315546
 30
0.0
 10
-206.7571367709329
 20
270.6514273541868
 30
0.0
 10
-207.146737286652
 20
270.7293474573306
 30
0.0
 10
-207.5799534077567
 20
270.8159906815515
 30
0.0
 10
-208.0372148788143
 20
270.9074429757631
 30
0.0
 10
-208.3439604701159
 20
270.9687920940234
 30
0.0
 10
-208.5000000000002
 20
271.0000000000002
 30
0.0
 11
-206.0000000000002
 21
270.5000000000002
 31
0.0
 11
-206.0877646236723
 21
270.5175529247346
 31
0.0
 11
-206.1755292473442
 21
270.535105849469
 31
0.0
 11
-206.4109616789382
 21
270.5821923357878
 31
0.0
 11
-206.7322330470338
 21
270.646446609407
 31
0.0
 11
-207.1282155868277
 21
270.7256431173657
 31
0.0
 11
-207.5797632260956
 21
270.8159526452193
 31
0.0
 11
-208.0318814103474
 21
270.9063762820696
 31
0.0
 11
-208.5000000000002
 21
271.0000000000002
 31
0.0
  0
ENDBLK
  5
9D
330
9B
100
AcDbEntity
  8
0
100
AcDbBlockEnd
  0
BLOCK
  5
9F
330
9E
100
AcDbEntity
  8
0
100
AcDbBlockBegin
  2
Ring75-301020055__9
 70
     0
 10
-315.0824094491031
 20
292.6255913590758
 30
0.0
  3
Ring75-301020055__9
  1

  0
LINE
  5
3BA
330
9E
100
AcDbEntity
  8
0
  6
Continuous
 62
     7
100
AcDbLine
 10
-241.6942892616743
 20
313.5747865169697
 30
0.0
 11
-240.3855984405113
 21
312.8192135190852
 31
0.0
  0
LINE
  5
3BB
330
9E
100
AcDbEntity
  8
0
  6
Continuous
 62
     7
100
AcDbLine
 10
-235.3855984405114
 20
321.4794675569297
 30
0.0
 11
-236.6942892616744
 21
322.2350405548141
 31
0.0
  0
LINE
  5
3BC
330
9E
100
AcDbEntity
  8
0
  6
Continuous
 62
     7
100
AcDbLine
 10
-240.3855984405118
 20
363.1807864809158
 30
0.0
 11
-241.6942892616748
 21
362.4252134830313
 31
0.0
  0
LINE
  5
3BD
330
9E
100
AcDbEntity
  8
0
  6
Continuous
 62
     7
100
AcDbLine
 10
-236.6942892616748
 20
353.764959445187
 30
0.0
 11
-235.3855984405117
 21
354.5205324430715
 31
0.0
  0
LINE
  5
3BE
330
9E
100
AcDbEntity
  8
0
  6
Continuous
 62
     7
100
AcDbLine
 10
-269.0000000000002
 20
378.1901729282174
 30
0.0
 11
-269.0000000000002
 21
379.7013189239863
 31
0.0
  0
LINE
  5
3BF
330
9E
100
AcDbEntity
  8
0
  6
Continuous
 62
     7
100
AcDbLine
 10
-268.9999999999999
 20
296.2986810760141
 30
0.0
 11
-268.9999999999999
 21
297.8098270717831
 31
0.0
  0
LINE
  5
3C0
330
9E
100
AcDbEntity
  8
0
  6
Continuous
 62
     7
100
AcDbLine
 10
-278.9999999999999
 20
297.809827071783
 30
0.0
 11
-278.9999999999999
 21
296.2986810760141
 31
0.0
  0
LINE
  5
3C1
330
9E
100
AcDbEntity
  8
0
  6
Continuous
 62
     7
100
AcDbLine
 10
-311.3057107383258
 20
322.2350405548136
 30
0.0
 11
-312.6144015594888
 21
321.4794675569291
 31
0.0
  0
LINE
  5
3C2
330
9E
100
AcDbEntity
  8
0
  6
Continuous
 62
     7
100
AcDbLine
 10
-307.6144015594888
 20
312.8192135190848
 30
0.0
 11
-306.3057107383258
 21
313.5747865169693
 31
0.0
  0
LINE
  5
3C3
330
9E
100
AcDbEntity
  8
0
  6
Continuous
 62
     7
100
AcDbLine
 10
-279.0000000000002
 20
379.7013189239863
 30
0.0
 11
-279.0000000000002
 21
378.1901729282174
 31
0.0
  0
LINE
  5
3C4
330
9E
100
AcDbEntity
  8
0
  6
Continuous
 62
     7
100
AcDbLine
 10
-312.6144015594891
 20
354.5205324430709
 30
0.0
 11
-311.3057107383261
 21
353.7649594451865
 31
0.0
  0
LINE
  5
3C5
330
9E
100
AcDbEntity
  8
0
  6
Continuous
 62
     7
100
AcDbLine
 10
-306.3057107383261
 20
362.4252134830309
 30
0.0
 11
-307.6144015594891
 21
363.1807864809153
 31
0.0
  0
ARC
  5
3C6
330
9E
100
AcDbEntity
  8
0
  6
Continuous
 62
     7
100
AcDbCircle
 10
-271.0000000000002
 20
381.3964284244685
 30
0.0
 40
2.000000000000017
100
AcDbArc
 50
26.75177062608418
 51
81.49002227780862
  0
ARC
  5
3C7
330
9E
100
AcDbEntity
  8
0
  6
Continuous
 62
     7
100
AcDbCircle
 10
-274.0000000000002
 20
338.0000000000002
 30
0.0
 40
40.50000000000002
100
AcDbArc
 50
337.0916460843941
 51
0.0
  0
ARC
  5
3C8
330
9E
100
AcDbEntity
  8
0
  6
Continuous
 62
     7
100
AcDbCircle
 10
-234.9175905508974
 20
318.8998619991197
 30
0.0
 40
1.999999999999909
100
AcDbArc
 50
333.9545721220894
 51
32.80010142660744
  0
ARC
  5
3C9
330
9E
100
AcDbEntity
  8
0
  6
Continuous
 62
     7
100
AcDbCircle
 10
-274.0000000000002
 20
338.0000000000002
 30
0.0
 40
45.50000000000001
100
AcDbArc
 50
328.1516284958749
 51
333.9545721220912
  0
ARC
  5
3CA
330
9E
100
AcDbEntity
  8
0
  6
Continuous
 62
     7
100
AcDbCircle
 10
-274.0000000000002
 20
338.0000000000002
 30
0.0
 40
40.50000000000004
100
AcDbArc
 50
322.9083539156067
 51
337.0916460843941
  0
ARC
  5
3CB
330
9E
100
AcDbEntity
  8
0
  6
Continuous
 62
     7
100
AcDbCircle
 10
-274.0000000000002
 20
338.0000000000002
 30
0.0
 40
45.49999999999991
100
AcDbArc
 50
26.04542787790983
 51
31.84837069452689
  0
ARC
  5
3CC
330
9E
100
AcDbEntity
  8
0
  6
Continuous
 62
     7
100
AcDbCircle
 10
-234.9175905508978
 20
357.1001380008814
 30
0.0
 40
1.999999999999921
100
AcDbArc
 50
327.1998835251137
 51
26.04542787791316
  0
ARC
  5
3CD
330
9E
100
AcDbEntity
  8
0
  6
Continuous
 62
     7
100
AcDbCircle
 10
-274.0000000000002
 20
338.0000000000002
 30
0.0
 40
40.4999999999999
100
AcDbArc
 50
22.9083539156069
 51
37.09164608439433
  0
ARC
  5
3CE
330
9E
100
AcDbEntity
  8
0
  6
Continuous
 62
     7
100
AcDbCircle
 10
-274.0000000000002
 20
338.0000000000002
 30
0.0
 40
40.50000000000003
100
AcDbArc
 50
0.0
 51
22.9083539156069
  0
ARC
  5
3CF
330
9E
100
AcDbEntity
  8
0
  6
Continuous
 62
     7
100
AcDbCircle
 10
-274.0000000000002
 20
338.0000000000002
 30
0.0
 40
40.49999999999997
100
AcDbArc
 50
37.09164608439433
 51
82.90835391560627
  0
ARC
  5
3D0
330
9E
100
AcDbEntity
  8
0
  6
Continuous
 62
     7
100
AcDbCircle
 10
-270.9999999999999
 20
294.6035715755319
 30
0.0
 40
2.000000000000017
100
AcDbArc
 50
278.5099872900066
 51
333.248194508557
  0
ARC
  5
3D1
330
9E
100
AcDbEntity
  8
0
  6
Continuous
 62
     7
100
AcDbCircle
 10
-276.9999999999999
 20
294.6035715755319
 30
0.0
 40
2.000000000000017
100
AcDbArc
 50
206.7517706260842
 51
261.4900222777971
  0
ARC
  5
3D2
330
9E
100
AcDbEntity
  8
0
  6
Continuous
 62
     7
100
AcDbCircle
 10
-274.0000000000002
 20
338.0000000000002
 30
0.0
 40
40.49999999999996
100
AcDbArc
 50
202.9083539156066
 51
217.091646084394
  0
ARC
  5
3D3
330
9E
100
AcDbEntity
  8
0
  6
Continuous
 62
     7
100
AcDbCircle
 10
-313.0824094491028
 20
318.8998619991191
 30
0.0
 40
2.000000000000139
100
AcDbArc
 50
147.19988352511
 51
206.0454278779044
  0
ARC
  5
3D4
330
9E
100
AcDbEntity
  8
0
  6
Continuous
 62
     7
100
AcDbCircle
 10
-274.0000000000002
 20
338.0000000000002
 30
0.0
 40
45.50000000000014
100
AcDbArc
 50
206.0454278779094
 51
211.8483706945269
  0
ARC
  5
3D5
330
9E
100
AcDbEntity
  8
0
  6
Continuous
 62
     7
100
AcDbCircle
 10
-274.0000000000002
 20
338.0000000000002
 30
0.0
 40
40.50000000000001
100
AcDbArc
 50
97.09164608439376
 51
142.9083539156065
  0
ARC
  5
3D6
330
9E
100
AcDbEntity
  8
0
  6
Continuous
 62
     7
100
AcDbCircle
 10
-277.0000000000002
 20
381.3964284244685
 30
0.0
 40
1.999999999999997
100
AcDbArc
 50
98.50998729002481
 51
153.2481945085534
  0
ARC
  5
3D7
330
9E
100
AcDbEntity
  8
0
  6
Continuous
 62
     7
100
AcDbCircle
 10
-274.0000000000002
 20
338.0000000000002
 30
0.0
 40
40.49999999999999
100
AcDbArc
 50
217.091646084394
 51
262.9083539156068
  0
ARC
  5
3D8
330
9E
100
AcDbEntity
  8
0
  6
Continuous
 62
     7
100
AcDbCircle
 10
-274.0000000000002
 20
338.0000000000002
 30
0.0
 40
40.50000000000015
100
AcDbArc
 50
157.091646084394
 51
202.9083539156066
  0
ARC
  5
3D9
330
9E
100
AcDbEntity
  8
0
  6
Continuous
 62
     7
100
AcDbCircle
 10
-313.0824094491031
 20
357.1001380008809
 30
0.0
 40
1.999999999999858
100
AcDbArc
 50
153.9545721220905
 51
212.8001014266051
  0
ARC
  5
3DA
330
9E
100
AcDbEntity
  8
0
  6
Continuous
 62
     7
100
AcDbCircle
 10
-274.0000000000002
 20
338.0000000000002
 30
0.0
 40
45.5
100
AcDbArc
 50
148.151628495875
 51
153.9545721220911
  0
ARC
  5
3DB
330
9E
100
AcDbEntity
  8
0
  6
Continuous
 62
     7
100
AcDbCircle
 10
-274.0000000000002
 20
338.0000000000002
 30
0.0
 40
40.50000000000012
100
AcDbArc
 50
142.9083539156065
 51
157.091646084394
  0
ARC
  5
3DC
330
9E
100
AcDbEntity
  8
0
  6
Continuous
 62
     7
100
AcDbCircle
 10
-274.0000000000002
 20
338.0000000000002
 30
0.0
 40
40.50000000000001
100
AcDbArc
 50
82.90835391560627
 51
97.09164608439376
  0
ARC
  5
3DD
330
9E
100
AcDbEntity
  8
0
  6
Continuous
 62
     7
100
AcDbCircle
 10
-274.0000000000002
 20
338.0000000000002
 30
0.0
 40
40.50000000000003
100
AcDbArc
 50
262.9083539156068
 51
277.0916460843943
  0
ARC
  5
3DE
330
9E
100
AcDbEntity
  8
0
  6
Continuous
 62
     7
100
AcDbCircle
 10
-274.0000000000002
 20
338.0000000000002
 30
0.0
 40
40.5
100
AcDbArc
 50
277.0916460843943
 51
322.9083539156067
  0
CIRCLE
  5
3DF
330
9E
100
AcDbEntity
  8
0
  6
Continuous
 62
     7
100
AcDbCircle
 10
-274.0000000000002
 20
338.0000000000002
 30
0.0
 40
37.75
  0
ENDBLK
  5
A0
330
9E
100
AcDbEntity
  8
0
100
AcDbBlockEnd
  0
BLOCK
  5
A2
330
A1
100
AcDbEntity
  8
0
100
AcDbBlockBegin
  2
Ring50-301020054
 70
     0
 10
-311.0000000000002
 20
301.0000000000002
 30
0.0
  3
Ring50-301020054
  1

  0
CIRCLE
  5
3E0
330
A1
100
AcDbEntity
  8
0
  6
Continuous
 62
     7
100
AcDbCircle
 10
-274.0000000000002
 20
338.0000000000002
 30
0.0
 40
37.00000000000003
  0
CIRCLE
  5
3E1
330
A1
100
AcDbEntity
  8
0
  6
Continuous
 62
     7
100
AcDbCircle
 10
-274.0000000000002
 20
338.0000000000002
 30
0.0
 40
28.5
  0
CIRCLE
  5
3E2
330
A1
100
AcDbEntity
  8
0
  6
Continuous
 62
     7
100
AcDbCircle
 10
-274.0000000000002
 20
338.0000000000002
 30
0.0
 40
22.25000000000003
  0
ENDBLK
  5
A3
330
A1
100
AcDbEntity
  8
0
100
AcDbBlockEnd
  0
BLOCK
  5
AA
330
A4
100
AcDbEntity
  8
0
100
AcDbBlockBegin
  2
HL39D-WEB-Zeichnung__10
 70
     0
 10
-348.0000000000002
 20
263.9999999999998
 30
0.0
  3
HL39D-WEB-Zeichnung__10
  1

  0
INSERT
  5
A5
330
A4
100
AcDbEntity
  8
0
100
AcDbBlockReference
  2
Rost-301020056__6
 10
-342.0000000000002
 20
268.4999999999998
 30
0.0
  0
INSERT
  5
A6
330
A4
100
AcDbEntity
  8
0
100
AcDbBlockReference
  2
Aufsatz-150x150-309701876__7
 10
-348.0000000000002
 20
263.9999999999998
 30
0.0
  0
INSERT
  5
A7
330
A4
100
AcDbEntity
  8
0
100
AcDbBlockReference
  2
Rost-301020056_1__8
 10
-274.0000000000002
 20
268.4999999999998
 30
0.0
  0
INSERT
  5
A8
330
A4
100
AcDbEntity
  8
0
100
AcDbBlockReference
  2
Ring75-301020055__9
 10
-315.0824094491031
 20
292.6255913590758
 30
0.0
  0
INSERT
  5
A9
330
A4
100
AcDbEntity
  8
0
100
AcDbBlockReference
  2
Ring50-301020054
 10
-311.0000000000002
 20
301.0000000000002
 30
0.0
  0
ENDBLK
  5
AB
330
A4
100
AcDbEntity
  8
0
100
AcDbBlockEnd
  0
BLOCK
  5
AE
330
AC
100
AcDbEntity
  8
0
100
AcDbBlockBegin
  2
Vordans2
 70
     0
 10
-274.0000000000002
 20
338.0
 30
0.0
  3
Vordans2
  1

  0
INSERT
  5
AD
330
AC
100
AcDbEntity
  8
0
100
AcDbBlockReference
  2
HL39D-WEB-Zeichnung__10
 10
-348.0000000000002
 20
263.9999999999998
 30
0.0
  0
MTEXT
  5
3E3
330
AC
100
AcDbEntity
  8
1
 62
     1
100
AcDbMText
 10
-274.0
 20
259.0
 30
0.0
 40
3.5
 41
0.0
 71
     2
 72
     1
  1
 
  7
CONVERTER_11
 73
     1
 44
1.32052821128451
  0
ENDBLK
  5
AF
330
AC
100
AcDbEntity
  8
0
100
AcDbBlockEnd
  0
BLOCK
  5
226
330
21F
100
AcDbEntity
  8
0
100
AcDbBlockBegin
  2
*D16
 70
     1
 10
0.0
 20
0.0
 30
0.0
  3
*D16
  1

  0
LINE
  5
220
330
21F
100
AcDbEntity
  8
1
  6
Continuous
 62
     4
100
AcDbLine
 10
-219.0000000000006
 20
460.4728749444038
 30
0.0
 11
-329.0000000000002
 21
460.4728749444038
 31
0.0
  0
LINE
  5
221
330
21F
100
AcDbEntity
  8
1
  6
Continuous
 62
     4
100
AcDbLine
 10
-329.0000000000002
 20
476.2500000024646
 30
0.0
 11
-329.0000000000002
 21
458.4728749444038
 31
0.0
  0
LINE
  5
222
330
21F
100
AcDbEntity
  8
1
  6
Continuous
 62
     4
100
AcDbLine
 10
-219.0000000000006
 20
476.2500000024642
 30
0.0
 11
-219.0000000000006
 21
458.4728749444038
 31
0.0
  0
SOLID
  5
223
330
21F
100
AcDbEntity
  8
1
 62
     4
100
AcDbTrace
 10
-224.0000000000006
 20
459.8146124564669
 30
0.0
 11
-224.0000000000006
 21
461.1311374323408
 31
0.0
 12
-219.0000000000006
 22
460.4728749444038
 32
0.0
 13
-219.0000000000006
 23
460.4728749444038
 33
0.0
  0
SOLID
  5
224
330
21F
100
AcDbEntity
  8
1
 62
     4
100
AcDbTrace
 10
-324.0000000000002
 20
461.1311374323408
 30
0.0
 11
-324.0000000000002
 21
459.8146124564669
 31
0.0
 12
-329.0000000000002
 22
460.4728749444038
 32
0.0
 13
-329.0000000000002
 23
460.4728749444038
 33
0.0
  0
MTEXT
  5
225
330
21F
100
AcDbEntity
  8
1
 62
     1
100
AcDbMText
 10
-297.3681739531029
 20
462.4728550670429
 30
0.0
 40
5.0
 41
0.0
 71
     7
 72
     1
  1
\C1;DN\C1;110
  7
CONVERTER_11
 11
0.9999999999970619
 21
2.424068405545306E-6
 31
0.0
 73
     1
 44
0.60024009603842
  0
ENDBLK
  5
227
330
21F
100
AcDbEntity
  8
0
100
AcDbBlockEnd
  0
BLOCK
  5
231
330
22A
100
AcDbEntity
  8
0
100
AcDbBlockBegin
  2
*D17
 70
     1
 10
0.0
 20
0.0
 30
0.0
  3
*D17
  1

  0
LINE
  5
22B
330
22A
100
AcDbEntity
  8
1
  6
Continuous
 62
     4
100
AcDbLine
 10
-175.647982958917
 20
602.7500000024639
 30
0.0
 11
-175.647982958917
 21
475.2500000024641
 31
0.0
  0
LINE
  5
22C
330
22A
100
AcDbEntity
  8
1
  6
Continuous
 62
     4
100
AcDbLine
 10
-220.0000000000005
 20
475.2500000024641
 30
0.0
 11
-173.647982958917
 21
475.2500000024641
 31
0.0
  0
LINE
  5
22D
330
22A
100
AcDbEntity
  8
1
  6
Continuous
 62
     4
100
AcDbLine
 10
-201.5
 20
602.7500000024639
 30
0.0
 11
-173.647982958917
 21
602.7500000024639
 31
0.0
  0
SOLID
  5
22E
330
22A
100
AcDbEntity
  8
1
 62
     4
100
AcDbTrace
 10
-174.98972047098
 20
597.7500000024639
 30
0.0
 11
-176.306245446854
 21
597.7500000024639
 31
0.0
 12
-175.647982958917
 22
602.7500000024639
 32
0.0
 13
-175.647982958917
 23
602.7500000024639
 33
0.0
  0
SOLID
  5
22F
330
22A
100
AcDbEntity
  8
1
 62
     4
100
AcDbTrace
 10
-176.306245446854
 20
480.2500000024641
 30
0.0
 11
-174.98972047098
 21
480.2500000024641
 31
0.0
 12
-175.647982958917
 22
475.2500000024641
 32
0.0
 13
-175.647982958917
 23
475.2500000024641
 33
0.0
  0
MTEXT
  5
230
330
22A
100
AcDbEntity
  8
1
 62
     1
100
AcDbMText
 10
-177.647982958917
 20
534.592377748967
 30
0.0
 40
5.0
 41
0.0
 71
     7
 72
     1
  1
\C1;\C1;128
  7
CONVERTER_11
 11
0.0
 21
1.0
 31
0.0
 73
     1
 44
0.60024009603842
  0
ENDBLK
  5
232
330
22A
100
AcDbEntity
  8
0
100
AcDbBlockEnd
  0
BLOCK
  5
23D
330
235
100
AcDbEntity
  8
0
100
AcDbBlockBegin
  2
*D18
 70
     1
 10
0.0
 20
0.0
 30
0.0
  3
*D18
  1

  0
LINE
  5
236
330
235
100
AcDbEntity
  8
1
  6
Continuous
 62
     4
100
AcDbLine
 10
-188.119751601217
 20
602.7500000024639
 30
0.0
 11
-188.119751601217
 21
615.660579240348
 31
0.0
  0
LINE
  5
237
330
235
100
AcDbEntity
  8
1
  6
Continuous
 62
     4
100
AcDbLine
 10
-188.119751601217
 20
588.2500000024639
 30
0.0
 11
-188.119751601217
 21
602.7500000024639
 31
0.0
  0
LINE
  5
238
330
235
100
AcDbEntity
  8
1
  6
Continuous
 62
     4
100
AcDbLine
 10
-201.5
 20
602.7500000024639
 30
0.0
 11
-186.119751601217
 21
602.7500000024639
 31
0.0
  0
LINE
  5
239
330
235
100
AcDbEntity
  8
1
  6
Continuous
 62
     4
100
AcDbLine
 10
-208.0
 20
588.2500000024639
 30
0.0
 11
-186.119751601217
 21
588.2500000024639
 31
0.0
  0
SOLID
  5
23A
330
235
100
AcDbEntity
  8
1
 62
     4
100
AcDbTrace
 10
-188.778014089154
 20
593.2500000024639
 30
0.0
 11
-187.46148911328
 21
593.2500000024639
 31
0.0
 12
-188.119751601217
 22
588.2500000024639
 32
0.0
 13
-188.119751601217
 23
588.2500000024639
 33
0.0
  0
SOLID
  5
23B
330
235
100
AcDbEntity
  8
1
 62
     4
100
AcDbTrace
 10
-187.46148911328
 20
597.7500000024639
 30
0.0
 11
-188.778014089154
 21
597.7500000024639
 31
0.0
 12
-188.119751601217
 22
602.7500000024639
 32
0.0
 13
-188.119751601217
 23
602.7500000024639
 33
0.0
  0
MTEXT
  5
23C
330
235
100
AcDbEntity
  8
1
 62
     1
100
AcDbMText
 10
-190.119751601217
 20
609.660579240348
 30
0.0
 40
5.0
 41
0.0
 71
     7
 72
     1
  1
14
  7
CONVERTER_11
 11
0.0
 21
1.0
 31
0.0
 73
     1
 44
0.60024009603842
  0
ENDBLK
  5
23E
330
235
100
AcDbEntity
  8
0
100
AcDbBlockEnd
  0
BLOCK
  5
248
330
241
100
AcDbEntity
  8
0
100
AcDbBlockBegin
  2
*D19
 70
     1
 10
0.0
 20
0.0
 30
0.0
  3
*D19
  1

  0
LINE
  5
242
330
241
100
AcDbEntity
  8
1
  6
Continuous
 62
     4
100
AcDbLine
 10
-348.0
 20
647.068486305072
 30
0.0
 11
-200.0
 21
647.068486305072
 31
0.0
  0
LINE
  5
243
330
241
100
AcDbEntity
  8
1
  6
Continuous
 62
     4
100
AcDbLine
 10
-200.0
 20
590.7500000024639
 30
0.0
 11
-200.0
 21
649.068486305072
 31
0.0
  0
LINE
  5
244
330
241
100
AcDbEntity
  8
1
  6
Continuous
 62
     4
100
AcDbLine
 10
-348.0
 20
590.7500000024645
 30
0.0
 11
-348.0
 21
649.068486305072
 31
0.0
  0
SOLID
  5
245
330
241
100
AcDbEntity
  8
1
 62
     4
100
AcDbTrace
 10
-343.0
 20
647.726748793009
 30
0.0
 11
-343.0
 21
646.410223817135
 31
0.0
 12
-348.0
 22
647.068486305072
 32
0.0
 13
-348.0
 23
647.068486305072
 33
0.0
  0
SOLID
  5
246
330
241
100
AcDbEntity
  8
1
 62
     4
100
AcDbTrace
 10
-205.0
 20
646.410223817135
 30
0.0
 11
-205.0
 21
647.726748793009
 31
0.0
 12
-200.0
 22
647.068486305072
 32
0.0
 13
-200.0
 23
647.068486305072
 33
0.0
  0
MTEXT
  5
247
330
241
100
AcDbEntity
  8
1
 62
     1
100
AcDbMText
 10
-281.675995771868
 20
649.068486305072
 30
0.0
 40
5.0
 41
0.0
 71
     7
 72
     1
  1
\C1;150\C1;x150
  7
CONVERTER_11
 11
0.9999999999970619
 21
2.424068405545306E-6
 31
0.0
 73
     1
 44
0.60024009603842
  0
ENDBLK
  5
249
330
241
100
AcDbEntity
  8
0
100
AcDbBlockEnd
  0
BLOCK
  5
253
330
24C
100
AcDbEntity
  8
0
100
AcDbBlockBegin
  2
*D20
 70
     1
 10
0.0
 20
0.0
 30
0.0
  3
*D20
  1

  0
LINE
  5
24D
330
24C
100
AcDbEntity
  8
1
  6
Continuous
 62
     4
100
AcDbLine
 10
-311.5000025050088
 20
635.814438141822
 30
0.0
 11
-236.5000025050088
 21
635.814438141822
 31
0.0
  0
LINE
  5
24E
330
24C
100
AcDbEntity
  8
1
  6
Continuous
 62
     4
100
AcDbLine
 10
-236.5000025050088
 20
613.7500000024642
 30
0.0
 11
-236.5000025050088
 21
637.814438141822
 31
0.0
  0
LINE
  5
24F
330
24C
100
AcDbEntity
  8
1
  6
Continuous
 62
     4
100
AcDbLine
 10
-311.5000025050088
 20
613.7500000024646
 30
0.0
 11
-311.5000025050088
 21
637.814438141822
 31
0.0
  0
SOLID
  5
250
330
24C
100
AcDbEntity
  8
1
 62
     4
100
AcDbTrace
 10
-306.5000025050088
 20
636.4727006297591
 30
0.0
 11
-306.5000025050088
 21
635.156175653885
 31
0.0
 12
-311.5000025050088
 22
635.814438141822
 32
0.0
 13
-311.5000025050088
 23
635.814438141822
 33
0.0
  0
SOLID
  5
251
330
24C
100
AcDbEntity
  8
1
 62
     4
100
AcDbTrace
 10
-241.5000025050088
 20
635.156175653885
 30
0.0
 11
-241.5000025050088
 21
636.4727006297591
 31
0.0
 12
-236.5000025050088
 22
635.814438141822
 32
0.0
 13
-236.5000025050088
 23
635.814438141822
 33
0.0
  0
MTEXT
  5
252
330
24C
100
AcDbEntity
  8
1
 62
     1
100
AcDbMText
 10
-286.042407435392
 20
637.8144282031416
 30
0.0
 40
5.0
 41
0.0
 71
     7
 72
     1
  1
\C1;{\Fgdt;n}\C1;75
  7
CONVERTER_11
 11
0.9999999999970619
 21
2.424068405545306E-6
 31
0.0
 73
     1
 44
0.60024009603842
  0
ENDBLK
  5
254
330
24C
100
AcDbEntity
  8
0
100
AcDbBlockEnd
  0
BLOCK
  5
25E
330
257
100
AcDbEntity
  8
0
100
AcDbBlockBegin
  2
*D21
 70
     1
 10
0.0
 20
0.0
 30
0.0
  3
*D21
  1

  0
LINE
  5
258
330
257
100
AcDbEntity
  8
1
  6
Continuous
 62
     4
100
AcDbLine
 10
-302.5000025050088
 20
624.732850421761
 30
0.0
 11
-245.5000025050088
 21
624.732850421761
 31
0.0
  0
LINE
  5
259
330
257
100
AcDbEntity
  8
1
  6
Continuous
 62
     4
100
AcDbLine
 10
-245.5000025050088
 20
613.7500000024642
 30
0.0
 11
-245.5000025050088
 21
626.732850421761
 31
0.0
  0
LINE
  5
25A
330
257
100
AcDbEntity
  8
1
  6
Continuous
 62
     4
100
AcDbLine
 10
-302.5000025050088
 20
613.7500000024646
 30
0.0
 11
-302.5000025050088
 21
626.732850421761
 31
0.0
  0
SOLID
  5
25B
330
257
100
AcDbEntity
  8
1
 62
     4
100
AcDbTrace
 10
-297.5000025050088
 20
625.391112909698
 30
0.0
 11
-297.5000025050088
 21
624.074587933824
 31
0.0
 12
-302.5000025050088
 22
624.732850421761
 32
0.0
 13
-302.5000025050088
 23
624.732850421761
 33
0.0
  0
SOLID
  5
25C
330
257
100
AcDbEntity
  8
1
 62
     4
100
AcDbTrace
 10
-250.5000025050088
 20
624.074587933824
 30
0.0
 11
-250.5000025050088
 21
625.391112909698
 31
0.0
 12
-245.5000025050088
 22
624.732850421761
 32
0.0
 13
-245.5000025050088
 23
624.732850421761
 33
0.0
  0
MTEXT
  5
25D
330
257
100
AcDbEntity
  8
1
 62
     1
100
AcDbMText
 10
-270.303650021577
 20
626.7328404830805
 30
0.0
 40
5.0
 41
0.0
 71
     7
 72
     1
  1
\C1;{\Fgdt;n}\C1;57
  7
CONVERTER_11
 11
0.9999999999970619
 21
2.424068405545306E-6
 31
0.0
 73
     1
 44
0.60024009603842
  0
ENDBLK
  5
25F
330
257
100
AcDbEntity
  8
0
100
AcDbBlockEnd
  0
ENDSEC
  0
SECTION
  2
ENTITIES
  0
INSERT
  5
B0
330
1F
100
AcDbEntity
  8
0
100
AcDbBlockReference
  2
Untsicht1
 10
-274.0
 20
542.0000000012301
 30
0.0
  0
INSERT
  5
B1
330
1F
100
AcDbEntity
  8
0
100
AcDbBlockReference
  2
Vordans2
 10
-274.0000000000002
 20
338.0
 30
0.0
  0
ENDSEC
  0
SECTION
  2
OBJECTS
  0
DICTIONARY
  5
C
330
0
100
AcDbDictionary
281
     1
  3
ACAD_GROUP
350
D
  3
ACAD_LAYOUT
350
1A
  3
ACAD_MATERIAL
350
43
  3
ACAD_MLEADERSTYLE
350
6B
  3
ACAD_MLINESTYLE
350
17
  3
ACAD_PLOTSETTINGS
350
19
  3
ACAD_PLOTSTYLENAME
350
E
  3
ACAD_SCALELIST
350
47
  3
ACAD_TABLESTYLE
350
69
  3
ACAD_VISUALSTYLE
350
2A
  3
AcDbVariableDictionary
350
3E4
  0
DICTIONARY
  5
3EB
330
8
100
AcDbDictionary
280
     1
281
     1
  3
ACAD_XREC_ROUNDTRIP
360
3EC
  0
DICTIONARY
  5
D
102
{ACAD_REACTORS
330
C
102
}
330
C
100
AcDbDictionary
281
     1
  0
DICTIONARY
  5
1A
102
{ACAD_REACTORS
330
C
102
}
330
C
100
AcDbDictionary
281
     1
  3
Layout1
350
1E
  3
Layout2
350
26
  3
Model
350
22
  0
DICTIONARY
  5
43
102
{ACAD_REACTORS
330
C
102
}
330
C
100
AcDbDictionary
281
     1
  3
ByBlock
350
45
  3
ByLayer
350
44
  3
Global
350
46
  0
DICTIONARY
  5
6B
102
{ACAD_REACTORS
330
C
102
}
330
C
100
AcDbDictionary
281
     1
  3
Standard
350
6C
  0
DICTIONARY
  5
17
102
{ACAD_REACTORS
330
C
102
}
330
C
100
AcDbDictionary
281
     1
  3
Standard
350
18
  0
DICTIONARY
  5
19
102
{ACAD_REACTORS
330
C
102
}
330
C
100
AcDbDictionary
281
     1
  0
ACDBDICTIONARYWDFLT
  5
E
102
{ACAD_REACTORS
330
C
102
}
330
C
100
AcDbDictionary
281
     1
  3
Normal
350
F
100
AcDbDictionaryWithDefault
340
F
  0
DICTIONARY
  5
47
102
{ACAD_REACTORS
330
C
102
}
330
C
100
AcDbDictionary
281
     1
  3
A0
350
48
  3
A1
350
49
  3
A2
350
4A
  3
A3
350
4B
  3
A4
350
4C
  3
A5
350
4D
  3
A6
350
4E
  3
A7
350
4F
  3
A8
350
50
  3
A9
350
51
  3
B0
350
52
  3
B1
350
53
  3
B2
350
54
  3
B3
350
55
  3
B4
350
56
  3
B5
350
57
  3
B6
350
58
  3
B7
350
59
  3
B8
350
5A
  3
B9
350
5B
  3
C0
350
5C
  3
C1
350
5D
  3
C2
350
5E
  3
C3
350
5F
  3
C4
350
60
  3
C5
350
61
  3
C6
350
62
  3
C7
350
63
  3
C8
350
64
  3
C9
350
65
  3
D0
350
66
  3
D1
350
67
  3
D2
350
68
  0
DICTIONARY
  5
69
102
{ACAD_REACTORS
330
C
102
}
330
C
100
AcDbDictionary
281
     1
  3
Standard
350
6A
  0
DICTIONARY
  5
2A
102
{ACAD_REACTORS
330
C
102
}
330
C
100
AcDbDictionary
281
     1
  3
2dWireframe
350
2F
  3
Basic
350
32
  3
Brighten
350
36
  3
ColorChange
350
3A
  3
Conceptual
350
34
  3
Dim
350
35
  3
EdgeColorOff
350
3D
  3
Facepattern
350
39
  3
Flat
350
2B
  3
FlatWithEdges
350
2C
  3
Gouraud
350
2D
  3
GouraudWithEdges
350
2E
  3
Hidden
350
31
  3
JitterOff
350
3B
  3
Linepattern
350
38
  3
OverhangOff
350
3C
  3
Realistic
350
33
  3
Shaded
350
42
  3
Shaded with edges
350
41
  3
Shades of Gray
350
3E
  3
Sketchy
350
3F
  3
Thicken
350
37
  3
Wireframe
350
30
  3
X-Ray
350
40
  0
DICTIONARY
  5
3E4
102
{ACAD_REACTORS
330
C
102
}
330
C
100
AcDbDictionary
281
     1
  3
CANNOSCALE
350
3ED
  3
CMLEADERSTYLE
350
3E6
  3
CTABLESTYLE
350
3E5
  3
DIMASSOC
350
3E9
  3
HIDETEXT
350
3EA
  3
MSLTSCALE
350
3EE
  0
XRECORD
  5
3EC
102
{ACAD_REACTORS
330
3EB
102
}
330
3EB
100
AcDbXrecord
280
     1
102
VTR_0.000_0.000_1.000_1.000_VISUALSTYLE
340
2F
102
VTR_0.000_0.000_1.000_1.000_GRIDDISPLAY
 70
     3
102
VTR_0.000_0.000_1.000_1.000_GRIDMAJOR
 70
     5
102
VTR_0.000_0.000_1.000_1.000_DEFAULTLIGHTING
280
     1
102
VTR_0.000_0.000_1.000_1.000_DEFAULTLIGHTINGTYPE
 70
     1
102
VTR_0.000_0.000_1.000_1.000_BRIGHTNESS
141
0.0
102
VTR_0.000_0.000_1.000_1.000_CONTRAST
142
0.0
  0
LAYOUT
  5
1E
102
{ACAD_REACTORS
330
1A
102
}
330
1A
100
AcDbPlotSettings
  1

  2
none_device
  4

  6

 40
0.0
 41
0.0
 42
0.0
 43
0.0
 44
0.0
 45
0.0
 46
0.0
 47
0.0
 48
0.0
 49
0.0
140
0.0
141
0.0
142
1.0
143
1.0
 70
   688
 72
     0
 73
     0
 74
     5
  7

 75
    16
147
1.0
148
0.0
149
0.0
100
AcDbLayout
  1
Layout1
 70
     1
 71
     1
 10
0.0
 20
0.0
 11
12.0
 21
9.0
 12
0.0
 22
0.0
 32
0.0
 14
1.00000000000000E+20
 24
1.00000000000000E+20
 34
1.00000000000000E+20
 15
-1.00000000000000E+20
 25
-1.00000000000000E+20
 35
-1.00000000000000E+20
146
0.0
 13
0.0
 23
0.0
 33
0.0
 16
1.0
 26
0.0
 36
0.0
 17
0.0
 27
1.0
 37
0.0
 76
     0
330
1B
  0
LAYOUT
  5
26
102
{ACAD_REACTORS
330
1A
102
}
330
1A
100
AcDbPlotSettings
  1

  2
none_device
  4

  6

 40
0.0
 41
0.0
 42
0.0
 43
0.0
 44
0.0
 45
0.0
 46
0.0
 47
0.0
 48
0.0
 49
0.0
140
0.0
141
0.0
142
1.0
143
1.0
 70
   688
 72
     0
 73
     0
 74
     5
  7

 75
    16
147
1.0
148
0.0
149
0.0
100
AcDbLayout
  1
Layout2
 70
     1
 71
     2
 10
0.0
 20
0.0
 11
0.0
 21
0.0
 12
0.0
 22
0.0
 32
0.0
 14
0.0
 24
0.0
 34
0.0
 15
0.0
 25
0.0
 35
0.0
146
0.0
 13
0.0
 23
0.0
 33
0.0
 16
1.0
 26
0.0
 36
0.0
 17
0.0
 27
1.0
 37
0.0
 76
     0
330
23
  0
LAYOUT
  5
22
102
{ACAD_REACTORS
330
1A
102
}
330
1A
100
AcDbPlotSettings
  1

  2
none_device
  4
Letter_(8.50_x_11.00_Inches)
  6

 40
6.35
 41
6.35
 42
6.35000508
 43
6.35000508
 44
215.9
 45
279.4
 46
0.0
 47
0.0
 48
0.0
 49
0.0
140
0.0
141
0.0
142
1.0
143
1.0
 70
  1712
 72
     0
 73
     0
 74
     0
  7

 75
     0
147
1.0
148
0.0
149
0.0
100
AcDbLayout
  1
Model
 70
     1
 71
     0
 10
0.0
 20
0.0
 11
12.0
 21
9.0
 12
0.0
 22
0.0
 32
0.0
 14
-351.7882186318452
 24
255.5
 34
0.0
 15
-173.647982958917
 25
654.068486305072
 35
0.0
146
0.0
 13
0.0
 23
0.0
 33
0.0
 16
1.0
 26
0.0
 36
0.0
 17
0.0
 27
1.0
 37
0.0
 76
     0
330
1F
331
29
  0
MATERIAL
  5
45
102
{ACAD_REACTORS
330
43
102
}
102
{ACAD_XDICTIONARY
360
421
102
}
330
43
100
AcDbMaterial
  1
ByBlock
  0
MATERIAL
  5
44
102
{ACAD_REACTORS
330
43
102
}
102
{ACAD_XDICTIONARY
360
41F
102
}
330
43
100
AcDbMaterial
  1
ByLayer
  0
MATERIAL
  5
46
102
{ACAD_REACTORS
330
43
102
}
102
{ACAD_XDICTIONARY
360
423
102
}
330
43
100
AcDbMaterial
  1
Global
  0
MLEADERSTYLE
  5
6C
102
{ACAD_REACTORS
330
6B
102
}
102
{ACAD_XDICTIONARY
360
426
102
}
330
6B
100
AcDbMLeaderStyle
170
     2
171
     1
172
     0
 90
        2
 40
0.0
 41
0.0
173
     1
 91
-1056964608
340
14
 92
       -2
290
     1
 42
0.09
291
     1
 43
0.36
  3
Standard
341
0
 44
0.18
300

342
11
174
     1
178
     6
175
     1
176
     0
 93
-1056964608
 45
0.18
292
     0
297
     0
 46
0.18
343
0
 94
-1056964608
 47
1.0
 49
1.0
140
1.0
293
     1
141
0.0
294
     1
177
     0
142
1.0
295
     0
296
     0
143
0.125
1001
ACAD_MLEADERVER
1070
     2
  0
MLINESTYLE
  5
18
102
{ACAD_REACTORS
330
17
102
}
330
17
100
AcDbMlineStyle
  2
Standard
 70
     0
  3

 62
   256
 51
90.0
 52
90.0
 71
     2
 49
0.5
 62
   256
  6
BYLAYER
 49
-0.5
 62
   256
  6
BYLAYER
  0
ACDBPLACEHOLDER
  5
F
102
{ACAD_REACTORS
330
E
102
}
330
E
  0
SCALE
  5
48
102
{ACAD_REACTORS
330
47
102
}
330
47
100
AcDbScale
 70
     0
300
1:1
140
1.0
141
1.0
290
     1
  0
SCALE
  5
49
102
{ACAD_REACTORS
330
47
102
}
330
47
100
AcDbScale
 70
     0
300
1:2
140
1.0
141
2.0
290
     0
  0
SCALE
  5
4A
102
{ACAD_REACTORS
330
47
102
}
330
47
100
AcDbScale
 70
     0
300
1:4
140
1.0
141
4.0
290
     0
  0
SCALE
  5
4B
102
{ACAD_REACTORS
330
47
102
}
330
47
100
AcDbScale
 70
     0
300
1:5
140
1.0
141
5.0
290
     0
  0
SCALE
  5
4C
102
{ACAD_REACTORS
330
47
102
}
330
47
100
AcDbScale
 70
     0
300
1:8
140
1.0
141
8.0
290
     0
  0
SCALE
  5
4D
102
{ACAD_REACTORS
330
47
102
}
330
47
100
AcDbScale
 70
     0
300
1:10
140
1.0
141
10.0
290
     0
  0
SCALE
  5
4E
102
{ACAD_REACTORS
330
47
102
}
330
47
100
AcDbScale
 70
     0
300
1:16
140
1.0
141
16.0
290
     0
  0
SCALE
  5
4F
102
{ACAD_REACTORS
330
47
102
}
330
47
100
AcDbScale
 70
     0
300
1:20
140
1.0
141
20.0
290
     0
  0
SCALE
  5
50
102
{ACAD_REACTORS
330
47
102
}
330
47
100
AcDbScale
 70
     0
300
1:30
140
1.0
141
30.0
290
     0
  0
SCALE
  5
51
102
{ACAD_REACTORS
330
47
102
}
330
47
100
AcDbScale
 70
     0
300
1:40
140
1.0
141
40.0
290
     0
  0
SCALE
  5
52
102
{ACAD_REACTORS
330
47
102
}
330
47
100
AcDbScale
 70
     0
300
1:50
140
1.0
141
50.0
290
     0
  0
SCALE
  5
53
102
{ACAD_REACTORS
330
47
102
}
330
47
100
AcDbScale
 70
     0
300
1:100
140
1.0
141
100.0
290
     0
  0
SCALE
  5
54
102
{ACAD_REACTORS
330
47
102
}
330
47
100
AcDbScale
 70
     0
300
2:1
140
2.0
141
1.0
290
     0
  0
SCALE
  5
55
102
{ACAD_REACTORS
330
47
102
}
330
47
100
AcDbScale
 70
     0
300
4:1
140
4.0
141
1.0
290
     0
  0
SCALE
  5
56
102
{ACAD_REACTORS
330
47
102
}
330
47
100
AcDbScale
 70
     0
300
8:1
140
8.0
141
1.0
290
     0
  0
SCALE
  5
57
102
{ACAD_REACTORS
330
47
102
}
330
47
100
AcDbScale
 70
     0
300
10:1
140
10.0
141
1.0
290
     0
  0
SCALE
  5
58
102
{ACAD_REACTORS
330
47
102
}
330
47
100
AcDbScale
 70
     0
300
100:1
140
100.0
141
1.0
290
     0
  0
SCALE
  5
59
102
{ACAD_REACTORS
330
47
102
}
330
47
100
AcDbScale
 70
     0
300
1/128" = 1'-0"
140
0.0078125
141
12.0
290
     0
  0
SCALE
  5
5A
102
{ACAD_REACTORS
330
47
102
}
330
47
100
AcDbScale
 70
     0
300
1/64" = 1'-0"
140
0.015625
141
12.0
290
     0
  0
SCALE
  5
5B
102
{ACAD_REACTORS
330
47
102
}
330
47
100
AcDbScale
 70
     0
300
1/32" = 1'-0"
140
0.03125
141
12.0
290
     0
  0
SCALE
  5
5C
102
{ACAD_REACTORS
330
47
102
}
330
47
100
AcDbScale
 70
     0
300
1/16" = 1'-0"
140
0.0625
141
12.0
290
     0
  0
SCALE
  5
5D
102
{ACAD_REACTORS
330
47
102
}
330
47
100
AcDbScale
 70
     0
300
3/32" = 1'-0"
140
0.09375
141
12.0
290
     0
  0
SCALE
  5
5E
102
{ACAD_REACTORS
330
47
102
}
330
47
100
AcDbScale
 70
     0
300
1/8" = 1'-0"
140
0.125
141
12.0
290
     0
  0
SCALE
  5
5F
102
{ACAD_REACTORS
330
47
102
}
330
47
100
AcDbScale
 70
     0
300
3/16" = 1'-0"
140
0.1875
141
12.0
290
     0
  0
SCALE
  5
60
102
{ACAD_REACTORS
330
47
102
}
330
47
100
AcDbScale
 70
     0
300
1/4" = 1'-0"
140
0.25
141
12.0
290
     0
  0
SCALE
  5
61
102
{ACAD_REACTORS
330
47
102
}
330
47
100
AcDbScale
 70
     0
300
3/8" = 1'-0"
140
0.375
141
12.0
290
     0
  0
SCALE
  5
62
102
{ACAD_REACTORS
330
47
102
}
330
47
100
AcDbScale
 70
     0
300
1/2" = 1'-0"
140
0.5
141
12.0
290
     0
  0
SCALE
  5
63
102
{ACAD_REACTORS
330
47
102
}
330
47
100
AcDbScale
 70
     0
300
3/4" = 1'-0"
140
0.75
141
12.0
290
     0
  0
SCALE
  5
64
102
{ACAD_REACTORS
330
47
102
}
330
47
100
AcDbScale
 70
     0
300
1" = 1'-0"
140
1.0
141
12.0
290
     0
  0
SCALE
  5
65
102
{ACAD_REACTORS
330
47
102
}
330
47
100
AcDbScale
 70
     0
300
1-1/2" = 1'-0"
140
1.5
141
12.0
290
     0
  0
SCALE
  5
66
102
{ACAD_REACTORS
330
47
102
}
330
47
100
AcDbScale
 70
     0
300
3" = 1'-0"
140
3.0
141
12.0
290
     0
  0
SCALE
  5
67
102
{ACAD_REACTORS
330
47
102
}
330
47
100
AcDbScale
 70
     0
300
6" = 1'-0"
140
6.0
141
12.0
290
     0
  0
SCALE
  5
68
102
{ACAD_REACTORS
330
47
102
}
330
47
100
AcDbScale
 70
     0
300
1'-0" = 1'-0"
140
12.0
141
12.0
290
     0
  0
TABLESTYLE
  5
6A
102
{ACAD_REACTORS
330
69
102
}
330
69
100
AcDbTableStyle
  3
Standard
 70
     0
 71
     0
 40
0.06
 41
0.06
280
     0
281
     0
  7
Standard
140
0.18
170
     2
 62
     0
 63
   257
283
     0
274
    -2
284
     1
 64
     0
275
    -2
285
     1
 65
     0
276
    -2
286
     1
 66
     0
277
    -2
287
     1
 67
     0
278
    -2
288
     1
 68
     0
279
    -2
289
     1
 69
     0
  7
Standard
140
0.25
170
     5
 62
     0
 63
   257
283
     0
274
    -2
284
     1
 64
     0
275
    -2
285
     1
 65
     0
276
    -2
286
     1
 66
     0
277
    -2
287
     1
 67
     0
278
    -2
288
     1
 68
     0
279
    -2
289
     1
 69
     0
  7
Standard
140
0.18
170
     5
 62
     0
 63
   257
283
     0
274
    -2
284
     1
 64
     0
275
    -2
285
     1
 65
     0
276
    -2
286
     1
 66
     0
277
    -2
287
     1
 67
     0
278
    -2
288
     1
 68
     0
279
    -2
289
     1
 69
     0
  0
VISUALSTYLE
  5
2F
102
{ACAD_REACTORS
330
2A
102
}
102
{ACAD_XDICTIONARY
360
3F7
102
}
330
2A
100
AcDbVisualStyle
  2
2dWireframe
 70
     4
 71
     0
 72
     2
 73
     0
 90
        0
 40
0.6
 41
30.0
 62
     5
 63
     7
 74
     1
 91
        4
 64
     7
 65
   257
 75
     1
175
     1
 42
1.0
 92
        0
 66
   257
 43
1.0
 76
     1
 77
     6
 78
     2
 67
     7
 79
     5
170
     0
171
     0
290
     0
174
     0
 93
        1
 44
0.0
173
     0
291
     0
 45
0.0
1001
ACAD
1000
AcDbSavedByObjectVersion
1070
     0
  0
VISUALSTYLE
  5
32
102
{ACAD_REACTORS
330
2A
102
}
102
{ACAD_XDICTIONARY
360
3FD
102
}
330
2A
100
AcDbVisualStyle
  2
Basic
 70
     7
 71
     1
 72
     0
 73
     1
 90
        0
 40
0.6
 41
30.0
 62
     5
 63
     7
 74
     0
 91
        4
 64
     7
 65
   257
 75
     1
175
     1
 42
1.0
 92
        8
 66
     7
 43
1.0
 76
     1
 77
     6
 78
     2
 67
     7
 79
     5
170
     0
171
     0
290
     0
174
     0
 93
        1
 44
0.0
173
     0
291
     1
 45
0.0
1001
ACAD
1000
AcDbSavedByObjectVersion
1070
     0
  0
VISUALSTYLE
  5
36
102
{ACAD_REACTORS
330
2A
102
}
102
{ACAD_XDICTIONARY
360
405
102
}
330
2A
100
AcDbVisualStyle
  2
Brighten
 70
    12
 71
     2
 72
     2
 73
     0
 90
        0
 40
0.6
 41
30.0
 62
     5
 63
     7
 74
     1
 91
        4
 64
     7
 65
   257
 75
     1
175
     1
 42
1.0
 92
        8
 66
     7
 43
1.0
 76
     1
 77
     6
 78
     2
 67
     7
 79
     5
170
     0
171
     0
290
     0
174
     0
 93
        1
 44
50.0
173
     0
291
     1
 45
0.0
1001
ACAD
1000
AcDbSavedByObjectVersion
1070
     0
  0
VISUALSTYLE
  5
3A
102
{ACAD_REACTORS
330
2A
102
}
102
{ACAD_XDICTIONARY
360
40D
102
}
330
2A
100
AcDbVisualStyle
  2
ColorChange
 70
    16
 71
     2
 72
     2
 73
     3
 90
        0
 40
0.6
 41
30.0
 62
     5
 63
     8
 74
     1
 91
        4
 64
     7
 65
   257
 75
     1
175
     1
 42
1.0
 92
        8
 66
     8
 43
1.0
 76
     1
 77
     6
 78
     2
 67
     7
 79
     5
170
     0
171
     0
290
     0
174
     0
 93
        1
 44
0.0
173
     0
291
     1
 45
0.0
1001
ACAD
1000
AcDbSavedByObjectVersion
1070
     0
  0
VISUALSTYLE
  5
34
102
{ACAD_REACTORS
330
2A
102
}
102
{ACAD_XDICTIONARY
360
401
102
}
330
2A
100
AcDbVisualStyle
  2
Conceptual
 70
     9
 71
     3
 72
     2
 73
     0
 90
        0
 40
0.6
 41
30.0
 62
     5
 63
     7
 74
     2
 91
        2
 64
     7
 65
   257
 75
     1
175
     1
 42
179.0
 92
        8
 66
     7
 43
1.0
 76
     1
 77
     6
 78
     2
 67
     7
 79
     3
170
     0
171
     0
290
     0
174
     0
 93
        1
 44
0.0
173
     0
291
     0
 45
0.0
1001
ACAD
1000
AcDbSavedByObjectVersion
1070
     0
  0
VISUALSTYLE
  5
35
102
{ACAD_REACTORS
330
2A
102
}
102
{ACAD_XDICTIONARY
360
403
102
}
330
2A
100
AcDbVisualStyle
  2
Dim
 70
    11
 71
     2
 72
     2
 73
     0
 90
        0
 40
0.6
 41
30.0
 62
     5
 63
     7
 74
     1
 91
        4
 64
     7
 65
   257
 75
     1
175
     1
 42
1.0
 92
        8
 66
     7
 43
1.0
 76
     1
 77
     6
 78
     2
 67
     7
 79
     5
170
     0
171
     0
290
     0
174
     0
 93
        1
 44
-50.0
173
     0
291
     1
 45
0.0
1001
ACAD
1000
AcDbSavedByObjectVersion
1070
     0
  0
VISUALSTYLE
  5
3D
102
{ACAD_REACTORS
330
2A
102
}
102
{ACAD_XDICTIONARY
360
413
102
}
330
2A
100
AcDbVisualStyle
  2
EdgeColorOff
 70
    22
 71
     2
 72
     2
 73
     0
 90
        0
 40
0.6
 41
30.0
 62
     5
 63
     7
 74
     1
 91
        4
 64
     7
 65
   257
 75
     1
175
     1
 42
1.0
 92
        8
 66
     7
 43
1.0
 76
     1
 77
     6
 78
     2
 67
     7
 79
     5
170
     0
171
     0
290
     0
174
     0
 93
        1
 44
0.0
173
     0
291
     1
 45
0.0
1001
ACAD
1000
AcDbSavedByObjectVersion
1070
     0
  0
VISUALSTYLE
  5
39
102
{ACAD_REACTORS
330
2A
102
}
102
{ACAD_XDICTIONARY
360
40B
102
}
330
2A
100
AcDbVisualStyle
  2
Facepattern
 70
    15
 71
     2
 72
     2
 73
     0
 90
        0
 40
0.6
 41
30.0
 62
     5
 63
     7
 74
     1
 91
        4
 64
     7
 65
   257
 75
     1
175
     1
 42
1.0
 92
        8
 66
     7
 43
1.0
 76
     1
 77
     6
 78
     2
 67
     7
 79
     5
170
     0
171
     0
290
     0
174
     0
 93
        1
 44
0.0
173
     0
291
     1
 45
0.0
1001
ACAD
1000
AcDbSavedByObjectVersion
1070
     0
  0
VISUALSTYLE
  5
2B
102
{ACAD_REACTORS
330
2A
102
}
102
{ACAD_XDICTIONARY
360
3EF
102
}
330
2A
100
AcDbVisualStyle
  2
Flat
 70
     0
 71
     2
 72
     1
 73
     1
 90
        2
 40
0.6
 41
30.0
 62
     5
 63
     7
 74
     0
 91
        0
 64
     7
 65
   257
 75
     1
175
     1
 42
1.0
 92
        8
 66
     7
 43
1.0
 76
     1
 77
     6
 78
     2
 67
     7
 79
     5
170
     0
171
     0
290
     0
174
     0
 93
       13
 44
0.0
173
     0
291
     1
 45
0.0
1001
ACAD
1000
AcDbSavedByObjectVersion
1070
     0
  0
VISUALSTYLE
  5
2C
102
{ACAD_REACTORS
330
2A
102
}
102
{ACAD_XDICTIONARY
360
3F1
102
}
330
2A
100
AcDbVisualStyle
  2
FlatWithEdges
 70
     1
 71
     2
 72
     1
 73
     1
 90
        2
 40
0.6
 41
30.0
 62
     5
 63
     7
 74
     1
 91
        0
 64
     7
 65
   257
 75
     1
175
     1
 42
1.0
 92
        0
 66
   257
 43
1.0
 76
     1
 77
     6
 78
     2
 67
     7
 79
     5
170
     0
171
     0
290
     0
174
     0
 93
       13
 44
0.0
173
     0
291
     1
 45
0.0
1001
ACAD
1000
AcDbSavedByObjectVersion
1070
     0
  0
VISUALSTYLE
  5
2D
102
{ACAD_REACTORS
330
2A
102
}
102
{ACAD_XDICTIONARY
360
3F3
102
}
330
2A
100
AcDbVisualStyle
  2
Gouraud
 70
     2
 71
     2
 72
     2
 73
     1
 90
        2
 40
0.6
 41
30.0
 62
     5
 63
     7
 74
     0
 91
        0
 64
     7
 65
   257
 75
     1
175
     1
 42
1.0
 92
        0
 66
     7
 43
1.0
 76
     1
 77
     6
 78
     2
 67
     7
 79
     5
170
     0
171
     0
290
     0
174
     0
 93
       13
 44
0.0
173
     0
291
     1
 45
0.0
1001
ACAD
1000
AcDbSavedByObjectVersion
1070
     0
  0
VISUALSTYLE
  5
2E
102
{ACAD_REACTORS
330
2A
102
}
102
{ACAD_XDICTIONARY
360
3F5
102
}
330
2A
100
AcDbVisualStyle
  2
GouraudWithEdges
 70
     3
 71
     2
 72
     2
 73
     1
 90
        2
 40
0.6
 41
30.0
 62
     5
 63
     7
 74
     1
 91
        0
 64
     7
 65
   257
 75
     1
175
     1
 42
1.0
 92
        0
 66
   257
 43
1.0
 76
     1
 77
     6
 78
     2
 67
     7
 79
     5
170
     0
171
     0
290
     0
174
     0
 93
       13
 44
0.0
173
     0
291
     1
 45
0.0
1001
ACAD
1000
AcDbSavedByObjectVersion
1070
     0
  0
VISUALSTYLE
  5
31
102
{ACAD_REACTORS
330
2A
102
}
102
{ACAD_XDICTIONARY
360
3FB
102
}
330
2A
100
AcDbVisualStyle
  2
Hidden
 70
     6
 71
     1
 72
     2
 73
     2
 90
        0
 40
0.6
 41
30.0
 62
     5
 63
     7
 74
     2
 91
        2
 64
     7
 65
   257
 75
     2
175
     1
 42
40.0
 92
        0
 66
   257
 43
1.0
 76
     1
 77
     6
 78
     2
 67
     7
 79
     3
170
     0
171
     0
290
     0
174
     0
 93
        1
 44
0.0
173
     0
291
     0
 45
0.0
1001
ACAD
1000
AcDbSavedByObjectVersion
1070
     0
  0
VISUALSTYLE
  5
3B
102
{ACAD_REACTORS
330
2A
102
}
102
{ACAD_XDICTIONARY
360
40F
102
}
330
2A
100
AcDbVisualStyle
  2
JitterOff
 70
    20
 71
     2
 72
     2
 73
     0
 90
        0
 40
0.6
 41
30.0
 62
     5
 63
     7
 74
     1
 91
        4
 64
     7
 65
   257
 75
     1
175
     1
 42
1.0
 92
       10
 66
     7
 43
1.0
 76
     1
 77
     6
 78
     2
 67
     7
 79
     5
170
     0
171
     0
290
     0
174
     0
 93
        1
 44
0.0
173
     0
291
     1
 45
0.0
1001
ACAD
1000
AcDbSavedByObjectVersion
1070
     0
  0
VISUALSTYLE
  5
38
102
{ACAD_REACTORS
330
2A
102
}
102
{ACAD_XDICTIONARY
360
409
102
}
330
2A
100
AcDbVisualStyle
  2
Linepattern
 70
    14
 71
     2
 72
     2
 73
     0
 90
        0
 40
0.6
 41
30.0
 62
     5
 63
     7
 74
     1
 91
        4
 64
     7
 65
   257
 75
     7
175
     7
 42
1.0
 92
        8
 66
     7
 43
1.0
 76
     1
 77
     6
 78
     2
 67
     7
 79
     5
170
     0
171
     0
290
     0
174
     0
 93
        1
 44
0.0
173
     0
291
     1
 45
0.0
1001
ACAD
1000
AcDbSavedByObjectVersion
1070
     0
  0
VISUALSTYLE
  5
3C
102
{ACAD_REACTORS
330
2A
102
}
102
{ACAD_XDICTIONARY
360
411
102
}
330
2A
100
AcDbVisualStyle
  2
OverhangOff
 70
    21
 71
     2
 72
     2
 73
     0
 90
        0
 40
0.6
 41
30.0
 62
     5
 63
     7
 74
     1
 91
        4
 64
     7
 65
   257
 75
     1
175
     1
 42
1.0
 92
        9
 66
     7
 43
1.0
 76
     1
 77
     6
 78
     2
 67
     7
 79
     5
170
     0
171
     0
290
     0
174
     0
 93
        1
 44
0.0
173
     0
291
     1
 45
0.0
1001
ACAD
1000
AcDbSavedByObjectVersion
1070
     0
  0
VISUALSTYLE
  5
33
102
{ACAD_REACTORS
330
2A
102
}
102
{ACAD_XDICTIONARY
360
3FF
102
}
330
2A
100
AcDbVisualStyle
  2
Realistic
 70
     8
 71
     2
 72
     3
 73
     0
 90
        2
 40
0.6
 41
30.0
 62
     5
 63
     7
 74
     0
 91
        0
 64
     7
 65
   257
 75
     1
175
     1
 42
1.0
 92
        8
 66
   257
 43
1.0
 76
     1
 77
     6
 78
     2
 67
     7
 79
     3
170
     0
171
     0
290
     0
174
     0
 93
       13
 44
0.0
173
     0
291
     0
 45
0.0
1001
ACAD
1000
AcDbSavedByObjectVersion
1070
     0
  0
VISUALSTYLE
  5
42
102
{ACAD_REACTORS
330
2A
102
}
102
{ACAD_XDICTIONARY
360
41D
102
}
330
2A
100
AcDbVisualStyle
  2
Shaded
 70
    27
 71
     2
 72
     2
 73
     1
 90
        2
 40
0.6
 41
30.0
 62
     5
 63
     7
 74
     0
 91
        4
 64
     7
 65
   257
 75
     1
175
     1
 42
1.0
 92
        8
 66
   257
 43
1.0
 76
     1
 77
     6
 78
     2
 67
     8
 79
     3
170
     0
171
     0
290
     0
174
     0
 93
        5
 44
0.0
173
     0
291
     0
 45
0.0
1001
ACAD
1000
AcDbSavedByObjectVersion
1070
     0
  0
VISUALSTYLE
  5
41
102
{ACAD_REACTORS
330
2A
102
}
102
{ACAD_XDICTIONARY
360
41B
102
}
330
2A
100
AcDbVisualStyle
  2
Shaded with edges
 70
    26
 71
     2
 72
     2
 73
     1
 90
        2
 40
0.6
 41
30.0
 62
     5
 63
     7
 74
     1
 91
       10
 64
     7
 65
   257
 75
     2
175
     1
 42
1.0
 92
        8
 66
   257
 43
1.0
 76
     1
 77
     6
 78
     2
 67
     7
 79
     3
170
     0
171
     0
290
     0
174
     0
 93
        5
 44
0.0
173
     0
291
     0
 45
0.0
1001
ACAD
1000
AcDbSavedByObjectVersion
1070
     0
  0
VISUALSTYLE
  5
3E
102
{ACAD_REACTORS
330
2A
102
}
102
{ACAD_XDICTIONARY
360
415
102
}
330
2A
100
AcDbVisualStyle
  2
Shades of Gray
 70
    23
 71
     2
 72
     2
 73
     3
 90
        0
 40
0.6
 41
30.0
 62
     5
 63
     7
 74
     2
 91
        2
 64
     7
 65
     7
 75
     1
175
     1
 42
40.0
 92
        8
 66
     7
 43
1.0
 76
     1
 77
     6
 78
     2
 67
     7
 79
     3
170
     0
171
     0
290
     0
174
     0
 93
        1
 44
0.0
173
     0
291
     0
 45
0.0
1001
ACAD
1000
AcDbSavedByObjectVersion
1070
     0
  0
VISUALSTYLE
  5
3F
102
{ACAD_REACTORS
330
2A
102
}
102
{ACAD_XDICTIONARY
360
417
102
}
330
2A
100
AcDbVisualStyle
  2
Sketchy
 70
    24
 71
     1
 72
     2
 73
     2
 90
        0
 40
0.6
 41
30.0
 62
     5
 63
     7
 74
     2
 91
        2
 64
     7
 65
     7
 75
     1
175
     1
 42
40.0
 92
       11
 66
     7
 43
1.0
 76
     1
 77
     6
 78
     2
 67
     7
 79
     6
170
     0
171
     0
290
     0
174
     0
 93
        1
 44
0.0
173
     0
291
     0
 45
0.0
1001
ACAD
1000
AcDbSavedByObjectVersion
1070
     0
  0
VISUALSTYLE
  5
37
102
{ACAD_REACTORS
330
2A
102
}
102
{ACAD_XDICTIONARY
360
407
102
}
330
2A
100
AcDbVisualStyle
  2
Thicken
 70
    13
 71
     2
 72
     2
 73
     0
 90
        0
 40
0.6
 41
30.0
 62
     5
 63
     7
 74
     1
 91
        4
 64
     7
 65
   257
 75
     1
175
     1
 42
1.0
 92
       12
 66
     7
 43
1.0
 76
     1
 77
     6
 78
     2
 67
     7
 79
     5
170
     0
171
     0
290
     0
174
     0
 93
        1
 44
0.0
173
     0
291
     1
 45
0.0
1001
ACAD
1000
AcDbSavedByObjectVersion
1070
     0
  0
VISUALSTYLE
  5
30
102
{ACAD_REACTORS
330
2A
102
}
102
{ACAD_XDICTIONARY
360
3F9
102
}
330
2A
100
AcDbVisualStyle
  2
Wireframe
 70
     5
 71
     0
 72
     2
 73
     0
 90
        0
 40
0.6
 41
30.0
 62
     5
 63
     7
 74
     1
 91
        4
 64
     7
 65
   257
 75
     1
175
     1
 42
1.0
 92
        0
 66
   257
 43
1.0
 76
     1
 77
     6
 78
     2
 67
     7
 79
     3
170
     0
171
     0
290
     0
174
     0
 93
        1
 44
0.0
173
     0
291
     0
 45
0.0
1001
ACAD
1000
AcDbSavedByObjectVersion
1070
     0
  0
VISUALSTYLE
  5
40
102
{ACAD_REACTORS
330
2A
102
}
102
{ACAD_XDICTIONARY
360
419
102
}
330
2A
100
AcDbVisualStyle
  2
X-Ray
 70
    25
 71
     2
 72
     2
 73
     1
 90
        1
 40
0.5
 41
30.0
 62
     5
 63
     7
 74
     1
 91
        0
 64
     7
 65
   257
 75
     1
175
     1
 42
1.0
 92
        8
 66
     7
 43
1.0
 76
     1
 77
     6
 78
     2
 67
     7
 79
     3
170
     0
171
     0
290
     0
174
     0
 93
       13
 44
0.0
173
     0
291
     0
 45
0.0
1001
ACAD
1000
AcDbSavedByObjectVersion
1070
     0
  0
DICTIONARYVAR
  5
3ED
102
{ACAD_REACTORS
330
3E4
102
}
330
3E4
100
DictionaryVariables
280
     0
  1
1:1
  0
DICTIONARYVAR
  5
3E6
102
{ACAD_REACTORS
330
3E4
102
}
330
3E4
100
DictionaryVariables
280
     0
  1
Standard
  0
DICTIONARYVAR
  5
3E5
102
{ACAD_REACTORS
330
3E4
102
}
330
3E4
100
DictionaryVariables
280
     0
  1
Standard
  0
DICTIONARYVAR
  5
3E9
102
{ACAD_REACTORS
330
3E4
102
}
330
3E4
100
DictionaryVariables
280
     0
  1
2
  0
DICTIONARYVAR
  5
3EA
102
{ACAD_REACTORS
330
3E4
102
}
330
3E4
100
DictionaryVariables
280
     0
  1
1
  0
DICTIONARYVAR
  5
3EE
102
{ACAD_REACTORS
330
3E4
102
}
330
3E4
100
DictionaryVariables
280
     0
  1
1
  0
DICTIONARY
  5
421
330
45
100
AcDbDictionary
280
     1
281
     1
  3
ACAD_XREC_ROUNDTRIP
360
422
  0
DICTIONARY
  5
41F
330
44
100
AcDbDictionary
280
     1
281
     1
  3
ACAD_XREC_ROUNDTRIP
360
420
  0
DICTIONARY
  5
423
330
46
100
AcDbDictionary
280
     1
281
     1
  3
ACAD_XREC_ROUNDTRIP
360
424
  0
DICTIONARY
  5
426
330
6C
100
AcDbDictionary
280
     1
281
     1
  3
ACAD_XREC_ROUNDTRIP
360
427
  0
DICTIONARY
  5
3F7
330
2F
100
AcDbDictionary
280
     1
281
     1
  3
ACAD_XREC_ROUNDTRIP
360
3F8
  0
DICTIONARY
  5
3FD
330
32
100
AcDbDictionary
280
     1
281
     1
  3
ACAD_XREC_ROUNDTRIP
360
3FE
  0
DICTIONARY
  5
405
330
36
100
AcDbDictionary
280
     1
281
     1
  3
ACAD_XREC_ROUNDTRIP
360
406
  0
DICTIONARY
  5
40D
330
3A
100
AcDbDictionary
280
     1
281
     1
  3
ACAD_XREC_ROUNDTRIP
360
40E
  0
DICTIONARY
  5
401
330
34
100
AcDbDictionary
280
     1
281
     1
  3
ACAD_XREC_ROUNDTRIP
360
402
  0
DICTIONARY
  5
403
330
35
100
AcDbDictionary
280
     1
281
     1
  3
ACAD_XREC_ROUNDTRIP
360
404
  0
DICTIONARY
  5
413
330
3D
100
AcDbDictionary
280
     1
281
     1
  3
ACAD_XREC_ROUNDTRIP
360
414
  0
DICTIONARY
  5
40B
330
39
100
AcDbDictionary
280
     1
281
     1
  3
ACAD_XREC_ROUNDTRIP
360
40C
  0
DICTIONARY
  5
3EF
330
2B
100
AcDbDictionary
280
     1
281
     1
  3
ACAD_XREC_ROUNDTRIP
360
3F0
  0
DICTIONARY
  5
3F1
330
2C
100
AcDbDictionary
280
     1
281
     1
  3
ACAD_XREC_ROUNDTRIP
360
3F2
  0
DICTIONARY
  5
3F3
330
2D
100
AcDbDictionary
280
     1
281
     1
  3
ACAD_XREC_ROUNDTRIP
360
3F4
  0
DICTIONARY
  5
3F5
330
2E
100
AcDbDictionary
280
     1
281
     1
  3
ACAD_XREC_ROUNDTRIP
360
3F6
  0
DICTIONARY
  5
3FB
330
31
100
AcDbDictionary
280
     1
281
     1
  3
ACAD_XREC_ROUNDTRIP
360
3FC
  0
DICTIONARY
  5
40F
330
3B
100
AcDbDictionary
280
     1
281
     1
  3
ACAD_XREC_ROUNDTRIP
360
410
  0
DICTIONARY
  5
409
330
38
100
AcDbDictionary
280
     1
281
     1
  3
ACAD_XREC_ROUNDTRIP
360
40A
  0
DICTIONARY
  5
411
330
3C
100
AcDbDictionary
280
     1
281
     1
  3
ACAD_XREC_ROUNDTRIP
360
412
  0
DICTIONARY
  5
3FF
330
33
100
AcDbDictionary
280
     1
281
     1
  3
ACAD_XREC_ROUNDTRIP
360
400
  0
DICTIONARY
  5
41D
330
42
100
AcDbDictionary
280
     1
281
     1
  3
ACAD_XREC_ROUNDTRIP
360
41E
  0
DICTIONARY
  5
41B
330
41
100
AcDbDictionary
280
     1
281
     1
  3
ACAD_XREC_ROUNDTRIP
360
41C
  0
DICTIONARY
  5
415
330
3E
100
AcDbDictionary
280
     1
281
     1
  3
ACAD_XREC_ROUNDTRIP
360
416
  0
DICTIONARY
  5
417
330
3F
100
AcDbDictionary
280
     1
281
     1
  3
ACAD_XREC_ROUNDTRIP
360
418
  0
DICTIONARY
  5
407
330
37
100
AcDbDictionary
280
     1
281
     1
  3
ACAD_XREC_ROUNDTRIP
360
408
  0
DICTIONARY
  5
3F9
330
30
100
AcDbDictionary
280
     1
281
     1
  3
ACAD_XREC_ROUNDTRIP
360
3FA
  0
DICTIONARY
  5
419
330
40
100
AcDbDictionary
280
     1
281
     1
  3
ACAD_XREC_ROUNDTRIP
360
41A
  0
XRECORD
  5
422
102
{ACAD_REACTORS
330
421
102
}
330
421
100
AcDbXrecord
280
     1
102
MATERIAL
148
0.0
149
0.0
149
0.0
 93
        0
 94
      127
282
     0
 72
     1
 77
     1
171
     1
175
     1
179
     1
273
     0
  0
XRECORD
  5
420
102
{ACAD_REACTORS
330
41F
102
}
330
41F
100
AcDbXrecord
280
     1
102
MATERIAL
148
0.0
149
0.0
149
0.0
 93
        0
 94
      127
282
     0
 72
     1
 77
     1
171
     1
175
     1
179
     1
273
     0
  0
XRECORD
  5
424
102
{ACAD_REACTORS
330
423
102
}
330
423
100
AcDbXrecord
280
     1
102
MATERIAL
148
0.0
149
0.0
149
0.0
 93
        0
 94
      127
282
     0
 72
     1
 77
     1
171
     1
175
     1
179
     1
273
     0
  0
XRECORD
  5
427
102
{ACAD_REACTORS
330
426
102
}
330
426
100
AcDbXrecord
280
     1
102
ACAD_ROUNDTRIP_2010_MLEADER_STYLE
  0
XRECORD
  5
3F8
102
{ACAD_REACTORS
330
3F7
102
}
330
3F7
100
AcDbXrecord
280
     1
102
RTVSPropertyOp0
 70
     1
102
RTVSPropertyOp1
 70
     1
102
RTVSPropertyOp2
 70
     1
102
RTVSPropertyOp3
 70
     1
102
RTVSPropertyOp4
 70
     1
102
RTVSPropertyOp5
 70
     1
102
RTVSPropertyOp6
 70
     1
102
RTVSPropertyOp7
 70
     1
102
RTVSPropertyOp8
 70
     1
102
RTVSPropertyOp9
 70
     1
102
RTVSPropertyOp10
 70
     1
102
RTVSPropertyOp11
 70
     1
102
RTVSPropertyOp12
 70
     1
102
RTVSPropertyOp13
 70
     1
102
RTVSPropertyOp14
 70
     1
102
RTVSPropertyOp15
 70
     1
102
RTVSPropertyOp16
 70
     1
102
RTVSPropertyOp17
 70
     1
102
RTVSPropertyOp18
 70
     1
102
RTVSPropertyOp19
 70
     1
102
RTVSPropertyOp20
 70
     1
102
RTVSPropertyOp21
 70
     1
102
RTVSPropertyOp22
 70
     1
102
RTVSPropertyOp23
 70
     1
102
RTVSPropertyOp24
 70
     1
102
RTVSPropertyOp25
 70
     1
102
RTVSPropertyOp26
 70
     1
102
RTVSPropertyOp27
 70
     1
102
RTVSPropertyOp28
 70
     1
102
RTVSPropertyOp29
 70
     1
102
RTVSPropertyOp30
 70
     1
102
RTVSPropertyOp31
 70
     1
102
RTVSPropertyOp32
 70
     1
102
RTVSPropertyOp33
 70
     1
102
RTVSPropertyOp34
 70
     1
102
RTVSPropertyOp35
 70
     1
102
RTVSPropertyOp36
 70
     1
102
RTVSPropertyOp37
 70
     1
102
RTVSPropertyOp38
 70
     1
102
RTVSPropertyOp39
 70
     1
102
RTVSPropertyOp40
 70
     1
102
RTVSPropertyOp41
 70
     1
102
RTVSPropertyOp42
 70
     1
102
RTVSPropertyOp43
 70
     1
102
RTVSPropertyOp44
 70
     1
102
RTVSPropertyOp45
 70
     1
102
RTVSPropertyOp46
 70
     1
102
RTVSPropertyOp47
 70
     1
102
RTVSPropertyOp48
 70
     1
102
RTVSPropertyOp49
 70
     1
102
RTVSPropertyOp50
 70
     1
102
RTVSPropertyOp51
 70
     0
102
RTVSPropertyOp52
 70
     0
102
RTVSPropertyOp53
 70
     1
102
RTVSPropertyOp54
 70
     1
102
RTVSPropertyOp55
 70
     1
102
RTVSPropertyOp56
 70
     1
102
RTVSPropertyOp57
 70
     1
102
RTVSPost2010Prop28
280
     1
102
RTVSPost2010PropOp28
 70
     1
102
RTVSPost2010Prop29
280
     1
102
RTVSPost2010PropOp29
 70
     1
102
RTVSPost2010Prop30
280
     0
102
RTVSPost2010PropOp30
 70
     1
102
RTVSPost2010Prop31
280
     0
102
RTVSPost2010PropOp31
 70
     1
102
RTVSPost2010Prop32
280
     0
102
RTVSPost2010PropOp32
 70
     1
102
RTVSPost2010Prop33
280
     0
102
RTVSPost2010PropOp33
 70
     1
102
RTVSPost2010Prop34
280
     0
102
RTVSPost2010PropOp34
 70
     1
102
RTVSPost2010Prop35
280
     0
102
RTVSPost2010PropOp35
 70
     1
102
RTVSPost2010Prop36
280
     0
102
RTVSPost2010PropOp36
 70
     1
102
RTVSPost2010Prop37
 90
       50
102
RTVSPost2010PropOp37
 70
     1
102
RTVSPost2010Prop38
140
0.0
102
RTVSPost2010PropOp38
 70
     1
102
RTVSPost2010Prop39
140
1.0
102
RTVSPost2010PropOp39
 70
     1
102
RTVSPost2010Prop40
 90
        0
102
RTVSPost2010PropOp40
 70
     1
102
RTVSPost2010Prop41ColorIndex
 90
       18
102
RTVSPost2010Prop41ColorRGB
 90
        0
102
RTVSPost2010PropOp41
 70
     1
102
RTVSPost2010Prop42
 90
       50
102
RTVSPost2010PropOp42
 70
     1
102
RTVSPost2010Prop43
 90
        3
102
RTVSPost2010PropOp43
 70
     1
102
RTVSPost2010Prop44ColorIndex
 90
        5
102
RTVSPost2010Prop44ColorRGB
 90
      255
102
RTVSPost2010PropOp44
 70
     1
102
RTVSPost2010Prop45
280
     0
102
RTVSPost2010PropOp45
 70
     1
102
RTVSPost2010Prop46
 90
       50
102
RTVSPost2010PropOp46
 70
     1
102
RTVSPost2010Prop47
 90
       50
102
RTVSPost2010PropOp47
 70
     1
102
RTVSPost2010Prop48
 90
       50
102
RTVSPost2010PropOp48
 70
     1
102
RTVSPost2010Prop49
280
     0
102
RTVSPost2010PropOp49
 70
     1
102
RTVSPost2010Prop50
 90
       50
102
RTVSPost2010PropOp50
 70
     1
102
RTVSPost2010Prop51ColorIndex
 90
      256
102
RTVSPost2010Prop51ColorRGB
 90
-16777216
102
RTVSPost2010PropOp51
 70
     0
102
RTVSPost2010Prop52
140
1.0
102
RTVSPost2010PropOp52
 70
     0
102
RTVSPost2010Prop53
 90
        2
102
RTVSPost2010PropOp53
 70
     1
102
RTVSPost2010Prop54
  1
strokes_ogs.tif
102
RTVSPost2010PropOp54
 70
     1
102
RTVSPost2010Prop55
280
     0
102
RTVSPost2010PropOp55
 70
     1
102
RTVSPost2010Prop56
140
1.0
102
RTVSPost2010PropOp56
 70
     1
102
RTVSPost2010Prop57
140
1.0
102
RTVSPost2010PropOp57
 70
     1
  0
XRECORD
  5
3FE
102
{ACAD_REACTORS
330
3FD
102
}
330
3FD
100
AcDbXrecord
280
     1
102
RTVSPropertyOp0
 70
     1
102
RTVSPropertyOp1
 70
     1
102
RTVSPropertyOp2
 70
     1
102
RTVSPropertyOp3
 70
     1
102
RTVSPropertyOp4
 70
     1
102
RTVSPropertyOp5
 70
     1
102
RTVSPropertyOp6
 70
     1
102
RTVSPropertyOp7
 70
     1
102
RTVSPropertyOp8
 70
     1
102
RTVSPropertyOp9
 70
     1
102
RTVSPropertyOp10
 70
     1
102
RTVSPropertyOp11
 70
     1
102
RTVSPropertyOp12
 70
     1
102
RTVSPropertyOp13
 70
     1
102
RTVSPropertyOp14
 70
     1
102
RTVSPropertyOp15
 70
     1
102
RTVSPropertyOp16
 70
     1
102
RTVSPropertyOp17
 70
     1
102
RTVSPropertyOp18
 70
     1
102
RTVSPropertyOp19
 70
     1
102
RTVSPropertyOp20
 70
     1
102
RTVSPropertyOp21
 70
     1
102
RTVSPropertyOp22
 70
     1
102
RTVSPropertyOp23
 70
     1
102
RTVSPropertyOp24
 70
     1
102
RTVSPropertyOp25
 70
     1
102
RTVSPropertyOp26
 70
     1
102
RTVSPropertyOp27
 70
     1
102
RTVSPropertyOp28
 70
     1
102
RTVSPropertyOp29
 70
     1
102
RTVSPropertyOp30
 70
     1
102
RTVSPropertyOp31
 70
     1
102
RTVSPropertyOp32
 70
     1
102
RTVSPropertyOp33
 70
     1
102
RTVSPropertyOp34
 70
     1
102
RTVSPropertyOp35
 70
     1
102
RTVSPropertyOp36
 70
     1
102
RTVSPropertyOp37
 70
     1
102
RTVSPropertyOp38
 70
     1
102
RTVSPropertyOp39
 70
     1
102
RTVSPropertyOp40
 70
     1
102
RTVSPropertyOp41
 70
     1
102
RTVSPropertyOp42
 70
     1
102
RTVSPropertyOp43
 70
     1
102
RTVSPropertyOp44
 70
     1
102
RTVSPropertyOp45
 70
     1
102
RTVSPropertyOp46
 70
     1
102
RTVSPropertyOp47
 70
     1
102
RTVSPropertyOp48
 70
     1
102
RTVSPropertyOp49
 70
     1
102
RTVSPropertyOp50
 70
     1
102
RTVSPropertyOp51
 70
     0
102
RTVSPropertyOp52
 70
     0
102
RTVSPropertyOp53
 70
     1
102
RTVSPropertyOp54
 70
     1
102
RTVSPropertyOp55
 70
     1
102
RTVSPropertyOp56
 70
     1
102
RTVSPropertyOp57
 70
     1
102
RTVSPost2010Prop28
280
     0
102
RTVSPost2010PropOp28
 70
     1
102
RTVSPost2010Prop29
280
     1
102
RTVSPost2010PropOp29
 70
     1
102
RTVSPost2010Prop30
280
     1
102
RTVSPost2010PropOp30
 70
     1
102
RTVSPost2010Prop31
280
     0
102
RTVSPost2010PropOp31
 70
     1
102
RTVSPost2010Prop32
280
     0
102
RTVSPost2010PropOp32
 70
     1
102
RTVSPost2010Prop33
280
     0
102
RTVSPost2010PropOp33
 70
     1
102
RTVSPost2010Prop34
280
     0
102
RTVSPost2010PropOp34
 70
     1
102
RTVSPost2010Prop35
280
     0
102
RTVSPost2010PropOp35
 70
     1
102
RTVSPost2010Prop36
280
     0
102
RTVSPost2010PropOp36
 70
     1
102
RTVSPost2010Prop37
 90
       50
102
RTVSPost2010PropOp37
 70
     1
102
RTVSPost2010Prop38
140
0.0
102
RTVSPost2010PropOp38
 70
     1
102
RTVSPost2010Prop39
140
1.0
102
RTVSPost2010PropOp39
 70
     1
102
RTVSPost2010Prop40
 90
        0
102
RTVSPost2010PropOp40
 70
     1
102
RTVSPost2010Prop41ColorIndex
 90
       18
102
RTVSPost2010Prop41ColorRGB
 90
        0
102
RTVSPost2010PropOp41
 70
     1
102
RTVSPost2010Prop42
 90
       50
102
RTVSPost2010PropOp42
 70
     1
102
RTVSPost2010Prop43
 90
        3
102
RTVSPost2010PropOp43
 70
     1
102
RTVSPost2010Prop44ColorIndex
 90
        5
102
RTVSPost2010Prop44ColorRGB
 90
      255
102
RTVSPost2010PropOp44
 70
     1
102
RTVSPost2010Prop45
280
     0
102
RTVSPost2010PropOp45
 70
     1
102
RTVSPost2010Prop46
 90
       50
102
RTVSPost2010PropOp46
 70
     1
102
RTVSPost2010Prop47
 90
       50
102
RTVSPost2010PropOp47
 70
     1
102
RTVSPost2010Prop48
 90
       50
102
RTVSPost2010PropOp48
 70
     1
102
RTVSPost2010Prop49
280
     0
102
RTVSPost2010PropOp49
 70
     1
102
RTVSPost2010Prop50
 90
       50
102
RTVSPost2010PropOp50
 70
     1
102
RTVSPost2010Prop51ColorIndex
 90
      256
102
RTVSPost2010Prop51ColorRGB
 90
-16777216
102
RTVSPost2010PropOp51
 70
     0
102
RTVSPost2010Prop52
140
1.0
102
RTVSPost2010PropOp52
 70
     0
102
RTVSPost2010Prop53
 90
        2
102
RTVSPost2010PropOp53
 70
     1
102
RTVSPost2010Prop54
  1
strokes_ogs.tif
102
RTVSPost2010PropOp54
 70
     1
102
RTVSPost2010Prop55
280
     0
102
RTVSPost2010PropOp55
 70
     1
102
RTVSPost2010Prop56
140
1.0
102
RTVSPost2010PropOp56
 70
     1
102
RTVSPost2010Prop57
140
1.0
102
RTVSPost2010PropOp57
 70
     1
  0
XRECORD
  5
406
102
{ACAD_REACTORS
330
405
102
}
330
405
100
AcDbXrecord
280
     1
102
RTVSPropertyOp0
 70
     1
102
RTVSPropertyOp1
 70
     1
102
RTVSPropertyOp2
 70
     1
102
RTVSPropertyOp3
 70
     1
102
RTVSPropertyOp4
 70
     1
102
RTVSPropertyOp5
 70
     1
102
RTVSPropertyOp6
 70
     1
102
RTVSPropertyOp7
 70
     1
102
RTVSPropertyOp8
 70
     1
102
RTVSPropertyOp9
 70
     1
102
RTVSPropertyOp10
 70
     1
102
RTVSPropertyOp11
 70
     1
102
RTVSPropertyOp12
 70
     1
102
RTVSPropertyOp13
 70
     1
102
RTVSPropertyOp14
 70
     1
102
RTVSPropertyOp15
 70
     1
102
RTVSPropertyOp16
 70
     1
102
RTVSPropertyOp17
 70
     1
102
RTVSPropertyOp18
 70
     1
102
RTVSPropertyOp19
 70
     1
102
RTVSPropertyOp20
 70
     1
102
RTVSPropertyOp21
 70
     1
102
RTVSPropertyOp22
 70
     1
102
RTVSPropertyOp23
 70
     1
102
RTVSPropertyOp24
 70
     1
102
RTVSPropertyOp25
 70
     1
102
RTVSPropertyOp26
 70
     1
102
RTVSPropertyOp27
 70
     1
102
RTVSPropertyOp28
 70
     1
102
RTVSPropertyOp29
 70
     1
102
RTVSPropertyOp30
 70
     1
102
RTVSPropertyOp31
 70
     1
102
RTVSPropertyOp32
 70
     1
102
RTVSPropertyOp33
 70
     1
102
RTVSPropertyOp34
 70
     1
102
RTVSPropertyOp35
 70
     1
102
RTVSPropertyOp36
 70
     1
102
RTVSPropertyOp37
 70
     1
102
RTVSPropertyOp38
 70
     1
102
RTVSPropertyOp39
 70
     1
102
RTVSPropertyOp40
 70
     1
102
RTVSPropertyOp41
 70
     1
102
RTVSPropertyOp42
 70
     1
102
RTVSPropertyOp43
 70
     1
102
RTVSPropertyOp44
 70
     1
102
RTVSPropertyOp45
 70
     1
102
RTVSPropertyOp46
 70
     1
102
RTVSPropertyOp47
 70
     1
102
RTVSPropertyOp48
 70
     1
102
RTVSPropertyOp49
 70
     1
102
RTVSPropertyOp50
 70
     1
102
RTVSPropertyOp51
 70
     0
102
RTVSPropertyOp52
 70
     0
102
RTVSPropertyOp53
 70
     1
102
RTVSPropertyOp54
 70
     1
102
RTVSPropertyOp55
 70
     1
102
RTVSPropertyOp56
 70
     1
102
RTVSPropertyOp57
 70
     1
102
RTVSPost2010Prop28
280
     0
102
RTVSPost2010PropOp28
 70
     1
102
RTVSPost2010Prop29
280
     1
102
RTVSPost2010PropOp29
 70
     1
102
RTVSPost2010Prop30
280
     1
102
RTVSPost2010PropOp30
 70
     1
102
RTVSPost2010Prop31
280
     0
102
RTVSPost2010PropOp31
 70
     1
102
RTVSPost2010Prop32
280
     0
102
RTVSPost2010PropOp32
 70
     1
102
RTVSPost2010Prop33
280
     0
102
RTVSPost2010PropOp33
 70
     1
102
RTVSPost2010Prop34
280
     0
102
RTVSPost2010PropOp34
 70
     1
102
RTVSPost2010Prop35
280
     0
102
RTVSPost2010PropOp35
 70
     1
102
RTVSPost2010Prop36
280
     0
102
RTVSPost2010PropOp36
 70
     1
102
RTVSPost2010Prop37
 90
       50
102
RTVSPost2010PropOp37
 70
     1
102
RTVSPost2010Prop38
140
0.0
102
RTVSPost2010PropOp38
 70
     1
102
RTVSPost2010Prop39
140
1.0
102
RTVSPost2010PropOp39
 70
     1
102
RTVSPost2010Prop40
 90
        0
102
RTVSPost2010PropOp40
 70
     1
102
RTVSPost2010Prop41ColorIndex
 90
       18
102
RTVSPost2010Prop41ColorRGB
 90
        0
102
RTVSPost2010PropOp41
 70
     1
102
RTVSPost2010Prop42
 90
       50
102
RTVSPost2010PropOp42
 70
     1
102
RTVSPost2010Prop43
 90
        3
102
RTVSPost2010PropOp43
 70
     1
102
RTVSPost2010Prop44ColorIndex
 90
        5
102
RTVSPost2010Prop44ColorRGB
 90
      255
102
RTVSPost2010PropOp44
 70
     1
102
RTVSPost2010Prop45
280
     0
102
RTVSPost2010PropOp45
 70
     1
102
RTVSPost2010Prop46
 90
       50
102
RTVSPost2010PropOp46
 70
     1
102
RTVSPost2010Prop47
 90
       50
102
RTVSPost2010PropOp47
 70
     1
102
RTVSPost2010Prop48
 90
       50
102
RTVSPost2010PropOp48
 70
     1
102
RTVSPost2010Prop49
280
     0
102
RTVSPost2010PropOp49
 70
     1
102
RTVSPost2010Prop50
 90
       50
102
RTVSPost2010PropOp50
 70
     1
102
RTVSPost2010Prop51ColorIndex
 90
      256
102
RTVSPost2010Prop51ColorRGB
 90
-16777216
102
RTVSPost2010PropOp51
 70
     0
102
RTVSPost2010Prop52
140
1.0
102
RTVSPost2010PropOp52
 70
     0
102
RTVSPost2010Prop53
 90
        2
102
RTVSPost2010PropOp53
 70
     1
102
RTVSPost2010Prop54
  1
strokes_ogs.tif
102
RTVSPost2010PropOp54
 70
     1
102
RTVSPost2010Prop55
280
     0
102
RTVSPost2010PropOp55
 70
     1
102
RTVSPost2010Prop56
140
1.0
102
RTVSPost2010PropOp56
 70
     1
102
RTVSPost2010Prop57
140
1.0
102
RTVSPost2010PropOp57
 70
     1
  0
XRECORD
  5
40E
102
{ACAD_REACTORS
330
40D
102
}
330
40D
100
AcDbXrecord
280
     1
102
RTVSPropertyOp0
 70
     1
102
RTVSPropertyOp1
 70
     1
102
RTVSPropertyOp2
 70
     1
102
RTVSPropertyOp3
 70
     1
102
RTVSPropertyOp4
 70
     1
102
RTVSPropertyOp5
 70
     1
102
RTVSPropertyOp6
 70
     1
102
RTVSPropertyOp7
 70
     1
102
RTVSPropertyOp8
 70
     1
102
RTVSPropertyOp9
 70
     1
102
RTVSPropertyOp10
 70
     1
102
RTVSPropertyOp11
 70
     1
102
RTVSPropertyOp12
 70
     1
102
RTVSPropertyOp13
 70
     1
102
RTVSPropertyOp14
 70
     1
102
RTVSPropertyOp15
 70
     1
102
RTVSPropertyOp16
 70
     1
102
RTVSPropertyOp17
 70
     1
102
RTVSPropertyOp18
 70
     1
102
RTVSPropertyOp19
 70
     1
102
RTVSPropertyOp20
 70
     1
102
RTVSPropertyOp21
 70
     1
102
RTVSPropertyOp22
 70
     1
102
RTVSPropertyOp23
 70
     1
102
RTVSPropertyOp24
 70
     1
102
RTVSPropertyOp25
 70
     1
102
RTVSPropertyOp26
 70
     1
102
RTVSPropertyOp27
 70
     1
102
RTVSPropertyOp28
 70
     1
102
RTVSPropertyOp29
 70
     1
102
RTVSPropertyOp30
 70
     1
102
RTVSPropertyOp31
 70
     1
102
RTVSPropertyOp32
 70
     1
102
RTVSPropertyOp33
 70
     1
102
RTVSPropertyOp34
 70
     1
102
RTVSPropertyOp35
 70
     1
102
RTVSPropertyOp36
 70
     1
102
RTVSPropertyOp37
 70
     1
102
RTVSPropertyOp38
 70
     1
102
RTVSPropertyOp39
 70
     1
102
RTVSPropertyOp40
 70
     1
102
RTVSPropertyOp41
 70
     1
102
RTVSPropertyOp42
 70
     1
102
RTVSPropertyOp43
 70
     1
102
RTVSPropertyOp44
 70
     1
102
RTVSPropertyOp45
 70
     1
102
RTVSPropertyOp46
 70
     1
102
RTVSPropertyOp47
 70
     1
102
RTVSPropertyOp48
 70
     1
102
RTVSPropertyOp49
 70
     1
102
RTVSPropertyOp50
 70
     1
102
RTVSPropertyOp51
 70
     0
102
RTVSPropertyOp52
 70
     0
102
RTVSPropertyOp53
 70
     1
102
RTVSPropertyOp54
 70
     1
102
RTVSPropertyOp55
 70
     1
102
RTVSPropertyOp56
 70
     1
102
RTVSPropertyOp57
 70
     1
102
RTVSPost2010Prop28
280
     0
102
RTVSPost2010PropOp28
 70
     1
102
RTVSPost2010Prop29
280
     1
102
RTVSPost2010PropOp29
 70
     1
102
RTVSPost2010Prop30
280
     1
102
RTVSPost2010PropOp30
 70
     1
102
RTVSPost2010Prop31
280
     0
102
RTVSPost2010PropOp31
 70
     1
102
RTVSPost2010Prop32
280
     0
102
RTVSPost2010PropOp32
 70
     1
102
RTVSPost2010Prop33
280
     0
102
RTVSPost2010PropOp33
 70
     1
102
RTVSPost2010Prop34
280
     0
102
RTVSPost2010PropOp34
 70
     1
102
RTVSPost2010Prop35
280
     0
102
RTVSPost2010PropOp35
 70
     1
102
RTVSPost2010Prop36
280
     0
102
RTVSPost2010PropOp36
 70
     1
102
RTVSPost2010Prop37
 90
       50
102
RTVSPost2010PropOp37
 70
     1
102
RTVSPost2010Prop38
140
0.0
102
RTVSPost2010PropOp38
 70
     1
102
RTVSPost2010Prop39
140
1.0
102
RTVSPost2010PropOp39
 70
     1
102
RTVSPost2010Prop40
 90
        0
102
RTVSPost2010PropOp40
 70
     1
102
RTVSPost2010Prop41ColorIndex
 90
       18
102
RTVSPost2010Prop41ColorRGB
 90
        0
102
RTVSPost2010PropOp41
 70
     1
102
RTVSPost2010Prop42
 90
       50
102
RTVSPost2010PropOp42
 70
     1
102
RTVSPost2010Prop43
 90
        3
102
RTVSPost2010PropOp43
 70
     1
102
RTVSPost2010Prop44ColorIndex
 90
        5
102
RTVSPost2010Prop44ColorRGB
 90
      255
102
RTVSPost2010PropOp44
 70
     1
102
RTVSPost2010Prop45
280
     0
102
RTVSPost2010PropOp45
 70
     1
102
RTVSPost2010Prop46
 90
       50
102
RTVSPost2010PropOp46
 70
     1
102
RTVSPost2010Prop47
 90
       50
102
RTVSPost2010PropOp47
 70
     1
102
RTVSPost2010Prop48
 90
       50
102
RTVSPost2010PropOp48
 70
     1
102
RTVSPost2010Prop49
280
     0
102
RTVSPost2010PropOp49
 70
     1
102
RTVSPost2010Prop50
 90
       50
102
RTVSPost2010PropOp50
 70
     1
102
RTVSPost2010Prop51ColorIndex
 90
      256
102
RTVSPost2010Prop51ColorRGB
 90
-16777216
102
RTVSPost2010PropOp51
 70
     0
102
RTVSPost2010Prop52
140
1.0
102
RTVSPost2010PropOp52
 70
     0
102
RTVSPost2010Prop53
 90
        2
102
RTVSPost2010PropOp53
 70
     1
102
RTVSPost2010Prop54
  1
strokes_ogs.tif
102
RTVSPost2010PropOp54
 70
     1
102
RTVSPost2010Prop55
280
     0
102
RTVSPost2010PropOp55
 70
     1
102
RTVSPost2010Prop56
140
1.0
102
RTVSPost2010PropOp56
 70
     1
102
RTVSPost2010Prop57
140
1.0
102
RTVSPost2010PropOp57
 70
     1
  0
XRECORD
  5
402
102
{ACAD_REACTORS
330
401
102
}
330
401
100
AcDbXrecord
280
     1
102
RTVSPropertyOp0
 70
     1
102
RTVSPropertyOp1
 70
     1
102
RTVSPropertyOp2
 70
     1
102
RTVSPropertyOp3
 70
     1
102
RTVSPropertyOp4
 70
     1
102
RTVSPropertyOp5
 70
     1
102
RTVSPropertyOp6
 70
     1
102
RTVSPropertyOp7
 70
     1
102
RTVSPropertyOp8
 70
     1
102
RTVSPropertyOp9
 70
     1
102
RTVSPropertyOp10
 70
     1
102
RTVSPropertyOp11
 70
     1
102
RTVSPropertyOp12
 70
     1
102
RTVSPropertyOp13
 70
     1
102
RTVSPropertyOp14
 70
     1
102
RTVSPropertyOp15
 70
     1
102
RTVSPropertyOp16
 70
     1
102
RTVSPropertyOp17
 70
     1
102
RTVSPropertyOp18
 70
     1
102
RTVSPropertyOp19
 70
     1
102
RTVSPropertyOp20
 70
     1
102
RTVSPropertyOp21
 70
     1
102
RTVSPropertyOp22
 70
     1
102
RTVSPropertyOp23
 70
     1
102
RTVSPropertyOp24
 70
     1
102
RTVSPropertyOp25
 70
     1
102
RTVSPropertyOp26
 70
     1
102
RTVSPropertyOp27
 70
     1
102
RTVSPropertyOp28
 70
     1
102
RTVSPropertyOp29
 70
     1
102
RTVSPropertyOp30
 70
     1
102
RTVSPropertyOp31
 70
     1
102
RTVSPropertyOp32
 70
     1
102
RTVSPropertyOp33
 70
     1
102
RTVSPropertyOp34
 70
     1
102
RTVSPropertyOp35
 70
     1
102
RTVSPropertyOp36
 70
     1
102
RTVSPropertyOp37
 70
     1
102
RTVSPropertyOp38
 70
     1
102
RTVSPropertyOp39
 70
     1
102
RTVSPropertyOp40
 70
     1
102
RTVSPropertyOp41
 70
     1
102
RTVSPropertyOp42
 70
     1
102
RTVSPropertyOp43
 70
     1
102
RTVSPropertyOp44
 70
     1
102
RTVSPropertyOp45
 70
     1
102
RTVSPropertyOp46
 70
     1
102
RTVSPropertyOp47
 70
     1
102
RTVSPropertyOp48
 70
     1
102
RTVSPropertyOp49
 70
     1
102
RTVSPropertyOp50
 70
     1
102
RTVSPropertyOp51
 70
     0
102
RTVSPropertyOp52
 70
     0
102
RTVSPropertyOp53
 70
     1
102
RTVSPropertyOp54
 70
     1
102
RTVSPropertyOp55
 70
     1
102
RTVSPropertyOp56
 70
     1
102
RTVSPropertyOp57
 70
     1
102
RTVSPost2010Prop28
280
     0
102
RTVSPost2010PropOp28
 70
     1
102
RTVSPost2010Prop29
280
     1
102
RTVSPost2010PropOp29
 70
     1
102
RTVSPost2010Prop30
280
     1
102
RTVSPost2010PropOp30
 70
     1
102
RTVSPost2010Prop31
280
     0
102
RTVSPost2010PropOp31
 70
     1
102
RTVSPost2010Prop32
280
     0
102
RTVSPost2010PropOp32
 70
     1
102
RTVSPost2010Prop33
280
     0
102
RTVSPost2010PropOp33
 70
     1
102
RTVSPost2010Prop34
280
     0
102
RTVSPost2010PropOp34
 70
     1
102
RTVSPost2010Prop35
280
     0
102
RTVSPost2010PropOp35
 70
     1
102
RTVSPost2010Prop36
280
     0
102
RTVSPost2010PropOp36
 70
     1
102
RTVSPost2010Prop37
 90
       50
102
RTVSPost2010PropOp37
 70
     1
102
RTVSPost2010Prop38
140
0.0
102
RTVSPost2010PropOp38
 70
     1
102
RTVSPost2010Prop39
140
1.0
102
RTVSPost2010PropOp39
 70
     1
102
RTVSPost2010Prop40
 90
        0
102
RTVSPost2010PropOp40
 70
     1
102
RTVSPost2010Prop41ColorIndex
 90
       18
102
RTVSPost2010Prop41ColorRGB
 90
        0
102
RTVSPost2010PropOp41
 70
     1
102
RTVSPost2010Prop42
 90
       50
102
RTVSPost2010PropOp42
 70
     1
102
RTVSPost2010Prop43
 90
        3
102
RTVSPost2010PropOp43
 70
     1
102
RTVSPost2010Prop44ColorIndex
 90
        5
102
RTVSPost2010Prop44ColorRGB
 90
      255
102
RTVSPost2010PropOp44
 70
     1
102
RTVSPost2010Prop45
280
     0
102
RTVSPost2010PropOp45
 70
     1
102
RTVSPost2010Prop46
 90
       50
102
RTVSPost2010PropOp46
 70
     1
102
RTVSPost2010Prop47
 90
       50
102
RTVSPost2010PropOp47
 70
     1
102
RTVSPost2010Prop48
 90
       50
102
RTVSPost2010PropOp48
 70
     1
102
RTVSPost2010Prop49
280
     0
102
RTVSPost2010PropOp49
 70
     1
102
RTVSPost2010Prop50
 90
       50
102
RTVSPost2010PropOp50
 70
     1
102
RTVSPost2010Prop51ColorIndex
 90
      256
102
RTVSPost2010Prop51ColorRGB
 90
-16777216
102
RTVSPost2010PropOp51
 70
     0
102
RTVSPost2010Prop52
140
1.0
102
RTVSPost2010PropOp52
 70
     0
102
RTVSPost2010Prop53
 90
        2
102
RTVSPost2010PropOp53
 70
     1
102
RTVSPost2010Prop54
  1
strokes_ogs.tif
102
RTVSPost2010PropOp54
 70
     1
102
RTVSPost2010Prop55
280
     0
102
RTVSPost2010PropOp55
 70
     1
102
RTVSPost2010Prop56
140
1.0
102
RTVSPost2010PropOp56
 70
     1
102
RTVSPost2010Prop57
140
1.0
102
RTVSPost2010PropOp57
 70
     1
  0
XRECORD
  5
404
102
{ACAD_REACTORS
330
403
102
}
330
403
100
AcDbXrecord
280
     1
102
RTVSPropertyOp0
 70
     1
102
RTVSPropertyOp1
 70
     1
102
RTVSPropertyOp2
 70
     1
102
RTVSPropertyOp3
 70
     1
102
RTVSPropertyOp4
 70
     1
102
RTVSPropertyOp5
 70
     1
102
RTVSPropertyOp6
 70
     1
102
RTVSPropertyOp7
 70
     1
102
RTVSPropertyOp8
 70
     1
102
RTVSPropertyOp9
 70
     1
102
RTVSPropertyOp10
 70
     1
102
RTVSPropertyOp11
 70
     1
102
RTVSPropertyOp12
 70
     1
102
RTVSPropertyOp13
 70
     1
102
RTVSPropertyOp14
 70
     1
102
RTVSPropertyOp15
 70
     1
102
RTVSPropertyOp16
 70
     1
102
RTVSPropertyOp17
 70
     1
102
RTVSPropertyOp18
 70
     1
102
RTVSPropertyOp19
 70
     1
102
RTVSPropertyOp20
 70
     1
102
RTVSPropertyOp21
 70
     1
102
RTVSPropertyOp22
 70
     1
102
RTVSPropertyOp23
 70
     1
102
RTVSPropertyOp24
 70
     1
102
RTVSPropertyOp25
 70
     1
102
RTVSPropertyOp26
 70
     1
102
RTVSPropertyOp27
 70
     1
102
RTVSPropertyOp28
 70
     1
102
RTVSPropertyOp29
 70
     1
102
RTVSPropertyOp30
 70
     1
102
RTVSPropertyOp31
 70
     1
102
RTVSPropertyOp32
 70
     1
102
RTVSPropertyOp33
 70
     1
102
RTVSPropertyOp34
 70
     1
102
RTVSPropertyOp35
 70
     1
102
RTVSPropertyOp36
 70
     1
102
RTVSPropertyOp37
 70
     1
102
RTVSPropertyOp38
 70
     1
102
RTVSPropertyOp39
 70
     1
102
RTVSPropertyOp40
 70
     1
102
RTVSPropertyOp41
 70
     1
102
RTVSPropertyOp42
 70
     1
102
RTVSPropertyOp43
 70
     1
102
RTVSPropertyOp44
 70
     1
102
RTVSPropertyOp45
 70
     1
102
RTVSPropertyOp46
 70
     1
102
RTVSPropertyOp47
 70
     1
102
RTVSPropertyOp48
 70
     1
102
RTVSPropertyOp49
 70
     1
102
RTVSPropertyOp50
 70
     1
102
RTVSPropertyOp51
 70
     0
102
RTVSPropertyOp52
 70
     0
102
RTVSPropertyOp53
 70
     1
102
RTVSPropertyOp54
 70
     1
102
RTVSPropertyOp55
 70
     1
102
RTVSPropertyOp56
 70
     1
102
RTVSPropertyOp57
 70
     1
102
RTVSPost2010Prop28
280
     0
102
RTVSPost2010PropOp28
 70
     1
102
RTVSPost2010Prop29
280
     1
102
RTVSPost2010PropOp29
 70
     1
102
RTVSPost2010Prop30
280
     1
102
RTVSPost2010PropOp30
 70
     1
102
RTVSPost2010Prop31
280
     0
102
RTVSPost2010PropOp31
 70
     1
102
RTVSPost2010Prop32
280
     0
102
RTVSPost2010PropOp32
 70
     1
102
RTVSPost2010Prop33
280
     0
102
RTVSPost2010PropOp33
 70
     1
102
RTVSPost2010Prop34
280
     0
102
RTVSPost2010PropOp34
 70
     1
102
RTVSPost2010Prop35
280
     0
102
RTVSPost2010PropOp35
 70
     1
102
RTVSPost2010Prop36
280
     0
102
RTVSPost2010PropOp36
 70
     1
102
RTVSPost2010Prop37
 90
       50
102
RTVSPost2010PropOp37
 70
     1
102
RTVSPost2010Prop38
140
0.0
102
RTVSPost2010PropOp38
 70
     1
102
RTVSPost2010Prop39
140
1.0
102
RTVSPost2010PropOp39
 70
     1
102
RTVSPost2010Prop40
 90
        0
102
RTVSPost2010PropOp40
 70
     1
102
RTVSPost2010Prop41ColorIndex
 90
       18
102
RTVSPost2010Prop41ColorRGB
 90
        0
102
RTVSPost2010PropOp41
 70
     1
102
RTVSPost2010Prop42
 90
       50
102
RTVSPost2010PropOp42
 70
     1
102
RTVSPost2010Prop43
 90
        3
102
RTVSPost2010PropOp43
 70
     1
102
RTVSPost2010Prop44ColorIndex
 90
        5
102
RTVSPost2010Prop44ColorRGB
 90
      255
102
RTVSPost2010PropOp44
 70
     1
102
RTVSPost2010Prop45
280
     0
102
RTVSPost2010PropOp45
 70
     1
102
RTVSPost2010Prop46
 90
       50
102
RTVSPost2010PropOp46
 70
     1
102
RTVSPost2010Prop47
 90
       50
102
RTVSPost2010PropOp47
 70
     1
102
RTVSPost2010Prop48
 90
       50
102
RTVSPost2010PropOp48
 70
     1
102
RTVSPost2010Prop49
280
     0
102
RTVSPost2010PropOp49
 70
     1
102
RTVSPost2010Prop50
 90
       50
102
RTVSPost2010PropOp50
 70
     1
102
RTVSPost2010Prop51ColorIndex
 90
      256
102
RTVSPost2010Prop51ColorRGB
 90
-16777216
102
RTVSPost2010PropOp51
 70
     0
102
RTVSPost2010Prop52
140
1.0
102
RTVSPost2010PropOp52
 70
     0
102
RTVSPost2010Prop53
 90
        2
102
RTVSPost2010PropOp53
 70
     1
102
RTVSPost2010Prop54
  1
strokes_ogs.tif
102
RTVSPost2010PropOp54
 70
     1
102
RTVSPost2010Prop55
280
     0
102
RTVSPost2010PropOp55
 70
     1
102
RTVSPost2010Prop56
140
1.0
102
RTVSPost2010PropOp56
 70
     1
102
RTVSPost2010Prop57
140
1.0
102
RTVSPost2010PropOp57
 70
     1
  0
XRECORD
  5
414
102
{ACAD_REACTORS
330
413
102
}
330
413
100
AcDbXrecord
280
     1
102
RTVSPropertyOp0
 70
     0
102
RTVSPropertyOp1
 70
     0
102
RTVSPropertyOp2
 70
     0
102
RTVSPropertyOp3
 70
     0
102
RTVSPropertyOp4
 70
     0
102
RTVSPropertyOp5
 70
     0
102
RTVSPropertyOp6
 70
     0
102
RTVSPropertyOp7
 70
     0
102
RTVSPropertyOp8
 70
     0
102
RTVSPropertyOp9
 70
     0
102
RTVSPropertyOp10
 70
     0
102
RTVSPropertyOp11
 70
     0
102
RTVSPropertyOp12
 70
     0
102
RTVSPropertyOp13
 70
     0
102
RTVSPropertyOp14
 70
     2
102
RTVSPropertyOp15
 70
     0
102
RTVSPropertyOp16
 70
     0
102
RTVSPropertyOp17
 70
     0
102
RTVSPropertyOp18
 70
     0
102
RTVSPropertyOp19
 70
     0
102
RTVSPropertyOp20
 70
     0
102
RTVSPropertyOp21
 70
     0
102
RTVSPropertyOp22
 70
     0
102
RTVSPropertyOp23
 70
     0
102
RTVSPropertyOp24
 70
     0
102
RTVSPropertyOp25
 70
     0
102
RTVSPropertyOp26
 70
     0
102
RTVSPropertyOp27
 70
     0
102
RTVSPropertyOp28
 70
     0
102
RTVSPropertyOp29
 70
     0
102
RTVSPropertyOp30
 70
     0
102
RTVSPropertyOp31
 70
     0
102
RTVSPropertyOp32
 70
     0
102
RTVSPropertyOp33
 70
     0
102
RTVSPropertyOp34
 70
     0
102
RTVSPropertyOp35
 70
     0
102
RTVSPropertyOp36
 70
     0
102
RTVSPropertyOp37
 70
     0
102
RTVSPropertyOp38
 70
     0
102
RTVSPropertyOp39
 70
     0
102
RTVSPropertyOp40
 70
     0
102
RTVSPropertyOp41
 70
     0
102
RTVSPropertyOp42
 70
     0
102
RTVSPropertyOp43
 70
     0
102
RTVSPropertyOp44
 70
     0
102
RTVSPropertyOp45
 70
     0
102
RTVSPropertyOp46
 70
     0
102
RTVSPropertyOp47
 70
     0
102
RTVSPropertyOp48
 70
     0
102
RTVSPropertyOp49
 70
     0
102
RTVSPropertyOp50
 70
     0
102
RTVSPropertyOp51
 70
     0
102
RTVSPropertyOp52
 70
     0
102
RTVSPropertyOp53
 70
     0
102
RTVSPropertyOp54
 70
     0
102
RTVSPropertyOp55
 70
     0
102
RTVSPropertyOp56
 70
     0
102
RTVSPropertyOp57
 70
     0
102
RTVSPost2010Prop28
280
     0
102
RTVSPost2010PropOp28
 70
     0
102
RTVSPost2010Prop29
280
     1
102
RTVSPost2010PropOp29
 70
     0
102
RTVSPost2010Prop30
280
     1
102
RTVSPost2010PropOp30
 70
     0
102
RTVSPost2010Prop31
280
     0
102
RTVSPost2010PropOp31
 70
     0
102
RTVSPost2010Prop32
280
     0
102
RTVSPost2010PropOp32
 70
     0
102
RTVSPost2010Prop33
280
     0
102
RTVSPost2010PropOp33
 70
     0
102
RTVSPost2010Prop34
280
     0
102
RTVSPost2010PropOp34
 70
     0
102
RTVSPost2010Prop35
280
     0
102
RTVSPost2010PropOp35
 70
     0
102
RTVSPost2010Prop36
280
     0
102
RTVSPost2010PropOp36
 70
     0
102
RTVSPost2010Prop37
 90
       50
102
RTVSPost2010PropOp37
 70
     0
102
RTVSPost2010Prop38
140
0.0
102
RTVSPost2010PropOp38
 70
     0
102
RTVSPost2010Prop39
140
1.0
102
RTVSPost2010PropOp39
 70
     0
102
RTVSPost2010Prop40
 90
        0
102
RTVSPost2010PropOp40
 70
     0
102
RTVSPost2010Prop41ColorIndex
 90
       18
102
RTVSPost2010Prop41ColorRGB
 90
        0
102
RTVSPost2010PropOp41
 70
     0
102
RTVSPost2010Prop42
 90
       50
102
RTVSPost2010PropOp42
 70
     0
102
RTVSPost2010Prop43
 90
        3
102
RTVSPost2010PropOp43
 70
     0
102
RTVSPost2010Prop44ColorIndex
 90
        5
102
RTVSPost2010Prop44ColorRGB
 90
      255
102
RTVSPost2010PropOp44
 70
     0
102
RTVSPost2010Prop45
280
     0
102
RTVSPost2010PropOp45
 70
     0
102
RTVSPost2010Prop46
 90
       50
102
RTVSPost2010PropOp46
 70
     0
102
RTVSPost2010Prop47
 90
       50
102
RTVSPost2010PropOp47
 70
     0
102
RTVSPost2010Prop48
 90
       50
102
RTVSPost2010PropOp48
 70
     0
102
RTVSPost2010Prop49
280
     0
102
RTVSPost2010PropOp49
 70
     0
102
RTVSPost2010Prop50
 90
       50
102
RTVSPost2010PropOp50
 70
     0
102
RTVSPost2010Prop51ColorIndex
 90
      256
102
RTVSPost2010Prop51ColorRGB
 90
-16777216
102
RTVSPost2010PropOp51
 70
     0
102
RTVSPost2010Prop52
140
1.0
102
RTVSPost2010PropOp52
 70
     0
102
RTVSPost2010Prop53
 90
        2
102
RTVSPost2010PropOp53
 70
     0
102
RTVSPost2010Prop54
  1
strokes_ogs.tif
102
RTVSPost2010PropOp54
 70
     0
102
RTVSPost2010Prop55
280
     0
102
RTVSPost2010PropOp55
 70
     0
102
RTVSPost2010Prop56
140
1.0
102
RTVSPost2010PropOp56
 70
     0
102
RTVSPost2010Prop57
140
1.0
102
RTVSPost2010PropOp57
 70
     0
  0
XRECORD
  5
40C
102
{ACAD_REACTORS
330
40B
102
}
330
40B
100
AcDbXrecord
280
     1
102
RTVSPropertyOp0
 70
     1
102
RTVSPropertyOp1
 70
     1
102
RTVSPropertyOp2
 70
     1
102
RTVSPropertyOp3
 70
     1
102
RTVSPropertyOp4
 70
     1
102
RTVSPropertyOp5
 70
     1
102
RTVSPropertyOp6
 70
     1
102
RTVSPropertyOp7
 70
     1
102
RTVSPropertyOp8
 70
     1
102
RTVSPropertyOp9
 70
     1
102
RTVSPropertyOp10
 70
     1
102
RTVSPropertyOp11
 70
     1
102
RTVSPropertyOp12
 70
     1
102
RTVSPropertyOp13
 70
     1
102
RTVSPropertyOp14
 70
     1
102
RTVSPropertyOp15
 70
     1
102
RTVSPropertyOp16
 70
     1
102
RTVSPropertyOp17
 70
     1
102
RTVSPropertyOp18
 70
     1
102
RTVSPropertyOp19
 70
     1
102
RTVSPropertyOp20
 70
     1
102
RTVSPropertyOp21
 70
     1
102
RTVSPropertyOp22
 70
     1
102
RTVSPropertyOp23
 70
     1
102
RTVSPropertyOp24
 70
     1
102
RTVSPropertyOp25
 70
     1
102
RTVSPropertyOp26
 70
     1
102
RTVSPropertyOp27
 70
     1
102
RTVSPropertyOp28
 70
     1
102
RTVSPropertyOp29
 70
     1
102
RTVSPropertyOp30
 70
     1
102
RTVSPropertyOp31
 70
     1
102
RTVSPropertyOp32
 70
     1
102
RTVSPropertyOp33
 70
     1
102
RTVSPropertyOp34
 70
     1
102
RTVSPropertyOp35
 70
     1
102
RTVSPropertyOp36
 70
     1
102
RTVSPropertyOp37
 70
     1
102
RTVSPropertyOp38
 70
     1
102
RTVSPropertyOp39
 70
     1
102
RTVSPropertyOp40
 70
     1
102
RTVSPropertyOp41
 70
     1
102
RTVSPropertyOp42
 70
     1
102
RTVSPropertyOp43
 70
     1
102
RTVSPropertyOp44
 70
     1
102
RTVSPropertyOp45
 70
     1
102
RTVSPropertyOp46
 70
     1
102
RTVSPropertyOp47
 70
     1
102
RTVSPropertyOp48
 70
     1
102
RTVSPropertyOp49
 70
     1
102
RTVSPropertyOp50
 70
     1
102
RTVSPropertyOp51
 70
     0
102
RTVSPropertyOp52
 70
     0
102
RTVSPropertyOp53
 70
     1
102
RTVSPropertyOp54
 70
     1
102
RTVSPropertyOp55
 70
     1
102
RTVSPropertyOp56
 70
     1
102
RTVSPropertyOp57
 70
     1
102
RTVSPost2010Prop28
280
     0
102
RTVSPost2010PropOp28
 70
     1
102
RTVSPost2010Prop29
280
     1
102
RTVSPost2010PropOp29
 70
     1
102
RTVSPost2010Prop30
280
     1
102
RTVSPost2010PropOp30
 70
     1
102
RTVSPost2010Prop31
280
     0
102
RTVSPost2010PropOp31
 70
     1
102
RTVSPost2010Prop32
280
     0
102
RTVSPost2010PropOp32
 70
     1
102
RTVSPost2010Prop33
280
     0
102
RTVSPost2010PropOp33
 70
     1
102
RTVSPost2010Prop34
280
     0
102
RTVSPost2010PropOp34
 70
     1
102
RTVSPost2010Prop35
280
     0
102
RTVSPost2010PropOp35
 70
     1
102
RTVSPost2010Prop36
280
     0
102
RTVSPost2010PropOp36
 70
     1
102
RTVSPost2010Prop37
 90
       50
102
RTVSPost2010PropOp37
 70
     1
102
RTVSPost2010Prop38
140
0.0
102
RTVSPost2010PropOp38
 70
     1
102
RTVSPost2010Prop39
140
1.0
102
RTVSPost2010PropOp39
 70
     1
102
RTVSPost2010Prop40
 90
        0
102
RTVSPost2010PropOp40
 70
     1
102
RTVSPost2010Prop41ColorIndex
 90
       18
102
RTVSPost2010Prop41ColorRGB
 90
        0
102
RTVSPost2010PropOp41
 70
     1
102
RTVSPost2010Prop42
 90
       50
102
RTVSPost2010PropOp42
 70
     1
102
RTVSPost2010Prop43
 90
        3
102
RTVSPost2010PropOp43
 70
     1
102
RTVSPost2010Prop44ColorIndex
 90
        5
102
RTVSPost2010Prop44ColorRGB
 90
      255
102
RTVSPost2010PropOp44
 70
     1
102
RTVSPost2010Prop45
280
     0
102
RTVSPost2010PropOp45
 70
     1
102
RTVSPost2010Prop46
 90
       50
102
RTVSPost2010PropOp46
 70
     1
102
RTVSPost2010Prop47
 90
       50
102
RTVSPost2010PropOp47
 70
     1
102
RTVSPost2010Prop48
 90
       50
102
RTVSPost2010PropOp48
 70
     1
102
RTVSPost2010Prop49
280
     0
102
RTVSPost2010PropOp49
 70
     1
102
RTVSPost2010Prop50
 90
       50
102
RTVSPost2010PropOp50
 70
     1
102
RTVSPost2010Prop51ColorIndex
 90
      256
102
RTVSPost2010Prop51ColorRGB
 90
-16777216
102
RTVSPost2010PropOp51
 70
     0
102
RTVSPost2010Prop52
140
1.0
102
RTVSPost2010PropOp52
 70
     0
102
RTVSPost2010Prop53
 90
        2
102
RTVSPost2010PropOp53
 70
     1
102
RTVSPost2010Prop54
  1
strokes_ogs.tif
102
RTVSPost2010PropOp54
 70
     1
102
RTVSPost2010Prop55
280
     0
102
RTVSPost2010PropOp55
 70
     1
102
RTVSPost2010Prop56
140
1.0
102
RTVSPost2010PropOp56
 70
     1
102
RTVSPost2010Prop57
140
1.0
102
RTVSPost2010PropOp57
 70
     1
  0
XRECORD
  5
3F0
102
{ACAD_REACTORS
330
3EF
102
}
330
3EF
100
AcDbXrecord
280
     1
102
RTVSPropertyOp0
 70
     1
102
RTVSPropertyOp1
 70
     1
102
RTVSPropertyOp2
 70
     1
102
RTVSPropertyOp3
 70
     1
102
RTVSPropertyOp4
 70
     1
102
RTVSPropertyOp5
 70
     1
102
RTVSPropertyOp6
 70
     1
102
RTVSPropertyOp7
 70
     1
102
RTVSPropertyOp8
 70
     1
102
RTVSPropertyOp9
 70
     1
102
RTVSPropertyOp10
 70
     1
102
RTVSPropertyOp11
 70
     1
102
RTVSPropertyOp12
 70
     1
102
RTVSPropertyOp13
 70
     1
102
RTVSPropertyOp14
 70
     1
102
RTVSPropertyOp15
 70
     1
102
RTVSPropertyOp16
 70
     1
102
RTVSPropertyOp17
 70
     1
102
RTVSPropertyOp18
 70
     1
102
RTVSPropertyOp19
 70
     1
102
RTVSPropertyOp20
 70
     1
102
RTVSPropertyOp21
 70
     1
102
RTVSPropertyOp22
 70
     1
102
RTVSPropertyOp23
 70
     1
102
RTVSPropertyOp24
 70
     1
102
RTVSPropertyOp25
 70
     1
102
RTVSPropertyOp26
 70
     1
102
RTVSPropertyOp27
 70
     1
102
RTVSPropertyOp28
 70
     1
102
RTVSPropertyOp29
 70
     1
102
RTVSPropertyOp30
 70
     1
102
RTVSPropertyOp31
 70
     1
102
RTVSPropertyOp32
 70
     1
102
RTVSPropertyOp33
 70
     1
102
RTVSPropertyOp34
 70
     1
102
RTVSPropertyOp35
 70
     1
102
RTVSPropertyOp36
 70
     1
102
RTVSPropertyOp37
 70
     1
102
RTVSPropertyOp38
 70
     1
102
RTVSPropertyOp39
 70
     1
102
RTVSPropertyOp40
 70
     1
102
RTVSPropertyOp41
 70
     1
102
RTVSPropertyOp42
 70
     1
102
RTVSPropertyOp43
 70
     1
102
RTVSPropertyOp44
 70
     1
102
RTVSPropertyOp45
 70
     1
102
RTVSPropertyOp46
 70
     1
102
RTVSPropertyOp47
 70
     1
102
RTVSPropertyOp48
 70
     1
102
RTVSPropertyOp49
 70
     1
102
RTVSPropertyOp50
 70
     1
102
RTVSPropertyOp51
 70
     0
102
RTVSPropertyOp52
 70
     0
102
RTVSPropertyOp53
 70
     1
102
RTVSPropertyOp54
 70
     1
102
RTVSPropertyOp55
 70
     1
102
RTVSPropertyOp56
 70
     1
102
RTVSPropertyOp57
 70
     1
102
RTVSPost2010Prop28
280
     0
102
RTVSPost2010PropOp28
 70
     1
102
RTVSPost2010Prop29
280
     1
102
RTVSPost2010PropOp29
 70
     1
102
RTVSPost2010Prop30
280
     1
102
RTVSPost2010PropOp30
 70
     1
102
RTVSPost2010Prop31
280
     0
102
RTVSPost2010PropOp31
 70
     1
102
RTVSPost2010Prop32
280
     0
102
RTVSPost2010PropOp32
 70
     1
102
RTVSPost2010Prop33
280
     0
102
RTVSPost2010PropOp33
 70
     1
102
RTVSPost2010Prop34
280
     0
102
RTVSPost2010PropOp34
 70
     1
102
RTVSPost2010Prop35
280
     0
102
RTVSPost2010PropOp35
 70
     1
102
RTVSPost2010Prop36
280
     0
102
RTVSPost2010PropOp36
 70
     1
102
RTVSPost2010Prop37
 90
       50
102
RTVSPost2010PropOp37
 70
     1
102
RTVSPost2010Prop38
140
0.0
102
RTVSPost2010PropOp38
 70
     1
102
RTVSPost2010Prop39
140
1.0
102
RTVSPost2010PropOp39
 70
     1
102
RTVSPost2010Prop40
 90
        0
102
RTVSPost2010PropOp40
 70
     1
102
RTVSPost2010Prop41ColorIndex
 90
       18
102
RTVSPost2010Prop41ColorRGB
 90
        0
102
RTVSPost2010PropOp41
 70
     1
102
RTVSPost2010Prop42
 90
       50
102
RTVSPost2010PropOp42
 70
     1
102
RTVSPost2010Prop43
 90
        3
102
RTVSPost2010PropOp43
 70
     1
102
RTVSPost2010Prop44ColorIndex
 90
        5
102
RTVSPost2010Prop44ColorRGB
 90
      255
102
RTVSPost2010PropOp44
 70
     1
102
RTVSPost2010Prop45
280
     0
102
RTVSPost2010PropOp45
 70
     1
102
RTVSPost2010Prop46
 90
       50
102
RTVSPost2010PropOp46
 70
     1
102
RTVSPost2010Prop47
 90
       50
102
RTVSPost2010PropOp47
 70
     1
102
RTVSPost2010Prop48
 90
       50
102
RTVSPost2010PropOp48
 70
     1
102
RTVSPost2010Prop49
280
     0
102
RTVSPost2010PropOp49
 70
     1
102
RTVSPost2010Prop50
 90
       50
102
RTVSPost2010PropOp50
 70
     1
102
RTVSPost2010Prop51ColorIndex
 90
      256
102
RTVSPost2010Prop51ColorRGB
 90
-16777216
102
RTVSPost2010PropOp51
 70
     0
102
RTVSPost2010Prop52
140
1.0
102
RTVSPost2010PropOp52
 70
     0
102
RTVSPost2010Prop53
 90
        2
102
RTVSPost2010PropOp53
 70
     1
102
RTVSPost2010Prop54
  1
strokes_ogs.tif
102
RTVSPost2010PropOp54
 70
     1
102
RTVSPost2010Prop55
280
     0
102
RTVSPost2010PropOp55
 70
     1
102
RTVSPost2010Prop56
140
1.0
102
RTVSPost2010PropOp56
 70
     1
102
RTVSPost2010Prop57
140
1.0
102
RTVSPost2010PropOp57
 70
     1
  0
XRECORD
  5
3F2
102
{ACAD_REACTORS
330
3F1
102
}
330
3F1
100
AcDbXrecord
280
     1
102
RTVSPropertyOp0
 70
     1
102
RTVSPropertyOp1
 70
     1
102
RTVSPropertyOp2
 70
     1
102
RTVSPropertyOp3
 70
     1
102
RTVSPropertyOp4
 70
     1
102
RTVSPropertyOp5
 70
     1
102
RTVSPropertyOp6
 70
     1
102
RTVSPropertyOp7
 70
     1
102
RTVSPropertyOp8
 70
     1
102
RTVSPropertyOp9
 70
     1
102
RTVSPropertyOp10
 70
     1
102
RTVSPropertyOp11
 70
     1
102
RTVSPropertyOp12
 70
     1
102
RTVSPropertyOp13
 70
     1
102
RTVSPropertyOp14
 70
     1
102
RTVSPropertyOp15
 70
     1
102
RTVSPropertyOp16
 70
     1
102
RTVSPropertyOp17
 70
     1
102
RTVSPropertyOp18
 70
     1
102
RTVSPropertyOp19
 70
     1
102
RTVSPropertyOp20
 70
     1
102
RTVSPropertyOp21
 70
     1
102
RTVSPropertyOp22
 70
     1
102
RTVSPropertyOp23
 70
     1
102
RTVSPropertyOp24
 70
     1
102
RTVSPropertyOp25
 70
     1
102
RTVSPropertyOp26
 70
     1
102
RTVSPropertyOp27
 70
     1
102
RTVSPropertyOp28
 70
     1
102
RTVSPropertyOp29
 70
     1
102
RTVSPropertyOp30
 70
     1
102
RTVSPropertyOp31
 70
     1
102
RTVSPropertyOp32
 70
     1
102
RTVSPropertyOp33
 70
     1
102
RTVSPropertyOp34
 70
     1
102
RTVSPropertyOp35
 70
     1
102
RTVSPropertyOp36
 70
     1
102
RTVSPropertyOp37
 70
     1
102
RTVSPropertyOp38
 70
     1
102
RTVSPropertyOp39
 70
     1
102
RTVSPropertyOp40
 70
     1
102
RTVSPropertyOp41
 70
     1
102
RTVSPropertyOp42
 70
     1
102
RTVSPropertyOp43
 70
     1
102
RTVSPropertyOp44
 70
     1
102
RTVSPropertyOp45
 70
     1
102
RTVSPropertyOp46
 70
     1
102
RTVSPropertyOp47
 70
     1
102
RTVSPropertyOp48
 70
     1
102
RTVSPropertyOp49
 70
     1
102
RTVSPropertyOp50
 70
     1
102
RTVSPropertyOp51
 70
     0
102
RTVSPropertyOp52
 70
     0
102
RTVSPropertyOp53
 70
     1
102
RTVSPropertyOp54
 70
     1
102
RTVSPropertyOp55
 70
     1
102
RTVSPropertyOp56
 70
     1
102
RTVSPropertyOp57
 70
     1
102
RTVSPost2010Prop28
280
     0
102
RTVSPost2010PropOp28
 70
     1
102
RTVSPost2010Prop29
280
     1
102
RTVSPost2010PropOp29
 70
     1
102
RTVSPost2010Prop30
280
     1
102
RTVSPost2010PropOp30
 70
     1
102
RTVSPost2010Prop31
280
     0
102
RTVSPost2010PropOp31
 70
     1
102
RTVSPost2010Prop32
280
     0
102
RTVSPost2010PropOp32
 70
     1
102
RTVSPost2010Prop33
280
     0
102
RTVSPost2010PropOp33
 70
     1
102
RTVSPost2010Prop34
280
     0
102
RTVSPost2010PropOp34
 70
     1
102
RTVSPost2010Prop35
280
     0
102
RTVSPost2010PropOp35
 70
     1
102
RTVSPost2010Prop36
280
     0
102
RTVSPost2010PropOp36
 70
     1
102
RTVSPost2010Prop37
 90
       50
102
RTVSPost2010PropOp37
 70
     1
102
RTVSPost2010Prop38
140
0.0
102
RTVSPost2010PropOp38
 70
     1
102
RTVSPost2010Prop39
140
1.0
102
RTVSPost2010PropOp39
 70
     1
102
RTVSPost2010Prop40
 90
        0
102
RTVSPost2010PropOp40
 70
     1
102
RTVSPost2010Prop41ColorIndex
 90
       18
102
RTVSPost2010Prop41ColorRGB
 90
        0
102
RTVSPost2010PropOp41
 70
     1
102
RTVSPost2010Prop42
 90
       50
102
RTVSPost2010PropOp42
 70
     1
102
RTVSPost2010Prop43
 90
        3
102
RTVSPost2010PropOp43
 70
     1
102
RTVSPost2010Prop44ColorIndex
 90
        5
102
RTVSPost2010Prop44ColorRGB
 90
      255
102
RTVSPost2010PropOp44
 70
     1
102
RTVSPost2010Prop45
280
     0
102
RTVSPost2010PropOp45
 70
     1
102
RTVSPost2010Prop46
 90
       50
102
RTVSPost2010PropOp46
 70
     1
102
RTVSPost2010Prop47
 90
       50
102
RTVSPost2010PropOp47
 70
     1
102
RTVSPost2010Prop48
 90
       50
102
RTVSPost2010PropOp48
 70
     1
102
RTVSPost2010Prop49
280
     0
102
RTVSPost2010PropOp49
 70
     1
102
RTVSPost2010Prop50
 90
       50
102
RTVSPost2010PropOp50
 70
     1
102
RTVSPost2010Prop51ColorIndex
 90
      256
102
RTVSPost2010Prop51ColorRGB
 90
-16777216
102
RTVSPost2010PropOp51
 70
     0
102
RTVSPost2010Prop52
140
1.0
102
RTVSPost2010PropOp52
 70
     0
102
RTVSPost2010Prop53
 90
        2
102
RTVSPost2010PropOp53
 70
     1
102
RTVSPost2010Prop54
  1
strokes_ogs.tif
102
RTVSPost2010PropOp54
 70
     1
102
RTVSPost2010Prop55
280
     0
102
RTVSPost2010PropOp55
 70
     1
102
RTVSPost2010Prop56
140
1.0
102
RTVSPost2010PropOp56
 70
     1
102
RTVSPost2010Prop57
140
1.0
102
RTVSPost2010PropOp57
 70
     1
  0
XRECORD
  5
3F4
102
{ACAD_REACTORS
330
3F3
102
}
330
3F3
100
AcDbXrecord
280
     1
102
RTVSPropertyOp0
 70
     1
102
RTVSPropertyOp1
 70
     1
102
RTVSPropertyOp2
 70
     1
102
RTVSPropertyOp3
 70
     1
102
RTVSPropertyOp4
 70
     1
102
RTVSPropertyOp5
 70
     1
102
RTVSPropertyOp6
 70
     1
102
RTVSPropertyOp7
 70
     1
102
RTVSPropertyOp8
 70
     1
102
RTVSPropertyOp9
 70
     1
102
RTVSPropertyOp10
 70
     1
102
RTVSPropertyOp11
 70
     1
102
RTVSPropertyOp12
 70
     1
102
RTVSPropertyOp13
 70
     1
102
RTVSPropertyOp14
 70
     1
102
RTVSPropertyOp15
 70
     1
102
RTVSPropertyOp16
 70
     1
102
RTVSPropertyOp17
 70
     1
102
RTVSPropertyOp18
 70
     1
102
RTVSPropertyOp19
 70
     1
102
RTVSPropertyOp20
 70
     1
102
RTVSPropertyOp21
 70
     1
102
RTVSPropertyOp22
 70
     1
102
RTVSPropertyOp23
 70
     1
102
RTVSPropertyOp24
 70
     1
102
RTVSPropertyOp25
 70
     1
102
RTVSPropertyOp26
 70
     1
102
RTVSPropertyOp27
 70
     1
102
RTVSPropertyOp28
 70
     1
102
RTVSPropertyOp29
 70
     1
102
RTVSPropertyOp30
 70
     1
102
RTVSPropertyOp31
 70
     1
102
RTVSPropertyOp32
 70
     1
102
RTVSPropertyOp33
 70
     1
102
RTVSPropertyOp34
 70
     1
102
RTVSPropertyOp35
 70
     1
102
RTVSPropertyOp36
 70
     1
102
RTVSPropertyOp37
 70
     1
102
RTVSPropertyOp38
 70
     1
102
RTVSPropertyOp39
 70
     1
102
RTVSPropertyOp40
 70
     1
102
RTVSPropertyOp41
 70
     1
102
RTVSPropertyOp42
 70
     1
102
RTVSPropertyOp43
 70
     1
102
RTVSPropertyOp44
 70
     1
102
RTVSPropertyOp45
 70
     1
102
RTVSPropertyOp46
 70
     1
102
RTVSPropertyOp47
 70
     1
102
RTVSPropertyOp48
 70
     1
102
RTVSPropertyOp49
 70
     1
102
RTVSPropertyOp50
 70
     1
102
RTVSPropertyOp51
 70
     0
102
RTVSPropertyOp52
 70
     0
102
RTVSPropertyOp53
 70
     1
102
RTVSPropertyOp54
 70
     1
102
RTVSPropertyOp55
 70
     1
102
RTVSPropertyOp56
 70
     1
102
RTVSPropertyOp57
 70
     1
102
RTVSPost2010Prop28
280
     0
102
RTVSPost2010PropOp28
 70
     1
102
RTVSPost2010Prop29
280
     1
102
RTVSPost2010PropOp29
 70
     1
102
RTVSPost2010Prop30
280
     1
102
RTVSPost2010PropOp30
 70
     1
102
RTVSPost2010Prop31
280
     0
102
RTVSPost2010PropOp31
 70
     1
102
RTVSPost2010Prop32
280
     0
102
RTVSPost2010PropOp32
 70
     1
102
RTVSPost2010Prop33
280
     0
102
RTVSPost2010PropOp33
 70
     1
102
RTVSPost2010Prop34
280
     0
102
RTVSPost2010PropOp34
 70
     1
102
RTVSPost2010Prop35
280
     0
102
RTVSPost2010PropOp35
 70
     1
102
RTVSPost2010Prop36
280
     0
102
RTVSPost2010PropOp36
 70
     1
102
RTVSPost2010Prop37
 90
       50
102
RTVSPost2010PropOp37
 70
     1
102
RTVSPost2010Prop38
140
0.0
102
RTVSPost2010PropOp38
 70
     1
102
RTVSPost2010Prop39
140
1.0
102
RTVSPost2010PropOp39
 70
     1
102
RTVSPost2010Prop40
 90
        0
102
RTVSPost2010PropOp40
 70
     1
102
RTVSPost2010Prop41ColorIndex
 90
       18
102
RTVSPost2010Prop41ColorRGB
 90
        0
102
RTVSPost2010PropOp41
 70
     1
102
RTVSPost2010Prop42
 90
       50
102
RTVSPost2010PropOp42
 70
     1
102
RTVSPost2010Prop43
 90
        3
102
RTVSPost2010PropOp43
 70
     1
102
RTVSPost2010Prop44ColorIndex
 90
        5
102
RTVSPost2010Prop44ColorRGB
 90
      255
102
RTVSPost2010PropOp44
 70
     1
102
RTVSPost2010Prop45
280
     0
102
RTVSPost2010PropOp45
 70
     1
102
RTVSPost2010Prop46
 90
       50
102
RTVSPost2010PropOp46
 70
     1
102
RTVSPost2010Prop47
 90
       50
102
RTVSPost2010PropOp47
 70
     1
102
RTVSPost2010Prop48
 90
       50
102
RTVSPost2010PropOp48
 70
     1
102
RTVSPost2010Prop49
280
     0
102
RTVSPost2010PropOp49
 70
     1
102
RTVSPost2010Prop50
 90
       50
102
RTVSPost2010PropOp50
 70
     1
102
RTVSPost2010Prop51ColorIndex
 90
      256
102
RTVSPost2010Prop51ColorRGB
 90
-16777216
102
RTVSPost2010PropOp51
 70
     0
102
RTVSPost2010Prop52
140
1.0
102
RTVSPost2010PropOp52
 70
     0
102
RTVSPost2010Prop53
 90
        2
102
RTVSPost2010PropOp53
 70
     1
102
RTVSPost2010Prop54
  1
strokes_ogs.tif
102
RTVSPost2010PropOp54
 70
     1
102
RTVSPost2010Prop55
280
     0
102
RTVSPost2010PropOp55
 70
     1
102
RTVSPost2010Prop56
140
1.0
102
RTVSPost2010PropOp56
 70
     1
102
RTVSPost2010Prop57
140
1.0
102
RTVSPost2010PropOp57
 70
     1
  0
XRECORD
  5
3F6
102
{ACAD_REACTORS
330
3F5
102
}
330
3F5
100
AcDbXrecord
280
     1
102
RTVSPropertyOp0
 70
     1
102
RTVSPropertyOp1
 70
     1
102
RTVSPropertyOp2
 70
     1
102
RTVSPropertyOp3
 70
     1
102
RTVSPropertyOp4
 70
     1
102
RTVSPropertyOp5
 70
     1
102
RTVSPropertyOp6
 70
     1
102
RTVSPropertyOp7
 70
     1
102
RTVSPropertyOp8
 70
     1
102
RTVSPropertyOp9
 70
     1
102
RTVSPropertyOp10
 70
     1
102
RTVSPropertyOp11
 70
     1
102
RTVSPropertyOp12
 70
     1
102
RTVSPropertyOp13
 70
     1
102
RTVSPropertyOp14
 70
     1
102
RTVSPropertyOp15
 70
     1
102
RTVSPropertyOp16
 70
     1
102
RTVSPropertyOp17
 70
     1
102
RTVSPropertyOp18
 70
     1
102
RTVSPropertyOp19
 70
     1
102
RTVSPropertyOp20
 70
     1
102
RTVSPropertyOp21
 70
     1
102
RTVSPropertyOp22
 70
     1
102
RTVSPropertyOp23
 70
     1
102
RTVSPropertyOp24
 70
     1
102
RTVSPropertyOp25
 70
     1
102
RTVSPropertyOp26
 70
     1
102
RTVSPropertyOp27
 70
     1
102
RTVSPropertyOp28
 70
     1
102
RTVSPropertyOp29
 70
     1
102
RTVSPropertyOp30
 70
     1
102
RTVSPropertyOp31
 70
     1
102
RTVSPropertyOp32
 70
     1
102
RTVSPropertyOp33
 70
     1
102
RTVSPropertyOp34
 70
     1
102
RTVSPropertyOp35
 70
     1
102
RTVSPropertyOp36
 70
     1
102
RTVSPropertyOp37
 70
     1
102
RTVSPropertyOp38
 70
     1
102
RTVSPropertyOp39
 70
     1
102
RTVSPropertyOp40
 70
     1
102
RTVSPropertyOp41
 70
     1
102
RTVSPropertyOp42
 70
     1
102
RTVSPropertyOp43
 70
     1
102
RTVSPropertyOp44
 70
     1
102
RTVSPropertyOp45
 70
     1
102
RTVSPropertyOp46
 70
     1
102
RTVSPropertyOp47
 70
     1
102
RTVSPropertyOp48
 70
     1
102
RTVSPropertyOp49
 70
     1
102
RTVSPropertyOp50
 70
     1
102
RTVSPropertyOp51
 70
     0
102
RTVSPropertyOp52
 70
     0
102
RTVSPropertyOp53
 70
     1
102
RTVSPropertyOp54
 70
     1
102
RTVSPropertyOp55
 70
     1
102
RTVSPropertyOp56
 70
     1
102
RTVSPropertyOp57
 70
     1
102
RTVSPost2010Prop28
280
     0
102
RTVSPost2010PropOp28
 70
     1
102
RTVSPost2010Prop29
280
     1
102
RTVSPost2010PropOp29
 70
     1
102
RTVSPost2010Prop30
280
     1
102
RTVSPost2010PropOp30
 70
     1
102
RTVSPost2010Prop31
280
     0
102
RTVSPost2010PropOp31
 70
     1
102
RTVSPost2010Prop32
280
     0
102
RTVSPost2010PropOp32
 70
     1
102
RTVSPost2010Prop33
280
     0
102
RTVSPost2010PropOp33
 70
     1
102
RTVSPost2010Prop34
280
     0
102
RTVSPost2010PropOp34
 70
     1
102
RTVSPost2010Prop35
280
     0
102
RTVSPost2010PropOp35
 70
     1
102
RTVSPost2010Prop36
280
     0
102
RTVSPost2010PropOp36
 70
     1
102
RTVSPost2010Prop37
 90
       50
102
RTVSPost2010PropOp37
 70
     1
102
RTVSPost2010Prop38
140
0.0
102
RTVSPost2010PropOp38
 70
     1
102
RTVSPost2010Prop39
140
1.0
102
RTVSPost2010PropOp39
 70
     1
102
RTVSPost2010Prop40
 90
        0
102
RTVSPost2010PropOp40
 70
     1
102
RTVSPost2010Prop41ColorIndex
 90
       18
102
RTVSPost2010Prop41ColorRGB
 90
        0
102
RTVSPost2010PropOp41
 70
     1
102
RTVSPost2010Prop42
 90
       50
102
RTVSPost2010PropOp42
 70
     1
102
RTVSPost2010Prop43
 90
        3
102
RTVSPost2010PropOp43
 70
     1
102
RTVSPost2010Prop44ColorIndex
 90
        5
102
RTVSPost2010Prop44ColorRGB
 90
      255
102
RTVSPost2010PropOp44
 70
     1
102
RTVSPost2010Prop45
280
     0
102
RTVSPost2010PropOp45
 70
     1
102
RTVSPost2010Prop46
 90
       50
102
RTVSPost2010PropOp46
 70
     1
102
RTVSPost2010Prop47
 90
       50
102
RTVSPost2010PropOp47
 70
     1
102
RTVSPost2010Prop48
 90
       50
102
RTVSPost2010PropOp48
 70
     1
102
RTVSPost2010Prop49
280
     0
102
RTVSPost2010PropOp49
 70
     1
102
RTVSPost2010Prop50
 90
       50
102
RTVSPost2010PropOp50
 70
     1
102
RTVSPost2010Prop51ColorIndex
 90
      256
102
RTVSPost2010Prop51ColorRGB
 90
-16777216
102
RTVSPost2010PropOp51
 70
     0
102
RTVSPost2010Prop52
140
1.0
102
RTVSPost2010PropOp52
 70
     0
102
RTVSPost2010Prop53
 90
        2
102
RTVSPost2010PropOp53
 70
     1
102
RTVSPost2010Prop54
  1
strokes_ogs.tif
102
RTVSPost2010PropOp54
 70
     1
102
RTVSPost2010Prop55
280
     0
102
RTVSPost2010PropOp55
 70
     1
102
RTVSPost2010Prop56
140
1.0
102
RTVSPost2010PropOp56
 70
     1
102
RTVSPost2010Prop57
140
1.0
102
RTVSPost2010PropOp57
 70
     1
  0
XRECORD
  5
3FC
102
{ACAD_REACTORS
330
3FB
102
}
330
3FB
100
AcDbXrecord
280
     1
102
RTVSPropertyOp0
 70
     1
102
RTVSPropertyOp1
 70
     1
102
RTVSPropertyOp2
 70
     1
102
RTVSPropertyOp3
 70
     1
102
RTVSPropertyOp4
 70
     1
102
RTVSPropertyOp5
 70
     1
102
RTVSPropertyOp6
 70
     1
102
RTVSPropertyOp7
 70
     1
102
RTVSPropertyOp8
 70
     1
102
RTVSPropertyOp9
 70
     1
102
RTVSPropertyOp10
 70
     1
102
RTVSPropertyOp11
 70
     1
102
RTVSPropertyOp12
 70
     1
102
RTVSPropertyOp13
 70
     1
102
RTVSPropertyOp14
 70
     1
102
RTVSPropertyOp15
 70
     1
102
RTVSPropertyOp16
 70
     1
102
RTVSPropertyOp17
 70
     1
102
RTVSPropertyOp18
 70
     1
102
RTVSPropertyOp19
 70
     1
102
RTVSPropertyOp20
 70
     1
102
RTVSPropertyOp21
 70
     1
102
RTVSPropertyOp22
 70
     1
102
RTVSPropertyOp23
 70
     1
102
RTVSPropertyOp24
 70
     1
102
RTVSPropertyOp25
 70
     1
102
RTVSPropertyOp26
 70
     1
102
RTVSPropertyOp27
 70
     1
102
RTVSPropertyOp28
 70
     1
102
RTVSPropertyOp29
 70
     1
102
RTVSPropertyOp30
 70
     1
102
RTVSPropertyOp31
 70
     1
102
RTVSPropertyOp32
 70
     1
102
RTVSPropertyOp33
 70
     1
102
RTVSPropertyOp34
 70
     1
102
RTVSPropertyOp35
 70
     1
102
RTVSPropertyOp36
 70
     1
102
RTVSPropertyOp37
 70
     1
102
RTVSPropertyOp38
 70
     1
102
RTVSPropertyOp39
 70
     1
102
RTVSPropertyOp40
 70
     1
102
RTVSPropertyOp41
 70
     1
102
RTVSPropertyOp42
 70
     1
102
RTVSPropertyOp43
 70
     1
102
RTVSPropertyOp44
 70
     1
102
RTVSPropertyOp45
 70
     1
102
RTVSPropertyOp46
 70
     1
102
RTVSPropertyOp47
 70
     1
102
RTVSPropertyOp48
 70
     1
102
RTVSPropertyOp49
 70
     1
102
RTVSPropertyOp50
 70
     1
102
RTVSPropertyOp51
 70
     0
102
RTVSPropertyOp52
 70
     0
102
RTVSPropertyOp53
 70
     1
102
RTVSPropertyOp54
 70
     1
102
RTVSPropertyOp55
 70
     1
102
RTVSPropertyOp56
 70
     1
102
RTVSPropertyOp57
 70
     1
102
RTVSPost2010Prop28
280
     0
102
RTVSPost2010PropOp28
 70
     1
102
RTVSPost2010Prop29
280
     1
102
RTVSPost2010PropOp29
 70
     1
102
RTVSPost2010Prop30
280
     1
102
RTVSPost2010PropOp30
 70
     1
102
RTVSPost2010Prop31
280
     0
102
RTVSPost2010PropOp31
 70
     1
102
RTVSPost2010Prop32
280
     0
102
RTVSPost2010PropOp32
 70
     1
102
RTVSPost2010Prop33
280
     0
102
RTVSPost2010PropOp33
 70
     1
102
RTVSPost2010Prop34
280
     0
102
RTVSPost2010PropOp34
 70
     1
102
RTVSPost2010Prop35
280
     0
102
RTVSPost2010PropOp35
 70
     1
102
RTVSPost2010Prop36
280
     0
102
RTVSPost2010PropOp36
 70
     1
102
RTVSPost2010Prop37
 90
       50
102
RTVSPost2010PropOp37
 70
     1
102
RTVSPost2010Prop38
140
0.0
102
RTVSPost2010PropOp38
 70
     1
102
RTVSPost2010Prop39
140
1.0
102
RTVSPost2010PropOp39
 70
     1
102
RTVSPost2010Prop40
 90
        0
102
RTVSPost2010PropOp40
 70
     1
102
RTVSPost2010Prop41ColorIndex
 90
       18
102
RTVSPost2010Prop41ColorRGB
 90
        0
102
RTVSPost2010PropOp41
 70
     1
102
RTVSPost2010Prop42
 90
       50
102
RTVSPost2010PropOp42
 70
     1
102
RTVSPost2010Prop43
 90
        3
102
RTVSPost2010PropOp43
 70
     1
102
RTVSPost2010Prop44ColorIndex
 90
        5
102
RTVSPost2010Prop44ColorRGB
 90
      255
102
RTVSPost2010PropOp44
 70
     1
102
RTVSPost2010Prop45
280
     0
102
RTVSPost2010PropOp45
 70
     1
102
RTVSPost2010Prop46
 90
       50
102
RTVSPost2010PropOp46
 70
     1
102
RTVSPost2010Prop47
 90
       50
102
RTVSPost2010PropOp47
 70
     1
102
RTVSPost2010Prop48
 90
       50
102
RTVSPost2010PropOp48
 70
     1
102
RTVSPost2010Prop49
280
     0
102
RTVSPost2010PropOp49
 70
     1
102
RTVSPost2010Prop50
 90
       50
102
RTVSPost2010PropOp50
 70
     1
102
RTVSPost2010Prop51ColorIndex
 90
      256
102
RTVSPost2010Prop51ColorRGB
 90
-16777216
102
RTVSPost2010PropOp51
 70
     0
102
RTVSPost2010Prop52
140
1.0
102
RTVSPost2010PropOp52
 70
     0
102
RTVSPost2010Prop53
 90
        2
102
RTVSPost2010PropOp53
 70
     1
102
RTVSPost2010Prop54
  1
strokes_ogs.tif
102
RTVSPost2010PropOp54
 70
     1
102
RTVSPost2010Prop55
280
     0
102
RTVSPost2010PropOp55
 70
     1
102
RTVSPost2010Prop56
140
1.0
102
RTVSPost2010PropOp56
 70
     1
102
RTVSPost2010Prop57
140
1.0
102
RTVSPost2010PropOp57
 70
     1
  0
XRECORD
  5
410
102
{ACAD_REACTORS
330
40F
102
}
330
40F
100
AcDbXrecord
280
     1
102
RTVSPropertyOp0
 70
     0
102
RTVSPropertyOp1
 70
     0
102
RTVSPropertyOp2
 70
     0
102
RTVSPropertyOp3
 70
     0
102
RTVSPropertyOp4
 70
     0
102
RTVSPropertyOp5
 70
     0
102
RTVSPropertyOp6
 70
     0
102
RTVSPropertyOp7
 70
     0
102
RTVSPropertyOp8
 70
     0
102
RTVSPropertyOp9
 70
     0
102
RTVSPropertyOp10
 70
     0
102
RTVSPropertyOp11
 70
     0
102
RTVSPropertyOp12
 70
     0
102
RTVSPropertyOp13
 70
     0
102
RTVSPropertyOp14
 70
     2
102
RTVSPropertyOp15
 70
     0
102
RTVSPropertyOp16
 70
     0
102
RTVSPropertyOp17
 70
     0
102
RTVSPropertyOp18
 70
     0
102
RTVSPropertyOp19
 70
     0
102
RTVSPropertyOp20
 70
     0
102
RTVSPropertyOp21
 70
     0
102
RTVSPropertyOp22
 70
     0
102
RTVSPropertyOp23
 70
     0
102
RTVSPropertyOp24
 70
     0
102
RTVSPropertyOp25
 70
     0
102
RTVSPropertyOp26
 70
     0
102
RTVSPropertyOp27
 70
     0
102
RTVSPropertyOp28
 70
     0
102
RTVSPropertyOp29
 70
     0
102
RTVSPropertyOp30
 70
     0
102
RTVSPropertyOp31
 70
     0
102
RTVSPropertyOp32
 70
     0
102
RTVSPropertyOp33
 70
     0
102
RTVSPropertyOp34
 70
     0
102
RTVSPropertyOp35
 70
     0
102
RTVSPropertyOp36
 70
     0
102
RTVSPropertyOp37
 70
     0
102
RTVSPropertyOp38
 70
     0
102
RTVSPropertyOp39
 70
     0
102
RTVSPropertyOp40
 70
     0
102
RTVSPropertyOp41
 70
     0
102
RTVSPropertyOp42
 70
     0
102
RTVSPropertyOp43
 70
     0
102
RTVSPropertyOp44
 70
     0
102
RTVSPropertyOp45
 70
     0
102
RTVSPropertyOp46
 70
     0
102
RTVSPropertyOp47
 70
     0
102
RTVSPropertyOp48
 70
     0
102
RTVSPropertyOp49
 70
     0
102
RTVSPropertyOp50
 70
     0
102
RTVSPropertyOp51
 70
     0
102
RTVSPropertyOp52
 70
     0
102
RTVSPropertyOp53
 70
     0
102
RTVSPropertyOp54
 70
     0
102
RTVSPropertyOp55
 70
     0
102
RTVSPropertyOp56
 70
     0
102
RTVSPropertyOp57
 70
     0
102
RTVSPost2010Prop28
280
     0
102
RTVSPost2010PropOp28
 70
     0
102
RTVSPost2010Prop29
280
     1
102
RTVSPost2010PropOp29
 70
     0
102
RTVSPost2010Prop30
280
     1
102
RTVSPost2010PropOp30
 70
     0
102
RTVSPost2010Prop31
280
     0
102
RTVSPost2010PropOp31
 70
     0
102
RTVSPost2010Prop32
280
     0
102
RTVSPost2010PropOp32
 70
     0
102
RTVSPost2010Prop33
280
     0
102
RTVSPost2010PropOp33
 70
     0
102
RTVSPost2010Prop34
280
     0
102
RTVSPost2010PropOp34
 70
     0
102
RTVSPost2010Prop35
280
     0
102
RTVSPost2010PropOp35
 70
     0
102
RTVSPost2010Prop36
280
     0
102
RTVSPost2010PropOp36
 70
     0
102
RTVSPost2010Prop37
 90
       50
102
RTVSPost2010PropOp37
 70
     0
102
RTVSPost2010Prop38
140
0.0
102
RTVSPost2010PropOp38
 70
     0
102
RTVSPost2010Prop39
140
1.0
102
RTVSPost2010PropOp39
 70
     0
102
RTVSPost2010Prop40
 90
        0
102
RTVSPost2010PropOp40
 70
     0
102
RTVSPost2010Prop41ColorIndex
 90
       18
102
RTVSPost2010Prop41ColorRGB
 90
        0
102
RTVSPost2010PropOp41
 70
     0
102
RTVSPost2010Prop42
 90
       50
102
RTVSPost2010PropOp42
 70
     0
102
RTVSPost2010Prop43
 90
        3
102
RTVSPost2010PropOp43
 70
     0
102
RTVSPost2010Prop44ColorIndex
 90
        5
102
RTVSPost2010Prop44ColorRGB
 90
      255
102
RTVSPost2010PropOp44
 70
     0
102
RTVSPost2010Prop45
280
     0
102
RTVSPost2010PropOp45
 70
     0
102
RTVSPost2010Prop46
 90
       50
102
RTVSPost2010PropOp46
 70
     0
102
RTVSPost2010Prop47
 90
       50
102
RTVSPost2010PropOp47
 70
     0
102
RTVSPost2010Prop48
 90
       50
102
RTVSPost2010PropOp48
 70
     0
102
RTVSPost2010Prop49
280
     0
102
RTVSPost2010PropOp49
 70
     0
102
RTVSPost2010Prop50
 90
       50
102
RTVSPost2010PropOp50
 70
     0
102
RTVSPost2010Prop51ColorIndex
 90
      256
102
RTVSPost2010Prop51ColorRGB
 90
-16777216
102
RTVSPost2010PropOp51
 70
     0
102
RTVSPost2010Prop52
140
1.0
102
RTVSPost2010PropOp52
 70
     0
102
RTVSPost2010Prop53
 90
        2
102
RTVSPost2010PropOp53
 70
     0
102
RTVSPost2010Prop54
  1
strokes_ogs.tif
102
RTVSPost2010PropOp54
 70
     0
102
RTVSPost2010Prop55
280
     0
102
RTVSPost2010PropOp55
 70
     0
102
RTVSPost2010Prop56
140
1.0
102
RTVSPost2010PropOp56
 70
     0
102
RTVSPost2010Prop57
140
1.0
102
RTVSPost2010PropOp57
 70
     0
  0
XRECORD
  5
40A
102
{ACAD_REACTORS
330
409
102
}
330
409
100
AcDbXrecord
280
     1
102
RTVSPropertyOp0
 70
     1
102
RTVSPropertyOp1
 70
     1
102
RTVSPropertyOp2
 70
     1
102
RTVSPropertyOp3
 70
     1
102
RTVSPropertyOp4
 70
     1
102
RTVSPropertyOp5
 70
     1
102
RTVSPropertyOp6
 70
     1
102
RTVSPropertyOp7
 70
     1
102
RTVSPropertyOp8
 70
     1
102
RTVSPropertyOp9
 70
     1
102
RTVSPropertyOp10
 70
     1
102
RTVSPropertyOp11
 70
     1
102
RTVSPropertyOp12
 70
     1
102
RTVSPropertyOp13
 70
     1
102
RTVSPropertyOp14
 70
     1
102
RTVSPropertyOp15
 70
     1
102
RTVSPropertyOp16
 70
     1
102
RTVSPropertyOp17
 70
     1
102
RTVSPropertyOp18
 70
     1
102
RTVSPropertyOp19
 70
     1
102
RTVSPropertyOp20
 70
     1
102
RTVSPropertyOp21
 70
     1
102
RTVSPropertyOp22
 70
     1
102
RTVSPropertyOp23
 70
     1
102
RTVSPropertyOp24
 70
     1
102
RTVSPropertyOp25
 70
     1
102
RTVSPropertyOp26
 70
     1
102
RTVSPropertyOp27
 70
     1
102
RTVSPropertyOp28
 70
     1
102
RTVSPropertyOp29
 70
     1
102
RTVSPropertyOp30
 70
     1
102
RTVSPropertyOp31
 70
     1
102
RTVSPropertyOp32
 70
     1
102
RTVSPropertyOp33
 70
     1
102
RTVSPropertyOp34
 70
     1
102
RTVSPropertyOp35
 70
     1
102
RTVSPropertyOp36
 70
     1
102
RTVSPropertyOp37
 70
     1
102
RTVSPropertyOp38
 70
     1
102
RTVSPropertyOp39
 70
     1
102
RTVSPropertyOp40
 70
     1
102
RTVSPropertyOp41
 70
     1
102
RTVSPropertyOp42
 70
     1
102
RTVSPropertyOp43
 70
     1
102
RTVSPropertyOp44
 70
     1
102
RTVSPropertyOp45
 70
     1
102
RTVSPropertyOp46
 70
     1
102
RTVSPropertyOp47
 70
     1
102
RTVSPropertyOp48
 70
     1
102
RTVSPropertyOp49
 70
     1
102
RTVSPropertyOp50
 70
     1
102
RTVSPropertyOp51
 70
     0
102
RTVSPropertyOp52
 70
     0
102
RTVSPropertyOp53
 70
     1
102
RTVSPropertyOp54
 70
     1
102
RTVSPropertyOp55
 70
     1
102
RTVSPropertyOp56
 70
     1
102
RTVSPropertyOp57
 70
     1
102
RTVSPost2010Prop28
280
     0
102
RTVSPost2010PropOp28
 70
     1
102
RTVSPost2010Prop29
280
     1
102
RTVSPost2010PropOp29
 70
     1
102
RTVSPost2010Prop30
280
     1
102
RTVSPost2010PropOp30
 70
     1
102
RTVSPost2010Prop31
280
     0
102
RTVSPost2010PropOp31
 70
     1
102
RTVSPost2010Prop32
280
     0
102
RTVSPost2010PropOp32
 70
     1
102
RTVSPost2010Prop33
280
     0
102
RTVSPost2010PropOp33
 70
     1
102
RTVSPost2010Prop34
280
     0
102
RTVSPost2010PropOp34
 70
     1
102
RTVSPost2010Prop35
280
     0
102
RTVSPost2010PropOp35
 70
     1
102
RTVSPost2010Prop36
280
     0
102
RTVSPost2010PropOp36
 70
     1
102
RTVSPost2010Prop37
 90
       50
102
RTVSPost2010PropOp37
 70
     1
102
RTVSPost2010Prop38
140
0.0
102
RTVSPost2010PropOp38
 70
     1
102
RTVSPost2010Prop39
140
1.0
102
RTVSPost2010PropOp39
 70
     1
102
RTVSPost2010Prop40
 90
        0
102
RTVSPost2010PropOp40
 70
     1
102
RTVSPost2010Prop41ColorIndex
 90
       18
102
RTVSPost2010Prop41ColorRGB
 90
        0
102
RTVSPost2010PropOp41
 70
     1
102
RTVSPost2010Prop42
 90
       50
102
RTVSPost2010PropOp42
 70
     1
102
RTVSPost2010Prop43
 90
        3
102
RTVSPost2010PropOp43
 70
     1
102
RTVSPost2010Prop44ColorIndex
 90
        5
102
RTVSPost2010Prop44ColorRGB
 90
      255
102
RTVSPost2010PropOp44
 70
     1
102
RTVSPost2010Prop45
280
     0
102
RTVSPost2010PropOp45
 70
     1
102
RTVSPost2010Prop46
 90
       50
102
RTVSPost2010PropOp46
 70
     1
102
RTVSPost2010Prop47
 90
       50
102
RTVSPost2010PropOp47
 70
     1
102
RTVSPost2010Prop48
 90
       50
102
RTVSPost2010PropOp48
 70
     1
102
RTVSPost2010Prop49
280
     0
102
RTVSPost2010PropOp49
 70
     1
102
RTVSPost2010Prop50
 90
       50
102
RTVSPost2010PropOp50
 70
     1
102
RTVSPost2010Prop51ColorIndex
 90
      256
102
RTVSPost2010Prop51ColorRGB
 90
-16777216
102
RTVSPost2010PropOp51
 70
     0
102
RTVSPost2010Prop52
140
1.0
102
RTVSPost2010PropOp52
 70
     0
102
RTVSPost2010Prop53
 90
        2
102
RTVSPost2010PropOp53
 70
     1
102
RTVSPost2010Prop54
  1
strokes_ogs.tif
102
RTVSPost2010PropOp54
 70
     1
102
RTVSPost2010Prop55
280
     0
102
RTVSPost2010PropOp55
 70
     1
102
RTVSPost2010Prop56
140
1.0
102
RTVSPost2010PropOp56
 70
     1
102
RTVSPost2010Prop57
140
1.0
102
RTVSPost2010PropOp57
 70
     1
  0
XRECORD
  5
412
102
{ACAD_REACTORS
330
411
102
}
330
411
100
AcDbXrecord
280
     1
102
RTVSPropertyOp0
 70
     0
102
RTVSPropertyOp1
 70
     0
102
RTVSPropertyOp2
 70
     0
102
RTVSPropertyOp3
 70
     0
102
RTVSPropertyOp4
 70
     0
102
RTVSPropertyOp5
 70
     0
102
RTVSPropertyOp6
 70
     0
102
RTVSPropertyOp7
 70
     0
102
RTVSPropertyOp8
 70
     0
102
RTVSPropertyOp9
 70
     0
102
RTVSPropertyOp10
 70
     0
102
RTVSPropertyOp11
 70
     0
102
RTVSPropertyOp12
 70
     0
102
RTVSPropertyOp13
 70
     0
102
RTVSPropertyOp14
 70
     2
102
RTVSPropertyOp15
 70
     0
102
RTVSPropertyOp16
 70
     0
102
RTVSPropertyOp17
 70
     0
102
RTVSPropertyOp18
 70
     0
102
RTVSPropertyOp19
 70
     0
102
RTVSPropertyOp20
 70
     0
102
RTVSPropertyOp21
 70
     0
102
RTVSPropertyOp22
 70
     0
102
RTVSPropertyOp23
 70
     0
102
RTVSPropertyOp24
 70
     0
102
RTVSPropertyOp25
 70
     0
102
RTVSPropertyOp26
 70
     0
102
RTVSPropertyOp27
 70
     0
102
RTVSPropertyOp28
 70
     0
102
RTVSPropertyOp29
 70
     0
102
RTVSPropertyOp30
 70
     0
102
RTVSPropertyOp31
 70
     0
102
RTVSPropertyOp32
 70
     0
102
RTVSPropertyOp33
 70
     0
102
RTVSPropertyOp34
 70
     0
102
RTVSPropertyOp35
 70
     0
102
RTVSPropertyOp36
 70
     0
102
RTVSPropertyOp37
 70
     0
102
RTVSPropertyOp38
 70
     0
102
RTVSPropertyOp39
 70
     0
102
RTVSPropertyOp40
 70
     0
102
RTVSPropertyOp41
 70
     0
102
RTVSPropertyOp42
 70
     0
102
RTVSPropertyOp43
 70
     0
102
RTVSPropertyOp44
 70
     0
102
RTVSPropertyOp45
 70
     0
102
RTVSPropertyOp46
 70
     0
102
RTVSPropertyOp47
 70
     0
102
RTVSPropertyOp48
 70
     0
102
RTVSPropertyOp49
 70
     0
102
RTVSPropertyOp50
 70
     0
102
RTVSPropertyOp51
 70
     0
102
RTVSPropertyOp52
 70
     0
102
RTVSPropertyOp53
 70
     0
102
RTVSPropertyOp54
 70
     0
102
RTVSPropertyOp55
 70
     0
102
RTVSPropertyOp56
 70
     0
102
RTVSPropertyOp57
 70
     0
102
RTVSPost2010Prop28
280
     0
102
RTVSPost2010PropOp28
 70
     0
102
RTVSPost2010Prop29
280
     1
102
RTVSPost2010PropOp29
 70
     0
102
RTVSPost2010Prop30
280
     1
102
RTVSPost2010PropOp30
 70
     0
102
RTVSPost2010Prop31
280
     0
102
RTVSPost2010PropOp31
 70
     0
102
RTVSPost2010Prop32
280
     0
102
RTVSPost2010PropOp32
 70
     0
102
RTVSPost2010Prop33
280
     0
102
RTVSPost2010PropOp33
 70
     0
102
RTVSPost2010Prop34
280
     0
102
RTVSPost2010PropOp34
 70
     0
102
RTVSPost2010Prop35
280
     0
102
RTVSPost2010PropOp35
 70
     0
102
RTVSPost2010Prop36
280
     0
102
RTVSPost2010PropOp36
 70
     0
102
RTVSPost2010Prop37
 90
       50
102
RTVSPost2010PropOp37
 70
     0
102
RTVSPost2010Prop38
140
0.0
102
RTVSPost2010PropOp38
 70
     0
102
RTVSPost2010Prop39
140
1.0
102
RTVSPost2010PropOp39
 70
     0
102
RTVSPost2010Prop40
 90
        0
102
RTVSPost2010PropOp40
 70
     0
102
RTVSPost2010Prop41ColorIndex
 90
       18
102
RTVSPost2010Prop41ColorRGB
 90
        0
102
RTVSPost2010PropOp41
 70
     0
102
RTVSPost2010Prop42
 90
       50
102
RTVSPost2010PropOp42
 70
     0
102
RTVSPost2010Prop43
 90
        3
102
RTVSPost2010PropOp43
 70
     0
102
RTVSPost2010Prop44ColorIndex
 90
        5
102
RTVSPost2010Prop44ColorRGB
 90
      255
102
RTVSPost2010PropOp44
 70
     0
102
RTVSPost2010Prop45
280
     0
102
RTVSPost2010PropOp45
 70
     0
102
RTVSPost2010Prop46
 90
       50
102
RTVSPost2010PropOp46
 70
     0
102
RTVSPost2010Prop47
 90
       50
102
RTVSPost2010PropOp47
 70
     0
102
RTVSPost2010Prop48
 90
       50
102
RTVSPost2010PropOp48
 70
     0
102
RTVSPost2010Prop49
280
     0
102
RTVSPost2010PropOp49
 70
     0
102
RTVSPost2010Prop50
 90
       50
102
RTVSPost2010PropOp50
 70
     0
102
RTVSPost2010Prop51ColorIndex
 90
      256
102
RTVSPost2010Prop51ColorRGB
 90
-16777216
102
RTVSPost2010PropOp51
 70
     0
102
RTVSPost2010Prop52
140
1.0
102
RTVSPost2010PropOp52
 70
     0
102
RTVSPost2010Prop53
 90
        2
102
RTVSPost2010PropOp53
 70
     0
102
RTVSPost2010Prop54
  1
strokes_ogs.tif
102
RTVSPost2010PropOp54
 70
     0
102
RTVSPost2010Prop55
280
     0
102
RTVSPost2010PropOp55
 70
     0
102
RTVSPost2010Prop56
140
1.0
102
RTVSPost2010PropOp56
 70
     0
102
RTVSPost2010Prop57
140
1.0
102
RTVSPost2010PropOp57
 70
     0
  0
XRECORD
  5
400
102
{ACAD_REACTORS
330
3FF
102
}
330
3FF
100
AcDbXrecord
280
     1
102
RTVSPropertyOp0
 70
     1
102
RTVSPropertyOp1
 70
     1
102
RTVSPropertyOp2
 70
     1
102
RTVSPropertyOp3
 70
     1
102
RTVSPropertyOp4
 70
     1
102
RTVSPropertyOp5
 70
     1
102
RTVSPropertyOp6
 70
     1
102
RTVSPropertyOp7
 70
     1
102
RTVSPropertyOp8
 70
     1
102
RTVSPropertyOp9
 70
     1
102
RTVSPropertyOp10
 70
     1
102
RTVSPropertyOp11
 70
     1
102
RTVSPropertyOp12
 70
     1
102
RTVSPropertyOp13
 70
     1
102
RTVSPropertyOp14
 70
     1
102
RTVSPropertyOp15
 70
     1
102
RTVSPropertyOp16
 70
     1
102
RTVSPropertyOp17
 70
     1
102
RTVSPropertyOp18
 70
     1
102
RTVSPropertyOp19
 70
     1
102
RTVSPropertyOp20
 70
     1
102
RTVSPropertyOp21
 70
     1
102
RTVSPropertyOp22
 70
     1
102
RTVSPropertyOp23
 70
     1
102
RTVSPropertyOp24
 70
     1
102
RTVSPropertyOp25
 70
     1
102
RTVSPropertyOp26
 70
     1
102
RTVSPropertyOp27
 70
     1
102
RTVSPropertyOp28
 70
     1
102
RTVSPropertyOp29
 70
     1
102
RTVSPropertyOp30
 70
     1
102
RTVSPropertyOp31
 70
     1
102
RTVSPropertyOp32
 70
     1
102
RTVSPropertyOp33
 70
     1
102
RTVSPropertyOp34
 70
     1
102
RTVSPropertyOp35
 70
     1
102
RTVSPropertyOp36
 70
     1
102
RTVSPropertyOp37
 70
     1
102
RTVSPropertyOp38
 70
     1
102
RTVSPropertyOp39
 70
     1
102
RTVSPropertyOp40
 70
     1
102
RTVSPropertyOp41
 70
     1
102
RTVSPropertyOp42
 70
     1
102
RTVSPropertyOp43
 70
     1
102
RTVSPropertyOp44
 70
     1
102
RTVSPropertyOp45
 70
     1
102
RTVSPropertyOp46
 70
     1
102
RTVSPropertyOp47
 70
     1
102
RTVSPropertyOp48
 70
     1
102
RTVSPropertyOp49
 70
     1
102
RTVSPropertyOp50
 70
     1
102
RTVSPropertyOp51
 70
     0
102
RTVSPropertyOp52
 70
     0
102
RTVSPropertyOp53
 70
     1
102
RTVSPropertyOp54
 70
     1
102
RTVSPropertyOp55
 70
     1
102
RTVSPropertyOp56
 70
     1
102
RTVSPropertyOp57
 70
     1
102
RTVSPost2010Prop28
280
     0
102
RTVSPost2010PropOp28
 70
     1
102
RTVSPost2010Prop29
280
     1
102
RTVSPost2010PropOp29
 70
     1
102
RTVSPost2010Prop30
280
     1
102
RTVSPost2010PropOp30
 70
     1
102
RTVSPost2010Prop31
280
     0
102
RTVSPost2010PropOp31
 70
     1
102
RTVSPost2010Prop32
280
     0
102
RTVSPost2010PropOp32
 70
     1
102
RTVSPost2010Prop33
280
     0
102
RTVSPost2010PropOp33
 70
     1
102
RTVSPost2010Prop34
280
     0
102
RTVSPost2010PropOp34
 70
     1
102
RTVSPost2010Prop35
280
     0
102
RTVSPost2010PropOp35
 70
     1
102
RTVSPost2010Prop36
280
     0
102
RTVSPost2010PropOp36
 70
     1
102
RTVSPost2010Prop37
 90
       50
102
RTVSPost2010PropOp37
 70
     1
102
RTVSPost2010Prop38
140
0.0
102
RTVSPost2010PropOp38
 70
     1
102
RTVSPost2010Prop39
140
1.0
102
RTVSPost2010PropOp39
 70
     1
102
RTVSPost2010Prop40
 90
        0
102
RTVSPost2010PropOp40
 70
     1
102
RTVSPost2010Prop41ColorIndex
 90
       18
102
RTVSPost2010Prop41ColorRGB
 90
        0
102
RTVSPost2010PropOp41
 70
     1
102
RTVSPost2010Prop42
 90
       50
102
RTVSPost2010PropOp42
 70
     1
102
RTVSPost2010Prop43
 90
        3
102
RTVSPost2010PropOp43
 70
     1
102
RTVSPost2010Prop44ColorIndex
 90
        5
102
RTVSPost2010Prop44ColorRGB
 90
      255
102
RTVSPost2010PropOp44
 70
     1
102
RTVSPost2010Prop45
280
     0
102
RTVSPost2010PropOp45
 70
     1
102
RTVSPost2010Prop46
 90
       50
102
RTVSPost2010PropOp46
 70
     1
102
RTVSPost2010Prop47
 90
       50
102
RTVSPost2010PropOp47
 70
     1
102
RTVSPost2010Prop48
 90
       50
102
RTVSPost2010PropOp48
 70
     1
102
RTVSPost2010Prop49
280
     0
102
RTVSPost2010PropOp49
 70
     1
102
RTVSPost2010Prop50
 90
       50
102
RTVSPost2010PropOp50
 70
     1
102
RTVSPost2010Prop51ColorIndex
 90
      256
102
RTVSPost2010Prop51ColorRGB
 90
-16777216
102
RTVSPost2010PropOp51
 70
     0
102
RTVSPost2010Prop52
140
1.0
102
RTVSPost2010PropOp52
 70
     0
102
RTVSPost2010Prop53
 90
        2
102
RTVSPost2010PropOp53
 70
     1
102
RTVSPost2010Prop54
  1
strokes_ogs.tif
102
RTVSPost2010PropOp54
 70
     1
102
RTVSPost2010Prop55
280
     0
102
RTVSPost2010PropOp55
 70
     1
102
RTVSPost2010Prop56
140
1.0
102
RTVSPost2010PropOp56
 70
     1
102
RTVSPost2010Prop57
140
1.0
102
RTVSPost2010PropOp57
 70
     1
  0
XRECORD
  5
41E
102
{ACAD_REACTORS
330
41D
102
}
330
41D
100
AcDbXrecord
280
     1
102
RTVSPropertyOp0
 70
     1
102
RTVSPropertyOp1
 70
     1
102
RTVSPropertyOp2
 70
     1
102
RTVSPropertyOp3
 70
     1
102
RTVSPropertyOp4
 70
     1
102
RTVSPropertyOp5
 70
     1
102
RTVSPropertyOp6
 70
     1
102
RTVSPropertyOp7
 70
     1
102
RTVSPropertyOp8
 70
     1
102
RTVSPropertyOp9
 70
     1
102
RTVSPropertyOp10
 70
     1
102
RTVSPropertyOp11
 70
     1
102
RTVSPropertyOp12
 70
     1
102
RTVSPropertyOp13
 70
     1
102
RTVSPropertyOp14
 70
     1
102
RTVSPropertyOp15
 70
     1
102
RTVSPropertyOp16
 70
     1
102
RTVSPropertyOp17
 70
     1
102
RTVSPropertyOp18
 70
     1
102
RTVSPropertyOp19
 70
     1
102
RTVSPropertyOp20
 70
     1
102
RTVSPropertyOp21
 70
     1
102
RTVSPropertyOp22
 70
     1
102
RTVSPropertyOp23
 70
     1
102
RTVSPropertyOp24
 70
     1
102
RTVSPropertyOp25
 70
     1
102
RTVSPropertyOp26
 70
     1
102
RTVSPropertyOp27
 70
     1
102
RTVSPropertyOp28
 70
     1
102
RTVSPropertyOp29
 70
     1
102
RTVSPropertyOp30
 70
     1
102
RTVSPropertyOp31
 70
     1
102
RTVSPropertyOp32
 70
     1
102
RTVSPropertyOp33
 70
     1
102
RTVSPropertyOp34
 70
     1
102
RTVSPropertyOp35
 70
     1
102
RTVSPropertyOp36
 70
     1
102
RTVSPropertyOp37
 70
     1
102
RTVSPropertyOp38
 70
     1
102
RTVSPropertyOp39
 70
     1
102
RTVSPropertyOp40
 70
     1
102
RTVSPropertyOp41
 70
     1
102
RTVSPropertyOp42
 70
     1
102
RTVSPropertyOp43
 70
     1
102
RTVSPropertyOp44
 70
     1
102
RTVSPropertyOp45
 70
     1
102
RTVSPropertyOp46
 70
     1
102
RTVSPropertyOp47
 70
     1
102
RTVSPropertyOp48
 70
     1
102
RTVSPropertyOp49
 70
     1
102
RTVSPropertyOp50
 70
     1
102
RTVSPropertyOp51
 70
     0
102
RTVSPropertyOp52
 70
     0
102
RTVSPropertyOp53
 70
     1
102
RTVSPropertyOp54
 70
     1
102
RTVSPropertyOp55
 70
     1
102
RTVSPropertyOp56
 70
     1
102
RTVSPropertyOp57
 70
     1
102
RTVSPost2010Prop28
280
     0
102
RTVSPost2010PropOp28
 70
     1
102
RTVSPost2010Prop29
280
     1
102
RTVSPost2010PropOp29
 70
     1
102
RTVSPost2010Prop30
280
     1
102
RTVSPost2010PropOp30
 70
     1
102
RTVSPost2010Prop31
280
     0
102
RTVSPost2010PropOp31
 70
     1
102
RTVSPost2010Prop32
280
     0
102
RTVSPost2010PropOp32
 70
     1
102
RTVSPost2010Prop33
280
     0
102
RTVSPost2010PropOp33
 70
     1
102
RTVSPost2010Prop34
280
     0
102
RTVSPost2010PropOp34
 70
     1
102
RTVSPost2010Prop35
280
     0
102
RTVSPost2010PropOp35
 70
     1
102
RTVSPost2010Prop36
280
     0
102
RTVSPost2010PropOp36
 70
     1
102
RTVSPost2010Prop37
 90
       50
102
RTVSPost2010PropOp37
 70
     1
102
RTVSPost2010Prop38
140
0.0
102
RTVSPost2010PropOp38
 70
     1
102
RTVSPost2010Prop39
140
1.0
102
RTVSPost2010PropOp39
 70
     1
102
RTVSPost2010Prop40
 90
        0
102
RTVSPost2010PropOp40
 70
     1
102
RTVSPost2010Prop41ColorIndex
 90
       18
102
RTVSPost2010Prop41ColorRGB
 90
        0
102
RTVSPost2010PropOp41
 70
     1
102
RTVSPost2010Prop42
 90
       50
102
RTVSPost2010PropOp42
 70
     1
102
RTVSPost2010Prop43
 90
        3
102
RTVSPost2010PropOp43
 70
     1
102
RTVSPost2010Prop44ColorIndex
 90
        5
102
RTVSPost2010Prop44ColorRGB
 90
      255
102
RTVSPost2010PropOp44
 70
     1
102
RTVSPost2010Prop45
280
     0
102
RTVSPost2010PropOp45
 70
     1
102
RTVSPost2010Prop46
 90
       50
102
RTVSPost2010PropOp46
 70
     1
102
RTVSPost2010Prop47
 90
       50
102
RTVSPost2010PropOp47
 70
     1
102
RTVSPost2010Prop48
 90
       50
102
RTVSPost2010PropOp48
 70
     1
102
RTVSPost2010Prop49
280
     0
102
RTVSPost2010PropOp49
 70
     1
102
RTVSPost2010Prop50
 90
       50
102
RTVSPost2010PropOp50
 70
     1
102
RTVSPost2010Prop51ColorIndex
 90
      256
102
RTVSPost2010Prop51ColorRGB
 90
-16777216
102
RTVSPost2010PropOp51
 70
     0
102
RTVSPost2010Prop52
140
1.0
102
RTVSPost2010PropOp52
 70
     0
102
RTVSPost2010Prop53
 90
        2
102
RTVSPost2010PropOp53
 70
     1
102
RTVSPost2010Prop54
  1
strokes_ogs.tif
102
RTVSPost2010PropOp54
 70
     1
102
RTVSPost2010Prop55
280
     0
102
RTVSPost2010PropOp55
 70
     1
102
RTVSPost2010Prop56
140
1.0
102
RTVSPost2010PropOp56
 70
     1
102
RTVSPost2010Prop57
140
1.0
102
RTVSPost2010PropOp57
 70
     1
  0
XRECORD
  5
41C
102
{ACAD_REACTORS
330
41B
102
}
330
41B
100
AcDbXrecord
280
     1
102
RTVSPropertyOp0
 70
     1
102
RTVSPropertyOp1
 70
     1
102
RTVSPropertyOp2
 70
     1
102
RTVSPropertyOp3
 70
     1
102
RTVSPropertyOp4
 70
     1
102
RTVSPropertyOp5
 70
     1
102
RTVSPropertyOp6
 70
     1
102
RTVSPropertyOp7
 70
     1
102
RTVSPropertyOp8
 70
     1
102
RTVSPropertyOp9
 70
     1
102
RTVSPropertyOp10
 70
     1
102
RTVSPropertyOp11
 70
     1
102
RTVSPropertyOp12
 70
     1
102
RTVSPropertyOp13
 70
     1
102
RTVSPropertyOp14
 70
     1
102
RTVSPropertyOp15
 70
     1
102
RTVSPropertyOp16
 70
     1
102
RTVSPropertyOp17
 70
     1
102
RTVSPropertyOp18
 70
     1
102
RTVSPropertyOp19
 70
     1
102
RTVSPropertyOp20
 70
     1
102
RTVSPropertyOp21
 70
     1
102
RTVSPropertyOp22
 70
     1
102
RTVSPropertyOp23
 70
     1
102
RTVSPropertyOp24
 70
     1
102
RTVSPropertyOp25
 70
     1
102
RTVSPropertyOp26
 70
     1
102
RTVSPropertyOp27
 70
     1
102
RTVSPropertyOp28
 70
     1
102
RTVSPropertyOp29
 70
     1
102
RTVSPropertyOp30
 70
     1
102
RTVSPropertyOp31
 70
     1
102
RTVSPropertyOp32
 70
     1
102
RTVSPropertyOp33
 70
     1
102
RTVSPropertyOp34
 70
     1
102
RTVSPropertyOp35
 70
     1
102
RTVSPropertyOp36
 70
     1
102
RTVSPropertyOp37
 70
     1
102
RTVSPropertyOp38
 70
     1
102
RTVSPropertyOp39
 70
     1
102
RTVSPropertyOp40
 70
     1
102
RTVSPropertyOp41
 70
     1
102
RTVSPropertyOp42
 70
     1
102
RTVSPropertyOp43
 70
     1
102
RTVSPropertyOp44
 70
     1
102
RTVSPropertyOp45
 70
     1
102
RTVSPropertyOp46
 70
     1
102
RTVSPropertyOp47
 70
     1
102
RTVSPropertyOp48
 70
     1
102
RTVSPropertyOp49
 70
     1
102
RTVSPropertyOp50
 70
     1
102
RTVSPropertyOp51
 70
     0
102
RTVSPropertyOp52
 70
     0
102
RTVSPropertyOp53
 70
     1
102
RTVSPropertyOp54
 70
     1
102
RTVSPropertyOp55
 70
     1
102
RTVSPropertyOp56
 70
     1
102
RTVSPropertyOp57
 70
     1
102
RTVSPost2010Prop28
280
     0
102
RTVSPost2010PropOp28
 70
     1
102
RTVSPost2010Prop29
280
     1
102
RTVSPost2010PropOp29
 70
     1
102
RTVSPost2010Prop30
280
     1
102
RTVSPost2010PropOp30
 70
     1
102
RTVSPost2010Prop31
280
     0
102
RTVSPost2010PropOp31
 70
     1
102
RTVSPost2010Prop32
280
     0
102
RTVSPost2010PropOp32
 70
     1
102
RTVSPost2010Prop33
280
     0
102
RTVSPost2010PropOp33
 70
     1
102
RTVSPost2010Prop34
280
     0
102
RTVSPost2010PropOp34
 70
     1
102
RTVSPost2010Prop35
280
     0
102
RTVSPost2010PropOp35
 70
     1
102
RTVSPost2010Prop36
280
     0
102
RTVSPost2010PropOp36
 70
     1
102
RTVSPost2010Prop37
 90
       50
102
RTVSPost2010PropOp37
 70
     1
102
RTVSPost2010Prop38
140
0.0
102
RTVSPost2010PropOp38
 70
     1
102
RTVSPost2010Prop39
140
1.0
102
RTVSPost2010PropOp39
 70
     1
102
RTVSPost2010Prop40
 90
        0
102
RTVSPost2010PropOp40
 70
     1
102
RTVSPost2010Prop41ColorIndex
 90
       18
102
RTVSPost2010Prop41ColorRGB
 90
        0
102
RTVSPost2010PropOp41
 70
     1
102
RTVSPost2010Prop42
 90
       50
102
RTVSPost2010PropOp42
 70
     1
102
RTVSPost2010Prop43
 90
        3
102
RTVSPost2010PropOp43
 70
     1
102
RTVSPost2010Prop44ColorIndex
 90
        5
102
RTVSPost2010Prop44ColorRGB
 90
      255
102
RTVSPost2010PropOp44
 70
     1
102
RTVSPost2010Prop45
280
     0
102
RTVSPost2010PropOp45
 70
     1
102
RTVSPost2010Prop46
 90
       50
102
RTVSPost2010PropOp46
 70
     1
102
RTVSPost2010Prop47
 90
       50
102
RTVSPost2010PropOp47
 70
     1
102
RTVSPost2010Prop48
 90
       50
102
RTVSPost2010PropOp48
 70
     1
102
RTVSPost2010Prop49
280
     0
102
RTVSPost2010PropOp49
 70
     1
102
RTVSPost2010Prop50
 90
       50
102
RTVSPost2010PropOp50
 70
     1
102
RTVSPost2010Prop51ColorIndex
 90
      256
102
RTVSPost2010Prop51ColorRGB
 90
-16777216
102
RTVSPost2010PropOp51
 70
     0
102
RTVSPost2010Prop52
140
1.0
102
RTVSPost2010PropOp52
 70
     0
102
RTVSPost2010Prop53
 90
        2
102
RTVSPost2010PropOp53
 70
     1
102
RTVSPost2010Prop54
  1
strokes_ogs.tif
102
RTVSPost2010PropOp54
 70
     1
102
RTVSPost2010Prop55
280
     0
102
RTVSPost2010PropOp55
 70
     1
102
RTVSPost2010Prop56
140
1.0
102
RTVSPost2010PropOp56
 70
     1
102
RTVSPost2010Prop57
140
1.0
102
RTVSPost2010PropOp57
 70
     1
  0
XRECORD
  5
416
102
{ACAD_REACTORS
330
415
102
}
330
415
100
AcDbXrecord
280
     1
102
RTVSPropertyOp0
 70
     1
102
RTVSPropertyOp1
 70
     1
102
RTVSPropertyOp2
 70
     1
102
RTVSPropertyOp3
 70
     1
102
RTVSPropertyOp4
 70
     1
102
RTVSPropertyOp5
 70
     1
102
RTVSPropertyOp6
 70
     1
102
RTVSPropertyOp7
 70
     1
102
RTVSPropertyOp8
 70
     1
102
RTVSPropertyOp9
 70
     1
102
RTVSPropertyOp10
 70
     1
102
RTVSPropertyOp11
 70
     1
102
RTVSPropertyOp12
 70
     1
102
RTVSPropertyOp13
 70
     1
102
RTVSPropertyOp14
 70
     1
102
RTVSPropertyOp15
 70
     1
102
RTVSPropertyOp16
 70
     1
102
RTVSPropertyOp17
 70
     1
102
RTVSPropertyOp18
 70
     1
102
RTVSPropertyOp19
 70
     1
102
RTVSPropertyOp20
 70
     1
102
RTVSPropertyOp21
 70
     1
102
RTVSPropertyOp22
 70
     1
102
RTVSPropertyOp23
 70
     1
102
RTVSPropertyOp24
 70
     1
102
RTVSPropertyOp25
 70
     1
102
RTVSPropertyOp26
 70
     1
102
RTVSPropertyOp27
 70
     1
102
RTVSPropertyOp28
 70
     1
102
RTVSPropertyOp29
 70
     1
102
RTVSPropertyOp30
 70
     1
102
RTVSPropertyOp31
 70
     1
102
RTVSPropertyOp32
 70
     1
102
RTVSPropertyOp33
 70
     1
102
RTVSPropertyOp34
 70
     1
102
RTVSPropertyOp35
 70
     1
102
RTVSPropertyOp36
 70
     1
102
RTVSPropertyOp37
 70
     1
102
RTVSPropertyOp38
 70
     1
102
RTVSPropertyOp39
 70
     1
102
RTVSPropertyOp40
 70
     1
102
RTVSPropertyOp41
 70
     1
102
RTVSPropertyOp42
 70
     1
102
RTVSPropertyOp43
 70
     1
102
RTVSPropertyOp44
 70
     1
102
RTVSPropertyOp45
 70
     1
102
RTVSPropertyOp46
 70
     1
102
RTVSPropertyOp47
 70
     1
102
RTVSPropertyOp48
 70
     1
102
RTVSPropertyOp49
 70
     1
102
RTVSPropertyOp50
 70
     1
102
RTVSPropertyOp51
 70
     0
102
RTVSPropertyOp52
 70
     0
102
RTVSPropertyOp53
 70
     1
102
RTVSPropertyOp54
 70
     1
102
RTVSPropertyOp55
 70
     1
102
RTVSPropertyOp56
 70
     1
102
RTVSPropertyOp57
 70
     1
102
RTVSPost2010Prop28
280
     0
102
RTVSPost2010PropOp28
 70
     1
102
RTVSPost2010Prop29
280
     1
102
RTVSPost2010PropOp29
 70
     1
102
RTVSPost2010Prop30
280
     1
102
RTVSPost2010PropOp30
 70
     1
102
RTVSPost2010Prop31
280
     0
102
RTVSPost2010PropOp31
 70
     1
102
RTVSPost2010Prop32
280
     0
102
RTVSPost2010PropOp32
 70
     1
102
RTVSPost2010Prop33
280
     0
102
RTVSPost2010PropOp33
 70
     1
102
RTVSPost2010Prop34
280
     0
102
RTVSPost2010PropOp34
 70
     1
102
RTVSPost2010Prop35
280
     0
102
RTVSPost2010PropOp35
 70
     1
102
RTVSPost2010Prop36
280
     0
102
RTVSPost2010PropOp36
 70
     1
102
RTVSPost2010Prop37
 90
       50
102
RTVSPost2010PropOp37
 70
     1
102
RTVSPost2010Prop38
140
0.0
102
RTVSPost2010PropOp38
 70
     1
102
RTVSPost2010Prop39
140
1.0
102
RTVSPost2010PropOp39
 70
     1
102
RTVSPost2010Prop40
 90
        0
102
RTVSPost2010PropOp40
 70
     1
102
RTVSPost2010Prop41ColorIndex
 90
       18
102
RTVSPost2010Prop41ColorRGB
 90
        0
102
RTVSPost2010PropOp41
 70
     1
102
RTVSPost2010Prop42
 90
       50
102
RTVSPost2010PropOp42
 70
     1
102
RTVSPost2010Prop43
 90
        3
102
RTVSPost2010PropOp43
 70
     1
102
RTVSPost2010Prop44ColorIndex
 90
        5
102
RTVSPost2010Prop44ColorRGB
 90
      255
102
RTVSPost2010PropOp44
 70
     1
102
RTVSPost2010Prop45
280
     0
102
RTVSPost2010PropOp45
 70
     1
102
RTVSPost2010Prop46
 90
       50
102
RTVSPost2010PropOp46
 70
     1
102
RTVSPost2010Prop47
 90
       50
102
RTVSPost2010PropOp47
 70
     1
102
RTVSPost2010Prop48
 90
       50
102
RTVSPost2010PropOp48
 70
     1
102
RTVSPost2010Prop49
280
     0
102
RTVSPost2010PropOp49
 70
     1
102
RTVSPost2010Prop50
 90
       50
102
RTVSPost2010PropOp50
 70
     1
102
RTVSPost2010Prop51ColorIndex
 90
      256
102
RTVSPost2010Prop51ColorRGB
 90
-16777216
102
RTVSPost2010PropOp51
 70
     0
102
RTVSPost2010Prop52
140
1.0
102
RTVSPost2010PropOp52
 70
     0
102
RTVSPost2010Prop53
 90
        2
102
RTVSPost2010PropOp53
 70
     1
102
RTVSPost2010Prop54
  1
strokes_ogs.tif
102
RTVSPost2010PropOp54
 70
     1
102
RTVSPost2010Prop55
280
     0
102
RTVSPost2010PropOp55
 70
     1
102
RTVSPost2010Prop56
140
1.0
102
RTVSPost2010PropOp56
 70
     1
102
RTVSPost2010Prop57
140
1.0
102
RTVSPost2010PropOp57
 70
     1
  0
XRECORD
  5
418
102
{ACAD_REACTORS
330
417
102
}
330
417
100
AcDbXrecord
280
     1
102
RTVSPropertyOp0
 70
     1
102
RTVSPropertyOp1
 70
     1
102
RTVSPropertyOp2
 70
     1
102
RTVSPropertyOp3
 70
     1
102
RTVSPropertyOp4
 70
     1
102
RTVSPropertyOp5
 70
     1
102
RTVSPropertyOp6
 70
     1
102
RTVSPropertyOp7
 70
     1
102
RTVSPropertyOp8
 70
     1
102
RTVSPropertyOp9
 70
     1
102
RTVSPropertyOp10
 70
     1
102
RTVSPropertyOp11
 70
     1
102
RTVSPropertyOp12
 70
     1
102
RTVSPropertyOp13
 70
     1
102
RTVSPropertyOp14
 70
     1
102
RTVSPropertyOp15
 70
     1
102
RTVSPropertyOp16
 70
     1
102
RTVSPropertyOp17
 70
     1
102
RTVSPropertyOp18
 70
     1
102
RTVSPropertyOp19
 70
     1
102
RTVSPropertyOp20
 70
     1
102
RTVSPropertyOp21
 70
     1
102
RTVSPropertyOp22
 70
     1
102
RTVSPropertyOp23
 70
     1
102
RTVSPropertyOp24
 70
     1
102
RTVSPropertyOp25
 70
     1
102
RTVSPropertyOp26
 70
     1
102
RTVSPropertyOp27
 70
     1
102
RTVSPropertyOp28
 70
     1
102
RTVSPropertyOp29
 70
     1
102
RTVSPropertyOp30
 70
     1
102
RTVSPropertyOp31
 70
     1
102
RTVSPropertyOp32
 70
     1
102
RTVSPropertyOp33
 70
     1
102
RTVSPropertyOp34
 70
     1
102
RTVSPropertyOp35
 70
     1
102
RTVSPropertyOp36
 70
     1
102
RTVSPropertyOp37
 70
     1
102
RTVSPropertyOp38
 70
     1
102
RTVSPropertyOp39
 70
     1
102
RTVSPropertyOp40
 70
     1
102
RTVSPropertyOp41
 70
     1
102
RTVSPropertyOp42
 70
     1
102
RTVSPropertyOp43
 70
     1
102
RTVSPropertyOp44
 70
     1
102
RTVSPropertyOp45
 70
     1
102
RTVSPropertyOp46
 70
     1
102
RTVSPropertyOp47
 70
     1
102
RTVSPropertyOp48
 70
     1
102
RTVSPropertyOp49
 70
     1
102
RTVSPropertyOp50
 70
     1
102
RTVSPropertyOp51
 70
     0
102
RTVSPropertyOp52
 70
     0
102
RTVSPropertyOp53
 70
     1
102
RTVSPropertyOp54
 70
     1
102
RTVSPropertyOp55
 70
     1
102
RTVSPropertyOp56
 70
     1
102
RTVSPropertyOp57
 70
     1
102
RTVSPost2010Prop28
280
     0
102
RTVSPost2010PropOp28
 70
     1
102
RTVSPost2010Prop29
280
     1
102
RTVSPost2010PropOp29
 70
     1
102
RTVSPost2010Prop30
280
     1
102
RTVSPost2010PropOp30
 70
     1
102
RTVSPost2010Prop31
280
     0
102
RTVSPost2010PropOp31
 70
     1
102
RTVSPost2010Prop32
280
     0
102
RTVSPost2010PropOp32
 70
     1
102
RTVSPost2010Prop33
280
     0
102
RTVSPost2010PropOp33
 70
     1
102
RTVSPost2010Prop34
280
     0
102
RTVSPost2010PropOp34
 70
     1
102
RTVSPost2010Prop35
280
     0
102
RTVSPost2010PropOp35
 70
     1
102
RTVSPost2010Prop36
280
     0
102
RTVSPost2010PropOp36
 70
     1
102
RTVSPost2010Prop37
 90
       50
102
RTVSPost2010PropOp37
 70
     1
102
RTVSPost2010Prop38
140
0.0
102
RTVSPost2010PropOp38
 70
     1
102
RTVSPost2010Prop39
140
1.0
102
RTVSPost2010PropOp39
 70
     1
102
RTVSPost2010Prop40
 90
        0
102
RTVSPost2010PropOp40
 70
     1
102
RTVSPost2010Prop41ColorIndex
 90
       18
102
RTVSPost2010Prop41ColorRGB
 90
        0
102
RTVSPost2010PropOp41
 70
     1
102
RTVSPost2010Prop42
 90
       50
102
RTVSPost2010PropOp42
 70
     1
102
RTVSPost2010Prop43
 90
        3
102
RTVSPost2010PropOp43
 70
     1
102
RTVSPost2010Prop44ColorIndex
 90
        5
102
RTVSPost2010Prop44ColorRGB
 90
      255
102
RTVSPost2010PropOp44
 70
     1
102
RTVSPost2010Prop45
280
     0
102
RTVSPost2010PropOp45
 70
     1
102
RTVSPost2010Prop46
 90
       50
102
RTVSPost2010PropOp46
 70
     1
102
RTVSPost2010Prop47
 90
       50
102
RTVSPost2010PropOp47
 70
     1
102
RTVSPost2010Prop48
 90
       50
102
RTVSPost2010PropOp48
 70
     1
102
RTVSPost2010Prop49
280
     0
102
RTVSPost2010PropOp49
 70
     1
102
RTVSPost2010Prop50
 90
       50
102
RTVSPost2010PropOp50
 70
     1
102
RTVSPost2010Prop51ColorIndex
 90
      256
102
RTVSPost2010Prop51ColorRGB
 90
-16777216
102
RTVSPost2010PropOp51
 70
     0
102
RTVSPost2010Prop52
140
1.0
102
RTVSPost2010PropOp52
 70
     0
102
RTVSPost2010Prop53
 90
        2
102
RTVSPost2010PropOp53
 70
     1
102
RTVSPost2010Prop54
  1
strokes_ogs.tif
102
RTVSPost2010PropOp54
 70
     1
102
RTVSPost2010Prop55
280
     0
102
RTVSPost2010PropOp55
 70
     1
102
RTVSPost2010Prop56
140
1.0
102
RTVSPost2010PropOp56
 70
     1
102
RTVSPost2010Prop57
140
1.0
102
RTVSPost2010PropOp57
 70
     1
  0
XRECORD
  5
408
102
{ACAD_REACTORS
330
407
102
}
330
407
100
AcDbXrecord
280
     1
102
RTVSPropertyOp0
 70
     1
102
RTVSPropertyOp1
 70
     1
102
RTVSPropertyOp2
 70
     1
102
RTVSPropertyOp3
 70
     1
102
RTVSPropertyOp4
 70
     1
102
RTVSPropertyOp5
 70
     1
102
RTVSPropertyOp6
 70
     1
102
RTVSPropertyOp7
 70
     1
102
RTVSPropertyOp8
 70
     1
102
RTVSPropertyOp9
 70
     1
102
RTVSPropertyOp10
 70
     1
102
RTVSPropertyOp11
 70
     1
102
RTVSPropertyOp12
 70
     1
102
RTVSPropertyOp13
 70
     1
102
RTVSPropertyOp14
 70
     1
102
RTVSPropertyOp15
 70
     1
102
RTVSPropertyOp16
 70
     1
102
RTVSPropertyOp17
 70
     1
102
RTVSPropertyOp18
 70
     1
102
RTVSPropertyOp19
 70
     1
102
RTVSPropertyOp20
 70
     1
102
RTVSPropertyOp21
 70
     1
102
RTVSPropertyOp22
 70
     1
102
RTVSPropertyOp23
 70
     1
102
RTVSPropertyOp24
 70
     1
102
RTVSPropertyOp25
 70
     1
102
RTVSPropertyOp26
 70
     1
102
RTVSPropertyOp27
 70
     1
102
RTVSPropertyOp28
 70
     1
102
RTVSPropertyOp29
 70
     1
102
RTVSPropertyOp30
 70
     1
102
RTVSPropertyOp31
 70
     1
102
RTVSPropertyOp32
 70
     1
102
RTVSPropertyOp33
 70
     1
102
RTVSPropertyOp34
 70
     1
102
RTVSPropertyOp35
 70
     1
102
RTVSPropertyOp36
 70
     1
102
RTVSPropertyOp37
 70
     1
102
RTVSPropertyOp38
 70
     1
102
RTVSPropertyOp39
 70
     1
102
RTVSPropertyOp40
 70
     1
102
RTVSPropertyOp41
 70
     1
102
RTVSPropertyOp42
 70
     1
102
RTVSPropertyOp43
 70
     1
102
RTVSPropertyOp44
 70
     1
102
RTVSPropertyOp45
 70
     1
102
RTVSPropertyOp46
 70
     1
102
RTVSPropertyOp47
 70
     1
102
RTVSPropertyOp48
 70
     1
102
RTVSPropertyOp49
 70
     1
102
RTVSPropertyOp50
 70
     1
102
RTVSPropertyOp51
 70
     0
102
RTVSPropertyOp52
 70
     0
102
RTVSPropertyOp53
 70
     1
102
RTVSPropertyOp54
 70
     1
102
RTVSPropertyOp55
 70
     1
102
RTVSPropertyOp56
 70
     1
102
RTVSPropertyOp57
 70
     1
102
RTVSPost2010Prop28
280
     0
102
RTVSPost2010PropOp28
 70
     1
102
RTVSPost2010Prop29
280
     1
102
RTVSPost2010PropOp29
 70
     1
102
RTVSPost2010Prop30
280
     1
102
RTVSPost2010PropOp30
 70
     1
102
RTVSPost2010Prop31
280
     0
102
RTVSPost2010PropOp31
 70
     1
102
RTVSPost2010Prop32
280
     0
102
RTVSPost2010PropOp32
 70
     1
102
RTVSPost2010Prop33
280
     0
102
RTVSPost2010PropOp33
 70
     1
102
RTVSPost2010Prop34
280
     0
102
RTVSPost2010PropOp34
 70
     1
102
RTVSPost2010Prop35
280
     0
102
RTVSPost2010PropOp35
 70
     1
102
RTVSPost2010Prop36
280
     0
102
RTVSPost2010PropOp36
 70
     1
102
RTVSPost2010Prop37
 90
       50
102
RTVSPost2010PropOp37
 70
     1
102
RTVSPost2010Prop38
140
0.0
102
RTVSPost2010PropOp38
 70
     1
102
RTVSPost2010Prop39
140
1.0
102
RTVSPost2010PropOp39
 70
     1
102
RTVSPost2010Prop40
 90
        0
102
RTVSPost2010PropOp40
 70
     1
102
RTVSPost2010Prop41ColorIndex
 90
       18
102
RTVSPost2010Prop41ColorRGB
 90
        0
102
RTVSPost2010PropOp41
 70
     1
102
RTVSPost2010Prop42
 90
       50
102
RTVSPost2010PropOp42
 70
     1
102
RTVSPost2010Prop43
 90
        3
102
RTVSPost2010PropOp43
 70
     1
102
RTVSPost2010Prop44ColorIndex
 90
        5
102
RTVSPost2010Prop44ColorRGB
 90
      255
102
RTVSPost2010PropOp44
 70
     1
102
RTVSPost2010Prop45
280
     0
102
RTVSPost2010PropOp45
 70
     1
102
RTVSPost2010Prop46
 90
       50
102
RTVSPost2010PropOp46
 70
     1
102
RTVSPost2010Prop47
 90
       50
102
RTVSPost2010PropOp47
 70
     1
102
RTVSPost2010Prop48
 90
       50
102
RTVSPost2010PropOp48
 70
     1
102
RTVSPost2010Prop49
280
     0
102
RTVSPost2010PropOp49
 70
     1
102
RTVSPost2010Prop50
 90
       50
102
RTVSPost2010PropOp50
 70
     1
102
RTVSPost2010Prop51ColorIndex
 90
      256
102
RTVSPost2010Prop51ColorRGB
 90
-16777216
102
RTVSPost2010PropOp51
 70
     0
102
RTVSPost2010Prop52
140
1.0
102
RTVSPost2010PropOp52
 70
     0
102
RTVSPost2010Prop53
 90
        2
102
RTVSPost2010PropOp53
 70
     1
102
RTVSPost2010Prop54
  1
strokes_ogs.tif
102
RTVSPost2010PropOp54
 70
     1
102
RTVSPost2010Prop55
280
     0
102
RTVSPost2010PropOp55
 70
     1
102
RTVSPost2010Prop56
140
1.0
102
RTVSPost2010PropOp56
 70
     1
102
RTVSPost2010Prop57
140
1.0
102
RTVSPost2010PropOp57
 70
     1
  0
XRECORD
  5
3FA
102
{ACAD_REACTORS
330
3F9
102
}
330
3F9
100
AcDbXrecord
280
     1
102
RTVSPropertyOp0
 70
     1
102
RTVSPropertyOp1
 70
     1
102
RTVSPropertyOp2
 70
     1
102
RTVSPropertyOp3
 70
     1
102
RTVSPropertyOp4
 70
     1
102
RTVSPropertyOp5
 70
     1
102
RTVSPropertyOp6
 70
     1
102
RTVSPropertyOp7
 70
     1
102
RTVSPropertyOp8
 70
     1
102
RTVSPropertyOp9
 70
     1
102
RTVSPropertyOp10
 70
     1
102
RTVSPropertyOp11
 70
     1
102
RTVSPropertyOp12
 70
     1
102
RTVSPropertyOp13
 70
     1
102
RTVSPropertyOp14
 70
     1
102
RTVSPropertyOp15
 70
     1
102
RTVSPropertyOp16
 70
     1
102
RTVSPropertyOp17
 70
     1
102
RTVSPropertyOp18
 70
     1
102
RTVSPropertyOp19
 70
     1
102
RTVSPropertyOp20
 70
     1
102
RTVSPropertyOp21
 70
     1
102
RTVSPropertyOp22
 70
     1
102
RTVSPropertyOp23
 70
     1
102
RTVSPropertyOp24
 70
     1
102
RTVSPropertyOp25
 70
     1
102
RTVSPropertyOp26
 70
     1
102
RTVSPropertyOp27
 70
     1
102
RTVSPropertyOp28
 70
     1
102
RTVSPropertyOp29
 70
     1
102
RTVSPropertyOp30
 70
     1
102
RTVSPropertyOp31
 70
     1
102
RTVSPropertyOp32
 70
     1
102
RTVSPropertyOp33
 70
     1
102
RTVSPropertyOp34
 70
     1
102
RTVSPropertyOp35
 70
     1
102
RTVSPropertyOp36
 70
     1
102
RTVSPropertyOp37
 70
     1
102
RTVSPropertyOp38
 70
     1
102
RTVSPropertyOp39
 70
     1
102
RTVSPropertyOp40
 70
     1
102
RTVSPropertyOp41
 70
     1
102
RTVSPropertyOp42
 70
     1
102
RTVSPropertyOp43
 70
     1
102
RTVSPropertyOp44
 70
     1
102
RTVSPropertyOp45
 70
     1
102
RTVSPropertyOp46
 70
     1
102
RTVSPropertyOp47
 70
     1
102
RTVSPropertyOp48
 70
     1
102
RTVSPropertyOp49
 70
     1
102
RTVSPropertyOp50
 70
     1
102
RTVSPropertyOp51
 70
     0
102
RTVSPropertyOp52
 70
     0
102
RTVSPropertyOp53
 70
     1
102
RTVSPropertyOp54
 70
     1
102
RTVSPropertyOp55
 70
     1
102
RTVSPropertyOp56
 70
     1
102
RTVSPropertyOp57
 70
     1
102
RTVSPost2010Prop28
280
     0
102
RTVSPost2010PropOp28
 70
     1
102
RTVSPost2010Prop29
280
     1
102
RTVSPost2010PropOp29
 70
     1
102
RTVSPost2010Prop30
280
     1
102
RTVSPost2010PropOp30
 70
     1
102
RTVSPost2010Prop31
280
     0
102
RTVSPost2010PropOp31
 70
     1
102
RTVSPost2010Prop32
280
     0
102
RTVSPost2010PropOp32
 70
     1
102
RTVSPost2010Prop33
280
     0
102
RTVSPost2010PropOp33
 70
     1
102
RTVSPost2010Prop34
280
     0
102
RTVSPost2010PropOp34
 70
     1
102
RTVSPost2010Prop35
280
     0
102
RTVSPost2010PropOp35
 70
     1
102
RTVSPost2010Prop36
280
     0
102
RTVSPost2010PropOp36
 70
     1
102
RTVSPost2010Prop37
 90
       50
102
RTVSPost2010PropOp37
 70
     1
102
RTVSPost2010Prop38
140
0.0
102
RTVSPost2010PropOp38
 70
     1
102
RTVSPost2010Prop39
140
1.0
102
RTVSPost2010PropOp39
 70
     1
102
RTVSPost2010Prop40
 90
        0
102
RTVSPost2010PropOp40
 70
     1
102
RTVSPost2010Prop41ColorIndex
 90
       18
102
RTVSPost2010Prop41ColorRGB
 90
        0
102
RTVSPost2010PropOp41
 70
     1
102
RTVSPost2010Prop42
 90
       50
102
RTVSPost2010PropOp42
 70
     1
102
RTVSPost2010Prop43
 90
        3
102
RTVSPost2010PropOp43
 70
     1
102
RTVSPost2010Prop44ColorIndex
 90
        5
102
RTVSPost2010Prop44ColorRGB
 90
      255
102
RTVSPost2010PropOp44
 70
     1
102
RTVSPost2010Prop45
280
     0
102
RTVSPost2010PropOp45
 70
     1
102
RTVSPost2010Prop46
 90
       50
102
RTVSPost2010PropOp46
 70
     1
102
RTVSPost2010Prop47
 90
       50
102
RTVSPost2010PropOp47
 70
     1
102
RTVSPost2010Prop48
 90
       50
102
RTVSPost2010PropOp48
 70
     1
102
RTVSPost2010Prop49
280
     0
102
RTVSPost2010PropOp49
 70
     1
102
RTVSPost2010Prop50
 90
       50
102
RTVSPost2010PropOp50
 70
     1
102
RTVSPost2010Prop51ColorIndex
 90
      256
102
RTVSPost2010Prop51ColorRGB
 90
-16777216
102
RTVSPost2010PropOp51
 70
     0
102
RTVSPost2010Prop52
140
1.0
102
RTVSPost2010PropOp52
 70
     0
102
RTVSPost2010Prop53
 90
        2
102
RTVSPost2010PropOp53
 70
     1
102
RTVSPost2010Prop54
  1
strokes_ogs.tif
102
RTVSPost2010PropOp54
 70
     1
102
RTVSPost2010Prop55
280
     0
102
RTVSPost2010PropOp55
 70
     1
102
RTVSPost2010Prop56
140
1.0
102
RTVSPost2010PropOp56
 70
     1
102
RTVSPost2010Prop57
140
1.0
102
RTVSPost2010PropOp57
 70
     1
  0
XRECORD
  5
41A
102
{ACAD_REACTORS
330
419
102
}
330
419
100
AcDbXrecord
280
     1
102
RTVSPropertyOp0
 70
     1
102
RTVSPropertyOp1
 70
     1
102
RTVSPropertyOp2
 70
     1
102
RTVSPropertyOp3
 70
     1
102
RTVSPropertyOp4
 70
     1
102
RTVSPropertyOp5
 70
     1
102
RTVSPropertyOp6
 70
     1
102
RTVSPropertyOp7
 70
     1
102
RTVSPropertyOp8
 70
     1
102
RTVSPropertyOp9
 70
     1
102
RTVSPropertyOp10
 70
     1
102
RTVSPropertyOp11
 70
     1
102
RTVSPropertyOp12
 70
     1
102
RTVSPropertyOp13
 70
     1
102
RTVSPropertyOp14
 70
     1
102
RTVSPropertyOp15
 70
     1
102
RTVSPropertyOp16
 70
     1
102
RTVSPropertyOp17
 70
     1
102
RTVSPropertyOp18
 70
     1
102
RTVSPropertyOp19
 70
     1
102
RTVSPropertyOp20
 70
     1
102
RTVSPropertyOp21
 70
     1
102
RTVSPropertyOp22
 70
     1
102
RTVSPropertyOp23
 70
     1
102
RTVSPropertyOp24
 70
     1
102
RTVSPropertyOp25
 70
     1
102
RTVSPropertyOp26
 70
     1
102
RTVSPropertyOp27
 70
     1
102
RTVSPropertyOp28
 70
     1
102
RTVSPropertyOp29
 70
     1
102
RTVSPropertyOp30
 70
     1
102
RTVSPropertyOp31
 70
     1
102
RTVSPropertyOp32
 70
     1
102
RTVSPropertyOp33
 70
     1
102
RTVSPropertyOp34
 70
     1
102
RTVSPropertyOp35
 70
     1
102
RTVSPropertyOp36
 70
     1
102
RTVSPropertyOp37
 70
     1
102
RTVSPropertyOp38
 70
     1
102
RTVSPropertyOp39
 70
     1
102
RTVSPropertyOp40
 70
     1
102
RTVSPropertyOp41
 70
     1
102
RTVSPropertyOp42
 70
     1
102
RTVSPropertyOp43
 70
     1
102
RTVSPropertyOp44
 70
     1
102
RTVSPropertyOp45
 70
     1
102
RTVSPropertyOp46
 70
     1
102
RTVSPropertyOp47
 70
     1
102
RTVSPropertyOp48
 70
     1
102
RTVSPropertyOp49
 70
     1
102
RTVSPropertyOp50
 70
     1
102
RTVSPropertyOp51
 70
     0
102
RTVSPropertyOp52
 70
     0
102
RTVSPropertyOp53
 70
     1
102
RTVSPropertyOp54
 70
     1
102
RTVSPropertyOp55
 70
     1
102
RTVSPropertyOp56
 70
     1
102
RTVSPropertyOp57
 70
     1
102
RTVSPost2010Prop28
280
     0
102
RTVSPost2010PropOp28
 70
     1
102
RTVSPost2010Prop29
280
     1
102
RTVSPost2010PropOp29
 70
     1
102
RTVSPost2010Prop30
280
     1
102
RTVSPost2010PropOp30
 70
     1
102
RTVSPost2010Prop31
280
     0
102
RTVSPost2010PropOp31
 70
     1
102
RTVSPost2010Prop32
280
     0
102
RTVSPost2010PropOp32
 70
     1
102
RTVSPost2010Prop33
280
     0
102
RTVSPost2010PropOp33
 70
     1
102
RTVSPost2010Prop34
280
     0
102
RTVSPost2010PropOp34
 70
     1
102
RTVSPost2010Prop35
280
     0
102
RTVSPost2010PropOp35
 70
     1
102
RTVSPost2010Prop36
280
     0
102
RTVSPost2010PropOp36
 70
     1
102
RTVSPost2010Prop37
 90
       50
102
RTVSPost2010PropOp37
 70
     1
102
RTVSPost2010Prop38
140
0.0
102
RTVSPost2010PropOp38
 70
     1
102
RTVSPost2010Prop39
140
1.0
102
RTVSPost2010PropOp39
 70
     1
102
RTVSPost2010Prop40
 90
        0
102
RTVSPost2010PropOp40
 70
     1
102
RTVSPost2010Prop41ColorIndex
 90
       18
102
RTVSPost2010Prop41ColorRGB
 90
        0
102
RTVSPost2010PropOp41
 70
     1
102
RTVSPost2010Prop42
 90
       50
102
RTVSPost2010PropOp42
 70
     1
102
RTVSPost2010Prop43
 90
        3
102
RTVSPost2010PropOp43
 70
     1
102
RTVSPost2010Prop44ColorIndex
 90
        5
102
RTVSPost2010Prop44ColorRGB
 90
      255
102
RTVSPost2010PropOp44
 70
     1
102
RTVSPost2010Prop45
280
     0
102
RTVSPost2010PropOp45
 70
     1
102
RTVSPost2010Prop46
 90
       50
102
RTVSPost2010PropOp46
 70
     1
102
RTVSPost2010Prop47
 90
       50
102
RTVSPost2010PropOp47
 70
     1
102
RTVSPost2010Prop48
 90
       50
102
RTVSPost2010PropOp48
 70
     1
102
RTVSPost2010Prop49
280
     0
102
RTVSPost2010PropOp49
 70
     1
102
RTVSPost2010Prop50
 90
       50
102
RTVSPost2010PropOp50
 70
     1
102
RTVSPost2010Prop51ColorIndex
 90
      256
102
RTVSPost2010Prop51ColorRGB
 90
-16777216
102
RTVSPost2010PropOp51
 70
     0
102
RTVSPost2010Prop52
140
1.0
102
RTVSPost2010PropOp52
 70
     0
102
RTVSPost2010Prop53
 90
        2
102
RTVSPost2010PropOp53
 70
     1
102
RTVSPost2010Prop54
  1
strokes_ogs.tif
102
RTVSPost2010PropOp54
 70
     1
102
RTVSPost2010Prop55
280
     0
102
RTVSPost2010PropOp55
 70
     1
102
RTVSPost2010Prop56
140
1.0
102
RTVSPost2010PropOp56
 70
     1
102
RTVSPost2010Prop57
140
1.0
102
RTVSPost2010PropOp57
 70
     1
  0
ENDSEC
  0
EOF
