  0
SECTION
  2
HEADER
  9
$ACADVER
  1
AC1014
  9
$ACADMAINTVER
 70
             0
  9
$DWGCODEPAGE
  3
ANSI_1252
  9
$INSBASE
 10
0.0
 20
0.0
 30
0.0
  9
$EXTMIN
 10
1.00000000000000E+20
 20
1.00000000000000E+20
 30
1.00000000000000E+20
  9
$EXTMAX
 10
-1.00000000000000E+20
 20
-1.00000000000000E+20
 30
-1.00000000000000E+20
  9
$LIMMIN
 10
0.0
 20
0.0
  9
$LIMMAX
 10
0.0
 20
0.0
  9
$ORTHOMODE
 70
             0
  9
$REGENMODE
 70
             1
  9
$FILLMODE
 70
             1
  9
$QTEXTMODE
 70
             0
  9
$MIRRTEXT
 70
             1
  9
$DRAGMODE
 70
             2
  9
$LTSCALE
 40
1.0
  9
$OSMODE
 70
             0
  9
$ATTMODE
 70
             1
  9
$TEXTSIZE
 40
0.2
  9
$TRACEWID
 40
0.05
  9
$TEXTSTYLE
  7
STANDARD
  9
$CLAYER
  8
0
  9
$CELTYPE
  6
CONTINUOUS
  9
$CECOLOR
 62
           256
  9
$CELTSCALE
 40
1.0
  9
$DELOBJ
 70
             1
  9
$DISPSILH
 70
             0
  9
$DIMSCALE
 40
1.0
  9
$DIMASZ
 40
0.18
  9
$DIMEXO
 40
0.0625
  9
$DIMDLI
 40
0.38
  9
$DIMRND
 40
0.0
  9
$DIMDLE
 40
0.0
  9
$DIMEXE
 40
0.18
  9
$DIMTP
 40
0.0
  9
$DIMTM
 40
0.0
  9
$DIMTXT
 40
0.18
  9
$DIMCEN
 40
0.09
  9
$DIMTSZ
 40
0.0
  9
$DIMTOL
 70
             0
  9
$DIMLIM
 70
             0
  9
$DIMTIH
 70
             1
  9
$DIMTOH
 70
             1
  9
$DIMSE1
 70
             0
  9
$DIMSE2
 70
             0
  9
$DIMTAD
 70
             0
  9
$DIMZIN
 70
             0
  9
$DIMBLK
  1

  9
$DIMASO
 70
             1
  9
$DIMSHO
 70
             1
  9
$DIMPOST
  1

  9
$DIMAPOST
  1

  9
$DIMALT
 70
             0
  9
$DIMALTD
 70
             2
  9
$DIMALTF
 40
25.4
  9
$DIMLFAC
 40
1.0
  9
$DIMTOFL
 70
             0
  9
$DIMTVP
 40
0.0
  9
$DIMTIX
 70
             0
  9
$DIMSOXD
 70
             0
  9
$DIMSAH
 70
             0
  9
$DIMBLK1
  1

  9
$DIMBLK2
  1

  9
$DIMSTYLE
  2
STANDARD
  9
$DIMCLRD
 70
             0
  9
$DIMCLRE
 70
             0
  9
$DIMCLRT
 70
             0
  9
$DIMTFAC
 40
1.0
  9
$DIMGAP
 40
0.09
  9
$DIMJUST
 70
             0
  9
$DIMSD1
 70
             0
  9
$DIMSD2
 70
             0
  9
$DIMTOLJ
 70
             1
  9
$DIMTZIN
 70
             0
  9
$DIMALTZ
 70
             0
  9
$DIMALTTZ
 70
             0
  9
$DIMFIT
 70
             3
  9
$DIMUPT
 70
             0
  9
$DIMUNIT
 70
             2
  9
$DIMDEC
 70
             4
  9
$DIMTDEC
 70
             4
  9
$DIMALTU
 70
             2
  9
$DIMALTTD
 70
             2
  9
$DIMTXSTY
  7
STANDARD
  9
$DIMAUNIT
 70
             0
  9
$LUNITS
 70
             2
  9
$LUPREC
 70
             4
  9
$SKETCHINC
 40
0.1
  9
$FILLETRAD
 40
0.0
  9
$AUNITS
 70
             0
  9
$AUPREC
 70
             0
  9
$MENU
  1
acad
  9
$ELEVATION
 40
0.0
  9
$PELEVATION
 40
0.0
  9
$THICKNESS
 40
0.0
  9
$LIMCHECK
 70
             0
  9
$BLIPMODE
 70
             1
  9
$CHAMFERA
 40
0.0
  9
$CHAMFERB
 40
0.0
  9
$CHAMFERC
 40
0.0
  9
$CHAMFERD
 40
0.0
  9
$SKPOLY
 70
             0
  9
$TDCREATE
 40
0.000000000
  9
$TDUPDATE
 40
0.000000000
  9
$TDINDWG
 40
0.0000000000
  9
$TDUSRTIMER
 40
0.0000000000
  9
$USRTIMER
 70
             1
  9
$ANGBASE
 50
0.0
  9
$ANGDIR
 70
             0
  9
$PDMODE
 70
             0
  9
$PDSIZE
 40
0.0
  9
$PLINEWID
 40
0.0
  9
$COORDS
 70
             0
  9
$SPLFRAME
 70
             0
  9
$SPLINETYPE
 70
             6
  9
$SPLINESEGS
 70
             8
  9
$ATTDIA
 70
             0
  9
$ATTREQ
 70
             1
  9
$HANDLING
 70
             1
  9
$HANDSEED
  5
371
  9
$SURFTAB1
 70
             6
  9
$SURFTAB2
 70
             6
  9
$SURFTYPE
 70
             6
  9
$SURFU
 70
             6
  9
$SURFV
 70
             6
  9
$UCSNAME
  2

  9
$UCSORG
 10
0.0
 20
0.0
 30
0.0
  9
$UCSXDIR
 10
1.0
 20
0.0
 30
0.0
  9
$UCSYDIR
 10
0.0
 20
1.0
 30
0.0
  9
$PUCSNAME
  2

  9
$PUCSORG
 10
0.0
 20
0.0
 30
0.0
  9
$PUCSXDIR
 10
1.0
 20
0.0
 30
0.0
  9
$PUCSYDIR
 10
0.0
 20
1.0
 30
0.0
  9
$USERI1
 70
             0
  9
$USERI2
 70
             0
  9
$USERI3
 70
             0
  9
$USERI4
 70
             0
  9
$USERI5
 70
             0
  9
$USERR1
 40
11.6
  9
$USERR2
 40
0.0
  9
$USERR3
 40
0.0
  9
$USERR4
 40
0.0
  9
$USERR5
 40
0.0
  9
$WORLDVIEW
 70
             1
  9
$SHADEDGE
 70
             3
  9
$SHADEDIF
 70
            70
  9
$TILEMODE
 70
             1
  9
$MAXACTVP
 70
            16
  9
$PINSBASE
 10
0.0
 20
0.0
 30
0.0
  9
$PLIMCHECK
 70
             0
  9
$PEXTMIN
 10
1.00000000000000E+20
 20
1.00000000000000E+20
 30
1.00000000000000E+20
  9
$PEXTMAX
 10
-1.00000000000000E+20
 20
-1.00000000000000E+20
 30
-1.00000000000000E+20
  9
$PLIMMIN
 10
0.0
 20
0.0
  9
$PLIMMAX
 10
12.0
 20
9.0
  9
$UNITMODE
 70
             0
  9
$VISRETAIN
 70
             0
  9
$PLINEGEN
 70
             1
  9
$PSLTSCALE
 70
             0
  9
$TREEDEPTH
 70
          3020
  9
$PICKSTYLE
 70
             1
  9
$CMLSTYLE
  2
STANDARD
  9
$CMLJUST
 70
             0
  9
$CMLSCALE
 40
1.0
  9
$PROXYGRAPHICS
 70
             0
  9
$MEASUREMENT
 70
             1
  0
ENDSEC
  0
SECTION
  2
CLASSES
  0
CLASS
  1
LWPOLYLINE
  2
AcDbPolyline
  3
"AutoCAD"
 90
        0
280
             0
281
             1
  0
CLASS
  1
IMAGE
  2
AcDbRasterImage
  3
ISM
 90
      127
280
             0
281
             1
  0
CLASS
  1
OLE2FRAME
  2
AcDbOle2Frame
  3
""
 90
        0
280
             0
281
             1
  0
CLASS
  1
HATCH
  2
AcDbHatch
  3
"ACAD_SEDONA"
 90
        0
280
             0
281
             1
  0
CLASS
  1
DICTIONARYVAR
  2
AcDbDictionaryVar
  3
"AutoCAD"
 90
        0
280
             0
281
             0
  0
CLASS
  1
RASTERVARIABLES
  2
AcDbRasterVariables
  3
ISM
 90
        0
280
             0
281
             0
  0
CLASS
  1
IMAGEDEF
  2
AcDbRasterImageDef
  3
ISM
 90
        0
280
             0
281
             0
  0
CLASS
  1
IMAGEDEF_REACTOR
  2
AcDbRasterImageDefReactor
  3
ISM
 90
        1
280
             0
281
             0
  0
CLASS
  1
IDBUFFER
  2
AcDbIdBuffer
  3
"Acad"
 90
        0
280
             0
281
             0
  0
CLASS
  1
SPATIAL_FILTER
  2
AcDbSpatialFilter
  3
"Acad"
 90
        0
280
             0
281
             0
  0
CLASS
  1
XRECORD
  2
AcDbXrecord
  3
"<Built In>"
 90
        0
280
             0
281
             0
  0
CLASS
  1
SORTENTSTABLE
  2
AcDbSortentsTable
  3
"AutoCAD"
 90
        0
280
             0
281
             0
  0
CLASS
  1
LAYER_INDEX
  2
AcDbLayerIndex
  3
"Acad"
 90
        0
280
             0
281
             0
  0
CLASS
  1
SPATIAL_INDEX
  2
AcDbSpatialIndex
  3
"Acad"
 90
        0
280
             0
281
             0
  0
CLASS
  1
OBJECT_PTR
  2
CAseDLPNTableRecord
  3
"ASE-LPNTableRecord"
 90
        1
280
             0
281
             0
  0
CLASS
  1
LAYOUT
  2
AcDbLayout
  3
"AutoCAD 2000"
 90
        1
280
             0
281
             0
  0
CLASS
  1
PLOTSETTINGS
  2
AcDbPlotSettings
  3
"AutoCAD 2000"
 90
        1
280
             0
281
             0
  0
CLASS
  1
ACDBDICTIONARYWDFLT
  2
AcDbDictionaryWithDefault
  3
"AutoCAD 2000"
 90
        1
280
             0
281
             0
  0
CLASS
  1
ACDBPLACEHOLDER
  2
AcDbPlaceHolder
  3
"AutoCAD 2000"
 90
        1
280
             0
281
             0
  0
ENDSEC
  0
SECTION
  2
TABLES
  0
TABLE
  2
VPORT
  5
7
100
AcDbSymbolTable
 70
             1
  0
VPORT
  5
15
100
AcDbSymbolTableRecord
100
AcDbViewportTableRecord
  2
*ACTIVE
 70
             0
 10
0.0
 20
0.0
 11
1.0
 21
1.0
 12
15.33858916447309
 22
21.41209844314835
 13
0.0
 23
0.0
 14
1.0
 24
1.0
 15
0.0
 25
0.0
 16
0.0
 26
0.0
 36
1.0
 17
0.0
 27
0.0
 37
0.0
 40
275.71067346667803
 41
1.60267857142857
 42
50.0
 43
0.0
 44
0.0
 50
0.0
 51
0.0
 71
             0
 72
           100
 73
             1
 74
             1
 75
             0
 76
             0
 77
             0
 78
             0
  0
ENDTAB
  0
TABLE
  2
LTYPE
  5
4
100
AcDbSymbolTable
 70
            10
  0
LTYPE
  5
11
100
AcDbSymbolTableRecord
100
AcDbLinetypeTableRecord
  2
BYBLOCK
 70
            64
  3

 72
            65
 73
             0
 40
0.0
  0
LTYPE
  5
12
100
AcDbSymbolTableRecord
100
AcDbLinetypeTableRecord
  2
BYLAYER
 70
            64
  3

 72
            65
 73
             0
 40
0.0
  0
LTYPE
  5
13
100
AcDbSymbolTableRecord
100
AcDbLinetypeTableRecord
  2
CONTINUOUS
 70
            64
  3
Solid line
 72
            65
 73
             0
 40
0.0
  0
LTYPE
  5
1D
100
AcDbSymbolTableRecord
100
AcDbLinetypeTableRecord
  2
DASHED
 70
            64
  3
Dashed
 72
            65
 73
             2
 40
15.0
 49
12.0
 74
             0
 49
-3.0
 74
             0
  0
LTYPE
  5
1E
100
AcDbSymbolTableRecord
100
AcDbLinetypeTableRecord
  2
DOTTED
 70
            64
  3
Dotted
 72
            65
 73
             2
 40
3.5
 49
0.5
 74
             0
 49
-3.0
 74
             0
  0
LTYPE
  5
1F
100
AcDbSymbolTableRecord
100
AcDbLinetypeTableRecord
  2
DOT_CENTER
 70
            64
  3
Dot_Center
 72
            65
 73
             4
 40
2.0
 49
1.25
 74
             0
 49
-0.25
 74
             0
 49
0.25
 74
             0
 49
-0.25
 74
             0
  0
LTYPE
  5
20
100
AcDbSymbolTableRecord
100
AcDbLinetypeTableRecord
  2
LONG_DASHED
 70
            64
  3
Long_Dashed
 72
            65
 73
             2
 40
2.0
 49
1.5
 74
             0
 49
-0.5
 74
             0
  0
LTYPE
  5
21
100
AcDbSymbolTableRecord
100
AcDbLinetypeTableRecord
  2
DASH_CENTER
 70
            64
  3
Dash_Center
 72
            65
 73
             4
 40
36.0
 49
24.0
 74
             0
 49
-3.0
 74
             0
 49
6.0
 74
             0
 49
-3.0
 74
             0
  0
LTYPE
  5
22
100
AcDbSymbolTableRecord
100
AcDbLinetypeTableRecord
  2
PHANTOM
 70
            64
  3
Phantom
 72
            65
 73
             6
 40
2.5
 49
1.25
 74
             0
 49
-0.25
 74
             0
 49
0.25
 74
             0
 49
-0.25
 74
             0
 49
0.25
 74
             0
 49
-0.25
 74
             0
  0
LTYPE
  5
23
100
AcDbSymbolTableRecord
100
AcDbLinetypeTableRecord
  2
CENTER_DASH_DASH
 70
            64
  3
Center_Dash_Dash
 72
            65
 73
             6
 40
22.0
 49
12.0
 74
             0
 49
-3.0
 74
             0
 49
0.5
 74
             0
 49
-3.0
 74
             0
 49
0.5
 74
             0
 49
-3.0
 74
             0
  0
ENDTAB
  0
TABLE
  2
LAYER
  5
2
100
AcDbSymbolTable
 70
             4
  0
LAYER
  5
14
100
AcDbSymbolTableRecord
100
AcDbLayerTableRecord
  2
0
 70
             0
 62
             7
  6
CONTINUOUS
  0
LAYER
  5
24
100
AcDbSymbolTableRecord
100
AcDbLayerTableRecord
  2
1
 70
             0
 62
             7
  6
CONTINUOUS
  0
LAYER
  5
25
100
AcDbSymbolTableRecord
100
AcDbLayerTableRecord
  2
LC-001-002-----0
 70
             0
 62
             7
  6
CONTINUOUS
  0
LAYER
  5
26
100
AcDbSymbolTableRecord
100
AcDbLayerTableRecord
  2
LC-002-002-RND-0
 70
             0
 62
             7
  6
CONTINUOUS
  0
ENDTAB
  0
TABLE
  2
STYLE
  5
3
100
AcDbSymbolTable
 70
             3
  0
STYLE
  5
17
100
AcDbSymbolTableRecord
100
AcDbTextStyleTableRecord
  2
STANDARD
 70
             0
 40
0.0
 41
1.0
 50
0.0
 71
             0
 42
0.0
  3
txt
  4

  0
STYLE
  5
2DD
100
AcDbSymbolTableRecord
100
AcDbTextStyleTableRecord
  2
CONVERTER_1
 70
             0
 40
0.0
 41
0.95
 50
0.0
 71
             0
 42
0.0
  3
complex.shx
  4

  0
STYLE
  5
311
100
AcDbSymbolTableRecord
100
AcDbTextStyleTableRecord
  2
CONVERTER_2
 70
             0
 40
0.0
 41
0.9
 50
0.0
 71
             0
 42
0.0
  3
txt.shx
  4

  0
ENDTAB
  0
TABLE
  2
VIEW
  5
5
100
AcDbSymbolTable
 70
             0
  0
ENDTAB
  0
TABLE
  2
UCS
  5
6
100
AcDbSymbolTable
 70
             0
  0
ENDTAB
  0
TABLE
  2
APPID
  5
8
100
AcDbSymbolTable
 70
             1
  0
APPID
  5
16
100
AcDbSymbolTableRecord
100
AcDbRegAppTableRecord
  2
ACAD
 70
             0
  0
ENDTAB
  0
TABLE
  2
DIMSTYLE
  5
9
100
AcDbSymbolTable
 70
            10
  0
DIMSTYLE
105
18
100
AcDbSymbolTableRecord
100
AcDbDimStyleTableRecord
  2
STANDARD
 70
             0
  3

  4

  5

  6

  7

 40
1.0
 41
0.18
 42
0.0625
 43
0.38
 44
0.18
 45
0.0
 46
0.0
 47
0.0
 48
0.0
 71
             0
 72
             0
 73
             1
 74
             1
 75
             0
 76
             0
 77
             0
 78
             0
140
0.18
141
0.09
142
0.0
143
25.4
144
1.0
145
0.0
146
1.0
147
0.09
170
             0
171
             2
172
             0
173
             0
174
             0
175
             0
176
             0
177
             0
178
             0
270
             2
271
             4
272
             4
273
             2
274
             2
275
             0
280
             0
281
             0
282
             0
283
             1
284
             0
285
             0
286
             0
287
             0
288
             0
340
17
  0
DIMSTYLE
105
314
100
AcDbSymbolTableRecord
100
AcDbDimStyleTableRecord
  2
ME10_DIM_0
 70
             0
  3

  4

  5

  6

  7

 40
1.0
 41
7.0
 42
0.0
 43
0.38
 44
2.0
 45
0.0
 46
0.0
 47
0.0
 48
0.0
 71
             0
 72
             0
 73
             0
 74
             0
 75
             0
 76
             0
 77
             1
 78
             8
140
7.0
141
0.09
142
0.0
143
25.4
144
1.0
145
0.0
146
1.0
147
0.625
170
             0
171
             2
172
             0
173
             1
174
             0
175
             0
176
             4
177
             4
178
             1
270
             2
271
             2
272
             4
273
             2
274
             2
275
             0
280
             0
281
             0
282
             0
283
             1
284
             0
285
             0
286
             0
287
             0
288
             0
340
17
  0
DIMSTYLE
105
31F
100
AcDbSymbolTableRecord
100
AcDbDimStyleTableRecord
  2
ME10_DIM_1
 70
             0
  3

  4

  5

  6

  7

 40
1.0
 41
7.0
 42
0.0
 43
0.38
 44
2.0
 45
0.0
 46
0.0
 47
0.0
 48
0.0
 71
             0
 72
             0
 73
             0
 74
             0
 75
             0
 76
             0
 77
             1
 78
             8
140
7.0
141
0.09
142
0.0
143
25.4
144
1.0
145
0.0
146
1.0
147
0.625
170
             0
171
             2
172
             0
173
             1
174
             0
175
             0
176
             4
177
             4
178
             1
270
             2
271
             2
272
             4
273
             2
274
             2
275
             0
280
             0
281
             0
282
             0
283
             1
284
             0
285
             0
286
             0
287
             0
288
             0
340
17
  0
DIMSTYLE
105
32A
100
AcDbSymbolTableRecord
100
AcDbDimStyleTableRecord
  2
ME10_DIM_2
 70
             0
  3

  4

  5

  6

  7

 40
1.0
 41
7.0
 42
0.0
 43
0.38
 44
2.0
 45
0.0
 46
0.0
 47
0.0
 48
0.0
 71
             0
 72
             0
 73
             0
 74
             0
 75
             0
 76
             0
 77
             1
 78
             8
140
7.0
141
0.09
142
0.0
143
25.4
144
1.0
145
0.0
146
1.0
147
0.625
170
             0
171
             2
172
             0
173
             1
174
             0
175
             0
176
             4
177
             4
178
             1
270
             2
271
             2
272
             4
273
             2
274
             2
275
             0
280
             0
281
             0
282
             0
283
             1
284
             0
285
             0
286
             0
287
             0
288
             0
340
17
  0
DIMSTYLE
105
335
100
AcDbSymbolTableRecord
100
AcDbDimStyleTableRecord
  2
ME10_DIM_3
 70
             0
  3

  4

  5

  6

  7

 40
1.0
 41
7.0
 42
0.0
 43
0.38
 44
2.0
 45
0.0
 46
0.0
 47
0.0
 48
0.0
 71
             0
 72
             0
 73
             0
 74
             0
 75
             0
 76
             0
 77
             1
 78
             8
140
7.0
141
0.09
142
0.0
143
25.4
144
1.0
145
0.0
146
1.0
147
0.625
170
             0
171
             2
172
             0
173
             1
174
             0
175
             0
176
             4
177
             4
178
             1
270
             2
271
             2
272
             4
273
             2
274
             2
275
             0
280
             0
281
             0
282
             0
283
             1
284
             0
285
             0
286
             0
287
             0
288
             0
340
17
  0
DIMSTYLE
105
340
100
AcDbSymbolTableRecord
100
AcDbDimStyleTableRecord
  2
ME10_DIM_4
 70
             0
  3

  4

  5

  6

  7

 40
1.0
 41
7.0
 42
0.0
 43
0.38
 44
2.0
 45
0.0
 46
0.0
 47
0.0
 48
0.0
 71
             0
 72
             0
 73
             0
 74
             0
 75
             0
 76
             0
 77
             1
 78
             8
140
7.0
141
0.09
142
0.0
143
25.4
144
1.0
145
0.0
146
1.0
147
0.625
170
             0
171
             2
172
             0
173
             1
174
             0
175
             0
176
             4
177
             4
178
             1
270
             2
271
             2
272
             4
273
             2
274
             2
275
             0
280
             0
281
             0
282
             0
283
             1
284
             0
285
             0
286
             0
287
             0
288
             0
340
17
  0
DIMSTYLE
105
34B
100
AcDbSymbolTableRecord
100
AcDbDimStyleTableRecord
  2
ME10_DIM_5
 70
             0
  3

  4

  5

  6

  7

 40
1.0
 41
7.0
 42
0.0
 43
0.38
 44
2.0
 45
0.0
 46
0.0
 47
0.0
 48
0.0
 71
             0
 72
             0
 73
             0
 74
             0
 75
             0
 76
             0
 77
             1
 78
             8
140
7.0
141
0.09
142
0.0
143
25.4
144
1.0
145
0.0
146
1.0
147
0.625
170
             0
171
             2
172
             0
173
             1
174
             0
175
             0
176
             4
177
             4
178
             1
270
             2
271
             2
272
             4
273
             2
274
             2
275
             0
280
             0
281
             0
282
             0
283
             1
284
             0
285
             0
286
             0
287
             0
288
             0
340
17
  0
DIMSTYLE
105
356
100
AcDbSymbolTableRecord
100
AcDbDimStyleTableRecord
  2
ME10_DIM_6
 70
             0
  3

  4

  5

  6

  7

 40
1.0
 41
7.0
 42
0.0
 43
0.38
 44
2.0
 45
0.0
 46
0.0
 47
0.0
 48
0.0
 71
             0
 72
             0
 73
             0
 74
             0
 75
             0
 76
             0
 77
             1
 78
             8
140
7.0
141
0.09
142
0.0
143
25.4
144
1.0
145
0.0
146
1.0
147
0.625
170
             0
171
             2
172
             0
173
             1
174
             0
175
             0
176
             4
177
             4
178
             1
270
             2
271
             2
272
             4
273
             2
274
             2
275
             0
280
             0
281
             0
282
             0
283
             1
284
             0
285
             0
286
             0
287
             0
288
             0
340
17
  0
DIMSTYLE
105
361
100
AcDbSymbolTableRecord
100
AcDbDimStyleTableRecord
  2
ME10_DIM_7
 70
             0
  3

  4

  5

  6

  7

 40
1.0
 41
7.0
 42
0.0
 43
0.38
 44
2.0
 45
0.0
 46
0.0
 47
0.0
 48
0.0
 71
             0
 72
             0
 73
             0
 74
             0
 75
             0
 76
             0
 77
             1
 78
             8
140
7.0
141
0.09
142
0.0
143
25.4
144
1.0
145
0.0
146
1.0
147
0.625
170
             0
171
             2
172
             0
173
             1
174
             0
175
             0
176
             4
177
             4
178
             1
270
             2
271
             2
272
             4
273
             2
274
             2
275
             0
280
             0
281
             0
282
             0
283
             1
284
             0
285
             0
286
             0
287
             0
288
             0
340
17
  0
DIMSTYLE
105
36E
100
AcDbSymbolTableRecord
100
AcDbDimStyleTableRecord
  2
ME10_DIM_8
 70
             0
  3

  4

  5

  6

  7

 40
1.0
 41
7.0
 42
0.0
 43
0.38
 44
2.0
 45
0.0
 46
0.0
 47
0.0
 48
0.0
 71
             0
 72
             0
 73
             0
 74
             0
 75
             0
 76
             0
 77
             1
 78
             8
140
7.0
141
0.09
142
0.0
143
25.4
144
1.0
145
0.0
146
1.0
147
0.625
170
             0
171
             2
172
             0
173
             1
174
             0
175
             0
176
             4
177
             4
178
             1
270
             2
271
             2
272
             4
273
             2
274
             2
275
             0
280
             0
281
             0
282
             0
283
             1
284
             0
285
             0
286
             0
287
             0
288
             0
340
17
  0
ENDTAB
  0
TABLE
  2
BLOCK_RECORD
  5
1
100
AcDbSymbolTable
 70
            18
  0
BLOCK_RECORD
  5
A
100
AcDbSymbolTableRecord
100
AcDbBlockTableRecord
  2
*MODEL_SPACE
  0
BLOCK_RECORD
  5
B
100
AcDbSymbolTableRecord
100
AcDbBlockTableRecord
  2
*PAPER_SPACE
  0
BLOCK_RECORD
  5
27
100
AcDbSymbolTableRecord
100
AcDbBlockTableRecord
  2
SCHNEIDSCHRAUBE_3_9X13__1
  0
BLOCK_RECORD
  5
29
100
AcDbSymbolTableRecord
100
AcDbBlockTableRecord
  2
SCHNEIDSCHRAUBE_3_9X13__2
  0
BLOCK_RECORD
  5
2B
100
AcDbSymbolTableRecord
100
AcDbBlockTableRecord
  2
SCHNEIDSCHRAUBE_3_9X32__3
  0
BLOCK_RECORD
  5
2D
100
AcDbSymbolTableRecord
100
AcDbBlockTableRecord
  2
SCHNEIDSCHRAUBE_3_9X13__4
  0
BLOCK_RECORD
  5
2F
100
AcDbSymbolTableRecord
100
AcDbBlockTableRecord
  2
SCHALLSCHUTZ
  0
BLOCK_RECORD
  5
31
100
AcDbSymbolTableRecord
100
AcDbBlockTableRecord
  2
SCHNEIDSCHRAUBE_3_9X32__5
  0
BLOCK_RECORD
  5
33
100
AcDbSymbolTableRecord
100
AcDbBlockTableRecord
  2
0405_8E
  0
BLOCK_RECORD
  5
3B
100
AcDbSymbolTableRecord
100
AcDbBlockTableRecord
  2
HL_44_MONTAGEPLATTE__6
  0
BLOCK_RECORD
  5
3D
100
AcDbSymbolTableRecord
100
AcDbBlockTableRecord
  2
HL_44_MONTAGEPLATTE_ARIKEL
  0
BLOCK_RECORD
  5
30A
100
AcDbSymbolTableRecord
100
AcDbBlockTableRecord
  2
*D9
  0
BLOCK_RECORD
  5
316
100
AcDbSymbolTableRecord
100
AcDbBlockTableRecord
  2
*D10
  0
BLOCK_RECORD
  5
321
100
AcDbSymbolTableRecord
100
AcDbBlockTableRecord
  2
*D11
  0
BLOCK_RECORD
  5
32C
100
AcDbSymbolTableRecord
100
AcDbBlockTableRecord
  2
*D12
  0
BLOCK_RECORD
  5
337
100
AcDbSymbolTableRecord
100
AcDbBlockTableRecord
  2
*D13
  0
BLOCK_RECORD
  5
342
100
AcDbSymbolTableRecord
100
AcDbBlockTableRecord
  2
*D14
  0
BLOCK_RECORD
  5
34D
100
AcDbSymbolTableRecord
100
AcDbBlockTableRecord
  2
*D15
  0
BLOCK_RECORD
  5
358
100
AcDbSymbolTableRecord
100
AcDbBlockTableRecord
  2
*D16
  0
BLOCK_RECORD
  5
363
100
AcDbSymbolTableRecord
100
AcDbBlockTableRecord
  2
*D17
  0
ENDTAB
  0
ENDSEC
  0
SECTION
  2
BLOCKS
  0
BLOCK
  5
D
100
AcDbEntity
  8
0
100
AcDbBlockBegin
  2
*MODEL_SPACE
 70
             0
 10
0.0
 20
0.0
 30
0.0
  3
*MODEL_SPACE
  1

  0
ENDBLK
  5
E
100
AcDbEntity
  8
0
100
AcDbBlockEnd
  0
BLOCK
  5
F
100
AcDbEntity
 67
             1
  8
0
100
AcDbBlockBegin
  2
*PAPER_SPACE
 70
             0
 10
0.0
 20
0.0
 30
0.0
  3
*PAPER_SPACE
  1

  0
ENDBLK
  5
10
100
AcDbEntity
 67
             1
  8
0
100
AcDbBlockEnd
  0
BLOCK
  5
28
100
AcDbEntity
  8
0
100
AcDbBlockBegin
  2
SCHNEIDSCHRAUBE_3_9X13__1
 70
             0
 10
23214.202611763911
 20
31717.727126758
 30
0.0
  3
SCHNEIDSCHRAUBE_3_9X13__1
  1

  0
ARC
  5
5B
100
AcDbEntity
  8
LC-002-002-RND-0
  6
CONTINUOUS
 62
             7
100
AcDbCircle
 10
23238.96809949381
 20
32282.727126758
 40
0.5
100
AcDbArc
 50
0.0
 51
90.0
  0
ARC
  5
5A
100
AcDbEntity
  8
LC-002-002-RND-0
  6
CONTINUOUS
 62
             7
100
AcDbCircle
 10
23238.46809949381
 20
32282.727126758
 40
0.5
100
AcDbArc
 50
90.0
 51
180.0
  0
ARC
  5
59
100
AcDbEntity
  8
LC-001-002-----0
  6
CONTINUOUS
 62
             7
100
AcDbCircle
 10
23229.84309949381
 20
32277.727126758
 40
10.62499999999718
100
AcDbArc
 50
-25.05761499999917
 51
25.05761499999917
  0
ARC
  5
58
100
AcDbEntity
  8
LC-002-002-RND-0
  6
CONTINUOUS
 62
             7
100
AcDbCircle
 10
23238.46809949381
 20
32272.727126758
 40
0.5
100
AcDbArc
 50
180.0
 51
-90.0
  0
ARC
  5
57
100
AcDbEntity
  8
LC-002-002-RND-0
  6
CONTINUOUS
 62
             7
100
AcDbCircle
 10
23238.96809949381
 20
32272.727126758
 40
0.5
100
AcDbArc
 50
-90.0
 51
0.0
  0
ARC
  5
56
100
AcDbEntity
  8
LC-001-002-----0
  6
CONTINUOUS
 62
             7
100
AcDbCircle
 10
23229.20812849381
 20
32280.943847758001
 40
5.322136999996
100
AcDbArc
 50
-142.81402399995227
 51
-92.58492199999243
  0
ARC
  5
55
100
AcDbEntity
  8
LC-001-002-----0
  6
CONTINUOUS
 62
             7
100
AcDbCircle
 10
23229.20812849381
 20
32274.510404757999
 40
5.32213700000241
100
AcDbArc
 50
92.58492199998889
 51
142.81402399995227
  0
LINE
  5
54
100
AcDbEntity
  8
LC-001-002-----0
  6
CONTINUOUS
 62
             7
100
AcDbLine
 10
23239.46809949381
 20
32272.727126758
 11
23239.46809949381
 21
32282.727126758
  0
LINE
  5
53
100
AcDbEntity
  8
LC-001-002-----0
  6
CONTINUOUS
 62
             7
100
AcDbLine
 10
23238.96809949381
 20
32272.227126758
 11
23238.46809949381
 21
32272.227126758
  0
LINE
  5
52
100
AcDbEntity
  8
LC-001-002-----0
  6
CONTINUOUS
 62
             7
100
AcDbLine
 10
23238.96809949381
 20
32283.227126758
 11
23238.46809949381
 21
32283.227126758
  0
LINE
  5
51
100
AcDbEntity
  8
LC-001-002-----0
  6
CONTINUOUS
 62
             7
100
AcDbLine
 10
23237.96809949381
 20
32279.827126758009
 11
23237.96809949381
 21
32282.727126758
  0
LINE
  5
50
100
AcDbEntity
  8
LC-001-002-----0
  6
CONTINUOUS
 62
             7
100
AcDbLine
 10
23237.96809949381
 20
32275.62712675799
 11
23228.96809949381
 21
32275.62712675799
  0
LINE
  5
4F
100
AcDbEntity
  8
LC-001-002-----0
  6
CONTINUOUS
 62
             7
100
AcDbLine
 10
23237.96809949381
 20
32279.827126758009
 11
23228.96809949381
 21
32279.827126758009
  0
LINE
  5
4E
100
AcDbEntity
  8
LC-001-002-----0
  6
CONTINUOUS
 62
             7
100
AcDbLine
 10
23232.96809949381
 20
32275.62712675799
 11
23230.96809949381
 21
32279.827126758009
  0
LINE
  5
4D
100
AcDbEntity
  8
LC-001-002-----0
  6
CONTINUOUS
 62
             7
100
AcDbLine
 10
23234.96809949381
 20
32275.62712675799
 11
23232.96809949381
 21
32279.827126758009
  0
LINE
  5
4C
100
AcDbEntity
  8
LC-001-002-----0
  6
CONTINUOUS
 62
             7
100
AcDbLine
 10
23230.96809949381
 20
32275.62712675799
 11
23228.96809949381
 21
32279.827126758009
  0
LINE
  5
4B
100
AcDbEntity
  8
LC-001-002-----0
  6
CONTINUOUS
 62
             7
100
AcDbLine
 10
23228.96809949381
 20
32275.62712675799
 11
23227.160583493809
 21
32279.422909757999
  0
LINE
  5
4A
100
AcDbEntity
  8
LC-001-002-----0
  6
CONTINUOUS
 62
             7
100
AcDbLine
 10
23226.661787493809
 20
32276.270380758
 11
23225.62565149381
 21
32278.44626575799
  0
LINE
  5
49
100
AcDbEntity
  8
LC-001-002-----0
  6
CONTINUOUS
 62
             7
100
AcDbLine
 10
23236.96809949381
 20
32275.62712675799
 11
23234.96809949381
 21
32279.827126758009
  0
LINE
  5
48
100
AcDbEntity
  8
LC-001-002-----0
  6
CONTINUOUS
 62
             7
100
AcDbLine
 10
23237.96809949381
 20
32277.727126758
 11
23236.96809949381
 21
32279.827126758009
  0
LINE
  5
47
100
AcDbEntity
  8
LC-001-002-----0
  6
CONTINUOUS
 62
             7
100
AcDbLine
 10
23237.96809949381
 20
32272.727126758
 11
23237.96809949381
 21
32275.62712675799
  0
LINE
  5
46
100
AcDbEntity
  8
LC-001-002-----0
  6
CONTINUOUS
 62
             7
100
AcDbLine
 10
23237.96809949381
 20
32277.727126758
 11
23237.96809949381
 21
32279.827126758009
  0
LINE
  5
45
100
AcDbEntity
  8
LC-001-002-----0
  6
CONTINUOUS
 62
             7
100
AcDbLine
 10
23237.96809949381
 20
32275.62712675799
 11
23237.96809949381
 21
32277.727126758
  0
LINE
  5
44
100
AcDbEntity
  8
1
  6
PHANTOM
 62
             2
100
AcDbLine
 10
23241.174590009181
 20
32277.727126758
 11
23224.33861317618
 21
32277.727126758
  0
ENDBLK
  5
5C
100
AcDbEntity
  8
0
100
AcDbBlockEnd
  0
BLOCK
  5
2A
100
AcDbEntity
  8
0
100
AcDbBlockBegin
  2
SCHNEIDSCHRAUBE_3_9X13__2
 70
             0
 10
23214.202611763911
 20
32889.727126758044
 30
0.0
  3
SCHNEIDSCHRAUBE_3_9X13__2
  1

  0
ARC
  5
74
100
AcDbEntity
  8
LC-001-002-----0
  6
CONTINUOUS
 62
             7
100
AcDbCircle
 10
23229.20812849381
 20
32332.943848758041
 40
5.322136999996
100
AcDbArc
 50
-142.81402399995227
 51
-92.58492199998889
  0
ARC
  5
73
100
AcDbEntity
  8
LC-001-002-----0
  6
CONTINUOUS
 62
             7
100
AcDbCircle
 10
23229.20812849381
 20
32326.51040575805
 40
5.32213699999151
100
AcDbArc
 50
92.58492199999419
 51
142.81402400004589
  0
ARC
  5
72
100
AcDbEntity
  8
LC-002-002-RND-0
  6
CONTINUOUS
 62
             7
100
AcDbCircle
 10
23238.96809949381
 20
32334.72712675804
 40
0.5
100
AcDbArc
 50
0.0
 51
90.0
  0
ARC
  5
71
100
AcDbEntity
  8
LC-002-002-RND-0
  6
CONTINUOUS
 62
             7
100
AcDbCircle
 10
23238.46809949381
 20
32334.72712675804
 40
0.5
100
AcDbArc
 50
90.0
 51
180.0
  0
ARC
  5
70
100
AcDbEntity
  8
LC-001-002-----0
  6
CONTINUOUS
 62
             7
100
AcDbCircle
 10
23229.84309949381
 20
32329.72712675804
 40
10.62499999999409
100
AcDbArc
 50
-25.05761499996363
 51
25.05761499999917
  0
ARC
  5
6F
100
AcDbEntity
  8
LC-002-002-RND-0
  6
CONTINUOUS
 62
             7
100
AcDbCircle
 10
23238.46809949381
 20
32324.72712675804
 40
0.5
100
AcDbArc
 50
180.0
 51
-90.0
  0
ARC
  5
6E
100
AcDbEntity
  8
LC-002-002-RND-0
  6
CONTINUOUS
 62
             7
100
AcDbCircle
 10
23238.96809949381
 20
32324.72712675804
 40
0.5
100
AcDbArc
 50
-90.0
 51
0.0
  0
LINE
  5
6D
100
AcDbEntity
  8
1
  6
PHANTOM
 62
             2
100
AcDbLine
 10
23224.33861317618
 20
32329.72712675804
 11
23241.174590009181
 21
32329.72712675804
  0
LINE
  5
6C
100
AcDbEntity
  8
LC-001-002-----0
  6
CONTINUOUS
 62
             7
100
AcDbLine
 10
23237.96809949381
 20
32329.72712675804
 11
23237.96809949381
 21
32331.827126758049
  0
LINE
  5
6B
100
AcDbEntity
  8
LC-001-002-----0
  6
CONTINUOUS
 62
             7
100
AcDbLine
 10
23237.96809949381
 20
32327.627126758041
 11
23237.96809949381
 21
32329.72712675804
  0
LINE
  5
6A
100
AcDbEntity
  8
LC-001-002-----0
  6
CONTINUOUS
 62
             7
100
AcDbLine
 10
23237.96809949381
 20
32331.827126758049
 11
23237.96809949381
 21
32334.72712675804
  0
LINE
  5
69
100
AcDbEntity
  8
LC-001-002-----0
  6
CONTINUOUS
 62
             7
100
AcDbLine
 10
23236.96809949381
 20
32327.627126758041
 11
23237.96809949381
 21
32329.72712675804
  0
LINE
  5
68
100
AcDbEntity
  8
LC-001-002-----0
  6
CONTINUOUS
 62
             7
100
AcDbLine
 10
23234.96809949381
 20
32327.627126758041
 11
23236.96809949381
 21
32331.827126758049
  0
LINE
  5
67
100
AcDbEntity
  8
LC-001-002-----0
  6
CONTINUOUS
 62
             7
100
AcDbLine
 10
23225.62565149381
 20
32329.00798775805
 11
23226.661787493809
 21
32331.18387275804
  0
LINE
  5
66
100
AcDbEntity
  8
LC-001-002-----0
  6
CONTINUOUS
 62
             7
100
AcDbLine
 10
23227.160583493809
 20
32328.031343758041
 11
23228.96809949381
 21
32331.827126758049
  0
LINE
  5
65
100
AcDbEntity
  8
LC-001-002-----0
  6
CONTINUOUS
 62
             7
100
AcDbLine
 10
23228.96809949381
 20
32327.627126758041
 11
23230.96809949381
 21
32331.827126758049
  0
LINE
  5
64
100
AcDbEntity
  8
LC-001-002-----0
  6
CONTINUOUS
 62
             7
100
AcDbLine
 10
23232.96809949381
 20
32327.627126758041
 11
23234.96809949381
 21
32331.827126758049
  0
LINE
  5
63
100
AcDbEntity
  8
LC-001-002-----0
  6
CONTINUOUS
 62
             7
100
AcDbLine
 10
23230.96809949381
 20
32327.627126758041
 11
23232.96809949381
 21
32331.827126758049
  0
LINE
  5
62
100
AcDbEntity
  8
LC-001-002-----0
  6
CONTINUOUS
 62
             7
100
AcDbLine
 10
23228.96809949381
 20
32327.627126758041
 11
23237.96809949381
 21
32327.627126758041
  0
LINE
  5
61
100
AcDbEntity
  8
LC-001-002-----0
  6
CONTINUOUS
 62
             7
100
AcDbLine
 10
23228.96809949381
 20
32331.827126758049
 11
23237.96809949381
 21
32331.827126758049
  0
LINE
  5
60
100
AcDbEntity
  8
LC-001-002-----0
  6
CONTINUOUS
 62
             7
100
AcDbLine
 10
23237.96809949381
 20
32324.72712675804
 11
23237.96809949381
 21
32327.627126758041
  0
LINE
  5
5F
100
AcDbEntity
  8
LC-001-002-----0
  6
CONTINUOUS
 62
             7
100
AcDbLine
 10
23238.46809949381
 20
32324.22712675804
 11
23238.96809949381
 21
32324.22712675804
  0
LINE
  5
5E
100
AcDbEntity
  8
LC-001-002-----0
  6
CONTINUOUS
 62
             7
100
AcDbLine
 10
23238.46809949381
 20
32335.22712675804
 11
23238.96809949381
 21
32335.22712675804
  0
LINE
  5
5D
100
AcDbEntity
  8
LC-001-002-----0
  6
CONTINUOUS
 62
             7
100
AcDbLine
 10
23239.46809949381
 20
32324.72712675804
 11
23239.46809949381
 21
32334.72712675804
  0
ENDBLK
  5
75
100
AcDbEntity
  8
0
100
AcDbBlockEnd
  0
BLOCK
  5
2C
100
AcDbEntity
  8
0
100
AcDbBlockBegin
  2
SCHNEIDSCHRAUBE_3_9X32__3
 70
             0
 10
23055.934385128941
 20
32071.409424623449
 30
0.0
  3
SCHNEIDSCHRAUBE_3_9X32__3
  1

  0
ARC
  5
99
100
AcDbEntity
  8
LC-001-002-----0
  6
CONTINUOUS
 62
             7
100
AcDbCircle
 10
23028.568970339431
 20
32182.692702623459
 40
5.32213700000209
100
AcDbArc
 50
92.58492199991063
 51
142.81402400011689
  0
ARC
  5
98
100
AcDbEntity
  8
LC-001-002-----0
  6
CONTINUOUS
 62
             7
100
AcDbCircle
 10
23028.568970339431
 20
32189.12614662345
 40
5.3221370000047
100
AcDbArc
 50
-142.8140240000233
 51
-92.58492199991947
  0
ARC
  5
97
100
AcDbEntity
  8
LC-002-002-RND-0
  6
CONTINUOUS
 62
             7
100
AcDbCircle
 10
23057.32894133943
 20
32180.909424623449
 40
0.5
100
AcDbArc
 50
-90.0
 51
0.0
  0
ARC
  5
96
100
AcDbEntity
  8
LC-002-002-RND-0
  6
CONTINUOUS
 62
             7
100
AcDbCircle
 10
23056.82894133943
 20
32180.909424623449
 40
0.5
100
AcDbArc
 50
180.0
 51
-90.0
  0
ARC
  5
95
100
AcDbEntity
  8
LC-001-002-----0
  6
CONTINUOUS
 62
             7
100
AcDbCircle
 10
23048.20394133943
 20
32185.909424623449
 40
10.62500000000377
100
AcDbArc
 50
-25.05761499998256
 51
25.05761500000033
  0
ARC
  5
94
100
AcDbEntity
  8
LC-002-002-RND-0
  6
CONTINUOUS
 62
             7
100
AcDbCircle
 10
23056.82894133943
 20
32190.909424623449
 40
0.5
100
AcDbArc
 50
90.0
 51
180.0
  0
ARC
  5
93
100
AcDbEntity
  8
LC-002-002-RND-0
  6
CONTINUOUS
 62
             7
100
AcDbCircle
 10
23057.32894133943
 20
32190.909424623449
 40
0.5
100
AcDbArc
 50
0.0
 51
90.0
  0
LINE
  5
92
100
AcDbEntity
  8
LC-001-002-----0
  6
CONTINUOUS
 62
             7
100
AcDbLine
 10
23056.32894133943
 20
32180.909424623449
 11
23056.32894133943
 21
32183.80942462345
  0
LINE
  5
91
100
AcDbEntity
  8
LC-001-002-----0
  6
CONTINUOUS
 62
             7
100
AcDbLine
 10
23056.32894133943
 20
32183.80942462345
 11
23056.32894133943
 21
32188.009424623451
  0
LINE
  5
90
100
AcDbEntity
  8
LC-001-002-----0
  6
CONTINUOUS
 62
             7
100
AcDbLine
 10
23056.32894133943
 20
32183.80942462345
 11
23054.32894133943
 21
32188.009424623451
  0
LINE
  5
8F
100
AcDbEntity
  8
LC-001-002-----0
  6
CONTINUOUS
 62
             7
100
AcDbLine
 10
23042.32894133943
 20
32183.80942462345
 11
23041.32894133943
 21
32185.909424623449
  0
LINE
  5
8E
100
AcDbEntity
  8
LC-001-002-----0
  6
CONTINUOUS
 62
             7
100
AcDbLine
 10
23056.32894133943
 20
32183.80942462345
 11
23033.32894133943
 21
32183.80942462345
  0
LINE
  5
8D
100
AcDbEntity
  8
LC-001-002-----0
  6
CONTINUOUS
 62
             7
100
AcDbLine
 10
23056.32894133943
 20
32188.009424623451
 11
23033.32894133943
 21
32188.009424623451
  0
LINE
  5
8C
100
AcDbEntity
  8
LC-001-002-----0
  6
CONTINUOUS
 62
             7
100
AcDbLine
 10
23034.32894133943
 20
32183.80942462345
 11
23033.32894133943
 21
32185.909424623449
  0
LINE
  5
8B
100
AcDbEntity
  8
LC-001-002-----0
  6
CONTINUOUS
 62
             7
100
AcDbLine
 10
23032.32894133943
 20
32183.80942462345
 11
23030.32894133943
 21
32188.009424623451
  0
LINE
  5
8A
100
AcDbEntity
  8
LC-001-002-----0
  6
CONTINUOUS
 62
             7
100
AcDbLine
 10
23033.32894133943
 20
32185.909424623449
 11
23032.32894133943
 21
32188.009424623451
  0
LINE
  5
89
100
AcDbEntity
  8
LC-001-002-----0
  6
CONTINUOUS
 62
             7
100
AcDbLine
 10
23036.32894133943
 20
32183.80942462345
 11
23034.32894133943
 21
32188.009424623451
  0
LINE
  5
88
100
AcDbEntity
  8
LC-001-002-----0
  6
CONTINUOUS
 62
             7
100
AcDbLine
 10
23038.32894133943
 20
32183.80942462345
 11
23036.32894133943
 21
32188.009424623451
  0
LINE
  5
87
100
AcDbEntity
  8
LC-001-002-----0
  6
CONTINUOUS
 62
             7
100
AcDbLine
 10
23040.32894133943
 20
32183.80942462345
 11
23038.32894133943
 21
32188.009424623451
  0
LINE
  5
86
100
AcDbEntity
  8
LC-001-002-----0
  6
CONTINUOUS
 62
             7
100
AcDbLine
 10
23041.32894133943
 20
32185.909424623449
 11
23040.32894133943
 21
32188.009424623451
  0
LINE
  5
85
100
AcDbEntity
  8
LC-001-002-----0
  6
CONTINUOUS
 62
             7
100
AcDbLine
 10
23044.32894133943
 20
32183.80942462345
 11
23042.32894133943
 21
32188.009424623451
  0
LINE
  5
84
100
AcDbEntity
  8
LC-001-002-----0
  6
CONTINUOUS
 62
             7
100
AcDbLine
 10
23046.32894133943
 20
32183.80942462345
 11
23044.32894133943
 21
32188.009424623451
  0
LINE
  5
83
100
AcDbEntity
  8
LC-001-002-----0
  6
CONTINUOUS
 62
             7
100
AcDbLine
 10
23048.32894133943
 20
32183.80942462345
 11
23046.32894133943
 21
32188.009424623451
  0
LINE
  5
82
100
AcDbEntity
  8
LC-001-002-----0
  6
CONTINUOUS
 62
             7
100
AcDbLine
 10
23050.32894133943
 20
32183.80942462345
 11
23048.32894133943
 21
32188.009424623451
  0
LINE
  5
81
100
AcDbEntity
  8
LC-001-002-----0
  6
CONTINUOUS
 62
             7
100
AcDbLine
 10
23026.02262933943
 20
32184.45267962345
 11
23024.986493339438
 21
32186.62856462345
  0
LINE
  5
80
100
AcDbEntity
  8
LC-001-002-----0
  6
CONTINUOUS
 62
             7
100
AcDbLine
 10
23028.32894133943
 20
32183.80942462345
 11
23026.52142533943
 21
32187.605207623459
  0
LINE
  5
7F
100
AcDbEntity
  8
LC-001-002-----0
  6
CONTINUOUS
 62
             7
100
AcDbLine
 10
23030.32894133943
 20
32183.80942462345
 11
23028.32894133943
 21
32188.009424623451
  0
LINE
  5
7E
100
AcDbEntity
  8
LC-001-002-----0
  6
CONTINUOUS
 62
             7
100
AcDbLine
 10
23054.32894133943
 20
32183.80942462345
 11
23052.32894133943
 21
32188.009424623451
  0
LINE
  5
7D
100
AcDbEntity
  8
LC-001-002-----0
  6
CONTINUOUS
 62
             7
100
AcDbLine
 10
23052.32894133943
 20
32183.80942462345
 11
23050.32894133943
 21
32188.009424623451
  0
LINE
  5
7C
100
AcDbEntity
  8
LC-001-002-----0
  6
CONTINUOUS
 62
             7
100
AcDbLine
 10
23033.32894133943
 20
32188.009424623451
 11
23028.32894133943
 21
32188.009424623451
  0
LINE
  5
7B
100
AcDbEntity
  8
LC-001-002-----0
  6
CONTINUOUS
 62
             7
100
AcDbLine
 10
23033.32894133943
 20
32183.80942462345
 11
23028.32894133943
 21
32183.80942462345
  0
LINE
  5
7A
100
AcDbEntity
  8
LC-001-002-----0
  6
CONTINUOUS
 62
             7
100
AcDbLine
 10
23056.32894133943
 20
32188.009424623451
 11
23056.32894133943
 21
32190.909424623449
  0
LINE
  5
79
100
AcDbEntity
  8
LC-001-002-----0
  6
CONTINUOUS
 62
             7
100
AcDbLine
 10
23057.32894133943
 20
32191.409424623449
 11
23056.82894133943
 21
32191.409424623449
  0
LINE
  5
78
100
AcDbEntity
  8
LC-001-002-----0
  6
CONTINUOUS
 62
             7
100
AcDbLine
 10
23057.32894133943
 20
32180.409424623449
 11
23056.82894133943
 21
32180.409424623449
  0
LINE
  5
77
100
AcDbEntity
  8
LC-001-002-----0
  6
CONTINUOUS
 62
             7
100
AcDbLine
 10
23057.82894133943
 20
32180.909424623449
 11
23057.82894133943
 21
32190.909424623449
  0
LINE
  5
76
100
AcDbEntity
  8
1
  6
PHANTOM
 62
             2
100
AcDbLine
 10
23059.711143483499
 20
32185.909424623449
 11
23023.68464929871
 21
32185.909424623449
  0
ENDBLK
  5
9A
100
AcDbEntity
  8
0
100
AcDbBlockEnd
  0
BLOCK
  5
2E
100
AcDbEntity
  8
0
100
AcDbBlockBegin
  2
SCHNEIDSCHRAUBE_3_9X13__4
 70
             0
 10
23235.063453609531
 20
32863.727126758022
 30
0.0
  3
SCHNEIDSCHRAUBE_3_9X13__4
  1

  0
ARC
  5
B2
100
AcDbEntity
  8
LC-002-002-RND-0
  6
CONTINUOUS
 62
             7
100
AcDbCircle
 10
23259.82894133943
 20
32298.727126758022
 40
0.5
100
AcDbArc
 50
-90.0
 51
0.0
  0
ARC
  5
B1
100
AcDbEntity
  8
LC-002-002-RND-0
  6
CONTINUOUS
 62
             7
100
AcDbCircle
 10
23259.32894133943
 20
32298.727126758022
 40
0.5
100
AcDbArc
 50
180.0
 51
-90.0
  0
ARC
  5
B0
100
AcDbEntity
  8
LC-001-002-----0
  6
CONTINUOUS
 62
             7
100
AcDbCircle
 10
23250.70394133943
 20
32303.727126758022
 40
10.62499999999872
100
AcDbArc
 50
-25.05761500001694
 51
25.05761499999917
  0
ARC
  5
AF
100
AcDbEntity
  8
LC-002-002-RND-0
  6
CONTINUOUS
 62
             7
100
AcDbCircle
 10
23259.32894133943
 20
32308.727126758022
 40
0.5
100
AcDbArc
 50
90.0
 51
180.0
  0
ARC
  5
AE
100
AcDbEntity
  8
LC-002-002-RND-0
  6
CONTINUOUS
 62
             7
100
AcDbCircle
 10
23259.82894133943
 20
32308.727126758022
 40
0.5
100
AcDbArc
 50
0.0
 51
90.0
  0
ARC
  5
AD
100
AcDbEntity
  8
LC-001-002-----0
  6
CONTINUOUS
 62
             7
100
AcDbCircle
 10
23250.068970339431
 20
32300.510405758028
 40
5.32213699999515
100
AcDbArc
 50
92.58492199999243
 51
142.81402400001468
  0
ARC
  5
AC
100
AcDbEntity
  8
LC-001-002-----0
  6
CONTINUOUS
 62
             7
100
AcDbCircle
 10
23250.068970339431
 20
32306.943848758019
 40
5.322136999996
100
AcDbArc
 50
-142.81402399995227
 51
-92.58492199998889
  0
LINE
  5
AB
100
AcDbEntity
  8
LC-001-002-----0
  6
CONTINUOUS
 62
             7
100
AcDbLine
 10
23260.32894133943
 20
32298.727126758022
 11
23260.32894133943
 21
32308.727126758022
  0
LINE
  5
AA
100
AcDbEntity
  8
LC-001-002-----0
  6
CONTINUOUS
 62
             7
100
AcDbLine
 10
23259.32894133943
 20
32309.227126758022
 11
23259.82894133943
 21
32309.227126758022
  0
LINE
  5
A9
100
AcDbEntity
  8
LC-001-002-----0
  6
CONTINUOUS
 62
             7
100
AcDbLine
 10
23259.32894133943
 20
32298.227126758022
 11
23259.82894133943
 21
32298.227126758022
  0
LINE
  5
A8
100
AcDbEntity
  8
LC-001-002-----0
  6
CONTINUOUS
 62
             7
100
AcDbLine
 10
23258.82894133943
 20
32298.727126758022
 11
23258.82894133943
 21
32301.62712675802
  0
LINE
  5
A7
100
AcDbEntity
  8
LC-001-002-----0
  6
CONTINUOUS
 62
             7
100
AcDbLine
 10
23249.82894133943
 20
32305.827126758031
 11
23258.82894133943
 21
32305.827126758031
  0
LINE
  5
A6
100
AcDbEntity
  8
LC-001-002-----0
  6
CONTINUOUS
 62
             7
100
AcDbLine
 10
23249.82894133943
 20
32301.62712675802
 11
23258.82894133943
 21
32301.62712675802
  0
LINE
  5
A5
100
AcDbEntity
  8
LC-001-002-----0
  6
CONTINUOUS
 62
             7
100
AcDbLine
 10
23251.82894133943
 20
32301.62712675802
 11
23253.82894133943
 21
32305.827126758031
  0
LINE
  5
A4
100
AcDbEntity
  8
LC-001-002-----0
  6
CONTINUOUS
 62
             7
100
AcDbLine
 10
23253.82894133943
 20
32301.62712675802
 11
23255.82894133943
 21
32305.827126758031
  0
LINE
  5
A3
100
AcDbEntity
  8
LC-001-002-----0
  6
CONTINUOUS
 62
             7
100
AcDbLine
 10
23249.82894133943
 20
32301.62712675802
 11
23251.82894133943
 21
32305.827126758031
  0
LINE
  5
A2
100
AcDbEntity
  8
LC-001-002-----0
  6
CONTINUOUS
 62
             7
100
AcDbLine
 10
23248.02142533943
 20
32302.031343758019
 11
23249.82894133943
 21
32305.827126758031
  0
LINE
  5
A1
100
AcDbEntity
  8
LC-001-002-----0
  6
CONTINUOUS
 62
             7
100
AcDbLine
 10
23246.486493339431
 20
32303.007987758028
 11
23247.52262933943
 21
32305.183872758022
  0
LINE
  5
A0
100
AcDbEntity
  8
LC-001-002-----0
  6
CONTINUOUS
 62
             7
100
AcDbLine
 10
23255.82894133943
 20
32301.62712675802
 11
23257.82894133943
 21
32305.827126758031
  0
LINE
  5
9F
100
AcDbEntity
  8
LC-001-002-----0
  6
CONTINUOUS
 62
             7
100
AcDbLine
 10
23257.82894133943
 20
32301.62712675802
 11
23258.82894133943
 21
32303.727126758022
  0
LINE
  5
9E
100
AcDbEntity
  8
LC-001-002-----0
  6
CONTINUOUS
 62
             7
100
AcDbLine
 10
23258.82894133943
 20
32305.827126758031
 11
23258.82894133943
 21
32308.727126758022
  0
LINE
  5
9D
100
AcDbEntity
  8
LC-001-002-----0
  6
CONTINUOUS
 62
             7
100
AcDbLine
 10
23258.82894133943
 20
32301.62712675802
 11
23258.82894133943
 21
32303.727126758022
  0
LINE
  5
9C
100
AcDbEntity
  8
LC-001-002-----0
  6
CONTINUOUS
 62
             7
100
AcDbLine
 10
23258.82894133943
 20
32303.727126758022
 11
23258.82894133943
 21
32305.827126758031
  0
LINE
  5
9B
100
AcDbEntity
  8
1
  6
PHANTOM
 62
             2
100
AcDbLine
 10
23245.199455021801
 20
32303.727126758022
 11
23262.035431854802
 21
32303.727126758022
  0
ENDBLK
  5
B3
100
AcDbEntity
  8
0
100
AcDbBlockEnd
  0
BLOCK
  5
30
100
AcDbEntity
  8
0
100
AcDbBlockBegin
  2
SCHALLSCHUTZ
 70
             0
 10
23245.295255866458
 20
32866.344382893047
 30
0.0
  3
SCHALLSCHUTZ
  1

  0
ARC
  5
DD
100
AcDbEntity
  8
1
  6
CONTINUOUS
 62
             7
100
AcDbCircle
 10
23200.46809949381
 20
32285.844382893061
 40
7.0
100
AcDbArc
 50
180.0
 51
-90.0
  0
ARC
  5
DC
100
AcDbEntity
  8
1
  6
CONTINUOUS
 62
             7
100
AcDbCircle
 10
23201.46809949381
 20
32285.844382893061
 40
7.0
100
AcDbArc
 50
-90.0
 51
0.0
  0
ARC
  5
DB
100
AcDbEntity
  8
1
  6
CONTINUOUS
 62
             7
100
AcDbCircle
 10
23200.46809949381
 20
32326.844382893061
 40
7.0
100
AcDbArc
 50
90.0
 51
180.0
  0
ARC
  5
DA
100
AcDbEntity
  8
1
  6
CONTINUOUS
 62
             7
100
AcDbCircle
 10
23201.46809949381
 20
32326.844382893061
 40
7.0
100
AcDbArc
 50
0.0
 51
90.0
  0
ARC
  5
D9
100
AcDbEntity
  8
1
  6
CONTINUOUS
 62
             7
100
AcDbCircle
 10
23221.46809949381
 20
32305.84438289305
 40
7.0
100
AcDbArc
 50
-90.0
 51
0.0
  0
ARC
  5
D8
100
AcDbEntity
  8
1
  6
CONTINUOUS
 62
             7
100
AcDbCircle
 10
23221.46809949381
 20
32306.844382893061
 40
7.0
100
AcDbArc
 50
0.0
 51
90.0
  0
CIRCLE
  5
D7
100
AcDbEntity
  8
1
  6
CONTINUOUS
 62
             7
100
AcDbCircle
 10
23200.96809949381
 20
32286.344382893061
 40
2.0
  0
CIRCLE
  5
D6
100
AcDbEntity
  8
1
  6
CONTINUOUS
 62
             7
100
AcDbCircle
 10
23200.96809949381
 20
32326.344382893061
 40
2.0
  0
CIRCLE
  5
D5
100
AcDbEntity
  8
1
  6
CONTINUOUS
 62
             7
100
AcDbCircle
 10
23220.96809949381
 20
32306.344382893061
 40
2.0
  0
CIRCLE
  5
D4
100
AcDbEntity
  8
1
  6
CONTINUOUS
 62
             7
100
AcDbCircle
 10
23227.96809949381
 20
32286.344382893061
 40
5.50000000000155
  0
CIRCLE
  5
D3
100
AcDbEntity
  8
1
  6
CONTINUOUS
 62
             7
100
AcDbCircle
 10
23227.96809949381
 20
32286.344382893061
 40
2.0
  0
CIRCLE
  5
D2
100
AcDbEntity
  8
1
  6
CONTINUOUS
 62
             7
100
AcDbCircle
 10
23227.96809949381
 20
32326.344382893061
 40
2.0
  0
CIRCLE
  5
D1
100
AcDbEntity
  8
1
  6
CONTINUOUS
 62
             7
100
AcDbCircle
 10
23227.96809949381
 20
32326.344382893061
 40
5.50000000000155
  0
CIRCLE
  5
D0
100
AcDbEntity
  8
1
  6
CONTINUOUS
 62
             7
100
AcDbCircle
 10
23247.96809949381
 20
32306.344382893061
 40
2.0
  0
CIRCLE
  5
CF
100
AcDbEntity
  8
1
  6
CONTINUOUS
 62
             7
100
AcDbCircle
 10
23247.96809949381
 20
32306.344382893061
 40
5.50000000000155
  0
LINE
  5
CE
100
AcDbEntity
  8
1
  6
CONTINUOUS
 62
             7
100
AcDbLine
 10
23201.46809949381
 20
32333.844382893061
 11
23200.46809949381
 21
32333.844382893061
  0
LINE
  5
CD
100
AcDbEntity
  8
1
  6
CONTINUOUS
 62
             7
100
AcDbLine
 10
23193.46809949381
 20
32326.844382893061
 11
23193.46809949381
 21
32285.844382893061
  0
LINE
  5
CC
100
AcDbEntity
  8
1
  6
CONTINUOUS
 62
             7
100
AcDbLine
 10
23200.46809949381
 20
32278.844382893061
 11
23201.46809949381
 21
32278.844382893061
  0
LINE
  5
CB
100
AcDbEntity
  8
1
  6
CONTINUOUS
 62
             7
100
AcDbLine
 10
23208.46809949381
 20
32298.844382893061
 11
23221.46809949381
 21
32298.84438289305
  0
LINE
  5
CA
100
AcDbEntity
  8
1
  6
CONTINUOUS
 62
             7
100
AcDbLine
 10
23228.46809949381
 20
32305.84438289305
 11
23228.46809949381
 21
32306.844382893061
  0
LINE
  5
C9
100
AcDbEntity
  8
1
  6
CONTINUOUS
 62
             7
100
AcDbLine
 10
23221.46809949381
 20
32313.844382893061
 11
23208.46809949381
 21
32313.84438289305
  0
LINE
  5
C8
100
AcDbEntity
  8
1
  6
CONTINUOUS
 62
             7
100
AcDbLine
 10
23208.46809949381
 20
32313.84438289305
 11
23208.46809949381
 21
32326.844382893061
  0
LINE
  5
C7
100
AcDbEntity
  8
1
  6
CONTINUOUS
 62
             7
100
AcDbLine
 10
23208.46809949381
 20
32285.844382893061
 11
23208.46809949381
 21
32287.844382893061
  0
LINE
  5
C6
100
AcDbEntity
  8
1
  6
PHANTOM
 62
             2
100
AcDbLine
 10
23200.96809949381
 20
32288.544382893058
 11
23200.96809949381
 21
32284.144382893061
  0
LINE
  5
C5
100
AcDbEntity
  8
1
  6
PHANTOM
 62
             2
100
AcDbLine
 10
23198.768099493809
 20
32286.344382893061
 11
23203.168099493811
 21
32286.344382893061
  0
LINE
  5
C4
100
AcDbEntity
  8
1
  6
PHANTOM
 62
             2
100
AcDbLine
 10
23200.96809949381
 20
32328.544382893058
 11
23200.96809949381
 21
32324.144382893061
  0
LINE
  5
C3
100
AcDbEntity
  8
1
  6
PHANTOM
 62
             2
100
AcDbLine
 10
23203.168099493811
 20
32326.344382893061
 11
23198.768099493809
 21
32326.344382893061
  0
LINE
  5
C2
100
AcDbEntity
  8
1
  6
PHANTOM
 62
             2
100
AcDbLine
 10
23220.96809949381
 20
32308.544382893058
 11
23220.96809949381
 21
32304.144382893061
  0
LINE
  5
C1
100
AcDbEntity
  8
1
  6
PHANTOM
 62
             2
100
AcDbLine
 10
23218.768099493809
 20
32306.344382893061
 11
23223.168099493811
 21
32306.344382893061
  0
LINE
  5
C0
100
AcDbEntity
  8
1
  6
CONTINUOUS
 62
             7
100
AcDbLine
 10
23208.46809949381
 20
32287.844382893061
 11
23222.676596871679
 21
32287.844382893061
  0
LINE
  5
BF
100
AcDbEntity
  8
1
  6
CONTINUOUS
 62
             7
100
AcDbLine
 10
23208.46809949381
 20
32287.844382893061
 11
23208.46809949381
 21
32298.844382893061
  0
LINE
  5
BE
100
AcDbEntity
  8
1
  6
PHANTOM
 62
             2
100
AcDbLine
 10
23227.96809949381
 20
32292.394382893061
 11
23227.96809949381
 21
32280.294382893058
  0
LINE
  5
BD
100
AcDbEntity
  8
1
  6
PHANTOM
 62
             2
100
AcDbLine
 10
23221.918099493811
 20
32286.344382893061
 11
23234.018099493809
 21
32286.344382893061
  0
LINE
  5
BC
100
AcDbEntity
  8
1
  6
CONTINUOUS
 62
             7
100
AcDbLine
 10
23222.676596871679
 20
32284.844382893061
 11
23208.46809949381
 21
32284.844382893061
  0
LINE
  5
BB
100
AcDbEntity
  8
1
  6
PHANTOM
 62
             2
100
AcDbLine
 10
23227.96809949381
 20
32332.394382893061
 11
23227.96809949381
 21
32320.294382893058
  0
LINE
  5
BA
100
AcDbEntity
  8
1
  6
PHANTOM
 62
             2
100
AcDbLine
 10
23234.018099493809
 20
32326.344382893061
 11
23221.918099493811
 21
32326.344382893061
  0
LINE
  5
B9
100
AcDbEntity
  8
1
  6
CONTINUOUS
 62
             7
100
AcDbLine
 10
23222.676596871679
 20
32324.844382893061
 11
23208.46809949381
 21
32324.844382893061
  0
LINE
  5
B8
100
AcDbEntity
  8
1
  6
CONTINUOUS
 62
             7
100
AcDbLine
 10
23208.46809949381
 20
32327.844382893061
 11
23222.676596871679
 21
32327.844382893061
  0
LINE
  5
B7
100
AcDbEntity
  8
1
  6
PHANTOM
 62
             2
100
AcDbLine
 10
23247.96809949381
 20
32312.394382893061
 11
23247.96809949381
 21
32300.294382893058
  0
LINE
  5
B6
100
AcDbEntity
  8
1
  6
PHANTOM
 62
             2
100
AcDbLine
 10
23241.918099493811
 20
32306.344382893061
 11
23254.018099493809
 21
32306.344382893061
  0
LINE
  5
B5
100
AcDbEntity
  8
1
  6
CONTINUOUS
 62
             7
100
AcDbLine
 10
23242.676596871679
 20
32304.844382893061
 11
23228.46809949381
 21
32304.844382893061
  0
LINE
  5
B4
100
AcDbEntity
  8
1
  6
CONTINUOUS
 62
             7
100
AcDbLine
 10
23228.46809949381
 20
32307.844382893061
 11
23242.676596871679
 21
32307.844382893061
  0
ENDBLK
  5
DE
100
AcDbEntity
  8
0
100
AcDbBlockEnd
  0
BLOCK
  5
32
100
AcDbEntity
  8
0
100
AcDbBlockBegin
  2
SCHNEIDSCHRAUBE_3_9X32__5
 70
             0
 10
23055.934385128941
 20
32271.26703016903
 30
0.0
  3
SCHNEIDSCHRAUBE_3_9X32__5
  1

  0
ARC
  5
102
100
AcDbEntity
  8
LC-002-002-RND-0
  6
CONTINUOUS
 62
             7
100
AcDbCircle
 10
23057.32894133943
 20
32151.76703016903
 40
0.5
100
AcDbArc
 50
-90.0
 51
0.0
  0
ARC
  5
101
100
AcDbEntity
  8
LC-002-002-RND-0
  6
CONTINUOUS
 62
             7
100
AcDbCircle
 10
23056.82894133943
 20
32151.76703016903
 40
0.5
100
AcDbArc
 50
180.0
 51
-90.0
  0
ARC
  5
100
100
AcDbEntity
  8
LC-001-002-----0
  6
CONTINUOUS
 62
             7
100
AcDbCircle
 10
23048.20394133943
 20
32156.76703016903
 40
10.62500000000377
100
AcDbArc
 50
-25.05761499998256
 51
25.05761499998256
  0
ARC
  5
FF
100
AcDbEntity
  8
LC-002-002-RND-0
  6
CONTINUOUS
 62
             7
100
AcDbCircle
 10
23056.82894133943
 20
32161.76703016903
 40
0.5
100
AcDbArc
 50
90.0
 51
180.0
  0
ARC
  5
FE
100
AcDbEntity
  8
LC-002-002-RND-0
  6
CONTINUOUS
 62
             7
100
AcDbCircle
 10
23057.32894133943
 20
32161.76703016903
 40
0.5
100
AcDbArc
 50
0.0
 51
90.0
  0
ARC
  5
FD
100
AcDbEntity
  8
LC-001-002-----0
  6
CONTINUOUS
 62
             7
100
AcDbCircle
 10
23028.568970339431
 20
32153.550308169029
 40
5.32213699999482
100
AcDbArc
 50
92.58492199991417
 51
142.81402399992967
  0
ARC
  5
FC
100
AcDbEntity
  8
LC-001-002-----0
  6
CONTINUOUS
 62
             7
100
AcDbCircle
 10
23028.568970339431
 20
32159.983752169032
 40
5.3221370000047
100
AcDbArc
 50
-142.8140240000233
 51
-92.58492199990887
  0
LINE
  5
FB
100
AcDbEntity
  8
1
  6
PHANTOM
 62
             2
100
AcDbLine
 10
23023.68464929871
 20
32156.76703016903
 11
23059.523396100401
 21
32156.76703016903
  0
LINE
  5
FA
100
AcDbEntity
  8
LC-001-002-----0
  6
CONTINUOUS
 62
             7
100
AcDbLine
 10
23057.82894133943
 20
32151.76703016903
 11
23057.82894133943
 21
32161.76703016903
  0
LINE
  5
F9
100
AcDbEntity
  8
LC-001-002-----0
  6
CONTINUOUS
 62
             7
100
AcDbLine
 10
23056.82894133943
 20
32162.26703016903
 11
23057.32894133943
 21
32162.26703016903
  0
LINE
  5
F8
100
AcDbEntity
  8
LC-001-002-----0
  6
CONTINUOUS
 62
             7
100
AcDbLine
 10
23056.82894133943
 20
32151.26703016903
 11
23057.32894133943
 21
32151.26703016903
  0
LINE
  5
F7
100
AcDbEntity
  8
LC-001-002-----0
  6
CONTINUOUS
 62
             7
100
AcDbLine
 10
23056.32894133943
 20
32151.76703016903
 11
23056.32894133943
 21
32154.667030169028
  0
LINE
  5
F6
100
AcDbEntity
  8
LC-001-002-----0
  6
CONTINUOUS
 62
             7
100
AcDbLine
 10
23028.32894133943
 20
32158.86703016904
 11
23033.32894133943
 21
32158.86703016904
  0
LINE
  5
F5
100
AcDbEntity
  8
LC-001-002-----0
  6
CONTINUOUS
 62
             7
100
AcDbLine
 10
23028.32894133943
 20
32154.667030169028
 11
23033.32894133943
 21
32154.667030169028
  0
LINE
  5
F4
100
AcDbEntity
  8
LC-001-002-----0
  6
CONTINUOUS
 62
             7
100
AcDbLine
 10
23050.32894133943
 20
32154.667030169028
 11
23052.32894133943
 21
32158.86703016904
  0
LINE
  5
F3
100
AcDbEntity
  8
LC-001-002-----0
  6
CONTINUOUS
 62
             7
100
AcDbLine
 10
23052.32894133943
 20
32154.667030169028
 11
23054.32894133943
 21
32158.86703016904
  0
LINE
  5
F2
100
AcDbEntity
  8
LC-001-002-----0
  6
CONTINUOUS
 62
             7
100
AcDbLine
 10
23028.32894133943
 20
32154.667030169028
 11
23030.32894133943
 21
32158.86703016904
  0
LINE
  5
F1
100
AcDbEntity
  8
LC-001-002-----0
  6
CONTINUOUS
 62
             7
100
AcDbLine
 10
23026.52142533943
 20
32155.071247169031
 11
23028.32894133943
 21
32158.86703016904
  0
LINE
  5
F0
100
AcDbEntity
  8
LC-001-002-----0
  6
CONTINUOUS
 62
             7
100
AcDbLine
 10
23024.986493339438
 20
32156.047890169029
 11
23026.02262933943
 21
32158.22377516903
  0
LINE
  5
EF
100
AcDbEntity
  8
LC-001-002-----0
  6
CONTINUOUS
 62
             7
100
AcDbLine
 10
23048.32894133943
 20
32154.667030169028
 11
23050.32894133943
 21
32158.86703016904
  0
LINE
  5
EE
100
AcDbEntity
  8
LC-001-002-----0
  6
CONTINUOUS
 62
             7
100
AcDbLine
 10
23046.32894133943
 20
32154.667030169028
 11
23048.32894133943
 21
32158.86703016904
  0
LINE
  5
ED
100
AcDbEntity
  8
LC-001-002-----0
  6
CONTINUOUS
 62
             7
100
AcDbLine
 10
23044.32894133943
 20
32154.667030169028
 11
23046.32894133943
 21
32158.86703016904
  0
LINE
  5
EC
100
AcDbEntity
  8
LC-001-002-----0
  6
CONTINUOUS
 62
             7
100
AcDbLine
 10
23042.32894133943
 20
32154.667030169028
 11
23044.32894133943
 21
32158.86703016904
  0
LINE
  5
EB
100
AcDbEntity
  8
LC-001-002-----0
  6
CONTINUOUS
 62
             7
100
AcDbLine
 10
23040.32894133943
 20
32154.667030169028
 11
23041.32894133943
 21
32156.76703016903
  0
LINE
  5
EA
100
AcDbEntity
  8
LC-001-002-----0
  6
CONTINUOUS
 62
             7
100
AcDbLine
 10
23038.32894133943
 20
32154.667030169028
 11
23040.32894133943
 21
32158.86703016904
  0
LINE
  5
E9
100
AcDbEntity
  8
LC-001-002-----0
  6
CONTINUOUS
 62
             7
100
AcDbLine
 10
23036.32894133943
 20
32154.667030169028
 11
23038.32894133943
 21
32158.86703016904
  0
LINE
  5
E8
100
AcDbEntity
  8
LC-001-002-----0
  6
CONTINUOUS
 62
             7
100
AcDbLine
 10
23034.32894133943
 20
32154.667030169028
 11
23036.32894133943
 21
32158.86703016904
  0
LINE
  5
E7
100
AcDbEntity
  8
LC-001-002-----0
  6
CONTINUOUS
 62
             7
100
AcDbLine
 10
23032.32894133943
 20
32154.667030169028
 11
23033.32894133943
 21
32156.76703016903
  0
LINE
  5
E6
100
AcDbEntity
  8
LC-001-002-----0
  6
CONTINUOUS
 62
             7
100
AcDbLine
 10
23030.32894133943
 20
32154.667030169028
 11
23032.32894133943
 21
32158.86703016904
  0
LINE
  5
E5
100
AcDbEntity
  8
LC-001-002-----0
  6
CONTINUOUS
 62
             7
100
AcDbLine
 10
23033.32894133943
 20
32156.76703016903
 11
23034.32894133943
 21
32158.86703016904
  0
LINE
  5
E4
100
AcDbEntity
  8
LC-001-002-----0
  6
CONTINUOUS
 62
             7
100
AcDbLine
 10
23033.32894133943
 20
32154.667030169028
 11
23056.32894133943
 21
32154.667030169028
  0
LINE
  5
E3
100
AcDbEntity
  8
LC-001-002-----0
  6
CONTINUOUS
 62
             7
100
AcDbLine
 10
23033.32894133943
 20
32158.86703016904
 11
23056.32894133943
 21
32158.86703016904
  0
LINE
  5
E2
100
AcDbEntity
  8
LC-001-002-----0
  6
CONTINUOUS
 62
             7
100
AcDbLine
 10
23041.32894133943
 20
32156.76703016903
 11
23042.32894133943
 21
32158.86703016904
  0
LINE
  5
E1
100
AcDbEntity
  8
LC-001-002-----0
  6
CONTINUOUS
 62
             7
100
AcDbLine
 10
23054.32894133943
 20
32154.667030169028
 11
23056.32894133943
 21
32158.86703016904
  0
LINE
  5
E0
100
AcDbEntity
  8
LC-001-002-----0
  6
CONTINUOUS
 62
             7
100
AcDbLine
 10
23056.32894133943
 20
32154.667030169028
 11
23056.32894133943
 21
32158.86703016904
  0
LINE
  5
DF
100
AcDbEntity
  8
LC-001-002-----0
  6
CONTINUOUS
 62
             7
100
AcDbLine
 10
23056.32894133943
 20
32158.86703016904
 11
23056.32894133943
 21
32161.76703016903
  0
ENDBLK
  5
103
100
AcDbEntity
  8
0
100
AcDbBlockEnd
  0
BLOCK
  5
34
100
AcDbEntity
  8
0
100
AcDbBlockBegin
  2
0405_8E
 70
             0
 10
-67.05798749034877
 20
-103.9109349507962
 30
0.0
  3
0405_8E
  1

  0
ARC
  5
10B
100
AcDbEntity
  8
1
  6
CONTINUOUS
 62
             1
100
AcDbCircle
 10
-70.05798749034875
 20
-54.9109349507962
 40
20.0
100
AcDbArc
 50
-0.00000000000006
 51
90.0
  0
ARC
  5
10A
100
AcDbEntity
  8
1
  6
CONTINUOUS
 62
             1
100
AcDbCircle
 10
-117.05798749034879
 20
-54.9109349507962
 40
20.0
100
AcDbArc
 50
90.0
 51
180.0
  0
ARC
  5
109
100
AcDbEntity
  8
1
  6
CONTINUOUS
 62
             1
100
AcDbCircle
 10
-117.05798749034879
 20
-83.9109349507962
 40
20.00000000000001
100
AcDbArc
 50
180.0
 51
-90.0
  0
ARC
  5
108
100
AcDbEntity
  8
1
  6
CONTINUOUS
 62
             1
100
AcDbCircle
 10
-70.05798749034875
 20
-83.9109349507962
 40
20.0
100
AcDbArc
 50
-90.00000000000004
 51
-0.00000000000004
  0
LINE
  5
107
100
AcDbEntity
  8
1
  6
CONTINUOUS
 62
             1
100
AcDbLine
 10
-137.05798749034881
 20
-83.9109349507962
 11
-137.05798749034881
 21
-54.9109349507962
  0
LINE
  5
106
100
AcDbEntity
  8
1
  6
CONTINUOUS
 62
             1
100
AcDbLine
 10
-117.05798749034879
 20
-34.9109349507962
 11
-70.05798749034875
 21
-34.91093495079621
  0
LINE
  5
105
100
AcDbEntity
  8
1
  6
CONTINUOUS
 62
             1
100
AcDbLine
 10
-50.05798749034875
 20
-54.91093495079622
 11
-50.05798749034875
 21
-83.91093495079622
  0
LINE
  5
104
100
AcDbEntity
  8
1
  6
CONTINUOUS
 62
             1
100
AcDbLine
 10
-70.05798749034877
 20
-103.9109349507962
 11
-117.05798749034879
 21
-103.9109349507962
  0
INSERT
  5
35
100
AcDbEntity
  8
1
100
AcDbBlockReference
  2
SCHNEIDSCHRAUBE_3_9X13__1
 10
-99.79738823608932
 20
-654.55720527048106
  0
INSERT
  5
36
100
AcDbEntity
  8
1
100
AcDbBlockReference
  2
SCHNEIDSCHRAUBE_3_9X13__2
 10
-99.79738823608932
 20
517.44279472956259
  0
INSERT
  5
37
100
AcDbEntity
  8
1
100
AcDbBlockReference
  2
SCHNEIDSCHRAUBE_3_9X32__3
 10
-55.56561487105864
 20
-168.48600804325179
  0
INSERT
  5
38
100
AcDbEntity
  8
1
100
AcDbBlockReference
  2
SCHNEIDSCHRAUBE_3_9X13__4
 10
-78.93654639046872
 20
491.44279472954076
  0
INSERT
  5
39
100
AcDbEntity
  8
1
100
AcDbBlockReference
  2
SCHALLSCHUTZ
 10
-78.70474413354168
 20
491.44279472952621
  0
INSERT
  5
3A
100
AcDbEntity
  8
1
100
AcDbBlockReference
  2
SCHNEIDSCHRAUBE_3_9X32__5
 10
-55.56561487105864
 20
31.37159750232968
  0
ENDBLK
  5
10C
100
AcDbEntity
  8
0
100
AcDbBlockEnd
  0
BLOCK
  5
3C
100
AcDbEntity
  8
0
100
AcDbBlockBegin
  2
HL_44_MONTAGEPLATTE__6
 70
             0
 10
0.0
 20
0.0
 30
0.0
  3
HL_44_MONTAGEPLATTE__6
  1

  0
TEXT
  5
2DE
100
AcDbEntity
  8
1
 62
             1
100
AcDbText
 10
90.99907250546391
 20
17.20358403487041
 40
6.0
  1
HL
 41
0.95
  7
CONVERTER_1
100
AcDbText
  0
ARC
  5
2DC
100
AcDbEntity
  8
1
  6
CONTINUOUS
 62
             7
100
AcDbCircle
 10
38.0
 20
-75.5
 40
6.0
100
AcDbArc
 50
-90.0
 51
0.00000000000014
  0
ARC
  5
2DB
100
AcDbEntity
  8
1
  6
CONTINUOUS
 62
             7
100
AcDbCircle
 10
-38.0
 20
-75.5
 40
6.0
100
AcDbArc
 50
179.99999999999986
 51
-90.0
  0
ARC
  5
2DA
100
AcDbEntity
  8
1
  6
CONTINUOUS
 62
             7
100
AcDbCircle
 10
49.0
 20
-33.49999999999999
 40
5.0
100
AcDbArc
 50
90.0
 51
180.0
  0
ARC
  5
2D9
100
AcDbEntity
  8
1
  6
CONTINUOUS
 62
             7
100
AcDbCircle
 10
-49.0
 20
-33.49999999999999
 40
5.0
100
AcDbArc
 50
0.0
 51
90.0
  0
ARC
  5
2D8
100
AcDbEntity
  8
1
  6
CONTINUOUS
 62
             7
100
AcDbCircle
 10
122.5
 20
5.50000000000001
 40
9.61769203083567
100
AcDbArc
 50
8.97262661489639
 51
98.9726266148964
  0
ARC
  5
2D7
100
AcDbEntity
  8
1
  6
CONTINUOUS
 62
             7
100
AcDbCircle
 10
124.0
 20
-6.99999999999999
 40
8.0
100
AcDbArc
 50
-90.0
 51
0.0
  0
ARC
  5
2D6
100
AcDbEntity
  8
1
  6
CONTINUOUS
 62
             7
100
AcDbCircle
 10
113.0
 20
-19.99999999999999
 40
5.0
100
AcDbArc
 50
90.0
 51
180.0
  0
ARC
  5
2D5
100
AcDbEntity
  8
1
  6
CONTINUOUS
 62
             7
100
AcDbCircle
 10
113.0
 20
20.00000000000001
 40
5.0
100
AcDbArc
 50
180.0
 51
-90.0
  0
ARC
  5
2D4
100
AcDbEntity
  8
1
  6
CONTINUOUS
 62
             7
100
AcDbCircle
 10
-113.0
 20
-19.99999999999999
 40
5.0
100
AcDbArc
 50
0.0
 51
90.0
  0
ARC
  5
2D3
100
AcDbEntity
  8
1
  6
CONTINUOUS
 62
             7
100
AcDbCircle
 10
-113.0
 20
20.00000000000001
 40
5.0
100
AcDbArc
 50
-90.0
 51
0.0
  0
ARC
  5
2D2
100
AcDbEntity
  8
1
  6
CONTINUOUS
 62
             7
100
AcDbCircle
 10
-100.0
 20
20.50000000000001
 40
8.0
100
AcDbArc
 50
90.0
 51
180.0
  0
ARC
  5
2D1
100
AcDbEntity
  8
1
  6
CONTINUOUS
 62
             7
100
AcDbCircle
 10
100.0
 20
20.50000000000001
 40
8.0
100
AcDbArc
 50
0.0
 51
90.0
  0
ARC
  5
2D0
100
AcDbEntity
  8
1
  6
CONTINUOUS
 62
             7
100
AcDbCircle
 10
100.0
 20
-20.49999999999999
 40
8.0
100
AcDbArc
 50
-90.0
 51
0.0
  0
ARC
  5
2CF
100
AcDbEntity
  8
1
  6
CONTINUOUS
 62
             7
100
AcDbCircle
 10
-100.0
 20
-20.49999999999999
 40
8.0
100
AcDbArc
 50
180.0
 51
-90.0
  0
ARC
  5
2CE
100
AcDbEntity
  8
1
  6
CONTINUOUS
 62
             7
100
AcDbCircle
 10
-124.0
 20
-6.99999999999999
 40
8.0
100
AcDbArc
 50
180.0
 51
-90.0
  0
ARC
  5
2CD
100
AcDbEntity
  8
1
  6
CONTINUOUS
 62
             7
100
AcDbCircle
 10
-124.0
 20
7.00000000000001
 40
8.0
100
AcDbArc
 50
90.0
 51
180.0
  0
CIRCLE
  5
2CC
100
AcDbEntity
  8
1
  6
CONTINUOUS
 62
             7
100
AcDbCircle
 10
0.0
 20
18.00000000000001
 40
3.0
  0
CIRCLE
  5
2CB
100
AcDbEntity
  8
1
  6
CONTINUOUS
 62
             7
100
AcDbCircle
 10
-20.0
 20
0.00000000000001
 40
1.5
  0
CIRCLE
  5
2CA
100
AcDbEntity
  8
1
  6
CONTINUOUS
 62
             7
100
AcDbCircle
 10
-30.0
 20
0.00000000000001
 40
1.5
  0
CIRCLE
  5
2C9
100
AcDbEntity
  8
1
  6
CONTINUOUS
 62
             7
100
AcDbCircle
 10
-70.0
 20
0.00000000000001
 40
1.5
  0
CIRCLE
  5
2C8
100
AcDbEntity
  8
1
  6
CONTINUOUS
 62
             7
100
AcDbCircle
 10
-80.0
 20
0.00000000000001
 40
1.5
  0
CIRCLE
  5
2C7
100
AcDbEntity
  8
1
  6
CONTINUOUS
 62
             7
100
AcDbCircle
 10
-56.5
 20
0.00000000000001
 40
1.5
  0
CIRCLE
  5
2C6
100
AcDbEntity
  8
1
  6
CONTINUOUS
 62
             7
100
AcDbCircle
 10
-96.5
 20
0.00000000000001
 40
1.5
  0
CIRCLE
  5
2C5
100
AcDbEntity
  8
1
  6
CONTINUOUS
 62
             7
100
AcDbCircle
 10
-22.5
 20
9.00000000000001
 40
1.5
  0
CIRCLE
  5
2C4
100
AcDbEntity
  8
1
  6
CONTINUOUS
 62
             7
100
AcDbCircle
 10
-32.5
 20
9.00000000000001
 40
1.5
  0
CIRCLE
  5
2C3
100
AcDbEntity
  8
1
  6
CONTINUOUS
 62
             7
100
AcDbCircle
 10
-67.5
 20
9.00000000000001
 40
1.5
  0
CIRCLE
  5
2C2
100
AcDbEntity
  8
1
  6
CONTINUOUS
 62
             7
100
AcDbCircle
 10
-42.5
 20
9.00000000000001
 40
1.5
  0
CIRCLE
  5
2C1
100
AcDbEntity
  8
1
  6
CONTINUOUS
 62
             7
100
AcDbCircle
 10
-94.0
 20
9.00000000000001
 40
1.5
  0
CIRCLE
  5
2C0
100
AcDbEntity
  8
1
  6
CONTINUOUS
 62
             7
100
AcDbCircle
 10
-22.5
 20
-8.99999999999999
 40
1.5
  0
CIRCLE
  5
2BF
100
AcDbEntity
  8
1
  6
CONTINUOUS
 62
             7
100
AcDbCircle
 10
-32.5
 20
-8.99999999999999
 40
1.5
  0
CIRCLE
  5
2BE
100
AcDbEntity
  8
1
  6
CONTINUOUS
 62
             7
100
AcDbCircle
 10
-67.5
 20
-8.99999999999999
 40
1.5
  0
CIRCLE
  5
2BD
100
AcDbEntity
  8
1
  6
CONTINUOUS
 62
             7
100
AcDbCircle
 10
-42.5
 20
-8.99999999999999
 40
1.5
  0
CIRCLE
  5
2BC
100
AcDbEntity
  8
1
  6
CONTINUOUS
 62
             7
100
AcDbCircle
 10
-94.0
 20
-8.99999999999999
 40
1.5
  0
CIRCLE
  5
2BB
100
AcDbEntity
  8
1
  6
CONTINUOUS
 62
             7
100
AcDbCircle
 10
22.5
 20
9.00000000000001
 40
1.5
  0
CIRCLE
  5
2BA
100
AcDbEntity
  8
1
  6
CONTINUOUS
 62
             7
100
AcDbCircle
 10
32.5
 20
9.00000000000001
 40
1.5
  0
CIRCLE
  5
2B9
100
AcDbEntity
  8
1
  6
CONTINUOUS
 62
             7
100
AcDbCircle
 10
67.5
 20
9.00000000000001
 40
1.5
  0
CIRCLE
  5
2B8
100
AcDbEntity
  8
1
  6
CONTINUOUS
 62
             7
100
AcDbCircle
 10
42.5
 20
9.00000000000001
 40
1.5
  0
CIRCLE
  5
2B7
100
AcDbEntity
  8
1
  6
CONTINUOUS
 62
             7
100
AcDbCircle
 10
77.5
 20
9.00000000000001
 40
1.5
  0
CIRCLE
  5
2B6
100
AcDbEntity
  8
1
  6
CONTINUOUS
 62
             7
100
AcDbCircle
 10
94.0
 20
9.00000000000001
 40
1.5
  0
CIRCLE
  5
2B5
100
AcDbEntity
  8
1
  6
CONTINUOUS
 62
             7
100
AcDbCircle
 10
76.5
 20
-21.99999999999999
 40
1.5
  0
CIRCLE
  5
2B4
100
AcDbEntity
  8
1
  6
CONTINUOUS
 62
             7
100
AcDbCircle
 10
60.0
 20
-21.99999999999999
 40
1.5
  0
CIRCLE
  5
2B3
100
AcDbEntity
  8
1
  6
CONTINUOUS
 62
             7
100
AcDbCircle
 10
50.0
 20
-21.99999999999999
 40
1.5
  0
CIRCLE
  5
2B2
100
AcDbEntity
  8
1
  6
CONTINUOUS
 62
             7
100
AcDbCircle
 10
40.0
 20
-21.99999999999999
 40
1.5
  0
CIRCLE
  5
2B1
100
AcDbEntity
  8
1
  6
CONTINUOUS
 62
             7
100
AcDbCircle
 10
22.5
 20
-8.99999999999999
 40
1.5
  0
CIRCLE
  5
2B0
100
AcDbEntity
  8
1
  6
CONTINUOUS
 62
             7
100
AcDbCircle
 10
59.0
 20
-8.99999999999999
 40
1.5
  0
CIRCLE
  5
2AF
100
AcDbEntity
  8
1
  6
CONTINUOUS
 62
             7
100
AcDbCircle
 10
32.5
 20
-8.99999999999999
 40
1.5
  0
CIRCLE
  5
2AE
100
AcDbEntity
  8
1
  6
CONTINUOUS
 62
             7
100
AcDbCircle
 10
67.5
 20
-8.99999999999999
 40
1.5
  0
CIRCLE
  5
2AD
100
AcDbEntity
  8
1
  6
CONTINUOUS
 62
             7
100
AcDbCircle
 10
42.5
 20
-8.99999999999999
 40
1.5
  0
CIRCLE
  5
2AC
100
AcDbEntity
  8
1
  6
CONTINUOUS
 62
             7
100
AcDbCircle
 10
77.5
 20
-8.99999999999999
 40
1.5
  0
CIRCLE
  5
2AB
100
AcDbEntity
  8
1
  6
CONTINUOUS
 62
             7
100
AcDbCircle
 10
59.0
 20
-8.99999999999999
 40
1.5
  0
CIRCLE
  5
2AA
100
AcDbEntity
  8
1
  6
CONTINUOUS
 62
             7
100
AcDbCircle
 10
94.0
 20
-8.99999999999999
 40
1.5
  0
CIRCLE
  5
2A9
100
AcDbEntity
  8
1
  6
CONTINUOUS
 62
             7
100
AcDbCircle
 10
76.5
 20
22.00000000000001
 40
1.5
  0
CIRCLE
  5
2A8
100
AcDbEntity
  8
1
  6
CONTINUOUS
 62
             7
100
AcDbCircle
 10
60.0
 20
22.00000000000001
 40
1.5
  0
CIRCLE
  5
2A7
100
AcDbEntity
  8
1
  6
CONTINUOUS
 62
             7
100
AcDbCircle
 10
50.0
 20
22.00000000000001
 40
1.5
  0
CIRCLE
  5
2A6
100
AcDbEntity
  8
1
  6
CONTINUOUS
 62
             7
100
AcDbCircle
 10
40.0
 20
22.00000000000001
 40
1.5
  0
CIRCLE
  5
2A5
100
AcDbEntity
  8
1
  6
CONTINUOUS
 62
             7
100
AcDbCircle
 10
16.5
 20
5.00000000000001
 40
1.5
  0
CIRCLE
  5
2A4
100
AcDbEntity
  8
1
  6
CONTINUOUS
 62
             7
100
AcDbCircle
 10
63.5
 20
5.00000000000001
 40
1.5
  0
CIRCLE
  5
2A3
100
AcDbEntity
  8
1
  6
CONTINUOUS
 62
             7
100
AcDbCircle
 10
26.5
 20
5.00000000000001
 40
1.5
  0
CIRCLE
  5
2A2
100
AcDbEntity
  8
1
  6
CONTINUOUS
 62
             7
100
AcDbCircle
 10
73.5
 20
5.00000000000001
 40
1.5
  0
CIRCLE
  5
2A1
100
AcDbEntity
  8
1
  6
CONTINUOUS
 62
             7
100
AcDbCircle
 10
83.5
 20
5.00000000000001
 40
1.5
  0
CIRCLE
  5
2A0
100
AcDbEntity
  8
1
  6
CONTINUOUS
 62
             7
100
AcDbCircle
 10
53.0
 20
5.00000000000001
 40
1.5
  0
CIRCLE
  5
29F
100
AcDbEntity
  8
1
  6
CONTINUOUS
 62
             7
100
AcDbCircle
 10
100.0
 20
5.00000000000001
 40
1.5
  0
CIRCLE
  5
29E
100
AcDbEntity
  8
1
  6
CONTINUOUS
 62
             7
100
AcDbCircle
 10
-16.5
 20
5.00000000000001
 40
1.5
  0
CIRCLE
  5
29D
100
AcDbEntity
  8
1
  6
CONTINUOUS
 62
             7
100
AcDbCircle
 10
-63.5
 20
5.00000000000001
 40
1.5
  0
CIRCLE
  5
29C
100
AcDbEntity
  8
1
  6
CONTINUOUS
 62
             7
100
AcDbCircle
 10
-26.5
 20
5.00000000000001
 40
1.5
  0
CIRCLE
  5
29B
100
AcDbEntity
  8
1
  6
CONTINUOUS
 62
             7
100
AcDbCircle
 10
-73.5
 20
5.00000000000001
 40
1.5
  0
CIRCLE
  5
29A
100
AcDbEntity
  8
1
  6
CONTINUOUS
 62
             7
100
AcDbCircle
 10
-36.5
 20
5.00000000000001
 40
1.5
  0
CIRCLE
  5
299
100
AcDbEntity
  8
1
  6
CONTINUOUS
 62
             7
100
AcDbCircle
 10
-83.5
 20
5.00000000000001
 40
1.5
  0
CIRCLE
  5
298
100
AcDbEntity
  8
1
  6
CONTINUOUS
 62
             7
100
AcDbCircle
 10
-53.0
 20
5.00000000000001
 40
1.5
  0
CIRCLE
  5
297
100
AcDbEntity
  8
1
  6
CONTINUOUS
 62
             7
100
AcDbCircle
 10
-100.0
 20
5.00000000000001
 40
1.5
  0
CIRCLE
  5
296
100
AcDbEntity
  8
1
  6
CONTINUOUS
 62
             7
100
AcDbCircle
 10
-46.99999999999989
 20
0.00000000000001
 40
1.5
  0
CIRCLE
  5
295
100
AcDbEntity
  8
1
  6
CONTINUOUS
 62
             7
100
AcDbCircle
 10
-27.0
 20
24.00000000001091
 40
1.5
  0
CIRCLE
  5
294
100
AcDbEntity
  8
1
  6
CONTINUOUS
 62
             7
100
AcDbCircle
 10
38.0
 20
-12.99999999998908
 40
1.50000000000063
  0
CIRCLE
  5
293
100
AcDbEntity
  8
1
  6
CONTINUOUS
 62
             7
100
AcDbCircle
 10
-27.0
 20
-37.99999999998908
 40
1.5
  0
CIRCLE
  5
292
100
AcDbEntity
  8
1
  6
CONTINUOUS
 62
             7
100
AcDbCircle
 10
38.0
 20
-74.99999999998909
 40
1.5
  0
CIRCLE
  5
291
100
AcDbEntity
  8
1
  6
CONTINUOUS
 62
             7
100
AcDbCircle
 10
35.0
 20
-4.99999999999999
 40
1.5
  0
CIRCLE
  5
290
100
AcDbEntity
  8
1
  6
CONTINUOUS
 62
             7
100
AcDbCircle
 10
35.0
 20
-31.99999999999999
 40
1.5
  0
CIRCLE
  5
28F
100
AcDbEntity
  8
1
  6
CONTINUOUS
 62
             7
100
AcDbCircle
 10
35.0
 20
-56.99999999999999
 40
1.5
  0
CIRCLE
  5
28E
100
AcDbEntity
  8
1
  6
CONTINUOUS
 62
             7
100
AcDbCircle
 10
-35.0
 20
-56.99999999999999
 40
1.5
  0
CIRCLE
  5
28D
100
AcDbEntity
  8
1
  6
CONTINUOUS
 62
             7
100
AcDbCircle
 10
-35.0
 20
-31.99999999999999
 40
1.5
  0
CIRCLE
  5
28C
100
AcDbEntity
  8
1
  6
CONTINUOUS
 62
             7
100
AcDbCircle
 10
-35.0
 20
-4.99999999999999
 40
1.5
  0
ARC
  5
28B
100
AcDbEntity
  8
1
  6
CONTINUOUS
 62
             7
100
AcDbCircle
 10
0.0
 20
18.00000000000001
 40
5.0
100
AcDbArc
 50
90.0
 51
-90.0
  0
ARC
  5
28A
100
AcDbEntity
  8
1
  6
CONTINUOUS
 62
             7
100
AcDbCircle
 10
0.0
 20
18.00000000000001
 40
5.0
100
AcDbArc
 50
-90.0
 51
90.0
  0
ARC
  5
289
100
AcDbEntity
  8
1
  6
CONTINUOUS
 62
             7
100
AcDbCircle
 10
118.0
 20
0.00000000000001
 40
5.0
100
AcDbArc
 50
90.0
 51
-90.0
  0
ARC
  5
288
100
AcDbEntity
  8
1
  6
CONTINUOUS
 62
             7
100
AcDbCircle
 10
122.0
 20
0.00000000000001
 40
5.0
100
AcDbArc
 50
-90.0
 51
90.0
  0
ARC
  5
287
100
AcDbEntity
  8
LC-001-002-----0
  6
CONTINUOUS
 62
             7
100
AcDbCircle
 10
118.0
 20
0.00000000000001
 40
3.0
100
AcDbArc
 50
90.0
 51
-90.0
  0
ARC
  5
286
100
AcDbEntity
  8
LC-001-002-----0
  6
CONTINUOUS
 62
             7
100
AcDbCircle
 10
122.0
 20
0.00000000000001
 40
3.0
100
AcDbArc
 50
-90.0
 51
90.0
  0
ARC
  5
285
100
AcDbEntity
  8
LC-001-002-----0
  6
CONTINUOUS
 62
             7
100
AcDbCircle
 10
-120.0
 20
-1.99999999999999
 40
5.0
100
AcDbArc
 50
179.99999999999986
 51
0.00000000000012
  0
ARC
  5
284
100
AcDbEntity
  8
LC-001-002-----0
  6
CONTINUOUS
 62
             7
100
AcDbCircle
 10
-120.0
 20
2.00000000000001
 40
3.0
100
AcDbArc
 50
0.0
 51
180.0
  0
ARC
  5
283
100
AcDbEntity
  8
LC-001-002-----0
  6
CONTINUOUS
 62
             7
100
AcDbCircle
 10
-120.0
 20
-1.99999999999999
 40
3.0
100
AcDbArc
 50
180.0
 51
0.0
  0
ARC
  5
282
100
AcDbEntity
  8
LC-001-002-----0
  6
CONTINUOUS
 62
             7
100
AcDbCircle
 10
-120.0
 20
2.00000000000001
 40
5.0
100
AcDbArc
 50
0.0
 51
180.0
  0
ARC
  5
281
100
AcDbEntity
  8
LC-001-002-----0
  6
CONTINUOUS
 62
             7
100
AcDbCircle
 10
-1.99999999999929
 20
-61.99999999999999
 40
5.0
100
AcDbArc
 50
90.0
 51
-90.0
  0
ARC
  5
280
100
AcDbEntity
  8
LC-001-002-----0
  6
CONTINUOUS
 62
             7
100
AcDbCircle
 10
2.0
 20
-61.99999999999999
 40
3.00000000000001
100
AcDbArc
 50
-89.99999999998643
 51
89.99999999998643
  0
ARC
  5
27F
100
AcDbEntity
  8
LC-001-002-----0
  6
CONTINUOUS
 62
             7
100
AcDbCircle
 10
-1.99999999999929
 20
-61.99999999999999
 40
3.0
100
AcDbArc
 50
90.0
 51
-90.0
  0
ARC
  5
27E
100
AcDbEntity
  8
LC-001-002-----0
  6
CONTINUOUS
 62
             7
100
AcDbCircle
 10
2.0
 20
-61.99999999999999
 40
5.00000000000001
100
AcDbArc
 50
-89.99999999999186
 51
89.99999999999186
  0
ARC
  5
27D
100
AcDbEntity
  8
1
  6
CONTINUOUS
 62
             7
100
AcDbCircle
 10
-77.5
 20
9.00000000000001
 40
1.5
100
AcDbArc
 50
48.18968510422135
 51
-48.18968510422135
  0
ARC
  5
27C
100
AcDbEntity
  8
1
  6
CONTINUOUS
 62
             7
100
AcDbCircle
 10
-77.5
 20
9.00000000000001
 40
1.5
100
AcDbArc
 50
-48.18968510422135
 51
48.18968510422135
  0
ARC
  5
27B
100
AcDbEntity
  8
1
  6
CONTINUOUS
 62
             7
100
AcDbCircle
 10
-77.5
 20
-8.99999999999999
 40
1.5
100
AcDbArc
 50
48.18968510422127
 51
-48.18968510422123
  0
ARC
  5
27A
100
AcDbEntity
  8
1
  6
CONTINUOUS
 62
             7
100
AcDbCircle
 10
-77.5
 20
-8.99999999999999
 40
1.49999999999999
100
AcDbArc
 50
-48.18968510422123
 51
48.18968510422127
  0
ARC
  5
279
100
AcDbEntity
  8
1
  6
CONTINUOUS
 62
             7
100
AcDbCircle
 10
-76.5
 20
22.00000000000001
 40
1.5
100
AcDbArc
 50
0.0
 51
90.0
  0
ARC
  5
278
100
AcDbEntity
  8
1
  6
CONTINUOUS
 62
             7
100
AcDbCircle
 10
-76.5
 20
22.00000000000001
 40
1.5
100
AcDbArc
 50
-90.0
 51
0.0
  0
ARC
  5
277
100
AcDbEntity
  8
1
  6
CONTINUOUS
 62
             7
100
AcDbCircle
 10
-76.5
 20
-21.99999999999999
 40
1.5
100
AcDbArc
 50
90.0
 51
-90.0
  0
ARC
  5
276
100
AcDbEntity
  8
1
  6
CONTINUOUS
 62
             7
100
AcDbCircle
 10
-76.5
 20
-21.99999999999999
 40
1.5
100
AcDbArc
 50
-90.0
 51
90.0
  0
ARC
  5
275
100
AcDbEntity
  8
1
  6
CONTINUOUS
 62
             7
100
AcDbCircle
 10
-76.5
 20
22.00000000000001
 40
1.5
100
AcDbArc
 50
90.0
 51
-90.0
  0
ARC
  5
274
100
AcDbEntity
  8
1
  6
CONTINUOUS
 62
             7
100
AcDbCircle
 10
-59.0
 20
9.00000000000001
 40
1.5
100
AcDbArc
 50
-131.81031489577865
 51
131.81031489577865
  0
ARC
  5
273
100
AcDbEntity
  8
1
  6
CONTINUOUS
 62
             7
100
AcDbCircle
 10
-59.0
 20
9.00000000000001
 40
1.5
100
AcDbArc
 50
131.81031489577865
 51
180.0
  0
ARC
  5
272
100
AcDbEntity
  8
1
  6
CONTINUOUS
 62
             7
100
AcDbCircle
 10
-59.0
 20
9.00000000000001
 40
1.5
100
AcDbArc
 50
-131.81031489577865
 51
131.81031489577865
  0
ARC
  5
271
100
AcDbEntity
  8
1
  6
CONTINUOUS
 62
             7
100
AcDbCircle
 10
-59.0
 20
9.00000000000001
 40
1.5
100
AcDbArc
 50
131.81031489577865
 51
180.0
  0
ARC
  5
270
100
AcDbEntity
  8
1
  6
CONTINUOUS
 62
             7
100
AcDbCircle
 10
-60.0
 20
22.00000000000001
 40
1.5
100
AcDbArc
 50
90.0
 51
-90.0
  0
ARC
  5
26F
100
AcDbEntity
  8
1
  6
CONTINUOUS
 62
             7
100
AcDbCircle
 10
-60.0
 20
22.00000000000001
 40
1.5
100
AcDbArc
 50
-90.0
 51
90.0
  0
ARC
  5
26E
100
AcDbEntity
  8
1
  6
CONTINUOUS
 62
             7
100
AcDbCircle
 10
-50.0
 20
22.00000000000001
 40
1.5
100
AcDbArc
 50
90.0
 51
-90.0
  0
ARC
  5
26D
100
AcDbEntity
  8
1
  6
CONTINUOUS
 62
             7
100
AcDbCircle
 10
-50.0
 20
22.00000000000001
 40
1.5
100
AcDbArc
 50
-90.0
 51
90.0
  0
ARC
  5
26C
100
AcDbEntity
  8
1
  6
CONTINUOUS
 62
             7
100
AcDbCircle
 10
-40.0
 20
22.00000000000001
 40
1.5
100
AcDbArc
 50
90.0
 51
-90.0
  0
ARC
  5
26B
100
AcDbEntity
  8
1
  6
CONTINUOUS
 62
             7
100
AcDbCircle
 10
-40.0
 20
22.00000000000001
 40
1.5
100
AcDbArc
 50
-90.0
 51
90.0
  0
ARC
  5
26A
100
AcDbEntity
  8
1
  6
CONTINUOUS
 62
             7
100
AcDbCircle
 10
-60.0
 20
-21.99999999999999
 40
1.5
100
AcDbArc
 50
-90.0
 51
90.0
  0
ARC
  5
269
100
AcDbEntity
  8
1
  6
CONTINUOUS
 62
             7
100
AcDbCircle
 10
-60.0
 20
-21.99999999999999
 40
1.5
100
AcDbArc
 50
90.0
 51
-90.0
  0
ARC
  5
268
100
AcDbEntity
  8
1
  6
CONTINUOUS
 62
             7
100
AcDbCircle
 10
-59.0
 20
-8.99999999999999
 40
1.5
100
AcDbArc
 50
180.0
 51
-131.81031489577879
  0
ARC
  5
267
100
AcDbEntity
  8
1
  6
CONTINUOUS
 62
             7
100
AcDbCircle
 10
-59.0
 20
-8.99999999999999
 40
1.5
100
AcDbArc
 50
131.81031489577873
 51
180.0
  0
ARC
  5
266
100
AcDbEntity
  8
1
  6
CONTINUOUS
 62
             7
100
AcDbCircle
 10
-59.0
 20
-8.99999999999999
 40
1.5
100
AcDbArc
 50
180.0
 51
-131.81031489577879
  0
ARC
  5
265
100
AcDbEntity
  8
1
  6
CONTINUOUS
 62
             7
100
AcDbCircle
 10
-59.0
 20
-8.99999999999999
 40
1.5
100
AcDbArc
 50
131.81031489577873
 51
180.0
  0
ARC
  5
264
100
AcDbEntity
  8
1
  6
CONTINUOUS
 62
             7
100
AcDbCircle
 10
-50.0
 20
-21.99999999999999
 40
1.5
100
AcDbArc
 50
-90.0
 51
90.0
  0
ARC
  5
263
100
AcDbEntity
  8
1
  6
CONTINUOUS
 62
             7
100
AcDbCircle
 10
-50.0
 20
-21.99999999999999
 40
1.5
100
AcDbArc
 50
90.0
 51
-90.0
  0
ARC
  5
262
100
AcDbEntity
  8
1
  6
CONTINUOUS
 62
             7
100
AcDbCircle
 10
-40.0
 20
-21.99999999999999
 40
1.5
100
AcDbArc
 50
-90.0
 51
90.0
  0
ARC
  5
261
100
AcDbEntity
  8
1
  6
CONTINUOUS
 62
             7
100
AcDbCircle
 10
-40.0
 20
-21.99999999999999
 40
1.5
100
AcDbArc
 50
90.0
 51
-90.0
  0
ARC
  5
260
100
AcDbEntity
  8
1
  6
CONTINUOUS
 62
             7
100
AcDbCircle
 10
-40.0
 20
0.00000000000001
 40
1.5
100
AcDbArc
 50
90.0
 51
-90.0
  0
ARC
  5
25F
100
AcDbEntity
  8
1
  6
CONTINUOUS
 62
             7
100
AcDbCircle
 10
-40.0
 20
0.00000000000001
 40
1.5
100
AcDbArc
 50
-90.0
 51
90.0
  0
ARC
  5
25E
100
AcDbEntity
  8
1
  6
CONTINUOUS
 62
             7
100
AcDbCircle
 10
-59.0
 20
9.00000000000001
 40
1.5
100
AcDbArc
 50
180.0
 51
-131.81031489577865
  0
ARC
  5
25D
100
AcDbEntity
  8
1
  6
CONTINUOUS
 62
             7
100
AcDbCircle
 10
-59.0
 20
9.00000000000001
 40
1.5
100
AcDbArc
 50
180.0
 51
-131.81031489577865
  0
ARC
  5
25C
100
AcDbEntity
  8
1
  6
CONTINUOUS
 62
             7
100
AcDbCircle
 10
-59.0
 20
-8.99999999999999
 40
1.49999999999999
100
AcDbArc
 50
-131.81031489577879
 51
131.81031489577873
  0
ARC
  5
25B
100
AcDbEntity
  8
1
  6
CONTINUOUS
 62
             7
100
AcDbCircle
 10
-59.0
 20
-8.99999999999999
 40
1.49999999999999
100
AcDbArc
 50
-131.81031489577879
 51
131.81031489577873
  0
ARC
  5
25A
100
AcDbEntity
  8
1
  6
CONTINUOUS
 62
             7
100
AcDbCircle
 10
-60.0
 20
0.00000000000001
 40
1.5
100
AcDbArc
 50
90.0
 51
-90.0
  0
ARC
  5
259
100
AcDbEntity
  8
1
  6
CONTINUOUS
 62
             7
100
AcDbCircle
 10
-60.0
 20
0.00000000000001
 40
1.5
100
AcDbArc
 50
0.0
 51
90.0
  0
ARC
  5
258
100
AcDbEntity
  8
1
  6
CONTINUOUS
 62
             7
100
AcDbCircle
 10
59.0
 20
9.00000000000001
 40
1.5
100
AcDbArc
 50
0.0
 51
-48.18968510422135
  0
ARC
  5
257
100
AcDbEntity
  8
1
  6
CONTINUOUS
 62
             7
100
AcDbCircle
 10
59.0
 20
9.00000000000001
 40
1.5
100
AcDbArc
 50
-48.18968510422135
 51
0.0
  0
ARC
  5
256
100
AcDbEntity
  8
1
  6
CONTINUOUS
 62
             7
100
AcDbCircle
 10
59.0
 20
9.00000000000001
 40
1.5
100
AcDbArc
 50
0.0
 51
-48.18968510422135
  0
ARC
  5
255
100
AcDbEntity
  8
1
  6
CONTINUOUS
 62
             7
100
AcDbCircle
 10
59.0
 20
9.00000000000001
 40
1.5
100
AcDbArc
 50
-48.18968510422135
 51
0.0
  0
ARC
  5
254
100
AcDbEntity
  8
1
  6
CONTINUOUS
 62
             7
100
AcDbCircle
 10
36.5
 20
5.00000000000001
 40
1.5
100
AcDbArc
 50
0.0
 51
180.0
  0
ARC
  5
253
100
AcDbEntity
  8
1
  6
CONTINUOUS
 62
             7
100
AcDbCircle
 10
36.5
 20
5.00000000000001
 40
1.5
100
AcDbArc
 50
180.0
 51
0.0
  0
ARC
  5
252
100
AcDbEntity
  8
1
  6
CONTINUOUS
 62
             7
100
AcDbCircle
 10
20.0
 20
0.00000000000001
 40
1.5
100
AcDbArc
 50
90.0
 51
180.0
  0
ARC
  5
251
100
AcDbEntity
  8
1
  6
CONTINUOUS
 62
             7
100
AcDbCircle
 10
20.0
 20
0.00000000000001
 40
1.5
100
AcDbArc
 50
0.0
 51
90.0
  0
ARC
  5
250
100
AcDbEntity
  8
1
  6
CONTINUOUS
 62
             7
100
AcDbCircle
 10
30.0
 20
0.00000000000001
 40
1.5
100
AcDbArc
 50
90.0
 51
180.0
  0
ARC
  5
24F
100
AcDbEntity
  8
1
  6
CONTINUOUS
 62
             7
100
AcDbCircle
 10
30.0
 20
0.00000000000001
 40
1.5
100
AcDbArc
 50
0.0
 51
90.0
  0
ARC
  5
24E
100
AcDbEntity
  8
1
  6
CONTINUOUS
 62
             7
100
AcDbCircle
 10
40.0
 20
0.00000000000001
 40
1.5
100
AcDbArc
 50
90.0
 51
180.0
  0
ARC
  5
24D
100
AcDbEntity
  8
1
  6
CONTINUOUS
 62
             7
100
AcDbCircle
 10
40.0
 20
0.00000000000001
 40
1.5
100
AcDbArc
 50
0.0
 51
90.0
  0
ARC
  5
24C
100
AcDbEntity
  8
1
  6
CONTINUOUS
 62
             7
100
AcDbCircle
 10
47.0
 20
0.00000000000001
 40
1.5
100
AcDbArc
 50
0.0
 51
180.0
  0
ARC
  5
24B
100
AcDbEntity
  8
1
  6
CONTINUOUS
 62
             7
100
AcDbCircle
 10
47.0
 20
0.00000000000001
 40
1.5
100
AcDbArc
 50
180.0
 51
0.0
  0
ARC
  5
24A
100
AcDbEntity
  8
1
  6
CONTINUOUS
 62
             7
100
AcDbCircle
 10
56.5
 20
0.00000000000001
 40
1.5
100
AcDbArc
 50
90.0
 51
180.0
  0
ARC
  5
249
100
AcDbEntity
  8
1
  6
CONTINUOUS
 62
             7
100
AcDbCircle
 10
56.5
 20
0.00000000000001
 40
1.5
100
AcDbArc
 50
0.0
 51
90.0
  0
ARC
  5
248
100
AcDbEntity
  8
1
  6
CONTINUOUS
 62
             7
100
AcDbCircle
 10
60.0
 20
0.00000000000001
 40
1.5
100
AcDbArc
 50
180.0
 51
0.0
  0
ARC
  5
247
100
AcDbEntity
  8
1
  6
CONTINUOUS
 62
             7
100
AcDbCircle
 10
60.0
 20
0.00000000000001
 40
1.5
100
AcDbArc
 50
0.0
 51
90.0
  0
ARC
  5
246
100
AcDbEntity
  8
1
  6
CONTINUOUS
 62
             7
100
AcDbCircle
 10
70.0
 20
0.00000000000001
 40
1.5
100
AcDbArc
 50
90.0
 51
180.0
  0
ARC
  5
245
100
AcDbEntity
  8
1
  6
CONTINUOUS
 62
             7
100
AcDbCircle
 10
70.0
 20
0.00000000000001
 40
1.5
100
AcDbArc
 50
0.0
 51
90.0
  0
ARC
  5
244
100
AcDbEntity
  8
1
  6
CONTINUOUS
 62
             7
100
AcDbCircle
 10
80.0
 20
0.00000000000001
 40
1.5
100
AcDbArc
 50
90.0
 51
180.0
  0
ARC
  5
243
100
AcDbEntity
  8
1
  6
CONTINUOUS
 62
             7
100
AcDbCircle
 10
80.0
 20
0.00000000000001
 40
1.5
100
AcDbArc
 50
0.0
 51
90.0
  0
ARC
  5
242
100
AcDbEntity
  8
1
  6
CONTINUOUS
 62
             7
100
AcDbCircle
 10
20.0
 20
0.00000000000001
 40
1.5
100
AcDbArc
 50
180.0
 51
0.0
  0
ARC
  5
241
100
AcDbEntity
  8
1
  6
CONTINUOUS
 62
             7
100
AcDbCircle
 10
30.0
 20
0.00000000000001
 40
1.5
100
AcDbArc
 50
180.0
 51
0.0
  0
ARC
  5
240
100
AcDbEntity
  8
1
  6
CONTINUOUS
 62
             7
100
AcDbCircle
 10
40.0
 20
0.00000000000001
 40
1.5
100
AcDbArc
 50
180.0
 51
0.0
  0
ARC
  5
23F
100
AcDbEntity
  8
1
  6
CONTINUOUS
 62
             7
100
AcDbCircle
 10
70.0
 20
0.00000000000001
 40
1.5
100
AcDbArc
 50
180.0
 51
0.0
  0
ARC
  5
23E
100
AcDbEntity
  8
1
  6
CONTINUOUS
 62
             7
100
AcDbCircle
 10
80.0
 20
0.00000000000001
 40
1.5
100
AcDbArc
 50
180.0
 51
0.0
  0
ARC
  5
23D
100
AcDbEntity
  8
1
  6
CONTINUOUS
 62
             7
100
AcDbCircle
 10
56.5
 20
0.00000000000001
 40
1.5
100
AcDbArc
 50
180.0
 51
0.0
  0
ARC
  5
23C
100
AcDbEntity
  8
1
  6
CONTINUOUS
 62
             7
100
AcDbCircle
 10
60.0
 20
0.00000000000001
 40
1.5
100
AcDbArc
 50
90.0
 51
180.0
  0
ARC
  5
23B
100
AcDbEntity
  8
1
  6
CONTINUOUS
 62
             7
100
AcDbCircle
 10
96.5
 20
0.00000000000001
 40
1.5
100
AcDbArc
 50
90.0
 51
180.0
  0
ARC
  5
23A
100
AcDbEntity
  8
1
  6
CONTINUOUS
 62
             7
100
AcDbCircle
 10
96.5
 20
0.00000000000001
 40
1.5
100
AcDbArc
 50
0.0
 51
90.0
  0
ARC
  5
239
100
AcDbEntity
  8
1
  6
CONTINUOUS
 62
             7
100
AcDbCircle
 10
96.5
 20
0.00000000000001
 40
1.5
100
AcDbArc
 50
180.0
 51
0.0
  0
ARC
  5
238
100
AcDbEntity
  8
1
  6
CONTINUOUS
 62
             7
100
AcDbCircle
 10
-60.0
 20
0.00000000000001
 40
1.5
100
AcDbArc
 50
-90.0
 51
0.0
  0
LINE
  5
237
100
AcDbEntity
  8
0
  6
DASH_CENTER
 62
             2
100
AcDbLine
 10
0.0
 20
-55.48896348843419
 11
0.0
 21
-85.6994043237011
  0
LINE
  5
236
100
AcDbEntity
  8
0
  6
DASH_CENTER
 62
             2
100
AcDbLine
 10
0.0
 20
29.8078709752867
 11
0.0
 21
12.50000000000001
  0
LINE
  5
235
100
AcDbEntity
  8
0
  6
DASH_CENTER
 62
             2
100
AcDbLine
 10
5.5
 20
18.00000000000001
 11
-5.5
 21
18.00000000000001
  0
LINE
  5
234
100
AcDbEntity
  8
0
  6
DASH_CENTER
 62
             2
100
AcDbLine
 10
8.008621598519
 20
-61.99999999999999
 11
-8.33416943142299
 21
-61.99999999999999
  0
LINE
  5
233
100
AcDbEntity
  8
0
  6
CONTINUOUS
 62
             7
100
AcDbLine
 10
0.0
 20
23.00000000000001
 11
0.0
 21
27.50000000000001
  0
LINE
  5
232
100
AcDbEntity
  8
LC-001-002-----0
  6
CONTINUOUS
 62
             7
100
AcDbLine
 10
0.0
 20
-56.99999999999999
 11
-1.99999999999929
 21
-56.99999999999999
  0
LINE
  5
231
100
AcDbEntity
  8
0
  6
CONTINUOUS
 62
             7
100
AcDbLine
 10
0.0
 20
-56.99999999999999
 11
0.0
 21
13.00000000000001
  0
LINE
  5
230
100
AcDbEntity
  8
LC-001-002-----0
  6
CONTINUOUS
 62
             7
100
AcDbLine
 10
0.0
 20
-67.0
 11
-1.99999999999929
 21
-67.0
  0
LINE
  5
22F
100
AcDbEntity
  8
0
  6
CONTINUOUS
 62
             7
100
AcDbLine
 10
0.0
 20
-79.5
 11
0.0
 21
-67.0
  0
LINE
  5
22E
100
AcDbEntity
  8
1
  6
DASH_CENTER
 62
             2
100
AcDbLine
 10
20.0
 20
1.64999999999783
 11
20.0
 21
-1.65000000000145
  0
LINE
  5
22D
100
AcDbEntity
  8
1
  6
DASH_CENTER
 62
             2
100
AcDbLine
 10
21.64999999999961
 20
0.00000000000001
 11
18.35000000000039
 21
0.00000000000001
  0
LINE
  5
22C
100
AcDbEntity
  8
1
  6
DASH_CENTER
 62
             2
100
AcDbLine
 10
60.0
 20
1.64999999999783
 11
60.0
 21
-1.65000000000145
  0
LINE
  5
22B
100
AcDbEntity
  8
1
  6
DASH_CENTER
 62
             2
100
AcDbLine
 10
61.64999999999958
 20
0.00000000000001
 11
58.35000000000042
 21
0.00000000000001
  0
LINE
  5
22A
100
AcDbEntity
  8
1
  6
DASH_CENTER
 62
             2
100
AcDbLine
 10
30.0
 20
1.64999999999783
 11
30.0
 21
-1.65000000000145
  0
LINE
  5
229
100
AcDbEntity
  8
1
  6
DASH_CENTER
 62
             2
100
AcDbLine
 10
31.64999999999961
 20
0.00000000000001
 11
28.35000000000039
 21
0.00000000000001
  0
LINE
  5
228
100
AcDbEntity
  8
1
  6
DASH_CENTER
 62
             2
100
AcDbLine
 10
70.0
 20
1.64999999999783
 11
70.0
 21
-1.65000000000145
  0
LINE
  5
227
100
AcDbEntity
  8
1
  6
DASH_CENTER
 62
             2
100
AcDbLine
 10
71.64999999999958
 20
0.00000000000001
 11
68.35000000000042
 21
0.00000000000001
  0
LINE
  5
226
100
AcDbEntity
  8
1
  6
DASH_CENTER
 62
             2
100
AcDbLine
 10
40.0
 20
1.64999999999783
 11
40.0
 21
-1.65000000000145
  0
LINE
  5
225
100
AcDbEntity
  8
1
  6
DASH_CENTER
 62
             2
100
AcDbLine
 10
41.64999999999958
 20
0.00000000000001
 11
38.35000000000042
 21
0.00000000000001
  0
LINE
  5
224
100
AcDbEntity
  8
1
  6
DASH_CENTER
 62
             2
100
AcDbLine
 10
80.0
 20
1.64999999999783
 11
80.0
 21
-1.65000000000145
  0
LINE
  5
223
100
AcDbEntity
  8
1
  6
DASH_CENTER
 62
             2
100
AcDbLine
 10
81.64999999999958
 20
0.00000000000001
 11
78.35000000000042
 21
0.00000000000001
  0
LINE
  5
222
100
AcDbEntity
  8
1
  6
DASH_CENTER
 62
             2
100
AcDbLine
 10
56.5
 20
1.64999999999783
 11
56.5
 21
-1.65000000000145
  0
LINE
  5
221
100
AcDbEntity
  8
1
  6
DASH_CENTER
 62
             2
100
AcDbLine
 10
58.14999999999958
 20
0.00000000000001
 11
54.85000000000042
 21
0.00000000000001
  0
LINE
  5
220
100
AcDbEntity
  8
1
  6
DASH_CENTER
 62
             2
100
AcDbLine
 10
96.5
 20
1.64999999999783
 11
96.5
 21
-1.65000000000145
  0
LINE
  5
21F
100
AcDbEntity
  8
1
  6
DASH_CENTER
 62
             2
100
AcDbLine
 10
98.14999999999958
 20
0.00000000000001
 11
94.85000000000042
 21
0.00000000000001
  0
LINE
  5
21E
100
AcDbEntity
  8
1
  6
DASH_CENTER
 62
             2
100
AcDbLine
 10
-20.0
 20
-1.65000000000145
 11
-20.0
 21
1.64999999999783
  0
LINE
  5
21D
100
AcDbEntity
  8
1
  6
DASH_CENTER
 62
             2
100
AcDbLine
 10
-18.35000000000039
 20
0.00000000000001
 11
-21.64999999999961
 21
0.00000000000001
  0
LINE
  5
21C
100
AcDbEntity
  8
1
  6
DASH_CENTER
 62
             2
100
AcDbLine
 10
-60.0
 20
-1.65000000000145
 11
-60.0
 21
1.64999999999783
  0
LINE
  5
21B
100
AcDbEntity
  8
1
  6
DASH_CENTER
 62
             2
100
AcDbLine
 10
-58.35000000000039
 20
0.00000000000001
 11
-61.64999999999961
 21
0.00000000000001
  0
LINE
  5
21A
100
AcDbEntity
  8
1
  6
DASH_CENTER
 62
             2
100
AcDbLine
 10
-30.0
 20
-1.65000000000145
 11
-30.0
 21
1.64999999999783
  0
LINE
  5
219
100
AcDbEntity
  8
1
  6
DASH_CENTER
 62
             2
100
AcDbLine
 10
-28.35000000000039
 20
0.00000000000001
 11
-31.64999999999961
 21
0.00000000000001
  0
LINE
  5
218
100
AcDbEntity
  8
1
  6
DASH_CENTER
 62
             2
100
AcDbLine
 10
-70.0
 20
-1.65000000000145
 11
-70.0
 21
1.64999999999783
  0
LINE
  5
217
100
AcDbEntity
  8
1
  6
DASH_CENTER
 62
             2
100
AcDbLine
 10
-68.35000000000039
 20
0.00000000000001
 11
-71.64999999999961
 21
0.00000000000001
  0
LINE
  5
216
100
AcDbEntity
  8
1
  6
DASH_CENTER
 62
             2
100
AcDbLine
 10
-40.0
 20
-1.65000000000145
 11
-40.0
 21
1.64999999999783
  0
LINE
  5
215
100
AcDbEntity
  8
1
  6
DASH_CENTER
 62
             2
100
AcDbLine
 10
-38.35000000000039
 20
0.00000000000001
 11
-41.64999999999961
 21
0.00000000000001
  0
LINE
  5
214
100
AcDbEntity
  8
1
  6
DASH_CENTER
 62
             2
100
AcDbLine
 10
-80.0
 20
-1.65000000000145
 11
-80.0
 21
1.64999999999783
  0
LINE
  5
213
100
AcDbEntity
  8
1
  6
DASH_CENTER
 62
             2
100
AcDbLine
 10
-78.35000000000039
 20
0.00000000000001
 11
-81.64999999999961
 21
0.00000000000001
  0
LINE
  5
212
100
AcDbEntity
  8
1
  6
DASH_CENTER
 62
             2
100
AcDbLine
 10
-56.5
 20
-1.65000000000145
 11
-56.5
 21
1.64999999999783
  0
LINE
  5
211
100
AcDbEntity
  8
1
  6
DASH_CENTER
 62
             2
100
AcDbLine
 10
-54.85000000000039
 20
0.00000000000001
 11
-58.14999999999961
 21
0.00000000000001
  0
LINE
  5
210
100
AcDbEntity
  8
1
  6
DASH_CENTER
 62
             2
100
AcDbLine
 10
-96.5
 20
-1.65000000000145
 11
-96.5
 21
1.64999999999783
  0
LINE
  5
20F
100
AcDbEntity
  8
1
  6
DASH_CENTER
 62
             2
100
AcDbLine
 10
-94.85000000000039
 20
0.00000000000001
 11
-98.14999999999959
 21
0.00000000000001
  0
LINE
  5
20E
100
AcDbEntity
  8
1
  6
DASH_CENTER
 62
             2
100
AcDbLine
 10
-22.5
 20
7.34999999999854
 11
-22.5
 21
10.64999999999782
  0
LINE
  5
20D
100
AcDbEntity
  8
1
  6
DASH_CENTER
 62
             2
100
AcDbLine
 10
-20.85000000000039
 20
9.00000000000001
 11
-24.14999999999961
 21
9.00000000000001
  0
LINE
  5
20C
100
AcDbEntity
  8
1
  6
DASH_CENTER
 62
             2
100
AcDbLine
 10
-32.5
 20
7.34999999999854
 11
-32.5
 21
10.64999999999782
  0
LINE
  5
20B
100
AcDbEntity
  8
1
  6
DASH_CENTER
 62
             2
100
AcDbLine
 10
-30.85000000000039
 20
9.00000000000001
 11
-34.14999999999961
 21
9.00000000000001
  0
LINE
  5
20A
100
AcDbEntity
  8
1
  6
DASH_CENTER
 62
             2
100
AcDbLine
 10
-67.5
 20
7.34999999999854
 11
-67.5
 21
10.64999999999782
  0
LINE
  5
209
100
AcDbEntity
  8
1
  6
DASH_CENTER
 62
             2
100
AcDbLine
 10
-65.85000000000039
 20
9.00000000000001
 11
-69.14999999999961
 21
9.00000000000001
  0
LINE
  5
208
100
AcDbEntity
  8
1
  6
DASH_CENTER
 62
             2
100
AcDbLine
 10
-42.5
 20
7.34999999999854
 11
-42.5
 21
10.64999999999782
  0
LINE
  5
207
100
AcDbEntity
  8
1
  6
DASH_CENTER
 62
             2
100
AcDbLine
 10
-40.85000000000039
 20
9.00000000000001
 11
-44.14999999999961
 21
9.00000000000001
  0
LINE
  5
206
100
AcDbEntity
  8
1
  6
DASH_CENTER
 62
             2
100
AcDbLine
 10
-77.5
 20
7.34999999999854
 11
-77.5
 21
10.64999999999782
  0
LINE
  5
205
100
AcDbEntity
  8
1
  6
DASH_CENTER
 62
             2
100
AcDbLine
 10
-75.85000000000039
 20
9.00000000000001
 11
-79.14999999999961
 21
9.00000000000001
  0
LINE
  5
204
100
AcDbEntity
  8
1
  6
DASH_CENTER
 62
             2
100
AcDbLine
 10
-59.0
 20
7.34999999999854
 11
-59.0
 21
10.64999999999782
  0
LINE
  5
203
100
AcDbEntity
  8
1
  6
DASH_CENTER
 62
             2
100
AcDbLine
 10
-60.64999999999961
 20
9.00000000000001
 11
-57.35000000000039
 21
9.00000000000001
  0
LINE
  5
202
100
AcDbEntity
  8
1
  6
DASH_CENTER
 62
             2
100
AcDbLine
 10
-94.0
 20
7.34999999999854
 11
-94.0
 21
10.64999999999782
  0
LINE
  5
201
100
AcDbEntity
  8
1
  6
DASH_CENTER
 62
             2
100
AcDbLine
 10
-92.35000000000039
 20
9.00000000000001
 11
-95.64999999999959
 21
9.00000000000001
  0
LINE
  5
200
100
AcDbEntity
  8
1
  6
DASH_CENTER
 62
             2
100
AcDbLine
 10
-76.5
 20
-20.35000000000218
 11
-76.5
 21
-23.65000000000145
  0
LINE
  5
1FF
100
AcDbEntity
  8
1
  6
DASH_CENTER
 62
             2
100
AcDbLine
 10
-74.85000000000039
 20
-21.99999999999999
 11
-78.14999999999961
 21
-21.99999999999999
  0
LINE
  5
1FE
100
AcDbEntity
  8
1
  6
DASH_CENTER
 62
             2
100
AcDbLine
 10
-60.0
 20
-20.35000000000218
 11
-60.0
 21
-23.65000000000145
  0
LINE
  5
1FD
100
AcDbEntity
  8
1
  6
DASH_CENTER
 62
             2
100
AcDbLine
 10
-58.35000000000039
 20
-21.99999999999999
 11
-61.64999999999961
 21
-21.99999999999999
  0
LINE
  5
1FC
100
AcDbEntity
  8
1
  6
DASH_CENTER
 62
             2
100
AcDbLine
 10
-50.0
 20
-20.35000000000218
 11
-50.0
 21
-23.65000000000145
  0
LINE
  5
1FB
100
AcDbEntity
  8
1
  6
DASH_CENTER
 62
             2
100
AcDbLine
 10
-48.35000000000039
 20
-21.99999999999999
 11
-51.64999999999961
 21
-21.99999999999999
  0
LINE
  5
1FA
100
AcDbEntity
  8
1
  6
DASH_CENTER
 62
             2
100
AcDbLine
 10
-40.0
 20
-20.35000000000218
 11
-40.0
 21
-23.65000000000145
  0
LINE
  5
1F9
100
AcDbEntity
  8
1
  6
DASH_CENTER
 62
             2
100
AcDbLine
 10
-38.35000000000039
 20
-21.99999999999999
 11
-41.64999999999961
 21
-21.99999999999999
  0
LINE
  5
1F8
100
AcDbEntity
  8
1
  6
DASH_CENTER
 62
             2
100
AcDbLine
 10
-22.5
 20
-10.65000000000145
 11
-22.5
 21
-7.35000000000217
  0
LINE
  5
1F7
100
AcDbEntity
  8
1
  6
DASH_CENTER
 62
             2
100
AcDbLine
 10
-24.14999999999961
 20
-8.99999999999999
 11
-20.85000000000039
 21
-8.99999999999999
  0
LINE
  5
1F6
100
AcDbEntity
  8
1
  6
DASH_CENTER
 62
             2
100
AcDbLine
 10
-32.5
 20
-10.65000000000145
 11
-32.5
 21
-7.35000000000217
  0
LINE
  5
1F5
100
AcDbEntity
  8
1
  6
DASH_CENTER
 62
             2
100
AcDbLine
 10
-34.14999999999961
 20
-8.99999999999999
 11
-30.85000000000039
 21
-8.99999999999999
  0
LINE
  5
1F4
100
AcDbEntity
  8
1
  6
DASH_CENTER
 62
             2
100
AcDbLine
 10
-67.5
 20
-10.65000000000145
 11
-67.5
 21
-7.35000000000217
  0
LINE
  5
1F3
100
AcDbEntity
  8
1
  6
DASH_CENTER
 62
             2
100
AcDbLine
 10
-69.14999999999961
 20
-8.99999999999999
 11
-65.85000000000039
 21
-8.99999999999999
  0
LINE
  5
1F2
100
AcDbEntity
  8
1
  6
DASH_CENTER
 62
             2
100
AcDbLine
 10
-42.5
 20
-10.65000000000145
 11
-42.5
 21
-7.35000000000217
  0
LINE
  5
1F1
100
AcDbEntity
  8
1
  6
DASH_CENTER
 62
             2
100
AcDbLine
 10
-44.14999999999961
 20
-8.99999999999999
 11
-40.85000000000039
 21
-8.99999999999999
  0
LINE
  5
1F0
100
AcDbEntity
  8
1
  6
DASH_CENTER
 62
             2
100
AcDbLine
 10
-77.5
 20
-10.65000000000145
 11
-77.5
 21
-7.35000000000217
  0
LINE
  5
1EF
100
AcDbEntity
  8
1
  6
DASH_CENTER
 62
             2
100
AcDbLine
 10
-79.14999999999961
 20
-8.99999999999999
 11
-75.85000000000039
 21
-8.99999999999999
  0
LINE
  5
1EE
100
AcDbEntity
  8
1
  6
DASH_CENTER
 62
             2
100
AcDbLine
 10
-59.0
 20
-10.65000000000145
 11
-59.0
 21
-7.35000000000217
  0
LINE
  5
1ED
100
AcDbEntity
  8
1
  6
DASH_CENTER
 62
             2
100
AcDbLine
 10
-57.35000000000039
 20
-8.99999999999999
 11
-60.64999999999961
 21
-8.99999999999999
  0
LINE
  5
1EC
100
AcDbEntity
  8
1
  6
DASH_CENTER
 62
             2
100
AcDbLine
 10
-94.0
 20
-10.65000000000145
 11
-94.0
 21
-7.35000000000217
  0
LINE
  5
1EB
100
AcDbEntity
  8
1
  6
DASH_CENTER
 62
             2
100
AcDbLine
 10
-95.64999999999959
 20
-8.99999999999999
 11
-92.35000000000039
 21
-8.99999999999999
  0
LINE
  5
1EA
100
AcDbEntity
  8
1
  6
DASH_CENTER
 62
             2
100
AcDbLine
 10
-76.5
 20
23.64999999999782
 11
-76.5
 21
20.34999999999854
  0
LINE
  5
1E9
100
AcDbEntity
  8
1
  6
DASH_CENTER
 62
             2
100
AcDbLine
 10
-78.14999999999961
 20
22.00000000000001
 11
-74.85000000000039
 21
22.00000000000001
  0
LINE
  5
1E8
100
AcDbEntity
  8
1
  6
DASH_CENTER
 62
             2
100
AcDbLine
 10
-60.0
 20
23.64999999999782
 11
-60.0
 21
20.34999999999854
  0
LINE
  5
1E7
100
AcDbEntity
  8
1
  6
DASH_CENTER
 62
             2
100
AcDbLine
 10
-61.64999999999961
 20
22.00000000000001
 11
-58.35000000000039
 21
22.00000000000001
  0
LINE
  5
1E6
100
AcDbEntity
  8
1
  6
DASH_CENTER
 62
             2
100
AcDbLine
 10
-50.0
 20
23.64999999999782
 11
-50.0
 21
20.34999999999854
  0
LINE
  5
1E5
100
AcDbEntity
  8
1
  6
DASH_CENTER
 62
             2
100
AcDbLine
 10
-51.64999999999961
 20
22.00000000000001
 11
-48.35000000000039
 21
22.00000000000001
  0
LINE
  5
1E4
100
AcDbEntity
  8
1
  6
DASH_CENTER
 62
             2
100
AcDbLine
 10
-40.0
 20
23.64999999999782
 11
-40.0
 21
20.34999999999854
  0
LINE
  5
1E3
100
AcDbEntity
  8
1
  6
DASH_CENTER
 62
             2
100
AcDbLine
 10
-41.64999999999961
 20
22.00000000000001
 11
-38.35000000000039
 21
22.00000000000001
  0
LINE
  5
1E2
100
AcDbEntity
  8
1
  6
DASH_CENTER
 62
             2
100
AcDbLine
 10
22.5
 20
10.64999999999782
 11
22.5
 21
7.34999999999854
  0
LINE
  5
1E1
100
AcDbEntity
  8
1
  6
DASH_CENTER
 62
             2
100
AcDbLine
 10
24.14999999999961
 20
9.00000000000001
 11
20.85000000000039
 21
9.00000000000001
  0
LINE
  5
1E0
100
AcDbEntity
  8
1
  6
DASH_CENTER
 62
             2
100
AcDbLine
 10
32.5
 20
10.64999999999782
 11
32.5
 21
7.34999999999854
  0
LINE
  5
1DF
100
AcDbEntity
  8
1
  6
DASH_CENTER
 62
             2
100
AcDbLine
 10
34.14999999999958
 20
9.00000000000001
 11
30.85000000000039
 21
9.00000000000001
  0
LINE
  5
1DE
100
AcDbEntity
  8
1
  6
DASH_CENTER
 62
             2
100
AcDbLine
 10
67.5
 20
10.64999999999782
 11
67.5
 21
7.34999999999854
  0
LINE
  5
1DD
100
AcDbEntity
  8
1
  6
DASH_CENTER
 62
             2
100
AcDbLine
 10
69.14999999999958
 20
9.00000000000001
 11
65.85000000000042
 21
9.00000000000001
  0
LINE
  5
1DC
100
AcDbEntity
  8
1
  6
DASH_CENTER
 62
             2
100
AcDbLine
 10
42.5
 20
10.64999999999782
 11
42.5
 21
7.34999999999854
  0
LINE
  5
1DB
100
AcDbEntity
  8
1
  6
DASH_CENTER
 62
             2
100
AcDbLine
 10
44.14999999999958
 20
9.00000000000001
 11
40.85000000000042
 21
9.00000000000001
  0
LINE
  5
1DA
100
AcDbEntity
  8
1
  6
DASH_CENTER
 62
             2
100
AcDbLine
 10
77.5
 20
10.64999999999782
 11
77.5
 21
7.34999999999854
  0
LINE
  5
1D9
100
AcDbEntity
  8
1
  6
DASH_CENTER
 62
             2
100
AcDbLine
 10
79.14999999999958
 20
9.00000000000001
 11
75.85000000000042
 21
9.00000000000001
  0
LINE
  5
1D8
100
AcDbEntity
  8
1
  6
DASH_CENTER
 62
             2
100
AcDbLine
 10
59.0
 20
10.64999999999782
 11
59.0
 21
7.34999999999854
  0
LINE
  5
1D7
100
AcDbEntity
  8
1
  6
DASH_CENTER
 62
             2
100
AcDbLine
 10
57.35000000000042
 20
9.00000000000001
 11
60.64999999999958
 21
9.00000000000001
  0
LINE
  5
1D6
100
AcDbEntity
  8
1
  6
DASH_CENTER
 62
             2
100
AcDbLine
 10
94.0
 20
10.64999999999782
 11
94.0
 21
7.34999999999854
  0
LINE
  5
1D5
100
AcDbEntity
  8
1
  6
DASH_CENTER
 62
             2
100
AcDbLine
 10
95.64999999999958
 20
9.00000000000001
 11
92.35000000000042
 21
9.00000000000001
  0
LINE
  5
1D4
100
AcDbEntity
  8
1
  6
DASH_CENTER
 62
             2
100
AcDbLine
 10
76.5
 20
-23.65000000000145
 11
76.5
 21
-20.35000000000218
  0
LINE
  5
1D3
100
AcDbEntity
  8
1
  6
DASH_CENTER
 62
             2
100
AcDbLine
 10
78.14999999999958
 20
-21.99999999999999
 11
74.85000000000042
 21
-21.99999999999999
  0
LINE
  5
1D2
100
AcDbEntity
  8
1
  6
DASH_CENTER
 62
             2
100
AcDbLine
 10
60.0
 20
-23.65000000000145
 11
60.0
 21
-20.35000000000218
  0
LINE
  5
1D1
100
AcDbEntity
  8
1
  6
DASH_CENTER
 62
             2
100
AcDbLine
 10
61.64999999999958
 20
-21.99999999999999
 11
58.35000000000042
 21
-21.99999999999999
  0
LINE
  5
1D0
100
AcDbEntity
  8
1
  6
DASH_CENTER
 62
             2
100
AcDbLine
 10
50.0
 20
-23.65000000000145
 11
50.0
 21
-20.35000000000218
  0
LINE
  5
1CF
100
AcDbEntity
  8
1
  6
DASH_CENTER
 62
             2
100
AcDbLine
 10
51.64999999999958
 20
-21.99999999999999
 11
48.35000000000042
 21
-21.99999999999999
  0
LINE
  5
1CE
100
AcDbEntity
  8
1
  6
DASH_CENTER
 62
             2
100
AcDbLine
 10
40.0
 20
-23.65000000000145
 11
40.0
 21
-20.35000000000218
  0
LINE
  5
1CD
100
AcDbEntity
  8
1
  6
DASH_CENTER
 62
             2
100
AcDbLine
 10
41.64999999999958
 20
-21.99999999999999
 11
38.35000000000042
 21
-21.99999999999999
  0
LINE
  5
1CC
100
AcDbEntity
  8
1
  6
DASH_CENTER
 62
             2
100
AcDbLine
 10
22.5
 20
-7.35000000000217
 11
22.5
 21
-10.65000000000145
  0
LINE
  5
1CB
100
AcDbEntity
  8
1
  6
DASH_CENTER
 62
             2
100
AcDbLine
 10
20.85000000000039
 20
-8.99999999999999
 11
24.14999999999961
 21
-8.99999999999999
  0
LINE
  5
1CA
100
AcDbEntity
  8
1
  6
DASH_CENTER
 62
             2
100
AcDbLine
 10
32.5
 20
-7.35000000000217
 11
32.5
 21
-10.65000000000145
  0
LINE
  5
1C9
100
AcDbEntity
  8
1
  6
DASH_CENTER
 62
             2
100
AcDbLine
 10
30.85000000000039
 20
-8.99999999999999
 11
34.14999999999958
 21
-8.99999999999999
  0
LINE
  5
1C8
100
AcDbEntity
  8
1
  6
DASH_CENTER
 62
             2
100
AcDbLine
 10
67.5
 20
-7.35000000000217
 11
67.5
 21
-10.65000000000145
  0
LINE
  5
1C7
100
AcDbEntity
  8
1
  6
DASH_CENTER
 62
             2
100
AcDbLine
 10
65.85000000000042
 20
-8.99999999999999
 11
69.14999999999958
 21
-8.99999999999999
  0
LINE
  5
1C6
100
AcDbEntity
  8
1
  6
DASH_CENTER
 62
             2
100
AcDbLine
 10
42.5
 20
-7.35000000000217
 11
42.5
 21
-10.65000000000145
  0
LINE
  5
1C5
100
AcDbEntity
  8
1
  6
DASH_CENTER
 62
             2
100
AcDbLine
 10
40.85000000000042
 20
-8.99999999999999
 11
44.14999999999958
 21
-8.99999999999999
  0
LINE
  5
1C4
100
AcDbEntity
  8
1
  6
DASH_CENTER
 62
             2
100
AcDbLine
 10
77.5
 20
-7.35000000000217
 11
77.5
 21
-10.65000000000145
  0
LINE
  5
1C3
100
AcDbEntity
  8
1
  6
DASH_CENTER
 62
             2
100
AcDbLine
 10
75.85000000000042
 20
-8.99999999999999
 11
79.14999999999958
 21
-8.99999999999999
  0
LINE
  5
1C2
100
AcDbEntity
  8
1
  6
DASH_CENTER
 62
             2
100
AcDbLine
 10
59.0
 20
-7.35000000000217
 11
59.0
 21
-10.65000000000145
  0
LINE
  5
1C1
100
AcDbEntity
  8
1
  6
DASH_CENTER
 62
             2
100
AcDbLine
 10
60.64999999999958
 20
-8.99999999999999
 11
57.35000000000042
 21
-8.99999999999999
  0
LINE
  5
1C0
100
AcDbEntity
  8
1
  6
DASH_CENTER
 62
             2
100
AcDbLine
 10
94.0
 20
-7.35000000000217
 11
94.0
 21
-10.65000000000145
  0
LINE
  5
1BF
100
AcDbEntity
  8
1
  6
DASH_CENTER
 62
             2
100
AcDbLine
 10
92.35000000000042
 20
-8.99999999999999
 11
95.64999999999958
 21
-8.99999999999999
  0
LINE
  5
1BE
100
AcDbEntity
  8
1
  6
DASH_CENTER
 62
             2
100
AcDbLine
 10
76.5
 20
20.34999999999854
 11
76.5
 21
23.64999999999782
  0
LINE
  5
1BD
100
AcDbEntity
  8
1
  6
DASH_CENTER
 62
             2
100
AcDbLine
 10
74.85000000000042
 20
22.00000000000001
 11
78.14999999999958
 21
22.00000000000001
  0
LINE
  5
1BC
100
AcDbEntity
  8
1
  6
DASH_CENTER
 62
             2
100
AcDbLine
 10
60.0
 20
20.34999999999854
 11
60.0
 21
23.64999999999782
  0
LINE
  5
1BB
100
AcDbEntity
  8
1
  6
DASH_CENTER
 62
             2
100
AcDbLine
 10
58.35000000000042
 20
22.00000000000001
 11
61.64999999999958
 21
22.00000000000001
  0
LINE
  5
1BA
100
AcDbEntity
  8
1
  6
DASH_CENTER
 62
             2
100
AcDbLine
 10
50.0
 20
20.34999999999854
 11
50.0
 21
23.64999999999782
  0
LINE
  5
1B9
100
AcDbEntity
  8
1
  6
DASH_CENTER
 62
             2
100
AcDbLine
 10
48.35000000000042
 20
22.00000000000001
 11
51.64999999999958
 21
22.00000000000001
  0
LINE
  5
1B8
100
AcDbEntity
  8
1
  6
DASH_CENTER
 62
             2
100
AcDbLine
 10
40.0
 20
20.34999999999854
 11
40.0
 21
23.64999999999782
  0
LINE
  5
1B7
100
AcDbEntity
  8
1
  6
DASH_CENTER
 62
             2
100
AcDbLine
 10
38.35000000000042
 20
22.00000000000001
 11
41.64999999999958
 21
22.00000000000001
  0
LINE
  5
1B6
100
AcDbEntity
  8
1
  6
DASH_CENTER
 62
             2
100
AcDbLine
 10
16.5
 20
6.64999999999419
 11
16.5
 21
3.34999999999855
  0
LINE
  5
1B5
100
AcDbEntity
  8
1
  6
DASH_CENTER
 62
             2
100
AcDbLine
 10
18.15000000000151
 20
5.00000000000001
 11
14.84999999999849
 21
5.00000000000001
  0
LINE
  5
1B4
100
AcDbEntity
  8
1
  6
DASH_CENTER
 62
             2
100
AcDbLine
 10
63.5
 20
6.64999999999419
 11
63.5
 21
3.34999999999855
  0
LINE
  5
1B3
100
AcDbEntity
  8
1
  6
DASH_CENTER
 62
             2
100
AcDbLine
 10
65.15000000000151
 20
5.00000000000001
 11
61.84999999999849
 21
5.00000000000001
  0
LINE
  5
1B2
100
AcDbEntity
  8
1
  6
DASH_CENTER
 62
             2
100
AcDbLine
 10
26.5
 20
6.64999999999419
 11
26.5
 21
3.34999999999855
  0
LINE
  5
1B1
100
AcDbEntity
  8
1
  6
DASH_CENTER
 62
             2
100
AcDbLine
 10
28.15000000000151
 20
5.00000000000001
 11
24.84999999999849
 21
5.00000000000001
  0
LINE
  5
1B0
100
AcDbEntity
  8
1
  6
DASH_CENTER
 62
             2
100
AcDbLine
 10
73.5
 20
6.64999999999419
 11
73.5
 21
3.34999999999855
  0
LINE
  5
1AF
100
AcDbEntity
  8
1
  6
DASH_CENTER
 62
             2
100
AcDbLine
 10
75.15000000000151
 20
5.00000000000001
 11
71.84999999999849
 21
5.00000000000001
  0
LINE
  5
1AE
100
AcDbEntity
  8
1
  6
DASH_CENTER
 62
             2
100
AcDbLine
 10
36.5
 20
6.64999999999419
 11
36.5
 21
3.34999999999855
  0
LINE
  5
1AD
100
AcDbEntity
  8
1
  6
DASH_CENTER
 62
             2
100
AcDbLine
 10
38.15000000000151
 20
5.00000000000001
 11
34.84999999999849
 21
5.00000000000001
  0
LINE
  5
1AC
100
AcDbEntity
  8
1
  6
DASH_CENTER
 62
             2
100
AcDbLine
 10
83.5
 20
6.64999999999419
 11
83.5
 21
3.34999999999855
  0
LINE
  5
1AB
100
AcDbEntity
  8
1
  6
DASH_CENTER
 62
             2
100
AcDbLine
 10
85.15000000000151
 20
5.00000000000001
 11
81.84999999999849
 21
5.00000000000001
  0
LINE
  5
1AA
100
AcDbEntity
  8
1
  6
DASH_CENTER
 62
             2
100
AcDbLine
 10
53.0
 20
6.64999999999419
 11
53.0
 21
3.34999999999855
  0
LINE
  5
1A9
100
AcDbEntity
  8
1
  6
DASH_CENTER
 62
             2
100
AcDbLine
 10
54.65000000000151
 20
5.00000000000001
 11
51.34999999999849
 21
5.00000000000001
  0
LINE
  5
1A8
100
AcDbEntity
  8
1
  6
DASH_CENTER
 62
             2
100
AcDbLine
 10
100.0
 20
6.64999999999419
 11
100.0
 21
3.34999999999855
  0
LINE
  5
1A7
100
AcDbEntity
  8
1
  6
DASH_CENTER
 62
             2
100
AcDbLine
 10
101.6500000000015
 20
5.00000000000001
 11
98.34999999999849
 21
5.00000000000001
  0
LINE
  5
1A6
100
AcDbEntity
  8
1
  6
DASH_CENTER
 62
             2
100
AcDbLine
 10
-16.5
 20
3.34999999999855
 11
-16.5
 21
6.64999999999419
  0
LINE
  5
1A5
100
AcDbEntity
  8
1
  6
DASH_CENTER
 62
             2
100
AcDbLine
 10
-14.84999999999849
 20
5.00000000000001
 11
-18.15000000000151
 21
5.00000000000001
  0
LINE
  5
1A4
100
AcDbEntity
  8
1
  6
DASH_CENTER
 62
             2
100
AcDbLine
 10
-63.5
 20
3.34999999999855
 11
-63.5
 21
6.64999999999419
  0
LINE
  5
1A3
100
AcDbEntity
  8
1
  6
DASH_CENTER
 62
             2
100
AcDbLine
 10
-61.84999999999849
 20
5.00000000000001
 11
-65.15000000000151
 21
5.00000000000001
  0
LINE
  5
1A2
100
AcDbEntity
  8
1
  6
DASH_CENTER
 62
             2
100
AcDbLine
 10
-26.5
 20
3.34999999999855
 11
-26.5
 21
6.64999999999419
  0
LINE
  5
1A1
100
AcDbEntity
  8
1
  6
DASH_CENTER
 62
             2
100
AcDbLine
 10
-24.84999999999849
 20
5.00000000000001
 11
-28.15000000000151
 21
5.00000000000001
  0
LINE
  5
1A0
100
AcDbEntity
  8
1
  6
DASH_CENTER
 62
             2
100
AcDbLine
 10
-73.5
 20
3.34999999999855
 11
-73.5
 21
6.64999999999419
  0
LINE
  5
19F
100
AcDbEntity
  8
1
  6
DASH_CENTER
 62
             2
100
AcDbLine
 10
-71.84999999999849
 20
5.00000000000001
 11
-75.15000000000151
 21
5.00000000000001
  0
LINE
  5
19E
100
AcDbEntity
  8
1
  6
DASH_CENTER
 62
             2
100
AcDbLine
 10
-36.5
 20
3.34999999999855
 11
-36.5
 21
6.64999999999419
  0
LINE
  5
19D
100
AcDbEntity
  8
1
  6
DASH_CENTER
 62
             2
100
AcDbLine
 10
-34.84999999999849
 20
5.00000000000001
 11
-38.15000000000151
 21
5.00000000000001
  0
LINE
  5
19C
100
AcDbEntity
  8
1
  6
DASH_CENTER
 62
             2
100
AcDbLine
 10
-83.5
 20
3.34999999999855
 11
-83.5
 21
6.64999999999419
  0
LINE
  5
19B
100
AcDbEntity
  8
1
  6
DASH_CENTER
 62
             2
100
AcDbLine
 10
-81.84999999999849
 20
5.00000000000001
 11
-85.15000000000151
 21
5.00000000000001
  0
LINE
  5
19A
100
AcDbEntity
  8
1
  6
DASH_CENTER
 62
             2
100
AcDbLine
 10
-53.0
 20
3.34999999999855
 11
-53.0
 21
6.64999999999419
  0
LINE
  5
199
100
AcDbEntity
  8
1
  6
DASH_CENTER
 62
             2
100
AcDbLine
 10
-51.34999999999849
 20
5.00000000000001
 11
-54.65000000000151
 21
5.00000000000001
  0
LINE
  5
198
100
AcDbEntity
  8
1
  6
DASH_CENTER
 62
             2
100
AcDbLine
 10
-100.0
 20
3.34999999999855
 11
-100.0
 21
6.64999999999419
  0
LINE
  5
197
100
AcDbEntity
  8
1
  6
DASH_CENTER
 62
             2
100
AcDbLine
 10
-98.3499999999985
 20
5.00000000000001
 11
-101.6500000000015
 21
5.00000000000001
  0
LINE
  5
196
100
AcDbEntity
  8
1
  6
CONTINUOUS
 62
             7
100
AcDbLine
 10
38.0
 20
-81.5
 11
-38.0
 21
-81.5
  0
LINE
  5
195
100
AcDbEntity
  8
1
  6
DASH_CENTER
 62
             2
100
AcDbLine
 10
-120.0
 20
8.76016932689451
 11
-120.0
 21
-11.23983067310549
  0
LINE
  5
194
100
AcDbEntity
  8
1
  6
CONTINUOUS
 62
             7
100
AcDbLine
 10
-132.0
 20
0.00000000000001
 11
-132.0
 21
7.00000000000001
  0
LINE
  5
193
100
AcDbEntity
  8
1
  6
CONTINUOUS
 62
             7
100
AcDbLine
 10
132.0
 20
0.00000000000001
 11
132.0
 21
-6.99999999999999
  0
LINE
  5
192
100
AcDbEntity
  8
1
  6
DASH_CENTER
 62
             2
100
AcDbLine
 10
120.0
 20
5.53042286950181
 11
120.0
 21
-6.46957713049819
  0
LINE
  5
191
100
AcDbEntity
  8
LC-001-002-----0
  6
CONTINUOUS
 62
             7
100
AcDbLine
 10
118.0
 20
5.00000000000001
 11
122.0
 21
5.00000000000001
  0
LINE
  5
190
100
AcDbEntity
  8
LC-001-002-----0
  6
CONTINUOUS
 62
             7
100
AcDbLine
 10
118.0
 20
-4.99999999999999
 11
117.994999999999
 21
-4.99999999999999
  0
LINE
  5
18F
100
AcDbEntity
  8
LC-001-002-----0
  6
CONTINUOUS
 62
             7
100
AcDbLine
 10
122.0
 20
-4.99999999999999
 11
118.0
 21
-4.99999999999999
  0
LINE
  5
18E
100
AcDbEntity
  8
LC-001-002-----0
  6
CONTINUOUS
 62
             7
100
AcDbLine
 10
122.0
 20
-2.99999999999999
 11
118.0
 21
-2.99999999999999
  0
LINE
  5
18D
100
AcDbEntity
  8
LC-001-002-----0
  6
CONTINUOUS
 62
             7
100
AcDbLine
 10
122.0
 20
3.00000000000001
 11
118.0
 21
3.00000000000001
  0
LINE
  5
18C
100
AcDbEntity
  8
LC-001-002-----0
  6
CONTINUOUS
 62
             7
100
AcDbLine
 10
-115.0
 20
2.00000000000001
 11
-115.0
 21
-1.99999999999998
  0
LINE
  5
18B
100
AcDbEntity
  8
LC-001-002-----0
  6
CONTINUOUS
 62
             7
100
AcDbLine
 10
-117.0
 20
2.00000000000001
 11
-117.0
 21
-1.99999999999999
  0
LINE
  5
18A
100
AcDbEntity
  8
LC-001-002-----0
  6
CONTINUOUS
 62
             7
100
AcDbLine
 10
-123.0
 20
2.00000000000001
 11
-123.0
 21
-1.99999999999999
  0
LINE
  5
189
100
AcDbEntity
  8
LC-001-002-----0
  6
CONTINUOUS
 62
             7
100
AcDbLine
 10
-125.0
 20
2.00000000000001
 11
-125.0
 21
-1.99999999999998
  0
LINE
  5
188
100
AcDbEntity
  8
1
  6
DOT_CENTER
 62
             2
100
AcDbLine
 10
106.41207623723299
 20
0.00000000000001
 11
107.0
 21
0.00000000000001
  0
LINE
  5
187
100
AcDbEntity
  8
1
  6
DASH_CENTER
 62
             2
100
AcDbLine
 10
-132.0
 20
0.00000000000001
 11
-106.41947170108099
 21
0.00000000000001
  0
LINE
  5
186
100
AcDbEntity
  8
1
  6
DASH_CENTER
 62
             2
100
AcDbLine
 10
-46.99999999999989
 20
-1.64999999999999
 11
-46.99999999999989
 21
1.65000000000001
  0
LINE
  5
185
100
AcDbEntity
  8
1
  6
DASH_CENTER
 62
             2
100
AcDbLine
 10
-45.34999999999999
 20
0.00000000000001
 11
-48.64999999999989
 21
0.00000000000001
  0
LINE
  5
184
100
AcDbEntity
  8
1
  6
DASH_CENTER
 62
             2
100
AcDbLine
 10
47.0
 20
1.65000000000001
 11
47.0
 21
-1.64999999999999
  0
LINE
  5
183
100
AcDbEntity
  8
1
  6
DASH_CENTER
 62
             2
100
AcDbLine
 10
48.64999999999998
 20
0.00000000000001
 11
45.35000000000002
 21
0.00000000000001
  0
LINE
  5
182
100
AcDbEntity
  8
1
  6
CONTINUOUS
 62
             7
100
AcDbLine
 10
75.0
 20
28.50000000000001
 11
-75.0
 21
28.50000000000001
  0
LINE
  5
181
100
AcDbEntity
  8
1
  6
DASH_CENTER
 62
             2
100
AcDbLine
 10
-27.0
 20
25.65000000001092
 11
-27.0
 21
22.35000000001093
  0
LINE
  5
180
100
AcDbEntity
  8
1
  6
DASH_CENTER
 62
             2
100
AcDbLine
 10
-25.34999999999999
 20
24.00000000001091
 11
-28.65000000000001
 21
24.00000000001091
  0
LINE
  5
17F
100
AcDbEntity
  8
1
  6
DASH_CENTER
 62
             2
100
AcDbLine
 10
38.0
 20
-11.34999999998838
 11
38.0
 21
-14.64999999998977
  0
LINE
  5
17E
100
AcDbEntity
  8
1
  6
DASH_CENTER
 62
             2
100
AcDbLine
 10
39.65000000000072
 20
-12.99999999998908
 11
36.34999999999928
 21
-12.99999999998908
  0
LINE
  5
17D
100
AcDbEntity
  8
1
  6
DASH_CENTER
 62
             2
100
AcDbLine
 10
-27.0
 20
-36.34999999998907
 11
-27.0
 21
-39.64999999998908
  0
LINE
  5
17C
100
AcDbEntity
  8
1
  6
DASH_CENTER
 62
             2
100
AcDbLine
 10
-25.34999999999999
 20
-37.99999999998908
 11
-28.65000000000001
 21
-37.99999999998908
  0
LINE
  5
17B
100
AcDbEntity
  8
1
  6
DASH_CENTER
 62
             2
100
AcDbLine
 10
38.0
 20
-73.34999999998908
 11
38.0
 21
-76.64999999998909
  0
LINE
  5
17A
100
AcDbEntity
  8
1
  6
DASH_CENTER
 62
             2
100
AcDbLine
 10
39.64999999999998
 20
-74.99999999998909
 11
36.35000000000002
 21
-74.99999999998909
  0
LINE
  5
179
100
AcDbEntity
  8
1
  6
CONTINUOUS
 62
             7
100
AcDbLine
 10
-108.0
 20
-19.99999999999999
 11
-108.0
 21
-20.49999999999999
  0
LINE
  5
178
100
AcDbEntity
  8
1
  6
CONTINUOUS
 62
             7
100
AcDbLine
 10
-108.0
 20
20.00000000000001
 11
-108.0
 21
20.50000000000001
  0
LINE
  5
177
100
AcDbEntity
  8
1
  6
CONTINUOUS
 62
             7
100
AcDbLine
 10
108.0
 20
20.00000000000001
 11
108.0
 21
20.50000000000001
  0
LINE
  5
176
100
AcDbEntity
  8
1
  6
CONTINUOUS
 62
             7
100
AcDbLine
 10
108.0
 20
-19.99999999999999
 11
108.0
 21
-20.49999999999999
  0
LINE
  5
175
100
AcDbEntity
  8
1
  6
CONTINUOUS
 62
             7
100
AcDbLine
 10
-44.0
 20
-33.49999999999999
 11
-44.0
 21
-75.49999999999999
  0
LINE
  5
174
100
AcDbEntity
  8
1
  6
CONTINUOUS
 62
             7
100
AcDbLine
 10
44.0
 20
-33.49999999999999
 11
44.0
 21
-75.49999999999999
  0
LINE
  5
173
100
AcDbEntity
  8
1
  6
CONTINUOUS
 62
             7
100
AcDbLine
 10
-100.0
 20
-28.49999999999999
 11
-75.0
 21
-28.49999999999999
  0
LINE
  5
172
100
AcDbEntity
  8
1
  6
CONTINUOUS
 62
             7
100
AcDbLine
 10
100.0
 20
28.50000000000001
 11
75.0
 21
28.50000000000001
  0
LINE
  5
171
100
AcDbEntity
  8
1
  6
CONTINUOUS
 62
             7
100
AcDbLine
 10
-75.0
 20
28.50000000000001
 11
-100.0
 21
28.50000000000001
  0
LINE
  5
170
100
AcDbEntity
  8
1
  6
CONTINUOUS
 62
             7
100
AcDbLine
 10
-75.0
 20
-28.49999999999999
 11
-49.0
 21
-28.49999999999999
  0
LINE
  5
16F
100
AcDbEntity
  8
1
  6
CONTINUOUS
 62
             7
100
AcDbLine
 10
49.0
 20
-28.49999999999999
 11
75.0
 21
-28.49999999999999
  0
LINE
  5
16E
100
AcDbEntity
  8
1
  6
CONTINUOUS
 62
             7
100
AcDbLine
 10
75.0
 20
-28.49999999999999
 11
100.0
 21
-28.49999999999999
  0
LINE
  5
16D
100
AcDbEntity
  8
1
  6
CONTINUOUS
 62
             7
100
AcDbLine
 10
113.0
 20
15.00000000000001
 11
121.0
 21
15.00000000000001
  0
LINE
  5
16C
100
AcDbEntity
  8
1
  6
CONTINUOUS
 62
             7
100
AcDbLine
 10
124.0
 20
-14.99999999999999
 11
113.0
 21
-14.99999999999999
  0
LINE
  5
16B
100
AcDbEntity
  8
1
  6
CONTINUOUS
 62
             7
100
AcDbLine
 10
132.0
 20
7.00000000000001
 11
132.0
 21
0.00000000000001
  0
LINE
  5
16A
100
AcDbEntity
  8
1
  6
CONTINUOUS
 62
             7
100
AcDbLine
 10
-113.0
 20
-14.99999999999999
 11
-124.0
 21
-14.99999999999999
  0
LINE
  5
169
100
AcDbEntity
  8
1
  6
CONTINUOUS
 62
             7
100
AcDbLine
 10
-132.0
 20
-6.99999999999999
 11
-132.0
 21
0.00000000000001
  0
LINE
  5
168
100
AcDbEntity
  8
1
  6
CONTINUOUS
 62
             7
100
AcDbLine
 10
-124.0
 20
15.00000000000001
 11
-113.0
 21
15.00000000000001
  0
LINE
  5
167
100
AcDbEntity
  8
1
  6
DASH_CENTER
 62
             2
100
AcDbLine
 10
36.64999999999998
 20
-4.99999999999999
 11
33.35000000000002
 21
-4.99999999999999
  0
LINE
  5
166
100
AcDbEntity
  8
1
  6
DASH_CENTER
 62
             2
100
AcDbLine
 10
35.0
 20
-3.34999999999999
 11
35.0
 21
-6.64999999999999
  0
LINE
  5
165
100
AcDbEntity
  8
1
  6
DASH_CENTER
 62
             2
100
AcDbLine
 10
36.64999999999998
 20
-31.99999999999999
 11
33.35000000000002
 21
-31.99999999999999
  0
LINE
  5
164
100
AcDbEntity
  8
1
  6
DASH_CENTER
 62
             2
100
AcDbLine
 10
35.0
 20
-30.34999999999999
 11
35.0
 21
-33.64999999999999
  0
LINE
  5
163
100
AcDbEntity
  8
1
  6
DASH_CENTER
 62
             2
100
AcDbLine
 10
36.64999999999998
 20
-56.99999999999999
 11
33.35000000000002
 21
-56.99999999999999
  0
LINE
  5
162
100
AcDbEntity
  8
1
  6
DASH_CENTER
 62
             2
100
AcDbLine
 10
35.0
 20
-55.34999999999998
 11
35.0
 21
-58.65000000000001
  0
LINE
  5
161
100
AcDbEntity
  8
1
  6
DASH_CENTER
 62
             2
100
AcDbLine
 10
-33.34999999999999
 20
-56.99999999999999
 11
-36.65000000000001
 21
-56.99999999999999
  0
LINE
  5
160
100
AcDbEntity
  8
1
  6
DASH_CENTER
 62
             2
100
AcDbLine
 10
-35.0
 20
-55.34999999999998
 11
-35.0
 21
-58.65000000000001
  0
LINE
  5
15F
100
AcDbEntity
  8
1
  6
DASH_CENTER
 62
             2
100
AcDbLine
 10
-33.34999999999999
 20
-31.99999999999999
 11
-36.65000000000001
 21
-31.99999999999999
  0
LINE
  5
15E
100
AcDbEntity
  8
1
  6
DASH_CENTER
 62
             2
100
AcDbLine
 10
-35.0
 20
-30.34999999999999
 11
-35.0
 21
-33.64999999999999
  0
LINE
  5
15D
100
AcDbEntity
  8
1
  6
DASH_CENTER
 62
             2
100
AcDbLine
 10
-33.34999999999999
 20
-4.99999999999999
 11
-36.65000000000001
 21
-4.99999999999999
  0
LINE
  5
15C
100
AcDbEntity
  8
1
  6
DASH_CENTER
 62
             2
100
AcDbLine
 10
-35.0
 20
-3.34999999999999
 11
-35.0
 21
-6.64999999999999
  0
LINE
  5
15B
100
AcDbEntity
  8
LC-001-002-----0
  6
CONTINUOUS
 62
             7
100
AcDbLine
 10
2.00000000000071
 20
-67.0
 11
0.0
 21
-67.0
  0
LINE
  5
15A
100
AcDbEntity
  8
LC-001-002-----0
  6
CONTINUOUS
 62
             7
100
AcDbLine
 10
2.00000000000071
 20
-65.0
 11
-1.99999999999929
 21
-65.0
  0
LINE
  5
159
100
AcDbEntity
  8
LC-001-002-----0
  6
CONTINUOUS
 62
             7
100
AcDbLine
 10
2.00000000000071
 20
-58.99999999999999
 11
-1.99999999999929
 21
-58.99999999999999
  0
LINE
  5
158
100
AcDbEntity
  8
LC-001-002-----0
  6
CONTINUOUS
 62
             7
100
AcDbLine
 10
2.00000000000071
 20
-56.99999999999999
 11
0.0
 21
-56.99999999999999
  0
LINE
  5
157
100
AcDbEntity
  8
1
  6
CONTINUOUS
 62
             7
100
AcDbLine
 10
-76.5
 20
27.50000000000001
 11
-76.5
 21
23.50000000000001
  0
LINE
  5
156
100
AcDbEntity
  8
1
  6
CONTINUOUS
 62
             7
100
AcDbLine
 10
-76.5
 20
20.50000000000001
 11
-76.5
 21
10.1180339887499
  0
LINE
  5
155
100
AcDbEntity
  8
1
  6
CONTINUOUS
 62
             7
100
AcDbLine
 10
-76.5
 20
-10.11803398874988
 11
-76.5
 21
-20.49999999999999
  0
LINE
  5
154
100
AcDbEntity
  8
1
  6
CONTINUOUS
 62
             7
100
AcDbLine
 10
-76.5
 20
-27.49999999999999
 11
-76.5
 21
-23.49999999999999
  0
LINE
  5
153
100
AcDbEntity
  8
1
  6
CONTINUOUS
 62
             7
100
AcDbLine
 10
-76.5
 20
7.88196601125011
 11
-76.5
 21
-7.8819660112501
  0
LINE
  5
152
100
AcDbEntity
  8
1
  6
CONTINUOUS
 62
             7
100
AcDbLine
 10
-60.0
 20
-27.49999999999999
 11
-60.0
 21
-23.49999999999999
  0
LINE
  5
151
100
AcDbEntity
  8
1
  6
CONTINUOUS
 62
             7
100
AcDbLine
 10
-50.0
 20
-27.49999999999999
 11
-50.0
 21
-23.49999999999999
  0
LINE
  5
150
100
AcDbEntity
  8
1
  6
CONTINUOUS
 62
             7
100
AcDbLine
 10
-40.0
 20
-27.49999999999999
 11
-40.0
 21
-23.49999999999999
  0
LINE
  5
14F
100
AcDbEntity
  8
1
  6
CONTINUOUS
 62
             7
100
AcDbLine
 10
-60.0
 20
27.50000000000001
 11
-60.0
 21
23.50000000000001
  0
LINE
  5
14E
100
AcDbEntity
  8
1
  6
CONTINUOUS
 62
             7
100
AcDbLine
 10
-50.0
 20
27.50000000000001
 11
-50.0
 21
23.50000000000001
  0
LINE
  5
14D
100
AcDbEntity
  8
1
  6
CONTINUOUS
 62
             7
100
AcDbLine
 10
-40.0
 20
27.50000000000001
 11
-40.0
 21
23.50000000000001
  0
LINE
  5
14C
100
AcDbEntity
  8
1
  6
CONTINUOUS
 62
             7
100
AcDbLine
 10
-60.0
 20
20.50000000000001
 11
-60.0
 21
10.1180339887499
  0
LINE
  5
14B
100
AcDbEntity
  8
1
  6
CONTINUOUS
 62
             7
100
AcDbLine
 10
-50.0
 20
20.50000000000001
 11
-50.0
 21
10.1180339887499
  0
LINE
  5
14A
100
AcDbEntity
  8
1
  6
CONTINUOUS
 62
             7
100
AcDbLine
 10
-40.0
 20
20.50000000000001
 11
-40.0
 21
1.50000000000001
  0
LINE
  5
149
100
AcDbEntity
  8
1
  6
CONTINUOUS
 62
             7
100
AcDbLine
 10
-60.0
 20
-10.11803398874988
 11
-60.0
 21
-20.49999999999999
  0
LINE
  5
148
100
AcDbEntity
  8
1
  6
CONTINUOUS
 62
             7
100
AcDbLine
 10
-50.0
 20
10.1180339887499
 11
-50.0
 21
-20.49999999999999
  0
LINE
  5
147
100
AcDbEntity
  8
1
  6
CONTINUOUS
 62
             7
100
AcDbLine
 10
-40.0
 20
-1.49999999999999
 11
-40.0
 21
-20.49999999999999
  0
LINE
  5
146
100
AcDbEntity
  8
1
  6
CONTINUOUS
 62
             7
100
AcDbLine
 10
-60.0
 20
-1.49999999999999
 11
-60.0
 21
-7.8819660112501
  0
LINE
  5
145
100
AcDbEntity
  8
1
  6
CONTINUOUS
 62
             7
100
AcDbLine
 10
76.5
 20
-23.49999999999999
 11
76.5
 21
-27.49999999999999
  0
LINE
  5
144
100
AcDbEntity
  8
1
  6
CONTINUOUS
 62
             7
100
AcDbLine
 10
60.0
 20
-23.49999999999999
 11
60.0
 21
-27.49999999999999
  0
LINE
  5
143
100
AcDbEntity
  8
1
  6
CONTINUOUS
 62
             7
100
AcDbLine
 10
50.0
 20
-23.49999999999999
 11
50.0
 21
-27.49999999999999
  0
LINE
  5
142
100
AcDbEntity
  8
1
  6
CONTINUOUS
 62
             7
100
AcDbLine
 10
40.0
 20
-23.49999999999999
 11
40.0
 21
-27.49999999999999
  0
LINE
  5
141
100
AcDbEntity
  8
1
  6
CONTINUOUS
 62
             7
100
AcDbLine
 10
40.0
 20
-20.49999999999999
 11
40.0
 21
-1.49999999999999
  0
LINE
  5
140
100
AcDbEntity
  8
1
  6
CONTINUOUS
 62
             7
100
AcDbLine
 10
50.0
 20
-20.49999999999999
 11
50.0
 21
20.34999999999854
  0
LINE
  5
13F
100
AcDbEntity
  8
1
  6
CONTINUOUS
 62
             7
100
AcDbLine
 10
60.0
 20
-20.49999999999999
 11
60.0
 21
-10.11803398874988
  0
LINE
  5
13E
100
AcDbEntity
  8
1
  6
CONTINUOUS
 62
             7
100
AcDbLine
 10
76.5
 20
-20.49999999999999
 11
76.5
 21
-10.11803398874988
  0
LINE
  5
13D
100
AcDbEntity
  8
1
  6
CONTINUOUS
 62
             7
100
AcDbLine
 10
76.5
 20
-7.8819660112501
 11
76.5
 21
7.88196601125011
  0
LINE
  5
13C
100
AcDbEntity
  8
1
  6
CONTINUOUS
 62
             7
100
AcDbLine
 10
60.0
 20
-7.8819660112501
 11
60.0
 21
-1.49999999999999
  0
LINE
  5
13B
100
AcDbEntity
  8
1
  6
CONTINUOUS
 62
             7
100
AcDbLine
 10
76.5
 20
23.50000000000001
 11
76.5
 21
27.50000000000001
  0
LINE
  5
13A
100
AcDbEntity
  8
1
  6
CONTINUOUS
 62
             7
100
AcDbLine
 10
60.0
 20
23.50000000000001
 11
60.0
 21
27.50000000000001
  0
LINE
  5
139
100
AcDbEntity
  8
1
  6
CONTINUOUS
 62
             7
100
AcDbLine
 10
50.0
 20
23.50000000000001
 11
50.0
 21
27.50000000000001
  0
LINE
  5
138
100
AcDbEntity
  8
1
  6
CONTINUOUS
 62
             7
100
AcDbLine
 10
40.0
 20
23.50000000000001
 11
40.0
 21
27.50000000000001
  0
LINE
  5
137
100
AcDbEntity
  8
1
  6
CONTINUOUS
 62
             7
100
AcDbLine
 10
40.0
 20
1.50000000000001
 11
40.0
 21
20.50000000000001
  0
LINE
  5
136
100
AcDbEntity
  8
1
  6
CONTINUOUS
 62
             7
100
AcDbLine
 10
60.0
 20
10.1180339887499
 11
60.0
 21
20.50000000000001
  0
LINE
  5
135
100
AcDbEntity
  8
1
  6
CONTINUOUS
 62
             7
100
AcDbLine
 10
76.5
 20
10.1180339887499
 11
76.5
 21
20.50000000000001
  0
LINE
  5
134
100
AcDbEntity
  8
1
  6
CONTINUOUS
 62
             7
100
AcDbLine
 10
-60.0
 20
7.88196601125011
 11
-60.0
 21
1.50000000000001
  0
LINE
  5
133
100
AcDbEntity
  8
1
  6
CONTINUOUS
 62
             7
100
AcDbLine
 10
60.0
 20
7.88196601125011
 11
60.0
 21
1.50000000000001
  0
LINE
  5
132
100
AcDbEntity
  8
1
  6
CONTINUOUS
 62
             7
100
AcDbLine
 10
107.0
 20
5.00000000000001
 11
101.5
 21
5.00000000000001
  0
LINE
  5
131
100
AcDbEntity
  8
1
  6
CONTINUOUS
 62
             7
100
AcDbLine
 10
98.34999999999849
 20
5.00000000000001
 11
85.0
 21
5.00000000000001
  0
LINE
  5
130
100
AcDbEntity
  8
1
  6
CONTINUOUS
 62
             7
100
AcDbLine
 10
81.84999999999849
 20
5.00000000000001
 11
75.15000000000151
 21
5.00000000000001
  0
LINE
  5
12F
100
AcDbEntity
  8
1
  6
CONTINUOUS
 62
             7
100
AcDbLine
 10
65.15000000000151
 20
5.00000000000001
 11
71.84999999999849
 21
5.00000000000001
  0
LINE
  5
12E
100
AcDbEntity
  8
1
  6
CONTINUOUS
 62
             7
100
AcDbLine
 10
36.5
 20
5.00000000000001
 11
38.0
 21
5.00000000000001
  0
LINE
  5
12D
100
AcDbEntity
  8
1
  6
CONTINUOUS
 62
             7
100
AcDbLine
 10
28.15000000000151
 20
5.00000000000001
 11
35.0
 21
5.00000000000001
  0
LINE
  5
12C
100
AcDbEntity
  8
1
  6
CONTINUOUS
 62
             7
100
AcDbLine
 10
18.15000000000151
 20
5.00000000000001
 11
24.84999999999849
 21
5.00000000000001
  0
LINE
  5
12B
100
AcDbEntity
  8
1
  6
CONTINUOUS
 62
             7
100
AcDbLine
 10
-14.84999999999849
 20
5.00000000000001
 11
14.84999999999849
 21
5.00000000000001
  0
LINE
  5
12A
100
AcDbEntity
  8
1
  6
CONTINUOUS
 62
             7
100
AcDbLine
 10
54.65000000000151
 20
5.00000000000001
 11
61.84999999999849
 21
5.00000000000001
  0
LINE
  5
129
100
AcDbEntity
  8
1
  6
CONTINUOUS
 62
             7
100
AcDbLine
 10
38.0
 20
5.00000000000001
 11
51.34999999999849
 21
5.00000000000001
  0
LINE
  5
128
100
AcDbEntity
  8
1
  6
CONTINUOUS
 62
             7
100
AcDbLine
 10
81.5
 20
0.00000000000001
 11
95.0
 21
0.00000000000001
  0
LINE
  5
127
100
AcDbEntity
  8
1
  6
CONTINUOUS
 62
             7
100
AcDbLine
 10
107.0
 20
0.00000000000001
 11
98.0
 21
0.00000000000001
  0
LINE
  5
126
100
AcDbEntity
  8
1
  6
DASH_CENTER
 62
             2
100
AcDbLine
 10
107.0
 20
0.00000000000001
 11
135.0
 21
0.00000000000001
  0
LINE
  5
125
100
AcDbEntity
  8
1
  6
CONTINUOUS
 62
             7
100
AcDbLine
 10
71.5
 20
0.00000000000001
 11
78.5
 21
0.00000000000001
  0
LINE
  5
124
100
AcDbEntity
  8
1
  6
CONTINUOUS
 62
             7
100
AcDbLine
 10
61.5
 20
0.00000000000001
 11
68.5
 21
0.00000000000001
  0
LINE
  5
123
100
AcDbEntity
  8
1
  6
CONTINUOUS
 62
             7
100
AcDbLine
 10
55.0
 20
0.00000000000001
 11
48.5
 21
0.00000000000001
  0
LINE
  5
122
100
AcDbEntity
  8
1
  6
CONTINUOUS
 62
             7
100
AcDbLine
 10
45.5
 20
0.00000000000001
 11
41.5
 21
0.00000000000001
  0
LINE
  5
121
100
AcDbEntity
  8
1
  6
CONTINUOUS
 62
             7
100
AcDbLine
 10
31.5
 20
0.00000000000001
 11
38.5
 21
0.00000000000001
  0
LINE
  5
120
100
AcDbEntity
  8
1
  6
CONTINUOUS
 62
             7
100
AcDbLine
 10
21.5
 20
0.00000000000001
 11
28.5
 21
0.00000000000001
  0
LINE
  5
11F
100
AcDbEntity
  8
1
  6
CONTINUOUS
 62
             7
100
AcDbLine
 10
-18.50000000000011
 20
0.00000000000001
 11
18.5
 21
0.00000000000001
  0
LINE
  5
11E
100
AcDbEntity
  8
1
  6
CONTINUOUS
 62
             7
100
AcDbLine
 10
58.5
 20
0.00000000000001
 11
58.0
 21
0.00000000000001
  0
LINE
  5
11D
100
AcDbEntity
  8
1
  6
CONTINUOUS
 62
             7
100
AcDbLine
 10
-24.84999999999849
 20
5.00000000000001
 11
-18.15000000000151
 21
5.00000000000001
  0
LINE
  5
11C
100
AcDbEntity
  8
1
  6
CONTINUOUS
 62
             7
100
AcDbLine
 10
-28.50000000000011
 20
0.00000000000001
 11
-21.50000000000011
 21
0.00000000000001
  0
LINE
  5
11B
100
AcDbEntity
  8
1
  6
CONTINUOUS
 62
             7
100
AcDbLine
 10
-35.00000000000011
 20
5.00000000000001
 11
-28.15000000000151
 21
5.00000000000001
  0
LINE
  5
11A
100
AcDbEntity
  8
1
  6
CONTINUOUS
 62
             7
100
AcDbLine
 10
-38.50000000000011
 20
0.00000000000001
 11
-31.50000000000011
 21
0.00000000000001
  0
LINE
  5
119
100
AcDbEntity
  8
1
  6
CONTINUOUS
 62
             7
100
AcDbLine
 10
-51.34999999999849
 20
5.00000000000001
 11
-38.0
 21
5.00000000000001
  0
LINE
  5
118
100
AcDbEntity
  8
1
  6
CONTINUOUS
 62
             7
100
AcDbLine
 10
-41.50000000000011
 20
0.00000000000001
 11
-45.50000000000011
 21
0.00000000000001
  0
LINE
  5
117
100
AcDbEntity
  8
1
  6
CONTINUOUS
 62
             7
100
AcDbLine
 10
-48.49999999999989
 20
0.00000000000001
 11
-55.00000000000011
 21
0.00000000000001
  0
LINE
  5
116
100
AcDbEntity
  8
1
  6
CONTINUOUS
 62
             7
100
AcDbLine
 10
-61.84999999999849
 20
5.00000000000001
 11
-54.65000000000151
 21
5.00000000000001
  0
LINE
  5
115
100
AcDbEntity
  8
1
  6
CONTINUOUS
 62
             7
100
AcDbLine
 10
-68.50000000000011
 20
0.00000000000001
 11
-61.50000000000011
 21
0.00000000000001
  0
LINE
  5
114
100
AcDbEntity
  8
1
  6
CONTINUOUS
 62
             7
100
AcDbLine
 10
-71.84999999999849
 20
5.00000000000001
 11
-65.15000000000151
 21
5.00000000000001
  0
LINE
  5
113
100
AcDbEntity
  8
1
  6
CONTINUOUS
 62
             7
100
AcDbLine
 10
-78.50000000000011
 20
0.00000000000001
 11
-71.50000000000011
 21
0.00000000000001
  0
LINE
  5
112
100
AcDbEntity
  8
1
  6
CONTINUOUS
 62
             7
100
AcDbLine
 10
-75.15000000000151
 20
5.00000000000001
 11
-81.84999999999849
 21
5.00000000000001
  0
LINE
  5
111
100
AcDbEntity
  8
1
  6
CONTINUOUS
 62
             7
100
AcDbLine
 10
-95.0000000000001
 20
0.00000000000001
 11
-81.50000000000011
 21
0.00000000000001
  0
LINE
  5
110
100
AcDbEntity
  8
1
  6
CONTINUOUS
 62
             7
100
AcDbLine
 10
-85.0
 20
5.00000000000001
 11
-98.3499999999985
 21
5.00000000000001
  0
LINE
  5
10F
100
AcDbEntity
  8
1
  6
CONTINUOUS
 62
             7
100
AcDbLine
 10
-101.5
 20
5.00000000000001
 11
-107.0000000000001
 21
5.00000000000001
  0
LINE
  5
10E
100
AcDbEntity
  8
1
  6
CONTINUOUS
 62
             7
100
AcDbLine
 10
-98.0000000000001
 20
0.00000000000001
 11
-107.0000000000001
 21
0.00000000000001
  0
LINE
  5
10D
100
AcDbEntity
  8
1
  6
CONTINUOUS
 62
             7
100
AcDbLine
 10
-58.0
 20
0.00000000000001
 11
-58.5
 21
0.00000000000001
  0
ENDBLK
  5
2DF
100
AcDbEntity
  8
0
100
AcDbBlockEnd
  0
BLOCK
  5
3E
100
AcDbEntity
  8
0
100
AcDbBlockBegin
  2
HL_44_MONTAGEPLATTE_ARIKEL
 70
             0
 10
-142.61487702127121
 20
96.82971902478312
 30
0.0
  3
HL_44_MONTAGEPLATTE_ARIKEL
  1

  0
ARC
  5
307
100
AcDbEntity
  8
1
  6
CONTINUOUS
 62
             7
100
AcDbCircle
 10
-26.5
 20
121.23513183709289
 40
0.5
100
AcDbArc
 50
-90.0
 51
0.0
  0
ARC
  5
306
100
AcDbEntity
  8
1
  6
CONTINUOUS
 62
             7
100
AcDbCircle
 10
-105.3094750193122
 20
121.23513183709289
 40
0.5
100
AcDbArc
 50
180.0
 51
-90.0
  0
ARC
  5
305
100
AcDbEntity
  8
1
  6
CONTINUOUS
 62
             7
100
AcDbCircle
 10
26.5
 20
121.23513183709289
 40
0.5
100
AcDbArc
 50
180.0
 51
-90.0
  0
ARC
  5
304
100
AcDbEntity
  8
1
  6
CONTINUOUS
 62
             7
100
AcDbCircle
 10
105.3094750193122
 20
121.23513183709289
 40
0.5
100
AcDbArc
 50
-90.0
 51
0.0
  0
ARC
  5
303
100
AcDbEntity
  8
1
  6
CONTINUOUS
 62
             7
100
AcDbCircle
 10
-131.0
 20
123.73513183709289
 40
1.0
100
AcDbArc
 50
180.0
 51
-90.0
  0
ARC
  5
302
100
AcDbEntity
  8
1
  6
CONTINUOUS
 62
             7
100
AcDbCircle
 10
-131.0
 20
131.73513183709289
 40
1.0
100
AcDbArc
 50
90.0
 51
180.0
  0
ARC
  5
301
100
AcDbEntity
  8
1
  6
CONTINUOUS
 62
             7
100
AcDbCircle
 10
131.0
 20
123.73513183709289
 40
1.0
100
AcDbArc
 50
-90.0
 51
0.0
  0
ARC
  5
300
100
AcDbEntity
  8
1
  6
CONTINUOUS
 62
             7
100
AcDbCircle
 10
131.0
 20
131.73513183709289
 40
1.0
100
AcDbArc
 50
0.0
 51
90.0
  0
LINE
  5
2FF
100
AcDbEntity
  8
1
  6
PHANTOM
 62
             2
100
AcDbLine
 10
0.0
 20
116.55867309528701
 11
0.0
 21
136.43152518522399
  0
LINE
  5
2FE
100
AcDbEntity
  8
1
  6
CONTINUOUS
 62
             7
100
AcDbLine
 10
108.0000000000036
 20
132.73513183709289
 11
108.0000000000036
 21
122.73513183709289
  0
LINE
  5
2FD
100
AcDbEntity
  8
1
  6
CONTINUOUS
 62
             7
100
AcDbLine
 10
44.0
 20
132.73513183709289
 11
44.0
 21
120.73513183709289
  0
LINE
  5
2FC
100
AcDbEntity
  8
1
  6
CONTINUOUS
 62
             7
100
AcDbLine
 10
-44.0
 20
120.73513183709289
 11
-105.3094750193122
 21
120.73513183709289
  0
LINE
  5
2FB
100
AcDbEntity
  8
1
  6
CONTINUOUS
 62
             7
100
AcDbLine
 10
-44.0
 20
120.73513183709289
 11
-44.0
 21
132.73513183709289
  0
LINE
  5
2FA
100
AcDbEntity
  8
1
  6
CONTINUOUS
 62
             7
100
AcDbLine
 10
-108.0000000000036
 20
132.73513183709289
 11
-107.0
 21
132.73513183709289
  0
LINE
  5
2F9
100
AcDbEntity
  8
1
  6
CONTINUOUS
 62
             7
100
AcDbLine
 10
-108.0000000000036
 20
122.73513183709289
 11
-131.0
 21
122.73513183709289
  0
LINE
  5
2F8
100
AcDbEntity
  8
1
  6
CONTINUOUS
 62
             7
100
AcDbLine
 10
-108.0000000000036
 20
122.73513183709289
 11
-108.0000000000036
 21
132.73513183709289
  0
LINE
  5
2F7
100
AcDbEntity
  8
1
  6
CONTINUOUS
 62
             7
100
AcDbLine
 10
-108.0000000000036
 20
122.73513183709289
 11
-105.8094750193122
 21
122.73513183709289
  0
LINE
  5
2F6
100
AcDbEntity
  8
1
  6
CONTINUOUS
 62
             7
100
AcDbLine
 10
-107.0
 20
132.73513183709289
 11
-95.0
 21
132.73513183709289
  0
LINE
  5
2F5
100
AcDbEntity
  8
1
  6
CONTINUOUS
 62
             7
100
AcDbLine
 10
-108.0000000000036
 20
122.73513183709289
 11
-109.5000000000036
 21
122.73513183709289
  0
LINE
  5
2F4
100
AcDbEntity
  8
1
  6
CONTINUOUS
 62
             7
100
AcDbLine
 10
-131.0
 20
132.73513183709289
 11
-108.0000000000036
 21
132.73513183709289
  0
LINE
  5
2F3
100
AcDbEntity
  8
1
  6
CONTINUOUS
 62
             7
100
AcDbLine
 10
5.02280881633851
 20
122.73513183709289
 11
26.0
 21
122.73513183709289
  0
LINE
  5
2F2
100
AcDbEntity
  8
1
  6
CONTINUOUS
 62
             7
100
AcDbLine
 10
-95.0
 20
132.73513183709289
 11
127.0
 21
132.73513183709289
  0
LINE
  5
2F1
100
AcDbEntity
  8
1
  6
CONTINUOUS
 62
             7
100
AcDbLine
 10
-5.10684071001015
 20
122.73513183709289
 11
-26.0
 21
122.73513183709289
  0
LINE
  5
2F0
100
AcDbEntity
  8
1
  6
CONTINUOUS
 62
             7
100
AcDbLine
 10
107.0
 20
132.98513183709289
 11
107.0
 21
132.73513183709289
  0
LINE
  5
2EF
100
AcDbEntity
  8
1
  6
CONTINUOUS
 62
             7
100
AcDbLine
 10
-107.0
 20
132.98513183709289
 11
107.0
 21
132.98513183709289
  0
LINE
  5
2EE
100
AcDbEntity
  8
1
  6
CONTINUOUS
 62
             7
100
AcDbLine
 10
-107.0
 20
132.73513183709289
 11
-107.0
 21
132.98513183709289
  0
LINE
  5
2ED
100
AcDbEntity
  8
1
  6
CONTINUOUS
 62
             7
100
AcDbLine
 10
-105.8094750193122
 20
122.73513183709289
 11
-108.0000000000036
 21
122.73513183709289
  0
LINE
  5
2EC
100
AcDbEntity
  8
1
  6
CONTINUOUS
 62
             7
100
AcDbLine
 10
-105.8094750193122
 20
122.73513183709289
 11
-108.0000000000036
 21
122.73513183709289
  0
LINE
  5
2EB
100
AcDbEntity
  8
1
  6
CONTINUOUS
 62
             7
100
AcDbLine
 10
-132.0
 20
123.73513183709289
 11
-132.0
 21
131.73513183709289
  0
LINE
  5
2EA
100
AcDbEntity
  8
1
  6
CONTINUOUS
 62
             7
100
AcDbLine
 10
-105.8094750193122
 20
121.23513183709289
 11
-105.8094750193122
 21
122.73513183709289
  0
LINE
  5
2E9
100
AcDbEntity
  8
1
  6
CONTINUOUS
 62
             7
100
AcDbLine
 10
131.0
 20
122.73513183709289
 11
105.8094750193122
 21
122.73513183709289
  0
LINE
  5
2E8
100
AcDbEntity
  8
1
  6
CONTINUOUS
 62
             7
100
AcDbLine
 10
105.3094750193122
 20
120.73513183709289
 11
26.5
 21
120.73513183709289
  0
LINE
  5
2E7
100
AcDbEntity
  8
1
  6
CONTINUOUS
 62
             7
100
AcDbLine
 10
105.8094750193122
 20
121.23513183709289
 11
105.8094750193122
 21
122.73513183709289
  0
LINE
  5
2E6
100
AcDbEntity
  8
1
  6
CONTINUOUS
 62
             7
100
AcDbLine
 10
5.02280881633851
 20
122.73513183709289
 11
-5.10684071001015
 21
122.73513183709289
  0
LINE
  5
2E5
100
AcDbEntity
  8
1
  6
CONTINUOUS
 62
             7
100
AcDbLine
 10
26.0
 20
121.23513183709289
 11
26.0
 21
122.73513183709289
  0
LINE
  5
2E4
100
AcDbEntity
  8
1
  6
CONTINUOUS
 62
             7
100
AcDbLine
 10
-26.5
 20
120.73513183709289
 11
-44.0
 21
120.73513183709289
  0
LINE
  5
2E3
100
AcDbEntity
  8
1
  6
CONTINUOUS
 62
             7
100
AcDbLine
 10
-26.0
 20
121.23513183709289
 11
-26.0
 21
122.73513183709289
  0
LINE
  5
2E2
100
AcDbEntity
  8
1
  6
CONTINUOUS
 62
             7
100
AcDbLine
 10
127.0
 20
132.73513183709289
 11
131.0
 21
132.73513183709289
  0
LINE
  5
2E1
100
AcDbEntity
  8
1
  6
CONTINUOUS
 62
             7
100
AcDbLine
 10
-109.5000000000036
 20
122.73513183709289
 11
-108.0000000000036
 21
122.73513183709289
  0
LINE
  5
2E0
100
AcDbEntity
  8
1
  6
CONTINUOUS
 62
             7
100
AcDbLine
 10
132.0
 20
131.73513183709289
 11
132.0
 21
123.73513183709289
  0
ENDBLK
  5
308
100
AcDbEntity
  8
0
100
AcDbBlockEnd
  0
BLOCK
  5
30B
100
AcDbEntity
  8
0
100
AcDbBlockBegin
  2
*D9
 70
             1
 10
0.0
 20
0.0
 30
0.0
  3
*D9
  1

  0
LINE
  5
30C
100
AcDbEntity
  8
0
  6
CONTINUOUS
 62
             4
100
AcDbLine
 10
148.76125019582699
 20
-28.49999999999999
 11
148.76125019582699
 21
28.50000000000001
  0
LINE
  5
30D
100
AcDbEntity
  8
0
  6
CONTINUOUS
 62
             4
100
AcDbLine
 10
75.0
 20
28.50000000000001
 11
150.76125019582699
 21
28.50000000000001
  0
LINE
  5
30E
100
AcDbEntity
  8
0
  6
CONTINUOUS
 62
             4
100
AcDbLine
 10
100.0
 20
-28.49999999999999
 11
150.76125019582699
 21
-28.49999999999999
  0
SOLID
  5
30F
100
AcDbEntity
  8
0
 62
             4
100
AcDbTrace
 10
149.68281767893876
 20
21.50000000000001
 11
147.83968271271522
 21
21.50000000000001
 12
148.76125019582699
 22
28.50000000000001
 13
148.76125019582699
 23
28.50000000000001
  0
SOLID
  5
310
100
AcDbEntity
  8
0
 62
             4
100
AcDbTrace
 10
147.83968271271522
 20
-21.49999999999999
 11
149.68281767893876
 21
-21.49999999999999
 12
148.76125019582699
 22
-28.49999999999999
 13
148.76125019582699
 23
-28.49999999999999
  0
MTEXT
  5
312
100
AcDbEntity
  8
0
 62
             1
100
AcDbMText
 10
146.76125019582699
 20
-5.38887748994435
 30
0.0
 40
7.0
 41
0.0
 71
             7
 72
             1
  1
57
  7
CONVERTER_2
 11
0.0
 21
1.0
 31
0.0
  0
ENDBLK
  5
313
100
AcDbEntity
  8
0
100
AcDbBlockEnd
  0
BLOCK
  5
317
100
AcDbEntity
  8
0
100
AcDbBlockBegin
  2
*D10
 70
             1
 10
0.0
 20
0.0
 30
0.0
  3
*D10
  1

  0
LINE
  5
318
100
AcDbEntity
  8
0
  6
CONTINUOUS
 62
             4
100
AcDbLine
 10
165.73516581929499
 20
-81.5
 11
165.73516581929499
 21
28.50000000000001
  0
LINE
  5
319
100
AcDbEntity
  8
0
  6
CONTINUOUS
 62
             4
100
AcDbLine
 10
75.0
 20
28.50000000000001
 11
167.73516581929499
 21
28.50000000000001
  0
LINE
  5
31A
100
AcDbEntity
  8
0
  6
CONTINUOUS
 62
             4
100
AcDbLine
 10
37.99999999999999
 20
-81.5
 11
167.73516581929499
 21
-81.5
  0
SOLID
  5
31B
100
AcDbEntity
  8
0
 62
             4
100
AcDbTrace
 10
166.65673330240676
 20
21.50000000000001
 11
164.81359833618322
 21
21.50000000000001
 12
165.73516581929499
 22
28.50000000000001
 13
165.73516581929499
 23
28.50000000000001
  0
SOLID
  5
31C
100
AcDbEntity
  8
0
 62
             4
100
AcDbTrace
 10
164.81359833618322
 20
-74.5
 11
166.65673330240676
 21
-74.5
 12
165.73516581929499
 22
-81.5
 13
165.73516581929499
 23
-81.5
  0
MTEXT
  5
31D
100
AcDbEntity
  8
0
 62
             1
100
AcDbMText
 10
163.73516581929499
 20
-39.4773918284795
 30
0.0
 40
7.0
 41
0.0
 71
             7
 72
             1
  1
110
  7
CONVERTER_2
 11
0.0
 21
1.0
 31
0.0
  0
ENDBLK
  5
31E
100
AcDbEntity
  8
0
100
AcDbBlockEnd
  0
BLOCK
  5
322
100
AcDbEntity
  8
0
100
AcDbBlockBegin
  2
*D11
 70
             1
 10
0.0
 20
0.0
 30
0.0
  3
*D11
  1

  0
LINE
  5
323
100
AcDbEntity
  8
0
  6
CONTINUOUS
 62
             4
100
AcDbLine
 10
-132.0
 20
88.0207640752609
 11
132.0
 21
88.0207640752609
  0
LINE
  5
324
100
AcDbEntity
  8
0
  6
CONTINUOUS
 62
             4
100
AcDbLine
 10
132.0
 20
7.0
 11
132.0
 21
90.0207640752609
  0
LINE
  5
325
100
AcDbEntity
  8
0
  6
CONTINUOUS
 62
             4
100
AcDbLine
 10
-132.0
 20
7.0
 11
-132.0
 21
90.0207640752609
  0
SOLID
  5
326
100
AcDbEntity
  8
0
 62
             4
100
AcDbTrace
 10
-125.0
 20
88.94233155837267
 11
-125.0
 21
87.09919659214913
 12
-132.0
 22
88.0207640752609
 13
-132.0
 23
88.0207640752609
  0
SOLID
  5
327
100
AcDbEntity
  8
0
 62
             4
100
AcDbTrace
 10
125.0
 20
87.09919659214913
 11
125.0
 21
88.94233155837267
 12
132.0
 22
88.0207640752609
 13
132.0
 23
88.0207640752609
  0
MTEXT
  5
328
100
AcDbEntity
  8
0
 62
             1
100
AcDbMText
 10
-22.4505749573813
 20
90.0207640752609
 30
0.0
 40
7.0
 41
0.0
 71
             7
 72
             1
  1
264
  7
CONVERTER_2
 11
0.99999999999706
 21
0.00000242406841
 31
0.0
  0
ENDBLK
  5
329
100
AcDbEntity
  8
0
100
AcDbBlockEnd
  0
BLOCK
  5
32D
100
AcDbEntity
  8
0
100
AcDbBlockBegin
  2
*D12
 70
             1
 10
0.0
 20
0.0
 30
0.0
  3
*D12
  1

  0
LINE
  5
32E
100
AcDbEntity
  8
0
  6
CONTINUOUS
 62
             4
100
AcDbLine
 10
-40.00000000000001
 20
37.50000000000001
 11
39.99999999999999
 21
37.50000000000001
  0
LINE
  5
32F
100
AcDbEntity
  8
0
  6
CONTINUOUS
 62
             4
100
AcDbLine
 10
39.99999999999999
 20
27.50000000000001
 11
39.99999999999999
 21
39.50000000000001
  0
LINE
  5
330
100
AcDbEntity
  8
0
  6
CONTINUOUS
 62
             4
100
AcDbLine
 10
-40.00000000000001
 20
27.50000000000001
 11
-40.00000000000001
 21
39.50000000000001
  0
SOLID
  5
331
100
AcDbEntity
  8
0
 62
             4
100
AcDbTrace
 10
-33.00000000000001
 20
38.42156748311178
 11
-33.00000000000001
 21
36.57843251688824
 12
-40.00000000000001
 22
37.50000000000001
 13
-40.00000000000001
 23
37.50000000000001
  0
SOLID
  5
332
100
AcDbEntity
  8
0
 62
             4
100
AcDbTrace
 10
32.99999999999999
 20
36.57843251688824
 11
32.99999999999999
 21
38.42156748311178
 12
39.99999999999999
 22
37.50000000000001
 13
39.99999999999999
 23
37.50000000000001
  0
MTEXT
  5
333
100
AcDbEntity
  8
0
 62
             1
100
AcDbMText
 10
-5.05461005911388
 20
39.50000000000001
 30
0.0
 40
7.0
 41
0.0
 71
             7
 72
             1
  1
80
  7
CONVERTER_2
 11
0.99999999999706
 21
0.00000242406841
 31
0.0
  0
ENDBLK
  5
334
100
AcDbEntity
  8
0
100
AcDbBlockEnd
  0
BLOCK
  5
338
100
AcDbEntity
  8
0
100
AcDbBlockBegin
  2
*D13
 70
             1
 10
0.0
 20
0.0
 30
0.0
  3
*D13
  1

  0
LINE
  5
339
100
AcDbEntity
  8
0
  6
CONTINUOUS
 62
             4
100
AcDbLine
 10
-50.0
 20
51.6480877392588
 11
50.0
 21
51.6480877392588
  0
LINE
  5
33A
100
AcDbEntity
  8
0
  6
CONTINUOUS
 62
             4
100
AcDbLine
 10
50.0
 20
27.50000000000001
 11
50.0
 21
53.6480877392588
  0
LINE
  5
33B
100
AcDbEntity
  8
0
  6
CONTINUOUS
 62
             4
100
AcDbLine
 10
-50.0
 20
27.50000000000001
 11
-50.0
 21
53.6480877392588
  0
SOLID
  5
33C
100
AcDbEntity
  8
0
 62
             4
100
AcDbTrace
 10
-43.0
 20
52.56965522237057
 11
-43.0
 21
50.72652025614703
 12
-50.0
 22
51.6480877392588
 13
-50.0
 23
51.6480877392588
  0
SOLID
  5
33D
100
AcDbEntity
  8
0
 62
             4
100
AcDbTrace
 10
43.0
 20
50.72652025614703
 11
43.0
 21
52.56965522237057
 12
50.0
 22
51.6480877392588
 13
50.0
 23
51.6480877392588
  0
MTEXT
  5
33E
100
AcDbEntity
  8
0
 62
             1
100
AcDbMText
 10
5.2727210223535
 20
53.6480877392588
 30
0.0
 40
7.0
 41
0.0
 71
             7
 72
             1
  1
100
  7
CONVERTER_2
 11
0.99999999999706
 21
0.00000242406841
 31
0.0
  0
ENDBLK
  5
33F
100
AcDbEntity
  8
0
100
AcDbBlockEnd
  0
BLOCK
  5
343
100
AcDbEntity
  8
0
100
AcDbBlockBegin
  2
*D14
 70
             1
 10
0.0
 20
0.0
 30
0.0
  3
*D14
  1

  0
LINE
  5
344
100
AcDbEntity
  8
0
  6
CONTINUOUS
 62
             4
100
AcDbLine
 10
-60.0
 20
64.3785244568595
 11
59.99999999999999
 21
64.3785244568595
  0
LINE
  5
345
100
AcDbEntity
  8
0
  6
CONTINUOUS
 62
             4
100
AcDbLine
 10
59.99999999999999
 20
27.50000000000001
 11
59.99999999999999
 21
66.3785244568595
  0
LINE
  5
346
100
AcDbEntity
  8
0
  6
CONTINUOUS
 62
             4
100
AcDbLine
 10
-60.0
 20
27.50000000000001
 11
-60.0
 21
66.3785244568595
  0
SOLID
  5
347
100
AcDbEntity
  8
0
 62
             4
100
AcDbTrace
 10
-53.0
 20
65.30009193997127
 11
-53.0
 21
63.45695697374772
 12
-60.0
 22
64.3785244568595
 13
-60.0
 23
64.3785244568595
  0
SOLID
  5
348
100
AcDbEntity
  8
0
 62
             4
100
AcDbTrace
 10
52.99999999999999
 20
63.45695697374772
 11
52.99999999999999
 21
65.30009193997127
 12
59.99999999999999
 22
64.3785244568595
 13
59.99999999999999
 23
64.3785244568595
  0
MTEXT
  5
349
100
AcDbEntity
  8
0
 62
             1
100
AcDbMText
 10
-18.0664129599145
 20
66.3785244568595
 30
0.0
 40
7.0
 41
0.0
 71
             7
 72
             1
  1
120
  7
CONVERTER_2
 11
0.99999999999706
 21
0.00000242406841
 31
0.0
  0
ENDBLK
  5
34A
100
AcDbEntity
  8
0
100
AcDbBlockEnd
  0
BLOCK
  5
34E
100
AcDbEntity
  8
0
100
AcDbBlockBegin
  2
*D15
 70
             1
 10
0.0
 20
0.0
 30
0.0
  3
*D15
  1

  0
LINE
  5
34F
100
AcDbEntity
  8
0
  6
CONTINUOUS
 62
             4
100
AcDbLine
 10
-76.5
 20
75.89653862992689
 11
76.5
 21
75.89653862992689
  0
LINE
  5
350
100
AcDbEntity
  8
0
  6
CONTINUOUS
 62
             4
100
AcDbLine
 10
76.5
 20
27.50000000000001
 11
76.5
 21
77.89653862992689
  0
LINE
  5
351
100
AcDbEntity
  8
0
  6
CONTINUOUS
 62
             4
100
AcDbLine
 10
-76.5
 20
27.50000000000001
 11
-76.5
 21
77.89653862992689
  0
SOLID
  5
352
100
AcDbEntity
  8
0
 62
             4
100
AcDbTrace
 10
-69.5
 20
76.81810611303867
 11
-69.5
 21
74.97497114681512
 12
-76.5
 22
75.89653862992689
 13
-76.5
 23
75.89653862992689
  0
SOLID
  5
353
100
AcDbEntity
  8
0
 62
             4
100
AcDbTrace
 10
69.5
 20
74.97497114681512
 11
69.5
 21
76.81810611303867
 12
76.5
 22
75.89653862992689
 13
76.5
 23
75.89653862992689
  0
MTEXT
  5
354
100
AcDbEntity
  8
0
 62
             1
100
AcDbMText
 10
7.0913548391536
 20
77.89653862992689
 30
0.0
 40
7.0
 41
0.0
 71
             7
 72
             1
  1
153
  7
CONVERTER_2
 11
0.99999999999706
 21
0.00000242406841
 31
0.0
  0
ENDBLK
  5
355
100
AcDbEntity
  8
0
100
AcDbBlockEnd
  0
BLOCK
  5
359
100
AcDbEntity
  8
0
100
AcDbBlockBegin
  2
*D16
 70
             1
 10
0.0
 20
0.0
 30
0.0
  3
*D16
  1

  0
LINE
  5
35A
100
AcDbEntity
  8
0
  6
CONTINUOUS
 62
             4
100
AcDbLine
 10
-44.0
 20
-99.2985190551495
 11
44.0
 21
-99.2985190551495
  0
LINE
  5
35B
100
AcDbEntity
  8
0
  6
CONTINUOUS
 62
             4
100
AcDbLine
 10
44.0
 20
-75.49999999999999
 11
44.0
 21
-101.2985190551495
  0
LINE
  5
35C
100
AcDbEntity
  8
0
  6
CONTINUOUS
 62
             4
100
AcDbLine
 10
-44.0
 20
-75.49999999999999
 11
-44.0
 21
-101.2985190551495
  0
SOLID
  5
35D
100
AcDbEntity
  8
0
 62
             4
100
AcDbTrace
 10
-37.0
 20
-98.37695157203773
 11
-37.0
 21
-100.22008653826127
 12
-44.0
 22
-99.2985190551495
 13
-44.0
 23
-99.2985190551495
  0
SOLID
  5
35E
100
AcDbEntity
  8
0
 62
             4
100
AcDbTrace
 10
37.0
 20
-100.22008653826127
 11
37.0
 21
-98.37695157203773
 12
44.0
 22
-99.2985190551495
 13
44.0
 23
-99.2985190551495
  0
MTEXT
  5
35F
100
AcDbEntity
  8
0
 62
             1
100
AcDbMText
 10
-5.66082133138059
 20
-97.2985190551495
 30
0.0
 40
7.0
 41
0.0
 71
             7
 72
             1
  1
88
  7
CONVERTER_2
 11
0.99999999999706
 21
0.00000242406841
 31
0.0
  0
ENDBLK
  5
360
100
AcDbEntity
  8
0
100
AcDbBlockEnd
  0
BLOCK
  5
364
100
AcDbEntity
  8
0
100
AcDbBlockBegin
  2
*D17
 70
             1
 10
0.0
 20
0.0
 30
0.0
  3
*D17
  1

  0
LINE
  5
365
100
AcDbEntity
  8
0
  6
CONTINUOUS
 62
             4
100
AcDbLine
 10
148.77732374993101
 20
102.723350869863
 11
148.77732374993101
 21
120.73513183709292
  0
LINE
  5
366
100
AcDbEntity
  8
0
  6
CONTINUOUS
 62
             4
100
AcDbLine
 10
148.77732374993101
 20
120.73513183709292
 11
148.77732374993101
 21
132.73513183709292
  0
LINE
  5
367
100
AcDbEntity
  8
0
  6
CONTINUOUS
 62
             4
100
AcDbLine
 10
148.77732374993101
 20
132.73513183709292
 11
148.77732374993101
 21
146.73513183709292
  0
LINE
  5
368
100
AcDbEntity
  8
0
  6
CONTINUOUS
 62
             4
100
AcDbLine
 10
105.30947501931223
 20
120.73513183709292
 11
150.77732374993101
 21
120.73513183709292
  0
LINE
  5
369
100
AcDbEntity
  8
0
  6
CONTINUOUS
 62
             4
100
AcDbLine
 10
127.0
 20
132.73513183709292
 11
150.77732374993101
 21
132.73513183709292
  0
SOLID
  5
36A
100
AcDbEntity
  8
0
 62
             4
100
AcDbTrace
 10
147.85575626681924
 20
139.73513183709292
 11
149.69889123304279
 21
139.73513183709292
 12
148.77732374993101
 22
132.73513183709292
 13
148.77732374993101
 23
132.73513183709292
  0
SOLID
  5
36B
100
AcDbEntity
  8
0
 62
             4
100
AcDbTrace
 10
149.69889123304279
 20
113.73513183709292
 11
147.85575626681924
 21
113.73513183709292
 12
148.77732374993101
 22
120.73513183709292
 13
148.77732374993101
 23
120.73513183709292
  0
MTEXT
  5
36C
100
AcDbEntity
  8
0
 62
             1
100
AcDbMText
 10
146.77732374993101
 20
102.723350869863
 30
0.0
 40
7.0
 41
0.0
 71
             7
 72
             1
  1
12
  7
CONVERTER_2
 11
0.0
 21
1.0
 31
0.0
  0
ENDBLK
  5
36D
100
AcDbEntity
  8
0
100
AcDbBlockEnd
  0
ENDSEC
  0
SECTION
  2
ENTITIES
  0
DIMENSION
  5
36F
100
AcDbEntity
  8
1
100
AcDbDimension
  2
*D17
 10
148.77732374993101
 20
132.73513183709292
 11
143.27732374993101
 21
106.923350869863
 31
0.0
 53
-90.0
  1
<>
  3
ME10_DIM_8
100
AcDbAlignedDimension
 13
105.3094750193122
 23
120.73513183709289
 14
127.0
 24
132.73513183709289
 50
-90.0
100
AcDbRotatedDimension
  0
DIMENSION
  5
362
100
AcDbEntity
  8
1
100
AcDbDimension
  2
*D16
 10
-44.0
 20
-99.2985190551495
 11
-0.41082133138059
 21
-93.7985190551495
 31
0.0
 53
0.00013888888889
  1
<>
  3
ME10_DIM_7
100
AcDbAlignedDimension
 13
44.0
 23
-75.49999999999999
 14
-44.0
 24
-75.49999999999999
100
AcDbRotatedDimension
  0
DIMENSION
  5
357
100
AcDbEntity
  8
1
100
AcDbDimension
  2
*D15
 10
-76.5
 20
75.89653862992689
 11
14.4413548391536
 21
81.39653862992689
 31
0.0
 53
0.00013888888889
  1
<>
  3
ME10_DIM_6
100
AcDbAlignedDimension
 13
76.5
 23
27.50000000000001
 14
-76.5
 24
27.50000000000001
100
AcDbRotatedDimension
  0
DIMENSION
  5
34C
100
AcDbEntity
  8
1
100
AcDbDimension
  2
*D14
 10
-60.0
 20
64.3785244568595
 11
-10.7164129599145
 21
69.8785244568595
 31
0.0
 53
0.00013888888889
  1
<>
  3
ME10_DIM_5
100
AcDbAlignedDimension
 13
60.0
 23
27.50000000000001
 14
-60.0
 24
27.50000000000001
100
AcDbRotatedDimension
  0
DIMENSION
  5
341
100
AcDbEntity
  8
1
100
AcDbDimension
  2
*D13
 10
-50.0
 20
51.6480877392588
 11
12.6227210223535
 21
57.1480877392588
 31
0.0
 53
0.00013888888889
  1
<>
  3
ME10_DIM_4
100
AcDbAlignedDimension
 13
50.0
 23
27.50000000000001
 14
-50.0
 24
27.50000000000001
100
AcDbRotatedDimension
  0
DIMENSION
  5
336
100
AcDbEntity
  8
1
100
AcDbDimension
  2
*D12
 10
-40.00000000000001
 20
37.50000000000001
 11
0.19538994088612
 21
43.00000000000001
 31
0.0
 53
0.00013888888889
  1
<>
  3
ME10_DIM_3
100
AcDbAlignedDimension
 13
40.0
 23
27.50000000000001
 14
-40.0
 24
27.50000000000001
100
AcDbRotatedDimension
  0
DIMENSION
  5
32B
100
AcDbEntity
  8
1
100
AcDbDimension
  2
*D11
 10
-132.0
 20
88.0207640752609
 11
-14.0505749573813
 21
93.5207640752609
 31
0.0
 53
0.00013888888889
  1
<>
  3
ME10_DIM_2
100
AcDbAlignedDimension
 13
132.0
 23
7.00000000000001
 14
-132.0
 24
7.00000000000001
100
AcDbRotatedDimension
  0
DIMENSION
  5
320
100
AcDbEntity
  8
1
100
AcDbDimension
  2
*D10
 10
165.73516581929499
 20
28.50000000000001
 11
160.23516581929499
 21
-33.1773918284795
 31
0.0
 53
-90.0
  1
<>
  3
ME10_DIM_1
100
AcDbAlignedDimension
 13
38.0
 23
-81.5
 14
75.0
 24
28.50000000000001
 50
-90.0
100
AcDbRotatedDimension
  0
DIMENSION
  5
315
100
AcDbEntity
  8
1
100
AcDbDimension
  2
*D9
 10
148.76125019582699
 20
28.50000000000001
 11
143.26125019582699
 21
-0.13887748994435
 31
0.0
 53
-90.0
  1
<>
  3
ME10_DIM_0
100
AcDbAlignedDimension
 13
100.0
 23
-28.49999999999999
 14
75.0
 24
28.50000000000001
 50
-90.0
100
AcDbRotatedDimension
  0
INSERT
  5
41
100
AcDbEntity
  8
1
100
AcDbBlockReference
  2
0405_8E
 10
-67.05798749034877
 20
-103.9109349507962
  0
INSERT
  5
42
100
AcDbEntity
  8
1
100
AcDbBlockReference
  2
HL_44_MONTAGEPLATTE__6
 10
0.0
 20
0.0
  0
INSERT
  5
43
100
AcDbEntity
  8
1
100
AcDbBlockReference
  2
HL_44_MONTAGEPLATTE_ARIKEL
 10
-142.61487702127121
 20
96.82971902478312
  0
ENDSEC
  0
SECTION
  2
OBJECTS
  0
DICTIONARY
  5
19
100
AcDbDictionary
  3
ACAD_GROUP
350
1A
  3
ACAD_MLINESTYLE
350
1B
  0
DICTIONARY
  5
1A
102
{ACAD_REACTORS
330
19
102
}
100
AcDbDictionary
  0
DICTIONARY
  5
1B
102
{ACAD_REACTORS
330
19
102
}
100
AcDbDictionary
  3
STANDARD
350
1C
  0
MLINESTYLE
  5
1C
102
{ACAD_REACTORS
330
1B
102
}
100
AcDbMlineStyle
  2
STANDARD
 70
             0
  3

 62
             0
 51
90.0
 52
90.0
 71
             2
 49
0.5
 62
           256
  6
BYLAYER
 49
-0.5
 62
           256
  6
BYLAYER
  0
ENDSEC
  0
EOF
