  0
SECTION
  2
HEADER
  9
$ACADVER
  1
AC1014
  9
$ACADMAINTVER
 70
             0
  9
$DWGCODEPAGE
  3
ANSI_1252
  9
$INSBASE
 10
0.0
 20
0.0
 30
0.0
  9
$EXTMIN
 10
-97.8165884627325
 20
-180.21927191874599
 30
0.0
  9
$EXTMAX
 10
254.55457202718699
 20
-37.6369602353999
 30
0.0
  9
$LIMMIN
 10
0.0
 20
0.0
  9
$LIMMAX
 10
0.0
 20
0.0
  9
$ORTHOMODE
 70
             0
  9
$REGENMODE
 70
             1
  9
$FILLMODE
 70
             1
  9
$QTEXTMODE
 70
             0
  9
$MIRRTEXT
 70
             1
  9
$DRAGMODE
 70
             2
  9
$LTSCALE
 40
1.0
  9
$OSMODE
 70
             0
  9
$ATTMODE
 70
             1
  9
$TEXTSIZE
 40
0.2
  9
$TRACEWID
 40
0.05
  9
$TEXTSTYLE
  7
STANDARD
  9
$CLAYER
  8
0
  9
$CELTYPE
  6
CONTINUOUS
  9
$CECOLOR
 62
           256
  9
$CELTSCALE
 40
1.0
  9
$DELOBJ
 70
             1
  9
$DISPSILH
 70
             0
  9
$DIMSCALE
 40
1.0
  9
$DIMASZ
 40
0.18
  9
$DIMEXO
 40
0.0625
  9
$DIMDLI
 40
0.38
  9
$DIMRND
 40
0.0
  9
$DIMDLE
 40
0.0
  9
$DIMEXE
 40
0.18
  9
$DIMTP
 40
0.0
  9
$DIMTM
 40
0.0
  9
$DIMTXT
 40
0.18
  9
$DIMCEN
 40
0.09
  9
$DIMTSZ
 40
0.0
  9
$DIMTOL
 70
             0
  9
$DIMLIM
 70
             0
  9
$DIMTIH
 70
             1
  9
$DIMTOH
 70
             1
  9
$DIMSE1
 70
             0
  9
$DIMSE2
 70
             0
  9
$DIMTAD
 70
             0
  9
$DIMZIN
 70
             0
  9
$DIMBLK
  1

  9
$DIMASO
 70
             1
  9
$DIMSHO
 70
             1
  9
$DIMPOST
  1

  9
$DIMAPOST
  1

  9
$DIMALT
 70
             0
  9
$DIMALTD
 70
             2
  9
$DIMALTF
 40
25.4
  9
$DIMLFAC
 40
1.0
  9
$DIMTOFL
 70
             0
  9
$DIMTVP
 40
0.0
  9
$DIMTIX
 70
             0
  9
$DIMSOXD
 70
             0
  9
$DIMSAH
 70
             0
  9
$DIMBLK1
  1

  9
$DIMBLK2
  1

  9
$DIMSTYLE
  2
STANDARD
  9
$DIMCLRD
 70
             0
  9
$DIMCLRE
 70
             0
  9
$DIMCLRT
 70
             0
  9
$DIMTFAC
 40
1.0
  9
$DIMGAP
 40
0.09
  9
$DIMJUST
 70
             0
  9
$DIMSD1
 70
             0
  9
$DIMSD2
 70
             0
  9
$DIMTOLJ
 70
             1
  9
$DIMTZIN
 70
             0
  9
$DIMALTZ
 70
             0
  9
$DIMALTTZ
 70
             0
  9
$DIMFIT
 70
             3
  9
$DIMUPT
 70
             0
  9
$DIMUNIT
 70
             2
  9
$DIMDEC
 70
             4
  9
$DIMTDEC
 70
             4
  9
$DIMALTU
 70
             2
  9
$DIMALTTD
 70
             2
  9
$DIMTXSTY
  7
STANDARD
  9
$DIMAUNIT
 70
             0
  9
$LUNITS
 70
             2
  9
$LUPREC
 70
             4
  9
$SKETCHINC
 40
0.1
  9
$FILLETRAD
 40
0.0
  9
$AUNITS
 70
             0
  9
$AUPREC
 70
             0
  9
$MENU
  1
acad
  9
$ELEVATION
 40
0.0
  9
$PELEVATION
 40
0.0
  9
$THICKNESS
 40
0.0
  9
$LIMCHECK
 70
             0
  9
$BLIPMODE
 70
             1
  9
$CHAMFERA
 40
0.0
  9
$CHAMFERB
 40
0.0
  9
$CHAMFERC
 40
0.0
  9
$CHAMFERD
 40
0.0
  9
$SKPOLY
 70
             0
  9
$TDCREATE
 40
0.000000000
  9
$TDUPDATE
 40
0.000000000
  9
$TDINDWG
 40
0.0000000000
  9
$TDUSRTIMER
 40
0.0000000000
  9
$USRTIMER
 70
             1
  9
$ANGBASE
 50
0.0
  9
$ANGDIR
 70
             0
  9
$PDMODE
 70
             0
  9
$PDSIZE
 40
0.0
  9
$PLINEWID
 40
0.0
  9
$COORDS
 70
             0
  9
$SPLFRAME
 70
             0
  9
$SPLINETYPE
 70
             6
  9
$SPLINESEGS
 70
             8
  9
$ATTDIA
 70
             0
  9
$ATTREQ
 70
             1
  9
$HANDLING
 70
             1
  9
$HANDSEED
  5
171
  9
$SURFTAB1
 70
             6
  9
$SURFTAB2
 70
             6
  9
$SURFTYPE
 70
             6
  9
$SURFU
 70
             6
  9
$SURFV
 70
             6
  9
$UCSNAME
  2

  9
$UCSORG
 10
0.0
 20
0.0
 30
0.0
  9
$UCSXDIR
 10
1.0
 20
0.0
 30
0.0
  9
$UCSYDIR
 10
0.0
 20
1.0
 30
0.0
  9
$PUCSNAME
  2

  9
$PUCSORG
 10
0.0
 20
0.0
 30
0.0
  9
$PUCSXDIR
 10
1.0
 20
0.0
 30
0.0
  9
$PUCSYDIR
 10
0.0
 20
1.0
 30
0.0
  9
$USERI1
 70
             0
  9
$USERI2
 70
             0
  9
$USERI3
 70
             0
  9
$USERI4
 70
             0
  9
$USERI5
 70
             0
  9
$USERR1
 40
12.01
  9
$USERR2
 40
0.0
  9
$USERR3
 40
0.0
  9
$USERR4
 40
0.0
  9
$USERR5
 40
0.0
  9
$WORLDVIEW
 70
             1
  9
$SHADEDGE
 70
             3
  9
$SHADEDIF
 70
            70
  9
$TILEMODE
 70
             1
  9
$MAXACTVP
 70
            16
  9
$PINSBASE
 10
0.0
 20
0.0
 30
0.0
  9
$PLIMCHECK
 70
             0
  9
$PEXTMIN
 10
1.00000000000000E+20
 20
1.00000000000000E+20
 30
1.00000000000000E+20
  9
$PEXTMAX
 10
-1.00000000000000E+20
 20
-1.00000000000000E+20
 30
-1.00000000000000E+20
  9
$PLIMMIN
 10
0.0
 20
0.0
  9
$PLIMMAX
 10
12.0
 20
9.0
  9
$UNITMODE
 70
             0
  9
$VISRETAIN
 70
             0
  9
$PLINEGEN
 70
             1
  9
$PSLTSCALE
 70
             0
  9
$TREEDEPTH
 70
          3020
  9
$PICKSTYLE
 70
             1
  9
$CMLSTYLE
  2
STANDARD
  9
$CMLJUST
 70
             0
  9
$CMLSCALE
 40
1.0
  9
$PROXYGRAPHICS
 70
             0
  9
$MEASUREMENT
 70
             1
  0
ENDSEC
  0
SECTION
  2
CLASSES
  0
CLASS
  1
LWPOLYLINE
  2
AcDbPolyline
  3
"AutoCAD"
 90
        0
280
             0
281
             1
  0
CLASS
  1
IMAGE
  2
AcDbRasterImage
  3
ISM
 90
      127
280
             0
281
             1
  0
CLASS
  1
OLE2FRAME
  2
AcDbOle2Frame
  3
""
 90
        0
280
             0
281
             1
  0
CLASS
  1
HATCH
  2
AcDbHatch
  3
"ACAD_SEDONA"
 90
        0
280
             0
281
             1
  0
CLASS
  1
DICTIONARYVAR
  2
AcDbDictionaryVar
  3
"AutoCAD"
 90
        0
280
             0
281
             0
  0
CLASS
  1
RASTERVARIABLES
  2
AcDbRasterVariables
  3
ISM
 90
        0
280
             0
281
             0
  0
CLASS
  1
IMAGEDEF
  2
AcDbRasterImageDef
  3
ISM
 90
        0
280
             0
281
             0
  0
CLASS
  1
IMAGEDEF_REACTOR
  2
AcDbRasterImageDefReactor
  3
ISM
 90
        1
280
             0
281
             0
  0
CLASS
  1
IDBUFFER
  2
AcDbIdBuffer
  3
"Acad"
 90
        0
280
             0
281
             0
  0
CLASS
  1
SPATIAL_FILTER
  2
AcDbSpatialFilter
  3
"Acad"
 90
        0
280
             0
281
             0
  0
CLASS
  1
XRECORD
  2
AcDbXrecord
  3
"<Built In>"
 90
        0
280
             0
281
             0
  0
CLASS
  1
SORTENTSTABLE
  2
AcDbSortentsTable
  3
"AutoCAD"
 90
        0
280
             0
281
             0
  0
CLASS
  1
LAYER_INDEX
  2
AcDbLayerIndex
  3
"Acad"
 90
        0
280
             0
281
             0
  0
CLASS
  1
SPATIAL_INDEX
  2
AcDbSpatialIndex
  3
"Acad"
 90
        0
280
             0
281
             0
  0
CLASS
  1
OBJECT_PTR
  2
CAseDLPNTableRecord
  3
"ASE-LPNTableRecord"
 90
        1
280
             0
281
             0
  0
CLASS
  1
LAYOUT
  2
AcDbLayout
  3
"AutoCAD 2000"
 90
        0
280
             0
281
             0
  0
CLASS
  1
PLOTSETTINGS
  2
AcDbPlotSettings
  3
"AutoCAD 2000"
 90
        0
280
             0
281
             0
  0
CLASS
  1
ACDBDICTIONARYWDFLT
  2
AcDbDictionaryWithDefault
  3
"AutoCAD 2000"
 90
        0
280
             0
281
             0
  0
CLASS
  1
ACDBPLACEHOLDER
  2
AcDbPlaceHolder
  3
"AutoCAD 2000"
 90
        0
280
             0
281
             0
  0
ENDSEC
  0
SECTION
  2
TABLES
  0
TABLE
  2
VPORT
  5
7
100
AcDbSymbolTable
 70
             1
  0
VPORT
  5
15
100
AcDbSymbolTableRecord
100
AcDbViewportTableRecord
  2
*ACTIVE
 70
             0
 10
0.0
 20
0.0
 11
1.0
 21
1.0
 12
78.36899178222726
 22
-108.92811607707294
 13
0.0
 23
0.0
 14
1.0
 24
1.0
 15
0.0
 25
0.0
 16
0.0
 26
0.0
 36
1.0
 17
0.0
 27
0.0
 37
0.0
 40
241.85028953959946
 41
1.60267857142857
 42
50.0
 43
0.0
 44
0.0
 50
0.0
 51
0.0
 71
             0
 72
           100
 73
             1
 74
             1
 75
             0
 76
             0
 77
             0
 78
             0
  0
ENDTAB
  0
TABLE
  2
LTYPE
  5
4
100
AcDbSymbolTable
 70
            10
  0
LTYPE
  5
11
100
AcDbSymbolTableRecord
100
AcDbLinetypeTableRecord
  2
BYBLOCK
 70
            64
  3

 72
            65
 73
             0
 40
0.0
  0
LTYPE
  5
12
100
AcDbSymbolTableRecord
100
AcDbLinetypeTableRecord
  2
BYLAYER
 70
            64
  3

 72
            65
 73
             0
 40
0.0
  0
LTYPE
  5
13
100
AcDbSymbolTableRecord
100
AcDbLinetypeTableRecord
  2
CONTINUOUS
 70
            64
  3
Solid line
 72
            65
 73
             0
 40
0.0
  0
LTYPE
  5
1D
100
AcDbSymbolTableRecord
100
AcDbLinetypeTableRecord
  2
DASHED
 70
            64
  3
Dashed
 72
            65
 73
             2
 40
15.0
 49
7.0
 74
             0
 49
-8.0
 74
             0
  0
LTYPE
  5
1E
100
AcDbSymbolTableRecord
100
AcDbLinetypeTableRecord
  2
DOTTED
 70
            64
  3
Dotted
 72
            65
 73
             2
 40
1.0
 49
0.0
 74
             0
 49
-1.0
 74
             0
  0
LTYPE
  5
1F
100
AcDbSymbolTableRecord
100
AcDbLinetypeTableRecord
  2
DOT_CENTER
 70
            64
  3
Dot_Center
 72
            65
 73
             4
 40
14.0
 49
12.0
 74
             0
 49
-1.0
 74
             0
 49
0.0
 74
             0
 49
-1.0
 74
             0
  0
LTYPE
  5
20
100
AcDbSymbolTableRecord
100
AcDbLinetypeTableRecord
  2
LONG_DASHED
 70
            64
  3
Long_Dashed
 72
            65
 73
             2
 40
15.0
 49
10.0
 74
             0
 49
-5.0
 74
             0
  0
LTYPE
  5
21
100
AcDbSymbolTableRecord
100
AcDbLinetypeTableRecord
  2
DASH_CENTER
 70
            64
  3
Dash_Center
 72
            65
 73
             4
 40
14.0
 49
11.0
 74
             0
 49
-1.0
 74
             0
 49
1.0
 74
             0
 49
-1.0
 74
             0
  0
LTYPE
  5
22
100
AcDbSymbolTableRecord
100
AcDbLinetypeTableRecord
  2
PHANTOM
 70
            64
  3
Phantom
 72
            65
 73
             6
 40
13.0
 49
10.0
 74
             0
 49
-1.0
 74
             0
 49
0.0
 74
             0
 49
-1.0
 74
             0
 49
0.0
 74
             0
 49
-1.0
 74
             0
  0
LTYPE
  5
23
100
AcDbSymbolTableRecord
100
AcDbLinetypeTableRecord
  2
CENTER_DASH_DASH
 70
            64
  3
Center_Dash_Dash
 72
            65
 73
             6
 40
14.0
 49
9.0
 74
             0
 49
-1.0
 74
             0
 49
1.0
 74
             0
 49
-1.0
 74
             0
 49
1.0
 74
             0
 49
-1.0
 74
             0
  0
ENDTAB
  0
TABLE
  2
LAYER
  5
2
100
AcDbSymbolTable
 70
             2
  0
LAYER
  5
14
100
AcDbSymbolTableRecord
100
AcDbLayerTableRecord
  2
0
 70
             0
 62
             7
  6
CONTINUOUS
  0
LAYER
  5
24
100
AcDbSymbolTableRecord
100
AcDbLayerTableRecord
  2
1
 70
             0
 62
             7
  6
CONTINUOUS
  0
ENDTAB
  0
TABLE
  2
STYLE
  5
3
100
AcDbSymbolTable
 70
             2
  0
STYLE
  5
17
100
AcDbSymbolTableRecord
100
AcDbTextStyleTableRecord
  2
STANDARD
 70
             0
 40
0.0
 41
1.0
 50
0.0
 71
             0
 42
0.0
  3
txt
  4

  0
STYLE
  5
EC
100
AcDbSymbolTableRecord
100
AcDbTextStyleTableRecord
  2
CONVERTER_1
 70
             0
 40
0.0
 41
0.9
 50
0.0
 71
             0
 42
0.0
  3
txt.shx
  4

  0
ENDTAB
  0
TABLE
  2
VIEW
  5
5
100
AcDbSymbolTable
 70
             0
  0
ENDTAB
  0
TABLE
  2
UCS
  5
6
100
AcDbSymbolTable
 70
             0
  0
ENDTAB
  0
TABLE
  2
APPID
  5
8
100
AcDbSymbolTable
 70
             1
  0
APPID
  5
16
100
AcDbSymbolTableRecord
100
AcDbRegAppTableRecord
  2
ACAD
 70
             0
  0
ENDTAB
  0
TABLE
  2
DIMSTYLE
  5
9
100
AcDbSymbolTable
 70
            13
  0
DIMSTYLE
105
18
100
AcDbSymbolTableRecord
100
AcDbDimStyleTableRecord
  2
STANDARD
 70
             0
  3

  4

  5

  6

  7

 40
1.0
 41
0.18
 42
0.0625
 43
0.38
 44
0.18
 45
0.0
 46
0.0
 47
0.0
 48
0.0
 71
             0
 72
             0
 73
             1
 74
             1
 75
             0
 76
             0
 77
             0
 78
             0
140
0.18
141
0.09
142
0.0
143
25.4
144
1.0
145
0.0
146
1.0
147
0.09
170
             0
171
             2
172
             0
173
             0
174
             0
175
             0
176
             0
177
             0
178
             0
270
             2
271
             4
272
             4
273
             2
274
             2
275
             0
280
             0
281
             0
282
             0
283
             1
284
             0
285
             0
286
             0
287
             3
288
             0
340
17
  0
DIMSTYLE
105
EF
100
AcDbSymbolTableRecord
100
AcDbDimStyleTableRecord
  2
ME10_DIM_0
 70
             0
  3

  4

  5

  6

  7

 40
1.0
 41
7.0
 42
0.0
 43
0.38
 44
2.0
 45
0.0
 46
0.0
 47
0.0
 48
0.0
 71
             0
 72
             0
 73
             0
 74
             0
 75
             0
 76
             0
 77
             1
 78
             8
140
7.0
141
0.09
142
0.0
143
25.4
144
1.0
145
0.0
146
1.0
147
0.625
170
             0
171
             2
172
             1
173
             1
174
             0
175
             0
176
             4
177
             4
178
             1
270
             2
271
             2
272
             4
273
             2
274
             2
275
             0
280
             0
281
             0
282
             0
283
             1
284
             0
285
             0
286
             0
287
             3
288
             0
340
EC
  0
DIMSTYLE
105
FA
100
AcDbSymbolTableRecord
100
AcDbDimStyleTableRecord
  2
ME10_DIM_1
 70
             0
  3

  4

  5

  6

  7

 40
1.0
 41
7.0
 42
0.0
 43
0.38
 44
2.0
 45
0.0
 46
0.0
 47
0.0
 48
0.0
 71
             0
 72
             0
 73
             0
 74
             0
 75
             0
 76
             0
 77
             1
 78
             8
140
7.0
141
0.09
142
0.0
143
25.4
144
1.0
145
0.0
146
1.0
147
0.625
170
             0
171
             2
172
             1
173
             1
174
             0
175
             0
176
             4
177
             4
178
             1
270
             2
271
             0
272
             4
273
             2
274
             2
275
             0
280
             0
281
             0
282
             0
283
             1
284
             0
285
             0
286
             0
287
             3
288
             0
340
EC
  0
DIMSTYLE
105
107
100
AcDbSymbolTableRecord
100
AcDbDimStyleTableRecord
  2
ME10_DIM_2
 70
             0
  3
Ø<>-13
  4

  5

  6

  7

 40
1.0
 41
7.0
 42
0.0
 43
0.38
 44
2.0
 45
0.0
 46
0.0
 47
0.0
 48
0.0
 71
             0
 72
             0
 73
             0
 74
             0
 75
             0
 76
             0
 77
             1
 78
             8
140
7.0
141
0.09
142
0.0
143
25.4
144
1.0
145
0.0
146
1.0
147
0.625
170
             0
171
             2
172
             1
173
             1
174
             0
175
             0
176
             4
177
             4
178
             1
270
             2
271
             2
272
             4
273
             2
274
             2
275
             0
280
             0
281
             0
282
             0
283
             1
284
             0
285
             0
286
             0
287
             3
288
             0
340
EC
  0
DIMSTYLE
105
114
100
AcDbSymbolTableRecord
100
AcDbDimStyleTableRecord
  2
ME10_DIM_3
 70
             0
  3

  4

  5

  6

  7

 40
1.0
 41
7.0
 42
0.0
 43
0.38
 44
2.0
 45
0.0
 46
0.0
 47
0.0
 48
0.0
 71
             0
 72
             0
 73
             0
 74
             0
 75
             0
 76
             0
 77
             1
 78
             8
140
7.0
141
0.09
142
0.0
143
25.4
144
1.0
145
0.0
146
1.0
147
0.625
170
             0
171
             2
172
             1
173
             1
174
             0
175
             0
176
             4
177
             4
178
             1
270
             2
271
             2
272
             4
273
             2
274
             2
275
             0
280
             0
281
             0
282
             0
283
             1
284
             0
285
             0
286
             0
287
             3
288
             0
340
EC
  0
DIMSTYLE
105
11F
100
AcDbSymbolTableRecord
100
AcDbDimStyleTableRecord
  2
ME10_DIM_4
 70
             0
  3

  4

  5

  6

  7

 40
1.0
 41
7.0
 42
0.0
 43
0.38
 44
2.0
 45
0.0
 46
0.0
 47
0.0
 48
0.0
 71
             0
 72
             0
 73
             0
 74
             0
 75
             0
 76
             0
 77
             1
 78
             8
140
7.0
141
0.09
142
0.0
143
25.4
144
1.0
145
0.0
146
1.0
147
0.625
170
             0
171
             2
172
             1
173
             1
174
             0
175
             0
176
             4
177
             4
178
             1
270
             2
271
             0
272
             4
273
             2
274
             2
275
             0
280
             0
281
             0
282
             0
283
             1
284
             0
285
             0
286
             0
287
             3
288
             0
340
EC
  0
DIMSTYLE
105
12A
100
AcDbSymbolTableRecord
100
AcDbDimStyleTableRecord
  2
ME10_DIM_5
 70
             0
  3

  4

  5

  6

  7

 40
1.0
 41
7.0
 42
0.0
 43
0.38
 44
2.0
 45
0.0
 46
0.0
 47
0.0
 48
0.0
 71
             0
 72
             0
 73
             0
 74
             0
 75
             0
 76
             0
 77
             1
 78
             8
140
7.0
141
0.09
142
0.0
143
25.4
144
1.0
145
0.0
146
1.0
147
0.625
170
             0
171
             2
172
             1
173
             1
174
             0
175
             0
176
             4
177
             4
178
             1
270
             2
271
             0
272
             4
273
             2
274
             2
275
             0
280
             0
281
             0
282
             0
283
             1
284
             0
285
             0
286
             0
287
             3
288
             0
340
EC
  0
DIMSTYLE
105
136
100
AcDbSymbolTableRecord
100
AcDbDimStyleTableRecord
  2
ME10_DIM_6
 70
             0
  3
DN<>
  4

  5

  6

  7

 40
1.0
 41
7.0
 42
0.0
 43
0.38
 44
2.0
 45
0.0
 46
0.0
 47
0.0
 48
0.0
 71
             0
 72
             0
 73
             0
 74
             0
 75
             0
 76
             0
 77
             1
 78
             8
140
7.0
141
0.09
142
0.0
143
25.4
144
1.0
145
0.0
146
1.0
147
0.625
170
             0
171
             2
172
             1
173
             1
174
             0
175
             0
176
             4
177
             4
178
             1
270
             2
271
             2
272
             4
273
             2
274
             2
275
             0
280
             0
281
             0
282
             0
283
             1
284
             0
285
             0
286
             0
287
             3
288
             0
340
EC
  0
DIMSTYLE
105
142
100
AcDbSymbolTableRecord
100
AcDbDimStyleTableRecord
  2
ME10_DIM_7
 70
             0
  3
DN<>
  4

  5

  6

  7

 40
1.0
 41
7.0
 42
0.0
 43
0.38
 44
2.0
 45
0.0
 46
0.0
 47
0.0
 48
0.0
 71
             0
 72
             0
 73
             0
 74
             0
 75
             0
 76
             0
 77
             1
 78
             8
140
7.0
141
0.09
142
0.0
143
25.4
144
1.0
145
0.0
146
1.0
147
0.625
170
             0
171
             2
172
             1
173
             1
174
             0
175
             0
176
             4
177
             4
178
             1
270
             2
271
             2
272
             4
273
             2
274
             2
275
             0
280
             0
281
             0
282
             0
283
             1
284
             0
285
             0
286
             0
287
             3
288
             0
340
EC
  0
DIMSTYLE
105
14D
100
AcDbSymbolTableRecord
100
AcDbDimStyleTableRecord
  2
ME10_DIM_8
 70
             0
  3

  4

  5

  6

  7

 40
1.0
 41
7.0
 42
0.0
 43
0.38
 44
2.0
 45
0.0
 46
0.0
 47
0.0
 48
0.0
 71
             0
 72
             0
 73
             0
 74
             0
 75
             0
 76
             0
 77
             1
 78
             8
140
7.0
141
0.09
142
0.0
143
25.4
144
1.0
145
0.0
146
1.0
147
0.625
170
             0
171
             2
172
             1
173
             1
174
             0
175
             0
176
             4
177
             4
178
             1
270
             2
271
             0
272
             4
273
             2
274
             2
275
             0
280
             0
281
             0
282
             0
283
             1
284
             0
285
             0
286
             0
287
             3
288
             0
340
EC
  0
DIMSTYLE
105
158
100
AcDbSymbolTableRecord
100
AcDbDimStyleTableRecord
  2
ME10_DIM_9
 70
             0
  3

  4

  5

  6

  7

 40
1.0
 41
7.0
 42
0.0
 43
0.38
 44
2.0
 45
0.0
 46
0.0
 47
0.0
 48
0.0
 71
             0
 72
             0
 73
             0
 74
             0
 75
             0
 76
             0
 77
             1
 78
             8
140
7.0
141
0.09
142
0.0
143
25.4
144
1.0
145
0.0
146
1.0
147
0.625
170
             0
171
             2
172
             1
173
             1
174
             0
175
             0
176
             4
177
             4
178
             1
270
             2
271
             2
272
             4
273
             2
274
             2
275
             0
280
             0
281
             0
282
             0
283
             1
284
             0
285
             0
286
             0
287
             3
288
             0
340
EC
  0
DIMSTYLE
105
163
100
AcDbSymbolTableRecord
100
AcDbDimStyleTableRecord
  2
ME10_DIM_10
 70
             0
  3

  4

  5

  6

  7

 40
1.0
 41
7.0
 42
0.0
 43
0.38
 44
2.0
 45
0.0
 46
0.0
 47
0.0
 48
0.0
 71
             0
 72
             0
 73
             0
 74
             0
 75
             0
 76
             0
 77
             1
 78
             8
140
7.0
141
0.09
142
0.0
143
25.4
144
1.0
145
0.0
146
1.0
147
0.625
170
             0
171
             2
172
             1
173
             1
174
             0
175
             0
176
             4
177
             4
178
             1
270
             2
271
             2
272
             4
273
             2
274
             2
275
             0
280
             0
281
             0
282
             0
283
             1
284
             0
285
             0
286
             0
287
             3
288
             0
340
EC
  0
DIMSTYLE
105
16E
100
AcDbSymbolTableRecord
100
AcDbDimStyleTableRecord
  2
ME10_DIM_11
 70
             0
  3

  4

  5

  6

  7

 40
1.0
 41
7.0
 42
0.0
 43
0.38
 44
2.0
 45
0.0
 46
0.0
 47
0.0
 48
0.0
 71
             0
 72
             0
 73
             0
 74
             0
 75
             0
 76
             0
 77
             1
 78
             8
140
7.0
141
0.09
142
0.0
143
25.4
144
1.0
145
0.0
146
1.0
147
0.625
170
             0
171
             2
172
             1
173
             1
174
             0
175
             0
176
             4
177
             4
178
             1
270
             2
271
             2
272
             4
273
             2
274
             2
275
             0
280
             0
281
             0
282
             0
283
             1
284
             0
285
             0
286
             0
287
             3
288
             0
340
EC
  0
ENDTAB
  0
TABLE
  2
BLOCK_RECORD
  5
1
100
AcDbSymbolTable
 70
            17
  0
BLOCK_RECORD
  5
A
100
AcDbSymbolTableRecord
100
AcDbBlockTableRecord
  2
*MODEL_SPACE
  0
BLOCK_RECORD
  5
B
100
AcDbSymbolTableRecord
100
AcDbBlockTableRecord
  2
*PAPER_SPACE
  0
BLOCK_RECORD
  5
25
100
AcDbSymbolTableRecord
100
AcDbBlockTableRecord
  2
MUTTER5_4
  0
BLOCK_RECORD
  5
27
100
AcDbSymbolTableRecord
100
AcDbBlockTableRecord
  2
HL_500_BODEN
  0
BLOCK_RECORD
  5
29
100
AcDbSymbolTableRecord
100
AcDbBlockTableRecord
  2
HOLL_NDERMUTTER_6_4
  0
BLOCK_RECORD
  5
2B
100
AcDbSymbolTableRecord
100
AcDbBlockTableRecord
  2
HL_500_K_RPER
  0
BLOCK_RECORD
  5
2D
100
AcDbSymbolTableRecord
100
AcDbBlockTableRecord
  2
HL_500_ABGANGSSTUTZEN
  0
BLOCK_RECORD
  5
E4
100
AcDbSymbolTableRecord
100
AcDbBlockTableRecord
  2
*D5
  0
BLOCK_RECORD
  5
F1
100
AcDbSymbolTableRecord
100
AcDbBlockTableRecord
  2
*D6
  0
BLOCK_RECORD
  5
FC
100
AcDbSymbolTableRecord
100
AcDbBlockTableRecord
  2
*D7
  0
BLOCK_RECORD
  5
109
100
AcDbSymbolTableRecord
100
AcDbBlockTableRecord
  2
*D8
  0
BLOCK_RECORD
  5
116
100
AcDbSymbolTableRecord
100
AcDbBlockTableRecord
  2
*D9
  0
BLOCK_RECORD
  5
121
100
AcDbSymbolTableRecord
100
AcDbBlockTableRecord
  2
*D10
  0
BLOCK_RECORD
  5
12C
100
AcDbSymbolTableRecord
100
AcDbBlockTableRecord
  2
*D11
  0
BLOCK_RECORD
  5
138
100
AcDbSymbolTableRecord
100
AcDbBlockTableRecord
  2
*D12
  0
BLOCK_RECORD
  5
144
100
AcDbSymbolTableRecord
100
AcDbBlockTableRecord
  2
*D13
  0
BLOCK_RECORD
  5
14F
100
AcDbSymbolTableRecord
100
AcDbBlockTableRecord
  2
*D14
  0
BLOCK_RECORD
  5
15A
100
AcDbSymbolTableRecord
100
AcDbBlockTableRecord
  2
*D15
  0
BLOCK_RECORD
  5
165
100
AcDbSymbolTableRecord
100
AcDbBlockTableRecord
  2
*D16
  0
ENDTAB
  0
ENDSEC
  0
SECTION
  2
BLOCKS
  0
BLOCK
  5
D
100
AcDbEntity
  8
0
100
AcDbBlockBegin
  2
*MODEL_SPACE
 70
             0
 10
0.0
 20
0.0
 30
0.0
  3
*MODEL_SPACE
  1

  0
ENDBLK
  5
E
100
AcDbEntity
  8
0
100
AcDbBlockEnd
  0
BLOCK
  5
F
100
AcDbEntity
 67
             1
  8
0
100
AcDbBlockBegin
  2
*PAPER_SPACE
 70
             0
 10
0.0
 20
0.0
 30
0.0
  3
*PAPER_SPACE
  1

  0
ENDBLK
  5
10
100
AcDbEntity
 67
             1
  8
0
100
AcDbBlockEnd
  0
BLOCK
  5
26
100
AcDbEntity
  8
0
100
AcDbBlockBegin
  2
MUTTER5_4
 70
             0
 10
-11380.07900838782
 20
-16281.039173431211
 30
0.0
  3
MUTTER5_4
  1

  0
SPLINE
  5
78
100
AcDbEntity
  8
0
  6
CONTINUOUS
 62
             7
100
AcDbSpline
210
0.0
220
0.0
230
1.0
 70
             0
 71
             3
 72
            11
 73
             7
 74
             5
 42
0.00000000001
 43
0.00000000001
 44
0.00000000001
 40
7.3352450797252473
 40
7.3352450797252473
 40
7.3352450797252473
 40
7.3352450797252473
 40
8.074334640859405
 40
8.074334640859405
 40
8.074334640859405
 40
8.7987853208697473
 40
8.7987853208697473
 40
8.7987853208697473
 40
8.7987853208697473
 10
-11535.752721112371
 20
-16427.348511614378
 30
0.0
 10
-11535.945770149379
 20
-16427.51049899013
 30
0.0
 10
-11536.13720981215
 20
-16427.665508536498
 30
0.0
 10
-11536.327152515931
 20
-16427.813524900612
 30
0.0
 10
-11536.52203427763
 20
-16427.965390116911
 30
0.0
 10
-11536.71541611395
 20
-16428.109952913041
 30
0.0
 10
-11536.907421650751
 20
-16428.247184079632
 30
0.0
 11
-11535.752721112371
 21
-16427.348511614378
 31
0.0
 11
-11536.041101689108
 21
-16427.586257386854
 31
0.0
 11
-11536.327152515931
 21
-16427.813524900612
 31
0.0
 11
-11536.618365667677
 21
-16428.035842258763
 31
0.0
 11
-11536.907421650751
 21
-16428.247184079632
 31
0.0
  0
SPLINE
  5
77
100
AcDbEntity
  8
0
  6
CONTINUOUS
 62
             7
100
AcDbSpline
210
0.0
220
0.0
230
1.0
 70
             0
 71
             3
 72
            11
 73
             7
 74
             5
 42
0.00000000001
 43
0.00000000001
 44
0.00000000001
 40
7.4292443040805693
 40
7.4292443040805693
 40
7.4292443040805693
 40
7.4292443040805693
 40
7.9575661615617088
 40
7.9575661615617088
 40
7.9575661615617088
 40
8.5087688221209703
 40
8.5087688221209703
 40
8.5087688221209703
 40
8.5087688221209703
 10
-11542.47922524875
 20
-16428.247184079632
 30
0.0
 10
-11542.578807085119
 20
-16428.109687179411
 30
0.0
 10
-11542.67905222974
 20
-16427.964901856089
 30
0.0
 10
-11542.78002097032
 20
-16427.812883076502
 30
0.0
 10
-11542.878247483621
 20
-16427.66499300089
 30
0.0
 10
-11542.9772030925
 20
-16427.51019035331
 30
0.0
 10
-11543.0769422302
 20
-16427.348511614378
 30
0.0
 11
-11542.47922524875
 21
-16428.247184079632
 31
0.0
 11
-11542.629103020454
 21
-16428.035479282829
 31
0.0
 11
-11542.78002097032
 21
-16427.812883076502
 31
0.0
 11
-11542.92791436611
 21
-16427.585868094186
 31
0.0
 11
-11543.0769422302
 21
-16427.348511614378
 31
0.0
  0
SPLINE
  5
76
100
AcDbEntity
  8
0
  6
CONTINUOUS
 62
             7
100
AcDbSpline
210
0.0
220
0.0
230
1.0
 70
             0
 71
             3
 72
            11
 73
             7
 74
             5
 42
0.00000000001
 43
0.00000000001
 44
0.00000000001
 40
59.678971581479807
 40
59.678971581479807
 40
59.678971581479807
 40
59.678971581479807
 40
59.918244570805939
 40
59.918244570805939
 40
59.918244570805939
 40
60.157514862936189
 40
60.157514862936189
 40
60.157514862936189
 40
60.157514862936189
 10
-11542.47922524875
 20
-16428.247184079632
 30
0.0
 10
-11542.530726643799
 20
-16428.30808531378
 30
0.0
 10
-11542.58222873183
 20
-16428.3689854199
 30
0.0
 10
-11542.63373150107
 20
-16428.429884329791
 30
0.0
 10
-11542.685234277769
 20
-16428.49078324853
 30
0.0
 10
-11542.73673774515
 20
-16428.55168098224
 30
0.0
 10
-11542.78824193447
 20
-16428.612577511562
 30
0.0
 11
-11542.47922524875
 21
-16428.247184079632
 31
0.0
 11
-11542.556477859587
 21
-16428.338535076309
 31
0.0
 11
-11542.63373150107
 21
-16428.429884329791
 31
0.0
 11
-11542.710986188036
 21
-16428.521231816707
 31
0.0
 11
-11542.78824193447
 21
-16428.612577511562
 31
0.0
  0
SPLINE
  5
75
100
AcDbEntity
  8
0
  6
CONTINUOUS
 62
             7
100
AcDbSpline
210
0.0
220
0.0
230
1.0
 70
             0
 71
             3
 72
            11
 73
             7
 74
             5
 42
0.00000000001
 43
0.00000000001
 44
0.00000000001
 40
7.3352450797252491
 40
7.3352450797252491
 40
7.3352450797252491
 40
7.3352450797252491
 40
7.8872182202022483
 40
7.8872182202022483
 40
7.8872182202022483
 40
8.4147696075433238
 40
8.4147696075433238
 40
8.4147696075433238
 40
8.4147696075433238
 10
-11578.441410143099
 20
-16427.348511614378
 30
0.0
 10
-11578.541298109159
 20
-16427.510431606472
 30
0.0
 10
-11578.64039562681
 20
-16427.66544754765
 30
0.0
 10
-11578.7387577178
 20
-16427.813524900612
 30
0.0
 10
-11578.840154983551
 20
-16427.966171500131
 30
0.0
 10
-11578.940245467211
 20
-16428.11065394658
 30
0.0
 10
-11579.039127124541
 20
-16428.247184079632
 30
0.0
 11
-11578.441410143099
 21
-16427.348511614378
 31
0.0
 11
-11578.590656133601
 21
-16427.586209247169
 31
0.0
 11
-11578.7387577178
 21
-16427.813524900612
 31
0.0
 11
-11578.889885774328
 21
-16428.036398165048
 31
0.0
 11
-11579.039127124541
 21
-16428.247184079632
 31
0.0
  0
SPLINE
  5
74
100
AcDbEntity
  8
0
  6
CONTINUOUS
 62
             7
100
AcDbSpline
210
0.0
220
0.0
230
1.0
 70
             0
 71
             3
 72
            11
 73
             7
 74
             5
 42
0.00000000001
 43
0.00000000001
 44
0.00000000001
 40
59.678971581479523
 40
59.678971581479523
 40
59.678971581479523
 40
59.678971581479523
 40
59.963793886494678
 40
59.963793886494678
 40
59.963793886494678
 40
60.248616193786887
 40
60.248616193786887
 40
60.248616193786887
 40
60.248616193786887
 10
-11536.907421650751
 20
-16428.247184079632
 30
0.0
 10
-11536.980714221379
 20
-16428.308468778509
 30
0.0
 10
-11537.053547374589
 20
-16428.36936735631
 30
0.0
 10
-11537.12592648827
 20
-16428.429884329791
 30
0.0
 10
-11537.199505567531
 20
-16428.491404607721
 30
0.0
 10
-11537.272339096449
 20
-16428.55229947987
 30
0.0
 10
-11537.344437238709
 20
-16428.612577511562
 30
0.0
 11
-11536.907421650751
 21
-16428.247184079632
 31
0.0
 11
-11537.017016615866
 21
-16428.338822101734
 31
0.0
 11
-11537.12592648827
 21
-16428.429884329791
 31
0.0
 11
-11537.235737214864
 21
-16428.521696763015
 31
0.0
 11
-11537.344437238709
 21
-16428.612577511562
 31
0.0
  0
SPLINE
  5
73
100
AcDbEntity
  8
0
  6
CONTINUOUS
 62
             7
100
AcDbSpline
210
0.0
220
0.0
230
1.0
 70
             0
 71
             3
 72
            11
 73
             7
 74
             5
 42
0.00000000001
 43
0.00000000001
 44
0.00000000001
 40
59.678971581479523
 40
59.678971581479523
 40
59.678971581479523
 40
59.678971581479523
 40
59.918244570805683
 40
59.918244570805683
 40
59.918244570805683
 40
60.15751486293594
 40
60.15751486293594
 40
60.15751486293594
 40
60.15751486293594
 10
-11579.039127124541
 20
-16428.247184079632
 30
0.0
 10
-11578.9876257295
 20
-16428.30808531378
 30
0.0
 10
-11578.936123641461
 20
-16428.3689854199
 30
0.0
 10
-11578.884620872221
 20
-16428.429884329791
 30
0.0
 10
-11578.83311809553
 20
-16428.49078324853
 30
0.0
 10
-11578.781614628149
 20
-16428.55168098224
 30
0.0
 10
-11578.730110438821
 20
-16428.612577511562
 30
0.0
 11
-11579.039127124541
 21
-16428.247184079632
 31
0.0
 11
-11578.961874513705
 21
-16428.338535076309
 31
0.0
 11
-11578.884620872221
 21
-16428.429884329791
 31
0.0
 11
-11578.80736618526
 21
-16428.521231816707
 31
0.0
 11
-11578.730110438821
 21
-16428.612577511562
 31
0.0
  0
SPLINE
  5
72
100
AcDbEntity
  8
0
  6
CONTINUOUS
 62
             7
100
AcDbSpline
210
0.0
220
0.0
230
1.0
 70
             0
 71
             3
 72
            11
 73
             7
 74
             5
 42
0.00000000001
 43
0.00000000001
 44
0.00000000001
 40
16.544103075996741
 40
16.544103075996741
 40
16.544103075996741
 40
16.544103075996741
 40
16.828925454014261
 40
16.828925454014261
 40
16.828925454014261
 40
17.113747688312689
 40
17.113747688312689
 40
17.113747688312689
 40
17.113747688312689
 10
-11584.17391513459
 20
-16428.612577511562
 30
0.0
 10
-11584.246574935971
 20
-16428.551829901811
 30
0.0
 10
-11584.31941273267
 20
-16428.49093143002
 30
0.0
 10
-11584.392425939281
 20
-16428.42988428444
 30
0.0
 10
-11584.464755520639
 20
-16428.36940872547
 30
0.0
 10
-11584.537588302481
 20
-16428.30851046088
 30
0.0
 10
-11584.61093072254
 20
-16428.24718407961
 30
0.0
 11
-11584.17391513459
 21
-16428.612577511562
 31
0.0
 11
-11584.283038009973
 21
-16428.521343223936
 31
0.0
 11
-11584.392425939281
 21
-16428.42988428444
 31
0.0
 11
-11584.501298516398
 21
-16428.338853240388
 31
0.0
 11
-11584.61093072254
 21
-16428.24718407961
 31
0.0
  0
SPLINE
  5
71
100
AcDbEntity
  8
0
  6
CONTINUOUS
 62
             7
100
AcDbSpline
210
0.0
220
0.0
230
1.0
 70
             0
 71
             3
 72
            11
 73
             7
 74
             5
 42
0.00000000001
 43
0.00000000001
 44
0.00000000001
 40
7.335245079725242
 40
7.335245079725242
 40
7.335245079725242
 40
7.335245079725242
 40
8.5384783562244735
 40
8.5384783562244735
 40
8.5384783562244735
 40
9.740461646099984
 40
9.740461646099984
 40
9.740461646099984
 40
9.740461646099984
 10
-11543.0769422302
 20
-16427.348511614378
 30
0.0
 10
-11543.451545228019
 20
-16427.51122040048
 30
0.0
 10
-11543.821340019929
 20
-16427.666163083431
 30
0.0
 10
-11544.18665848648
 20
-16427.813524900612
 30
0.0
 10
-11544.56489394135
 20
-16427.966097160312
 30
0.0
 10
-11544.93844031568
 20
-16428.110587097381
 30
0.0
 10
-11545.307652373491
 20
-16428.247184079632
 30
0.0
 11
-11543.0769422302
 21
-16427.348511614378
 31
0.0
 11
-11543.635282057565
 21
-16427.58677337084
 31
0.0
 11
-11544.18665848648
 21
-16427.813524900612
 31
0.0
 11
-11544.750539203882
 21
-16428.036345219163
 31
0.0
 11
-11545.307652373491
 21
-16428.247184079632
 31
0.0
  0
SPLINE
  5
70
100
AcDbEntity
  8
0
  6
CONTINUOUS
 62
             7
100
AcDbSpline
210
0.0
220
0.0
230
1.0
 70
             0
 71
             3
 72
            11
 73
             7
 74
             5
 42
0.00000000001
 43
0.00000000001
 44
0.00000000001
 40
59.678971581479558
 40
59.678971581479558
 40
59.678971581479558
 40
59.678971581479558
 40
59.918244570805712
 40
59.918244570805712
 40
59.918244570805712
 40
60.15751486293599
 40
60.15751486293599
 40
60.15751486293599
 40
60.15751486293599
 10
-11545.307652373491
 20
-16428.247184079632
 30
0.0
 10
-11545.35915377418
 20
-16428.308085320408
 30
0.0
 10
-11545.410655850959
 20
-16428.36898541325
 30
0.0
 10
-11545.462158625811
 20
-16428.429884329791
 30
0.0
 10
-11545.513661397201
 20
-16428.49078324225
 30
0.0
 10
-11545.56516487521
 20
-16428.551680988508
 30
0.0
 10
-11545.616669059211
 20
-16428.612577511562
 30
0.0
 11
-11545.307652373491
 21
-16428.247184079632
 31
0.0
 11
-11545.384904984337
 21
-16428.338535076295
 31
0.0
 11
-11545.462158625811
 21
-16428.429884329791
 31
0.0
 11
-11545.539413312779
 21
-16428.521231816703
 31
0.0
 11
-11545.616669059211
 21
-16428.612577511562
 31
0.0
  0
SPLINE
  5
6F
100
AcDbEntity
  8
0
  6
CONTINUOUS
 62
             7
100
AcDbSpline
210
0.0
220
0.0
230
1.0
 70
             0
 71
             3
 72
            11
 73
             7
 74
             5
 42
0.00000000001
 43
0.00000000001
 44
0.00000000001
 40
9.9896760892753171
 40
9.9896760892753171
 40
9.9896760892753171
 40
9.9896760892753171
 40
11.08638885583103
 40
11.08638885583103
 40
11.08638885583103
 40
12.18260867814622
 40
12.18260867814622
 40
12.18260867814622
 40
12.18260867814622
 10
-11560.759176186641
 20
-16427.348511614378
 30
0.0
 10
-11561.093154273611
 20
-16427.510308767411
 30
0.0
 10
-11561.424260018561
 20
-16427.665100205271
 30
0.0
 10
-11561.7526940836
 20
-16427.812883075461
 30
0.0
 10
-11562.09231879672
 20
-16427.965701312791
 30
0.0
 10
-11562.427705947501
 20
-16428.11040397959
 30
0.0
 10
-11562.759176186641
 20
-16428.247184079632
 30
0.0
 11
-11560.759176186641
 21
-16427.348511614378
 31
0.0
 11
-11561.258014143346
 21
-16427.585952700985
 31
0.0
 11
-11561.7526940836
 21
-16427.812883075461
 31
0.0
 11
-11562.258993062862
 21
-16428.036047879028
 31
0.0
 11
-11562.759176186641
 21
-16428.247184079632
 31
0.0
  0
SPLINE
  5
6E
100
AcDbEntity
  8
0
  6
CONTINUOUS
 62
             7
100
AcDbSpline
210
0.0
220
0.0
230
1.0
 70
             0
 71
             3
 72
            11
 73
             7
 74
             5
 42
0.00000000001
 43
0.00000000001
 44
0.00000000001
 40
7.4292443040805587
 40
7.4292443040805587
 40
7.4292443040805587
 40
7.4292443040805587
 40
8.6329431573185218
 40
8.6329431573185218
 40
8.6329431573185218
 40
9.8344608636349164
 40
9.8344608636349164
 40
9.8344608636349164
 40
9.8344608636349164
 10
-11576.2106999998
 20
-16428.247184079632
 30
0.0
 10
-11576.58199621146
 20
-16428.10981602527
 30
0.0
 10
-11576.95610746519
 20
-16427.965045870878
 30
0.0
 10
-11577.333284915419
 20
-16427.812883076502
 30
0.0
 10
-11577.69806910047
 20
-16427.6657200345
 30
0.0
 10
-11578.067333669371
 20
-16427.51099170477
 30
0.0
 10
-11578.441410143099
 20
-16427.348511614378
 30
0.0
 11
-11576.2106999998
 21
-16428.247184079632
 31
0.0
 11
-11576.769786993147
 21
-16428.035581605571
 31
0.0
 11
-11577.333284915419
 21
-16427.812883076502
 31
0.0
 11
-11577.883862921004
 21
-16427.586441238585
 31
0.0
 11
-11578.441410143099
 21
-16427.348511614378
 31
0.0
  0
SPLINE
  5
6D
100
AcDbEntity
  8
0
  6
CONTINUOUS
 62
             7
100
AcDbSpline
210
0.0
220
0.0
230
1.0
 70
             0
 71
             3
 72
            11
 73
             7
 74
             5
 42
0.00000000001
 43
0.00000000001
 44
0.00000000001
 40
7.4292475485577913
 40
7.4292475485577913
 40
7.4292475485577913
 40
7.4292475485577913
 40
8.5254673708729989
 40
8.5254673708729989
 40
8.5254673708729989
 40
9.6221801374286908
 40
9.6221801374286908
 40
9.6221801374286908
 40
9.6221801374286908
 10
-11558.759176186641
 20
-16428.247184079632
 30
0.0
 10
-11559.09209108012
 20
-16428.109807847741
 30
0.0
 10
-11559.42751054186
 20
-16427.96503673444
 30
0.0
 10
-11559.765658289691
 20
-16427.812883075461
 30
0.0
 10
-11560.09270579126
 20
-16427.665724106231
 30
0.0
 10
-11560.423779153691
 20
-16427.51099618206
 30
0.0
 10
-11560.759176186641
 20
-16427.348511614378
 30
0.0
 11
-11558.759176186641
 21
-16428.247184079632
 31
0.0
 11
-11559.260454917783
 21
-16428.035575112706
 31
0.0
 11
-11559.765658289691
 21
-16427.812883075461
 31
0.0
 11
-11560.259286163899
 21
-16427.58644444434
 31
0.0
 11
-11560.759176186641
 21
-16427.348511614378
 31
0.0
  0
SPLINE
  5
6C
100
AcDbEntity
  8
0
  6
CONTINUOUS
 62
             7
100
AcDbSpline
210
0.0
220
0.0
230
1.0
 70
             0
 71
             3
 72
            11
 73
             7
 74
             5
 42
0.00000000001
 43
0.00000000001
 44
0.00000000001
 40
16.544103075996631
 40
16.544103075996631
 40
16.544103075996631
 40
16.544103075996631
 40
16.78337342754136
 40
16.78337342754136
 40
16.78337342754136
 40
17.022646357460239
 40
17.022646357460239
 40
17.022646357460239
 40
17.022646357460239
 10
-11575.901683314079
 20
-16428.612577511562
 30
0.0
 10
-11575.953187524819
 20
-16428.551680956891
 30
0.0
 10
-11576.00469098772
 20
-16428.490783228492
 30
0.0
 10
-11576.05619378584
 20
-16428.42988428444
 30
0.0
 10
-11576.10769654966
 20
-16428.368985380948
 30
0.0
 10
-11576.159198610179
 20
-16428.30808530733
 30
0.0
 10
-11576.2106999998
 20
-16428.247184079632
 30
0.0
 11
-11575.901683314079
 21
-16428.612577511562
 31
0.0
 11
-11575.97893907969
 21
-16428.521231794017
 31
0.0
 11
-11576.05619378584
 21
-16428.42988428444
 31
0.0
 11
-11576.133447408145
 21
-16428.338535053612
 31
0.0
 11
-11576.2106999998
 21
-16428.247184079632
 31
0.0
  0
SPLINE
  5
6B
100
AcDbEntity
  8
0
  6
CONTINUOUS
 62
             7
100
AcDbSpline
210
0.0
220
0.0
230
1.0
 70
             0
 71
             3
 72
            11
 73
             7
 74
             5
 42
0.00000000001
 43
0.00000000001
 44
0.00000000001
 40
7.4292443040805676
 40
7.4292443040805676
 40
7.4292443040805676
 40
7.4292443040805676
 40
8.1547390643825217
 40
8.1547390643825217
 40
8.1547390643825217
 40
8.8927845343378031
 40
8.8927845343378031
 40
8.8927845343378031
 40
8.8927845343378031
 10
-11584.61093072254
 20
-16428.24718407961
 30
0.0
 10
-11584.80226641043
 20
-16428.11043167083
 30
0.0
 10
-11584.995901494751
 20
-16427.965732114018
 30
0.0
 10
-11585.192023434351
 20
-16427.812883076502
 30
0.0
 10
-11585.380811645509
 20
-16427.665749632721
 30
0.0
 10
-11585.57195624926
 20
-16427.511024245228
 30
0.0
 10
-11585.76563126092
 20
-16427.348511614378
 30
0.0
 11
-11584.61093072254
 21
-16428.24718407961
 31
0.0
 11
-11584.899682234056
 21
-16428.036069813832
 31
0.0
 11
-11585.192023434351
 21
-16427.812883076502
 31
0.0
 11
-11585.476994797444
 21
-16427.586464540585
 31
0.0
 11
-11585.76563126092
 21
-16427.348511614378
 31
0.0
  0
LINE
  5
6A
100
AcDbEntity
  8
1
  6
CONTINUOUS
 62
             7
100
AcDbLine
 10
-11539.759176186641
 20
-16408.84851161436
 11
-11539.759176186641
 21
-16407.84851161436
  0
LINE
  5
69
100
AcDbEntity
  8
1
  6
CONTINUOUS
 62
             7
100
AcDbLine
 10
-11581.759176186641
 20
-16408.84851161436
 11
-11581.759176186641
 21
-16407.84851161436
  0
LINE
  5
68
100
AcDbEntity
  8
1
  6
PHANTOM
 62
             2
100
AcDbLine
 10
-11560.759176186641
 20
-16427.348511614378
 11
-11560.759176186641
 21
-16414.34851161436
  0
LINE
  5
67
100
AcDbEntity
  8
0
  6
CONTINUOUS
 62
             7
100
AcDbLine
 10
-11585.76563126092
 20
-16427.348511614378
 11
-11583.382124075721
 21
-16429.34851161436
  0
LINE
  5
66
100
AcDbEntity
  8
0
  6
CONTINUOUS
 62
             7
100
AcDbLine
 10
-11583.382124075721
 20
-16429.34851161436
 11
-11538.13622829757
 21
-16429.34851161436
  0
LINE
  5
65
100
AcDbEntity
  8
0
  6
CONTINUOUS
 62
             7
100
AcDbLine
 10
-11535.752721112371
 20
-16427.348511614378
 11
-11538.13622829757
 21
-16429.34851161436
  0
LINE
  5
64
100
AcDbEntity
  8
0
  6
CONTINUOUS
 62
             7
100
AcDbLine
 10
-11579.039127124541
 20
-16414.34851161436
 11
-11584.17391513459
 21
-16414.34851161436
  0
LINE
  5
63
100
AcDbEntity
  8
0
  6
CONTINUOUS
 62
             7
100
AcDbLine
 10
-11585.76563126092
 20
-16427.348511614378
 11
-11585.76563126092
 21
-16414.34851161436
  0
LINE
  5
62
100
AcDbEntity
  8
0
  6
CONTINUOUS
 62
             7
100
AcDbLine
 10
-11584.61093072254
 20
-16428.24718407961
 11
-11584.61093072254
 21
-16414.34851161436
  0
LINE
  5
61
100
AcDbEntity
  8
0
  6
CONTINUOUS
 62
             7
100
AcDbLine
 10
-11584.61093072254
 20
-16414.34851161436
 11
-11585.76563126092
 21
-16414.34851161436
  0
LINE
  5
60
100
AcDbEntity
  8
0
  6
CONTINUOUS
 62
             7
100
AcDbLine
 10
-11584.17391513459
 20
-16414.34851161436
 11
-11584.61093072254
 21
-16414.34851161436
  0
LINE
  5
5F
100
AcDbEntity
  8
0
  6
CONTINUOUS
 62
             7
100
AcDbLine
 10
-11585.76563126092
 20
-16414.34851161436
 11
-11585.76563126092
 21
-16411.84851161436
  0
LINE
  5
5E
100
AcDbEntity
  8
0
  6
CONTINUOUS
 62
             7
100
AcDbLine
 10
-11535.752721112371
 20
-16411.84851161436
 11
-11585.76563126092
 21
-16411.84851161436
  0
LINE
  5
5D
100
AcDbEntity
  8
0
  6
CONTINUOUS
 62
             7
100
AcDbLine
 10
-11535.752721112371
 20
-16414.34851161436
 11
-11535.752721112371
 21
-16411.84851161436
  0
LINE
  5
5C
100
AcDbEntity
  8
0
  6
CONTINUOUS
 62
             7
100
AcDbLine
 10
-11542.47922524875
 20
-16428.247184079632
 11
-11542.47922524875
 21
-16414.34851161436
  0
LINE
  5
5B
100
AcDbEntity
  8
0
  6
CONTINUOUS
 62
             7
100
AcDbLine
 10
-11536.907421650751
 20
-16428.247184079632
 11
-11536.907421650751
 21
-16414.34851161436
  0
LINE
  5
5A
100
AcDbEntity
  8
0
  6
CONTINUOUS
 62
             7
100
AcDbLine
 10
-11579.039127124541
 20
-16428.247184079632
 11
-11579.039127124541
 21
-16414.34851161436
  0
LINE
  5
59
100
AcDbEntity
  8
0
  6
CONTINUOUS
 62
             7
100
AcDbLine
 10
-11578.441410143099
 20
-16414.34851161436
 11
-11579.039127124541
 21
-16414.34851161436
  0
LINE
  5
58
100
AcDbEntity
  8
0
  6
CONTINUOUS
 62
             7
100
AcDbLine
 10
-11535.752721112371
 20
-16414.34851161436
 11
-11536.907421650751
 21
-16414.34851161436
  0
LINE
  5
57
100
AcDbEntity
  8
0
  6
CONTINUOUS
 62
             7
100
AcDbLine
 10
-11542.47922524875
 20
-16414.34851161436
 11
-11543.0769422302
 21
-16414.34851161436
  0
LINE
  5
56
100
AcDbEntity
  8
0
  6
CONTINUOUS
 62
             7
100
AcDbLine
 10
-11537.344437238709
 20
-16414.34851161436
 11
-11542.47922524875
 21
-16414.34851161436
  0
LINE
  5
55
100
AcDbEntity
  8
0
  6
CONTINUOUS
 62
             7
100
AcDbLine
 10
-11536.907421650751
 20
-16414.34851161436
 11
-11537.344437238709
 21
-16414.34851161436
  0
LINE
  5
54
100
AcDbEntity
  8
0
  6
CONTINUOUS
 62
             7
100
AcDbLine
 10
-11535.752721112371
 20
-16427.348511614378
 11
-11535.752721112371
 21
-16414.34851161436
  0
LINE
  5
53
100
AcDbEntity
  8
0
  6
CONTINUOUS
 62
             7
100
AcDbLine
 10
-11542.78824193447
 20
-16428.612577511562
 11
-11537.344437238709
 21
-16428.612577511562
  0
LINE
  5
52
100
AcDbEntity
  8
0
  6
CONTINUOUS
 62
             7
100
AcDbLine
 10
-11584.17391513459
 20
-16428.612577511562
 11
-11578.730110438821
 21
-16428.612577511562
  0
LINE
  5
51
100
AcDbEntity
  8
0
  6
CONTINUOUS
 62
             7
100
AcDbLine
 10
-11537.344437238709
 20
-16414.34851161436
 11
-11537.344437238709
 21
-16428.612577511562
  0
LINE
  5
50
100
AcDbEntity
  8
0
  6
CONTINUOUS
 62
             7
100
AcDbLine
 10
-11560.759176186641
 20
-16427.348511614378
 11
-11560.759176186641
 21
-16414.34851161436
  0
LINE
  5
4F
100
AcDbEntity
  8
0
  6
CONTINUOUS
 62
             7
100
AcDbLine
 10
-11578.441410143099
 20
-16427.348511614378
 11
-11578.441410143099
 21
-16414.34851161436
  0
LINE
  5
4E
100
AcDbEntity
  8
0
  6
CONTINUOUS
 62
             7
100
AcDbLine
 10
-11562.759176186641
 20
-16428.61257751158
 11
-11562.759176186641
 21
-16428.247184079632
  0
LINE
  5
4D
100
AcDbEntity
  8
0
  6
CONTINUOUS
 62
             7
100
AcDbLine
 10
-11558.759176186641
 20
-16428.247184079632
 11
-11558.759176186641
 21
-16428.61257751158
  0
LINE
  5
4C
100
AcDbEntity
  8
0
  6
CONTINUOUS
 62
             7
100
AcDbLine
 10
-11558.759176186641
 20
-16428.61257751158
 11
-11545.616669059211
 21
-16428.612577511562
  0
LINE
  5
4B
100
AcDbEntity
  8
0
  6
CONTINUOUS
 62
             7
100
AcDbLine
 10
-11575.901683314079
 20
-16414.34851161436
 11
-11576.2106999998
 21
-16414.34851161436
  0
LINE
  5
4A
100
AcDbEntity
  8
0
  6
CONTINUOUS
 62
             7
100
AcDbLine
 10
-11576.2106999998
 20
-16414.34851161436
 11
-11578.441410143099
 21
-16414.34851161436
  0
LINE
  5
49
100
AcDbEntity
  8
0
  6
CONTINUOUS
 62
             7
100
AcDbLine
 10
-11562.759176186641
 20
-16414.34851161436
 11
-11575.901683314079
 21
-16414.34851161436
  0
LINE
  5
48
100
AcDbEntity
  8
0
  6
CONTINUOUS
 62
             7
100
AcDbLine
 10
-11562.759176186641
 20
-16428.247184079632
 11
-11562.759176186641
 21
-16414.34851161436
  0
LINE
  5
47
100
AcDbEntity
  8
0
  6
CONTINUOUS
 62
             7
100
AcDbLine
 10
-11558.759176186641
 20
-16414.34851161436
 11
-11560.759176186641
 21
-16414.34851161436
  0
LINE
  5
46
100
AcDbEntity
  8
0
  6
CONTINUOUS
 62
             7
100
AcDbLine
 10
-11558.759176186641
 20
-16428.247184079632
 11
-11558.759176186641
 21
-16414.34851161436
  0
LINE
  5
45
100
AcDbEntity
  8
0
  6
CONTINUOUS
 62
             7
100
AcDbLine
 10
-11560.759176186641
 20
-16414.34851161436
 11
-11562.759176186641
 21
-16414.34851161436
  0
LINE
  5
44
100
AcDbEntity
  8
0
  6
CONTINUOUS
 62
             7
100
AcDbLine
 10
-11545.307652373491
 20
-16414.34851161436
 11
-11545.616669059211
 21
-16414.34851161436
  0
LINE
  5
43
100
AcDbEntity
  8
0
  6
CONTINUOUS
 62
             7
100
AcDbLine
 10
-11545.616669059211
 20
-16414.34851161436
 11
-11558.759176186641
 21
-16414.34851161436
  0
LINE
  5
42
100
AcDbEntity
  8
0
  6
CONTINUOUS
 62
             7
100
AcDbLine
 10
-11543.0769422302
 20
-16414.34851161436
 11
-11545.307652373491
 21
-16414.34851161436
  0
LINE
  5
41
100
AcDbEntity
  8
0
  6
CONTINUOUS
 62
             7
100
AcDbLine
 10
-11543.0769422302
 20
-16427.348511614378
 11
-11543.0769422302
 21
-16414.34851161436
  0
LINE
  5
40
100
AcDbEntity
  8
0
  6
CONTINUOUS
 62
             7
100
AcDbLine
 10
-11545.307652373491
 20
-16428.247184079632
 11
-11545.307652373491
 21
-16414.34851161436
  0
LINE
  5
3F
100
AcDbEntity
  8
0
  6
CONTINUOUS
 62
             7
100
AcDbLine
 10
-11575.901683314079
 20
-16428.612577511562
 11
-11562.759176186641
 21
-16428.61257751158
  0
LINE
  5
3E
100
AcDbEntity
  8
0
  6
CONTINUOUS
 62
             7
100
AcDbLine
 10
-11545.616669059211
 20
-16414.34851161436
 11
-11545.616669059211
 21
-16428.612577511562
  0
LINE
  5
3D
100
AcDbEntity
  8
0
  6
CONTINUOUS
 62
             7
100
AcDbLine
 10
-11575.901683314079
 20
-16414.34851161436
 11
-11575.901683314079
 21
-16428.612577511562
  0
LINE
  5
3C
100
AcDbEntity
  8
0
  6
CONTINUOUS
 62
             7
100
AcDbLine
 10
-11584.17391513459
 20
-16414.34851161436
 11
-11584.17391513459
 21
-16428.612577511562
  0
LINE
  5
3B
100
AcDbEntity
  8
0
  6
CONTINUOUS
 62
             7
100
AcDbLine
 10
-11576.2106999998
 20
-16428.247184079632
 11
-11576.2106999998
 21
-16414.34851161436
  0
LINE
  5
3A
100
AcDbEntity
  8
1
  6
CONTINUOUS
 62
             7
100
AcDbLine
 10
-11587.891775459469
 20
-16420.84851161436
 11
-11588.891775459469
 21
-16420.84851161436
  0
POINT
  5
39
100
AcDbEntity
  8
1
 62
             3
 60
             1
100
AcDbPoint
 10
-11539.759176186641
 20
-16378.99979804029
  0
POINT
  5
38
100
AcDbEntity
  8
1
 62
             3
 60
             1
100
AcDbPoint
 10
-11539.759176186641
 20
-16379.99979804029
  0
POINT
  5
37
100
AcDbEntity
  8
1
 62
             3
 60
             1
100
AcDbPoint
 10
-11581.759176186641
 20
-16378.99979804029
  0
POINT
  5
36
100
AcDbEntity
  8
1
 62
             3
 60
             1
100
AcDbPoint
 10
-11581.759176186641
 20
-16379.99979804029
  0
ENDBLK
  5
79
100
AcDbEntity
  8
0
100
AcDbBlockEnd
  0
BLOCK
  5
28
100
AcDbEntity
  8
0
100
AcDbBlockBegin
  2
HL_500_BODEN
 70
             0
 10
80.74082381335501
 20
-165.906280876746
 30
0.0
  3
HL_500_BODEN
  1

  0
ARC
  5
84
100
AcDbEntity
  8
1
  6
CONTINUOUS
 62
             7
100
AcDbCircle
 10
116.24082381335489
 20
-156.906280876746
 40
5.0
100
AcDbArc
 50
-90.0
 51
0.0
  0
ARC
  5
83
100
AcDbEntity
  8
1
  6
CONTINUOUS
 62
             7
100
AcDbCircle
 10
-10.25917618664499
 20
-152.906280876746
 40
9.0
100
AcDbArc
 50
180.0
 51
-90.0
  0
ARC
  5
82
100
AcDbEntity
  8
1
  6
CONTINUOUS
 62
             7
100
AcDbCircle
 10
-19.25917618664499
 20
-152.406280876746
 40
1.0
100
AcDbArc
 50
90.0
 51
180.0
  0
ARC
  5
81
100
AcDbEntity
  8
1
  6
CONTINUOUS
 62
             7
100
AcDbCircle
 10
121.24082381335489
 20
-152.406280876746
 40
1.00000000000021
100
AcDbArc
 50
0.0
 51
90.0
  0
LINE
  5
80
100
AcDbEntity
  8
1
  6
CONTINUOUS
 62
             7
100
AcDbLine
 10
-10.25917618664499
 20
-161.906280876746
 11
116.24082381335489
 21
-161.906280876746
  0
LINE
  5
7F
100
AcDbEntity
  8
1
  6
CONTINUOUS
 62
             7
100
AcDbLine
 10
121.24082381335489
 20
-156.906280876746
 11
121.24082381335489
 21
-152.406280876746
  0
LINE
  5
7E
100
AcDbEntity
  8
1
  6
CONTINUOUS
 62
             7
100
AcDbLine
 10
-19.25917618664499
 20
-151.406280876746
 11
121.24082381335489
 21
-151.406280876746
  0
LINE
  5
7D
100
AcDbEntity
  8
1
  6
CONTINUOUS
 62
             7
100
AcDbLine
 10
-19.25917618664499
 20
-152.406280876746
 11
121.24082381335489
 21
-152.406280876746
  0
LINE
  5
7C
100
AcDbEntity
  8
1
  6
CONTINUOUS
 62
             7
100
AcDbLine
 10
-19.25917618664499
 20
-152.406280876746
 11
-19.25917618664499
 21
-152.906280876746
  0
LINE
  5
7B
100
AcDbEntity
  8
1
  6
CONTINUOUS
 62
             7
100
AcDbLine
 10
-20.25917618664499
 20
-152.406280876746
 11
-19.25917618664499
 21
-152.406280876746
  0
LINE
  5
7A
100
AcDbEntity
  8
1
  6
CONTINUOUS
 62
             7
100
AcDbLine
 10
121.24082381335489
 20
-152.406280876746
 11
122.24082381335511
 21
-152.406280876746
  0
ENDBLK
  5
85
100
AcDbEntity
  8
0
100
AcDbBlockEnd
  0
BLOCK
  5
2A
100
AcDbEntity
  8
0
100
AcDbBlockBegin
  2
HOLL_NDERMUTTER_6_4
 70
             0
 10
-153.94733128012629
 20
-79.13375681179792
 30
0.0
  3
HOLL_NDERMUTTER_6_4
  1

  0
POINT
  5
87
100
AcDbEntity
  8
1
 62
             3
 60
             1
100
AcDbPoint
 10
-30.41654468954444
 20
-119.906280876746
  0
POINT
  5
86
100
AcDbEntity
  8
1
 62
             3
 60
             1
100
AcDbPoint
 10
-31.76151595233844
 20
-119.906280876746
  0
ENDBLK
  5
88
100
AcDbEntity
  8
0
100
AcDbBlockEnd
  0
BLOCK
  5
2C
100
AcDbEntity
  8
0
100
AcDbBlockBegin
  2
HL_500_K_RPER
 70
             0
 10
80.74082381335501
 20
-97.906280876746
 30
0.0
  3
HL_500_K_RPER
  1

  0
ARC
  5
BC
100
AcDbEntity
  8
1
  6
CONTINUOUS
 62
             7
100
AcDbCircle
 10
-19.25917618664499
 20
-150.406280876746
 40
1.0
100
AcDbArc
 50
180.0
 51
-90.0
  0
ARC
  5
BB
100
AcDbEntity
  8
1
  6
CONTINUOUS
 62
             7
100
AcDbCircle
 10
121.24082381335489
 20
-150.406280876746
 40
1.0
100
AcDbArc
 50
-90.0
 51
0.0
  0
ARC
  5
BA
100
AcDbEntity
  8
1
  6
CONTINUOUS
 62
             7
100
AcDbCircle
 10
45.24082381335501
 20
-148.6898417108855
 40
3.5
100
AcDbArc
 50
0.0
 51
82.64486212908437
  0
ARC
  5
B9
100
AcDbEntity
  8
1
  6
CONTINUOUS
 62
             7
100
AcDbCircle
 10
105.24082381335489
 20
-135.906280876746
 40
16.0
100
AcDbArc
 50
0.0
 51
48.59037789072904
  0
ARC
  5
B8
100
AcDbEntity
  8
1
  6
CONTINUOUS
 62
             7
100
AcDbCircle
 10
56.24082381335495
 20
-135.906280876746
 40
15.99999999999998
100
AcDbArc
 50
131.4096221092708
 51
180.0
  0
LINE
  5
B7
100
AcDbEntity
  8
1
  6
CONTINUOUS
 62
             7
100
AcDbLine
 10
111.24082381335489
 20
-123.906280876746
 11
115.8238290576133
 21
-123.906280876746
  0
LINE
  5
B6
100
AcDbEntity
  8
1
  6
CONTINUOUS
 62
             7
100
AcDbLine
 10
121.24082381335489
 20
-135.906280876746
 11
121.24082381335489
 21
-150.406280876746
  0
LINE
  5
B5
100
AcDbEntity
  8
1
  6
CONTINUOUS
 62
             7
100
AcDbLine
 10
121.24082381335489
 20
-151.406280876746
 11
-16.25917618664499
 21
-151.406280876746
  0
LINE
  5
B4
100
AcDbEntity
  8
1
  6
CONTINUOUS
 62
             7
100
AcDbLine
 10
50.24082381335501
 20
-123.906280876746
 11
50.24082381335501
 21
-117.106280876746
  0
LINE
  5
B3
100
AcDbEntity
  8
1
  6
CONTINUOUS
 62
             7
100
AcDbLine
 10
45.65781856909661
 20
-123.906280876746
 11
50.24082381335501
 21
-123.906280876746
  0
LINE
  5
B2
100
AcDbEntity
  8
1
  6
CONTINUOUS
 62
             7
100
AcDbLine
 10
-19.25917618664499
 20
-151.406280876746
 11
-16.25917618664499
 21
-151.406280876746
  0
LINE
  5
B1
100
AcDbEntity
  8
1
  6
CONTINUOUS
 62
             7
100
AcDbLine
 10
20.74082381335501
 20
-141.99831421915121
 11
40.24082381335501
 21
-144.5153977176609
  0
LINE
  5
B0
100
AcDbEntity
  8
1
  6
CONTINUOUS
 62
             7
100
AcDbLine
 10
40.24082381335501
 20
-144.5153977176609
 11
40.24082381335501
 21
-135.906280876746
  0
LINE
  5
AF
100
AcDbEntity
  8
1
  6
CONTINUOUS
 62
             7
100
AcDbLine
 10
121.24082381335489
 20
-150.406280876746
 11
-20.25917618664499
 21
-150.406280876746
  0
LINE
  5
AE
100
AcDbEntity
  8
1
  6
CONTINUOUS
 62
             7
100
AcDbLine
 10
122.24082381335511
 20
-150.406280876746
 11
121.24082381335489
 21
-150.406280876746
  0
LINE
  5
AD
100
AcDbEntity
  8
1
  6
CONTINUOUS
 62
             7
100
AcDbLine
 10
50.24082381335501
 20
-123.906280876746
 11
111.24082381335489
 21
-123.906280876746
  0
LINE
  5
AC
100
AcDbEntity
  8
1
  6
CONTINUOUS
 62
             7
100
AcDbLine
 10
40.24082381335501
 20
-144.5153977176609
 11
45.68889061689681
 21
-145.2186407458646
  0
LINE
  5
AB
100
AcDbEntity
  8
1
  6
CONTINUOUS
 62
             7
100
AcDbLine
 10
48.74082381335501
 20
-148.6898417108855
 11
48.74082381335501
 21
-161.406280876746
  0
LINE
  5
AA
100
AcDbEntity
  8
1
  6
CONTINUOUS
 62
             7
100
AcDbLine
 10
43.24082381335501
 20
-134.406280876746
 11
118.24082381335489
 21
-134.406280876746
  0
LINE
  5
A9
100
AcDbEntity
  8
1
  6
CONTINUOUS
 62
             7
100
AcDbLine
 10
111.24082381335489
 20
-117.106280876746
 11
111.24082381335489
 21
-123.906280876746
  0
LINE
  5
A8
100
AcDbEntity
  8
1
  6
PHANTOM
 62
             2
100
AcDbLine
 10
80.74082381335501
 20
-114.606280876746
 11
80.74082381335501
 21
-152.406280876746
  0
LINE
  5
A7
100
AcDbEntity
  8
1
  6
CONTINUOUS
 62
             7
100
AcDbLine
 10
-22.7857142857174
 20
-149.156280876746
 11
-19.25917618664499
 21
-149.156280876746
  0
LINE
  5
A6
100
AcDbEntity
  8
0
  6
CONTINUOUS
 62
             7
100
AcDbLine
 10
-26.5
 20
-137.65628087674239
 11
-22.7857142857174
 21
-136.65628087674239
  0
LINE
  5
A5
100
AcDbEntity
  8
0
  6
CONTINUOUS
 62
             7
100
AcDbLine
 10
-33.5
 20
-137.90628087674239
 11
-26.5
 21
-136.65628087674239
  0
LINE
  5
A4
100
AcDbEntity
  8
0
  6
CONTINUOUS
 62
             7
100
AcDbLine
 10
-40.0
 20
-138.15628087674239
 11
-33.5
 21
-137.15628087674239
  0
LINE
  5
A3
100
AcDbEntity
  8
0
  6
CONTINUOUS
 62
             7
100
AcDbLine
 10
-47.0
 20
-138.40628087674239
 11
-40.0
 21
-137.90628087674239
  0
LINE
  5
A2
100
AcDbEntity
  8
0
  6
CONTINUOUS
 62
             7
100
AcDbLine
 10
-40.0
 20
-147.656280876746
 11
-33.5
 21
-148.656280876746
  0
LINE
  5
A1
100
AcDbEntity
  8
0
  6
CONTINUOUS
 62
             7
100
AcDbLine
 10
-40.0
 20
-147.656280876746
 11
-40.0
 21
-147.906280876746
  0
LINE
  5
A0
100
AcDbEntity
  8
0
  6
CONTINUOUS
 62
             7
100
AcDbLine
 10
-33.5
 20
-147.906280876746
 11
-33.5
 21
-148.656280876746
  0
LINE
  5
9F
100
AcDbEntity
  8
0
  6
CONTINUOUS
 62
             7
100
AcDbLine
 10
-33.5
 20
-147.906280876746
 11
-26.5
 21
-149.156280876746
  0
LINE
  5
9E
100
AcDbEntity
  8
0
  6
CONTINUOUS
 62
             7
100
AcDbLine
 10
-26.5
 20
-148.156280876746
 11
-26.5
 21
-149.156280876746
  0
LINE
  5
9D
100
AcDbEntity
  8
0
  6
CONTINUOUS
 62
             7
100
AcDbLine
 10
-47.0
 20
-147.406280876746
 11
-40.0
 21
-147.906280876746
  0
LINE
  5
9C
100
AcDbEntity
  8
0
  6
CONTINUOUS
 62
             7
100
AcDbLine
 10
-47.0
 20
-138.40628087674239
 11
-47.0
 21
-147.406280876746
  0
LINE
  5
9B
100
AcDbEntity
  8
0
  6
CONTINUOUS
 62
             7
100
AcDbLine
 10
-26.5
 20
-148.156280876746
 11
-22.7857142857174
 21
-149.156280876746
  0
LINE
  5
9A
100
AcDbEntity
  8
0
  6
CONTINUOUS
 62
             7
100
AcDbLine
 10
-40.0
 20
-137.90628087674239
 11
-40.0
 21
-138.15628087674239
  0
LINE
  5
99
100
AcDbEntity
  8
0
  6
CONTINUOUS
 62
             7
100
AcDbLine
 10
-33.5
 20
-137.15628087674239
 11
-33.5
 21
-137.90628087674239
  0
LINE
  5
98
100
AcDbEntity
  8
0
  6
CONTINUOUS
 62
             7
100
AcDbLine
 10
-26.5
 20
-136.65628087674239
 11
-26.5
 21
-137.65628087674239
  0
LINE
  5
97
100
AcDbEntity
  8
1
  6
CONTINUOUS
 62
             7
100
AcDbLine
 10
-22.7857142857174
 20
-136.65628087674239
 11
-19.25917618664499
 21
-136.65628087674239
  0
LINE
  5
96
100
AcDbEntity
  8
1
  6
CONTINUOUS
 62
             7
100
AcDbLine
 10
-40.0
 20
-138.15628087674239
 11
-40.0
 21
-147.656280876746
  0
LINE
  5
95
100
AcDbEntity
  8
1
  6
CONTINUOUS
 62
             7
100
AcDbLine
 10
-33.5
 20
-137.90628087674239
 11
-33.5
 21
-147.906280876746
  0
LINE
  5
94
100
AcDbEntity
  8
1
  6
CONTINUOUS
 62
             7
100
AcDbLine
 10
-26.5
 20
-137.65628087674239
 11
-26.5
 21
-148.156280876746
  0
LINE
  5
93
100
AcDbEntity
  8
1
  6
CONTINUOUS
 62
             7
100
AcDbLine
 10
-22.7857142857174
 20
-136.65628087674239
 11
-22.7857142857174
 21
-149.156280876746
  0
LINE
  5
92
100
AcDbEntity
  8
1
  6
PHANTOM
 62
             2
100
AcDbLine
 10
-48.72065385166928
 20
-142.90628087674429
 11
-18.2308652346255
 21
-142.9062808767442
  0
LINE
  5
91
100
AcDbEntity
  8
1
  6
CONTINUOUS
 62
             7
100
AcDbLine
 10
-19.25917618664499
 20
-123.90628087674411
 11
-19.25917618664499
 21
-150.406280876746
  0
LINE
  5
90
100
AcDbEntity
  8
1
  6
PHANTOM
 62
             2
100
AcDbLine
 10
0.74082381335501
 20
-93.20628087674595
 11
0.74082381335501
 21
-152.40628087674591
  0
LINE
  5
8F
100
AcDbEntity
  8
1
  6
CONTINUOUS
 62
             7
100
AcDbLine
 10
20.740823813355
 20
-123.90628087674411
 11
20.74082381335501
 21
-141.99831421915121
  0
LINE
  5
8E
100
AcDbEntity
  8
1
  6
CONTINUOUS
 62
             7
100
AcDbLine
 10
17.240823813355
 20
-120.40628087674411
 11
17.24082381335575
 21
-110.70628087674601
  0
LINE
  5
8D
100
AcDbEntity
  8
1
  6
CONTINUOUS
 62
             7
100
AcDbLine
 10
17.240823813355
 20
-120.40628087674411
 11
20.740823813355
 21
-123.90628087674411
  0
LINE
  5
8C
100
AcDbEntity
  8
1
  6
CONTINUOUS
 62
             7
100
AcDbLine
 10
-19.25917618664499
 20
-123.90628087674411
 11
-15.75917618664499
 21
-120.40628087674411
  0
LINE
  5
8B
100
AcDbEntity
  8
1
  6
CONTINUOUS
 62
             7
100
AcDbLine
 10
-15.75917618664425
 20
-110.70628087674601
 11
-15.75917618664499
 21
-120.40628087674411
  0
LINE
  5
8A
100
AcDbEntity
  8
1
  6
CONTINUOUS
 62
             7
100
AcDbLine
 10
-15.75917618664499
 20
-120.40628087674411
 11
17.240823813355
 21
-120.40628087674411
  0
LINE
  5
89
100
AcDbEntity
  8
1
  6
CONTINUOUS
 62
             7
100
AcDbLine
 10
20.740823813355
 20
-123.90628087674411
 11
-19.25917618664499
 21
-123.90628087674411
  0
ENDBLK
  5
BD
100
AcDbEntity
  8
0
100
AcDbBlockEnd
  0
BLOCK
  5
2E
100
AcDbEntity
  8
0
100
AcDbBlockBegin
  2
HL_500_ABGANGSSTUTZEN
 70
             0
 10
80.74082381335501
 20
-108.606280876746
 30
0.0
  3
HL_500_ABGANGSSTUTZEN
  1

  0
ARC
  5
E1
100
AcDbEntity
  8
1
  6
CONTINUOUS
 62
             7
100
AcDbCircle
 10
79.99999999999992
 20
-108.6386259429662
 40
36.00000000000005
100
AcDbArc
 50
154.99999999999983
 51
-165.40593177313983
  0
ARC
  5
E0
100
AcDbEntity
  8
1
  6
CONTINUOUS
 62
             7
100
AcDbCircle
 10
78.5619302446635
 20
-92.20141342445243
 40
20.00000000000021
100
AcDbArc
 50
95.0
 51
171.58181341519011
  0
ARC
  5
DF
100
AcDbEntity
  8
1
  6
CONTINUOUS
 62
             7
100
AcDbCircle
 10
79.99999999999992
 20
-108.6386259429662
 40
35.99999999999992
100
AcDbArc
 50
-4.59406822686038
 51
16.44874180574886
  0
LINE
  5
DE
100
AcDbEntity
  8
1
  6
CONTINUOUS
 62
             7
100
AcDbLine
 10
47.37291966668052
 20
-93.4243685203009
 11
58.77741196329015
 21
-89.27347278741684
  0
LINE
  5
DD
100
AcDbEntity
  8
1
  6
CONTINUOUS
 62
             7
100
AcDbLine
 10
76.81881538971032
 20
-72.27751946261731
 11
109.19514307769199
 21
-69.44495782331865
  0
LINE
  5
DC
100
AcDbEntity
  8
1
  6
CONTINUOUS
 62
             7
100
AcDbLine
 10
109.19514307769199
 20
-69.44495782331865
 11
168.12487480131881
 21
-69.44495782331853
  0
LINE
  5
DB
100
AcDbEntity
  8
1
  6
CONTINUOUS
 62
             7
100
AcDbLine
 10
168.1248748013185
 20
-119.4449578233185
 11
218.6248748013187
 21
-119.4449578233185
  0
LINE
  5
DA
100
AcDbEntity
  8
1
  6
CONTINUOUS
 62
             7
100
AcDbLine
 10
122.47408489030479
 20
-109.4449578233187
 11
158.1248748013185
 21
-109.4449578233187
  0
LINE
  5
D9
100
AcDbEntity
  8
1
  6
CONTINUOUS
 62
             7
100
AcDbLine
 10
168.1248748013185
 20
-119.4449578233185
 11
158.1248748013185
 21
-109.4449578233187
  0
LINE
  5
D8
100
AcDbEntity
  8
1
  6
CONTINUOUS
 62
             7
100
AcDbLine
 10
218.6248748013187
 20
-69.44495782331853
 11
222.12487480131881
 21
-70.38277999682754
  0
LINE
  5
D7
100
AcDbEntity
  8
1
  6
CONTINUOUS
 62
             7
100
AcDbLine
 10
218.6248748013187
 20
-119.4449578233185
 11
222.1248748013187
 21
-118.5071356498097
  0
LINE
  5
D6
100
AcDbEntity
  8
1
  6
CONTINUOUS
 62
             7
100
AcDbLine
 10
222.12487480131881
 20
-94.44495782331853
 11
222.12487480131881
 21
-70.38277999682754
  0
LINE
  5
D5
100
AcDbEntity
  8
1
  6
CONTINUOUS
 62
             7
100
AcDbLine
 10
222.12487480131881
 20
-94.44495782331853
 11
222.1248748013187
 21
-118.5071356498097
  0
LINE
  5
D4
100
AcDbEntity
  8
1
  6
CONTINUOUS
 62
             7
100
AcDbLine
 10
114.5266437735623
 20
-98.44495782331865
 11
119.5266437735624
 21
-98.44495782331842
  0
LINE
  5
D3
100
AcDbEntity
  8
1
  6
CONTINUOUS
 62
             7
100
AcDbLine
 10
119.5266437735624
 20
-98.44495782331842
 11
122.47408489030479
 21
-109.4449578233187
  0
LINE
  5
D2
100
AcDbEntity
  8
1
  6
CONTINUOUS
 62
             7
100
AcDbLine
 10
112.5060035143669
 20
-114.32718775804361
 11
42.88542528586869
 21
-120.418199101157
  0
LINE
  5
D1
100
AcDbEntity
  8
1
  6
CONTINUOUS
 62
             7
100
AcDbLine
 10
42.88542528586869
 20
-120.418199101157
 11
42.66753592899955
 21
-117.9277123559275
  0
LINE
  5
D0
100
AcDbEntity
  8
1
  6
CONTINUOUS
 62
             7
100
AcDbLine
 10
42.66753592899955
 20
-117.9277123559275
 11
45.16153057601628
 21
-117.7095160974192
  0
LINE
  5
CF
100
AcDbEntity
  8
1
  6
CONTINUOUS
 62
             7
100
AcDbLine
 10
118.59622234084119
 20
-113.7943626523348
 11
112.5060035143669
 21
-114.32718775804361
  0
LINE
  5
CE
100
AcDbEntity
  8
1
  6
CONTINUOUS
 62
             7
100
AcDbLine
 10
115.88433833695539
 20
-111.52207216561391
 11
118.378332983972
 21
-111.30387590710539
  0
LINE
  5
CD
100
AcDbEntity
  8
1
  6
CONTINUOUS
 62
             7
100
AcDbLine
 10
118.378332983972
 20
-111.30387590710539
 11
118.59622234084119
 21
-113.7943626523348
  0
LINE
  5
CC
100
AcDbEntity
  8
1
  6
DASH_CENTER
 62
             2
100
AcDbLine
 10
159.56676227788591
 20
-94.44495782331865
 11
226.37986687885859
 21
-94.44495782331865
  0
LINE
  5
CB
100
AcDbEntity
  8
1
  6
CONTINUOUS
 62
             7
100
AcDbLine
 10
47.37291966668052
 20
-93.4243685203009
 11
114.5266437735623
 21
-98.44495782331865
  0
LINE
  5
CA
100
AcDbEntity
  8
1
  6
CONTINUOUS
 62
             7
100
AcDbLine
 10
114.5266437735623
 20
-98.44495782331865
 11
58.77741196329015
 21
-89.27347278741684
  0
LINE
  5
C9
100
AcDbEntity
  8
1
  6
CONTINUOUS
 62
             7
100
AcDbLine
 10
168.1248748013185
 20
-119.4449578233185
 11
168.1248748013187
 21
-104.4449578233187
  0
LINE
  5
C8
100
AcDbEntity
  8
1
  6
CONTINUOUS
 62
             7
100
AcDbLine
 10
168.12487480131881
 20
-69.44495782331853
 11
218.6248748013187
 21
-69.44495782331853
  0
LINE
  5
C7
100
AcDbEntity
  8
1
  6
CONTINUOUS
 62
             7
100
AcDbLine
 10
168.12487480131881
 20
-69.44495782331853
 11
158.1248748013185
 21
-109.4449578233187
  0
LINE
  5
C6
100
AcDbEntity
  8
1
  6
CONTINUOUS
 62
             7
100
AcDbLine
 10
45.16153057601628
 20
-117.7095160974192
 11
115.88433833695539
 21
-111.52207216561391
  0
LINE
  5
C5
100
AcDbEntity
  8
1
  6
CONTINUOUS
 62
             7
100
AcDbLine
 10
218.6248748013187
 20
-69.44495782331853
 11
218.6248748013187
 21
-119.4449578233185
  0
LINE
  5
C4
100
AcDbEntity
  8
1
  6
CONTINUOUS
 62
             7
100
AcDbLine
 10
168.1248748013187
 20
-84.44495782331865
 11
166.32487480131871
 21
-84.4449578233187
  0
LINE
  5
C3
100
AcDbEntity
  8
1
  6
CONTINUOUS
 62
             7
100
AcDbLine
 10
168.1248748013187
 20
-84.44495782331865
 11
168.12487480131881
 21
-69.44495782331853
  0
LINE
  5
C2
100
AcDbEntity
  8
1
  6
CONTINUOUS
 62
             7
100
AcDbLine
 10
166.32487480131871
 20
-84.4449578233187
 11
166.32487480131871
 21
-104.4449578233187
  0
LINE
  5
C1
100
AcDbEntity
  8
1
  6
CONTINUOUS
 62
             7
100
AcDbLine
 10
166.32487480131871
 20
-104.4449578233187
 11
168.1248748013187
 21
-104.4449578233187
  0
LINE
  5
C0
100
AcDbEntity
  8
1
  6
CONTINUOUS
 62
             7
100
AcDbLine
 10
168.1248748013187
 20
-104.4449578233187
 11
168.1248748013187
 21
-84.44495782331865
  0
LINE
  5
BF
100
AcDbEntity
  8
1
  6
PHANTOM
 62
             2
100
AcDbLine
 10
101.1224589464631
 20
-89.44495782331853
 11
172.73126480282031
 21
-89.44495782331853
  0
LINE
  5
BE
100
AcDbEntity
  8
1
  6
PHANTOM
 62
             2
100
AcDbLine
 10
81.04626255488742
 20
-120.5974616677515
 11
78.73355545546562
 21
-94.16309856039294
  0
ENDBLK
  5
E2
100
AcDbEntity
  8
0
100
AcDbBlockEnd
  0
BLOCK
  5
E5
100
AcDbEntity
  8
0
100
AcDbBlockBegin
  2
*D5
 70
             1
 10
0.0
 20
0.0
 30
0.0
  3
*D5
  1

  0
LINE
  5
E6
100
AcDbEntity
  8
0
  6
CONTINUOUS
 62
             4
100
AcDbLine
 10
-20.25917618663516
 20
-80.20628087674595
 11
-42.6620820853425
 21
-80.20628087674595
  0
LINE
  5
E7
100
AcDbEntity
  8
0
  6
CONTINUOUS
 62
             4
100
AcDbLine
 10
21.74082381336484
 20
-80.20628087674595
 11
-20.25917618663516
 21
-80.20628087674595
  0
LINE
  5
E8
100
AcDbEntity
  8
0
  6
CONTINUOUS
 62
             4
100
AcDbLine
 10
-20.25917618663516
 20
-90.20628087674595
 11
-20.25917618663516
 21
-78.20628087674595
  0
LINE
  5
E9
100
AcDbEntity
  8
0
  6
CONTINUOUS
 62
             4
100
AcDbLine
 10
21.74082381336484
 20
-90.20628087674595
 11
21.74082381336484
 21
-78.20628087674595
  0
SOLID
  5
EA
100
AcDbEntity
  8
0
 62
             4
100
AcDbTrace
 10
14.74082381336484
 20
-81.12784835985772
 11
14.74082381336484
 21
-79.28471339363418
 12
21.74082381336484
 22
-80.20628087674595
 13
21.74082381336484
 23
-80.20628087674595
  0
SOLID
  5
EB
100
AcDbEntity
  8
0
 62
             4
100
AcDbTrace
 10
-13.25917618663516
 20
-79.28471339363418
 11
-13.25917618663516
 21
-81.12784835985772
 12
-20.25917618663516
 22
-80.20628087674595
 13
-20.25917618663516
 23
-80.20628087674595
  0
MTEXT
  5
ED
100
AcDbEntity
  8
0
 62
             1
100
AcDbMText
 10
-42.6620820853425
 20
-78.20628087674595
 30
0.0
 40
7.0
 41
0.0
 71
             7
 72
             1
  1
5/4"
  7
CONVERTER_1
 11
0.99999999999706
 21
0.00000242406841
 31
0.0
  0
ENDBLK
  5
EE
100
AcDbEntity
  8
0
100
AcDbBlockEnd
  0
BLOCK
  5
F2
100
AcDbEntity
  8
0
100
AcDbBlockBegin
  2
*D6
 70
             1
 10
0.0
 20
0.0
 30
0.0
  3
*D6
  1

  0
LINE
  5
F3
100
AcDbEntity
  8
0
  6
CONTINUOUS
 62
             4
100
AcDbLine
 10
-88.8165884627325
 20
-161.906280876746
 11
-88.8165884627325
 21
-102.20628087674595
  0
LINE
  5
F4
100
AcDbEntity
  8
0
  6
CONTINUOUS
 62
             4
100
AcDbLine
 10
-27.39177545947314
 20
-102.20628087674595
 11
-90.8165884627325
 21
-102.20628087674595
  0
LINE
  5
F5
100
AcDbEntity
  8
0
  6
CONTINUOUS
 62
             4
100
AcDbLine
 10
-10.25917618664499
 20
-161.906280876746
 11
-90.8165884627325
 21
-161.906280876746
  0
SOLID
  5
F6
100
AcDbEntity
  8
0
 62
             4
100
AcDbTrace
 10
-89.73815594584427
 20
-154.906280876746
 11
-87.89502097962073
 21
-154.906280876746
 12
-88.8165884627325
 22
-161.906280876746
 13
-88.8165884627325
 23
-161.906280876746
  0
SOLID
  5
F7
100
AcDbEntity
  8
0
 62
             4
100
AcDbTrace
 10
-87.89502097962073
 20
-109.20628087674595
 11
-89.73815594584427
 21
-109.20628087674595
 12
-88.8165884627325
 22
-102.20628087674595
 13
-88.8165884627325
 23
-102.20628087674595
  0
MTEXT
  5
F8
100
AcDbEntity
  8
0
 62
             1
100
AcDbMText
 10
-90.8165884627325
 20
-134.91995410901299
 30
0.0
 40
7.0
 41
0.0
 71
             7
 72
             1
  1
60
  7
CONVERTER_1
 11
0.0
 21
1.0
 31
0.0
  0
ENDBLK
  5
F9
100
AcDbEntity
  8
0
100
AcDbBlockEnd
  0
BLOCK
  5
FD
100
AcDbEntity
  8
0
100
AcDbBlockBegin
  2
*D7
 70
             1
 10
0.0
 20
0.0
 30
0.0
  3
*D7
  1

  0
LINE
  5
FE
100
AcDbEntity
  8
0
  6
CONTINUOUS
 62
             4
100
AcDbLine
 10
-57.0
 20
-147.406280876746
 11
-57.0
 21
-161.406280876746
  0
LINE
  5
FF
100
AcDbEntity
  8
0
  6
CONTINUOUS
 62
             4
100
AcDbLine
 10
-57.0
 20
-138.40628087674239
 11
-57.0
 21
-147.406280876746
  0
LINE
  5
100
100
AcDbEntity
  8
0
  6
CONTINUOUS
 62
             4
100
AcDbLine
 10
-57.0
 20
-66.8225402293568
 11
-57.0
 21
-138.40628087674239
  0
LINE
  5
101
100
AcDbEntity
  8
0
  6
CONTINUOUS
 62
             4
100
AcDbLine
 10
-47.0
 20
-147.406280876746
 11
-59.0
 21
-147.406280876746
  0
LINE
  5
102
100
AcDbEntity
  8
0
  6
CONTINUOUS
 62
             4
100
AcDbLine
 10
-47.0
 20
-138.40628087674239
 11
-59.0
 21
-138.40628087674239
  0
SOLID
  5
103
100
AcDbEntity
  8
0
 62
             4
100
AcDbTrace
 10
-57.92156748311177
 20
-131.40628087674239
 11
-56.07843251688823
 21
-131.40628087674239
 12
-57.0
 22
-138.40628087674239
 13
-57.0
 23
-138.40628087674239
  0
SOLID
  5
104
100
AcDbEntity
  8
0
 62
             4
100
AcDbTrace
 10
-56.07843251688824
 20
-154.406280876746
 11
-57.92156748311177
 21
-154.406280876746
 12
-57.0
 22
-147.406280876746
 13
-57.0
 23
-147.406280876746
  0
MTEXT
  5
105
100
AcDbEntity
  8
0
 62
             1
100
AcDbMText
 10
-59.0
 20
-94.2625402293568
 30
0.0
 40
7.0
 41
0.0
 71
             7
 72
             1
  1
\C1;Ø\C1;8\C1;-13
  7
CONVERTER_1
 11
0.0
 21
1.0
 31
0.0
  0
ENDBLK
  5
106
100
AcDbEntity
  8
0
100
AcDbBlockEnd
  0
BLOCK
  5
10A
100
AcDbEntity
  8
0
100
AcDbBlockBegin
  2
*D8
 70
             1
 10
0.0
 20
0.0
 30
0.0
  3
*D8
  1

  0
LINE
  5
10B
100
AcDbEntity
  8
0
  6
CONTINUOUS
 62
             4
100
AcDbLine
 10
-72.0223121385082
 20
-142.90628087674429
 11
-72.0223121385082
 21
-128.90628087674429
  0
LINE
  5
10C
100
AcDbEntity
  8
0
  6
CONTINUOUS
 62
             4
100
AcDbLine
 10
-72.0223121385082
 20
-161.906280876746
 11
-72.0223121385082
 21
-142.90628087674429
  0
LINE
  5
10D
100
AcDbEntity
  8
0
  6
CONTINUOUS
 62
             4
100
AcDbLine
 10
-72.0223121385082
 20
-175.906280876746
 11
-72.0223121385082
 21
-161.906280876746
  0
LINE
  5
10E
100
AcDbEntity
  8
0
  6
CONTINUOUS
 62
             4
100
AcDbLine
 10
-48.72065385166928
 20
-142.90628087674429
 11
-74.0223121385082
 21
-142.90628087674429
  0
LINE
  5
10F
100
AcDbEntity
  8
0
  6
CONTINUOUS
 62
             4
100
AcDbLine
 10
-10.25917618664499
 20
-161.906280876746
 11
-74.0223121385082
 21
-161.906280876746
  0
SOLID
  5
110
100
AcDbEntity
  8
0
 62
             4
100
AcDbTrace
 10
-71.10074465539643
 20
-168.906280876746
 11
-72.94387962161997
 21
-168.906280876746
 12
-72.0223121385082
 22
-161.906280876746
 13
-72.0223121385082
 23
-161.906280876746
  0
SOLID
  5
111
100
AcDbEntity
  8
0
 62
             4
100
AcDbTrace
 10
-72.94387962161997
 20
-135.90628087674429
 11
-71.10074465539643
 21
-135.90628087674429
 12
-72.0223121385082
 22
-142.90628087674429
 13
-72.0223121385082
 23
-142.90628087674429
  0
MTEXT
  5
112
100
AcDbEntity
  8
0
 62
             1
100
AcDbMText
 10
-74.0223121385082
 20
-156.57145676326599
 30
0.0
 40
7.0
 41
0.0
 71
             7
 72
             1
  1
19
  7
CONVERTER_1
 11
0.0
 21
1.0
 31
0.0
  0
ENDBLK
  5
113
100
AcDbEntity
  8
0
100
AcDbBlockEnd
  0
BLOCK
  5
117
100
AcDbEntity
  8
0
100
AcDbBlockBegin
  2
*D9
 70
             1
 10
0.0
 20
0.0
 30
0.0
  3
*D9
  1

  0
LINE
  5
118
100
AcDbEntity
  8
0
  6
CONTINUOUS
 62
             4
100
AcDbLine
 10
121.24082381335489
 20
-178.21927191874599
 11
-19.25917618664499
 21
-178.21927191874599
  0
LINE
  5
119
100
AcDbEntity
  8
0
  6
CONTINUOUS
 62
             4
100
AcDbLine
 10
-19.25917618664499
 20
-152.906280876746
 11
-19.25917618664499
 21
-180.21927191874599
  0
LINE
  5
11A
100
AcDbEntity
  8
0
  6
CONTINUOUS
 62
             4
100
AcDbLine
 10
121.24082381335489
 20
-156.906280876746
 11
121.24082381335489
 21
-180.21927191874599
  0
SOLID
  5
11B
100
AcDbEntity
  8
0
 62
             4
100
AcDbTrace
 10
114.24082381335489
 20
-179.14083940185776
 11
114.24082381335489
 21
-177.29770443563422
 12
121.24082381335489
 22
-178.21927191874599
 13
121.24082381335489
 23
-178.21927191874599
  0
SOLID
  5
11C
100
AcDbEntity
  8
0
 62
             4
100
AcDbTrace
 10
-12.25917618664499
 20
-177.29770443563422
 11
-12.25917618664499
 21
-179.14083940185776
 12
-19.25917618664499
 22
-178.21927191874599
 13
-19.25917618664499
 23
-178.21927191874599
  0
MTEXT
  5
11D
100
AcDbEntity
  8
0
 62
             1
100
AcDbMText
 10
39.09657894666281
 20
-176.21927191874599
 30
0.0
 40
7.0
 41
0.0
 71
             7
 72
             1
  1
140
  7
CONVERTER_1
 11
0.99999999999706
 21
0.00000242406841
 31
0.0
  0
ENDBLK
  5
11E
100
AcDbEntity
  8
0
100
AcDbBlockEnd
  0
BLOCK
  5
122
100
AcDbEntity
  8
0
100
AcDbBlockBegin
  2
*D10
 70
             1
 10
0.0
 20
0.0
 30
0.0
  3
*D10
  1

  0
LINE
  5
123
100
AcDbEntity
  8
0
  6
CONTINUOUS
 62
             4
100
AcDbLine
 10
252.55457202718699
 20
-161.906280876746
 11
252.55457202718699
 21
-94.44495782331865
  0
LINE
  5
124
100
AcDbEntity
  8
0
  6
CONTINUOUS
 62
             4
100
AcDbLine
 10
226.37986687885859
 20
-94.44495782331865
 11
254.55457202718699
 21
-94.44495782331865
  0
LINE
  5
125
100
AcDbEntity
  8
0
  6
CONTINUOUS
 62
             4
100
AcDbLine
 10
116.24082381335489
 20
-161.906280876746
 11
254.55457202718699
 21
-161.906280876746
  0
SOLID
  5
126
100
AcDbEntity
  8
0
 62
             4
100
AcDbTrace
 10
251.63300454407522
 20
-154.906280876746
 11
253.47613951029876
 21
-154.906280876746
 12
252.55457202718699
 22
-161.906280876746
 13
252.55457202718699
 23
-161.906280876746
  0
SOLID
  5
127
100
AcDbEntity
  8
0
 62
             4
100
AcDbTrace
 10
253.47613951029876
 20
-101.44495782331865
 11
251.63300454407522
 21
-101.44495782331865
 12
252.55457202718699
 22
-94.44495782331865
 13
252.55457202718699
 23
-94.44495782331865
  0
MTEXT
  5
128
100
AcDbEntity
  8
0
 62
             1
100
AcDbMText
 10
250.55457202718699
 20
-135.78899799773399
 30
0.0
 40
7.0
 41
0.0
 71
             7
 72
             1
  1
68
  7
CONVERTER_1
 11
0.0
 21
1.0
 31
0.0
  0
ENDBLK
  5
129
100
AcDbEntity
  8
0
100
AcDbBlockEnd
  0
BLOCK
  5
12D
100
AcDbEntity
  8
0
100
AcDbBlockBegin
  2
*D11
 70
             1
 10
0.0
 20
0.0
 30
0.0
  3
*D11
  1

  0
LINE
  5
12E
100
AcDbEntity
  8
0
  6
CONTINUOUS
 62
             4
100
AcDbLine
 10
238.21534786328999
 20
-69.44495782331853
 11
238.21534786328999
 21
-37.6369602353999
  0
LINE
  5
12F
100
AcDbEntity
  8
0
  6
CONTINUOUS
 62
             4
100
AcDbLine
 10
238.21534786328999
 20
-119.4449578233185
 11
238.21534786328999
 21
-69.44495782331853
  0
LINE
  5
130
100
AcDbEntity
  8
0
  6
CONTINUOUS
 62
             4
100
AcDbLine
 10
218.6248748013187
 20
-69.44495782331853
 11
240.21534786328999
 21
-69.44495782331853
  0
LINE
  5
131
100
AcDbEntity
  8
0
  6
CONTINUOUS
 62
             4
100
AcDbLine
 10
218.6248748013187
 20
-119.4449578233185
 11
240.21534786328999
 21
-119.4449578233185
  0
SOLID
  5
132
100
AcDbEntity
  8
0
 62
             4
100
AcDbTrace
 10
237.29378038017822
 20
-112.4449578233185
 11
239.13691534640176
 21
-112.4449578233185
 12
238.21534786328999
 22
-119.4449578233185
 13
238.21534786328999
 23
-119.4449578233185
  0
SOLID
  5
133
100
AcDbEntity
  8
0
 62
             4
100
AcDbTrace
 10
239.13691534640176
 20
-76.44495782331853
 11
237.29378038017822
 21
-76.44495782331853
 12
238.21534786328999
 22
-69.44495782331853
 13
238.21534786328999
 23
-69.44495782331853
  0
MTEXT
  5
134
100
AcDbEntity
  8
0
 62
             1
100
AcDbMText
 10
236.21534786328999
 20
-59.61696023539989
 30
0.0
 40
7.0
 41
0.0
 71
             7
 72
             1
  1
\C1;DN\C1;50
  7
CONVERTER_1
 11
0.0
 21
1.0
 31
0.0
  0
ENDBLK
  5
135
100
AcDbEntity
  8
0
100
AcDbBlockEnd
  0
BLOCK
  5
139
100
AcDbEntity
  8
0
100
AcDbBlockBegin
  2
*D12
 70
             1
 10
0.0
 20
0.0
 30
0.0
  3
*D12
  1

  0
LINE
  5
13A
100
AcDbEntity
  8
0
  6
CONTINUOUS
 62
             4
100
AcDbLine
 10
146.649565149653
 20
-109.4449578233187
 11
146.649565149653
 21
-69.44495782331853
  0
LINE
  5
13B
100
AcDbEntity
  8
0
  6
CONTINUOUS
 62
             4
100
AcDbLine
 10
146.649565149653
 20
-141.83973136643499
 11
146.649565149653
 21
-109.4449578233187
  0
LINE
  5
13C
100
AcDbEntity
  8
0
  6
CONTINUOUS
 62
             4
100
AcDbLine
 10
168.12487480131881
 20
-69.44495782331853
 11
144.649565149653
 21
-69.44495782331853
  0
LINE
  5
13D
100
AcDbEntity
  8
0
  6
CONTINUOUS
 62
             4
100
AcDbLine
 10
158.1248748013185
 20
-109.4449578233187
 11
144.649565149653
 21
-109.4449578233187
  0
SOLID
  5
13E
100
AcDbEntity
  8
0
 62
             4
100
AcDbTrace
 10
145.72799766654123
 20
-102.4449578233187
 11
147.57113263276477
 21
-102.4449578233187
 12
146.649565149653
 22
-109.4449578233187
 13
146.649565149653
 23
-109.4449578233187
  0
SOLID
  5
13F
100
AcDbEntity
  8
0
 62
             4
100
AcDbTrace
 10
147.57113263276477
 20
-76.44495782331853
 11
145.72799766654123
 21
-76.44495782331853
 12
146.649565149653
 22
-69.44495782331853
 13
146.649565149653
 23
-69.44495782331853
  0
MTEXT
  5
140
100
AcDbEntity
  8
0
 62
             1
100
AcDbMText
 10
144.649565149653
 20
-137.919731366435
 30
0.0
 40
7.0
 41
0.0
 71
             7
 72
             1
  1
\C1;DN\C1;40
  7
CONVERTER_1
 11
0.0
 21
1.0
 31
0.0
  0
ENDBLK
  5
141
100
AcDbEntity
  8
0
100
AcDbBlockEnd
  0
BLOCK
  5
145
100
AcDbEntity
  8
0
100
AcDbBlockBegin
  2
*D13
 70
             1
 10
0.0
 20
0.0
 30
0.0
  3
*D13
  1

  0
LINE
  5
146
100
AcDbEntity
  8
0
  6
CONTINUOUS
 62
             4
100
AcDbLine
 10
80.74082381335501
 20
-53.46425033401204
 11
222.12487480131881
 21
-53.46425033401204
  0
LINE
  5
147
100
AcDbEntity
  8
0
  6
CONTINUOUS
 62
             4
100
AcDbLine
 10
222.12487480131881
 20
-70.38277999682754
 11
222.12487480131881
 21
-51.46425033401204
  0
LINE
  5
148
100
AcDbEntity
  8
0
  6
CONTINUOUS
 62
             4
100
AcDbLine
 10
80.74082381335501
 20
-114.60628087674598
 11
80.74082381335501
 21
-51.46425033401204
  0
SOLID
  5
149
100
AcDbEntity
  8
0
 62
             4
100
AcDbTrace
 10
87.74082381335501
 20
-52.54268285090027
 11
87.74082381335501
 21
-54.38581781712382
 12
80.74082381335501
 22
-53.46425033401204
 13
80.74082381335501
 23
-53.46425033401204
  0
SOLID
  5
14A
100
AcDbEntity
  8
0
 62
             4
100
AcDbTrace
 10
215.12487480131881
 20
-54.38581781712382
 11
215.12487480131881
 21
-52.54268285090027
 12
222.12487480131881
 22
-53.46425033401204
 13
222.12487480131881
 23
-53.46425033401204
  0
MTEXT
  5
14B
100
AcDbEntity
  8
0
 62
             1
100
AcDbMText
 10
133.231205142433
 20
-51.46425033401204
 30
0.0
 40
7.0
 41
0.0
 71
             7
 72
             1
  1
142
  7
CONVERTER_1
 11
0.99999999999706
 21
0.00000242406841
 31
0.0
  0
ENDBLK
  5
14C
100
AcDbEntity
  8
0
100
AcDbBlockEnd
  0
BLOCK
  5
150
100
AcDbEntity
  8
0
100
AcDbBlockBegin
  2
*D14
 70
             1
 10
0.0
 20
0.0
 30
0.0
  3
*D14
  1

  0
LINE
  5
151
100
AcDbEntity
  8
0
  6
CONTINUOUS
 62
             4
100
AcDbLine
 10
0.740823813355
 20
-53.68261034123202
 11
80.74082381335501
 21
-53.68261034123202
  0
LINE
  5
152
100
AcDbEntity
  8
0
  6
CONTINUOUS
 62
             4
100
AcDbLine
 10
80.74082381335501
 20
-114.606280876746
 11
80.74082381335501
 21
-51.68261034123202
  0
LINE
  5
153
100
AcDbEntity
  8
0
  6
CONTINUOUS
 62
             4
100
AcDbLine
 10
0.740823813355
 20
-93.20628087674595
 11
0.740823813355
 21
-51.68261034123202
  0
SOLID
  5
154
100
AcDbEntity
  8
0
 62
             4
100
AcDbTrace
 10
7.740823813355
 20
-52.76104285812025
 11
7.740823813355
 21
-54.60417782434379
 12
0.740823813355
 22
-53.68261034123202
 13
0.740823813355
 23
-53.68261034123202
  0
SOLID
  5
155
100
AcDbEntity
  8
0
 62
             4
100
AcDbTrace
 10
73.74082381335501
 20
-54.60417782434379
 11
73.74082381335501
 21
-52.76104285812025
 12
80.74082381335501
 22
-53.68261034123202
 13
80.74082381335501
 23
-53.68261034123202
  0
MTEXT
  5
156
100
AcDbEntity
  8
0
 62
             1
100
AcDbMText
 10
31.8896838284394
 20
-51.68261034123202
 30
0.0
 40
7.0
 41
0.0
 71
             7
 72
             1
  1
80
  7
CONVERTER_1
 11
0.99999999999706
 21
0.00000242406841
 31
0.0
  0
ENDBLK
  5
157
100
AcDbEntity
  8
0
100
AcDbBlockEnd
  0
BLOCK
  5
15B
100
AcDbEntity
  8
0
100
AcDbBlockBegin
  2
*D15
 70
             1
 10
0.0
 20
0.0
 30
0.0
  3
*D15
  1

  0
LINE
  5
15C
100
AcDbEntity
  8
0
  6
CONTINUOUS
 62
             4
100
AcDbLine
 10
-19.25917618664499
 20
-178.21927191874599
 11
-47.0
 21
-178.21927191874599
  0
LINE
  5
15D
100
AcDbEntity
  8
0
  6
CONTINUOUS
 62
             4
100
AcDbLine
 10
-47.0
 20
-147.406280876746
 11
-47.0
 21
-180.21927191874599
  0
LINE
  5
15E
100
AcDbEntity
  8
0
  6
CONTINUOUS
 62
             4
100
AcDbLine
 10
-19.25917618664499
 20
-152.906280876746
 11
-19.25917618664499
 21
-180.21927191874599
  0
SOLID
  5
15F
100
AcDbEntity
  8
0
 62
             4
100
AcDbTrace
 10
-26.25917618664499
 20
-179.14083940185776
 11
-26.25917618664499
 21
-177.29770443563422
 12
-19.25917618664499
 22
-178.21927191874599
 13
-19.25917618664499
 23
-178.21927191874599
  0
SOLID
  5
160
100
AcDbEntity
  8
0
 62
             4
100
AcDbTrace
 10
-40.0
 20
-177.29770443563422
 11
-40.0
 21
-179.14083940185776
 12
-47.0
 22
-178.21927191874599
 13
-47.0
 23
-178.21927191874599
  0
MTEXT
  5
161
100
AcDbEntity
  8
0
 62
             1
100
AcDbMText
 10
-35.9399892224125
 20
-176.21927191874599
 30
0.0
 40
7.0
 41
0.0
 71
             7
 72
             1
  1
27
  7
CONVERTER_1
 11
0.99999999999706
 21
0.00000242406841
 31
0.0
  0
ENDBLK
  5
162
100
AcDbEntity
  8
0
100
AcDbBlockEnd
  0
BLOCK
  5
166
100
AcDbEntity
  8
0
100
AcDbBlockBegin
  2
*D16
 70
             1
 10
0.0
 20
0.0
 30
0.0
  3
*D16
  1

  0
LINE
  5
167
100
AcDbEntity
  8
0
  6
CONTINUOUS
 62
             4
100
AcDbLine
 10
222.12487480131867
 20
-135.85572865251899
 11
168.12487480131847
 21
-135.85572865251899
  0
LINE
  5
168
100
AcDbEntity
  8
0
  6
CONTINUOUS
 62
             4
100
AcDbLine
 10
168.12487480131847
 20
-119.4449578233185
 11
168.12487480131847
 21
-137.85572865251899
  0
LINE
  5
169
100
AcDbEntity
  8
0
  6
CONTINUOUS
 62
             4
100
AcDbLine
 10
222.12487480131867
 20
-118.50713564980967
 11
222.12487480131867
 21
-137.85572865251899
  0
SOLID
  5
16A
100
AcDbEntity
  8
0
 62
             4
100
AcDbTrace
 10
215.12487480131867
 20
-136.77729613563076
 11
215.12487480131867
 21
-134.93416116940722
 12
222.12487480131867
 22
-135.85572865251899
 13
222.12487480131867
 23
-135.85572865251899
  0
SOLID
  5
16B
100
AcDbEntity
  8
0
 62
             4
100
AcDbTrace
 10
175.12487480131847
 20
-134.93416116940722
 11
175.12487480131847
 21
-136.77729613563076
 12
168.12487480131847
 22
-135.85572865251899
 13
168.12487480131847
 23
-135.85572865251899
  0
MTEXT
  5
16C
100
AcDbEntity
  8
0
 62
             1
100
AcDbMText
 10
188.04052508569399
 20
-133.85572865251899
 30
0.0
 40
7.0
 41
0.0
 71
             7
 72
             1
  1
54
  7
CONVERTER_1
 11
0.99999999999706
 21
0.00000242406841
 31
0.0
  0
ENDBLK
  5
16D
100
AcDbEntity
  8
0
100
AcDbBlockEnd
  0
ENDSEC
  0
SECTION
  2
ENTITIES
  0
DIMENSION
  5
16F
100
AcDbEntity
  8
1
100
AcDbDimension
  2
*D16
 10
222.12487480131867
 20
-135.85572865251899
 11
193.29052508569399
 21
-130.35572865251899
 31
0.0
 53
0.00013888888889
  1
<>
  3
ME10_DIM_11
100
AcDbAlignedDimension
 13
168.1248748013185
 23
-119.4449578233185
 14
222.1248748013187
 24
-118.5071356498097
100
AcDbRotatedDimension
  0
DIMENSION
  5
164
100
AcDbEntity
  8
1
100
AcDbDimension
  2
*D15
 10
-19.25917618664499
 20
-178.21927191874599
 11
-30.6899892224125
 21
-172.71927191874599
 31
0.0
 53
180.0
  1
27
  3
ME10_DIM_10
100
AcDbAlignedDimension
 13
-47.0
 23
-147.406280876746
 14
-19.25917618664499
 24
-152.906280876746
 50
180.0
100
AcDbRotatedDimension
  0
DIMENSION
  5
159
100
AcDbEntity
  8
1
100
AcDbDimension
  2
*D14
 10
0.740823813355
 20
-53.68261034123202
 11
37.1396838284394
 21
-48.18261034123202
 31
0.0
 53
180.0
  1
<>
  3
ME10_DIM_9
100
AcDbAlignedDimension
 13
80.74082381335501
 23
-114.606280876746
 14
0.74082381335501
 24
-93.20628087674595
 50
180.0
100
AcDbRotatedDimension
  0
DIMENSION
  5
14E
100
AcDbEntity
  8
1
100
AcDbDimension
  2
*D13
 10
80.74082381335501
 20
-53.46425033401204
 11
140.58120514243299
 21
-47.96425033401204
 31
0.0
 53
180.0
  1
142
  3
ME10_DIM_8
100
AcDbAlignedDimension
 13
222.12487480131881
 23
-70.38277999682754
 14
80.74082381335501
 24
-114.606280876746
 50
180.0
100
AcDbRotatedDimension
  0
DIMENSION
  5
143
100
AcDbEntity
  8
1
100
AcDbDimension
  2
*D12
 10
146.649565149653
 20
-109.4449578233187
 11
141.149565149653
 21
-128.889731366435
 31
0.0
 53
90.0
  1
<>
  3
ME10_DIM_7
100
AcDbAlignedDimension
 13
168.12487480131881
 23
-69.44495782331853
 14
158.1248748013185
 24
-109.4449578233187
 50
90.0
100
AcDbRotatedDimension
  0
DIMENSION
  5
137
100
AcDbEntity
  8
1
100
AcDbDimension
  2
*D11
 10
238.21534786328999
 20
-119.4449578233185
 11
232.71534786328999
 21
-50.5869602353999
 31
0.0
 53
90.0
  1
<>
  3
ME10_DIM_6
100
AcDbAlignedDimension
 13
218.6248748013187
 23
-69.44495782331853
 14
218.6248748013187
 24
-119.4449578233185
 50
90.0
100
AcDbRotatedDimension
  0
DIMENSION
  5
12B
100
AcDbEntity
  8
1
100
AcDbDimension
  2
*D10
 10
252.55457202718699
 20
-161.906280876746
 11
247.05457202718699
 21
-130.53899799773399
 31
0.0
 53
90.0
  1
68
  3
ME10_DIM_5
100
AcDbAlignedDimension
 13
226.37986687885859
 23
-94.44495782331865
 14
116.24082381335489
 24
-161.906280876746
 50
90.0
100
AcDbRotatedDimension
  0
DIMENSION
  5
120
100
AcDbEntity
  8
1
100
AcDbDimension
  2
*D9
 10
121.24082381335489
 20
-178.21927191874599
 11
46.44657894666281
 21
-172.71927191874599
 31
0.0
 53
180.0
  1
140
  3
ME10_DIM_4
100
AcDbAlignedDimension
 13
-19.25917618664499
 23
-152.906280876746
 14
121.24082381335489
 24
-156.906280876746
 50
180.0
100
AcDbRotatedDimension
  0
DIMENSION
  5
115
100
AcDbEntity
  8
1
100
AcDbDimension
  2
*D8
 10
-72.0223121385082
 20
-161.906280876746
 11
-77.5223121385082
 21
-152.371456763266
 31
0.0
 53
90.0
  1
<>
  3
ME10_DIM_3
100
AcDbAlignedDimension
 13
-48.72065385166928
 23
-142.90628087674429
 14
-10.25917618664499
 24
-161.906280876746
 50
90.0
100
AcDbRotatedDimension
  0
DIMENSION
  5
108
100
AcDbEntity
  8
1
100
AcDbDimension
  2
*D7
 10
-57.0
 20
-138.40628087674239
 11
-62.5
 21
-81.8725402293568
 31
0.0
 53
90.0
  1
Ø8
  3
ME10_DIM_2
100
AcDbAlignedDimension
 13
-47.0
 23
-147.406280876746
 14
-47.0
 24
-138.40628087674239
 50
90.0
100
AcDbRotatedDimension
  0
DIMENSION
  5
FB
100
AcDbEntity
  8
1
100
AcDbDimension
  2
*D6
 10
-88.8165884627325
 20
-161.906280876746
 11
-94.3165884627325
 21
-129.66995410901299
 31
0.0
 53
90.0
  1
<>
  3
ME10_DIM_1
100
AcDbAlignedDimension
 13
-27.3917754594695
 23
-102.20628087674959
 14
-10.25917618664499
 24
-161.906280876746
 50
90.0
100
AcDbRotatedDimension
  0
DIMENSION
  5
F0
100
AcDbEntity
  8
1
100
AcDbDimension
  2
*D5
 10
21.74082381336484
 20
-80.20628087674595
 11
-33.2120820853425
 21
-74.70628087674595
 31
0.0
 53
180.0
  1
5/4"
  3
ME10_DIM_0
100
AcDbAlignedDimension
 13
-20.25917618664062
 23
-90.20628087674959
 14
21.74082381335938
 24
-90.20628087674959
 50
180.0
100
AcDbRotatedDimension
  0
INSERT
  5
31
100
AcDbEntity
  8
0
100
AcDbBlockReference
  2
MUTTER5_4
 10
181.42099161217993
 20
37.60305730639993
  0
INSERT
  5
32
100
AcDbEntity
  8
1
100
AcDbBlockReference
  2
HL_500_BODEN
 10
80.74082381335501
 20
-165.906280876746
  0
INSERT
  5
33
100
AcDbEntity
  8
0
100
AcDbBlockReference
  2
HOLL_NDERMUTTER_6_4
 10
-153.94733128012629
 20
-79.13375681179792
  0
INSERT
  5
34
100
AcDbEntity
  8
1
100
AcDbBlockReference
  2
HL_500_K_RPER
 10
80.74082381335501
 20
-97.906280876746
  0
INSERT
  5
35
100
AcDbEntity
  8
1
100
AcDbBlockReference
  2
HL_500_ABGANGSSTUTZEN
 10
80.74082381335501
 20
-108.606280876746
  0
ENDSEC
  0
SECTION
  2
OBJECTS
  0
DICTIONARY
  5
19
100
AcDbDictionary
  3
ACAD_GROUP
350
1A
  3
ACAD_MLINESTYLE
350
1B
  0
DICTIONARY
  5
1A
102
{ACAD_REACTORS
330
19
102
}
100
AcDbDictionary
  0
DICTIONARY
  5
1B
102
{ACAD_REACTORS
330
19
102
}
100
AcDbDictionary
  3
STANDARD
350
1C
  0
MLINESTYLE
  5
1C
102
{ACAD_REACTORS
330
1B
102
}
100
AcDbMlineStyle
  2
STANDARD
 70
             0
  3

 62
             0
 51
90.0
 52
90.0
 71
             2
 49
0.5
 62
           256
  6
BYLAYER
 49
-0.5
 62
           256
  6
BYLAYER
  0
ENDSEC
  0
EOF
