  0
SECTION
  2
HEADER
  9
$ACADVER
  1
AC1014
  9
$ACADMAINTVER
 70
             0
  9
$DWGCODEPAGE
  3
ANSI_1252
  9
$INSBASE
 10
0.0
 20
0.0
 30
0.0
  9
$EXTMIN
 10
-95.7167698507325
 20
-180.21927191874599
 30
0.0
  9
$EXTMAX
 10
262.77084446131198
 20
-44.46425033401204
 30
0.0
  9
$LIMMIN
 10
0.0
 20
0.0
  9
$LIMMAX
 10
0.0
 20
0.0
  9
$ORTHOMODE
 70
             0
  9
$REGENMODE
 70
             1
  9
$FILLMODE
 70
             1
  9
$QTEXTMODE
 70
             0
  9
$MIRRTEXT
 70
             1
  9
$DRAGMODE
 70
             2
  9
$LTSCALE
 40
1.0
  9
$OSMODE
 70
             0
  9
$ATTMODE
 70
             1
  9
$TEXTSIZE
 40
0.2
  9
$TRACEWID
 40
0.05
  9
$TEXTSTYLE
  7
STANDARD
  9
$CLAYER
  8
0
  9
$CELTYPE
  6
CONTINUOUS
  9
$CECOLOR
 62
           256
  9
$CELTSCALE
 40
1.0
  9
$DELOBJ
 70
             1
  9
$DISPSILH
 70
             0
  9
$DIMSCALE
 40
1.0
  9
$DIMASZ
 40
0.18
  9
$DIMEXO
 40
0.0625
  9
$DIMDLI
 40
0.38
  9
$DIMRND
 40
0.0
  9
$DIMDLE
 40
0.0
  9
$DIMEXE
 40
0.18
  9
$DIMTP
 40
0.0
  9
$DIMTM
 40
0.0
  9
$DIMTXT
 40
0.18
  9
$DIMCEN
 40
0.09
  9
$DIMTSZ
 40
0.0
  9
$DIMTOL
 70
             0
  9
$DIMLIM
 70
             0
  9
$DIMTIH
 70
             1
  9
$DIMTOH
 70
             1
  9
$DIMSE1
 70
             0
  9
$DIMSE2
 70
             0
  9
$DIMTAD
 70
             0
  9
$DIMZIN
 70
             0
  9
$DIMBLK
  1

  9
$DIMASO
 70
             1
  9
$DIMSHO
 70
             1
  9
$DIMPOST
  1

  9
$DIMAPOST
  1

  9
$DIMALT
 70
             0
  9
$DIMALTD
 70
             2
  9
$DIMALTF
 40
25.4
  9
$DIMLFAC
 40
1.0
  9
$DIMTOFL
 70
             0
  9
$DIMTVP
 40
0.0
  9
$DIMTIX
 70
             0
  9
$DIMSOXD
 70
             0
  9
$DIMSAH
 70
             0
  9
$DIMBLK1
  1

  9
$DIMBLK2
  1

  9
$DIMSTYLE
  2
STANDARD
  9
$DIMCLRD
 70
             0
  9
$DIMCLRE
 70
             0
  9
$DIMCLRT
 70
             0
  9
$DIMTFAC
 40
1.0
  9
$DIMGAP
 40
0.09
  9
$DIMJUST
 70
             0
  9
$DIMSD1
 70
             0
  9
$DIMSD2
 70
             0
  9
$DIMTOLJ
 70
             1
  9
$DIMTZIN
 70
             0
  9
$DIMALTZ
 70
             0
  9
$DIMALTTZ
 70
             0
  9
$DIMFIT
 70
             3
  9
$DIMUPT
 70
             0
  9
$DIMUNIT
 70
             2
  9
$DIMDEC
 70
             4
  9
$DIMTDEC
 70
             4
  9
$DIMALTU
 70
             2
  9
$DIMALTTD
 70
             2
  9
$DIMTXSTY
  7
STANDARD
  9
$DIMAUNIT
 70
             0
  9
$LUNITS
 70
             2
  9
$LUPREC
 70
             4
  9
$SKETCHINC
 40
0.1
  9
$FILLETRAD
 40
0.0
  9
$AUNITS
 70
             0
  9
$AUPREC
 70
             0
  9
$MENU
  1
acad
  9
$ELEVATION
 40
0.0
  9
$PELEVATION
 40
0.0
  9
$THICKNESS
 40
0.0
  9
$LIMCHECK
 70
             0
  9
$BLIPMODE
 70
             1
  9
$CHAMFERA
 40
0.0
  9
$CHAMFERB
 40
0.0
  9
$CHAMFERC
 40
0.0
  9
$CHAMFERD
 40
0.0
  9
$SKPOLY
 70
             0
  9
$TDCREATE
 40
0.000000000
  9
$TDUPDATE
 40
0.000000000
  9
$TDINDWG
 40
0.0000000000
  9
$TDUSRTIMER
 40
0.0000000000
  9
$USRTIMER
 70
             1
  9
$ANGBASE
 50
0.0
  9
$ANGDIR
 70
             0
  9
$PDMODE
 70
             0
  9
$PDSIZE
 40
0.0
  9
$PLINEWID
 40
0.0
  9
$COORDS
 70
             0
  9
$SPLFRAME
 70
             0
  9
$SPLINETYPE
 70
             6
  9
$SPLINESEGS
 70
             8
  9
$ATTDIA
 70
             0
  9
$ATTREQ
 70
             1
  9
$HANDLING
 70
             1
  9
$HANDSEED
  5
168
  9
$SURFTAB1
 70
             6
  9
$SURFTAB2
 70
             6
  9
$SURFTYPE
 70
             6
  9
$SURFU
 70
             6
  9
$SURFV
 70
             6
  9
$UCSNAME
  2

  9
$UCSORG
 10
0.0
 20
0.0
 30
0.0
  9
$UCSXDIR
 10
1.0
 20
0.0
 30
0.0
  9
$UCSYDIR
 10
0.0
 20
1.0
 30
0.0
  9
$PUCSNAME
  2

  9
$PUCSORG
 10
0.0
 20
0.0
 30
0.0
  9
$PUCSXDIR
 10
1.0
 20
0.0
 30
0.0
  9
$PUCSYDIR
 10
0.0
 20
1.0
 30
0.0
  9
$USERI1
 70
             0
  9
$USERI2
 70
             0
  9
$USERI3
 70
             0
  9
$USERI4
 70
             0
  9
$USERI5
 70
             0
  9
$USERR1
 40
12.01
  9
$USERR2
 40
0.0
  9
$USERR3
 40
0.0
  9
$USERR4
 40
0.0
  9
$USERR5
 40
0.0
  9
$WORLDVIEW
 70
             1
  9
$SHADEDGE
 70
             3
  9
$SHADEDIF
 70
            70
  9
$TILEMODE
 70
             1
  9
$MAXACTVP
 70
            16
  9
$PINSBASE
 10
0.0
 20
0.0
 30
0.0
  9
$PLIMCHECK
 70
             0
  9
$PEXTMIN
 10
1.00000000000000E+20
 20
1.00000000000000E+20
 30
1.00000000000000E+20
  9
$PEXTMAX
 10
-1.00000000000000E+20
 20
-1.00000000000000E+20
 30
-1.00000000000000E+20
  9
$PLIMMIN
 10
0.0
 20
0.0
  9
$PLIMMAX
 10
12.0
 20
9.0
  9
$UNITMODE
 70
             0
  9
$VISRETAIN
 70
             0
  9
$PLINEGEN
 70
             1
  9
$PSLTSCALE
 70
             0
  9
$TREEDEPTH
 70
          3020
  9
$PICKSTYLE
 70
             1
  9
$CMLSTYLE
  2
STANDARD
  9
$CMLJUST
 70
             0
  9
$CMLSCALE
 40
1.0
  9
$PROXYGRAPHICS
 70
             0
  9
$MEASUREMENT
 70
             1
  0
ENDSEC
  0
SECTION
  2
CLASSES
  0
CLASS
  1
LWPOLYLINE
  2
AcDbPolyline
  3
"AutoCAD"
 90
        0
280
             0
281
             1
  0
CLASS
  1
IMAGE
  2
AcDbRasterImage
  3
ISM
 90
      127
280
             0
281
             1
  0
CLASS
  1
OLE2FRAME
  2
AcDbOle2Frame
  3
""
 90
        0
280
             0
281
             1
  0
CLASS
  1
HATCH
  2
AcDbHatch
  3
"ACAD_SEDONA"
 90
        0
280
             0
281
             1
  0
CLASS
  1
DICTIONARYVAR
  2
AcDbDictionaryVar
  3
"AutoCAD"
 90
        0
280
             0
281
             0
  0
CLASS
  1
RASTERVARIABLES
  2
AcDbRasterVariables
  3
ISM
 90
        0
280
             0
281
             0
  0
CLASS
  1
IMAGEDEF
  2
AcDbRasterImageDef
  3
ISM
 90
        0
280
             0
281
             0
  0
CLASS
  1
IMAGEDEF_REACTOR
  2
AcDbRasterImageDefReactor
  3
ISM
 90
        1
280
             0
281
             0
  0
CLASS
  1
IDBUFFER
  2
AcDbIdBuffer
  3
"Acad"
 90
        0
280
             0
281
             0
  0
CLASS
  1
SPATIAL_FILTER
  2
AcDbSpatialFilter
  3
"Acad"
 90
        0
280
             0
281
             0
  0
CLASS
  1
XRECORD
  2
AcDbXrecord
  3
"<Built In>"
 90
        0
280
             0
281
             0
  0
CLASS
  1
SORTENTSTABLE
  2
AcDbSortentsTable
  3
"AutoCAD"
 90
        0
280
             0
281
             0
  0
CLASS
  1
LAYER_INDEX
  2
AcDbLayerIndex
  3
"Acad"
 90
        0
280
             0
281
             0
  0
CLASS
  1
SPATIAL_INDEX
  2
AcDbSpatialIndex
  3
"Acad"
 90
        0
280
             0
281
             0
  0
CLASS
  1
OBJECT_PTR
  2
CAseDLPNTableRecord
  3
"ASE-LPNTableRecord"
 90
        1
280
             0
281
             0
  0
CLASS
  1
LAYOUT
  2
AcDbLayout
  3
"AutoCAD 2000"
 90
        0
280
             0
281
             0
  0
CLASS
  1
PLOTSETTINGS
  2
AcDbPlotSettings
  3
"AutoCAD 2000"
 90
        0
280
             0
281
             0
  0
CLASS
  1
ACDBDICTIONARYWDFLT
  2
AcDbDictionaryWithDefault
  3
"AutoCAD 2000"
 90
        0
280
             0
281
             0
  0
CLASS
  1
ACDBPLACEHOLDER
  2
AcDbPlaceHolder
  3
"AutoCAD 2000"
 90
        0
280
             0
281
             0
  0
ENDSEC
  0
SECTION
  2
TABLES
  0
TABLE
  2
VPORT
  5
7
100
AcDbSymbolTable
 70
             1
  0
VPORT
  5
15
100
AcDbSymbolTableRecord
100
AcDbViewportTableRecord
  2
*ACTIVE
 70
             0
 10
0.0
 20
0.0
 11
1.0
 21
1.0
 12
83.52703730528974
 22
-112.34176112637901
 13
0.0
 23
0.0
 14
1.0
 24
1.0
 15
0.0
 25
0.0
 16
0.0
 26
0.0
 36
1.0
 17
0.0
 27
0.0
 37
0.0
 40
246.04832358353147
 41
1.60267857142857
 42
50.0
 43
0.0
 44
0.0
 50
0.0
 51
0.0
 71
             0
 72
           100
 73
             1
 74
             1
 75
             0
 76
             0
 77
             0
 78
             0
  0
ENDTAB
  0
TABLE
  2
LTYPE
  5
4
100
AcDbSymbolTable
 70
            10
  0
LTYPE
  5
11
100
AcDbSymbolTableRecord
100
AcDbLinetypeTableRecord
  2
BYBLOCK
 70
            64
  3

 72
            65
 73
             0
 40
0.0
  0
LTYPE
  5
12
100
AcDbSymbolTableRecord
100
AcDbLinetypeTableRecord
  2
BYLAYER
 70
            64
  3

 72
            65
 73
             0
 40
0.0
  0
LTYPE
  5
13
100
AcDbSymbolTableRecord
100
AcDbLinetypeTableRecord
  2
CONTINUOUS
 70
            64
  3
Solid line
 72
            65
 73
             0
 40
0.0
  0
LTYPE
  5
1D
100
AcDbSymbolTableRecord
100
AcDbLinetypeTableRecord
  2
DASHED
 70
            64
  3
Dashed
 72
            65
 73
             2
 40
15.0
 49
7.0
 74
             0
 49
-8.0
 74
             0
  0
LTYPE
  5
1E
100
AcDbSymbolTableRecord
100
AcDbLinetypeTableRecord
  2
DOTTED
 70
            64
  3
Dotted
 72
            65
 73
             2
 40
1.0
 49
0.0
 74
             0
 49
-1.0
 74
             0
  0
LTYPE
  5
1F
100
AcDbSymbolTableRecord
100
AcDbLinetypeTableRecord
  2
DOT_CENTER
 70
            64
  3
Dot_Center
 72
            65
 73
             4
 40
14.0
 49
12.0
 74
             0
 49
-1.0
 74
             0
 49
0.0
 74
             0
 49
-1.0
 74
             0
  0
LTYPE
  5
20
100
AcDbSymbolTableRecord
100
AcDbLinetypeTableRecord
  2
LONG_DASHED
 70
            64
  3
Long_Dashed
 72
            65
 73
             2
 40
15.0
 49
10.0
 74
             0
 49
-5.0
 74
             0
  0
LTYPE
  5
21
100
AcDbSymbolTableRecord
100
AcDbLinetypeTableRecord
  2
DASH_CENTER
 70
            64
  3
Dash_Center
 72
            65
 73
             4
 40
14.0
 49
11.0
 74
             0
 49
-1.0
 74
             0
 49
1.0
 74
             0
 49
-1.0
 74
             0
  0
LTYPE
  5
22
100
AcDbSymbolTableRecord
100
AcDbLinetypeTableRecord
  2
PHANTOM
 70
            64
  3
Phantom
 72
            65
 73
             6
 40
13.0
 49
10.0
 74
             0
 49
-1.0
 74
             0
 49
0.0
 74
             0
 49
-1.0
 74
             0
 49
0.0
 74
             0
 49
-1.0
 74
             0
  0
LTYPE
  5
23
100
AcDbSymbolTableRecord
100
AcDbLinetypeTableRecord
  2
CENTER_DASH_DASH
 70
            64
  3
Center_Dash_Dash
 72
            65
 73
             6
 40
14.0
 49
9.0
 74
             0
 49
-1.0
 74
             0
 49
1.0
 74
             0
 49
-1.0
 74
             0
 49
1.0
 74
             0
 49
-1.0
 74
             0
  0
ENDTAB
  0
TABLE
  2
LAYER
  5
2
100
AcDbSymbolTable
 70
             2
  0
LAYER
  5
14
100
AcDbSymbolTableRecord
100
AcDbLayerTableRecord
  2
0
 70
             0
 62
             7
  6
CONTINUOUS
  0
LAYER
  5
24
100
AcDbSymbolTableRecord
100
AcDbLayerTableRecord
  2
1
 70
             0
 62
             7
  6
CONTINUOUS
  0
ENDTAB
  0
TABLE
  2
STYLE
  5
3
100
AcDbSymbolTable
 70
             2
  0
STYLE
  5
17
100
AcDbSymbolTableRecord
100
AcDbTextStyleTableRecord
  2
STANDARD
 70
             0
 40
0.0
 41
1.0
 50
0.0
 71
             0
 42
0.0
  3
txt
  4

  0
STYLE
  5
E3
100
AcDbSymbolTableRecord
100
AcDbTextStyleTableRecord
  2
CONVERTER_1
 70
             0
 40
0.0
 41
0.9
 50
0.0
 71
             0
 42
0.0
  3
txt.shx
  4

  0
ENDTAB
  0
TABLE
  2
VIEW
  5
5
100
AcDbSymbolTable
 70
             0
  0
ENDTAB
  0
TABLE
  2
UCS
  5
6
100
AcDbSymbolTable
 70
             0
  0
ENDTAB
  0
TABLE
  2
APPID
  5
8
100
AcDbSymbolTable
 70
             1
  0
APPID
  5
16
100
AcDbSymbolTableRecord
100
AcDbRegAppTableRecord
  2
ACAD
 70
             0
  0
ENDTAB
  0
TABLE
  2
DIMSTYLE
  5
9
100
AcDbSymbolTable
 70
            13
  0
DIMSTYLE
105
18
100
AcDbSymbolTableRecord
100
AcDbDimStyleTableRecord
  2
STANDARD
 70
             0
  3

  4

  5

  6

  7

 40
1.0
 41
0.18
 42
0.0625
 43
0.38
 44
0.18
 45
0.0
 46
0.0
 47
0.0
 48
0.0
 71
             0
 72
             0
 73
             1
 74
             1
 75
             0
 76
             0
 77
             0
 78
             0
140
0.18
141
0.09
142
0.0
143
25.4
144
1.0
145
0.0
146
1.0
147
0.09
170
             0
171
             2
172
             0
173
             0
174
             0
175
             0
176
             0
177
             0
178
             0
270
             2
271
             4
272
             4
273
             2
274
             2
275
             0
280
             0
281
             0
282
             0
283
             1
284
             0
285
             0
286
             0
287
             3
288
             0
340
17
  0
DIMSTYLE
105
E6
100
AcDbSymbolTableRecord
100
AcDbDimStyleTableRecord
  2
ME10_DIM_0
 70
             0
  3

  4

  5

  6

  7

 40
1.0
 41
7.0
 42
0.0
 43
0.38
 44
2.0
 45
0.0
 46
0.0
 47
0.0
 48
0.0
 71
             0
 72
             0
 73
             0
 74
             0
 75
             0
 76
             0
 77
             1
 78
             8
140
7.0
141
0.09
142
0.0
143
25.4
144
1.0
145
0.0
146
1.0
147
0.625
170
             0
171
             2
172
             1
173
             1
174
             0
175
             0
176
             4
177
             4
178
             1
270
             2
271
             2
272
             4
273
             2
274
             2
275
             0
280
             0
281
             0
282
             0
283
             1
284
             0
285
             0
286
             0
287
             3
288
             0
340
E3
  0
DIMSTYLE
105
F1
100
AcDbSymbolTableRecord
100
AcDbDimStyleTableRecord
  2
ME10_DIM_1
 70
             0
  3

  4

  5

  6

  7

 40
1.0
 41
7.0
 42
0.0
 43
0.38
 44
2.0
 45
0.0
 46
0.0
 47
0.0
 48
0.0
 71
             0
 72
             0
 73
             0
 74
             0
 75
             0
 76
             0
 77
             1
 78
             8
140
7.0
141
0.09
142
0.0
143
25.4
144
1.0
145
0.0
146
1.0
147
0.625
170
             0
171
             2
172
             1
173
             1
174
             0
175
             0
176
             4
177
             4
178
             1
270
             2
271
             0
272
             4
273
             2
274
             2
275
             0
280
             0
281
             0
282
             0
283
             1
284
             0
285
             0
286
             0
287
             3
288
             0
340
E3
  0
DIMSTYLE
105
FD
100
AcDbSymbolTableRecord
100
AcDbDimStyleTableRecord
  2
ME10_DIM_2
 70
             0
  3
DN<>
  4

  5

  6

  7

 40
1.0
 41
7.0
 42
0.0
 43
0.38
 44
2.0
 45
0.0
 46
0.0
 47
0.0
 48
0.0
 71
             0
 72
             0
 73
             0
 74
             0
 75
             0
 76
             0
 77
             1
 78
             8
140
7.0
141
0.09
142
0.0
143
25.4
144
1.0
145
0.0
146
1.0
147
0.625
170
             0
171
             2
172
             1
173
             1
174
             0
175
             0
176
             4
177
             4
178
             1
270
             2
271
             2
272
             4
273
             2
274
             2
275
             0
280
             0
281
             0
282
             0
283
             1
284
             0
285
             0
286
             0
287
             3
288
             0
340
E3
  0
DIMSTYLE
105
108
100
AcDbSymbolTableRecord
100
AcDbDimStyleTableRecord
  2
ME10_DIM_3
 70
             0
  3

  4

  5

  6

  7

 40
1.0
 41
7.0
 42
0.0
 43
0.38
 44
2.0
 45
0.0
 46
0.0
 47
0.0
 48
0.0
 71
             0
 72
             0
 73
             0
 74
             0
 75
             0
 76
             0
 77
             1
 78
             8
140
7.0
141
0.09
142
0.0
143
25.4
144
1.0
145
0.0
146
1.0
147
0.625
170
             0
171
             2
172
             1
173
             1
174
             0
175
             0
176
             4
177
             4
178
             1
270
             2
271
             2
272
             4
273
             2
274
             2
275
             0
280
             0
281
             0
282
             0
283
             1
284
             0
285
             0
286
             0
287
             3
288
             0
340
E3
  0
DIMSTYLE
105
113
100
AcDbSymbolTableRecord
100
AcDbDimStyleTableRecord
  2
ME10_DIM_4
 70
             0
  3
DN<>
  4

  5

  6

  7

 40
1.0
 41
7.0
 42
0.0
 43
0.38
 44
2.0
 45
0.0
 46
0.0
 47
0.0
 48
0.0
 71
             0
 72
             0
 73
             0
 74
             0
 75
             0
 76
             0
 77
             1
 78
             8
140
7.0
141
0.09
142
0.0
143
25.4
144
1.0
145
0.0
146
1.0
147
0.625
170
             0
171
             2
172
             1
173
             1
174
             0
175
             0
176
             4
177
             4
178
             1
270
             2
271
             2
272
             4
273
             2
274
             2
275
             0
280
             0
281
             0
282
             0
283
             1
284
             0
285
             0
286
             0
287
             3
288
             0
340
E3
  0
DIMSTYLE
105
11F
100
AcDbSymbolTableRecord
100
AcDbDimStyleTableRecord
  2
ME10_DIM_5
 70
             0
  3

  4

  5

  6

  7

 40
1.0
 41
7.0
 42
0.0
 43
0.38
 44
2.0
 45
0.0
 46
0.0
 47
0.0
 48
0.0
 71
             0
 72
             0
 73
             0
 74
             0
 75
             0
 76
             0
 77
             1
 78
             8
140
7.0
141
0.09
142
0.0
143
25.4
144
1.0
145
0.0
146
1.0
147
0.625
170
             0
171
             2
172
             1
173
             1
174
             0
175
             0
176
             4
177
             4
178
             1
270
             2
271
             0
272
             4
273
             2
274
             2
275
             0
280
             0
281
             0
282
             0
283
             1
284
             0
285
             0
286
             0
287
             3
288
             0
340
E3
  0
DIMSTYLE
105
12A
100
AcDbSymbolTableRecord
100
AcDbDimStyleTableRecord
  2
ME10_DIM_6
 70
             0
  3

  4

  5

  6

  7

 40
1.0
 41
7.0
 42
0.0
 43
0.38
 44
2.0
 45
0.0
 46
0.0
 47
0.0
 48
0.0
 71
             0
 72
             0
 73
             0
 74
             0
 75
             0
 76
             0
 77
             1
 78
             8
140
7.0
141
0.09
142
0.0
143
25.4
144
1.0
145
0.0
146
1.0
147
0.625
170
             0
171
             2
172
             1
173
             1
174
             0
175
             0
176
             4
177
             4
178
             1
270
             2
271
             0
272
             4
273
             2
274
             2
275
             0
280
             0
281
             0
282
             0
283
             1
284
             0
285
             0
286
             0
287
             3
288
             0
340
E3
  0
DIMSTYLE
105
135
100
AcDbSymbolTableRecord
100
AcDbDimStyleTableRecord
  2
ME10_DIM_7
 70
             0
  3

  4

  5

  6

  7

 40
1.0
 41
7.0
 42
0.0
 43
0.38
 44
2.0
 45
0.0
 46
0.0
 47
0.0
 48
0.0
 71
             0
 72
             0
 73
             0
 74
             0
 75
             0
 76
             0
 77
             1
 78
             8
140
7.0
141
0.09
142
0.0
143
25.4
144
1.0
145
0.0
146
1.0
147
0.625
170
             0
171
             2
172
             1
173
             1
174
             0
175
             0
176
             4
177
             4
178
             1
270
             2
271
             2
272
             4
273
             2
274
             2
275
             0
280
             0
281
             0
282
             0
283
             1
284
             0
285
             0
286
             0
287
             3
288
             0
340
E3
  0
DIMSTYLE
105
140
100
AcDbSymbolTableRecord
100
AcDbDimStyleTableRecord
  2
ME10_DIM_8
 70
             0
  3

  4

  5

  6

  7

 40
1.0
 41
7.0
 42
0.0
 43
0.38
 44
2.0
 45
0.0
 46
0.0
 47
0.0
 48
0.0
 71
             0
 72
             0
 73
             0
 74
             0
 75
             0
 76
             0
 77
             1
 78
             8
140
7.0
141
0.09
142
0.0
143
25.4
144
1.0
145
0.0
146
1.0
147
0.625
170
             0
171
             2
172
             1
173
             1
174
             0
175
             0
176
             4
177
             4
178
             1
270
             2
271
             1
272
             4
273
             2
274
             2
275
             0
280
             0
281
             0
282
             0
283
             1
284
             0
285
             0
286
             0
287
             3
288
             0
340
E3
  0
DIMSTYLE
105
14D
100
AcDbSymbolTableRecord
100
AcDbDimStyleTableRecord
  2
ME10_DIM_9
 70
             0
  3

  4

  5

  6

  7

 40
1.0
 41
7.0
 42
0.0
 43
0.38
 44
2.0
 45
0.0
 46
0.0
 47
0.0
 48
0.0
 71
             0
 72
             0
 73
             0
 74
             0
 75
             0
 76
             0
 77
             1
 78
             8
140
7.0
141
0.09
142
0.0
143
25.4
144
1.0
145
0.0
146
1.0
147
0.625
170
             0
171
             2
172
             1
173
             1
174
             0
175
             0
176
             4
177
             4
178
             1
270
             2
271
             2
272
             4
273
             2
274
             2
275
             0
280
             0
281
             0
282
             0
283
             1
284
             0
285
             0
286
             0
287
             3
288
             0
340
E3
  0
DIMSTYLE
105
15A
100
AcDbSymbolTableRecord
100
AcDbDimStyleTableRecord
  2
ME10_DIM_10
 70
             0
  3
Ø<>-13
  4

  5

  6

  7

 40
1.0
 41
7.0
 42
0.0
 43
0.38
 44
2.0
 45
0.0
 46
0.0
 47
0.0
 48
0.0
 71
             0
 72
             0
 73
             0
 74
             0
 75
             0
 76
             0
 77
             1
 78
             8
140
7.0
141
0.09
142
0.0
143
25.4
144
1.0
145
0.0
146
1.0
147
0.625
170
             0
171
             2
172
             1
173
             1
174
             0
175
             0
176
             4
177
             4
178
             1
270
             2
271
             2
272
             4
273
             2
274
             2
275
             0
280
             0
281
             0
282
             0
283
             1
284
             0
285
             0
286
             0
287
             3
288
             0
340
E3
  0
DIMSTYLE
105
165
100
AcDbSymbolTableRecord
100
AcDbDimStyleTableRecord
  2
ME10_DIM_11
 70
             0
  3

  4

  5

  6

  7

 40
1.0
 41
7.0
 42
0.0
 43
0.38
 44
2.0
 45
0.0
 46
0.0
 47
0.0
 48
0.0
 71
             0
 72
             0
 73
             0
 74
             0
 75
             0
 76
             0
 77
             1
 78
             8
140
7.0
141
0.09
142
0.0
143
25.4
144
1.0
145
0.0
146
1.0
147
0.625
170
             0
171
             2
172
             1
173
             1
174
             0
175
             0
176
             4
177
             4
178
             1
270
             2
271
             2
272
             4
273
             2
274
             2
275
             0
280
             0
281
             0
282
             0
283
             1
284
             0
285
             0
286
             0
287
             3
288
             0
340
E3
  0
ENDTAB
  0
TABLE
  2
BLOCK_RECORD
  5
1
100
AcDbSymbolTable
 70
            16
  0
BLOCK_RECORD
  5
A
100
AcDbSymbolTableRecord
100
AcDbBlockTableRecord
  2
*MODEL_SPACE
  0
BLOCK_RECORD
  5
B
100
AcDbSymbolTableRecord
100
AcDbBlockTableRecord
  2
*PAPER_SPACE
  0
BLOCK_RECORD
  5
25
100
AcDbSymbolTableRecord
100
AcDbBlockTableRecord
  2
HL_500_ABGANGSSTUTZEN
  0
BLOCK_RECORD
  5
27
100
AcDbSymbolTableRecord
100
AcDbBlockTableRecord
  2
HL_500_K_RPER
  0
BLOCK_RECORD
  5
29
100
AcDbSymbolTableRecord
100
AcDbBlockTableRecord
  2
HOLL_NDERMUTTER_6_4
  0
BLOCK_RECORD
  5
2B
100
AcDbSymbolTableRecord
100
AcDbBlockTableRecord
  2
HL_500_BODEN
  0
BLOCK_RECORD
  5
DB
100
AcDbSymbolTableRecord
100
AcDbBlockTableRecord
  2
*D4
  0
BLOCK_RECORD
  5
E8
100
AcDbSymbolTableRecord
100
AcDbBlockTableRecord
  2
*D5
  0
BLOCK_RECORD
  5
F3
100
AcDbSymbolTableRecord
100
AcDbBlockTableRecord
  2
*D6
  0
BLOCK_RECORD
  5
FF
100
AcDbSymbolTableRecord
100
AcDbBlockTableRecord
  2
*D7
  0
BLOCK_RECORD
  5
10A
100
AcDbSymbolTableRecord
100
AcDbBlockTableRecord
  2
*D8
  0
BLOCK_RECORD
  5
115
100
AcDbSymbolTableRecord
100
AcDbBlockTableRecord
  2
*D9
  0
BLOCK_RECORD
  5
121
100
AcDbSymbolTableRecord
100
AcDbBlockTableRecord
  2
*D10
  0
BLOCK_RECORD
  5
12C
100
AcDbSymbolTableRecord
100
AcDbBlockTableRecord
  2
*D11
  0
BLOCK_RECORD
  5
137
100
AcDbSymbolTableRecord
100
AcDbBlockTableRecord
  2
*D12
  0
BLOCK_RECORD
  5
142
100
AcDbSymbolTableRecord
100
AcDbBlockTableRecord
  2
*D13
  0
BLOCK_RECORD
  5
14F
100
AcDbSymbolTableRecord
100
AcDbBlockTableRecord
  2
*D14
  0
BLOCK_RECORD
  5
15C
100
AcDbSymbolTableRecord
100
AcDbBlockTableRecord
  2
*D15
  0
ENDTAB
  0
ENDSEC
  0
SECTION
  2
BLOCKS
  0
BLOCK
  5
D
100
AcDbEntity
  8
0
100
AcDbBlockBegin
  2
*MODEL_SPACE
 70
             0
 10
0.0
 20
0.0
 30
0.0
  3
*MODEL_SPACE
  1

  0
ENDBLK
  5
E
100
AcDbEntity
  8
0
100
AcDbBlockEnd
  0
BLOCK
  5
F
100
AcDbEntity
 67
             1
  8
0
100
AcDbBlockBegin
  2
*PAPER_SPACE
 70
             0
 10
0.0
 20
0.0
 30
0.0
  3
*PAPER_SPACE
  1

  0
ENDBLK
  5
10
100
AcDbEntity
 67
             1
  8
0
100
AcDbBlockEnd
  0
BLOCK
  5
26
100
AcDbEntity
  8
0
100
AcDbBlockBegin
  2
HL_500_ABGANGSSTUTZEN
 70
             0
 10
80.74082381335501
 20
-108.606280876746
 30
0.0
  3
HL_500_ABGANGSSTUTZEN
  1

  0
ARC
  5
56
100
AcDbEntity
  8
1
  6
CONTINUOUS
 62
             7
100
AcDbCircle
 10
79.99999999999992
 20
-108.6386259429662
 40
35.99999999999992
100
AcDbArc
 50
-4.59406822686038
 51
16.44874180574886
  0
ARC
  5
55
100
AcDbEntity
  8
1
  6
CONTINUOUS
 62
             7
100
AcDbCircle
 10
78.5619302446635
 20
-92.20141342445243
 40
20.00000000000021
100
AcDbArc
 50
95.0
 51
171.58181341519011
  0
ARC
  5
54
100
AcDbEntity
  8
1
  6
CONTINUOUS
 62
             7
100
AcDbCircle
 10
79.99999999999992
 20
-108.6386259429662
 40
36.00000000000005
100
AcDbArc
 50
154.99999999999983
 51
-165.40593177313983
  0
LINE
  5
53
100
AcDbEntity
  8
1
  6
PHANTOM
 62
             2
100
AcDbLine
 10
81.04626255488742
 20
-120.5974616677515
 11
78.73355545546562
 21
-94.16309856039294
  0
LINE
  5
52
100
AcDbEntity
  8
1
  6
PHANTOM
 62
             2
100
AcDbLine
 10
101.1224589464631
 20
-89.44495782331853
 11
172.73126480282031
 21
-89.44495782331853
  0
LINE
  5
51
100
AcDbEntity
  8
1
  6
CONTINUOUS
 62
             7
100
AcDbLine
 10
168.1248748013187
 20
-104.4449578233187
 11
168.1248748013187
 21
-84.44495782331865
  0
LINE
  5
50
100
AcDbEntity
  8
1
  6
CONTINUOUS
 62
             7
100
AcDbLine
 10
166.32487480131871
 20
-104.4449578233187
 11
168.1248748013187
 21
-104.4449578233187
  0
LINE
  5
4F
100
AcDbEntity
  8
1
  6
CONTINUOUS
 62
             7
100
AcDbLine
 10
166.32487480131871
 20
-84.4449578233187
 11
166.32487480131871
 21
-104.4449578233187
  0
LINE
  5
4E
100
AcDbEntity
  8
1
  6
CONTINUOUS
 62
             7
100
AcDbLine
 10
168.1248748013187
 20
-84.44495782331865
 11
168.12487480131881
 21
-69.44495782331853
  0
LINE
  5
4D
100
AcDbEntity
  8
1
  6
CONTINUOUS
 62
             7
100
AcDbLine
 10
168.1248748013187
 20
-84.44495782331865
 11
166.32487480131871
 21
-84.4449578233187
  0
LINE
  5
4C
100
AcDbEntity
  8
1
  6
CONTINUOUS
 62
             7
100
AcDbLine
 10
218.6248748013187
 20
-69.44495782331853
 11
218.6248748013187
 21
-119.4449578233185
  0
LINE
  5
4B
100
AcDbEntity
  8
1
  6
CONTINUOUS
 62
             7
100
AcDbLine
 10
45.16153057601628
 20
-117.7095160974192
 11
115.88433833695539
 21
-111.52207216561391
  0
LINE
  5
4A
100
AcDbEntity
  8
1
  6
CONTINUOUS
 62
             7
100
AcDbLine
 10
168.12487480131881
 20
-69.44495782331853
 11
158.1248748013185
 21
-109.4449578233187
  0
LINE
  5
49
100
AcDbEntity
  8
1
  6
CONTINUOUS
 62
             7
100
AcDbLine
 10
168.12487480131881
 20
-69.44495782331853
 11
218.6248748013187
 21
-69.44495782331853
  0
LINE
  5
48
100
AcDbEntity
  8
1
  6
CONTINUOUS
 62
             7
100
AcDbLine
 10
168.1248748013185
 20
-119.4449578233185
 11
168.1248748013187
 21
-104.4449578233187
  0
LINE
  5
47
100
AcDbEntity
  8
1
  6
CONTINUOUS
 62
             7
100
AcDbLine
 10
114.5266437735623
 20
-98.44495782331865
 11
58.77741196329015
 21
-89.27347278741684
  0
LINE
  5
46
100
AcDbEntity
  8
1
  6
CONTINUOUS
 62
             7
100
AcDbLine
 10
47.37291966668052
 20
-93.4243685203009
 11
114.5266437735623
 21
-98.44495782331865
  0
LINE
  5
45
100
AcDbEntity
  8
1
  6
DASH_CENTER
 62
             2
100
AcDbLine
 10
159.56676227788591
 20
-94.44495782331865
 11
226.37986687885859
 21
-94.44495782331865
  0
LINE
  5
44
100
AcDbEntity
  8
1
  6
CONTINUOUS
 62
             7
100
AcDbLine
 10
118.378332983972
 20
-111.30387590710539
 11
118.59622234084119
 21
-113.7943626523348
  0
LINE
  5
43
100
AcDbEntity
  8
1
  6
CONTINUOUS
 62
             7
100
AcDbLine
 10
115.88433833695539
 20
-111.52207216561391
 11
118.378332983972
 21
-111.30387590710539
  0
LINE
  5
42
100
AcDbEntity
  8
1
  6
CONTINUOUS
 62
             7
100
AcDbLine
 10
118.59622234084119
 20
-113.7943626523348
 11
112.5060035143669
 21
-114.32718775804361
  0
LINE
  5
41
100
AcDbEntity
  8
1
  6
CONTINUOUS
 62
             7
100
AcDbLine
 10
42.66753592899955
 20
-117.9277123559275
 11
45.16153057601628
 21
-117.7095160974192
  0
LINE
  5
40
100
AcDbEntity
  8
1
  6
CONTINUOUS
 62
             7
100
AcDbLine
 10
42.88542528586869
 20
-120.418199101157
 11
42.66753592899955
 21
-117.9277123559275
  0
LINE
  5
3F
100
AcDbEntity
  8
1
  6
CONTINUOUS
 62
             7
100
AcDbLine
 10
112.5060035143669
 20
-114.32718775804361
 11
42.88542528586869
 21
-120.418199101157
  0
LINE
  5
3E
100
AcDbEntity
  8
1
  6
CONTINUOUS
 62
             7
100
AcDbLine
 10
119.5266437735624
 20
-98.44495782331842
 11
122.47408489030479
 21
-109.4449578233187
  0
LINE
  5
3D
100
AcDbEntity
  8
1
  6
CONTINUOUS
 62
             7
100
AcDbLine
 10
114.5266437735623
 20
-98.44495782331865
 11
119.5266437735624
 21
-98.44495782331842
  0
LINE
  5
3C
100
AcDbEntity
  8
1
  6
CONTINUOUS
 62
             7
100
AcDbLine
 10
222.12487480131881
 20
-94.44495782331853
 11
222.1248748013187
 21
-118.5071356498097
  0
LINE
  5
3B
100
AcDbEntity
  8
1
  6
CONTINUOUS
 62
             7
100
AcDbLine
 10
222.12487480131881
 20
-94.44495782331853
 11
222.12487480131881
 21
-70.38277999682754
  0
LINE
  5
3A
100
AcDbEntity
  8
1
  6
CONTINUOUS
 62
             7
100
AcDbLine
 10
218.6248748013187
 20
-119.4449578233185
 11
222.1248748013187
 21
-118.5071356498097
  0
LINE
  5
39
100
AcDbEntity
  8
1
  6
CONTINUOUS
 62
             7
100
AcDbLine
 10
218.6248748013187
 20
-69.44495782331853
 11
222.12487480131881
 21
-70.38277999682754
  0
LINE
  5
38
100
AcDbEntity
  8
1
  6
CONTINUOUS
 62
             7
100
AcDbLine
 10
168.1248748013185
 20
-119.4449578233185
 11
158.1248748013185
 21
-109.4449578233187
  0
LINE
  5
37
100
AcDbEntity
  8
1
  6
CONTINUOUS
 62
             7
100
AcDbLine
 10
122.47408489030479
 20
-109.4449578233187
 11
158.1248748013185
 21
-109.4449578233187
  0
LINE
  5
36
100
AcDbEntity
  8
1
  6
CONTINUOUS
 62
             7
100
AcDbLine
 10
168.1248748013185
 20
-119.4449578233185
 11
218.6248748013187
 21
-119.4449578233185
  0
LINE
  5
35
100
AcDbEntity
  8
1
  6
CONTINUOUS
 62
             7
100
AcDbLine
 10
109.19514307769199
 20
-69.44495782331865
 11
168.12487480131881
 21
-69.44495782331853
  0
LINE
  5
34
100
AcDbEntity
  8
1
  6
CONTINUOUS
 62
             7
100
AcDbLine
 10
76.81881538971032
 20
-72.27751946261731
 11
109.19514307769199
 21
-69.44495782331865
  0
LINE
  5
33
100
AcDbEntity
  8
1
  6
CONTINUOUS
 62
             7
100
AcDbLine
 10
47.37291966668052
 20
-93.4243685203009
 11
58.77741196329015
 21
-89.27347278741684
  0
ENDBLK
  5
57
100
AcDbEntity
  8
0
100
AcDbBlockEnd
  0
BLOCK
  5
28
100
AcDbEntity
  8
0
100
AcDbBlockBegin
  2
HL_500_K_RPER
 70
             0
 10
80.74082381335501
 20
-97.906280876746
 30
0.0
  3
HL_500_K_RPER
  1

  0
ARC
  5
85
100
AcDbEntity
  8
1
  6
CONTINUOUS
 62
             7
100
AcDbCircle
 10
45.24082381335501
 20
-148.6898417108855
 40
3.5
100
AcDbArc
 50
0.0
 51
82.64486212908437
  0
ARC
  5
84
100
AcDbEntity
  8
1
  6
CONTINUOUS
 62
             7
100
AcDbCircle
 10
121.24082381335489
 20
-150.406280876746
 40
1.0
100
AcDbArc
 50
-90.0
 51
0.0
  0
ARC
  5
83
100
AcDbEntity
  8
1
  6
CONTINUOUS
 62
             7
100
AcDbCircle
 10
-19.25917618664499
 20
-150.406280876746
 40
1.0
100
AcDbArc
 50
180.0
 51
-90.0
  0
ARC
  5
82
100
AcDbEntity
  8
1
  6
CONTINUOUS
 62
             7
100
AcDbCircle
 10
56.24082381335495
 20
-135.906280876746
 40
15.99999999999998
100
AcDbArc
 50
131.4096221092708
 51
180.0
  0
ARC
  5
81
100
AcDbEntity
  8
1
  6
CONTINUOUS
 62
             7
100
AcDbCircle
 10
105.24082381335489
 20
-135.906280876746
 40
16.0
100
AcDbArc
 50
0.0
 51
48.59037789072904
  0
LINE
  5
80
100
AcDbEntity
  8
1
  6
PHANTOM
 62
             2
100
AcDbLine
 10
-48.72065385166928
 20
-142.90628087674429
 11
-18.2308652346255
 21
-142.9062808767442
  0
LINE
  5
7F
100
AcDbEntity
  8
1
  6
CONTINUOUS
 62
             7
100
AcDbLine
 10
-22.7857142857174
 20
-136.65628087674239
 11
-22.7857142857174
 21
-149.156280876746
  0
LINE
  5
7E
100
AcDbEntity
  8
1
  6
CONTINUOUS
 62
             7
100
AcDbLine
 10
-26.5
 20
-137.65628087674239
 11
-26.5
 21
-148.156280876746
  0
LINE
  5
7D
100
AcDbEntity
  8
1
  6
CONTINUOUS
 62
             7
100
AcDbLine
 10
-33.5
 20
-137.90628087674239
 11
-33.5
 21
-147.906280876746
  0
LINE
  5
7C
100
AcDbEntity
  8
1
  6
CONTINUOUS
 62
             7
100
AcDbLine
 10
-40.0
 20
-138.15628087674239
 11
-40.0
 21
-147.656280876746
  0
LINE
  5
7B
100
AcDbEntity
  8
1
  6
CONTINUOUS
 62
             7
100
AcDbLine
 10
-22.7857142857174
 20
-136.65628087674239
 11
-19.25917618664499
 21
-136.65628087674239
  0
LINE
  5
7A
100
AcDbEntity
  8
0
  6
CONTINUOUS
 62
             7
100
AcDbLine
 10
-26.5
 20
-136.65628087674239
 11
-26.5
 21
-137.65628087674239
  0
LINE
  5
79
100
AcDbEntity
  8
0
  6
CONTINUOUS
 62
             7
100
AcDbLine
 10
-33.5
 20
-137.15628087674239
 11
-33.5
 21
-137.90628087674239
  0
LINE
  5
78
100
AcDbEntity
  8
0
  6
CONTINUOUS
 62
             7
100
AcDbLine
 10
-40.0
 20
-137.90628087674239
 11
-40.0
 21
-138.15628087674239
  0
LINE
  5
77
100
AcDbEntity
  8
0
  6
CONTINUOUS
 62
             7
100
AcDbLine
 10
-26.5
 20
-148.156280876746
 11
-22.7857142857174
 21
-149.156280876746
  0
LINE
  5
76
100
AcDbEntity
  8
0
  6
CONTINUOUS
 62
             7
100
AcDbLine
 10
-47.0
 20
-138.40628087674239
 11
-47.0
 21
-147.406280876746
  0
LINE
  5
75
100
AcDbEntity
  8
0
  6
CONTINUOUS
 62
             7
100
AcDbLine
 10
-47.0
 20
-147.406280876746
 11
-40.0
 21
-147.906280876746
  0
LINE
  5
74
100
AcDbEntity
  8
0
  6
CONTINUOUS
 62
             7
100
AcDbLine
 10
-26.5
 20
-148.156280876746
 11
-26.5
 21
-149.156280876746
  0
LINE
  5
73
100
AcDbEntity
  8
0
  6
CONTINUOUS
 62
             7
100
AcDbLine
 10
-33.5
 20
-147.906280876746
 11
-26.5
 21
-149.156280876746
  0
LINE
  5
72
100
AcDbEntity
  8
0
  6
CONTINUOUS
 62
             7
100
AcDbLine
 10
-33.5
 20
-147.906280876746
 11
-33.5
 21
-148.656280876746
  0
LINE
  5
71
100
AcDbEntity
  8
0
  6
CONTINUOUS
 62
             7
100
AcDbLine
 10
-40.0
 20
-147.656280876746
 11
-40.0
 21
-147.906280876746
  0
LINE
  5
70
100
AcDbEntity
  8
0
  6
CONTINUOUS
 62
             7
100
AcDbLine
 10
-40.0
 20
-147.656280876746
 11
-33.5
 21
-148.656280876746
  0
LINE
  5
6F
100
AcDbEntity
  8
0
  6
CONTINUOUS
 62
             7
100
AcDbLine
 10
-47.0
 20
-138.40628087674239
 11
-40.0
 21
-137.90628087674239
  0
LINE
  5
6E
100
AcDbEntity
  8
0
  6
CONTINUOUS
 62
             7
100
AcDbLine
 10
-40.0
 20
-138.15628087674239
 11
-33.5
 21
-137.15628087674239
  0
LINE
  5
6D
100
AcDbEntity
  8
0
  6
CONTINUOUS
 62
             7
100
AcDbLine
 10
-33.5
 20
-137.90628087674239
 11
-26.5
 21
-136.65628087674239
  0
LINE
  5
6C
100
AcDbEntity
  8
0
  6
CONTINUOUS
 62
             7
100
AcDbLine
 10
-26.5
 20
-137.65628087674239
 11
-22.7857142857174
 21
-136.65628087674239
  0
LINE
  5
6B
100
AcDbEntity
  8
1
  6
CONTINUOUS
 62
             7
100
AcDbLine
 10
-22.7857142857174
 20
-149.156280876746
 11
-19.25917618664499
 21
-149.156280876746
  0
LINE
  5
6A
100
AcDbEntity
  8
1
  6
PHANTOM
 62
             2
100
AcDbLine
 10
80.74082381335501
 20
-114.606280876746
 11
80.74082381335501
 21
-152.406280876746
  0
LINE
  5
69
100
AcDbEntity
  8
1
  6
PHANTOM
 62
             2
100
AcDbLine
 10
0.74082381335501
 20
-124.672519566958
 11
0.74082381335501
 21
-152.40628087674591
  0
LINE
  5
68
100
AcDbEntity
  8
1
  6
CONTINUOUS
 62
             7
100
AcDbLine
 10
20.74082381335501
 20
-129.20628087674601
 11
20.74082381335501
 21
-141.99831421915121
  0
LINE
  5
67
100
AcDbEntity
  8
1
  6
CONTINUOUS
 62
             7
100
AcDbLine
 10
-19.25917618664499
 20
-129.20628087674601
 11
-19.25917618664499
 21
-150.406280876746
  0
LINE
  5
66
100
AcDbEntity
  8
1
  6
CONTINUOUS
 62
             7
100
AcDbLine
 10
111.24082381335489
 20
-117.106280876746
 11
111.24082381335489
 21
-123.906280876746
  0
LINE
  5
65
100
AcDbEntity
  8
1
  6
CONTINUOUS
 62
             7
100
AcDbLine
 10
43.24082381335501
 20
-134.406280876746
 11
118.24082381335489
 21
-134.406280876746
  0
LINE
  5
64
100
AcDbEntity
  8
1
  6
CONTINUOUS
 62
             7
100
AcDbLine
 10
48.74082381335501
 20
-148.6898417108855
 11
48.74082381335501
 21
-161.406280876746
  0
LINE
  5
63
100
AcDbEntity
  8
1
  6
CONTINUOUS
 62
             7
100
AcDbLine
 10
40.24082381335501
 20
-144.5153977176609
 11
45.68889061689681
 21
-145.2186407458646
  0
LINE
  5
62
100
AcDbEntity
  8
1
  6
CONTINUOUS
 62
             7
100
AcDbLine
 10
50.24082381335501
 20
-123.906280876746
 11
111.24082381335489
 21
-123.906280876746
  0
LINE
  5
61
100
AcDbEntity
  8
1
  6
CONTINUOUS
 62
             7
100
AcDbLine
 10
122.24082381335511
 20
-150.406280876746
 11
121.24082381335489
 21
-150.406280876746
  0
LINE
  5
60
100
AcDbEntity
  8
1
  6
CONTINUOUS
 62
             7
100
AcDbLine
 10
121.24082381335489
 20
-150.406280876746
 11
-20.25917618664499
 21
-150.406280876746
  0
LINE
  5
5F
100
AcDbEntity
  8
1
  6
CONTINUOUS
 62
             7
100
AcDbLine
 10
40.24082381335501
 20
-144.5153977176609
 11
40.24082381335501
 21
-135.906280876746
  0
LINE
  5
5E
100
AcDbEntity
  8
1
  6
CONTINUOUS
 62
             7
100
AcDbLine
 10
20.74082381335501
 20
-141.99831421915121
 11
40.24082381335501
 21
-144.5153977176609
  0
LINE
  5
5D
100
AcDbEntity
  8
1
  6
CONTINUOUS
 62
             7
100
AcDbLine
 10
-19.25917618664499
 20
-151.406280876746
 11
-16.25917618664499
 21
-151.406280876746
  0
LINE
  5
5C
100
AcDbEntity
  8
1
  6
CONTINUOUS
 62
             7
100
AcDbLine
 10
45.65781856909661
 20
-123.906280876746
 11
50.24082381335501
 21
-123.906280876746
  0
LINE
  5
5B
100
AcDbEntity
  8
1
  6
CONTINUOUS
 62
             7
100
AcDbLine
 10
50.24082381335501
 20
-123.906280876746
 11
50.24082381335501
 21
-117.106280876746
  0
LINE
  5
5A
100
AcDbEntity
  8
1
  6
CONTINUOUS
 62
             7
100
AcDbLine
 10
121.24082381335489
 20
-151.406280876746
 11
-16.25917618664499
 21
-151.406280876746
  0
LINE
  5
59
100
AcDbEntity
  8
1
  6
CONTINUOUS
 62
             7
100
AcDbLine
 10
121.24082381335489
 20
-135.906280876746
 11
121.24082381335489
 21
-150.406280876746
  0
LINE
  5
58
100
AcDbEntity
  8
1
  6
CONTINUOUS
 62
             7
100
AcDbLine
 10
111.24082381335489
 20
-123.906280876746
 11
115.8238290576133
 21
-123.906280876746
  0
ENDBLK
  5
86
100
AcDbEntity
  8
0
100
AcDbBlockEnd
  0
BLOCK
  5
2A
100
AcDbEntity
  8
0
100
AcDbBlockBegin
  2
HOLL_NDERMUTTER_6_4
 70
             0
 10
-153.94733128012629
 20
-79.13375681179792
 30
0.0
  3
HOLL_NDERMUTTER_6_4
  1

  0
SPLINE
  5
CC
100
AcDbEntity
  8
0
  6
CONTINUOUS
 62
             7
100
AcDbSpline
210
0.0
220
0.0
230
1.0
 70
             0
 71
             3
 72
            11
 73
             7
 74
             5
 42
0.00000000001
 43
0.00000000001
 44
0.00000000001
 40
10.19555243465282
 40
10.19555243465282
 40
10.19555243465282
 40
10.19555243465282
 40
10.819635921994889
 40
10.819635921994889
 40
10.819635921994889
 40
11.431124435565939
 40
11.431124435565939
 40
11.431124435565939
 40
11.431124435565939
 10
29.240823813336821
 20
-127.2062808767824
 30
0.0
 10
29.078112299496929
 20
-127.3428120480331
 30
0.0
 10
28.916378964350951
 20
-127.4736084817178
 30
0.0
 10
28.755551880521299
 20
-127.59865520542201
 30
0.0
 10
28.590612879646141
 20
-127.7268990383582
 30
0.0
 10
28.42721315871422
 20
-127.84863969454641
 30
0.0
 10
28.265244336803509
 20
-127.9639982400677
 30
0.0
 11
29.240823813336821
 21
-127.2062808767824
 31
0.0
 11
28.99748118567522
 21
-127.40677470893213
 31
0.0
 11
28.755551880521299
 21
-127.59865520542201
 31
0.0
 11
28.509284291550728
 21
-127.78615870552541
 31
0.0
 11
28.265244336803509
 21
-127.9639982400677
 31
0.0
  0
SPLINE
  5
CB
100
AcDbEntity
  8
0
  6
CONTINUOUS
 62
             7
100
AcDbSpline
210
0.0
220
0.0
230
1.0
 70
             0
 71
             3
 72
            11
 73
             7
 74
             5
 42
0.00000000001
 43
0.00000000001
 44
0.00000000001
 40
9.6520212354362247
 40
9.6520212354362247
 40
9.6520212354362247
 40
9.6520212354362247
 40
10.76957509520426
 40
10.76957509520426
 40
10.76957509520426
 40
11.88858825881975
 40
11.88858825881975
 40
11.88858825881975
 40
11.88858825881975
 10
18.78931465135356
 20
-127.9639982401186
 30
0.0
 10
19.137473533305819
 20
-127.84902363517
 30
0.0
 10
19.489475556235629
 20
-127.72745254697109
 30
0.0
 10
19.845584708721791
 20
-127.5990828817649
 30
0.0
 10
20.192666755582831
 20
-127.4739672933447
 30
0.0
 10
20.54187247054978
 20
-127.3430343276614
 30
0.0
 10
20.89336707717047
 20
-127.20628087674601
 30
0.0
 11
18.78931465135356
 21
-127.9639982401186
 31
0.0
 11
19.314468328587463
 21
-127.78656370853834
 31
0.0
 11
19.845584708721791
 21
-127.5990828817649
 31
0.0
 11
20.367821183036263
 21
-127.40704607769115
 31
0.0
 11
20.89336707717047
 21
-127.20628087674601
 31
0.0
  0
SPLINE
  5
CA
100
AcDbEntity
  8
0
  6
CONTINUOUS
 62
             7
100
AcDbSpline
210
0.0
220
0.0
230
1.0
 70
             0
 71
             3
 72
            11
 73
             7
 74
             5
 42
0.00000000001
 43
0.00000000001
 44
0.00000000001
 40
12.6022249851908
 40
12.6022249851908
 40
12.6022249851908
 40
12.6022249851908
 40
13.319387266273759
 40
13.319387266273759
 40
13.319387266273759
 40
14.0365495399508
 40
14.0365495399508
 40
14.0365495399508
 40
14.0365495399508
 10
27.165244336801329
 20
-128.88448013910059
 30
0.0
 10
27.346487808184239
 20
-128.73283255354011
 30
0.0
 10
27.52981124382968
 20
-128.57943576148139
 30
0.0
 10
27.715256970482361
 20
-128.42425428140089
 30
0.0
 10
27.897054174799631
 20
-128.27212589456579
 30
0.0
 10
28.08038042899825
 20
-128.1187095863479
 30
0.0
 10
28.265244336803509
 20
-127.9639982400677
 30
0.0
 11
27.165244336801329
 21
-128.88448013910059
 31
0.0
 11
27.438674807915682
 21
-128.65569242069574
 31
0.0
 11
27.715256970482361
 21
-128.42425428140089
 31
0.0
 11
27.989100639834938
 21
-128.19509487052622
 31
0.0
 11
28.265244336803509
 21
-127.9639982400677
 31
0.0
  0
SPLINE
  5
C9
100
AcDbEntity
  8
0
  6
CONTINUOUS
 62
             7
100
AcDbSpline
210
0.0
220
0.0
230
1.0
 70
             0
 71
             3
 72
            11
 73
             7
 74
             5
 42
0.00000000001
 43
0.00000000001
 44
0.00000000001
 40
12.602224985190871
 40
12.602224985190871
 40
12.602224985190871
 40
12.602224985190871
 40
13.31938726627383
 40
13.31938726627383
 40
13.31938726627383
 40
14.03654953995088
 40
14.03654953995088
 40
14.03654953995088
 40
14.03654953995088
 10
-25.683596710091312
 20
-128.88448013910059
 30
0.0
 10
-25.86559792838198
 20
-128.73219854179661
 30
0.0
 10
-26.048937722228231
 20
-128.5787879882574
 30
0.0
 10
-26.23360934377234
 20
-128.42425428140089
 30
0.0
 10
-26.415337481262039
 20
-128.2721836898728
 30
0.0
 10
-26.59866223037789
 20
-128.1187686475005
 30
0.0
 10
-26.783596710093491
 20
-127.9639982400677
 30
0.0
 11
-25.683596710091312
 21
-128.88448013910059
 31
0.0
 11
-25.957601625711785
 21
-128.65521175133293
 31
0.0
 11
-26.23360934377234
 21
-128.42425428140089
 31
0.0
 11
-26.507400648598203
 21
-128.19513869169856
 31
0.0
 11
-26.783596710093491
 21
-127.9639982400677
 31
0.0
  0
SPLINE
  5
C8
100
AcDbEntity
  8
0
  6
CONTINUOUS
 62
             7
100
AcDbSpline
210
0.0
220
0.0
230
1.0
 70
             0
 71
             3
 72
            11
 73
             7
 74
             5
 42
0.00000000001
 43
0.00000000001
 44
0.00000000001
 40
110.6006816517057
 40
110.6006816517057
 40
110.6006816517057
 40
110.6006816517057
 40
111.20324172357979
 40
111.20324172357979
 40
111.20324172357979
 40
111.8057903305485
 40
111.8057903305485
 40
111.8057903305485
 40
111.8057903305485
 10
21.617741776089311
 20
-127.9639982400677
 30
0.0
 10
21.487182819849469
 20
-128.1185207320251
 30
0.0
 10
21.357548060024051
 20
-128.2719412290335
 30
0.0
 10
21.228841998535419
 20
-128.4242542592238
 30
0.0
 10
21.097349795321129
 20
-128.5798644588231
 30
0.0
 10
20.967726965359539
 20
-128.7332536113918
 30
0.0
 10
20.839924316781609
 20
-128.88448013910059
 30
0.0
 11
21.617741776089311
 21
-127.9639982400677
 31
0.0
 11
21.422597051780667
 21
-128.19495479780841
 31
0.0
 11
21.228841998535419
 21
-128.4242542592238
 31
0.0
 11
21.032999574669883
 21
-128.65601107612113
 31
0.0
 11
20.839924316781609
 21
-128.88448013910059
 31
0.0
  0
SPLINE
  5
C7
100
AcDbEntity
  8
0
  6
CONTINUOUS
 62
             7
100
AcDbSpline
210
0.0
220
0.0
230
1.0
 70
             0
 71
             3
 72
            11
 73
             7
 74
             5
 42
0.00000000001
 43
0.00000000001
 44
0.00000000001
 40
12.60222498519019
 40
12.60222498519019
 40
12.60222498519019
 40
12.60222498519019
 40
13.20477356312731
 40
13.20477356312731
 40
13.20477356312731
 40
13.807333664033029
 40
13.807333664033029
 40
13.807333664033029
 40
13.807333664033029
 10
-16.529849565328561
 20
-128.88448013910059
 30
0.0
 10
-16.657910803146301
 20
-128.7329476274881
 30
0.0
 10
-16.787538193692679
 20
-128.57955304266039
 30
0.0
 10
-16.918767228339501
 20
-128.42425428140089
 30
0.0
 10
-17.047504500881409
 20
-128.2719043154994
 30
0.0
 10
-17.177139995040129
 20
-128.11848294537961
 30
0.0
 10
-17.307667024632622
 20
-127.9639982400677
 30
0.0
 11
-16.529849565328561
 21
-128.88448013910059
 31
0.0
 11
-16.723120473023126
 21
-128.65577955386837
 31
0.0
 11
-16.918767228339501
 21
-128.42425428140089
 31
0.0
 11
-17.112545967592091
 21
-128.19492678801322
 31
0.0
 11
-17.307667024632622
 21
-127.9639982400677
 31
0.0
  0
SPLINE
  5
C6
100
AcDbEntity
  8
0
  6
CONTINUOUS
 62
             7
100
AcDbSpline
210
0.0
220
0.0
230
1.0
 70
             0
 71
             3
 72
            11
 73
             7
 74
             5
 42
0.00000000001
 43
0.00000000001
 44
0.00000000001
 40
110.6006816516911
 40
110.6006816516911
 40
110.6006816516911
 40
110.6006816516911
 40
111.2032417235651
 40
111.2032417235651
 40
111.2032417235651
 40
111.8057903305339
 40
111.8057903305339
 40
111.8057903305339
 40
111.8057903305339
 10
18.78931465135356
 20
-127.9639982401186
 30
0.0
 10
18.65869710547231
 20
-128.1185900755282
 30
0.0
 10
18.529063663857588
 20
-128.2720090050444
 30
0.0
 10
18.400414873788751
 20
-128.4242542592238
 30
0.0
 10
18.26928574998346
 20
-128.57943478422931
 30
0.0
 10
18.139656483502399
 20
-128.73283160240871
 30
0.0
 10
18.011497192034941
 20
-128.88448013910059
 30
0.0
 11
18.78931465135356
 21
-127.9639982401186
 31
0.0
 11
18.594126479141501
 21
-128.19500621763251
 31
0.0
 11
18.400414873788751
 21
-128.4242542592238
 31
0.0
 11
18.204842345785149
 21
-128.65569169477979
 31
0.0
 11
18.011497192034941
 21
-128.88448013910059
 31
0.0
  0
SPLINE
  5
C5
100
AcDbEntity
  8
0
  6
CONTINUOUS
 62
             7
100
AcDbSpline
210
0.0
220
0.0
230
1.0
 70
             0
 71
             3
 72
            11
 73
             7
 74
             5
 42
0.00000000001
 43
0.00000000001
 44
0.00000000001
 40
12.60222498519215
 40
12.60222498519215
 40
12.60222498519215
 40
12.60222498519215
 40
13.20477356312929
 40
13.20477356312929
 40
13.20477356312929
 40
13.80733366403499
 40
13.80733366403499
 40
13.80733366403499
 40
13.80733366403499
 10
-19.358276690071591
 20
-128.88448013910059
 30
0.0
 10
-19.486727872393029
 20
-128.73248621331931
 30
0.0
 10
-19.616363151947379
 20
-128.57908223944651
 30
0.0
 10
-19.747194353086169
 20
-128.42425428140089
 30
0.0
 10
-19.87502819635375
 20
-128.27297344968429
 30
0.0
 10
-20.004645724219529
 20
-128.1195734591476
 30
0.0
 10
-20.136094149379289
 20
-127.9639982400677
 30
0.0
 11
-19.358276690071591
 21
-128.88448013910059
 31
0.0
 11
-19.551843014522372
 21
-128.65542997234985
 31
0.0
 11
-19.747194353086169
 21
-128.42425428140089
 31
0.0
 11
-19.94028878302316
 21
-128.19573665599552
 31
0.0
 11
-20.136094149379289
 21
-127.9639982400677
 31
0.0
  0
SPLINE
  5
C4
100
AcDbEntity
  8
0
  6
CONTINUOUS
 62
             7
100
AcDbSpline
210
0.0
220
0.0
230
1.0
 70
             0
 71
             3
 72
            11
 73
             7
 74
             5
 42
0.00000000001
 43
0.00000000001
 44
0.00000000001
 40
10.195552434652781
 40
10.195552434652781
 40
10.195552434652781
 40
10.195552434652781
 40
11.264995853159769
 40
11.264995853159769
 40
11.264995853159769
 40
12.33452008509969
 40
12.33452008509969
 40
12.33452008509969
 40
12.33452008509969
 10
0.7408238133550107
 20
-127.20628087674601
 30
0.0
 10
0.4041753059547695
 20
-127.344072521255
 30
0.0
 10
0.0726556541823697
 20
-127.4747597772021
 30
0.0
 10
-0.2540145252849513
 20
-127.59865520542201
 30
0.0
 10
-0.5910235157705799
 20
-127.72647181009791
 30
0.0
 10
-0.926021292233429
 20
-127.8482545814896
 30
0.0
 10
-1.2591761866449891
 20
-127.9639982400677
 30
0.0
 11
0.7408238133550107
 21
-127.20628087674601
 31
0.0
 11
0.2396627710601846
 21
-127.40767912219242
 31
0.0
 11
-0.2540145252849513
 21
-127.59865520542201
 31
0.0
 11
-0.7580406419927451
 21
-127.78585407753152
 31
0.0
 11
-1.2591761866449891
 21
-127.9639982400677
 31
0.0
  0
SPLINE
  5
C3
100
AcDbEntity
  8
0
  6
CONTINUOUS
 62
             7
100
AcDbSpline
210
0.0
220
0.0
230
1.0
 70
             0
 71
             3
 72
            11
 73
             7
 74
             5
 42
0.00000000001
 43
0.00000000001
 44
0.00000000001
 40
10.195552434652781
 40
10.195552434652781
 40
10.195552434652781
 40
10.195552434652781
 40
10.72829261095816
 40
10.72829261095816
 40
10.72829261095816
 40
11.244087937724711
 40
11.244087937724711
 40
11.244087937724711
 40
11.244087937724711
 10
-19.411719450460449
 20
-127.20628087674601
 30
0.0
 10
-19.533783773854161
 20
-127.34422451021059
 30
0.0
 10
-19.653854762603089
 20
-127.4748993190388
 30
0.0
 10
-19.7720373114742
 20
-127.59865520542201
 30
0.0
 10
-19.894518200303359
 20
-127.7269121359659
 30
0.0
 10
-20.01584347673889
 20
-127.84865152116799
 30
0.0
 10
-20.136094149379289
 20
-127.9639982400677
 30
0.0
 11
-19.411719450460449
 21
-127.20628087674601
 31
0.0
 11
-19.5933340464133
 21
-127.40778844623952
 31
0.0
 11
-19.7720373114742
 21
-127.59865520542201
 31
0.0
 11
-19.954902061497528
 21
-127.78616805211142
 31
0.0
 11
-20.136094149379289
 21
-127.9639982400677
 31
0.0
  0
SPLINE
  5
C2
100
AcDbEntity
  8
0
  6
CONTINUOUS
 62
             7
100
AcDbSpline
210
0.0
220
0.0
230
1.0
 70
             0
 71
             3
 72
            11
 73
             7
 74
             5
 42
0.00000000001
 43
0.00000000001
 44
0.00000000001
 40
10.19555243465293
 40
10.19555243465293
 40
10.19555243465293
 40
10.19555243465293
 40
11.313304530967139
 40
11.313304530967139
 40
11.313304530967139
 40
12.43211945463684
 40
12.43211945463684
 40
12.43211945463684
 40
12.43211945463684
 10
-19.411719450460449
 20
-127.20628087674601
 30
0.0
 10
-19.05772491822318
 20
-127.3440069555855
 30
0.0
 10
-18.70895587598244
 20
-127.4746996281483
 30
0.0
 10
-18.365123440597749
 20
-127.59865520542201
 30
0.0
 10
-18.009477708520361
 20
-127.72686961304321
 30
0.0
 10
-17.65706897567253
 20
-127.8486131289265
 30
0.0
 10
-17.307667024632622
 20
-127.9639982400677
 30
0.0
 11
-19.411719450460449
 21
-127.20628087674601
 31
0.0
 11
-18.884610659209383
 21
-127.40763197917117
 31
0.0
 11
-18.365123440597749
 21
-127.59865520542201
 31
0.0
 11
-17.834053814726129
 21
-127.78613770892484
 31
0.0
 11
-17.307667024632622
 21
-127.9639982400677
 31
0.0
  0
SPLINE
  5
C1
100
AcDbEntity
  8
0
  6
CONTINUOUS
 62
             7
100
AcDbSpline
210
0.0
220
0.0
230
1.0
 70
             0
 71
             3
 72
            11
 73
             7
 74
             5
 42
0.00000000001
 43
0.00000000001
 44
0.00000000001
 40
10.19555243465283
 40
10.19555243465283
 40
10.19555243465283
 40
10.19555243465283
 40
11.26499585315983
 40
11.26499585315983
 40
11.26499585315983
 40
12.33452008509976
 40
12.33452008509976
 40
12.33452008509976
 40
12.33452008509976
 10
0.7408238133550107
 20
-127.20628087674601
 30
0.0
 10
1.074079614392019
 20
-127.3426838723264
 30
0.0
 10
1.40564927850318
 20
-127.47349200152721
 30
0.0
 10
1.73566215199498
 20
-127.59865520542201
 30
0.0
 10
2.0737227463261618
 20
-127.7268706494088
 30
0.0
 10
2.4087036496250112
 20
-127.8486140644728
 30
0.0
 10
2.7408238133550111
 20
-127.9639982400677
 30
0.0
 11
0.7408238133550107
 21
-127.20628087674601
 31
0.0
 11
1.2394590805044485
 21
-127.4066829629661
 31
0.0
 11
1.73566215199498
 21
-127.59865520542201
 31
0.0
 11
2.240470644150439
 21
-127.7861384483918
 31
0.0
 11
2.7408238133550111
 21
-127.9639982400677
 31
0.0
  0
SPLINE
  5
C0
100
AcDbEntity
  8
0
  6
CONTINUOUS
 62
             7
100
AcDbSpline
210
0.0
220
0.0
230
1.0
 70
             0
 71
             3
 72
            11
 73
             7
 74
             5
 42
0.00000000001
 43
0.00000000001
 44
0.00000000001
 40
9.6520212354362265
 40
9.6520212354362265
 40
9.6520212354362265
 40
9.6520212354362265
 40
10.16722522019518
 40
10.16722522019518
 40
10.16722522019518
 40
10.7005567454881
 40
10.7005567454881
 40
10.7005567454881
 40
10.7005567454881
 10
21.617741776089311
 20
-127.9639982400677
 30
0.0
 10
21.49796444256317
 20
-127.84910555709411
 30
0.0
 10
21.376779618132051
 20
-127.7275430338469
 30
0.0
 10
21.254093372940769
 20
-127.5990828817649
 30
0.0
 10
21.134989338233201
 20
-127.47437352752431
 30
0.0
 10
21.014772813731899
 20
-127.3434802479442
 30
0.0
 10
20.89336707717047
 20
-127.20628087674601
 30
0.0
 11
21.617741776089311
 21
-127.9639982400677
 31
0.0
 11
21.437008416389467
 21
-127.78662836183196
 31
0.0
 11
21.254093372940769
 21
-127.5990828817649
 31
0.0
 11
21.07459336325082
 21
-127.40736563561455
 31
0.0
 11
20.89336707717047
 21
-127.20628087674601
 31
0.0
  0
SPLINE
  5
BF
100
AcDbEntity
  8
0
  6
CONTINUOUS
 62
             7
100
AcDbSpline
210
0.0
220
0.0
230
1.0
 70
             0
 71
             3
 72
            11
 73
             7
 74
             5
 42
0.00000000001
 43
0.00000000001
 44
0.00000000001
 40
10.19448601636854
 40
10.19448601636854
 40
10.19448601636854
 40
10.19448601636854
 40
10.818569247931419
 40
10.818569247931419
 40
10.818569247931419
 40
11.430058017314931
 40
11.430058017314931
 40
11.430058017314931
 40
11.430058017314931
 10
-27.759176186644989
 20
-127.20628087674601
 30
0.0
 10
-27.595858052506451
 20
-127.34332106286639
 30
0.0
 10
-27.43413509270141
 20
-127.4740720715436
 30
0.0
 10
-27.273904455773671
 20
-127.59865504838859
 30
0.0
 10
-27.10896552622836
 20
-127.7268988301967
 30
0.0
 10
-26.945565736018409
 20
-127.84863954924189
 30
0.0
 10
-26.783596710093491
 20
-127.9639982400677
 30
0.0
 11
-27.759176186644989
 21
-127.20628087674601
 31
0.0
 11
-27.515382509755284
 21
-127.40713941604558
 31
0.0
 11
-27.273904455773671
 21
-127.59865504838859
 31
0.0
 11
-27.027636869075934
 21
-127.7861585533465
 31
0.0
 11
-26.783596710093491
 21
-127.9639982400677
 31
0.0
  0
LINE
  5
BE
100
AcDbEntity
  8
1
  6
CONTINUOUS
 62
             7
100
AcDbLine
 10
-30.41654468954444
 20
-119.906280876746
 11
-31.76151595233844
 21
-119.906280876746
  0
LINE
  5
BD
100
AcDbEntity
  8
1
  6
CONTINUOUS
 62
             7
100
AcDbLine
 10
24.74082381335501
 20
-109.20628087674601
 11
24.74082381335501
 21
-108.20628087674601
  0
LINE
  5
BC
100
AcDbEntity
  8
1
  6
CONTINUOUS
 62
             7
100
AcDbLine
 10
-23.25917618664499
 20
-109.20628087674601
 11
-23.25917618664499
 21
-108.20628087674601
  0
LINE
  5
BB
100
AcDbEntity
  8
1
  6
PHANTOM
 62
             2
100
AcDbLine
 10
0.74082381335501
 20
-112.20628087674601
 11
0.74082381335501
 21
-114.70628087674601
  0
LINE
  5
BA
100
AcDbEntity
  8
0
  6
CONTINUOUS
 62
             7
100
AcDbLine
 10
18.78931465134264
 20
-114.70628087674601
 11
20.83992431678161
 21
-114.70628087674601
  0
LINE
  5
B9
100
AcDbEntity
  8
0
  6
CONTINUOUS
 62
             7
100
AcDbLine
 10
21.61774177608931
 20
-114.70628087674601
 11
27.16524433680133
 21
-114.70628087674601
  0
LINE
  5
B8
100
AcDbEntity
  8
0
  6
CONTINUOUS
 62
             7
100
AcDbLine
 10
-1.25917618664499
 20
-114.70628087674601
 11
-16.52984956532856
 21
-114.70628087674601
  0
LINE
  5
B7
100
AcDbEntity
  8
0
  6
CONTINUOUS
 62
             7
100
AcDbLine
 10
27.16524433680133
 20
-114.70628087674601
 11
28.26524433680351
 21
-114.70628087674601
  0
LINE
  5
B6
100
AcDbEntity
  8
0
  6
CONTINUOUS
 62
             7
100
AcDbLine
 10
28.26524433680351
 20
-114.70628087674601
 11
28.26524433680351
 21
-127.9639982400677
  0
LINE
  5
B5
100
AcDbEntity
  8
0
  6
CONTINUOUS
 62
             7
100
AcDbLine
 10
20.83992431678161
 20
-128.88448013910059
 11
27.16524433680133
 21
-128.88448013910059
  0
LINE
  5
B4
100
AcDbEntity
  8
0
  6
CONTINUOUS
 62
             7
100
AcDbLine
 10
-1.25917618664499
 20
-127.9639982400677
 11
-1.25917618664499
 21
-128.88448013910059
  0
LINE
  5
B3
100
AcDbEntity
  8
0
  6
CONTINUOUS
 62
             7
100
AcDbLine
 10
27.16524433680133
 20
-114.70628087674601
 11
27.16524433680133
 21
-128.88448013910059
  0
LINE
  5
B2
100
AcDbEntity
  8
0
  6
CONTINUOUS
 62
             7
100
AcDbLine
 10
29.24082381335501
 20
-112.20628087674601
 11
29.24082381335501
 21
-114.70628087674601
  0
LINE
  5
B1
100
AcDbEntity
  8
0
  6
CONTINUOUS
 62
             7
100
AcDbLine
 10
-27.75917618664499
 20
-112.20628087674601
 11
-27.75917618664499
 21
-114.70628087674601
  0
LINE
  5
B0
100
AcDbEntity
  8
0
  6
CONTINUOUS
 62
             7
100
AcDbLine
 10
-27.75917618664499
 20
-112.20628087674601
 11
29.24082381335501
 21
-112.20628087674601
  0
LINE
  5
AF
100
AcDbEntity
  8
0
  6
CONTINUOUS
 62
             7
100
AcDbLine
 10
-26.78359671009349
 20
-114.70628087674601
 11
-26.78359671009349
 21
-127.9639982400677
  0
LINE
  5
AE
100
AcDbEntity
  8
0
  6
CONTINUOUS
 62
             7
100
AcDbLine
 10
-20.13609414937929
 20
-114.70628087674601
 11
-25.68359671009131
 21
-114.70628087674601
  0
LINE
  5
AD
100
AcDbEntity
  8
0
  6
CONTINUOUS
 62
             7
100
AcDbLine
 10
-25.68359671009131
 20
-114.70628087674601
 11
-25.68359671009131
 21
-128.88448013910059
  0
LINE
  5
AC
100
AcDbEntity
  8
0
  6
CONTINUOUS
 62
             7
100
AcDbLine
 10
-19.35827669007159
 20
-128.88448013910059
 11
-25.68359671009131
 21
-128.88448013910059
  0
LINE
  5
AB
100
AcDbEntity
  8
0
  6
CONTINUOUS
 62
             7
100
AcDbLine
 10
20.83992431678161
 20
-114.70628087674601
 11
20.89336707717047
 21
-114.70628087674601
  0
LINE
  5
AA
100
AcDbEntity
  8
0
  6
CONTINUOUS
 62
             7
100
AcDbLine
 10
0.74082381335501
 20
-114.70628087674601
 11
2.74082381335501
 21
-114.70628087674601
  0
LINE
  5
A9
100
AcDbEntity
  8
0
  6
CONTINUOUS
 62
             7
100
AcDbLine
 10
-19.35827669007159
 20
-114.70628087674601
 11
-17.30766702463262
 21
-114.70628087674601
  0
LINE
  5
A8
100
AcDbEntity
  8
0
  6
CONTINUOUS
 62
             7
100
AcDbLine
 10
-16.52984956532856
 20
-114.70628087674601
 11
-17.30766702463262
 21
-114.70628087674601
  0
LINE
  5
A7
100
AcDbEntity
  8
0
  6
CONTINUOUS
 62
             7
100
AcDbLine
 10
0.74082381335501
 20
-114.70628087674601
 11
-1.25917618664499
 21
-114.70628087674601
  0
LINE
  5
A6
100
AcDbEntity
  8
0
  6
CONTINUOUS
 62
             7
100
AcDbLine
 10
-19.35827669007159
 20
-114.70628087674601
 11
-19.41171945046045
 21
-114.70628087674601
  0
LINE
  5
A5
100
AcDbEntity
  8
0
  6
CONTINUOUS
 62
             7
100
AcDbLine
 10
-19.41171945046045
 20
-114.70628087674601
 11
-20.13609414937929
 21
-114.70628087674601
  0
LINE
  5
A4
100
AcDbEntity
  8
0
  6
CONTINUOUS
 62
             7
100
AcDbLine
 10
18.01149719203494
 20
-114.70628087674601
 11
2.74082381335501
 21
-114.70628087674601
  0
LINE
  5
A3
100
AcDbEntity
  8
0
  6
CONTINUOUS
 62
             7
100
AcDbLine
 10
18.78931465134264
 20
-114.70628087674601
 11
18.01149719203494
 21
-114.70628087674601
  0
LINE
  5
A2
100
AcDbEntity
  8
0
  6
CONTINUOUS
 62
             7
100
AcDbLine
 10
21.61774177608931
 20
-114.70628087674601
 11
20.89336707717047
 21
-114.70628087674601
  0
LINE
  5
A1
100
AcDbEntity
  8
0
  6
CONTINUOUS
 62
             7
100
AcDbLine
 10
21.61774177608931
 20
-114.70628087674601
 11
21.61774177608931
 21
-125.20628087674601
  0
LINE
  5
A0
100
AcDbEntity
  8
0
  6
CONTINUOUS
 62
             7
100
AcDbLine
 10
-20.13609414937929
 20
-114.70628087674601
 11
-20.13609414937929
 21
-126.20628087674601
  0
LINE
  5
9F
100
AcDbEntity
  8
0
  6
CONTINUOUS
 62
             7
100
AcDbLine
 10
0.74082381335501
 20
-114.70628087674601
 11
0.74082381335501
 21
-127.20628087674601
  0
LINE
  5
9E
100
AcDbEntity
  8
0
  6
CONTINUOUS
 62
             7
100
AcDbLine
 10
-19.41171945046045
 20
-114.70628087674601
 11
-19.41171945046045
 21
-127.20628087674601
  0
LINE
  5
9D
100
AcDbEntity
  8
0
  6
CONTINUOUS
 62
             7
100
AcDbLine
 10
20.89336707717047
 20
-114.70628087674601
 11
20.89336707717047
 21
-127.20628087674601
  0
LINE
  5
9C
100
AcDbEntity
  8
0
  6
CONTINUOUS
 62
             7
100
AcDbLine
 10
-1.25917618664499
 20
-114.70628087674601
 11
-1.25917618664499
 21
-127.9639982400677
  0
LINE
  5
9B
100
AcDbEntity
  8
0
  6
CONTINUOUS
 62
             7
100
AcDbLine
 10
18.78931465134264
 20
-114.70628087674601
 11
18.78931465135356
 21
-127.9639982401186
  0
LINE
  5
9A
100
AcDbEntity
  8
0
  6
CONTINUOUS
 62
             7
100
AcDbLine
 10
-17.30766702463262
 20
-114.70628087674601
 11
-17.30766702463262
 21
-127.9639982400677
  0
LINE
  5
99
100
AcDbEntity
  8
0
  6
CONTINUOUS
 62
             7
100
AcDbLine
 10
-20.13609414937929
 20
-126.20628087674601
 11
-20.13609414937929
 21
-127.9639982400677
  0
LINE
  5
98
100
AcDbEntity
  8
0
  6
CONTINUOUS
 62
             7
100
AcDbLine
 10
2.74082381335501
 20
-114.70628087674601
 11
2.74082381335501
 21
-127.9639982400677
  0
LINE
  5
97
100
AcDbEntity
  8
0
  6
CONTINUOUS
 62
             7
100
AcDbLine
 10
18.01149719203494
 20
-114.70628087674601
 11
18.01149719203494
 21
-128.88448013910059
  0
LINE
  5
96
100
AcDbEntity
  8
0
  6
CONTINUOUS
 62
             7
100
AcDbLine
 10
2.74082381335501
 20
-127.9639982400677
 11
2.74082381335501
 21
-128.88448013910059
  0
LINE
  5
95
100
AcDbEntity
  8
0
  6
CONTINUOUS
 62
             7
100
AcDbLine
 10
-16.52984956532856
 20
-114.70628087674601
 11
-16.52984956532856
 21
-128.88448013910059
  0
LINE
  5
94
100
AcDbEntity
  8
0
  6
CONTINUOUS
 62
             7
100
AcDbLine
 10
-1.25917618664499
 20
-128.88448013910059
 11
-16.52984956532856
 21
-128.88448013910059
  0
LINE
  5
93
100
AcDbEntity
  8
0
  6
CONTINUOUS
 62
             7
100
AcDbLine
 10
18.01149719203494
 20
-128.88448013910059
 11
2.74082381335501
 21
-128.88448013910059
  0
LINE
  5
92
100
AcDbEntity
  8
0
  6
CONTINUOUS
 62
             7
100
AcDbLine
 10
21.61774177608931
 20
-126.20628087674601
 11
21.61774177608931
 21
-127.9639982400677
  0
LINE
  5
91
100
AcDbEntity
  8
0
  6
CONTINUOUS
 62
             7
100
AcDbLine
 10
21.61774177608931
 20
-125.20628087674601
 11
21.61774177608931
 21
-126.20628087674601
  0
LINE
  5
90
100
AcDbEntity
  8
0
  6
CONTINUOUS
 62
             7
100
AcDbLine
 10
-25.68359671009131
 20
-114.70628087674601
 11
-26.78359671009349
 21
-114.70628087674601
  0
LINE
  5
8F
100
AcDbEntity
  8
0
  6
CONTINUOUS
 62
             7
100
AcDbLine
 10
26.85731662816506
 20
-129.20628087674601
 11
29.24082381333682
 21
-127.2062808767824
  0
LINE
  5
8E
100
AcDbEntity
  8
0
  6
CONTINUOUS
 62
             7
100
AcDbLine
 10
29.24082381335501
 20
-114.70628087674601
 11
28.26524433680351
 21
-114.70628087674601
  0
LINE
  5
8D
100
AcDbEntity
  8
0
  6
CONTINUOUS
 62
             7
100
AcDbLine
 10
-27.75917618664499
 20
-114.70628087674601
 11
-26.78359671009349
 21
-114.70628087674601
  0
LINE
  5
8C
100
AcDbEntity
  8
0
  6
CONTINUOUS
 62
             7
100
AcDbLine
 10
-27.75917618664499
 20
-114.70628087674601
 11
-27.75917618664499
 21
-127.20628087674601
  0
LINE
  5
8B
100
AcDbEntity
  8
0
  6
CONTINUOUS
 62
             7
100
AcDbLine
 10
29.24082381335501
 20
-114.70628087674601
 11
29.24082381333682
 21
-127.2062808767824
  0
LINE
  5
8A
100
AcDbEntity
  8
0
  6
CONTINUOUS
 62
             7
100
AcDbLine
 10
-25.37566900145503
 20
-129.20628087674601
 11
-27.75917618664499
 21
-127.20628087674601
  0
LINE
  5
89
100
AcDbEntity
  8
0
  6
CONTINUOUS
 62
             7
100
AcDbLine
 10
26.85731662816506
 20
-129.20628087674601
 11
-25.37566900145503
 21
-129.20628087674601
  0
POINT
  5
88
100
AcDbEntity
  8
1
 62
             3
 60
             1
100
AcDbPoint
 10
-31.76151595233844
 20
-119.906280876746
  0
POINT
  5
87
100
AcDbEntity
  8
1
 62
             3
 60
             1
100
AcDbPoint
 10
-30.41654468954444
 20
-119.906280876746
  0
ENDBLK
  5
CD
100
AcDbEntity
  8
0
100
AcDbBlockEnd
  0
BLOCK
  5
2C
100
AcDbEntity
  8
0
100
AcDbBlockBegin
  2
HL_500_BODEN
 70
             0
 10
80.74082381335501
 20
-165.906280876746
 30
0.0
  3
HL_500_BODEN
  1

  0
ARC
  5
D8
100
AcDbEntity
  8
1
  6
CONTINUOUS
 62
             7
100
AcDbCircle
 10
121.24082381335489
 20
-152.406280876746
 40
1.00000000000021
100
AcDbArc
 50
0.0
 51
90.0
  0
ARC
  5
D7
100
AcDbEntity
  8
1
  6
CONTINUOUS
 62
             7
100
AcDbCircle
 10
-19.25917618664499
 20
-152.406280876746
 40
1.0
100
AcDbArc
 50
90.0
 51
180.0
  0
ARC
  5
D6
100
AcDbEntity
  8
1
  6
CONTINUOUS
 62
             7
100
AcDbCircle
 10
-10.25917618664499
 20
-152.906280876746
 40
9.0
100
AcDbArc
 50
180.0
 51
-90.0
  0
ARC
  5
D5
100
AcDbEntity
  8
1
  6
CONTINUOUS
 62
             7
100
AcDbCircle
 10
116.24082381335489
 20
-156.906280876746
 40
5.0
100
AcDbArc
 50
-90.0
 51
0.0
  0
LINE
  5
D4
100
AcDbEntity
  8
1
  6
CONTINUOUS
 62
             7
100
AcDbLine
 10
121.24082381335489
 20
-152.406280876746
 11
122.24082381335511
 21
-152.406280876746
  0
LINE
  5
D3
100
AcDbEntity
  8
1
  6
CONTINUOUS
 62
             7
100
AcDbLine
 10
-20.25917618664499
 20
-152.406280876746
 11
-19.25917618664499
 21
-152.406280876746
  0
LINE
  5
D2
100
AcDbEntity
  8
1
  6
CONTINUOUS
 62
             7
100
AcDbLine
 10
-19.25917618664499
 20
-152.406280876746
 11
-19.25917618664499
 21
-152.906280876746
  0
LINE
  5
D1
100
AcDbEntity
  8
1
  6
CONTINUOUS
 62
             7
100
AcDbLine
 10
-19.25917618664499
 20
-152.406280876746
 11
121.24082381335489
 21
-152.406280876746
  0
LINE
  5
D0
100
AcDbEntity
  8
1
  6
CONTINUOUS
 62
             7
100
AcDbLine
 10
-19.25917618664499
 20
-151.406280876746
 11
121.24082381335489
 21
-151.406280876746
  0
LINE
  5
CF
100
AcDbEntity
  8
1
  6
CONTINUOUS
 62
             7
100
AcDbLine
 10
121.24082381335489
 20
-156.906280876746
 11
121.24082381335489
 21
-152.406280876746
  0
LINE
  5
CE
100
AcDbEntity
  8
1
  6
CONTINUOUS
 62
             7
100
AcDbLine
 10
-10.25917618664499
 20
-161.906280876746
 11
116.24082381335489
 21
-161.906280876746
  0
ENDBLK
  5
D9
100
AcDbEntity
  8
0
100
AcDbBlockEnd
  0
BLOCK
  5
DC
100
AcDbEntity
  8
0
100
AcDbBlockBegin
  2
*D4
 70
             1
 10
0.0
 20
0.0
 30
0.0
  3
*D4
  1

  0
LINE
  5
DD
100
AcDbEntity
  8
0
  6
CONTINUOUS
 62
             4
100
AcDbLine
 10
0.740823813355
 20
-53.68261034123202
 11
80.74082381335501
 21
-53.68261034123202
  0
LINE
  5
DE
100
AcDbEntity
  8
0
  6
CONTINUOUS
 62
             4
100
AcDbLine
 10
0.740823813355
 20
-124.67251956695804
 11
0.740823813355
 21
-104.61270574860401
  0
LINE
  5
DF
100
AcDbEntity
  8
0
  6
CONTINUOUS
 62
             4
100
AcDbLine
 10
80.74082381335501
 20
-114.60628087674604
 11
80.74082381335501
 21
-51.68261034123202
  0
LINE
  5
E0
100
AcDbEntity
  8
0
  6
CONTINUOUS
 62
             4
100
AcDbLine
 10
0.740823813355
 20
-82.57487045237605
 11
0.740823813355
 21
-51.68261034123202
  0
SOLID
  5
E1
100
AcDbEntity
  8
0
 62
             4
100
AcDbTrace
 10
7.740823813355
 20
-52.76104285812025
 11
7.740823813355
 21
-54.60417782434379
 12
0.740823813355
 22
-53.68261034123202
 13
0.740823813355
 23
-53.68261034123202
  0
SOLID
  5
E2
100
AcDbEntity
  8
0
 62
             4
100
AcDbTrace
 10
73.74082381335501
 20
-54.60417782434379
 11
73.74082381335501
 21
-52.76104285812025
 12
80.74082381335501
 22
-53.68261034123202
 13
80.74082381335501
 23
-53.68261034123202
  0
MTEXT
  5
E4
100
AcDbEntity
  8
0
 62
             1
100
AcDbMText
 10
31.8896838284394
 20
-51.68261034123202
 30
0.0
 40
7.0
 41
0.0
 71
             7
 72
             1
  1
80
  7
CONVERTER_1
 11
0.99999999999706
 21
0.00000242406841
 31
0.0
  0
ENDBLK
  5
E5
100
AcDbEntity
  8
0
100
AcDbBlockEnd
  0
BLOCK
  5
E9
100
AcDbEntity
  8
0
100
AcDbBlockBegin
  2
*D5
 70
             1
 10
0.0
 20
0.0
 30
0.0
  3
*D5
  1

  0
LINE
  5
EA
100
AcDbEntity
  8
0
  6
CONTINUOUS
 62
             4
100
AcDbLine
 10
80.74082381335501
 20
-53.46425033401204
 11
222.12487480131881
 21
-53.46425033401204
  0
LINE
  5
EB
100
AcDbEntity
  8
0
  6
CONTINUOUS
 62
             4
100
AcDbLine
 10
80.74082381335501
 20
-114.60628087674604
 11
80.74082381335501
 21
-51.46425033401204
  0
LINE
  5
EC
100
AcDbEntity
  8
0
  6
CONTINUOUS
 62
             4
100
AcDbLine
 10
222.12487480131881
 20
-70.38277999682754
 11
222.12487480131881
 21
-51.46425033401204
  0
SOLID
  5
ED
100
AcDbEntity
  8
0
 62
             4
100
AcDbTrace
 10
87.74082381335501
 20
-52.54268285090027
 11
87.74082381335501
 21
-54.38581781712382
 12
80.74082381335501
 22
-53.46425033401204
 13
80.74082381335501
 23
-53.46425033401204
  0
SOLID
  5
EE
100
AcDbEntity
  8
0
 62
             4
100
AcDbTrace
 10
215.12487480131881
 20
-54.38581781712382
 11
215.12487480131881
 21
-52.54268285090027
 12
222.12487480131881
 22
-53.46425033401204
 13
222.12487480131881
 23
-53.46425033401204
  0
MTEXT
  5
EF
100
AcDbEntity
  8
0
 62
             1
100
AcDbMText
 10
133.231205142433
 20
-51.46425033401204
 30
0.0
 40
7.0
 41
0.0
 71
             7
 72
             1
  1
142
  7
CONVERTER_1
 11
0.99999999999706
 21
0.00000242406841
 31
0.0
  0
ENDBLK
  5
F0
100
AcDbEntity
  8
0
100
AcDbBlockEnd
  0
BLOCK
  5
F4
100
AcDbEntity
  8
0
100
AcDbBlockBegin
  2
*D6
 70
             1
 10
0.0
 20
0.0
 30
0.0
  3
*D6
  1

  0
LINE
  5
F5
100
AcDbEntity
  8
0
  6
CONTINUOUS
 62
             4
100
AcDbLine
 10
146.649565149653
 20
-141.83973136643499
 11
146.649565149653
 21
-109.44495782331865
  0
LINE
  5
F6
100
AcDbEntity
  8
0
  6
CONTINUOUS
 62
             4
100
AcDbLine
 10
146.649565149653
 20
-109.44495782331865
 11
146.649565149653
 21
-69.44495782331853
  0
LINE
  5
F7
100
AcDbEntity
  8
0
  6
CONTINUOUS
 62
             4
100
AcDbLine
 10
158.1248748013185
 20
-109.44495782331865
 11
144.649565149653
 21
-109.44495782331865
  0
LINE
  5
F8
100
AcDbEntity
  8
0
  6
CONTINUOUS
 62
             4
100
AcDbLine
 10
168.12487480131881
 20
-69.44495782331853
 11
144.649565149653
 21
-69.44495782331853
  0
SOLID
  5
F9
100
AcDbEntity
  8
0
 62
             4
100
AcDbTrace
 10
145.72799766654123
 20
-102.44495782331865
 11
147.57113263276477
 21
-102.44495782331865
 12
146.649565149653
 22
-109.44495782331865
 13
146.649565149653
 23
-109.44495782331865
  0
SOLID
  5
FA
100
AcDbEntity
  8
0
 62
             4
100
AcDbTrace
 10
147.57113263276477
 20
-76.44495782331853
 11
145.72799766654123
 21
-76.44495782331853
 12
146.649565149653
 22
-69.44495782331853
 13
146.649565149653
 23
-69.44495782331853
  0
MTEXT
  5
FB
100
AcDbEntity
  8
0
 62
             1
100
AcDbMText
 10
144.649565149653
 20
-137.919731366435
 30
0.0
 40
7.0
 41
0.0
 71
             7
 72
             1
  1
\C1;DN\C1;40
  7
CONVERTER_1
 11
0.0
 21
1.0
 31
0.0
  0
ENDBLK
  5
FC
100
AcDbEntity
  8
0
100
AcDbBlockEnd
  0
BLOCK
  5
100
100
AcDbEntity
  8
0
100
AcDbBlockBegin
  2
*D7
 70
             1
 10
0.0
 20
0.0
 30
0.0
  3
*D7
  1

  0
LINE
  5
101
100
AcDbEntity
  8
0
  6
CONTINUOUS
 62
             4
100
AcDbLine
 10
222.12487480131867
 20
-135.85572865251899
 11
168.12487480131847
 21
-135.85572865251899
  0
LINE
  5
102
100
AcDbEntity
  8
0
  6
CONTINUOUS
 62
             4
100
AcDbLine
 10
222.12487480131867
 20
-118.50713564980967
 11
222.12487480131867
 21
-137.85572865251899
  0
LINE
  5
103
100
AcDbEntity
  8
0
  6
CONTINUOUS
 62
             4
100
AcDbLine
 10
168.12487480131847
 20
-119.4449578233185
 11
168.12487480131847
 21
-137.85572865251899
  0
SOLID
  5
104
100
AcDbEntity
  8
0
 62
             4
100
AcDbTrace
 10
215.12487480131867
 20
-136.77729613563076
 11
215.12487480131867
 21
-134.93416116940722
 12
222.12487480131867
 22
-135.85572865251899
 13
222.12487480131867
 23
-135.85572865251899
  0
SOLID
  5
105
100
AcDbEntity
  8
0
 62
             4
100
AcDbTrace
 10
175.12487480131847
 20
-134.93416116940722
 11
175.12487480131847
 21
-136.77729613563076
 12
168.12487480131847
 22
-135.85572865251899
 13
168.12487480131847
 23
-135.85572865251899
  0
MTEXT
  5
106
100
AcDbEntity
  8
0
 62
             1
100
AcDbMText
 10
188.04052508569399
 20
-133.85572865251899
 30
0.0
 40
7.0
 41
0.0
 71
             7
 72
             1
  1
54
  7
CONVERTER_1
 11
0.99999999999706
 21
0.00000242406841
 31
0.0
  0
ENDBLK
  5
107
100
AcDbEntity
  8
0
100
AcDbBlockEnd
  0
BLOCK
  5
10B
100
AcDbEntity
  8
0
100
AcDbBlockBegin
  2
*D8
 70
             1
 10
0.0
 20
0.0
 30
0.0
  3
*D8
  1

  0
LINE
  5
10C
100
AcDbEntity
  8
0
  6
CONTINUOUS
 62
             4
100
AcDbLine
 10
242.535207629881
 20
-119.44495782331853
 11
242.535207629881
 21
-69.44495782331853
  0
LINE
  5
10D
100
AcDbEntity
  8
0
  6
CONTINUOUS
 62
             4
100
AcDbLine
 10
218.62487480131867
 20
-119.44495782331853
 11
244.535207629881
 21
-119.44495782331853
  0
LINE
  5
10E
100
AcDbEntity
  8
0
  6
CONTINUOUS
 62
             4
100
AcDbLine
 10
218.62487480131867
 20
-69.44495782331853
 11
244.535207629881
 21
-69.44495782331853
  0
SOLID
  5
10F
100
AcDbEntity
  8
0
 62
             4
100
AcDbTrace
 10
241.61364014676923
 20
-112.44495782331853
 11
243.45677511299277
 21
-112.44495782331853
 12
242.535207629881
 22
-119.44495782331853
 13
242.535207629881
 23
-119.44495782331853
  0
SOLID
  5
110
100
AcDbEntity
  8
0
 62
             4
100
AcDbTrace
 10
243.45677511299277
 20
-76.44495782331853
 11
241.61364014676923
 21
-76.44495782331853
 12
242.535207629881
 22
-69.44495782331853
 13
242.535207629881
 23
-69.44495782331853
  0
MTEXT
  5
111
100
AcDbEntity
  8
0
 62
             1
100
AcDbMText
 10
240.535207629881
 20
-103.76467361986803
 30
0.0
 40
7.0
 41
0.0
 71
             7
 72
             1
  1
\C1;DN\C1;50
  7
CONVERTER_1
 11
0.0
 21
1.0
 31
0.0
  0
ENDBLK
  5
112
100
AcDbEntity
  8
0
100
AcDbBlockEnd
  0
BLOCK
  5
116
100
AcDbEntity
  8
0
100
AcDbBlockBegin
  2
*D9
 70
             1
 10
0.0
 20
0.0
 30
0.0
  3
*D9
  1

  0
LINE
  5
117
100
AcDbEntity
  8
0
  6
CONTINUOUS
 62
             4
100
AcDbLine
 10
260.77084446131198
 20
-161.90628087674597
 11
260.77084446131198
 21
-94.44495782331862
  0
LINE
  5
118
100
AcDbEntity
  8
0
  6
CONTINUOUS
 62
             4
100
AcDbLine
 10
116.24082381335492
 20
-161.90628087674597
 11
262.77084446131198
 21
-161.90628087674597
  0
LINE
  5
119
100
AcDbEntity
  8
0
  6
CONTINUOUS
 62
             4
100
AcDbLine
 10
226.37986687885862
 20
-94.44495782331862
 11
229.88789540553998
 21
-94.44495782331862
  0
LINE
  5
11A
100
AcDbEntity
  8
0
  6
CONTINUOUS
 62
             4
100
AcDbLine
 10
248.37232357193895
 20
-94.44495782331862
 11
262.77084446131198
 21
-94.44495782331862
  0
SOLID
  5
11B
100
AcDbEntity
  8
0
 62
             4
100
AcDbTrace
 10
259.84927697820024
 20
-154.90628087674597
 11
261.69241194442372
 21
-154.90628087674597
 12
260.77084446131198
 22
-161.90628087674597
 13
260.77084446131198
 23
-161.90628087674597
  0
SOLID
  5
11C
100
AcDbEntity
  8
0
 62
             4
100
AcDbTrace
 10
261.69241194442372
 20
-101.44495782331862
 11
259.84927697820024
 21
-101.44495782331862
 12
260.77084446131198
 22
-94.44495782331862
 13
260.77084446131198
 23
-94.44495782331862
  0
MTEXT
  5
11D
100
AcDbEntity
  8
0
 62
             1
100
AcDbMText
 10
258.77084446131198
 20
-132.21295391525001
 30
0.0
 40
7.0
 41
0.0
 71
             7
 72
             1
  1
68
  7
CONVERTER_1
 11
0.0
 21
1.0
 31
0.0
  0
ENDBLK
  5
11E
100
AcDbEntity
  8
0
100
AcDbBlockEnd
  0
BLOCK
  5
122
100
AcDbEntity
  8
0
100
AcDbBlockBegin
  2
*D10
 70
             1
 10
0.0
 20
0.0
 30
0.0
  3
*D10
  1

  0
LINE
  5
123
100
AcDbEntity
  8
0
  6
CONTINUOUS
 62
             4
100
AcDbLine
 10
121.24082381335489
 20
-178.21927191874599
 11
-19.25917618664499
 21
-178.21927191874599
  0
LINE
  5
124
100
AcDbEntity
  8
0
  6
CONTINUOUS
 62
             4
100
AcDbLine
 10
121.24082381335489
 20
-156.90628087674597
 11
121.24082381335489
 21
-180.21927191874599
  0
LINE
  5
125
100
AcDbEntity
  8
0
  6
CONTINUOUS
 62
             4
100
AcDbLine
 10
-19.25917618664499
 20
-152.90628087674597
 11
-19.25917618664499
 21
-180.21927191874599
  0
SOLID
  5
126
100
AcDbEntity
  8
0
 62
             4
100
AcDbTrace
 10
114.24082381335489
 20
-179.14083940185776
 11
114.24082381335489
 21
-177.29770443563422
 12
121.24082381335489
 22
-178.21927191874599
 13
121.24082381335489
 23
-178.21927191874599
  0
SOLID
  5
127
100
AcDbEntity
  8
0
 62
             4
100
AcDbTrace
 10
-12.25917618664499
 20
-177.29770443563422
 11
-12.25917618664499
 21
-179.14083940185776
 12
-19.25917618664499
 22
-178.21927191874599
 13
-19.25917618664499
 23
-178.21927191874599
  0
MTEXT
  5
128
100
AcDbEntity
  8
0
 62
             1
100
AcDbMText
 10
39.09657894666281
 20
-176.21927191874599
 30
0.0
 40
7.0
 41
0.0
 71
             7
 72
             1
  1
140
  7
CONVERTER_1
 11
0.99999999999706
 21
0.00000242406841
 31
0.0
  0
ENDBLK
  5
129
100
AcDbEntity
  8
0
100
AcDbBlockEnd
  0
BLOCK
  5
12D
100
AcDbEntity
  8
0
100
AcDbBlockBegin
  2
*D11
 70
             1
 10
0.0
 20
0.0
 30
0.0
  3
*D11
  1

  0
LINE
  5
12E
100
AcDbEntity
  8
0
  6
CONTINUOUS
 62
             4
100
AcDbLine
 10
-86.7167698507325
 20
-161.906280876746
 11
-86.7167698507325
 21
-119.906280876746
  0
LINE
  5
12F
100
AcDbEntity
  8
0
  6
CONTINUOUS
 62
             4
100
AcDbLine
 10
-10.25917618664499
 20
-161.906280876746
 11
-88.7167698507325
 21
-161.906280876746
  0
LINE
  5
130
100
AcDbEntity
  8
0
  6
CONTINUOUS
 62
             4
100
AcDbLine
 10
-31.76151595233844
 20
-119.906280876746
 11
-88.7167698507325
 21
-119.906280876746
  0
SOLID
  5
131
100
AcDbEntity
  8
0
 62
             4
100
AcDbTrace
 10
-87.63833733384428
 20
-154.906280876746
 11
-85.79520236762073
 21
-154.906280876746
 12
-86.7167698507325
 22
-161.906280876746
 13
-86.7167698507325
 23
-161.906280876746
  0
SOLID
  5
132
100
AcDbEntity
  8
0
 62
             4
100
AcDbTrace
 10
-85.79520236762073
 20
-126.906280876746
 11
-87.63833733384428
 21
-126.906280876746
 12
-86.7167698507325
 22
-119.906280876746
 13
-86.7167698507325
 23
-119.906280876746
  0
MTEXT
  5
133
100
AcDbEntity
  8
0
 62
             1
100
AcDbMText
 10
-88.7167698507325
 20
-145.46476672368499
 30
0.0
 40
7.0
 41
0.0
 71
             7
 72
             1
  1
42
  7
CONVERTER_1
 11
0.0
 21
1.0
 31
0.0
  0
ENDBLK
  5
134
100
AcDbEntity
  8
0
100
AcDbBlockEnd
  0
BLOCK
  5
138
100
AcDbEntity
  8
0
100
AcDbBlockBegin
  2
*D12
 70
             1
 10
0.0
 20
0.0
 30
0.0
  3
*D12
  1

  0
LINE
  5
139
100
AcDbEntity
  8
0
  6
CONTINUOUS
 62
             4
100
AcDbLine
 10
24.74082381335501
 20
-98.20628087674601
 11
-23.25917618664499
 21
-98.20628087674601
  0
LINE
  5
13A
100
AcDbEntity
  8
0
  6
CONTINUOUS
 62
             4
100
AcDbLine
 10
24.74082381335501
 20
-109.20628087674601
 11
24.74082381335501
 21
-96.20628087674601
  0
LINE
  5
13B
100
AcDbEntity
  8
0
  6
CONTINUOUS
 62
             4
100
AcDbLine
 10
-23.25917618664499
 20
-108.20628087674601
 11
-23.25917618664499
 21
-96.20628087674601
  0
SOLID
  5
13C
100
AcDbEntity
  8
0
 62
             4
100
AcDbTrace
 10
17.74082381335501
 20
-99.12784835985778
 11
17.74082381335501
 21
-97.28471339363424
 12
24.74082381335501
 22
-98.20628087674601
 13
24.74082381335501
 23
-98.20628087674601
  0
SOLID
  5
13D
100
AcDbEntity
  8
0
 62
             4
100
AcDbTrace
 10
-16.25917618664499
 20
-97.28471339363424
 11
-16.25917618664499
 21
-99.12784835985778
 12
-23.25917618664499
 22
-98.20628087674601
 13
-23.25917618664499
 23
-98.20628087674601
  0
MTEXT
  5
13E
100
AcDbEntity
  8
0
 62
             1
100
AcDbMText
 10
-9.29520593283919
 20
-96.20628087674601
 30
0.0
 40
7.0
 41
0.0
 71
             7
 72
             1
  1
6/4"
  7
CONVERTER_1
 11
0.99999999999706
 21
0.00000242406841
 31
0.0
  0
ENDBLK
  5
13F
100
AcDbEntity
  8
0
100
AcDbBlockEnd
  0
BLOCK
  5
143
100
AcDbEntity
  8
0
100
AcDbBlockBegin
  2
*D13
 70
             1
 10
0.0
 20
0.0
 30
0.0
  3
*D13
  1

  0
LINE
  5
144
100
AcDbEntity
  8
0
  6
CONTINUOUS
 62
             4
100
AcDbLine
 10
-72.0223121385082
 20
-175.906280876746
 11
-72.0223121385082
 21
-161.906280876746
  0
LINE
  5
145
100
AcDbEntity
  8
0
  6
CONTINUOUS
 62
             4
100
AcDbLine
 10
-72.0223121385082
 20
-161.906280876746
 11
-72.0223121385082
 21
-142.90628087674429
  0
LINE
  5
146
100
AcDbEntity
  8
0
  6
CONTINUOUS
 62
             4
100
AcDbLine
 10
-72.0223121385082
 20
-142.90628087674429
 11
-72.0223121385082
 21
-128.90628087674429
  0
LINE
  5
147
100
AcDbEntity
  8
0
  6
CONTINUOUS
 62
             4
100
AcDbLine
 10
-10.25917618664499
 20
-161.906280876746
 11
-74.0223121385082
 21
-161.906280876746
  0
LINE
  5
148
100
AcDbEntity
  8
0
  6
CONTINUOUS
 62
             4
100
AcDbLine
 10
-48.72065385166928
 20
-142.90628087674429
 11
-74.0223121385082
 21
-142.90628087674429
  0
SOLID
  5
149
100
AcDbEntity
  8
0
 62
             4
100
AcDbTrace
 10
-71.10074465539643
 20
-168.906280876746
 11
-72.94387962161997
 21
-168.906280876746
 12
-72.0223121385082
 22
-161.906280876746
 13
-72.0223121385082
 23
-161.906280876746
  0
SOLID
  5
14A
100
AcDbEntity
  8
0
 62
             4
100
AcDbTrace
 10
-72.94387962161997
 20
-135.90628087674429
 11
-71.10074465539643
 21
-135.90628087674429
 12
-72.0223121385082
 22
-142.90628087674429
 13
-72.0223121385082
 23
-142.90628087674429
  0
MTEXT
  5
14B
100
AcDbEntity
  8
0
 62
             1
100
AcDbMText
 10
-74.0223121385082
 20
-156.57145676326599
 30
0.0
 40
7.0
 41
0.0
 71
             7
 72
             1
  1
19
  7
CONVERTER_1
 11
0.0
 21
1.0
 31
0.0
  0
ENDBLK
  5
14C
100
AcDbEntity
  8
0
100
AcDbBlockEnd
  0
BLOCK
  5
150
100
AcDbEntity
  8
0
100
AcDbBlockBegin
  2
*D14
 70
             1
 10
0.0
 20
0.0
 30
0.0
  3
*D14
  1

  0
LINE
  5
151
100
AcDbEntity
  8
0
  6
CONTINUOUS
 62
             4
100
AcDbLine
 10
-57.0
 20
-85.80590155556101
 11
-57.0
 21
-138.40628087674236
  0
LINE
  5
152
100
AcDbEntity
  8
0
  6
CONTINUOUS
 62
             4
100
AcDbLine
 10
-57.0
 20
-138.40628087674236
 11
-57.0
 21
-147.406280876746
  0
LINE
  5
153
100
AcDbEntity
  8
0
  6
CONTINUOUS
 62
             4
100
AcDbLine
 10
-57.0
 20
-147.406280876746
 11
-57.0
 21
-161.406280876746
  0
LINE
  5
154
100
AcDbEntity
  8
0
  6
CONTINUOUS
 62
             4
100
AcDbLine
 10
-47.0
 20
-138.40628087674236
 11
-59.0
 21
-138.40628087674236
  0
LINE
  5
155
100
AcDbEntity
  8
0
  6
CONTINUOUS
 62
             4
100
AcDbLine
 10
-47.0
 20
-147.406280876746
 11
-59.0
 21
-147.406280876746
  0
SOLID
  5
156
100
AcDbEntity
  8
0
 62
             4
100
AcDbTrace
 10
-57.92156748311177
 20
-131.40628087674236
 11
-56.07843251688823
 21
-131.40628087674236
 12
-57.0
 22
-138.40628087674236
 13
-57.0
 23
-138.40628087674236
  0
SOLID
  5
157
100
AcDbEntity
  8
0
 62
             4
100
AcDbTrace
 10
-56.07843251688824
 20
-154.406280876746
 11
-57.92156748311177
 21
-154.406280876746
 12
-57.0
 22
-147.406280876746
 13
-57.0
 23
-147.406280876746
  0
MTEXT
  5
158
100
AcDbEntity
  8
0
 62
             1
100
AcDbMText
 10
-59.0
 20
-113.24590155556101
 30
0.0
 40
7.0
 41
0.0
 71
             7
 72
             1
  1
\C1;Ø\C1;8\C1;-13
  7
CONVERTER_1
 11
0.0
 21
1.0
 31
0.0
  0
ENDBLK
  5
159
100
AcDbEntity
  8
0
100
AcDbBlockEnd
  0
BLOCK
  5
15D
100
AcDbEntity
  8
0
100
AcDbBlockBegin
  2
*D15
 70
             1
 10
0.0
 20
0.0
 30
0.0
  3
*D15
  1

  0
LINE
  5
15E
100
AcDbEntity
  8
0
  6
CONTINUOUS
 62
             4
100
AcDbLine
 10
-19.25917618664499
 20
-178.21927191874599
 11
-47.0
 21
-178.21927191874599
  0
LINE
  5
15F
100
AcDbEntity
  8
0
  6
CONTINUOUS
 62
             4
100
AcDbLine
 10
-19.25917618664499
 20
-152.90628087674597
 11
-19.25917618664499
 21
-180.21927191874599
  0
LINE
  5
160
100
AcDbEntity
  8
0
  6
CONTINUOUS
 62
             4
100
AcDbLine
 10
-47.0
 20
-147.40628087674597
 11
-47.0
 21
-180.21927191874599
  0
SOLID
  5
161
100
AcDbEntity
  8
0
 62
             4
100
AcDbTrace
 10
-26.25917618664499
 20
-179.14083940185776
 11
-26.25917618664499
 21
-177.29770443563422
 12
-19.25917618664499
 22
-178.21927191874599
 13
-19.25917618664499
 23
-178.21927191874599
  0
SOLID
  5
162
100
AcDbEntity
  8
0
 62
             4
100
AcDbTrace
 10
-40.0
 20
-177.29770443563422
 11
-40.0
 21
-179.14083940185776
 12
-47.0
 22
-178.21927191874599
 13
-47.0
 23
-178.21927191874599
  0
MTEXT
  5
163
100
AcDbEntity
  8
0
 62
             1
100
AcDbMText
 10
-35.9399892224125
 20
-176.21927191874599
 30
0.0
 40
7.0
 41
0.0
 71
             7
 72
             1
  1
27
  7
CONVERTER_1
 11
0.99999999999706
 21
0.00000242406841
 31
0.0
  0
ENDBLK
  5
164
100
AcDbEntity
  8
0
100
AcDbBlockEnd
  0
ENDSEC
  0
SECTION
  2
ENTITIES
  0
DIMENSION
  5
166
100
AcDbEntity
  8
1
100
AcDbDimension
  2
*D15
 10
-19.25917618664499
 20
-178.21927191874599
 11
-30.6899892224125
 21
-172.71927191874599
 31
0.0
 53
180.0
  1
27
  3
ME10_DIM_11
100
AcDbAlignedDimension
 13
-47.0
 23
-147.406280876746
 14
-19.25917618664499
 24
-152.906280876746
 50
180.0
100
AcDbRotatedDimension
  0
DIMENSION
  5
15B
100
AcDbEntity
  8
1
100
AcDbDimension
  2
*D14
 10
-57.0
 20
-138.40628087674236
 11
-62.5
 21
-100.855901555561
 31
0.0
 53
90.0
  1
Ø8
  3
ME10_DIM_10
100
AcDbAlignedDimension
 13
-47.0
 23
-147.406280876746
 14
-47.0
 24
-138.40628087674239
 50
90.0
100
AcDbRotatedDimension
  0
DIMENSION
  5
14E
100
AcDbEntity
  8
1
100
AcDbDimension
  2
*D13
 10
-72.0223121385082
 20
-161.906280876746
 11
-77.5223121385082
 21
-152.371456763266
 31
0.0
 53
90.0
  1
<>
  3
ME10_DIM_9
100
AcDbAlignedDimension
 13
-48.72065385166928
 23
-142.90628087674429
 14
-10.25917618664499
 24
-161.906280876746
 50
90.0
100
AcDbRotatedDimension
  0
DIMENSION
  5
141
100
AcDbEntity
  8
1
100
AcDbDimension
  2
*D12
 10
24.74082381335501
 20
-98.20628087674601
 11
0.15479406716081
 21
-92.70628087674601
 31
0.0
 53
180.0
  1
6/4"
  3
ME10_DIM_8
100
AcDbAlignedDimension
 13
-23.25917618664499
 23
-108.20628087674601
 14
24.74082381335501
 24
-109.20628087674601
 50
180.0
100
AcDbRotatedDimension
  0
DIMENSION
  5
136
100
AcDbEntity
  8
1
100
AcDbDimension
  2
*D11
 10
-86.7167698507325
 20
-161.906280876746
 11
-92.2167698507325
 21
-140.21476672368499
 31
0.0
 53
90.0
  1
<>
  3
ME10_DIM_7
100
AcDbAlignedDimension
 13
-31.76151595233844
 23
-119.906280876746
 14
-10.25917618664499
 24
-161.906280876746
 50
90.0
100
AcDbRotatedDimension
  0
DIMENSION
  5
12B
100
AcDbEntity
  8
1
100
AcDbDimension
  2
*D10
 10
121.24082381335489
 20
-178.21927191874599
 11
46.44657894666281
 21
-172.71927191874599
 31
0.0
 53
180.0
  1
140
  3
ME10_DIM_6
100
AcDbAlignedDimension
 13
-19.25917618664499
 23
-152.906280876746
 14
121.24082381335489
 24
-156.906280876746
 50
180.0
100
AcDbRotatedDimension
  0
DIMENSION
  5
120
100
AcDbEntity
  8
1
100
AcDbDimension
  2
*D9
 10
260.77084446131198
 20
-161.90628087674597
 11
255.27084446131201
 21
-126.96295391525
 31
0.0
 53
90.0
  1
68
  3
ME10_DIM_5
100
AcDbAlignedDimension
 13
226.37986687885859
 23
-94.44495782331865
 14
116.24082381335489
 24
-161.906280876746
 50
90.0
100
AcDbRotatedDimension
  0
DIMENSION
  5
114
100
AcDbEntity
  8
1
100
AcDbDimension
  2
*D8
 10
242.535207629881
 20
-119.44495782331853
 11
237.035207629881
 21
-94.73467361986803
 31
0.0
 53
90.0
  1
<>
  3
ME10_DIM_4
100
AcDbAlignedDimension
 13
218.6248748013187
 23
-69.44495782331853
 14
218.6248748013187
 24
-119.4449578233185
 50
90.0
100
AcDbRotatedDimension
  0
DIMENSION
  5
109
100
AcDbEntity
  8
1
100
AcDbDimension
  2
*D7
 10
222.12487480131867
 20
-135.85572865251899
 11
193.29052508569399
 21
-130.35572865251899
 31
0.0
 53
0.00013888888889
  1
<>
  3
ME10_DIM_3
100
AcDbAlignedDimension
 13
168.1248748013185
 23
-119.4449578233185
 14
222.1248748013187
 24
-118.5071356498097
100
AcDbRotatedDimension
  0
DIMENSION
  5
FE
100
AcDbEntity
  8
1
100
AcDbDimension
  2
*D6
 10
146.649565149653
 20
-109.44495782331865
 11
141.149565149653
 21
-128.889731366435
 31
0.0
 53
90.0
  1
<>
  3
ME10_DIM_2
100
AcDbAlignedDimension
 13
168.12487480131881
 23
-69.44495782331853
 14
158.1248748013185
 24
-109.4449578233187
 50
90.0
100
AcDbRotatedDimension
  0
DIMENSION
  5
F2
100
AcDbEntity
  8
1
100
AcDbDimension
  2
*D5
 10
80.74082381335501
 20
-53.46425033401204
 11
140.58120514243299
 21
-47.96425033401204
 31
0.0
 53
180.0
  1
142
  3
ME10_DIM_1
100
AcDbAlignedDimension
 13
222.12487480131881
 23
-70.38277999682754
 14
80.74082381335501
 24
-114.606280876746
 50
180.0
100
AcDbRotatedDimension
  0
DIMENSION
  5
E7
100
AcDbEntity
  8
1
100
AcDbDimension
  2
*D4
 10
0.740823813355
 20
-53.68261034123202
 11
37.1396838284394
 21
-48.18261034123202
 31
0.0
 53
180.0
  1
<>
  3
ME10_DIM_0
100
AcDbAlignedDimension
 13
80.74082381335501
 23
-114.606280876746
 14
0.74082381335501
 24
-124.672519566958
 50
180.0
100
AcDbRotatedDimension
  0
INSERT
  5
2F
100
AcDbEntity
  8
1
100
AcDbBlockReference
  2
HL_500_ABGANGSSTUTZEN
 10
80.74082381335501
 20
-108.606280876746
  0
INSERT
  5
30
100
AcDbEntity
  8
1
100
AcDbBlockReference
  2
HL_500_K_RPER
 10
80.74082381335501
 20
-97.906280876746
  0
INSERT
  5
31
100
AcDbEntity
  8
0
100
AcDbBlockReference
  2
HOLL_NDERMUTTER_6_4
 10
-153.94733128012629
 20
-79.13375681179792
  0
INSERT
  5
32
100
AcDbEntity
  8
1
100
AcDbBlockReference
  2
HL_500_BODEN
 10
80.74082381335501
 20
-165.906280876746
  0
ENDSEC
  0
SECTION
  2
OBJECTS
  0
DICTIONARY
  5
19
100
AcDbDictionary
  3
ACAD_GROUP
350
1A
  3
ACAD_MLINESTYLE
350
1B
  0
DICTIONARY
  5
1A
102
{ACAD_REACTORS
330
19
102
}
100
AcDbDictionary
  0
DICTIONARY
  5
1B
102
{ACAD_REACTORS
330
19
102
}
100
AcDbDictionary
  3
STANDARD
350
1C
  0
MLINESTYLE
  5
1C
102
{ACAD_REACTORS
330
1B
102
}
100
AcDbMlineStyle
  2
STANDARD
 70
             0
  3

 62
             0
 51
90.0
 52
90.0
 71
             2
 49
0.5
 62
           256
  6
BYLAYER
 49
-0.5
 62
           256
  6
BYLAYER
  0
ENDSEC
  0
EOF
