  0
SECTION
  2
HEADER
  9
$ACADVER
  1
AC1015
  9
$ACADMAINTVER
 70
     6
  9
$DWGCODEPAGE
  3
ANSI_1252
  9
$INSBASE
 10
0.0
 20
0.0
 30
0.0
  9
$EXTMIN
 10
-140.758279751656
 20
-210.6148478400113
 30
0.0
  9
$EXTMAX
 10
222.5469982226514
 20
47.9768121397382
 30
0.0
  9
$LIMMIN
 10
0.0
 20
0.0
  9
$LIMMAX
 10
12.0
 20
9.0
  9
$ORTHOMODE
 70
     0
  9
$REGENMODE
 70
     1
  9
$FILLMODE
 70
     1
  9
$QTEXTMODE
 70
     0
  9
$MIRRTEXT
 70
     1
  9
$LTSCALE
 40
1.0
  9
$ATTMODE
 70
     1
  9
$TEXTSIZE
 40
0.2
  9
$TRACEWID
 40
0.05
  9
$TEXTSTYLE
  7
Standard
  9
$CLAYER
  8
0
  9
$CELTYPE
  6
ByLayer
  9
$CECOLOR
 62
   256
  9
$CELTSCALE
 40
1.0
  9
$DISPSILH
 70
     0
  9
$DIMSCALE
 40
1.0
  9
$DIMASZ
 40
0.18
  9
$DIMEXO
 40
0.0625
  9
$DIMDLI
 40
0.38
  9
$DIMRND
 40
0.0
  9
$DIMDLE
 40
0.0
  9
$DIMEXE
 40
0.18
  9
$DIMTP
 40
0.0
  9
$DIMTM
 40
0.0
  9
$DIMTXT
 40
0.18
  9
$DIMCEN
 40
0.09
  9
$DIMTSZ
 40
0.0
  9
$DIMTOL
 70
     0
  9
$DIMLIM
 70
     0
  9
$DIMTIH
 70
     1
  9
$DIMTOH
 70
     1
  9
$DIMSE1
 70
     0
  9
$DIMSE2
 70
     0
  9
$DIMTAD
 70
     0
  9
$DIMZIN
 70
     0
  9
$DIMBLK
  1

  9
$DIMASO
 70
     1
  9
$DIMSHO
 70
     1
  9
$DIMPOST
  1

  9
$DIMAPOST
  1

  9
$DIMALT
 70
     0
  9
$DIMALTD
 70
     2
  9
$DIMALTF
 40
25.4
  9
$DIMLFAC
 40
1.0
  9
$DIMTOFL
 70
     0
  9
$DIMTVP
 40
0.0
  9
$DIMTIX
 70
     0
  9
$DIMSOXD
 70
     0
  9
$DIMSAH
 70
     0
  9
$DIMBLK1
  1

  9
$DIMBLK2
  1

  9
$DIMSTYLE
  2
Standard
  9
$DIMCLRD
 70
     0
  9
$DIMCLRE
 70
     0
  9
$DIMCLRT
 70
     0
  9
$DIMTFAC
 40
1.0
  9
$DIMGAP
 40
0.09
  9
$DIMJUST
 70
     0
  9
$DIMSD1
 70
     0
  9
$DIMSD2
 70
     0
  9
$DIMTOLJ
 70
     1
  9
$DIMTZIN
 70
     0
  9
$DIMALTZ
 70
     0
  9
$DIMALTTZ
 70
     0
  9
$DIMUPT
 70
     0
  9
$DIMDEC
 70
     4
  9
$DIMTDEC
 70
     4
  9
$DIMALTU
 70
     2
  9
$DIMALTTD
 70
     2
  9
$DIMTXSTY
  7
Standard
  9
$DIMAUNIT
 70
     0
  9
$DIMADEC
 70
     0
  9
$DIMALTRND
 40
0.0
  9
$DIMAZIN
 70
     0
  9
$DIMDSEP
 70
    46
  9
$DIMATFIT
 70
     3
  9
$DIMFRAC
 70
     0
  9
$DIMLDRBLK
  1

  9
$DIMLUNIT
 70
     2
  9
$DIMLWD
 70
    -2
  9
$DIMLWE
 70
    -2
  9
$DIMTMOVE
 70
     0
  9
$LUNITS
 70
     2
  9
$LUPREC
 70
     4
  9
$SKETCHINC
 40
0.1
  9
$FILLETRAD
 40
0.5
  9
$AUNITS
 70
     0
  9
$AUPREC
 70
     0
  9
$MENU
  1
.
  9
$ELEVATION
 40
0.0
  9
$PELEVATION
 40
0.0
  9
$THICKNESS
 40
0.0
  9
$LIMCHECK
 70
     0
  9
$CHAMFERA
 40
0.5
  9
$CHAMFERB
 40
0.5
  9
$CHAMFERC
 40
1.0
  9
$CHAMFERD
 40
0.0
  9
$SKPOLY
 70
     0
  9
$TDCREATE
 40
2455644.496037743
  9
$TDUCREATE
 40
2455644.454371077
  9
$TDUPDATE
 40
2455644.496037755
  9
$TDUUPDATE
 40
2455644.454371088
  9
$TDINDWG
 40
0.0000000116
  9
$TDUSRTIMER
 40
0.0000000116
  9
$USRTIMER
 70
     1
  9
$ANGBASE
 50
0.0
  9
$ANGDIR
 70
     0
  9
$PDMODE
 70
     0
  9
$PDSIZE
 40
0.0
  9
$PLINEWID
 40
0.0
  9
$SPLFRAME
 70
     0
  9
$SPLINETYPE
 70
     6
  9
$SPLINESEGS
 70
     8
  9
$HANDSEED
  5
32E
  9
$SURFTAB1
 70
     6
  9
$SURFTAB2
 70
     6
  9
$SURFTYPE
 70
     6
  9
$SURFU
 70
     6
  9
$SURFV
 70
     6
  9
$UCSBASE
  2

  9
$UCSNAME
  2

  9
$UCSORG
 10
0.0
 20
0.0
 30
0.0
  9
$UCSXDIR
 10
1.0
 20
0.0
 30
0.0
  9
$UCSYDIR
 10
0.0
 20
1.0
 30
0.0
  9
$UCSORTHOREF
  2

  9
$UCSORTHOVIEW
 70
     0
  9
$UCSORGTOP
 10
0.0
 20
0.0
 30
0.0
  9
$UCSORGBOTTOM
 10
0.0
 20
0.0
 30
0.0
  9
$UCSORGLEFT
 10
0.0
 20
0.0
 30
0.0
  9
$UCSORGRIGHT
 10
0.0
 20
0.0
 30
0.0
  9
$UCSORGFRONT
 10
0.0
 20
0.0
 30
0.0
  9
$UCSORGBACK
 10
0.0
 20
0.0
 30
0.0
  9
$PUCSBASE
  2

  9
$PUCSNAME
  2

  9
$PUCSORG
 10
0.0
 20
0.0
 30
0.0
  9
$PUCSXDIR
 10
1.0
 20
0.0
 30
0.0
  9
$PUCSYDIR
 10
0.0
 20
1.0
 30
0.0
  9
$PUCSORTHOREF
  2

  9
$PUCSORTHOVIEW
 70
     0
  9
$PUCSORGTOP
 10
0.0
 20
0.0
 30
0.0
  9
$PUCSORGBOTTOM
 10
0.0
 20
0.0
 30
0.0
  9
$PUCSORGLEFT
 10
0.0
 20
0.0
 30
0.0
  9
$PUCSORGRIGHT
 10
0.0
 20
0.0
 30
0.0
  9
$PUCSORGFRONT
 10
0.0
 20
0.0
 30
0.0
  9
$PUCSORGBACK
 10
0.0
 20
0.0
 30
0.0
  9
$USERI1
 70
     0
  9
$USERI2
 70
     0
  9
$USERI3
 70
     0
  9
$USERI4
 70
     0
  9
$USERI5
 70
     0
  9
$USERR1
 40
16.5
  9
$USERR2
 40
0.0
  9
$USERR3
 40
0.0
  9
$USERR4
 40
0.0
  9
$USERR5
 40
0.0
  9
$WORLDVIEW
 70
     1
  9
$SHADEDGE
 70
     3
  9
$SHADEDIF
 70
    70
  9
$TILEMODE
 70
     1
  9
$MAXACTVP
 70
    64
  9
$PINSBASE
 10
0.0
 20
0.0
 30
0.0
  9
$PLIMCHECK
 70
     0
  9
$PEXTMIN
 10
1.00000000000000E+20
 20
1.00000000000000E+20
 30
1.00000000000000E+20
  9
$PEXTMAX
 10
-1.00000000000000E+20
 20
-1.00000000000000E+20
 30
-1.00000000000000E+20
  9
$PLIMMIN
 10
0.0
 20
0.0
  9
$PLIMMAX
 10
12.0
 20
9.0
  9
$UNITMODE
 70
     0
  9
$VISRETAIN
 70
     1
  9
$PLINEGEN
 70
     0
  9
$PSLTSCALE
 70
     1
  9
$TREEDEPTH
 70
  3020
  9
$CMLSTYLE
  2
Standard
  9
$CMLJUST
 70
     0
  9
$CMLSCALE
 40
1.0
  9
$PROXYGRAPHICS
 70
     1
  9
$MEASUREMENT
 70
     1
  9
$CELWEIGHT
370
    -1
  9
$ENDCAPS
280
     0
  9
$JOINSTYLE
280
     0
  9
$LWDISPLAY
290
     0
  9
$INSUNITS
 70
     1
  9
$HYPERLINKBASE
  1

  9
$STYLESHEET
  1

  9
$XEDIT
290
     1
  9
$CEPSNTYPE
380
     0
  9
$PSTYLEMODE
290
     1
  9
$FINGERPRINTGUID
  2
{02C13ABE-28E0-47A8-AE19-B488DBDB45C6}
  9
$VERSIONGUID
  2
{FAEB1C32-E019-11D5-929B-00C0DF256EC4}
  9
$EXTNAMES
290
     1
  9
$PSVPSCALE
 40
0.0
  9
$OLESTARTUP
290
     0
  0
ENDSEC
  0
SECTION
  2
CLASSES
  0
CLASS
  1
ACDBDICTIONARYWDFLT
  2
AcDbDictionaryWithDefault
  3
ObjectDBX Classes
 90
        0
280
     0
281
     0
  0
CLASS
  1
VISUALSTYLE
  2
AcDbVisualStyle
  3
ObjectDBX Classes
 90
     4095
280
     0
281
     0
  0
CLASS
  1
SCALE
  2
AcDbScale
  3
ObjectDBX Classes
 90
     1153
280
     0
281
     0
  0
CLASS
  1

  2
exOdDbSpline
  3

 90
        0
280
     0
281
     1
  0
CLASS
  1
DICTIONARYVAR
  2
AcDbDictionaryVar
  3
ObjectDBX Classes
 90
        0
280
     0
281
     0
  0
CLASS
  1
ACDBPLACEHOLDER
  2
AcDbPlaceHolder
  3
ObjectDBX Classes
 90
        0
280
     0
281
     0
  0
CLASS
  1
LAYOUT
  2
AcDbLayout
  3
ObjectDBX Classes
 90
        0
280
     0
281
     0
  0
ENDSEC
  0
SECTION
  2
TABLES
  0
TABLE
  2
VPORT
  5
8
330
0
100
AcDbSymbolTable
 70
     1
  0
VPORT
  5
29
330
8
100
AcDbSymbolTableRecord
100
AcDbViewportTableRecord
  2
*Active
 70
     0
 10
0.0
 20
0.0
 11
1.0
 21
1.0
 12
40.8943592354977
 22
-81.31901785013655
 13
0.0
 23
0.0
 14
0.5
 24
0.5
 15
0.5
 25
0.5
 16
0.0
 26
0.0
 36
1.0
 17
0.0
 27
0.0
 37
0.0
 40
284.4508259777244
 41
1.60267857142857
 42
50.0
 43
0.0
 44
0.0
 50
0.0
 51
0.0
 71
     0
 72
   100
 73
     1
 74
     3
 75
     0
 76
     0
 77
     0
 78
     0
281
     0
 65
     1
110
0.0
120
0.0
130
0.0
111
1.0
121
0.0
131
0.0
112
0.0
122
1.0
132
0.0
 79
     0
146
0.0
  0
ENDTAB
  0
TABLE
  2
LTYPE
  5
5
330
0
100
AcDbSymbolTable
 70
     8
  0
LTYPE
  5
14
330
5
100
AcDbSymbolTableRecord
100
AcDbLinetypeTableRecord
  2
ByBlock
 70
     0
  3

 72
    65
 73
     0
 40
0.0
  0
LTYPE
  5
15
330
5
100
AcDbSymbolTableRecord
100
AcDbLinetypeTableRecord
  2
ByLayer
 70
     0
  3

 72
    65
 73
     0
 40
0.0
  0
LTYPE
  5
16
330
5
100
AcDbSymbolTableRecord
100
AcDbLinetypeTableRecord
  2
Continuous
 70
     0
  3
Solid line
 72
    65
 73
     0
 40
0.0
  0
LTYPE
  5
3B
330
5
100
AcDbSymbolTableRecord
100
AcDbLinetypeTableRecord
  2
DASHED
 70
     0
  3
Dashed
 72
    65
 73
     2
 40
15.0
 49
7.0
 74
     0
 49
-8.0
 74
     0
  0
LTYPE
  5
3C
330
5
100
AcDbSymbolTableRecord
100
AcDbLinetypeTableRecord
  2
DOTTED
 70
     0
  3
Dotted
 72
    65
 73
     2
 40
1.0
 49
0.0
 74
     0
 49
-1.0
 74
     0
  0
LTYPE
  5
3D
330
5
100
AcDbSymbolTableRecord
100
AcDbLinetypeTableRecord
  2
DOT_CENTER
 70
     0
  3
Dot_Center
 72
    65
 73
     4
 40
14.0
 49
12.0
 74
     0
 49
-1.0
 74
     0
 49
0.0
 74
     0
 49
-1.0
 74
     0
  0
LTYPE
  5
3E
330
5
100
AcDbSymbolTableRecord
100
AcDbLinetypeTableRecord
  2
LONG_DASHED
 70
     0
  3
Long_Dashed
 72
    65
 73
     2
 40
15.0
 49
10.0
 74
     0
 49
-5.0
 74
     0
  0
LTYPE
  5
3F
330
5
100
AcDbSymbolTableRecord
100
AcDbLinetypeTableRecord
  2
DASH_CENTER
 70
     0
  3
Dash_Center
 72
    65
 73
     4
 40
14.0
 49
11.0
 74
     0
 49
-1.0
 74
     0
 49
1.0
 74
     0
 49
-1.0
 74
     0
  0
LTYPE
  5
40
330
5
100
AcDbSymbolTableRecord
100
AcDbLinetypeTableRecord
  2
PHANTOM
 70
     0
  3
Phantom
 72
    65
 73
     6
 40
13.0
 49
10.0
 74
     0
 49
-1.0
 74
     0
 49
0.0
 74
     0
 49
-1.0
 74
     0
 49
0.0
 74
     0
 49
-1.0
 74
     0
  0
LTYPE
  5
41
330
5
100
AcDbSymbolTableRecord
100
AcDbLinetypeTableRecord
  2
CENTER_DASH_DASH
 70
     0
  3
Center_Dash_Dash
 72
    65
 73
     6
 40
14.0
 49
9.0
 74
     0
 49
-1.0
 74
     0
 49
1.0
 74
     0
 49
-1.0
 74
     0
 49
1.0
 74
     0
 49
-1.0
 74
     0
  0
ENDTAB
  0
TABLE
  2
LAYER
  5
2
330
0
100
AcDbSymbolTable
 70
     2
  0
LAYER
  5
10
330
2
100
AcDbSymbolTableRecord
100
AcDbLayerTableRecord
  2
0
 70
     0
 62
     7
  6
Continuous
370
    -3
390
F
  0
LAYER
  5
42
330
2
100
AcDbSymbolTableRecord
100
AcDbLayerTableRecord
  2
1
 70
     0
 62
     7
  6
Continuous
370
    -3
390
F
  0
ENDTAB
  0
TABLE
  2
STYLE
  5
3
330
0
100
AcDbSymbolTable
 70
     2
  0
STYLE
  5
11
330
3
100
AcDbSymbolTableRecord
100
AcDbTextStyleTableRecord
  2
Standard
 70
     0
 40
0.0
 41
1.0
 50
0.0
 71
     0
 42
0.2
  3
txt
  4

  0
STYLE
  5
1EC
330
3
100
AcDbSymbolTableRecord
100
AcDbTextStyleTableRecord
  2
CONVERTER_11
 70
     0
 40
0.0
 41
0.9
 50
0.0
 71
     0
 42
0.2
  3
txt.shx
  4

  0
ENDTAB
  0
TABLE
  2
VIEW
  5
6
330
0
100
AcDbSymbolTable
 70
     0
  0
ENDTAB
  0
TABLE
  2
UCS
  5
7
330
0
100
AcDbSymbolTable
 70
     0
  0
ENDTAB
  0
TABLE
  2
APPID
  5
9
330
0
100
AcDbSymbolTable
 70
     1
  0
APPID
  5
12
330
9
100
AcDbSymbolTableRecord
100
AcDbRegAppTableRecord
  2
ACAD
 70
     0
  0
ENDTAB
  0
TABLE
  2
DIMSTYLE
  5
A
330
0
100
AcDbSymbolTable
 70
    12
100
AcDbDimStyleTable
  0
DIMSTYLE
105
27
330
A
100
AcDbSymbolTableRecord
100
AcDbDimStyleTableRecord
  2
Standard
 70
     0
340
11
  0
DIMSTYLE
105
1F0
102
{ACAD_REACTORS
330
1F1
102
}
330
A
100
AcDbSymbolTableRecord
100
AcDbDimStyleTableRecord
  2
ME10_DIM_10
 70
     0
  3
DN<>
 41
7.0
 42
0.0
 44
2.0
 73
     0
 74
     0
 77
     1
 78
     8
140
7.0
147
2.0
172
     1
173
     1
176
     4
177
     4
178
     1
271
     2
340
1EC
  0
DIMSTYLE
105
1FC
102
{ACAD_REACTORS
330
1FD
102
}
330
A
100
AcDbSymbolTableRecord
100
AcDbDimStyleTableRecord
  2
ME10_DIM_11
 70
     0
  3
DN<>
 41
7.0
 42
0.0
 44
2.0
 73
     0
 74
     0
 77
     1
 78
     8
140
7.0
147
2.0
172
     1
173
     1
176
     4
177
     4
178
     1
271
     2
340
1EC
  0
DIMSTYLE
105
207
102
{ACAD_REACTORS
330
208
102
}
330
A
100
AcDbSymbolTableRecord
100
AcDbDimStyleTableRecord
  2
ME10_DIM_12
 70
     0
 41
7.0
 42
0.0
 44
2.0
 73
     0
 74
     0
 77
     1
 78
     8
140
7.0
147
2.0
172
     1
173
     1
176
     4
177
     4
178
     1
271
     1
340
1EC
  0
DIMSTYLE
105
214
102
{ACAD_REACTORS
330
215
102
}
330
A
100
AcDbSymbolTableRecord
100
AcDbDimStyleTableRecord
  2
ME10_DIM_13
 70
     0
  3
-24
 41
7.0
 42
0.0
 44
2.0
 73
     0
 74
     0
 77
     1
 78
     8
140
7.0
147
2.0
172
     1
173
     1
176
     4
177
     4
178
     1
271
     2
340
1EC
  0
DIMSTYLE
105
21F
102
{ACAD_REACTORS
330
220
102
}
330
A
100
AcDbSymbolTableRecord
100
AcDbDimStyleTableRecord
  2
ME10_DIM_14
 70
     0
  3
{\Fgdt;n}<>
 41
7.0
 42
0.0
 44
2.0
 73
     0
 74
     0
 77
     1
 78
     8
140
7.0
147
2.0
172
     1
173
     1
176
     4
177
     4
178
     1
271
     0
340
1EC
  0
DIMSTYLE
105
22A
102
{ACAD_REACTORS
330
22B
102
}
330
A
100
AcDbSymbolTableRecord
100
AcDbDimStyleTableRecord
  2
ME10_DIM_15
 70
     0
 41
7.0
 42
0.0
 44
2.0
 73
     0
 74
     0
 77
     1
 78
     8
140
7.0
147
2.0
172
     1
173
     1
176
     4
177
     4
178
     1
271
     1
340
1EC
  0
DIMSTYLE
105
235
102
{ACAD_REACTORS
330
236
102
}
330
A
100
AcDbSymbolTableRecord
100
AcDbDimStyleTableRecord
  2
ME10_DIM_16
 70
     0
 41
7.0
 42
0.0
 44
2.0
 73
     0
 74
     0
 77
     1
 78
     8
140
7.0
147
2.0
172
     1
173
     1
176
     4
177
     4
178
     1
271
     2
340
1EC
  0
DIMSTYLE
105
240
102
{ACAD_REACTORS
330
241
102
}
330
A
100
AcDbSymbolTableRecord
100
AcDbDimStyleTableRecord
  2
ME10_DIM_17
 70
     0
 41
7.0
 42
0.0
 44
2.0
 73
     0
 74
     0
 77
     1
 78
     8
140
7.0
147
2.0
172
     1
173
     1
176
     4
177
     4
178
     1
271
     0
340
1EC
  0
DIMSTYLE
105
24B
102
{ACAD_REACTORS
330
24C
102
}
330
A
100
AcDbSymbolTableRecord
100
AcDbDimStyleTableRecord
  2
ME10_DIM_18
 70
     0
 41
7.0
 42
0.0
 44
2.0
 73
     0
 74
     0
 77
     1
 78
     8
140
7.0
147
2.0
172
     1
173
     1
176
     4
177
     4
178
     1
271
     0
340
1EC
  0
DIMSTYLE
105
256
102
{ACAD_REACTORS
330
257
102
}
330
A
100
AcDbSymbolTableRecord
100
AcDbDimStyleTableRecord
  2
ME10_DIM_19
 70
     0
 41
7.0
 42
0.0
 44
2.0
 73
     0
 74
     0
 77
     1
 78
     8
140
7.0
147
2.0
172
     1
173
     1
176
     4
177
     4
178
     1
271
     2
340
1EC
  0
DIMSTYLE
105
261
102
{ACAD_REACTORS
330
262
102
}
330
A
100
AcDbSymbolTableRecord
100
AcDbDimStyleTableRecord
  2
ME10_DIM_20
 70
     0
 41
7.0
 42
0.0
 44
2.0
 73
     0
 74
     0
 77
     1
 78
     8
140
7.0
147
2.0
172
     1
173
     1
176
     4
177
     4
178
     1
271
     2
340
1EC
  0
ENDTAB
  0
TABLE
  2
BLOCK_RECORD
  5
1
330
0
100
AcDbSymbolTable
 70
    24
  0
BLOCK_RECORD
  5
1F
330
1
100
AcDbSymbolTableRecord
100
AcDbBlockTableRecord
  2
*Model_Space
340
22
  0
BLOCK_RECORD
  5
1B
330
1
100
AcDbSymbolTableRecord
100
AcDbBlockTableRecord
  2
*Paper_Space
340
1E
  0
BLOCK_RECORD
  5
23
330
1
100
AcDbSymbolTableRecord
100
AcDbBlockTableRecord
  2
*Paper_Space0
340
26
  0
BLOCK_RECORD
  5
43
330
1
100
AcDbSymbolTableRecord
100
AcDbBlockTableRecord
  2
DA-195555623-Edelstahlkappe-verpresst
340
0
102
{BLKREFS
331
69
102
}
  0
BLOCK_RECORD
  5
46
330
1
100
AcDbSymbolTableRecord
100
AcDbBlockTableRecord
  2
Bg-11092-Abdeckplatte
340
0
102
{BLKREFS
331
7C
102
}
  0
BLOCK_RECORD
  5
6C
330
1
100
AcDbSymbolTableRecord
100
AcDbBlockTableRecord
  2
HL522_Abgangsbogen_DN40_50
340
0
102
{BLKREFS
331
7D
102
}
  0
BLOCK_RECORD
  5
6F
330
1
100
AcDbSymbolTableRecord
100
AcDbBlockTableRecord
  2
0522_1E_Schraubventil_3-23
340
0
102
{BLKREFS
331
7E
102
}
  0
BLOCK_RECORD
  5
72
330
1
100
AcDbSymbolTableRecord
100
AcDbBlockTableRecord
  2
01076D_Ventildichtung
340
0
102
{BLKREFS
331
7F
102
}
  0
BLOCK_RECORD
  5
75
330
1
100
AcDbSymbolTableRecord
100
AcDbBlockTableRecord
  2
HL522V_Körper
340
0
102
{BLKREFS
331
80
102
}
  0
BLOCK_RECORD
  5
78
330
1
100
AcDbSymbolTableRecord
100
AcDbBlockTableRecord
  2
HL522_Abgangsbogen_DN40_50_90Grad
340
0
102
{BLKREFS
331
81
102
}
  0
BLOCK_RECORD
  5
7B
330
1
100
AcDbSymbolTableRecord
100
AcDbBlockTableRecord
  2
HL_522V_Brausetassensifon
340
0
102
{BLKREFS
331
90
102
}
  0
BLOCK_RECORD
  5
84
330
1
100
AcDbSymbolTableRecord
100
AcDbBlockTableRecord
  2
GV_Einsatz-Rohr
340
0
102
{BLKREFS
331
91
102
}
  0
BLOCK_RECORD
  5
87
330
1
100
AcDbSymbolTableRecord
100
AcDbBlockTableRecord
  2
Holländermutter_1_Zoll
340
0
102
{BLKREFS
331
92
102
}
  0
BLOCK_RECORD
  5
8A
330
1
100
AcDbSymbolTableRecord
100
AcDbBlockTableRecord
  2
HL19_2Körper
340
0
102
{BLKREFS
331
93
102
}
  0
BLOCK_RECORD
  5
8D
330
1
100
AcDbSymbolTableRecord
100
AcDbBlockTableRecord
  2
11073-Kappenhalter-520-522-verpresst
340
0
102
{BLKREFS
331
94
102
}
  0
BLOCK_RECORD
  5
1E6
330
1
100
AcDbSymbolTableRecord
100
AcDbBlockTableRecord
  2
*D13
340
0
  0
BLOCK_RECORD
  5
1F2
330
1
100
AcDbSymbolTableRecord
100
AcDbBlockTableRecord
  2
*D14
340
0
  0
BLOCK_RECORD
  5
1FE
330
1
100
AcDbSymbolTableRecord
100
AcDbBlockTableRecord
  2
*D15
340
0
  0
BLOCK_RECORD
  5
209
330
1
100
AcDbSymbolTableRecord
100
AcDbBlockTableRecord
  2
*D16
340
0
  0
BLOCK_RECORD
  5
216
330
1
100
AcDbSymbolTableRecord
100
AcDbBlockTableRecord
  2
*D17
340
0
  0
BLOCK_RECORD
  5
221
330
1
100
AcDbSymbolTableRecord
100
AcDbBlockTableRecord
  2
*D18
340
0
  0
BLOCK_RECORD
  5
22C
330
1
100
AcDbSymbolTableRecord
100
AcDbBlockTableRecord
  2
*D19
340
0
  0
BLOCK_RECORD
  5
237
330
1
100
AcDbSymbolTableRecord
100
AcDbBlockTableRecord
  2
*D20
340
0
  0
BLOCK_RECORD
  5
242
330
1
100
AcDbSymbolTableRecord
100
AcDbBlockTableRecord
  2
*D21
340
0
  0
BLOCK_RECORD
  5
24D
330
1
100
AcDbSymbolTableRecord
100
AcDbBlockTableRecord
  2
*D22
340
0
  0
BLOCK_RECORD
  5
258
330
1
100
AcDbSymbolTableRecord
100
AcDbBlockTableRecord
  2
*D23
340
0
  0
ENDTAB
  0
ENDSEC
  0
SECTION
  2
BLOCKS
  0
BLOCK
  5
20
330
1F
100
AcDbEntity
  8
0
100
AcDbBlockBegin
  2
*Model_Space
 70
     0
 10
0.0
 20
0.0
 30
0.0
  3
*Model_Space
  1

  0
ENDBLK
  5
21
330
1F
100
AcDbEntity
  8
0
100
AcDbBlockEnd
  0
BLOCK
  5
1C
330
1B
100
AcDbEntity
 67
     1
  8
0
100
AcDbBlockBegin
  2
*Paper_Space
 70
     0
 10
0.0
 20
0.0
 30
0.0
  3
*Paper_Space
  1

  0
ENDBLK
  5
1D
330
1B
100
AcDbEntity
 67
     1
  8
0
100
AcDbBlockEnd
  0
BLOCK
  5
24
330
23
100
AcDbEntity
  8
0
100
AcDbBlockBegin
  2
*Paper_Space0
 70
     0
 10
0.0
 20
0.0
 30
0.0
  3
*Paper_Space0
  1

  0
ENDBLK
  5
25
330
23
100
AcDbEntity
  8
0
100
AcDbBlockEnd
  0
BLOCK
  5
44
330
43
100
AcDbEntity
  8
0
100
AcDbBlockBegin
  2
DA-195555623-Edelstahlkappe-verpresst
 70
     0
 10
-0.00000000000027
 20
15.01078214746869
 30
0.0
  3
DA-195555623-Edelstahlkappe-verpresst
  1

  0
LINE
  5
95
330
43
100
AcDbEntity
  8
0
  6
Continuous
 62
     7
100
AcDbLine
 10
-54.4107558467309
 20
12.81273429419929
 30
0.0
 11
-39.22194394726859
 21
12.81273429419929
 31
0.0
  0
LINE
  5
96
330
43
100
AcDbEntity
  8
0
  6
Continuous
 62
     3
100
AcDbLine
 10
-56.65297197665209
 20
14.0620033713775
 30
0.0
 11
56.65297197665169
 21
14.0620033713775
 31
0.0
  0
LINE
  5
97
330
43
100
AcDbEntity
  8
0
  6
Continuous
 62
     7
100
AcDbLine
 10
39.22194394726829
 20
12.81273429419929
 30
0.0
 11
54.4107558467305
 21
12.81273429419929
 31
0.0
  0
LINE
  5
98
330
43
100
AcDbEntity
  8
0
  6
Continuous
 62
     7
100
AcDbLine
 10
22.61050882440531
 20
12.8127342941994
 30
0.0
 11
39.22194394726829
 21
12.81273429419929
 31
0.0
  0
LINE
  5
99
330
43
100
AcDbEntity
  8
0
  6
Continuous
 62
     7
100
AcDbLine
 10
1.23435859126101
 20
12.81273429419929
 30
0.0
 11
1.24999999999979
 21
12.81273429419929
 31
0.0
  0
LINE
  5
9A
330
43
100
AcDbEntity
  8
0
  6
Continuous
 62
     7
100
AcDbLine
 10
-1.23435859126139
 20
12.81273429419929
 30
0.0
 11
1.23435859126101
 21
12.81273429419929
 31
0.0
  0
LINE
  5
9B
330
43
100
AcDbEntity
  8
0
  6
Continuous
 62
     7
100
AcDbLine
 10
-22.61050882440569
 20
12.81273429419929
 30
0.0
 11
-1.25000000000021
 21
12.81273429419929
 31
0.0
  0
LINE
  5
9C
330
43
100
AcDbEntity
  8
0
  6
Continuous
 62
     7
100
AcDbLine
 10
-1.25000000000021
 20
12.81273429419929
 30
0.0
 11
-1.23435859126139
 21
12.81273429419929
 31
0.0
  0
LINE
  5
9D
330
43
100
AcDbEntity
  8
0
  6
Continuous
 62
     7
100
AcDbLine
 10
1.24999999999979
 20
12.81273429419929
 30
0.0
 11
22.61050882440531
 21
12.8127342941994
 31
0.0
  0
LINE
  5
9E
330
43
100
AcDbEntity
  8
0
  6
Continuous
 62
     7
100
AcDbLine
 10
54.4107558467305
 20
12.81273429419929
 30
0.0
 11
56.2691274471163
 21
12.81273429419929
 31
0.0
  0
LINE
  5
9F
330
43
100
AcDbEntity
  8
0
  6
Continuous
 62
     7
100
AcDbLine
 10
-56.2691274471167
 20
12.81273429419929
 30
0.0
 11
-54.4107558467309
 21
12.81273429419929
 31
0.0
  0
LINE
  5
A0
330
43
100
AcDbEntity
  8
0
  6
Continuous
 62
     7
100
AcDbLine
 10
-39.22194394726859
 20
12.81273429419929
 30
0.0
 11
-22.61050882440569
 21
12.81273429419929
 31
0.0
  0
LINE
  5
A1
330
43
100
AcDbEntity
  8
0
  6
Continuous
 62
     7
100
AcDbLine
 10
-56.2691274471167
 20
12.81273429419929
 30
0.0
 11
-56.65297197665209
 21
14.0620033713775
 31
0.0
  0
LINE
  5
A2
330
43
100
AcDbEntity
  8
0
  6
Continuous
 62
     7
100
AcDbLine
 10
56.2691274471163
 20
12.81273429419929
 30
0.0
 11
56.65297197665169
 21
14.0620033713775
 31
0.0
  0
LINE
  5
A3
330
43
100
AcDbEntity
  8
0
  6
Continuous
 62
     3
100
AcDbLine
 10
-54.57402859362151
 20
16.90802140565191
 30
0.0
 11
54.5740285936211
 21
16.90802140565191
 31
0.0
  0
LINE
  5
A4
330
43
100
AcDbEntity
  8
1
  6
DOT_CENTER
 62
     2
100
AcDbLine
 10
-0.00000000000021
 20
12.81273429419929
 30
0.0
 11
-0.00000000000021
 21
14.0620033713775
 31
0.0
  0
ARC
  5
A5
330
43
100
AcDbEntity
  8
0
  6
Continuous
 62
     7
100
AcDbCircle
 10
0.0006328403063
 20
-4933.357840154718
 30
0.0
 40
4950.566670155456
100
AcDbArc
 50
89.36837764412972
 51
90.00000732422792
  0
ARC
  5
A6
330
43
100
AcDbEntity
  8
0
  6
Continuous
 62
     7
100
AcDbCircle
 10
-54.5500000000003
 20
14.7081526307727
 30
0.0
 40
2.199999999999991
100
AcDbArc
 50
90.62580198903926
 51
197.0798523209843
  0
ARC
  5
A7
330
43
100
AcDbEntity
  8
0
  6
Continuous
 62
     7
100
AcDbCircle
 10
54.54999999999969
 20
14.7081526307727
 30
0.0
 40
2.200000000000133
100
AcDbArc
 50
342.9201476790173
 51
89.37419801095555
  0
ARC
  5
A8
330
43
100
AcDbEntity
  8
0
  6
Continuous
 62
     7
100
AcDbCircle
 10
-0.00063284030671
 20
-4933.357840154718
 30
0.0
 40
4950.566670155456
100
AcDbArc
 50
89.99999267577206
 51
90.63162235587029
  0
ENDBLK
  5
45
330
43
100
AcDbEntity
  8
0
100
AcDbBlockEnd
  0
BLOCK
  5
6A
330
46
100
AcDbEntity
  8
0
100
AcDbBlockBegin
  2
Bg-11092-Abdeckplatte
 70
     0
 10
-0.00000000000027
 20
11.58733633524297
 30
0.0
  3
Bg-11092-Abdeckplatte
  1

  0
INSERT
  5
69
330
46
100
AcDbEntity
  8
0
100
AcDbBlockReference
  2
DA-195555623-Edelstahlkappe-verpresst
 10
-0.00000000000027
 20
15.01078214746869
 30
0.0
  0
ENDBLK
  5
6B
330
46
100
AcDbEntity
  8
0
100
AcDbBlockEnd
  0
BLOCK
  5
6D
330
6C
100
AcDbEntity
  8
0
100
AcDbBlockBegin
  2
HL522_Abgangsbogen_DN40_50
 70
     0
 10
123.1389644617254
 20
-53.4875032611321
 30
0.0
  3
HL522_Abgangsbogen_DN40_50
  1

  0
POINT
  5
A9
330
6C
100
AcDbEntity
  8
1
 62
     3
 60
     1
100
AcDbPoint
 10
95.23219943089352
 20
-32.91763599070395
 30
0.0
  0
POINT
  5
AA
330
6C
100
AcDbEntity
  8
1
 62
     3
 60
     1
100
AcDbPoint
 10
95.23219943089352
 20
-30.91763599070395
 30
0.0
  0
POINT
  5
AB
330
6C
100
AcDbEntity
  8
1
 62
     3
 60
     1
100
AcDbPoint
 10
36.83488470653133
 20
-82.99999998235442
 30
0.0
  0
POINT
  5
AC
330
6C
100
AcDbEntity
  8
1
 62
     3
 60
     1
100
AcDbPoint
 10
48.83488470653133
 20
-82.99999998235442
 30
0.0
  0
POINT
  5
AD
330
6C
100
AcDbEntity
  8
1
 62
     3
 60
     1
100
AcDbPoint
 10
93.49744856870993
 20
-25.13601285497159
 30
0.0
  0
POINT
  5
AE
330
6C
100
AcDbEntity
  8
1
 62
     3
 60
     1
100
AcDbPoint
 10
95.1504216629905
 20
-26.78898594925223
 30
0.0
  0
POINT
  5
AF
330
6C
100
AcDbEntity
  8
1
 62
     3
 60
     1
100
AcDbPoint
 10
39.28898594925157
 20
-82.6504216629878
 30
0.0
  0
POINT
  5
B0
330
6C
100
AcDbEntity
  8
1
 62
     3
 60
     1
100
AcDbPoint
 10
37.63601285497134
 20
-80.99744856870748
 30
0.0
  0
LINE
  5
B1
330
6C
100
AcDbEntity
  8
0
  6
Continuous
 62
     7
100
AcDbLine
 10
201.785521321048
 20
-73.97500653990977
 30
0.0
 11
201.785521321048
 21
-23.97500653990977
 31
0.0
  0
LINE
  5
B2
330
6C
100
AcDbEntity
  8
0
  6
Continuous
 62
     7
100
AcDbLine
 10
151.2855213210481
 20
-73.97500653990977
 30
0.0
 11
201.785521321048
 21
-73.97500653990977
 31
0.0
  0
LINE
  5
B3
330
6C
100
AcDbEntity
  8
0
  6
Continuous
 62
     7
100
AcDbLine
 10
151.2855213210481
 20
-23.97500653990977
 30
0.0
 11
201.785521321048
 21
-23.97500653990977
 31
0.0
  0
LINE
  5
B4
330
6C
100
AcDbEntity
  8
0
  6
Continuous
 62
     7
100
AcDbLine
 10
205.285521321048
 20
-73.03718436640082
 30
0.0
 11
201.785521321048
 21
-73.97500653990977
 31
0.0
  0
LINE
  5
B5
330
6C
100
AcDbEntity
  8
0
  6
Continuous
 62
     7
100
AcDbLine
 10
205.285521321048
 20
-24.9128287134187
 30
0.0
 11
201.785521321048
 21
-23.97500653990977
 31
0.0
  0
LINE
  5
B6
330
6C
100
AcDbEntity
  8
0
  6
Continuous
 62
     7
100
AcDbLine
 10
152.2855213210481
 20
-57.45500653990973
 30
0.0
 11
152.2855213210481
 21
-58.47500653990974
 31
0.0
  0
LINE
  5
B7
330
6C
100
AcDbEntity
  8
0
  6
Continuous
 62
     7
100
AcDbLine
 10
152.2855213210481
 20
-40.49500653990977
 30
0.0
 11
152.2855213210481
 21
-57.45500653990973
 31
0.0
  0
LINE
  5
B8
330
6C
100
AcDbEntity
  8
0
  6
Continuous
 62
     7
100
AcDbLine
 10
152.2855213210481
 20
-39.47500653990976
 30
0.0
 11
152.2855213210481
 21
-40.49500653990977
 31
0.0
  0
LINE
  5
B9
330
6C
100
AcDbEntity
  8
0
  6
Continuous
 62
     7
100
AcDbLine
 10
151.2855213210481
 20
-38.97500653990976
 30
0.0
 11
151.7855213210481
 21
-38.97500653990976
 31
0.0
  0
LINE
  5
BA
330
6C
100
AcDbEntity
  8
0
  6
Continuous
 62
     7
100
AcDbLine
 10
151.7855213210481
 20
-38.97500653990976
 30
0.0
 11
151.7855213210481
 21
-40.33500653990976
 31
0.0
  0
LINE
  5
BB
330
6C
100
AcDbEntity
  8
0
  6
Continuous
 62
     7
100
AcDbLine
 10
150.7855213210481
 20
-40.33500653990977
 30
0.0
 11
151.7855213210481
 21
-40.33500653990976
 31
0.0
  0
LINE
  5
BC
330
6C
100
AcDbEntity
  8
0
  6
Continuous
 62
     7
100
AcDbLine
 10
150.7855213210481
 20
-57.61500653990974
 30
0.0
 11
151.7855213210481
 21
-57.61500653990974
 31
0.0
  0
LINE
  5
BD
330
6C
100
AcDbEntity
  8
0
  6
Continuous
 62
     7
100
AcDbLine
 10
151.7855213210481
 20
-40.33500653990976
 30
0.0
 11
151.7855213210481
 21
-57.61500653990974
 31
0.0
  0
LINE
  5
BE
330
6C
100
AcDbEntity
  8
0
  6
Continuous
 62
     7
100
AcDbLine
 10
151.7855213210481
 20
-57.61500653990974
 30
0.0
 11
151.7855213210481
 21
-58.97500653990974
 31
0.0
  0
LINE
  5
BF
330
6C
100
AcDbEntity
  8
0
  6
Continuous
 62
     7
100
AcDbLine
 10
151.2855213210481
 20
-58.97500653990974
 30
0.0
 11
151.7855213210481
 21
-58.97500653990974
 31
0.0
  0
LINE
  5
C0
330
6C
100
AcDbEntity
  8
0
  6
Continuous
 62
     7
100
AcDbLine
 10
90.99426121297442
 20
-25.20672353309017
 30
0.0
 11
93.42673789059126
 21
-25.20672353309026
 31
0.0
  0
LINE
  5
C1
330
6C
100
AcDbEntity
  8
0
  6
Continuous
 62
     7
100
AcDbLine
 10
37.70672353308998
 20
-80.92673789058884
 30
0.0
 11
93.42673789059126
 21
-25.20672353309026
 31
0.0
  0
LINE
  5
C2
330
6C
100
AcDbEntity
  8
0
  6
Continuous
 62
     7
100
AcDbLine
 10
37.70672353309001
 20
-78.49426121297202
 30
0.0
 11
37.70672353308998
 21
-80.92673789058884
 31
0.0
  0
LINE
  5
C3
330
6C
100
AcDbEntity
  8
0
  6
Continuous
 62
     7
100
AcDbLine
 10
151.2855213210481
 20
-58.97500653990974
 30
0.0
 11
151.2855213210481
 21
-73.97500653990977
 31
0.0
  0
LINE
  5
C4
330
6C
100
AcDbEntity
  8
0
  6
Continuous
 62
     7
100
AcDbLine
 10
71.5636215475345
 20
-73.97500653990306
 30
0.0
 11
151.2855213210481
 21
-73.97500653990977
 31
0.0
  0
LINE
  5
C5
330
6C
100
AcDbEntity
  8
0
  6
Continuous
 62
     7
100
AcDbLine
 10
150.7855213210481
 20
-58.97500653990974
 30
0.0
 11
151.2855213210481
 21
-58.97500653990974
 31
0.0
  0
LINE
  5
C6
330
6C
100
AcDbEntity
  8
0
  6
Continuous
 62
     7
100
AcDbLine
 10
151.2855213210481
 20
-23.97500653990977
 30
0.0
 11
151.2855213210481
 21
-38.97500653990976
 31
0.0
  0
LINE
  5
C7
330
6C
100
AcDbEntity
  8
0
  6
Continuous
 62
     7
100
AcDbLine
 10
150.7855213210481
 20
-38.97500653990976
 30
0.0
 11
151.2855213210481
 21
-38.97500653990976
 31
0.0
  0
LINE
  5
C8
330
6C
100
AcDbEntity
  8
0
  6
Continuous
 62
     7
100
AcDbLine
 10
150.7855213210481
 20
-38.97500653990976
 30
0.0
 11
150.7855213210481
 21
-40.33500653990977
 31
0.0
  0
LINE
  5
C9
330
6C
100
AcDbEntity
  8
0
  6
Continuous
 62
     7
100
AcDbLine
 10
150.7855213210481
 20
-40.33500653990977
 30
0.0
 11
150.7855213210481
 21
-57.61500653990974
 31
0.0
  0
LINE
  5
CA
330
6C
100
AcDbEntity
  8
0
  6
Continuous
 62
     7
100
AcDbLine
 10
150.2855213210481
 20
-58.47500653990974
 30
0.0
 11
150.2855213210481
 21
-69.07500653990977
 31
0.0
  0
LINE
  5
CB
330
6C
100
AcDbEntity
  8
0
  6
Continuous
 62
     7
100
AcDbLine
 10
150.7855213210481
 20
-57.61500653990974
 30
0.0
 11
150.7855213210481
 21
-58.97500653990974
 31
0.0
  0
LINE
  5
CC
330
6C
100
AcDbEntity
  8
0
  6
Continuous
 62
     7
100
AcDbLine
 10
95.60112531223335
 20
-33.97500653990976
 30
0.0
 11
150.2855213210481
 21
-33.97500653990976
 31
0.0
  0
LINE
  5
CD
330
6C
100
AcDbEntity
  8
0
  6
Continuous
 62
     7
100
AcDbLine
 10
150.2855213210481
 20
-24.97500653990976
 30
0.0
 11
150.2855213210481
 21
-33.97500653990976
 31
0.0
  0
LINE
  5
CE
330
6C
100
AcDbEntity
  8
0
  6
Continuous
 62
     7
100
AcDbLine
 10
93.42673789059126
 20
-25.20672353309026
 30
0.0
 11
93.49744856870993
 21
-25.13601285497159
 31
0.0
  0
LINE
  5
CF
330
6C
100
AcDbEntity
  8
0
  6
Continuous
 62
     7
100
AcDbLine
 10
150.2855213210481
 20
-40.49500653990977
 30
0.0
 11
150.2855213210481
 21
-57.45500653990975
 31
0.0
  0
LINE
  5
D0
330
6C
100
AcDbEntity
  8
0
  6
Continuous
 62
     7
100
AcDbLine
 10
150.2855213210481
 20
-57.45500653990975
 30
0.0
 11
150.2855213210481
 21
-58.47500653990974
 31
0.0
  0
LINE
  5
D1
330
6C
100
AcDbEntity
  8
0
  6
Continuous
 62
     7
100
AcDbLine
 10
150.2855213210481
 20
-33.97500653990976
 30
0.0
 11
150.2855213210481
 21
-39.47500653990976
 31
0.0
  0
LINE
  5
D2
330
6C
100
AcDbEntity
  8
0
  6
Continuous
 62
     7
100
AcDbLine
 10
150.2855213210481
 20
-39.47500653990976
 30
0.0
 11
150.2855213210481
 21
-40.49500653990977
 31
0.0
  0
LINE
  5
D3
330
6C
100
AcDbEntity
  8
0
  6
Continuous
 62
     7
100
AcDbLine
 10
205.285521321048
 20
-73.03718436640082
 30
0.0
 11
205.285521321048
 21
-24.9128287134187
 31
0.0
  0
LINE
  5
D4
330
6C
100
AcDbEntity
  8
1
  6
PHANTOM
 62
     2
100
AcDbLine
 10
71.5636215475345
 20
-53.97500653990642
 30
0.0
 11
156.6876600550738
 21
-53.97500653990643
 31
0.0
  0
LINE
  5
D5
330
6C
100
AcDbEntity
  8
1
  6
PHANTOM
 62
     2
100
AcDbLine
 10
145.7255023071578
 20
-48.97500653990977
 30
0.0
 11
209.4430442169194
 21
-48.97500653990978
 31
0.0
  0
LINE
  5
D6
330
6C
100
AcDbEntity
  8
1
  6
DOT_CENTER
 62
     2
100
AcDbLine
 10
95.23219943089352
 20
-32.91763599070395
 30
0.0
 11
95.23219943089352
 21
-30.91763599070395
 31
0.0
  0
LINE
  5
D7
330
6C
100
AcDbEntity
  8
1
  6
DOT_CENTER
 62
     2
100
AcDbLine
 10
36.83488470653133
 20
-82.99999998235442
 30
0.0
 11
48.83488470653133
 21
-82.99999998235442
 31
0.0
  0
LINE
  5
D8
330
6C
100
AcDbEntity
  8
1
  6
Continuous
 62
     7
100
AcDbLine
 10
93.49744856870993
 20
-25.13601285497159
 30
0.0
 11
95.1504216629905
 21
-26.78898594925223
 31
0.0
  0
LINE
  5
D9
330
6C
100
AcDbEntity
  8
1
  6
Continuous
 62
     7
100
AcDbLine
 10
95.1504216629905
 20
-26.78898594925223
 30
0.0
 11
39.28898594925157
 21
-82.6504216629878
 31
0.0
  0
LINE
  5
DA
330
6C
100
AcDbEntity
  8
1
  6
Continuous
 62
     7
100
AcDbLine
 10
37.63601285497134
 20
-80.99744856870748
 30
0.0
 11
39.28898594925157
 21
-82.6504216629878
 31
0.0
  0
LINE
  5
DB
330
6C
100
AcDbEntity
  8
0
  6
Continuous
 62
     7
100
AcDbLine
 10
37.63601285497134
 20
-80.99744856870748
 30
0.0
 11
37.70672353308998
 21
-80.92673789058884
 31
0.0
  0
ARC
  5
DC
330
6C
100
AcDbEntity
  8
0
  6
Continuous
 62
     7
100
AcDbCircle
 10
151.7855213210481
 20
-58.47500653990974
 30
0.0
 40
0.5
100
AcDbArc
 50
270.0
 51
0.0
  0
ARC
  5
DD
330
6C
100
AcDbEntity
  8
0
  6
Continuous
 62
     7
100
AcDbCircle
 10
151.7855213210481
 20
-39.47500653990976
 30
0.0
 40
0.5
100
AcDbArc
 50
0.0
 51
90.0
  0
ARC
  5
DE
330
6C
100
AcDbEntity
  8
0
  6
Continuous
 62
     7
100
AcDbCircle
 10
42.23220693268527
 20
-29.73220693268308
 30
0.0
 40
52.99999999999965
100
AcDbArc
 50
266.8165861337687
 51
303.2470890310809
  0
ARC
  5
DF
330
6C
100
AcDbEntity
  8
0
  6
Continuous
 62
     7
100
AcDbCircle
 10
151.2855213210481
 20
-24.97500653990976
 30
0.0
 40
0.9999999999999893
100
AcDbArc
 50
90.0
 51
180.0
  0
ARC
  5
E0
330
6C
100
AcDbEntity
  8
0
  6
Continuous
 62
     7
100
AcDbCircle
 10
150.7855213210481
 20
-58.47500653990974
 30
0.0
 40
0.5
100
AcDbArc
 50
180.0
 51
270.0
  0
ARC
  5
E1
330
6C
100
AcDbEntity
  8
0
  6
Continuous
 62
     7
100
AcDbCircle
 10
150.7855213210481
 20
-39.47500653990976
 30
0.0
 40
0.5
100
AcDbArc
 50
90.0
 51
180.0
  0
ARC
  5
E2
330
6C
100
AcDbEntity
  8
0
  6
Continuous
 62
     7
100
AcDbCircle
 10
42.23220693268527
 20
-29.73220693268308
 30
0.0
 40
52.99999999999999
100
AcDbArc
 50
355.9883745894311
 51
3.1834138662282
  0
SPLINE
  5
E3
330
6C
100
AcDbEntity
  8
0
  6
Continuous
 62
     7
100
AcDbSpline
210
0.0
220
0.0
230
1.0
 70
     8
 71
     3
 72
    13
 73
     9
 74
     7
 42
0.0000000001
 43
0.0000000001
 44
0.00000001
 40
0.0
 40
0.0
 40
0.0
 40
0.0
 40
0.0447787966912933
 40
0.1078986736710044
 40
0.1939908425034942
 40
0.300620191220885
 40
0.4222654158384175
 40
0.5517896950645579
 40
0.5517896950645579
 40
0.5517896950645579
 40
0.5517896950645579
 10
152.2855213210481
 20
-40.49500653990977
 30
0.0
 10
152.2811141217753
 20
-40.48031106743369
 30
0.0
 10
152.2704945653944
 20
-40.44490096027813
 30
0.0
 10
152.2115710357568
 20
-40.40916508197119
 30
0.0
 10
152.1337198744731
 20
-40.37745847807111
 30
0.0
 10
152.0307471358252
 20
-40.35375016934108
 30
0.0
 10
151.9125109455632
 20
-40.33797186573952
 30
0.0
 10
151.8287272790017
 20
-40.3360154392085
 30
0.0
 10
151.7855213210481
 20
-40.33500653990976
 30
0.0
 11
152.2855213210481
 21
-40.49500653990977
 31
0.0
 11
152.2684841054319
 21
-40.45359550373379
 31
0.0
 11
152.2185340229403
 21
-40.41500653990977
 31
0.0
 11
152.1390746173819
 21
-40.38186948508292
 31
0.0
 11
152.0355213210481
 21
-40.35644247530426
 31
0.0
 11
151.914930809098
 21
-40.34045844890694
 31
0.0
 11
151.7855213210481
 21
-40.33500653990976
 31
0.0
  0
SPLINE
  5
E4
330
6C
100
AcDbEntity
  8
0
  6
Continuous
 62
     7
100
AcDbSpline
210
0.0
220
0.0
230
1.0
 70
     8
 71
     3
 72
    13
 73
     9
 74
     7
 42
0.0000000001
 43
0.0000000001
 44
0.00000001
 40
0.0
 40
0.0
 40
0.0
 40
0.0
 40
0.0447787966912867
 40
0.1078986736710022
 40
0.1939908425034947
 40
0.3006201912208856
 40
0.4222654158384189
 40
0.5517896950645591
 40
0.5517896950645591
 40
0.5517896950645591
 40
0.5517896950645591
 10
152.2855213210481
 20
-57.45500653990973
 30
0.0
 10
152.2811141217753
 20
-57.4697020123858
 30
0.0
 10
152.2704945653944
 20
-57.50511211954138
 30
0.0
 10
152.2115710357569
 20
-57.54084799784828
 30
0.0
 10
152.1337198744731
 20
-57.57255460174843
 30
0.0
 10
152.0307471358252
 20
-57.59626291047839
 30
0.0
 10
151.9125109455631
 20
-57.61204121408002
 30
0.0
 10
151.8287272790017
 20
-57.61399764061102
 30
0.0
 10
151.7855213210481
 20
-57.61500653990974
 30
0.0
 11
152.2855213210481
 21
-57.45500653990973
 31
0.0
 11
152.2684841054319
 21
-57.4964175760857
 31
0.0
 11
152.2185340229403
 21
-57.53500653990973
 31
0.0
 11
152.1390746173819
 21
-57.56814359473658
 31
0.0
 11
152.0355213210481
 21
-57.59357060451525
 31
0.0
 11
151.914930809098
 21
-57.60955463091257
 31
0.0
 11
151.7855213210481
 21
-57.61500653990974
 31
0.0
  0
SPLINE
  5
E5
330
6C
100
AcDbEntity
  8
0
  6
Continuous
 62
     7
100
AcDbSpline
210
0.0
220
0.0
230
1.0
 70
     8
 71
     3
 72
    31
 73
    27
 74
    25
 42
0.0000000001
 43
0.0000000001
 44
0.00000001
 40
0.0
 40
0.0
 40
0.0
 40
0.0
 40
0.1551676564093989
 40
0.3103353086452898
 40
0.8167555988906671
 40
1.226489805051345
 40
2.661358764271472
 40
4.057189862860894
 40
6.795731986962901
 40
9.407160251808307
 40
11.89429356472469
 40
17.62137985382224
 40
23.34746546447945
 40
27.57387628125471
 40
31.74087034497387
 40
35.83659829684263
 40
39.29206073496425
 40
42.78888181339599
 40
44.12208489792665
 40
45.53607927376342
 40
46.18115619348175
 40
46.77819360306417
 40
46.95020527728749
 40
47.10201200630978
 40
47.15664092542276
 40
47.21126984453579
 40
47.21126984453579
 40
47.21126984453579
 40
47.21126984453579
 10
95.10235036169294
 20
-33.4400275588942
 30
0.0
 10
95.08095266894921
 20
-33.48711642446857
 30
0.0
 10
95.03815728403737
 20
-33.58129415435081
 30
0.0
 10
94.92538393058416
 20
-33.82909095360917
 30
0.0
 10
94.77715292079561
 20
-34.15398073748514
 30
0.0
 10
94.45087346900247
 20
-34.86650269201343
 30
0.0
 10
93.99843001279511
 20
-35.84732711300087
 30
0.0
 10
93.21342831926378
 20
-37.52960610600464
 30
0.0
 10
92.24914839451962
 20
-39.56098826377992
 30
0.0
 10
91.10758848621388
 20
-41.91077691068444
 30
0.0
 10
89.50120626066779
 20
-45.14209482106166
 30
0.0
 10
87.36826580742859
 20
-49.27090010900159
 30
0.0
 10
84.85530245670057
 20
-53.85438137924704
 30
0.0
 10
82.49080743024669
 20
-57.92425064133143
 30
0.0
 10
80.3153126779607
 20
-61.47413169019704
 30
0.0
 10
78.18782840965987
 20
-64.75058902327181
 30
0.0
 10
76.09911330422497
 20
-67.78410161382449
 30
0.0
 10
74.46954845491913
 20
-70.01453518564178
 30
0.0
 10
73.205034243136
 20
-71.66775758039252
 30
0.0
 10
72.50628186755222
 20
-72.55683328022371
 30
0.0
 10
71.95198418832621
 20
-73.24722583050684
 30
0.0
 10
71.65451600436346
 20
-73.61289074543522
 30
0.0
 10
71.45984470384958
 20
-73.85021463899037
 30
0.0
 10
71.37967008705147
 20
-73.94760891488873
 30
0.0
 10
71.32429188526915
 20
-74.0147356681417
 30
0.0
 10
71.30109474662531
 20
-74.04281157886496
 30
0.0
 10
71.28949617730338
 20
-74.05684953422659
 30
0.0
 11
95.10235036169294
 21
-33.4400275588942
 31
0.0
 11
95.03814375945946
 21
-33.58128800567679
 31
0.0
 11
94.97387258543593
 21
-33.72251908047988
 31
0.0
 11
94.76365782878369
 21
-34.18324814018618
 31
0.0
 11
94.59306692234848
 21
-34.55578117541894
 31
0.0
 11
93.99201295739348
 21
-35.85869447312732
 31
0.0
 11
93.40174873109845
 21
-37.12357889430804
 31
0.0
 11
92.22717113541842
 21
-39.59743831578042
 31
0.0
 11
91.08583773362953
 21
-41.94624985534558
 31
0.0
 11
89.9784941203336
 21
-44.17327078885993
 31
0.0
 11
87.34730868834743
 21
-49.26015397852262
 31
0.0
 11
84.59125152224541
 21
-54.27933770874743
 31
0.0
 11
82.4665394022786
 21
-57.93284927974607
 31
0.0
 11
80.28742551367043
 21
-61.48465194706104
 31
0.0
 11
78.0549155958897
 21
-64.91843803864126
 31
0.0
 11
76.09384719383037
 21
-67.76350945843267
 31
0.0
 11
74.0292322481075
 21
-70.58576436904266
 31
0.0
 11
73.21915240545097
 21
-71.64463221401844
 31
0.0
 11
72.34527157231875
 21
-72.75625822324193
 31
0.0
 11
71.94140048560148
 21
-73.25926158075269
 31
0.0
 11
71.56462415237709
 21
-73.72239575479179
 31
0.0
 11
71.45553231181955
 21
-73.85538818462476
 31
0.0
 11
71.3590523407991
 21
-73.97259269890786
 31
0.0
 11
71.32428666783393
 21
-74.01473136033336
 31
0.0
 11
71.28949617730338
 21
-74.05684953422659
 31
0.0
  0
SPLINE
  5
E6
330
6C
100
AcDbEntity
  8
0
  6
Continuous
 62
     7
100
AcDbSpline
210
0.0
220
0.0
230
1.0
 70
     8
 71
     3
 72
    15
 73
    11
 74
     9
 42
0.0000000001
 43
0.0000000001
 44
0.00000001
 40
0.0
 40
0.0
 40
0.0
 40
0.0
 40
0.0332898904352637
 40
0.0719320590232216
 40
0.1084737016974773
 40
0.1450184315817951
 40
0.1789298635515547
 40
0.218091072412291
 40
0.2540573601738773
 40
0.290026447405076
 40
0.290026447405076
 40
0.290026447405076
 40
0.290026447405076
 10
71.5636215475345
 20
-73.97500653990306
 30
0.0
 10
71.55252302864963
 20
-73.9752279703203
 30
0.0
 10
71.52854159449475
 20
-73.97570643226875
 30
0.0
 10
71.49255299856245
 20
-73.97972142997403
 30
0.0
 10
71.45589254082664
 20
-73.98642160590839
 30
0.0
 10
71.42134288487311
 20
-73.99540861306842
 30
0.0
 10
71.38666966821631
 20
-74.00702339105271
 30
0.0
 10
71.35312181956274
 20
-74.02108814896985
 30
0.0
 10
71.32000458142585
 20
-74.03776783082142
 30
0.0
 10
71.29966590918052
 20
-74.0504888014065
 30
0.0
 10
71.28949617730338
 20
-74.05684953422659
 30
0.0
 11
71.5636215475345
 21
-73.97500653990306
 31
0.0
 11
71.53035091119096
 21
-73.9761386010712
 31
0.0
 11
71.49192862870683
 21
-73.98025508037875
 31
0.0
 11
71.45598892690947
 21
-73.98686034222442
 31
0.0
 11
71.42061749299322
 21
-73.99604614349735
 31
0.0
 11
71.38846624853517
 21
-74.00682958905239
 31
0.0
 11
71.35233428853715
 21
-74.0219319645654
 31
0.0
 11
71.32028160440608
 21
-74.03824757964246
 31
0.0
 11
71.28949617730338
 21
-74.05684953422659
 31
0.0
  0
SPLINE
  5
E7
330
6C
100
AcDbEntity
  8
0
  6
Continuous
 62
     7
100
AcDbSpline
210
0.0
220
0.0
230
1.0
 70
     8
 71
     3
 72
    23
 73
    19
 74
    17
 42
0.0000000001
 43
0.0000000001
 44
0.00000001
 40
0.0
 40
0.0
 40
0.0
 40
0.0
 40
0.6154531363063059
 40
1.111773858384699
 40
1.563876949030482
 40
2.09578512069609
 40
2.571715590953948
 40
2.945767207163025
 40
3.285798095769783
 40
3.658703237243556
 40
3.98475697956845
 40
4.230196170429914
 40
4.444044774653865
 40
4.658638760023325
 40
4.809872602594939
 40
4.953544228370187
 40
5.060081240632413
 40
5.151401590750736
 40
5.151401590750736
 40
5.151401590750736
 40
5.151401590750736
 10
150.2855213210481
 20
-69.07500653990977
 30
0.0
 10
150.2870721386795
 20
-69.28016419394376
 30
0.0
 10
150.2898735843137
 20
-69.6507674180518
 30
0.0
 10
150.3101380730103
 20
-70.17173423428912
 30
0.0
 10
150.3391289979631
 20
-70.66435105125012
 30
0.0
 10
150.3795669432446
 20
-71.14938210325877
 30
0.0
 10
150.4305202368034
 20
-71.60724723212414
 30
0.0
 10
150.4852632978765
 20
-72.0001695802594
 30
0.0
 10
150.5451245274812
 20
-72.35756717538668
 30
0.0
 10
150.6137438328169
 20
-72.69712403987849
 30
0.0
 10
150.6894893990005
 20
-73.00280465341
 30
0.0
 10
150.7650864815332
 20
-73.25354364762603
 30
0.0
 10
150.842021872802
 20
-73.4647517095899
 30
0.0
 10
150.9220256557356
 20
-73.64088711592551
 30
0.0
 10
151.0092605089567
 20
-73.78740150810049
 30
0.0
 10
151.095078113884
 20
-73.89005978100398
 30
0.0
 10
151.1887620569721
 20
-73.96112684237369
 30
0.0
 10
151.2549654051157
 20
-73.97062342605365
 30
0.0
 10
151.2855213210481
 20
-73.97500653990977
 30
0.0
 11
150.2855213210481
 21
-69.07500653990977
 31
0.0
 11
150.293730030844
 21
-69.69040493125699
 31
0.0
 11
150.3124320667206
 21
-70.18637316916995
 31
0.0
 11
150.3392515701192
 21
-70.63768007007988
 31
0.0
 11
150.3836927662225
 21
-71.16772844822432
 31
0.0
 11
150.4367097378008
 21
-71.6406967486891
 31
0.0
 11
150.4886052051787
 21
-72.01113091565301
 31
0.0
 11
150.545093754337
 21
-72.34643681930025
 31
0.0
 11
150.6196554113823
 21
-72.71181170053353
 31
0.0
 11
150.6989417062523
 21
-73.02807855989418
 31
0.0
 11
150.7704761324594
 21
-73.26286191168462
 31
0.0
 11
150.8444821689098
 21
-73.4634967344284
 31
0.0
 11
150.9349497888519
 21
-73.65808909886948
 31
0.0
 11
151.0138557840223
 21
-73.78710661343686
 31
0.0
 11
151.1080104146963
 21
-73.8956259277341
 31
0.0
 11
151.1963948773154
 21
-73.95510972173969
 31
0.0
 11
151.2855213210481
 21
-73.97500653990977
 31
0.0
  0
SPLINE
  5
E8
330
6C
100
AcDbEntity
  8
0
  6
Continuous
 62
     7
100
AcDbSpline
210
0.0
220
0.0
230
1.0
 70
     8
 71
     3
 72
    33
 73
    29
 74
    27
 42
0.0000000001
 43
0.0000000001
 44
0.00000001
 40
0.0
 40
0.0
 40
0.0
 40
0.0
 40
0.1539085388548219
 40
0.3078168158390218
 40
0.8112151313703964
 40
1.21652501786592
 40
2.634848036896987
 40
4.014215248465901
 40
7.925801615218059
 40
11.73092241263815
 40
15.6411794710246
 40
19.4341840785832
 40
23.11098655861705
 40
26.364844739149
 40
29.52393563898653
 40
32.58933044562961
 40
35.56220168306592
 40
37.92605311052709
 40
40.20184151633043
 40
42.39226319052578
 40
43.79311447462119
 40
45.11575004466538
 40
45.7692100872838
 40
46.36270583963294
 40
46.53742783177195
 40
46.68797175002513
 40
46.7428543550793
 40
46.79773696013349
 40
46.79773696013349
 40
46.79773696013349
 40
46.79773696013349
 10
95.60112531223335
 20
-33.97500653990976
 30
0.0
 10
95.5794643290309
 20
-34.02151228110444
 30
0.0
 10
95.53614239948148
 20
-34.11452368436573
 30
0.0
 10
95.42182871568768
 20
-34.35957729820893
 30
0.0
 10
95.27177751972772
 20
-34.68042975047976
 30
0.0
 10
94.94218961293824
 20
-35.38260268080941
 30
0.0
 10
94.48580578632794
 20
-36.34781537196059
 30
0.0
 10
93.52081692918203
 20
-38.36534196664418
 30
0.0
 10
92.1888354524834
 20
-41.08923763058965
 30
0.0
 10
90.43864143611543
 20
-44.54734056268077
 30
0.0
 10
88.65543180443379
 20
-47.94399795129571
 30
0.0
 10
86.83760110954032
 20
-51.27361823833407
 30
0.0
 10
85.07049603589131
 20
-54.38105671096496
 30
0.0
 10
83.35645478114759
 20
-57.27495240216692
 30
0.0
 10
81.69798877122118
 20
-59.96432674582
 30
0.0
 10
80.039513954472
 20
-62.54302438152523
 30
0.0
 10
78.47729087738628
 20
-64.86780055703949
 30
0.0
 10
77.02104834980433
 20
-66.94601144675512
 30
0.0
 10
75.68049875524792
 20
-68.78634468978923
 30
0.0
 10
74.49901095852147
 20
-70.3449709836105
 30
0.0
 10
73.48802212662207
 20
-71.63376415019825
 30
0.0
 10
72.78159745107013
 20
-72.51019515484026
 30
0.0
 10
72.23738863321252
 20
-73.17162560982032
 30
0.0
 10
71.93391475449293
 20
-73.5356053300115
 30
0.0
 10
71.73683296115634
 20
-73.77002007242005
 30
0.0
 10
71.65511670837938
 20
-73.86686767973995
 30
0.0
 10
71.59909031033436
 20
-73.93312495188115
 30
0.0
 10
71.57544446846778
 20
-73.96104601056241
 30
0.0
 10
71.5636215475345
 20
-73.97500653990306
 30
0.0
 11
95.60112531223335
 21
-33.97500653990976
 31
0.0
 11
95.53612871968
 21
-34.11451740432138
 31
0.0
 11
95.4710671226306
 21
-34.25399767645199
 31
0.0
 11
95.2578079234872
 21
-34.70999151200302
 31
0.0
 11
95.08559048599226
 21
-35.07689375826718
 31
0.0
 11
94.47928967469882
 21
-36.35909480043581
 31
0.0
 11
93.88408656821515
 21
-37.60343686208269
 31
0.0
 11
92.16512744855203
 21
-41.11707990734046
 31
0.0
 11
90.4461729934564
 21
-44.51180226185869
 31
0.0
 11
88.62775723452248
 21
-47.97351778892353
 31
0.0
 11
86.80931792919745
 21
-51.30220558530964
 31
0.0
 11
84.99086485326524
 21
-54.49784400162268
 31
0.0
 11
83.33194438896902
 21
-57.29705388159845
 31
0.0
 11
81.67302210003001
 21
-59.98551666778271
 31
0.0
 11
80.01409788082037
 21
-62.56323188780102
 31
0.0
 11
78.35517162571229
 21
-65.03019906927896
 31
0.0
 11
76.99820933861767
 21
-66.965773124311
 31
0.0
 11
75.65782431297427
 21
-68.80495252040586
 31
0.0
 11
74.33417999669179
 21
-70.55020689577864
 31
0.0
 11
73.46944408119758
 21
-71.65230313323077
 31
0.0
 11
72.63931271284817
 21
-72.6819859787849
 31
0.0
 11
72.22411576388123
 21
-73.18658633636247
 31
0.0
 11
71.84404282457282
 21
-73.64241719190204
 31
0.0
 11
71.73160427011034
 21
-73.77615329775013
 31
0.0
 11
71.63452351953869
 21
-73.89121327859257
 31
0.0
 11
71.59908504819406
 21
-73.93312049857062
 31
0.0
 11
71.5636215475345
 21
-73.97500653990306
 31
0.0
  0
SPLINE
  5
E9
330
6C
100
AcDbEntity
  8
0
  6
Continuous
 62
     7
100
AcDbSpline
210
0.0
220
0.0
230
1.0
 70
     8
 71
     3
 72
    23
 73
    19
 74
    17
 42
0.0000000001
 43
0.0000000001
 44
0.00000001
 40
0.0
 40
0.0
 40
0.0
 40
0.0
 40
0.0523708591859287
 40
0.1043860678643115
 40
0.1532975588443075
 40
0.2144279506477725
 40
0.2612071907300157
 40
0.3081148544353789
 40
0.3570667871201225
 40
0.4060814834632741
 40
0.4549334093294058
 40
0.5037236943835448
 40
0.5514798752353124
 40
0.5991029942060998
 40
0.6587925735646745
 40
0.7067849375259644
 40
0.7595081948054098
 40
0.8125926876443041
 40
0.8125926876443041
 40
0.8125926876443041
 40
0.8125926876443041
 10
95.10235036169294
 20
-33.4400275588942
 30
0.0
 10
95.10174562133244
 20
-33.45749514250475
 30
0.0
 10
95.10054024740326
 20
-33.49231168736463
 30
0.0
 10
95.10651669227772
 20
-33.54324273824399
 30
0.0
 10
95.1182222721513
 20
-33.59604453502725
 30
0.0
 10
95.13545079197834
 20
-33.64556252878588
 30
0.0
 10
95.15747490303383
 20
-33.692300032685
 30
0.0
 10
95.18151296009867
 20
-33.73339480679635
 30
0.0
 10
95.20951129151322
 20
-33.77281967252385
 30
0.0
 10
95.24130488813414
 20
-33.81010841963256
 30
0.0
 10
95.27620775986803
 20
-33.84442672517737
 30
0.0
 10
95.31367426217997
 20
-33.87527104695587
 30
0.0
 10
95.35339339814246
 20
-33.90243956560815
 30
0.0
 10
95.39857657080883
 20
-33.92767743068358
 30
0.0
 10
95.44630527655721
 20
-33.94810211653589
 30
0.0
 10
95.49759523978683
 20
-33.96341969129746
 30
0.0
 10
95.5481297167729
 20
-33.97310419229251
 30
0.0
 10
95.58341995257982
 20
-33.97437098239867
 30
0.0
 10
95.60112531223335
 20
-33.97500653990976
 30
0.0
 11
95.10235036169294
 21
-33.4400275588942
 31
0.0
 11
95.10186388194606
 21
-33.49239615854445
 31
0.0
 11
95.10752891344023
 21
-33.5441019546608
 31
0.0
 11
95.11815776501861
 21
-33.59184461340548
 31
0.0
 11
95.13814936206532
 21
-33.64961364359959
 31
0.0
 11
95.1580701246721
 21
-33.69193929208649
 31
0.0
 11
95.18173622353453
 21
-33.7324392263942
 31
0.0
 11
95.21006886087501
 21
-33.77235856224669
 31
0.0
 11
95.24186644018062
 21
-33.80965942561358
 31
0.0
 11
95.27670372266599
 21
-33.84390667966211
 31
0.0
 11
95.31438013914192
 21
-33.87490634993772
 31
0.0
 11
95.35380957830759
 21
-33.90185022004999
 31
0.0
 11
95.39539774264122
 21
-33.92505336741979
 31
0.0
 11
95.45031136695748
 21
-33.94844866071688
 31
0.0
 11
95.49628422800959
 21
-33.96222411153624
 31
0.0
 11
95.54814131212858
 21
-33.97174171022657
 31
0.0
 11
95.60112531223335
 21
-33.97500653990976
 31
0.0
  0
SPLINE
  5
EA
330
6C
100
AcDbEntity
  8
0
  6
Continuous
 62
     7
100
AcDbSpline
210
0.0
220
0.0
230
1.0
 70
     8
 71
     3
 72
    13
 73
     9
 74
     7
 42
0.0000000001
 43
0.0000000001
 44
0.00000001
 40
0.0
 40
0.0
 40
0.0
 40
0.0
 40
0.1295242792261685
 40
0.2511695038437019
 40
0.357798852561117
 40
0.4438910213936068
 40
0.5070108983733222
 40
0.5517896950645873
 40
0.5517896950645873
 40
0.5517896950645873
 40
0.5517896950645873
 10
150.7855213210481
 20
-57.61500653990974
 30
0.0
 10
150.7423153630945
 20
-57.61399764061102
 30
0.0
 10
150.658531696533
 20
-57.61204121408001
 30
0.0
 10
150.5402955062709
 20
-57.59626291047839
 30
0.0
 10
150.4373227676231
 20
-57.57255460174844
 30
0.0
 10
150.3594716063392
 20
-57.54084799784831
 30
0.0
 10
150.3005480767018
 20
-57.50511211954142
 30
0.0
 10
150.2899285203209
 20
-57.46970201238582
 30
0.0
 10
150.2855213210481
 20
-57.45500653990975
 30
0.0
 11
150.7855213210481
 21
-57.61500653990974
 31
0.0
 11
150.6561118329982
 21
-57.60955463091257
 31
0.0
 11
150.5355213210481
 21
-57.59357060451525
 31
0.0
 11
150.4319680247142
 21
-57.5681435947366
 31
0.0
 11
150.3525086191559
 21
-57.53500653990975
 31
0.0
 11
150.3025585366642
 21
-57.49641757608573
 31
0.0
 11
150.2855213210481
 21
-57.45500653990975
 31
0.0
  0
SPLINE
  5
EB
330
6C
100
AcDbEntity
  8
0
  6
Continuous
 62
     7
100
AcDbSpline
210
0.0
220
0.0
230
1.0
 70
     8
 71
     3
 72
    13
 73
     9
 74
     7
 42
0.0000000001
 43
0.0000000001
 44
0.00000001
 40
0.0
 40
0.0
 40
0.0
 40
0.0
 40
0.1295242792261969
 40
0.2511695038437294
 40
0.3577988525611737
 40
0.4438910213936662
 40
0.5070108983733324
 40
0.551789695064604
 40
0.551789695064604
 40
0.551789695064604
 40
0.551789695064604
 10
150.7855213210481
 20
-40.33500653990977
 30
0.0
 10
150.7423153630945
 20
-40.3360154392085
 30
0.0
 10
150.658531696533
 20
-40.3379718657395
 30
0.0
 10
150.5402955062709
 20
-40.35375016934111
 30
0.0
 10
150.437322767623
 20
-40.37745847807109
 30
0.0
 10
150.3594716063392
 20
-40.40916508197118
 30
0.0
 10
150.3005480767018
 20
-40.44490096027814
 30
0.0
 10
150.2899285203208
 20
-40.48031106743369
 30
0.0
 10
150.2855213210481
 20
-40.49500653990977
 30
0.0
 11
150.7855213210481
 21
-40.33500653990977
 31
0.0
 11
150.6561118329981
 21
-40.34045844890694
 31
0.0
 11
150.5355213210481
 21
-40.35644247530426
 31
0.0
 11
150.4319680247141
 21
-40.38186948508292
 31
0.0
 11
150.3525086191558
 21
-40.41500653990977
 31
0.0
 11
150.3025585366642
 21
-40.45359550373379
 31
0.0
 11
150.2855213210481
 21
-40.49500653990977
 31
0.0
  0
ENDBLK
  5
6E
330
6C
100
AcDbEntity
  8
0
100
AcDbBlockEnd
  0
BLOCK
  5
70
330
6F
100
AcDbEntity
  8
0
100
AcDbBlockBegin
  2
0522_1E_Schraubventil_3-23
 70
     0
 10
0.00000000000003
 20
3.25
 30
0.0
  3
0522_1E_Schraubventil_3-23
  1

  0
LINE
  5
EC
330
6F
100
AcDbEntity
  8
0
  6
Continuous
 62
     7
100
AcDbLine
 10
56.00000000000003
 20
5.20000000000001
 30
0.0
 11
-55.99999999999997
 21
5.20000000000001
 31
0.0
  0
LINE
  5
ED
330
6F
100
AcDbEntity
  8
0
  6
Continuous
 62
     7
100
AcDbLine
 10
56.00000000000003
 20
6.0
 30
0.0
 11
56.00000000000003
 21
5.20000000000001
 31
0.0
  0
LINE
  5
EE
330
6F
100
AcDbEntity
  8
0
  6
Continuous
 62
     7
100
AcDbLine
 10
56.00000000000003
 20
6.0
 30
0.0
 11
54.32325174739972
 21
6.0
 31
0.0
  0
LINE
  5
EF
330
6F
100
AcDbEntity
  8
0
  6
Continuous
 62
     7
100
AcDbLine
 10
-48.42299942785998
 20
0.99999999999999
 30
0.0
 11
-55.99999999999997
 21
5.20000000000001
 31
0.0
  0
LINE
  5
F0
330
6F
100
AcDbEntity
  8
0
  6
Continuous
 62
     7
100
AcDbLine
 10
48.42299942786002
 20
0.99999999999999
 30
0.0
 11
56.00000000000003
 21
5.20000000000001
 31
0.0
  0
LINE
  5
F1
330
6F
100
AcDbEntity
  8
0
  6
Continuous
 62
     7
100
AcDbLine
 10
-0.99999999999999
 20
6.0
 30
0.0
 11
-55.99999999999997
 21
6.0
 31
0.0
  0
LINE
  5
F2
330
6F
100
AcDbEntity
  8
0
  6
Continuous
 62
     7
100
AcDbLine
 10
1.00000000000001
 20
6.0
 30
0.0
 11
-0.99999999999999
 21
6.0
 31
0.0
  0
LINE
  5
F3
330
6F
100
AcDbEntity
  8
0
  6
Continuous
 62
     7
100
AcDbLine
 10
54.32325174739972
 20
6.0
 30
0.0
 11
39.11369993212388
 21
6.0
 31
0.0
  0
LINE
  5
F4
330
6F
100
AcDbEntity
  8
0
  6
Continuous
 62
     7
100
AcDbLine
 10
39.11369993212388
 20
6.0
 30
0.0
 11
1.00000000000001
 21
6.0
 31
0.0
  0
LINE
  5
F5
330
6F
100
AcDbEntity
  8
0
  6
Continuous
 62
     7
100
AcDbLine
 10
-48.42299942785998
 20
0.99999999999999
 30
0.0
 11
48.42299942786002
 21
0.99999999999999
 31
0.0
  0
LINE
  5
F6
330
6F
100
AcDbEntity
  8
0
  6
Continuous
 62
     7
100
AcDbLine
 10
-55.99999999999997
 20
6.0
 30
0.0
 11
-55.99999999999997
 21
5.20000000000001
 31
0.0
  0
LINE
  5
F7
330
6F
100
AcDbEntity
  8
1
  6
Continuous
 62
     7
100
AcDbLine
 10
48.42299942786002
 20
0.99999999999999
 30
0.0
 11
48.42299942786002
 21
0.49999999999999
 31
0.0
  0
LINE
  5
F8
330
6F
100
AcDbEntity
  8
1
  6
Continuous
 62
     7
100
AcDbLine
 10
-48.42299942785998
 20
0.99999999999999
 30
0.0
 11
-48.42299942785998
 21
0.49999999999999
 31
0.0
  0
ENDBLK
  5
71
330
6F
100
AcDbEntity
  8
0
100
AcDbBlockEnd
  0
BLOCK
  5
73
330
72
100
AcDbEntity
  8
0
100
AcDbBlockBegin
  2
01076D_Ventildichtung
 70
     0
 10
0.00000000000002
 20
-1.49999999999999
 30
0.0
  3
01076D_Ventildichtung
  1

  0
LINE
  5
F9
330
72
100
AcDbEntity
  8
0
  6
Continuous
 62
     7
100
AcDbLine
 10
-55.00000000000007
 20
-3.0
 30
0.0
 11
-49.42435935394488
 21
-3.0
 31
0.0
  0
LINE
  5
FA
330
72
100
AcDbEntity
  8
0
  6
Continuous
 62
     7
100
AcDbLine
 10
-55.00000000000007
 20
0.0
 30
0.0
 11
55.00000000000011
 21
0.0
 31
0.0
  0
LINE
  5
FB
330
72
100
AcDbEntity
  8
0
  6
Continuous
 62
     7
100
AcDbLine
 10
48.46410161513779
 20
0.5
 30
0.0
 11
48.42299942786002
 21
0.49999999999999
 31
0.0
  0
LINE
  5
FC
330
72
100
AcDbEntity
  8
0
  6
Continuous
 62
     7
100
AcDbLine
 10
48.46410161513779
 20
0.5
 30
0.0
 11
48.7527767497326
 21
0.0
 31
0.0
  0
LINE
  5
FD
330
72
100
AcDbEntity
  8
0
  6
Continuous
 62
     7
100
AcDbLine
 10
44.49282032302757
 20
0.50000000000002
 30
0.0
 11
46.47846096908268
 21
0.5
 31
0.0
  0
LINE
  5
FE
330
72
100
AcDbEntity
  8
0
  6
Continuous
 62
     7
100
AcDbLine
 10
44.05000000000003
 20
0.49999999999999
 30
0.0
 11
44.49282032302757
 21
0.50000000000002
 31
0.0
  0
LINE
  5
FF
330
72
100
AcDbEntity
  8
0
  6
Continuous
 62
     7
100
AcDbLine
 10
-48.42299942785998
 20
0.49999999999999
 30
0.0
 11
-48.46410161513778
 21
0.5
 31
0.0
  0
LINE
  5
100
330
72
100
AcDbEntity
  8
0
  6
Continuous
 62
     7
100
AcDbLine
 10
-48.46410161513778
 20
0.5
 30
0.0
 11
-48.75277674973258
 21
0.0
 31
0.0
  0
LINE
  5
101
330
72
100
AcDbEntity
  8
0
  6
Continuous
 62
     7
100
AcDbLine
 10
-44.49282032302747
 20
0.50000000000002
 30
0.0
 11
-44.04999999999997
 21
0.49999999999999
 31
0.0
  0
LINE
  5
102
330
72
100
AcDbEntity
  8
0
  6
Continuous
 62
     7
100
AcDbLine
 10
-48.42299942785998
 20
0.49999999999999
 30
0.0
 11
-46.47846096908268
 21
0.5
 31
0.0
  0
LINE
  5
103
330
72
100
AcDbEntity
  8
0
  6
Continuous
 62
     7
100
AcDbLine
 10
-46.47846096908268
 20
0.5
 30
0.0
 11
-44.49282032302747
 21
0.50000000000002
 31
0.0
  0
LINE
  5
104
330
72
100
AcDbEntity
  8
0
  6
Continuous
 62
     7
100
AcDbLine
 10
46.47846096908268
 20
0.5
 30
0.0
 11
48.42299942786002
 21
0.49999999999999
 31
0.0
  0
LINE
  5
105
330
72
100
AcDbEntity
  8
0
  6
Continuous
 62
     7
100
AcDbLine
 10
-44.04999999999997
 20
0.49999999999999
 30
0.0
 11
44.05000000000003
 21
0.49999999999999
 31
0.0
  0
LINE
  5
106
330
72
100
AcDbEntity
  8
0
  6
Continuous
 62
     7
100
AcDbLine
 10
-49.28717967697237
 20
-3.5
 30
0.0
 11
-49.42435935394488
 21
-3.0
 31
0.0
  0
LINE
  5
107
330
72
100
AcDbEntity
  8
0
  6
Continuous
 62
     7
100
AcDbLine
 10
49.42435935394489
 20
-3.0
 30
0.0
 11
55.00000000000011
 21
-3.0
 31
0.0
  0
LINE
  5
108
330
72
100
AcDbEntity
  8
0
  6
Continuous
 62
     7
100
AcDbLine
 10
49.28717967697247
 20
-3.49999999999999
 30
0.0
 11
49.42435935394489
 21
-3.0
 31
0.0
  0
LINE
  5
109
330
72
100
AcDbEntity
  8
0
  6
Continuous
 62
     7
100
AcDbLine
 10
39.70000000000003
 20
-3.0
 30
0.0
 11
49.42435935394489
 21
-3.0
 31
0.0
  0
LINE
  5
10A
330
72
100
AcDbEntity
  8
0
  6
Continuous
 62
     7
100
AcDbLine
 10
-39.69999999999997
 20
-3.0
 30
0.0
 11
39.70000000000003
 21
-3.0
 31
0.0
  0
LINE
  5
10B
330
72
100
AcDbEntity
  8
0
  6
Continuous
 62
     7
100
AcDbLine
 10
-49.42435935394488
 20
-3.0
 30
0.0
 11
-39.69999999999997
 21
-3.0
 31
0.0
  0
LINE
  5
10C
330
72
100
AcDbEntity
  8
0
  6
Continuous
 62
     7
100
AcDbLine
 10
55.00000000000011
 20
-3.0
 30
0.0
 11
55.00000000000011
 21
0.0
 31
0.0
  0
LINE
  5
10D
330
72
100
AcDbEntity
  8
0
  6
Continuous
 62
     7
100
AcDbLine
 10
-55.00000000000007
 20
-3.0
 30
0.0
 11
-55.00000000000007
 21
0.0
 31
0.0
  0
ENDBLK
  5
74
330
72
100
AcDbEntity
  8
0
100
AcDbBlockEnd
  0
BLOCK
  5
76
330
75
100
AcDbEntity
  8
0
100
AcDbBlockBegin
  2
HL522V_Körper
 70
     0
 10
19.06738181024733
 20
-25.69526567073385
 30
0.0
  3
HL522V_Körper
  1

  0
POINT
  5
10E
330
75
100
AcDbEntity
  8
1
 62
     3
 60
     1
100
AcDbPoint
 10
-42.99999999999987
 20
-45.4999999823508
 30
0.0
  0
POINT
  5
10F
330
75
100
AcDbEntity
  8
1
 62
     3
 60
     1
100
AcDbPoint
 10
-42.99999999999987
 20
-74.49999998235442
 30
0.0
  0
LINE
  5
110
330
75
100
AcDbEntity
  8
0
  6
Continuous
 62
     7
100
AcDbLine
 10
14.13206616622865
 20
-82.9999999823558
 30
0.0
 11
-40.99999999999982
 21
-82.9999999823558
 31
0.0
  0
LINE
  5
111
330
75
100
AcDbEntity
  8
0
  6
Continuous
 62
     3
100
AcDbLine
 10
15.00664822418567
 20
-80.9999999823558
 30
0.0
 11
-42.99999999999982
 21
-80.9999999823558
 31
0.0
  0
LINE
  5
112
330
75
100
AcDbEntity
  8
0
  6
Continuous
 62
     7
100
AcDbLine
 10
27.2586219625296
 20
-72.74137801982499
 30
0.0
 11
17.66760007216017
 21
-81.53553388828732
 31
0.0
  0
LINE
  5
113
330
75
100
AcDbEntity
  8
0
  6
Continuous
 62
     3
100
AcDbLine
 10
33.65583728300062
 20
-65.08112335524129
 30
0.0
 11
17.23144765831985
 21
-80.12132027870393
 31
0.0
  0
LINE
  5
114
330
75
100
AcDbEntity
  8
0
  6
Continuous
 62
     7
100
AcDbLine
 10
33.5362735686688
 20
-66.46372641368629
 30
0.0
 11
27.2586219625296
 21
-72.74137801982499
 31
0.0
  0
LINE
  5
115
330
75
100
AcDbEntity
  8
0
  6
Continuous
 62
     7
100
AcDbLine
 10
-6.89999999999772
 20
-25.74999999999999
 30
0.0
 11
-6.89999999999772
 21
-25.24999999999999
 31
0.0
  0
LINE
  5
116
330
75
100
AcDbEntity
  8
0
  6
Continuous
 62
     7
100
AcDbLine
 10
7.10000000000228
 20
-25.74999999999999
 30
0.0
 11
14.10000000000228
 21
-25.74999999999999
 31
0.0
  0
LINE
  5
117
330
75
100
AcDbEntity
  8
0
  6
Continuous
 62
     7
100
AcDbLine
 10
7.10000000000228
 20
-25.74999999999999
 30
0.0
 11
7.10000000000228
 21
-25.24999999999999
 31
0.0
  0
LINE
  5
118
330
75
100
AcDbEntity
  8
0
  6
Continuous
 62
     7
100
AcDbLine
 10
7.10000000000228
 20
-25.24999999999999
 30
0.0
 11
14.10000000000228
 21
-25.24999999999999
 31
0.0
  0
LINE
  5
119
330
75
100
AcDbEntity
  8
0
  6
Continuous
 62
     7
100
AcDbLine
 10
-13.89999999999772
 20
-25.74999999999999
 30
0.0
 11
-13.89999999999772
 21
-25.24999999999999
 31
0.0
  0
LINE
  5
11A
330
75
100
AcDbEntity
  8
0
  6
Continuous
 62
     7
100
AcDbLine
 10
14.10000000000228
 20
-25.74999999999999
 30
0.0
 11
14.10000000000228
 21
-25.24999999999999
 31
0.0
  0
LINE
  5
11B
330
75
100
AcDbEntity
  8
0
  6
Continuous
 62
     7
100
AcDbLine
 10
-13.89999999999772
 20
-25.74999999999999
 30
0.0
 11
-6.89999999999772
 21
-25.74999999999999
 31
0.0
  0
LINE
  5
11C
330
75
100
AcDbEntity
  8
0
  6
Continuous
 62
     7
100
AcDbLine
 10
-13.89999999999772
 20
-25.24999999999999
 30
0.0
 11
-6.89999999999772
 21
-25.24999999999999
 31
0.0
  0
LINE
  5
11D
330
75
100
AcDbEntity
  8
0
  6
Continuous
 62
     7
100
AcDbLine
 10
0.35000000000228
 20
-28.49999999999999
 30
0.0
 11
0.35000000000228
 21
-22.5
 31
0.0
  0
LINE
  5
11E
330
75
100
AcDbEntity
  8
0
  6
Continuous
 62
     7
100
AcDbLine
 10
-0.64999999999772
 20
-28.49999999999999
 30
0.0
 11
-0.64999999999772
 21
-25.99999999999999
 31
0.0
  0
LINE
  5
11F
330
75
100
AcDbEntity
  8
0
  6
Continuous
 62
     7
100
AcDbLine
 10
-3.64999999999772
 20
-24.99999999999999
 30
0.0
 11
-3.64999999999772
 21
-22.5
 31
0.0
  0
LINE
  5
120
330
75
100
AcDbEntity
  8
0
  6
Continuous
 62
     7
100
AcDbLine
 10
-0.64999999999772
 20
-24.99999999999999
 30
0.0
 11
-0.64999999999772
 21
-22.5
 31
0.0
  0
LINE
  5
121
330
75
100
AcDbEntity
  8
0
  6
Continuous
 62
     7
100
AcDbLine
 10
-3.64999999999772
 20
-24.99999999999999
 30
0.0
 11
-0.64999999999772
 21
-24.99999999999999
 31
0.0
  0
LINE
  5
122
330
75
100
AcDbEntity
  8
0
  6
Continuous
 62
     7
100
AcDbLine
 10
-3.64999999999772
 20
-25.99999999999999
 30
0.0
 11
-0.64999999999772
 21
-25.99999999999999
 31
0.0
  0
LINE
  5
123
330
75
100
AcDbEntity
  8
0
  6
Continuous
 62
     7
100
AcDbLine
 10
-3.64999999999772
 20
-28.49999999999999
 30
0.0
 11
-3.64999999999772
 21
-25.99999999999999
 31
0.0
  0
LINE
  5
124
330
75
100
AcDbEntity
  8
0
  6
Continuous
 62
     7
100
AcDbLine
 10
2.35000000000228
 20
-28.99999999999999
 30
0.0
 11
5.35000000000228
 21
-28.99999999999999
 31
0.0
  0
LINE
  5
125
330
75
100
AcDbEntity
  8
0
  6
Continuous
 62
     7
100
AcDbLine
 10
1.85000000000228
 20
-28.49999999999999
 30
0.0
 11
1.85000000000228
 21
-22.5
 31
0.0
  0
LINE
  5
126
330
75
100
AcDbEntity
  8
0
  6
Continuous
 62
     7
100
AcDbLine
 10
3.35000000000228
 20
-27.99999999999999
 30
0.0
 11
5.35000000000228
 21
-27.99999999999999
 31
0.0
  0
LINE
  5
127
330
75
100
AcDbEntity
  8
0
  6
Continuous
 62
     7
100
AcDbLine
 10
2.85000000000228
 20
-27.49999999999999
 30
0.0
 11
2.85000000000228
 21
-22.5
 31
0.0
  0
LINE
  5
128
330
75
100
AcDbEntity
  8
0
  6
Continuous
 62
     7
100
AcDbLine
 10
-4.64999999999772
 20
-28.49999999999999
 30
0.0
 11
-4.64999999999772
 21
-22.5
 31
0.0
  0
LINE
  5
129
330
75
100
AcDbEntity
  8
1
  6
PHANTOM
 62
     2
100
AcDbLine
 10
-37.39667428721557
 20
-59.99999998235262
 30
0.0
 11
-53.11192278825358
 21
-59.99999998235262
 31
0.0
  0
LINE
  5
12A
330
75
100
AcDbEntity
  8
0
  6
Continuous
 62
     7
100
AcDbLine
 10
-42.99999999999987
 20
-74.49999998235442
 30
0.0
 11
-42.99999999999982
 21
-80.9999999823558
 31
0.0
  0
LINE
  5
12B
330
75
100
AcDbEntity
  8
0
  6
Continuous
 62
     7
100
AcDbLine
 10
-42.99999999999997
 20
-41.49999999999999
 30
0.0
 11
-42.99999999999987
 21
-45.4999999823508
 31
0.0
  0
LINE
  5
12C
330
75
100
AcDbEntity
  8
0
  6
Continuous
 62
     7
100
AcDbLine
 10
-42.99999999999997
 20
-41.49999999999999
 30
0.0
 11
30.28502226216449
 21
-41.49999999999999
 31
0.0
  0
LINE
  5
12D
330
75
100
AcDbEntity
  8
1
  6
Continuous
 62
     7
100
AcDbLine
 10
-42.99999999999987
 20
-45.4999999823508
 30
0.0
 11
-49.99999999999987
 21
-45.4999999823508
 31
0.0
  0
LINE
  5
12E
330
75
100
AcDbEntity
  8
1
  6
Continuous
 62
     7
100
AcDbLine
 10
-49.99999999999987
 20
-74.49999998235442
 30
0.0
 11
-42.99999999999987
 21
-74.49999998235442
 31
0.0
  0
LINE
  5
12F
330
75
100
AcDbEntity
  8
0
  6
Continuous
 62
     7
100
AcDbLine
 10
92.9883170110881
 20
-23.21266773497659
 30
0.0
 11
35.71266773497635
 21
-80.48831701108557
 31
0.0
  0
LINE
  5
130
330
75
100
AcDbEntity
  8
0
  6
Continuous
 62
     7
100
AcDbLine
 10
-55.00000000000017
 20
-3.5
 30
0.0
 11
-55.00000000000007
 21
-5.5
 31
0.0
  0
LINE
  5
131
330
75
100
AcDbEntity
  8
0
  6
Continuous
 62
     7
100
AcDbLine
 10
39.20000000000003
 20
-5.5
 30
0.0
 11
55.00000000000018
 21
-5.5
 31
0.0
  0
LINE
  5
132
330
75
100
AcDbEntity
  8
0
  6
Continuous
 62
     7
100
AcDbLine
 10
17.9174243050442
 20
-5.5
 30
0.0
 11
37.70000000000003
 21
-5.5
 31
0.0
  0
LINE
  5
133
330
75
100
AcDbEntity
  8
0
  6
Continuous
 62
     7
100
AcDbLine
 10
-39.19999999999997
 20
-5.5
 30
0.0
 11
-37.69999999999997
 21
-5.5
 31
0.0
  0
LINE
  5
134
330
75
100
AcDbEntity
  8
0
  6
Continuous
 62
     7
100
AcDbLine
 10
-55.00000000000007
 20
-5.5
 30
0.0
 11
-39.19999999999997
 21
-5.5
 31
0.0
  0
LINE
  5
135
330
75
100
AcDbEntity
  8
0
  6
Continuous
 62
     7
100
AcDbLine
 10
-17.91742430504414
 20
-5.5
 30
0.0
 11
-17.49999999999997
 21
-5.5
 31
0.0
  0
LINE
  5
136
330
75
100
AcDbEntity
  8
0
  6
Continuous
 62
     7
100
AcDbLine
 10
-37.69999999999997
 20
-5.5
 30
0.0
 11
-17.91742430504414
 21
-5.5
 31
0.0
  0
LINE
  5
137
330
75
100
AcDbEntity
  8
0
  6
Continuous
 62
     7
100
AcDbLine
 10
17.50000000000003
 20
-5.5
 30
0.0
 11
17.9174243050442
 21
-5.5
 31
0.0
  0
LINE
  5
138
330
75
100
AcDbEntity
  8
0
  6
Continuous
 62
     7
100
AcDbLine
 10
-17.49999999999997
 20
-5.5
 30
0.0
 11
17.50000000000003
 21
-5.5
 31
0.0
  0
LINE
  5
139
330
75
100
AcDbEntity
  8
0
  6
Continuous
 62
     7
100
AcDbLine
 10
37.70000000000003
 20
-5.5
 30
0.0
 11
39.20000000000003
 21
-5.5
 31
0.0
  0
LINE
  5
13A
330
75
100
AcDbEntity
  8
0
  6
Continuous
 62
     7
100
AcDbLine
 10
-50.00000000000007
 20
-9.49999999999997
 30
0.0
 11
-45.00000000000007
 21
-14.50000000000005
 31
0.0
  0
LINE
  5
13B
330
75
100
AcDbEntity
  8
0
  6
Continuous
 62
     7
100
AcDbLine
 10
50.0000000000001
 20
-9.49999999999997
 30
0.0
 11
45.00000000000009
 21
-14.50000000000004
 31
0.0
  0
LINE
  5
13C
330
75
100
AcDbEntity
  8
0
  6
Continuous
 62
     7
100
AcDbLine
 10
1.00000000000003
 20
-9.49999999999998
 30
0.0
 11
1.00000000000003
 21
-10.5
 31
0.0
  0
LINE
  5
13D
330
75
100
AcDbEntity
  8
0
  6
Continuous
 62
     7
100
AcDbLine
 10
49.29289321881355
 20
-9.49999999999998
 30
0.0
 11
44.98888751680806
 21
-13.80400570200552
 31
0.0
  0
LINE
  5
13E
330
75
100
AcDbEntity
  8
0
  6
Continuous
 62
     7
100
AcDbLine
 10
-0.99999999999997
 20
-9.49999999999998
 30
0.0
 11
-0.99999999999997
 21
-10.5
 31
0.0
  0
LINE
  5
13F
330
75
100
AcDbEntity
  8
0
  6
Continuous
 62
     7
100
AcDbLine
 10
0.50000000000003
 20
-9.49999999999999
 30
0.0
 11
0.50000000000095
 21
-14.50277786346104
 31
0.0
  0
LINE
  5
140
330
75
100
AcDbEntity
  8
0
  6
Continuous
 62
     7
100
AcDbLine
 10
-0.49999999999997
 20
-9.49999999999999
 30
0.0
 11
-0.49999999999999
 21
-14.50277786351701
 31
0.0
  0
LINE
  5
141
330
75
100
AcDbEntity
  8
0
  6
Continuous
 62
     7
100
AcDbLine
 10
-50.00000000000007
 20
-9.49999999999997
 30
0.0
 11
-49.29289321881348
 21
-9.49999999999998
 31
0.0
  0
LINE
  5
142
330
75
100
AcDbEntity
  8
0
  6
Continuous
 62
     7
100
AcDbLine
 10
-51.00000000000007
 20
-9.5
 30
0.0
 11
-50.00000000000007
 21
-9.49999999999997
 31
0.0
  0
LINE
  5
143
330
75
100
AcDbEntity
  8
0
  6
Continuous
 62
     7
100
AcDbLine
 10
50.0000000000001
 20
-9.49999999999997
 30
0.0
 11
51.00000000000017
 21
-9.5
 31
0.0
  0
LINE
  5
144
330
75
100
AcDbEntity
  8
0
  6
Continuous
 62
     7
100
AcDbLine
 10
0.50000000000003
 20
-9.49999999999999
 30
0.0
 11
1.00000000000003
 21
-9.49999999999998
 31
0.0
  0
LINE
  5
145
330
75
100
AcDbEntity
  8
0
  6
Continuous
 62
     7
100
AcDbLine
 10
-0.49999999999997
 20
-9.49999999999999
 30
0.0
 11
0.50000000000003
 21
-9.49999999999999
 31
0.0
  0
LINE
  5
146
330
75
100
AcDbEntity
  8
0
  6
Continuous
 62
     7
100
AcDbLine
 10
-0.99999999999997
 20
-9.49999999999998
 30
0.0
 11
-0.49999999999997
 21
-9.49999999999999
 31
0.0
  0
LINE
  5
147
330
75
100
AcDbEntity
  8
0
  6
Continuous
 62
     7
100
AcDbLine
 10
-15.48999999999998
 20
-9.5
 30
0.0
 11
-0.99999999999997
 21
-9.49999999999998
 31
0.0
  0
LINE
  5
148
330
75
100
AcDbEntity
  8
0
  6
Continuous
 62
     7
100
AcDbLine
 10
45.98912915026774
 20
-9.5
 30
0.0
 11
49.29289321881355
 21
-9.49999999999998
 31
0.0
  0
LINE
  5
149
330
75
100
AcDbEntity
  8
0
  6
Continuous
 62
     7
100
AcDbLine
 10
17.50000000003649
 20
-9.5
 30
0.0
 11
45.98912915026774
 21
-9.5
 31
0.0
  0
LINE
  5
14A
330
75
100
AcDbEntity
  8
0
  6
Continuous
 62
     7
100
AcDbLine
 10
1.00000000000003
 20
-9.49999999999998
 30
0.0
 11
15.49000000000003
 21
-9.5
 31
0.0
  0
LINE
  5
14B
330
75
100
AcDbEntity
  8
0
  6
Continuous
 62
     7
100
AcDbLine
 10
15.49000000000003
 20
-9.5
 30
0.0
 11
17.50000000003649
 21
-9.5
 31
0.0
  0
LINE
  5
14C
330
75
100
AcDbEntity
  8
0
  6
Continuous
 62
     7
100
AcDbLine
 10
49.29289321881355
 20
-9.49999999999998
 30
0.0
 11
50.0000000000001
 21
-9.49999999999997
 31
0.0
  0
LINE
  5
14D
330
75
100
AcDbEntity
  8
0
  6
Continuous
 62
     7
100
AcDbLine
 10
-45.00000000000007
 20
-40.99999999999999
 30
0.0
 11
32.25203821672466
 21
-40.99999999999999
 31
0.0
  0
LINE
  5
14E
330
75
100
AcDbEntity
  8
0
  6
Continuous
 62
     7
100
AcDbLine
 10
-44.98888751680798
 20
-13.80400570200552
 30
0.0
 11
-44.98888751680798
 21
-10.5
 31
0.0
  0
LINE
  5
14F
330
75
100
AcDbEntity
  8
0
  6
Continuous
 62
     7
100
AcDbLine
 10
30.28502226216449
 20
-41.49999999999999
 30
0.0
 11
31.81917501967068
 21
-41.49999999999999
 31
0.0
  0
LINE
  5
150
330
75
100
AcDbEntity
  8
0
  6
Continuous
 62
     7
100
AcDbLine
 10
-44.50000000000007
 20
-41.49999999999999
 30
0.0
 11
-42.99999999999997
 21
-41.49999999999999
 31
0.0
  0
LINE
  5
151
330
75
100
AcDbEntity
  8
0
  6
Continuous
 62
     7
100
AcDbLine
 10
44.97907171013001
 20
-18.5
 30
0.0
 11
29.96837902863574
 21
-18.5
 31
0.0
  0
LINE
  5
152
330
75
100
AcDbEntity
  8
0
  6
Continuous
 62
     7
100
AcDbLine
 10
44.98888751680806
 20
-13.80400570200552
 30
0.0
 11
44.98888751680806
 21
-10.5
 31
0.0
  0
LINE
  5
153
330
75
100
AcDbEntity
  8
0
  6
Continuous
 62
     7
100
AcDbLine
 10
1.00000000000003
 20
-10.5
 30
0.0
 11
1.00000000000003
 21
-13.80400570200552
 31
0.0
  0
LINE
  5
154
330
75
100
AcDbEntity
  8
0
  6
Continuous
 62
     7
100
AcDbLine
 10
-0.99999999999997
 20
-10.5
 30
0.0
 11
-0.99999999999997
 21
-13.80400570200552
 31
0.0
  0
LINE
  5
155
330
75
100
AcDbEntity
  8
0
  6
Continuous
 62
     7
100
AcDbLine
 10
45.00000000000009
 20
-14.50000000000004
 30
0.0
 11
44.99722213651111
 21
-14.50277786346104
 31
0.0
  0
LINE
  5
156
330
75
100
AcDbEntity
  8
0
  6
Continuous
 62
     7
100
AcDbLine
 10
45.00000000000009
 20
-18.0
 30
0.0
 11
45.00000000000009
 21
-14.50000000000004
 31
0.0
  0
LINE
  5
157
330
75
100
AcDbEntity
  8
0
  6
Continuous
 62
     7
100
AcDbLine
 10
35.00556095378981
 20
-80.48831701108557
 30
0.0
 11
27.2586219625296
 21
-72.74137801982499
 31
0.0
  0
LINE
  5
158
330
75
100
AcDbEntity
  8
0
  6
Continuous
 62
     7
100
AcDbLine
 10
36.71195994147546
 20
-60.3971417125486
 30
0.0
 11
35.21790758857308
 21
-61.89119406545088
 31
0.0
  0
LINE
  5
159
330
75
100
AcDbEntity
  8
0
  6
Continuous
 62
     7
100
AcDbLine
 10
81.67460851210268
 20
-15.43449314192347
 30
0.0
 11
78.7555482634328
 21
-18.35355339059326
 31
0.0
  0
LINE
  5
15A
330
75
100
AcDbEntity
  8
0
  6
Continuous
 62
     7
100
AcDbLine
 10
81.67460851210268
 20
-15.43449314192347
 30
0.0
 11
85.91724919922197
 21
-15.43449314192356
 31
0.0
  0
LINE
  5
15B
330
75
100
AcDbEntity
  8
0
  6
Continuous
 62
     7
100
AcDbLine
 10
92.9883170110881
 20
-22.50556095379003
 30
0.0
 11
35.00556095378981
 21
-80.48831701108557
 31
0.0
  0
LINE
  5
15C
330
75
100
AcDbEntity
  8
0
  6
Continuous
 62
     7
100
AcDbLine
 10
92.9883170110881
 20
-22.50556095379003
 30
0.0
 11
85.91724919922197
 21
-15.43449314192356
 31
0.0
  0
LINE
  5
15D
330
75
100
AcDbEntity
  8
0
  6
Continuous
 62
     7
100
AcDbLine
 10
85.91724919922197
 20
-15.43449314192356
 30
0.0
 11
34.78522954620457
 21
-66.5665127515457
 31
0.0
  0
LINE
  5
15E
330
75
100
AcDbEntity
  8
0
  6
Continuous
 62
     7
100
AcDbLine
 10
44.9990218466328
 20
-17.99999999999998
 30
0.0
 11
45.00000000000009
 21
-18.0
 31
0.0
  0
LINE
  5
15F
330
75
100
AcDbEntity
  8
0
  6
Continuous
 62
     7
100
AcDbLine
 10
66.89589821842856
 20
-30.21320343559693
 30
0.0
 11
36.71195994147546
 21
-60.3971417125486
 31
0.0
  0
LINE
  5
160
330
75
100
AcDbEntity
  8
0
  6
Continuous
 62
     7
100
AcDbLine
 10
78.287808523877
 20
-18.82129313014903
 30
0.0
 11
66.89589821842856
 21
-30.21320343559693
 31
0.0
  0
LINE
  5
161
330
75
100
AcDbEntity
  8
0
  6
Continuous
 62
     7
100
AcDbLine
 10
78.60910165402605
 20
-18.5
 30
0.0
 11
78.287808523877
 21
-18.82129313014903
 31
0.0
  0
LINE
  5
162
330
75
100
AcDbEntity
  8
0
  6
Continuous
 62
     7
100
AcDbLine
 10
78.7555482634328
 20
-18.35355339059326
 30
0.0
 11
78.60910165402605
 21
-18.5
 31
0.0
  0
LINE
  5
163
330
75
100
AcDbEntity
  8
0
  6
Continuous
 62
     7
100
AcDbLine
 10
78.60910165402605
 20
-18.5
 30
0.0
 11
78.4019948728395
 21
-18.5
 31
0.0
  0
LINE
  5
164
330
75
100
AcDbEntity
  8
0
  6
Continuous
 62
     7
100
AcDbLine
 10
78.4019948728395
 20
-18.5
 30
0.0
 11
45.50000000000009
 21
-18.5
 31
0.0
  0
LINE
  5
165
330
75
100
AcDbEntity
  8
0
  6
Continuous
 62
     7
100
AcDbLine
 10
78.287808523877
 20
-18.82129313014903
 30
0.0
 11
28.86025968756126
 21
-19.54603721697467
 31
0.0
  0
LINE
  5
166
330
75
100
AcDbEntity
  8
0
  6
Continuous
 62
     7
100
AcDbLine
 10
31.66920152075143
 20
-38.49999999999998
 30
0.0
 11
31.81111036569964
 21
-38.50000000000003
 31
0.0
  0
LINE
  5
167
330
75
100
AcDbEntity
  8
0
  6
Continuous
 62
     7
100
AcDbLine
 10
34.35832763319767
 20
-61.64415176191561
 30
0.0
 11
35.94049351401286
 21
-60.04358838958403
 31
0.0
  0
LINE
  5
168
330
75
100
AcDbEntity
  8
0
  6
Continuous
 62
     7
100
AcDbLine
 10
36.77731091954209
 20
-60.04894802487286
 30
0.0
 11
64.30907301006397
 21
-32.51718593148674
 31
0.0
  0
LINE
  5
169
330
75
100
AcDbEntity
  8
0
  6
Continuous
 62
     7
100
AcDbLine
 10
45.50000000000009
 20
-18.5
 30
0.0
 11
45.49901097826204
 21
-18.5
 31
0.0
  0
LINE
  5
16A
330
75
100
AcDbEntity
  8
0
  6
Continuous
 62
     7
100
AcDbLine
 10
45.49901097826204
 20
-18.5
 30
0.0
 11
44.97907171013001
 21
-18.5
 31
0.0
  0
LINE
  5
16B
330
75
100
AcDbEntity
  8
0
  6
Continuous
 62
     7
100
AcDbLine
 10
-45.00000000000007
 20
-14.50000000000005
 30
0.0
 11
-44.99722213651107
 21
-14.50277786346104
 31
0.0
  0
LINE
  5
16C
330
75
100
AcDbEntity
  8
0
  6
Continuous
 62
     7
100
AcDbLine
 10
-45.00000000000007
 20
-40.99999999999999
 30
0.0
 11
-45.00000000000007
 21
-14.50000000000005
 31
0.0
  0
LINE
  5
16D
330
75
100
AcDbEntity
  8
0
  6
Continuous
 62
     7
100
AcDbLine
 10
-17.49999999999997
 20
-3.5
 30
0.0
 11
-55.00000000000017
 21
-3.5
 31
0.0
  0
LINE
  5
16E
330
75
100
AcDbEntity
  8
0
  6
Continuous
 62
     7
100
AcDbLine
 10
13.50000000000003
 20
-3.5
 30
0.0
 11
-13.49999999999997
 21
-3.5
 31
0.0
  0
LINE
  5
16F
330
75
100
AcDbEntity
  8
0
  6
Continuous
 62
     7
100
AcDbLine
 10
17.50000000000003
 20
-3.5
 30
0.0
 11
13.50000000000003
 21
-3.5
 31
0.0
  0
LINE
  5
170
330
75
100
AcDbEntity
  8
0
  6
Continuous
 62
     7
100
AcDbLine
 10
55.0000000000002
 20
-3.5
 30
0.0
 11
17.50000000000003
 21
-3.5
 31
0.0
  0
LINE
  5
171
330
75
100
AcDbEntity
  8
0
  6
Continuous
 62
     7
100
AcDbLine
 10
-13.49999999999997
 20
-3.5
 30
0.0
 11
-17.49999999999997
 21
-3.5
 31
0.0
  0
LINE
  5
172
330
75
100
AcDbEntity
  8
0
  6
Continuous
 62
     7
100
AcDbLine
 10
-45.98912915026767
 20
-9.5
 30
0.0
 11
-17.49999999999997
 21
-9.5
 31
0.0
  0
LINE
  5
173
330
75
100
AcDbEntity
  8
0
  6
Continuous
 62
     7
100
AcDbLine
 10
-17.49999999999997
 20
-9.5
 30
0.0
 11
-15.48999999999998
 21
-9.5
 31
0.0
  0
LINE
  5
174
330
75
100
AcDbEntity
  8
0
  6
Continuous
 62
     7
100
AcDbLine
 10
55.0000000000002
 20
-3.5
 30
0.0
 11
55.00000000000018
 21
-5.5
 31
0.0
  0
LINE
  5
175
330
75
100
AcDbEntity
  8
0
  6
Continuous
 62
     7
100
AcDbLine
 10
-49.29289321881348
 20
-9.49999999999998
 30
0.0
 11
-44.98888751680798
 21
-13.80400570200552
 31
0.0
  0
LINE
  5
176
330
75
100
AcDbEntity
  8
0
  6
Continuous
 62
     7
100
AcDbLine
 10
-49.29289321881348
 20
-9.49999999999998
 30
0.0
 11
-45.98912915026767
 21
-9.5
 31
0.0
  0
LINE
  5
177
330
75
100
AcDbEntity
  8
0
  6
Continuous
 62
     7
100
AcDbLine
 10
-44.98888751680798
 20
-10.5
 30
0.0
 11
-0.99999999999997
 21
-10.5
 31
0.0
  0
LINE
  5
178
330
75
100
AcDbEntity
  8
0
  6
Continuous
 62
     7
100
AcDbLine
 10
1.00000000000003
 20
-10.5
 30
0.0
 11
44.98888751680806
 21
-10.5
 31
0.0
  0
LINE
  5
179
330
75
100
AcDbEntity
  8
1
  6
PHANTOM
 62
     2
100
AcDbLine
 10
-0.00000000000007
 20
32.36991365025867
 30
0.0
 11
0.0000000000002
 21
-83.76044499172637
 31
0.0
  0
LINE
  5
17A
330
75
100
AcDbEntity
  8
1
  6
PHANTOM
 62
     2
100
AcDbLine
 10
63.99693898243896
 20
-51.49693898243781
 30
0.0
 11
56.24999999117873
 21
-43.74999999117722
 31
0.0
  0
ARC
  5
17B
330
75
100
AcDbEntity
  8
0
  6
Continuous
 62
     7
100
AcDbCircle
 10
-40.99999999999982
 20
-80.9999999823558
 30
0.0
 40
2.0
100
AcDbArc
 50
180.0
 51
270.0
  0
ARC
  5
17C
330
75
100
AcDbEntity
  8
0
  6
Continuous
 62
     7
100
AcDbCircle
 10
14.13206616622865
 20
-77.9999999823558
 30
0.0
 40
5.0
100
AcDbArc
 50
270.0
 51
315.0000000000001
  0
ARC
  5
17D
330
75
100
AcDbEntity
  8
0
  6
Continuous
 62
     7
100
AcDbCircle
 10
-0.14999999999772
 20
-28.49999999999999
 30
0.0
 40
0.5
100
AcDbArc
 50
180.0
 51
0.0
  0
ARC
  5
17E
330
75
100
AcDbEntity
  8
0
  6
Continuous
 62
     7
100
AcDbCircle
 10
-4.14999999999772
 20
-22.5
 30
0.0
 40
0.4999999999999996
100
AcDbArc
 50
0.0
 51
180.0
  0
ARC
  5
17F
330
75
100
AcDbEntity
  8
0
  6
Continuous
 62
     7
100
AcDbCircle
 10
-0.14999999999772
 20
-22.5
 30
0.0
 40
0.5
100
AcDbArc
 50
0.0
 51
180.0
  0
ARC
  5
180
330
75
100
AcDbEntity
  8
0
  6
Continuous
 62
     7
100
AcDbCircle
 10
2.35000000000228
 20
-22.5
 30
0.0
 40
0.5
100
AcDbArc
 50
0.0
 51
180.0
  0
ARC
  5
181
330
75
100
AcDbEntity
  8
0
  6
Continuous
 62
     7
100
AcDbCircle
 10
-4.14999999999772
 20
-28.49999999999999
 30
0.0
 40
0.5
100
AcDbArc
 50
180.0
 51
0.0
  0
ARC
  5
182
330
75
100
AcDbEntity
  8
0
  6
Continuous
 62
     7
100
AcDbCircle
 10
2.35000000000228
 20
-28.49999999999999
 30
0.0
 40
0.4999999999999998
100
AcDbArc
 50
180.0
 51
270.0
  0
ARC
  5
183
330
75
100
AcDbEntity
  8
0
  6
Continuous
 62
     7
100
AcDbCircle
 10
3.35000000000228
 20
-27.49999999999999
 30
0.0
 40
0.5
100
AcDbArc
 50
180.0
 51
270.0
  0
ARC
  5
184
330
75
100
AcDbEntity
  8
0
  6
Continuous
 62
     7
100
AcDbCircle
 10
5.35000000000228
 20
-28.49999999999999
 30
0.0
 40
0.5
100
AcDbArc
 50
270.0
 51
90.0
  0
ARC
  5
185
330
75
100
AcDbEntity
  8
1
  6
Continuous
 62
     7
100
AcDbCircle
 10
-119.6403940490909
 20
-59.99999998235262
 30
0.0
 40
78.0
100
AcDbArc
 50
349.2865406446581
 51
10.71345935534185
  0
ARC
  5
186
330
75
100
AcDbEntity
  8
0
  6
Continuous
 62
     7
100
AcDbCircle
 10
-44.50000000000007
 20
-40.99999999999999
 30
0.0
 40
0.5
100
AcDbArc
 50
180.0
 51
270.0
  0
ARC
  5
187
330
75
100
AcDbEntity
  8
0
  6
Continuous
 62
     7
100
AcDbCircle
 10
0.00000000251896
 20
-59.50000000000058
 30
0.0
 40
45.00000000002851
100
AcDbArc
 50
89.363367130939
 51
90.63663287547466
  0
ARC
  5
188
330
75
100
AcDbEntity
  8
0
  6
Continuous
 62
     7
100
AcDbCircle
 10
45.50000048908137
 20
-18.00000049005014
 30
0.0
 40
0.5000004890815205
100
AcDbArc
 50
179.9999438444453
 51
269.8866104494376
  0
ARC
  5
189
330
75
100
AcDbEntity
  8
0
  6
Continuous
 62
     7
100
AcDbCircle
 10
78.40199487283952
 20
-18.0
 30
0.0
 40
0.5
100
AcDbArc
 50
269.9999999999968
 51
315.0000000000014
  0
ARC
  5
18A
330
75
100
AcDbEntity
  8
0
  6
Continuous
 62
     7
100
AcDbCircle
 10
45.68269478283264
 20
-9.0
 30
0.0
 40
29.99999999999993
100
AcDbArc
 50
308.3803722047155
 51
314.9999999999986
  0
ARC
  5
18B
330
75
100
AcDbEntity
  8
0
  6
Continuous
 62
     7
100
AcDbCircle
 10
-51.00000000000007
 20
-5.5
 30
0.0
 40
4.0
100
AcDbArc
 50
180.0
 51
270.0
  0
ARC
  5
18C
330
75
100
AcDbEntity
  8
0
  6
Continuous
 62
     7
100
AcDbCircle
 10
35.35911434438308
 20
-80.1347636204923
 30
0.0
 40
0.499999999999999
100
AcDbArc
 50
225.0000000000006
 51
314.9999999999994
  0
ARC
  5
18D
330
75
100
AcDbEntity
  8
0
  6
Continuous
 62
     7
100
AcDbCircle
 10
92.63476362049481
 20
-22.85911434438331
 30
0.0
 40
0.5000000000000165
100
AcDbArc
 50
315.0000000000009
 51
44.99999999999914
  0
ARC
  5
18E
330
75
100
AcDbEntity
  8
0
  6
Continuous
 62
     7
100
AcDbCircle
 10
51.00000000000017
 20
-5.5
 30
0.0
 40
4.000000000000001
100
AcDbArc
 50
270.0
 51
0.0
  0
SPLINE
  5
18F
330
75
100
AcDbEntity
  8
0
  6
Continuous
 62
     3
100
AcDbSpline
210
0.0
220
0.0
230
1.0
 70
     8
 71
     3
 72
     9
 73
     5
 74
     3
 42
0.0000000001
 43
0.0000000001
 44
0.00000001
 40
0.0
 40
0.0
 40
0.0
 40
0.0
 40
1.210955786833564
 40
2.436022160934473
 40
2.436022160934473
 40
2.436022160934473
 40
2.436022160934473
 10
15.00664822418567
 20
-80.9999999823558
 30
0.0
 10
15.41734072214963
 20
-80.96119589915119
 30
0.0
 10
16.2435112869609
 20
-80.88313557056705
 30
0.0
 10
16.90086629796184
 20
-80.37623744020009
 30
0.0
 10
17.23144765831985
 20
-80.12132027870393
 30
0.0
 11
15.00664822418567
 21
-80.9999999823558
 31
0.0
 11
16.19700934315394
 21
-80.77761670035306
 31
0.0
 11
17.23144765831985
 21
-80.12132027870393
 31
0.0
  0
SPLINE
  5
190
330
75
100
AcDbEntity
  8
0
  6
Continuous
 62
     3
100
AcDbSpline
210
0.0
220
0.0
230
1.0
 70
     8
 71
     3
 72
    11
 73
     7
 74
     5
 42
0.0000000001
 43
0.0000000001
 44
0.00000001
 40
0.0
 40
0.0
 40
0.0
 40
0.0
 40
0.3676865967766977
 40
0.8858247557120437
 40
1.561801498224749
 40
2.330058357357245
 40
2.330058357357245
 40
2.330058357357245
 40
2.330058357357245
 10
14.13206616622865
 20
-82.9999999823558
 30
0.0
 10
14.25211956364456
 20
-82.96006172863324
 30
0.0
 10
14.54135031714665
 20
-82.86384311702899
 30
0.0
 10
14.79062933115186
 20
-82.36237082504225
 30
0.0
 10
14.97337351881544
 20
-81.74243173664343
 30
0.0
 10
14.99509404074874
 20
-81.25779918998211
 30
0.0
 10
15.00664822418567
 20
-80.9999999823558
 30
0.0
 11
14.13206616622865
 21
-82.9999999823558
 31
0.0
 11
14.46675426399364
 21
-82.84775901985331
 31
0.0
 11
14.75048904712567
 21
-82.41421349215648
 31
0.0
 11
14.94007461704135
 21
-81.76536692470171
 31
0.0
 11
15.00664822418567
 21
-80.9999999823558
 31
0.0
  0
SPLINE
  5
191
330
75
100
AcDbEntity
  8
0
  6
Continuous
 62
     3
100
AcDbSpline
210
0.0
220
0.0
230
1.0
 70
     8
 71
     3
 72
     9
 73
     5
 74
     3
 42
0.0000000001
 43
0.0000000001
 44
0.00000001
 40
0.0
 40
0.0
 40
0.0
 40
0.0
 40
0.9785297205511968
 40
1.5367019375753
 40
1.5367019375753
 40
1.5367019375753
 40
1.5367019375753
 10
17.23144765831985
 20
-80.12132027870393
 30
0.0
 10
17.44551687390819
 20
-80.39438696039231
 30
0.0
 10
17.78169529696572
 20
-80.82321614158613
 30
0.0
 10
17.69800036348161
 20
-81.34573920538053
 30
0.0
 10
17.66760007216017
 20
-81.53553388828732
 30
0.0
 11
17.23144765831985
 21
-80.12132027870393
 31
0.0
 11
17.70340532061267
 21
-80.97851126034402
 31
0.0
 11
17.66760007216017
 21
-81.53553388828732
 31
0.0
  0
SPLINE
  5
192
330
75
100
AcDbEntity
  8
0
  6
Continuous
 62
     7
100
AcDbSpline
210
0.0
220
0.0
230
1.0
 70
    11
 71
     3
 72
    47
 73
    43
 74
    41
 42
0.0000000001
 43
0.0000000001
 44
0.00000001
 40
0.0
 40
0.0
 40
0.0
 40
0.0
 40
0.9249654948313717
 40
1.900725222638214
 40
3.285953375650198
 40
4.657501806658352
 40
6.530924437638078
 40
8.404217261400746
 40
10.66924792268107
 40
12.9351027108013
 40
15.4121399491527
 40
17.88857158528275
 40
20.36500322141211
 40
22.84204045976237
 40
25.10789524788223
 40
27.37292590916319
 40
29.24621873292708
 40
31.11964136390788
 40
32.49118979491639
 40
33.87641794792874
 40
34.85217767573591
 40
35.77714317056616
 40
36.70210866539588
 40
37.6778683932024
 40
39.06309654621493
 40
40.4346449772238
 40
42.30806760820447
 40
44.18136043196804
 40
46.44639109324885
 40
48.71224588136869
 40
51.18928311971895
 40
53.66571475584831
 40
56.14214639197837
 40
58.61918363032977
 40
60.88503841844998
 40
63.15006907973017
 40
65.02336190349253
 40
66.89678453447213
 40
68.26833296548071
 40
69.65356111849333
 40
70.62932084630005
 40
71.55428634112839
 40
71.55428634112839
 40
71.55428634112839
 40
71.55428634112839
 10
-15.89999999999772
 20
-25.49999999999999
 30
0.0
 10
-15.84584224451056
 20
-25.80774758582436
 30
0.0
 10
-15.73455267486594
 20
-26.44014263391104
 30
0.0
 10
-15.05226080315858
 20
-27.33469847563958
 30
0.0
 10
-14.08862585648705
 20
-28.13209063203013
 30
0.0
 10
-12.69982159413422
 20
-28.82388813520422
 30
0.0
 10
-11.11090705909949
 20
-29.44659927762905
 30
0.0
 10
-9.184246970974623
 20
-30.00767242382864
 30
0.0
 10
-7.092335275934617
 20
-30.44285968134329
 30
0.0
 10
-4.776590540557205
 20
-30.75992062983814
 30
0.0
 10
-2.376962544322823
 20
-30.95612782336833
 30
0.0
 10
0.1000007560361728
 20
-31.02193340645238
 30
0.0
 10
2.57695951981654
 20
-30.95612782336836
 30
0.0
 10
4.976600742216288
 20
-30.75992062983811
 30
0.0
 10
7.29230095712348
 20
-30.44285968134322
 30
0.0
 10
9.384365957881187
 20
-30.00767242382852
 30
0.0
 10
11.31054748275835
 20
-29.44659927762908
 30
0.0
 10
12.90101948095078
 20
-28.82388813520434
 30
0.0
 10
14.28545083506327
 20
-28.13209063203015
 30
0.0
 10
15.26285719256805
 20
-27.33469847563916
 30
0.0
 10
15.9083225943607
 20
-26.44014263391079
 30
0.0
 10
16.19327754703899
 20
-25.50000000000071
 30
0.0
 10
15.90832259436079
 20
-24.55985736609078
 30
0.0
 10
15.26285719256766
 20
-23.66530152436314
 30
0.0
 10
14.28545083506318
 20
-22.86790936797206
 30
0.0
 10
12.90101948095107
 20
-22.17611186479675
 30
0.0
 10
11.31054748275844
 20
-21.55340072237244
 30
0.0
 10
9.384365957881057
 20
-20.99232757617449
 30
0.0
 10
7.292300957123425
 20
-20.55714031866041
 30
0.0
 10
4.976600742216279
 20
-20.24007937016551
 30
0.0
 10
2.576959519816543
 20
-20.04387217663526
 30
0.0
 10
0.1000007560361722
 20
-19.97806659355123
 30
0.0
 10
-2.376962544322819
 20
-20.04387217663528
 30
0.0
 10
-4.7765905405572
 20
-20.24007937016547
 30
0.0
 10
-7.092335275934555
 20
-20.55714031866033
 30
0.0
 10
-9.184246970974492
 20
-20.99232757617437
 30
0.0
 10
-11.11090705909959
 20
-21.55340072237247
 30
0.0
 10
-12.69982159413454
 20
-22.17611186479689
 30
0.0
 10
-14.08862585648717
 20
-22.86790936797214
 30
0.0
 10
-15.05226080315827
 20
-23.66530152436363
 30
0.0
 10
-15.73455267486527
 20
-24.55985736609124
 30
0.0
 10
-15.8458422445104
 20
-25.1922524141767
 30
0.0
 10
-15.89999999999772
 20
-25.49999999999999
 30
0.0
 11
-15.89999999999772
 21
-25.49999999999999
 31
0.0
 11
-15.67041879176037
 21
-26.39602100168071
 31
0.0
 11
-15.11690426072072
 21
-27.19959346906473
 31
0.0
 11
-14.05601786503285
 21
-28.09031064715291
 31
0.0
 11
-12.84427190999683
 21
-28.73281888760962
 31
0.0
 11
-11.10145953612817
 21
-29.42007239524511
 31
0.0
 11
-9.304564036678357
 21
-29.94959346906345
 31
0.0
 11
-7.088303144339745
 21
-30.41708844618133
 31
0.0
 11
-4.844271909998531
 21
-30.7308108396256
 31
0.0
 11
-2.375537273856163
 21
-30.93345036314098
 31
0.0
 11
0.1000000000016563
 21
-31.00000000000225
 31
0.0
 11
2.575537273858783
 21
-30.93345036314097
 31
0.0
 11
5.044271910000005
 21
-30.7308108396256
 31
0.0
 11
7.28830314434085
 21
-30.41708844618132
 31
0.0
 11
9.504564036680106
 21
-29.94959346906344
 31
0.0
 11
11.3014595361312
 21
-29.42007239524512
 31
0.0
 11
13.044271910001
 21
-28.73281888760962
 31
0.0
 11
14.25601786503739
 21
-28.09031064715286
 31
0.0
 11
15.31690426072546
 21
-27.19959346906433
 31
0.0
 11
15.87041879176532
 21
-26.39602100168006
 31
0.0
 11
16.10000000000278
 21
-25.50000000000052
 31
0.0
 11
15.87041879176532
 21
-24.60397899832154
 31
0.0
 11
15.31690426072546
 21
-23.80040653093804
 31
0.0
 11
14.25601786503738
 21
-22.90968935284926
 31
0.0
 11
13.044271910001
 21
-22.2671811123917
 31
0.0
 11
11.3014595361312
 21
-21.57992760475653
 31
0.0
 11
9.504564036680106
 21
-21.05040653093936
 31
0.0
 11
7.288303144340849
 21
-20.5829115538222
 31
0.0
 11
5.044271910000011
 21
-20.26918916037802
 31
0.0
 11
2.575537273858784
 21
-20.06654963686264
 31
0.0
 11
0.1000000000016592
 21
-20.00000000000136
 31
0.0
 11
-2.375537273856163
 21
-20.06654963686264
 31
0.0
 11
-4.844271909998532
 21
-20.26918916037802
 31
0.0
 11
-7.088303144339739
 21
-20.58291155382219
 31
0.0
 11
-9.304564036678357
 21
-21.05040653093936
 31
0.0
 11
-11.10145953612818
 21
-21.57992760475654
 31
0.0
 11
-12.84427190999684
 21
-22.2671811123917
 31
0.0
 11
-14.05601786503285
 21
-22.90968935284932
 31
0.0
 11
-15.1169042607207
 21
-23.80040653093853
 31
0.0
 11
-15.67041879176036
 21
-24.60397899832239
 31
0.0
 11
-15.89999999999772
 21
-25.49999999999999
 31
0.0
  0
SPLINE
  5
193
330
75
100
AcDbEntity
  8
0
  6
Continuous
 62
     7
100
AcDbSpline
210
0.0
220
0.0
230
1.0
 70
     8
 71
     3
 72
    21
 73
    17
 74
    15
 42
0.0000000001
 43
0.0000000001
 44
0.00000001
 40
0.0
 40
0.0
 40
0.0
 40
0.0
 40
0.0776162187250908
 40
0.1459524023574705
 40
0.2238507016507146
 40
0.2924070048201703
 40
0.4154465409474273
 40
0.5384836860993867
 40
0.6618018928059818
 40
0.7851162334808601
 40
0.9218356425841637
 40
1.031742392891393
 40
1.168113346042274
 40
1.277813615370021
 40
1.423919777853656
 40
1.570024015991764
 40
1.570024015991764
 40
1.570024015991764
 40
1.570024015991764
 10
-45.98912915026767
 20
-9.499999999999996
 30
0.0
 10
-45.96325000870647
 20
-9.500575207414165
 30
0.0
 10
-45.91458591576498
 20
-9.501656848665583
 30
0.0
 10
-45.84038043509266
 20
-9.510285247172776
 30
0.0
 10
-45.76992647609549
 20
-9.523375301949377
 30
0.0
 10
-45.68301331325782
 20
-9.546339329058922
 30
0.0
 10
-45.584363380586
 20
-9.582768870583246
 30
0.0
 10
-45.47470390574021
 20
-9.63943830400206
 30
0.0
 10
-45.3727524711367
 20
-9.70921055964316
 30
0.0
 10
-45.27674640957044
 20
-9.794013301683878
 30
0.0
 10
-45.19542496372993
 20
-9.887261667095817
 30
0.0
 10
-45.1238835202639
 20
-9.993264803168767
 30
0.0
 10
-45.0698336112705
 20
-10.09938713968748
 30
0.0
 10
-45.02548845949686
 20
-10.22252106352961
 30
0.0
 10
-44.99506216084665
 20
-10.35377031700476
 30
0.0
 10
-44.9909457224513
 20
-10.45125698633373
 30
0.0
 10
-44.98888751680798
 20
-10.5
 30
0.0
 11
-45.98912915026767
 21
-9.499999999999996
 31
0.0
 11
-45.91157134597496
 21
-9.503010714611815
 31
0.0
 11
-45.84366147088717
 21
-9.510631925736018
 31
0.0
 11
-45.7670903715975
 21
-9.524950158390643
 31
0.0
 11
-45.70080433967897
 21
-9.542446691668896
 31
0.0
 11
-45.58538862109656
 21
-9.585083991706728
 31
0.0
 11
-45.47608217274858
 21
-9.641566196308677
 31
0.0
 11
-45.37431462296818
 21
-9.711213492860828
 31
0.0
 11
-45.28189390082447
 21
-9.792851944184427
 31
0.0
 11
-45.19203427175061
 21
-9.895892925780412
 31
0.0
 11
-45.13054153022237
 21
-9.986987033726187
 31
0.0
 11
-45.0687134452418
 21
-10.10853671398457
 31
0.0
 11
-45.03136306456327
 21
-10.21168271804556
 31
0.0
 11
-44.99956334858196
 21
-10.35428632522014
 31
0.0
 11
-44.98888751680798
 21
-10.5
 31
0.0
  0
SPLINE
  5
194
330
75
100
AcDbEntity
  8
0
  6
Continuous
 62
     7
100
AcDbSpline
210
0.0
220
0.0
230
1.0
 70
     8
 71
     3
 72
    11
 73
     7
 74
     5
 42
0.0000000001
 43
0.0000000001
 44
0.00000001
 40
0.0
 40
0.0
 40
0.0
 40
0.0
 40
0.5925768686748955
 40
1.129122446440358
 40
1.687995465010399
 40
2.260612558711779
 40
2.260612558711779
 40
2.260612558711779
 40
2.260612558711779
 10
32.45638869879217
 20
-40.92096445503403
 30
0.0
 10
32.40866939128234
 20
-40.72928945503124
 30
0.0
 10
32.31774289028947
 20
-40.36406334452078
 30
0.0
 10
32.18382289138422
 20
-39.81756675835526
 30
0.0
 10
32.05279277955431
 20
-39.27721358799049
 30
0.0
 10
31.96533714951225
 20
-38.91032944913255
 30
0.0
 10
31.92107817794954
 20
-38.72465913081555
 30
0.0
 11
32.45638869879217
 21
-40.92096445503403
 31
0.0
 11
32.31360140421328
 21
-40.34584782877864
 31
0.0
 11
32.18580009596717
 21
-39.82474516842249
 31
0.0
 11
32.05422054315969
 21
-39.28158232712296
 31
0.0
 11
31.92107817794954
 21
-38.72465913081555
 31
0.0
  0
SPLINE
  5
195
330
75
100
AcDbEntity
  8
0
  6
Continuous
 62
     7
100
AcDbSpline
210
0.0
220
0.0
230
1.0
 70
     8
 71
     3
 72
    23
 73
    19
 74
    17
 42
0.0000000001
 43
0.0000000001
 44
0.00000001
 40
0.0
 40
0.0
 40
0.0
 40
0.0
 40
0.0638689916528697
 40
0.1393335792986396
 40
0.2152652365174895
 40
0.3075180068044596
 40
0.3833458471735644
 40
0.4752195163319838
 40
0.5159326964732842
 40
0.5608671123221055
 40
0.6068373201435441
 40
0.6462676316152611
 40
0.7014847336532681
 40
0.7661459175664407
 40
0.8124448761843
 40
0.8578277611539096
 40
0.9000633209922915
 40
0.9493063371478143
 40
0.9493063371478143
 40
0.9493063371478143
 40
0.9493063371478143
 10
-0.9999999999999716
 20
-13.80400570200552
 30
0.0
 10
-0.9996028811721069
 20
-13.82529858058614
 30
0.0
 10
-0.9987365454705195
 20
-13.87175012004888
 30
0.0
 10
-0.9911243177291322
 20
-13.94320443068213
 30
0.0
 10
-0.9765909643331943
 20
-14.02317612931502
 30
0.0
 10
-0.9546620290623338
 20
-14.10167558504233
 30
0.0
 10
-0.9232277614599007
 20
-14.18253465515363
 30
0.0
 10
-0.8911637391477077
 20
-14.24440264205372
 30
0.0
 10
-0.8589968040441847
 20
-14.29410511589784
 30
0.0
 10
-0.832745183776403
 20
-14.32930596459326
 30
0.0
 10
-0.8041727222529401
 20
-14.36209730455754
 30
0.0
 10
-0.7707118526245849
 20
-14.39497691906943
 30
0.0
 10
-0.7294886382752536
 20
-14.42862717718548
 30
0.0
 10
-0.682238520377558
 20
-14.45793992612676
 30
0.0
 10
-0.6345964847493896
 20
-14.47935731488896
 30
0.0
 10
-0.5919017826534377
 20
-14.49267036549002
 30
0.0
 10
-0.5469648707729639
 20
-14.50143704919436
 30
0.0
 10
-0.5164345204946091
 20
-14.50230866941294
 30
0.0
 10
-0.4999999999999858
 20
-14.50277786351701
 30
0.0
 11
-0.9999999999999716
 21
-13.80400570200552
 31
0.0
 11
-0.9979553880254635
 21
-13.86784195860495
 31
0.0
 11
-0.9902272707663968
 21
-13.94290979587349
 31
0.0
 11
-0.9765285297938566
 21
-14.01759554460622
 31
0.0
 11
-0.9516135598014728
 21
-14.10642019150053
 31
0.0
 11
-0.9240391862359569
 21
-14.17705669267033
 31
0.0
 11
-0.8815514726166924
 21
-14.25851567177048
 31
0.0
 11
-0.8594084391587078
 21
-14.29268069930591
 31
0.0
 11
-0.8325126617327925
 21
-14.32867679470986
 31
0.0
 11
-0.8022754685283591
 21
-14.36330297200774
 31
0.0
 11
-0.7741266326635383
 21
-14.39091442800361
 31
0.0
 11
-0.7312820235051927
 21
-14.42574642225522
 31
0.0
 11
-0.6762491001333615
 21
-14.45969411805631
 31
0.0
 11
-0.6339879878834844
 21
-14.4786042201317
 31
0.0
 11
-0.5906744727891322
 21
-14.49215212249096
 31
0.0
 11
-0.5491603015816614
 21
-14.49992490216225
 31
0.0
 11
-0.4999999999999858
 21
-14.50277786351701
 31
0.0
  0
SPLINE
  5
196
330
75
100
AcDbEntity
  8
0
  6
Continuous
 62
     7
100
AcDbSpline
210
0.0
220
0.0
230
1.0
 70
     8
 71
     3
 72
    21
 73
    17
 74
    15
 42
0.0000000001
 43
0.0000000001
 44
0.00000001
 40
0.0
 40
0.0
 40
0.0
 40
0.0
 40
0.0492430161697257
 40
0.0914785759888474
 40
0.1404341371599662
 40
0.1831592160881333
 40
0.2420270993902342
 40
0.3030407283211419
 40
0.3972445539076838
 40
0.473969164567523
 40
0.5563331749330488
 40
0.6416748481465058
 40
0.7249056581152927
 40
0.8098617308104243
 40
0.8853263184429883
 40
0.9491953101090773
 40
0.9491953101090773
 40
0.9491953101090773
 40
0.9491953101090773
 10
0.5000000000009521
 20
-14.50277786346104
 30
0.0
 10
0.5164346528056756
 20
-14.50230837938874
 30
0.0
 10
0.5469652488655392
 20
-14.5014362204975
 30
0.0
 10
0.5930734830580995
 20
-14.4924444703857
 30
0.0
 10
0.6357228038950876
 20
-14.47892309941684
 30
0.0
 10
0.6814915619900483
 20
-14.45811023637166
 30
0.0
 10
0.7278959722157088
 20
-14.42976786680632
 30
0.0
 10
0.783569996835639
 20
-14.38484736317373
 30
0.0
 10
0.8360342427419609
 20
-14.32750455021586
 30
0.0
 10
0.883835502405595
 20
-14.25769972629078
 30
0.0
 10
0.921906793074895
 20
-14.18546072320617
 30
0.0
 10
0.9527032691745199
 20
-14.10752927379333
 30
0.0
 10
0.975903270164284
 20
-14.02613152099477
 30
0.0
 10
0.9908089172296095
 20
-13.94619688874389
 30
0.0
 10
0.9987358185913902
 20
-13.8717507199573
 30
0.0
 10
0.9996026527053092
 20
-13.82529876914753
 30
0.0
 10
1.000000000000028
 20
-13.80400570200552
 30
0.0
 11
0.5000000000009521
 21
-14.50277786346104
 31
0.0
 11
0.5491603015995654
 21
-14.49992490215299
 31
0.0
 11
0.5906744727891748
 21
-14.49215212249096
 31
0.0
 11
0.6373289571704976
 21
-14.47731952134713
 31
0.0
 11
0.6762491001334183
 21
-14.45969411805631
 31
0.0
 11
0.7265516046463585
 21
-14.42911494664511
 31
0.0
 11
0.774126632663581
 21
-14.39091442800362
 31
0.0
 11
0.8380422701544958
 21
-14.32171072839681
 31
0.0
 11
0.881551472616735
 21
-14.25851567177049
 31
0.0
 11
0.9201069556748253
 21
-14.18573308505052
 31
0.0
 11
0.9516135598015296
 21
-14.10642019150051
 31
0.0
 11
0.9744960504003455
 21
-14.02639669899952
 31
0.0
 11
0.9902272707664395
 21
-13.9429097958735
 31
0.0
 11
0.9979553880246497
 21
-13.86784195861815
 31
0.0
 11
1.000000000000028
 21
-13.80400570200552
 31
0.0
  0
SPLINE
  5
197
330
75
100
AcDbEntity
  8
0
  6
Continuous
 62
     7
100
AcDbSpline
210
0.0
220
0.0
230
1.0
 70
     8
 71
     3
 72
   115
 73
   111
 74
   109
 42
0.0000000001
 43
0.0000000001
 44
0.00000001
 40
0.0
 40
0.0
 40
0.0
 40
0.0
 40
0.0234472112979465
 40
0.046788469017403
 40
0.0700142908789808
 40
0.0931151945073037
 40
0.1160816974464458
 40
0.1389043171755178
 40
0.1528140520549804
 40
0.1665981984117239
 40
0.1802547480381281
 40
0.193781692683959
 40
0.2071770240576246
 40
0.2204387338274118
 40
0.2335648136227517
 40
0.2465532550354728
 40
0.2594020496210707
 40
0.2721091888999713
 40
0.2846726643588282
 40
0.2970904674518386
 40
0.3093605896020578
 40
0.3214810222027857
 40
0.3334497566189402
 40
0.3452647841885044
 40
0.3569240962240026
 40
0.3684256840140471
 40
0.3797675388249182
 40
0.3909476519022739
 40
0.4019640144728548
 40
0.4128146177463947
 40
0.4234974529175279
 40
0.4340105111679207
 40
0.4443517836684834
 40
0.4545192615817694
 40
0.4577220158486889
 40
0.4610962114642842
 40
0.4646351119160079
 40
0.4683319807122542
 40
0.4721800813839254
 40
0.4761726774861059
 40
0.4803030325997596
 40
0.4845644103336036
 40
0.4889500743260933
 40
0.4934532882475535
 40
0.4980673158025102
 40
0.5027854207322039
 40
0.5076008668173279
 40
0.5125069178810293
 40
0.517496837792177
 40
0.522563890468952
 40
0.5277013398828028
 40
0.5329024500627558
 40
0.5381604851002391
 40
0.5434687091543403
 40
0.5488203864577055
 40
0.5542087813230153
 40
0.5596271581502497
 40
0.5650687814347554
 40
0.5705269157762737
 40
0.5759948258890959
 40
0.5814657766134236
 40
0.5869330329281996
 40
0.5916666494050267
 40
0.5962305129027672
 40
0.600627137608812
 40
0.6048590376614029
 40
0.6089287271476203
 40
0.6128387201012113
 40
0.6165915305003644
 40
0.620189672265327
 40
0.6236356592559494
 40
0.6269320052690869
 40
0.6300812240358693
 40
0.6330858292188637
 40
0.6359483344091073
 40
0.6386712531229685
 40
0.6412570987989629
 40
0.6437083847943563
 40
0.646027624381719
 40
0.6482173307453598
 40
0.6502800169777152
 40
0.6522181960756734
 40
0.6540343809370299
 40
0.6557310843569892
 40
0.6585107938549924
 40
0.661342618162051
 40
0.6642069391705215
 40
0.6670841398912675
 40
0.6699546047296487
 40
0.6727987198514714
 40
0.6755968736767333
 40
0.6783294575589724
 40
0.6809768667408566
 40
0.6835195017329153
 40
0.6859377703620335
 40
0.6882120909221575
 40
0.6898477835277194
 40
0.691398443287359
 40
0.6928481713181491
 40
0.6941810921006286
 40
0.6953813683297339
 40
0.6964332297697616
 40
0.6970823900252038
 40
0.6976215340647234
 40
0.6980575680426714
 40
0.6983975285553139
 40
0.6986662659197916
 40
0.6988419282177283
 40
0.6989403119832387
 40
0.6990066250391329
 40
0.6990066250391329
 40
0.6990066250391329
 40
0.6990066250391329
 10
44.98888751680806
 20
-13.80400570200552
 30
0.0
 10
44.98888869210645
 20
-13.81182143919383
 30
0.0
 10
44.98889103739226
 20
-13.82741759571054
 30
0.0
 10
44.98890996884064
 20
-13.85075568659523
 30
0.0
 10
44.98894003412687
 20
-13.87397832901399
 30
0.0
 10
44.98898220353593
 20
-13.89707603447037
 30
0.0
 10
44.989036052469
 20
-13.92003931442605
 30
0.0
 10
44.98909314989426
 20
-13.93993885268229
 30
0.0
 10
44.98914861089682
 20
-13.95677759526083
 30
0.0
 10
44.98919845484519
 20
-13.97056098233795
 30
0.0
 10
44.98925223792411
 20
-13.9842167568703
 30
0.0
 10
44.98930986749595
 20
-13.99774290955218
 30
0.0
 10
44.98937125071863
 20
-14.01113743106345
 30
0.0
 10
44.9894362948027
 20
-14.02439831208776
 30
0.0
 10
44.98950490694366
 20
-14.03752354330781
 30
0.0
 10
44.98957699433959
 20
-14.05051111540658
 30
0.0
 10
44.98965246418636
 20
-14.06335901906701
 30
0.0
 10
44.98973122367891
 20
-14.07606524497208
 30
0.0
 10
44.98981318001066
 20
-14.08862778380482
 30
0.0
 10
44.98989824037369
 20
-14.1010446262483
 30
0.0
 10
44.98998631195835
 20
-14.11331376298561
 30
0.0
 10
44.99007730195345
 20
-14.12543318469995
 30
0.0
 10
44.99017111754578
 20
-14.13740088207455
 30
0.0
 10
44.99026766592025
 20
-14.1492148457927
 30
0.0
 10
44.99036685425947
 20
-14.16087306653782
 30
0.0
 10
44.99046858974398
 20
-14.17237353499335
 30
0.0
 10
44.99057277955033
 20
-14.18371424184291
 30
0.0
 10
44.99067933085762
 20
-14.19489317777013
 30
0.0
 10
44.99078815082206
 20
-14.20590833345897
 30
0.0
 10
44.99089914666832
 20
-14.21675769959301
 30
0.0
 10
44.9910122253557
 20
-14.22743926685778
 30
0.0
 10
44.99112729479201
 20
-14.23795102593252
 30
0.0
 10
44.99124425941119
 20
-14.2482909675203
 30
0.0
 10
44.99133659838844
 20
-14.25619426321344
 30
0.0
 10
44.99140319039891
 20
-14.26177534188814
 30
0.0
 10
44.99144383232838
 20
-14.26514704707307
 30
0.0
 10
44.99148692723266
 20
-14.26868343946828
 30
0.0
 10
44.99153246704693
 20
-14.272377782116
 30
0.0
 10
44.99158044489793
 20
-14.27622333804258
 30
0.0
 10
44.9916308535873
 20
-14.28021337027882
 30
0.0
 10
44.99168368602098
 20
-14.28434114185426
 30
0.0
 10
44.99173893508321
 20
-14.2885999157988
 30
0.0
 10
44.99179659366965
 20
-14.29298295514237
 30
0.0
 10
44.99185665467555
 20
-14.29748352291496
 30
0.0
 10
44.99191911099752
 20
-14.30209488214673
 30
0.0
 10
44.99198395553154
 20
-14.30681029586802
 30
0.0
 10
44.99205118117209
 20
-14.31162302710932
 30
0.0
 10
44.99212078081155
 20
-14.31652633890138
 30
0.0
 10
44.99219274733888
 20
-14.3215134942752
 30
0.0
 10
44.99226707363936
 20
-14.32657775626208
 30
0.0
 10
44.99234375259346
 20
-14.33171238789366
 30
0.0
 10
44.99242277707607
 20
-14.33691065220196
 30
0.0
 10
44.99250413995579
 20
-14.34216581221945
 30
0.0
 10
44.99258783409377
 20
-14.3474711309791
 30
0.0
 10
44.99267385234312
 20
-14.35281987151444
 30
0.0
 10
44.9927621875469
 20
-14.35820529685968
 30
0.0
 10
44.99285283253989
 20
-14.36362067004972
 30
0.0
 10
44.99294578013627
 20
-14.36905925412051
 30
0.0
 10
44.9930410231688
 20
-14.37451431210823
 30
0.0
 10
44.9931385543351
 20
-14.3799791070531
 30
0.0
 10
44.99323836676376
 20
-14.38544690198568
 30
0.0
 10
44.9933359487566
 20
-14.39066993184661
 30
0.0
 10
44.99342995970895
 20
-14.39559061276956
 30
0.0
 10
44.99351900774136
 20
-14.40015444580246
 30
0.0
 10
44.99360660704542
 20
-14.40455103608712
 30
0.0
 10
44.99369269880918
 20
-14.40878289867257
 30
0.0
 10
44.9937772238671
 20
-14.41285254861313
 30
0.0
 10
44.99386012314564
 20
-14.41676250096167
 30
0.0
 10
44.99394133755055
 20
-14.42051527077122
 30
0.0
 10
44.99402080799594
 20
-14.4241133730946
 30
0.0
 10
44.99409847539723
 20
-14.42755932298449
 30
0.0
 10
44.99417428067347
 20
-14.43085563549333
 30
0.0
 10
44.99424816474735
 20
-14.43400482567343
 30
0.0
 10
44.99432006854585
 20
-14.43700940857678
 30
0.0
 10
44.99438993300117
 20
-14.43987189925515
 30
0.0
 10
44.99445769905122
 20
-14.44259481276
 30
0.0
 10
44.99452330764143
 20
-14.44518066414243
 30
0.0
 10
44.99458669972427
 20
-14.44763196845319
 30
0.0
 10
44.99464781626725
 20
-14.44995124074247
 30
0.0
 10
44.99470659823351
 20
-14.45214099606025
 30
0.0
 10
44.99476298665882
 20
-14.45420374945481
 30
0.0
 10
44.99481692240283
 20
-14.4561420159774
 30
0.0
 10
44.99486834701084
 20
-14.45795831066592
 30
0.0
 10
44.99492871101144
 20
-14.46005497454979
 30
0.0
 10
44.99500037888885
 20
-14.46248999948379
 30
0.0
 10
44.99508600219899
 20
-14.46531398708105
 30
0.0
 10
44.9951754563516
 20
-14.46817036923816
 30
0.0
 10
44.99526853681621
 20
-14.47103952265651
 30
0.0
 10
44.99536503727189
 20
-14.47390182416348
 30
0.0
 10
44.99546475057873
 20
-14.47673765070089
 30
0.0
 10
44.99556746806414
 20
-14.47952737938997
 30
0.0
 10
44.99567297890377
 20
-14.48225138763119
 30
0.0
 10
44.99578106967416
 20
-14.48489005318776
 30
0.0
 10
44.99589152142102
 20
-14.48742375462477
 30
0.0
 10
44.99600411311151
 20
-14.48983287099732
 30
0.0
 10
44.99611060373753
 20
-14.49193961527042
 30
0.0
 10
44.99621015855394
 20
-14.49375711987353
 30
0.0
 10
44.99630147012266
 20
-14.49529978545134
 30
0.0
 10
44.99639469142763
 20
-14.49674122143497
 30
0.0
 10
44.9964895611316
 20
-14.49806547574308
 30
0.0
 10
44.99658582638692
 20
-14.49925665619908
 30
0.0
 10
44.99667561087604
 20
-14.50021954757685
 30
0.0
 10
44.99675676774561
 20
-14.50096203439544
 30
0.0
 10
44.9968248871614
 20
-14.50149880020796
 30
0.0
 10
44.99689076156925
 20
-14.50193339939743
 30
0.0
 10
44.99695389657862
 20
-14.50227295111792
 30
0.0
 10
44.99701776130446
 20
-14.50253440901436
 30
0.0
 10
44.99707428281396
 20
-14.50269041458478
 30
0.0
 10
44.99714370933214
 20
-14.50281460269187
 30
0.0
 10
44.99719962342222
 20
-14.50278840972294
 30
0.0
 10
44.99722213651111
 20
-14.50277786346104
 30
0.0
 11
44.98888751680806
 21
-13.80400570200552
 31
0.0
 11
44.98889363089513
 21
-13.82745291250631
 31
0.0
 11
44.98891188551872
 21
-13.85079416308752
 31
0.0
 11
44.9889421492224
 21
-13.87401996523199
 31
0.0
 11
44.9889842905497
 21
-13.89712083042258
 31
0.0
 11
44.98903817804421
 21
-13.92008727014212
 31
0.0
 11
44.98910368024951
 21
-13.94290979587349
 31
0.0
 11
44.98914949998718
 21
-13.95681945528588
 31
0.0
 11
44.98919935240651
 21
-13.97060351149297
 31
0.0
 11
44.98925314471727
 21
-13.98425995517666
 31
0.0
 11
44.98931078412919
 21
-13.99778677701882
 31
0.0
 11
44.98937217785201
 21
-14.01118196770134
 31
0.0
 11
44.98943723309546
 21
-14.0244435179061
 31
0.0
 11
44.98950585706929
 21
-14.03756941831498
 31
0.0
 11
44.98957795698325
 21
-14.05055765960987
 31
0.0
 11
44.98965344004705
 21
-14.06340623247264
 31
0.0
 11
44.98973221347046
 21
-14.07611312758518
 31
0.0
 11
44.98981418446321
 21
-14.08867633562937
 31
0.0
 11
44.98989926023504
 21
-14.1010938472871
 31
0.0
 11
44.98998734799569
 21
-14.11336365324024
 31
0.0
 11
44.9900783549549
 21
-14.12548374417068
 31
0.0
 11
44.99017218832239
 21
-14.13745211076031
 31
0.0
 11
44.99026875530793
 21
-14.14926674369099
 31
0.0
 11
44.99036796312125
 21
-14.16092563364462
 31
0.0
 11
44.99046971897209
 21
-14.17242677130309
 31
0.0
 11
44.99057393007018
 21
-14.18376814734826
 31
0.0
 11
44.99068050362528
 21
-14.19494775246202
 31
0.0
 11
44.99078934684711
 21
-14.20596357732626
 31
0.0
 11
44.99090036694544
 21
-14.21681361262286
 31
0.0
 11
44.99101347112996
 21
-14.2274958490337
 31
0.0
 11
44.99112856661044
 21
-14.23800827724066
 31
0.0
 11
44.99124556059664
 21
-14.24834888792563
 31
0.0
 11
44.99136436029826
 21
-14.25851567177049
 31
0.0
 11
44.99140257203307
 21
-14.26171819807914
 31
0.0
 11
44.99144324321467
 21
-14.26509214856889
 31
0.0
 11
44.99148636681292
 21
-14.26863078626757
 31
0.0
 11
44.9915319357977
 21
-14.27232737420299
 31
0.0
 11
44.99157994313886
 21
-14.27617517540296
 31
0.0
 11
44.99163038180628
 21
-14.28016745289531
 31
0.0
 11
44.99168324476982
 21
-14.28429746970787
 31
0.0
 11
44.99173852499933
 21
-14.28855848886844
 31
0.0
 11
44.9917962154647
 21
-14.29294377340484
 31
0.0
 11
44.99185630913578
 21
-14.2974465863449
 31
0.0
 11
44.99191879898243
 21
-14.30206019071642
 31
0.0
 11
44.99198367797452
 21
-14.30677784954724
 31
0.0
 11
44.99205093908191
 21
-14.31159282586516
 31
0.0
 11
44.99212057527449
 21
-14.31649838269801
 31
0.0
 11
44.99219257952209
 21
-14.32148778307361
 31
0.0
 11
44.99226694479458
 21
-14.32655429001977
 31
0.0
 11
44.99234366406186
 21
-14.33169116656431
 31
0.0
 11
44.99242273029376
 21
-14.33689167573506
 31
0.0
 11
44.99250413646016
 21
-14.34214908055982
 31
0.0
 11
44.9925878755309
 21
-14.34745664406642
 31
0.0
 11
44.99267394047587
 21
-14.35280762928268
 31
0.0
 11
44.99276232426492
 21
-14.35819529923641
 31
0.0
 11
44.99285301986795
 21
-14.36361291695543
 31
0.0
 11
44.99294602025478
 21
-14.36905374546757
 31
0.0
 11
44.99304131839529
 21
-14.37451104780064
 31
0.0
 11
44.99313890725935
 21
-14.37997808698245
 31
0.0
 11
44.99323877981683
 21
-14.38544812604084
 31
0.0
 11
44.99334092903757
 21
-14.39091442800361
 31
0.0
 11
44.9934313668684
 21
-14.39564718047426
 31
0.0
 11
44.99352041482517
 21
-14.40021017515839
 31
0.0
 11
44.99360801379026
 21
-14.4046059271108
 31
0.0
 11
44.99369410464603
 21
-14.40883695138628
 31
0.0
 11
44.99377862827484
 21
-14.41290576303962
 31
0.0
 11
44.99386152555905
 21
-14.41681487712563
 31
0.0
 11
44.99394273738103
 21
-14.42056680869909
 31
0.0
 11
44.99402220462314
 21
-14.42416407281481
 31
0.0
 11
44.99409986816775
 21
-14.42760918452756
 31
0.0
 11
44.99417566889722
 21
-14.43090465889216
 31
0.0
 11
44.99424954769391
 21
-14.4340530109634
 31
0.0
 11
44.99432144544018
 21
-14.43705675579606
 31
0.0
 11
44.99439130301842
 21
-14.43991840844496
 31
0.0
 11
44.99445906131096
 21
-14.44264048396487
 31
0.0
 11
44.99452466120017
 21
-14.4452254974106
 31
0.0
 11
44.99458804356843
 21
-14.44767596383693
 31
0.0
 11
44.9946491492981
 21
-14.44999439829868
 31
0.0
 11
44.99470791927152
 21
-14.45218331585062
 31
0.0
 11
44.99476429437111
 21
-14.45424523154756
 31
0.0
 11
44.99481821547916
 21
-14.45618266044428
 31
0.0
 11
44.99486962347809
 21
-14.4579981175956
 31
0.0
 11
44.99491845925023
 21
-14.45969411805629
 31
0.0
 11
44.99500027481798
 21
-14.46247262324905
 31
0.0
 11
44.99508614125712
 21
-14.46530314543774
 31
0.0
 11
44.99517585676542
 21
-14.46816606107868
 31
0.0
 11
44.99526921954066
 21
-14.47104174662819
 31
0.0
 11
44.99536602778062
 21
-14.47391057854258
 31
0.0
 11
44.99546607968306
 21
-14.47675293327818
 31
0.0
 11
44.99556917344576
 21
-14.47954918729131
 31
0.0
 11
44.99567510726651
 21
-14.48227971703828
 31
0.0
 11
44.99578367934306
 21
-14.48492489897541
 31
0.0
 11
44.9958946878732
 21
-14.48746510955902
 31
0.0
 11
44.99600793105471
 21
-14.48988072524543
 31
0.0
 11
44.99612320708533
 21
-14.49215212249095
 31
0.0
 11
44.99621293860744
 21
-14.49378535197692
 31
0.0
 11
44.99630491412532
 21
-14.49533328162463
 31
0.0
 11
44.99639894625393
 21
-14.49677995688952
 31
0.0
 11
44.99649484760829
 21
-14.49810942322704
 31
0.0
 11
44.99659243080336
 21
-14.49930572609262
 31
0.0
 11
44.99669150845411
 21
-14.5003529109417
 31
0.0
 11
44.99676277788311
 21
-14.50099814710446
 31
0.0
 11
44.99683164134974
 21
-14.50153287518332
 31
0.0
 11
44.99689810781891
 21
-14.50196381350651
 31
0.0
 11
44.99696218625554
 21
-14.50229768040232
 31
0.0
 11
44.99702903035075
 21
-14.50255797185051
 31
0.0
 11
44.99709357273805
 21
-14.50272134725612
 31
0.0
 11
44.99715821555876
 21
-14.50279551376505
 31
0.0
 11
44.99722213651111
 21
-14.50277786346104
 31
0.0
  0
SPLINE
  5
198
330
75
100
AcDbEntity
  8
0
  6
Continuous
 62
     7
100
AcDbSpline
210
0.0
220
0.0
230
1.0
 70
     8
 71
     3
 72
    11
 73
     7
 74
     5
 42
0.0000000001
 43
0.0000000001
 44
0.00000001
 40
0.0
 40
0.0
 40
0.0
 40
0.0
 40
0.0044603054230631
 40
0.0089870857050788
 40
0.0134821553026541
 40
0.0179765422629132
 40
0.0179765422629132
 40
0.0179765422629132
 40
0.0179765422629132
 10
30.28502226216449
 20
-41.49999999999999
 30
0.0
 10
30.28650905183605
 20
-41.50000699315363
 30
0.0
 10
30.28950478978141
 20
-41.50002108368449
 30
0.0
 10
30.2939976023735
 20
-41.50013752385709
 30
0.0
 10
30.29849965904526
 20
-41.50031802348494
 30
0.0
 10
30.30149062697418
 20
-41.50050102718649
 30
0.0
 10
30.30298599737525
 20
-41.50059252208886
 30
0.0
 11
30.28502226216449
 21
-41.49999999999999
 31
0.0
 11
30.28948241719674
 21
-41.50003662724784
 31
0.0
 11
30.294007814556
 21
-41.50014851318286
 31
0.0
 11
30.298499064841
 21
-41.50033377398417
 31
0.0
 11
30.30298599737525
 21
-41.50059252208886
 31
0.0
  0
SPLINE
  5
199
330
75
100
AcDbEntity
  8
0
  6
Continuous
 62
     7
100
AcDbSpline
210
0.0
220
0.0
230
1.0
 70
     8
 71
     3
 72
    11
 73
     7
 74
     5
 42
0.0000000001
 43
0.0000000001
 44
0.00000001
 40
0.0
 40
0.0
 40
0.0
 40
0.0
 40
0.3619431127103611
 40
0.6707172321807091
 40
1.007226044694817
 40
1.344483422045645
 40
1.344483422045645
 40
1.344483422045645
 40
1.344483422045645
 10
30.57183972413493
 20
-41.58584603953455
 30
0.0
 10
30.69248624068204
 20
-41.58638137570003
 30
0.0
 10
30.91605645049972
 20
-41.58737340781389
 30
0.0
 10
31.25179510813552
 20
-41.58887486484467
 30
0.0
 10
31.57930522976053
 20
-41.59034840636954
 30
0.0
 10
31.80389165225208
 20
-41.59136647374149
 30
0.0
 10
31.91630962302216
 20
-41.59187607297189
 30
0.0
 11
30.57183972413493
 21
-41.58584603953455
 31
0.0
 11
30.93377926366849
 21
-41.58745431833441
 31
0.0
 11
31.24255029690796
 21
-41.58883485696803
 31
0.0
 11
31.5790557021023
 21
-41.59034918013357
 31
0.0
 11
31.91630962302216
 21
-41.59187607297189
 31
0.0
  0
SPLINE
  5
19A
330
75
100
AcDbEntity
  8
0
  6
Continuous
 62
     7
100
AcDbSpline
210
0.0
220
0.0
230
1.0
 70
     8
 71
     3
 72
    11
 73
     7
 74
     5
 42
0.0000000001
 43
0.0000000001
 44
0.00000001
 40
0.0
 40
0.0
 40
0.0
 40
0.0
 40
0.1950862631625059
 40
0.3901736298835421
 40
0.5852626194215573
 40
0.7803528004134975
 40
0.7803528004134975
 40
0.7803528004134975
 40
0.7803528004134975
 10
45.49901097826204
 20
-18.5
 30
0.0
 10
45.43349380807322
 20
-18.49248417665383
 30
0.0
 10
45.30245909707989
 20
-18.47745248744621
 30
0.0
 10
45.13719019823645
 20
-18.36182737398445
 30
0.0
 10
45.02156855244715
 20
-18.19655500080409
 30
0.0
 10
45.00653743053731
 20
-18.06551846697939
 30
0.0
 10
44.9990218466328
 20
-17.99999999999998
 30
0.0
 11
45.49901097826204
 21
-18.5
 31
0.0
 11
45.3076734018212
 21
-18.46193975937472
 31
0.0
 11
45.14546528590963
 21
-18.35355337745075
 31
0.0
 11
45.03708125995274
 21
-18.19134173558636
 31
0.0
 11
44.9990218466328
 21
-17.99999999999998
 31
0.0
  0
SPLINE
  5
19B
330
75
100
AcDbEntity
  8
0
  6
Continuous
 62
     7
100
AcDbSpline
210
0.0
220
0.0
230
1.0
 70
     8
 71
     3
 72
    22
 73
    18
 74
    16
 42
0.0000000001
 43
0.0000000001
 44
0.00000001
 40
0.0
 40
0.0
 40
0.0
 40
0.0
 40
0.0026879746584656
 40
0.0104629994441081
 40
0.0231845505279636
 40
0.040687437529594
 40
0.0628036508319696
 40
0.0893643909471833
 40
0.1202005408924757
 40
0.1551428264654306
 40
0.1940218849576446
 40
0.2366683004154549
 40
0.2829126248040025
 40
0.3325853926170319
 40
0.3855171322127722
 40
0.441538375412222
 40
0.5004796661078106
 40
0.5004796661078106
 40
0.5004796661078106
 40
0.5004796661078106
 10
44.9990218466328
 20
-17.99999999999998
 30
0.0
 10
44.99880167152413
 20
-18.00086970472884
 30
0.0
 10
44.99794463515573
 20
-18.00425504917987
 30
0.0
 10
44.99762748796217
 20
-18.0120228610958
 30
0.0
 10
44.99657753139066
 20
-18.02462313043368
 30
0.0
 10
44.99566719206599
 20
-18.04205810494501
 30
0.0
 10
44.99451107139105
 20
-18.0640832768813
 30
0.0
 10
44.99328413392696
 20
-18.09056095122073
 30
0.0
 10
44.99193859515453
 20
-18.12131072215368
 30
0.0
 10
44.99050677973162
 20
-18.15616737608199
 30
0.0
 10
44.98899429679874
 20
-18.19496045503812
 30
0.0
 10
44.98741623799237
 20
-18.23752118447691
 30
0.0
 10
44.9857856316498
 20
-18.28368024417564
 30
0.0
 10
44.98411639990661
 20
-18.3332684604527
 30
0.0
 10
44.98242511375373
 20
-18.38611667229566
 30
0.0
 10
44.98071916063553
 20
-18.44205546034163
 30
0.0
 10
44.9796300811686
 20
-18.48036083470697
 30
0.0
 10
44.97907171013001
 20
-18.5
 30
0.0
 11
44.9990218466328
 21
-17.99999999999998
 31
0.0
 11
44.99840843874318
 21
-18.0026170476735
 31
0.0
 11
44.99765400501086
 21
-18.01035538342229
 31
0.0
 11
44.99676446468504
 21
-18.02304579633865
 31
0.0
 11
44.99574683596062
 21
-18.0405190755149
 31
0.0
 11
44.99460920070603
 21
-18.06260601004334
 31
0.0
 11
44.99336066345643
 21
-18.08913738901625
 31
0.0
 11
44.99201130467252
 21
-18.11994400152592
 31
0.0
 11
44.99057212826446
 21
-18.15485663666463
 31
0.0
 11
44.98905500338145
 21
-18.19370608352466
 31
0.0
 11
44.98747260046642
 21
-18.23632313119827
 31
0.0
 11
44.98583832157649
 21
-18.28253856877775
 31
0.0
 11
44.9841662249685
 21
-18.33218318535539
 31
0.0
 11
44.98247094394998
 21
-18.38508777002345
 31
0.0
 11
44.98076759999587
 21
-18.44108311187423
 31
0.0
 11
44.97907171013001
 21
-18.5
 31
0.0
  0
SPLINE
  5
19C
330
75
100
AcDbEntity
  8
0
  6
Continuous
 62
     7
100
AcDbSpline
210
0.0
220
0.0
230
1.0
 70
     8
 71
     3
 72
    27
 73
    23
 74
    21
 42
0.0000000001
 43
0.0000000001
 44
0.00000001
 40
0.0
 40
0.0
 40
0.0
 40
0.0
 40
0.1437999135047462
 40
0.2871405829616416
 40
0.366405257088313
 40
0.4462693958607957
 40
0.535853528996193
 40
0.6469614986710139
 40
0.7103163575577377
 40
0.7832413414116881
 40
0.8447231240203639
 40
0.9147221072752925
 40
0.9889419380324447
 40
1.075045298624487
 40
1.152977251758716
 40
1.231079646537355
 40
1.30250656553601
 40
1.382728977624195
 40
1.461691851666099
 40
1.530728449354523
 40
1.604516608733227
 40
1.685806842248692
 40
1.685806842248692
 40
1.685806842248692
 40
1.685806842248692
 10
28.86025968756126
 20
-19.54603721697467
 30
0.0
 10
28.86039702742646
 20
-19.49796851793436
 30
0.0
 10
28.86067126854383
 20
-19.4019846336034
 30
0.0
 10
28.8894082072305
 20
-19.28220649282094
 30
0.0
 10
28.92398586129329
 20
-19.18747243081766
 30
0.0
 10
28.95921843418025
 20
-19.11229064092994
 30
0.0
 10
29.00606143438341
 20
-19.03122487794753
 30
0.0
 10
29.05731942703813
 20
-18.95945885282121
 30
0.0
 10
29.1103612381711
 20
-18.89627596861056
 30
0.0
 10
29.15569378653719
 20
-18.84835177712671
 30
0.0
 10
29.20526988834673
 20
-18.80157177741698
 30
0.0
 10
29.25766204576361
 20
-18.7572786984258
 30
0.0
 10
29.31915008849325
 20
-18.71123069442781
 30
0.0
 10
29.38574144796441
 20
-18.66782979163778
 30
0.0
 10
29.45619895271251
 20
-18.62834801554542
 30
0.0
 10
29.52463510152372
 20
-18.59558380475608
 30
0.0
 10
29.59568736465162
 20
-18.56688495999831
 30
0.0
 10
29.66874137394665
 20
-18.54276813263328
 30
0.0
 10
29.74253475678062
 20
-18.52399318007307
 30
0.0
 10
29.81529605807614
 20
-18.51071435299681
 30
0.0
 10
29.88956886050536
 20
-18.50181950142372
 30
0.0
 10
29.94127519058404
 20
-18.50062575011694
 30
0.0
 10
29.96837902863574
 20
-18.5
 30
0.0
 11
28.86025968756126
 21
-19.54603721697467
 31
0.0
 11
28.86625101568741
 21
-19.40236217004147
 31
0.0
 11
28.89774616336849
 21
-19.26252439548503
 31
0.0
 11
28.92499686741117
 21
-19.18809128663161
 31
0.0
 11
28.95879402684361
 21
-19.11573085078322
 31
0.0
 11
29.00355378384519
 21
-19.03813007074345
 31
0.0
 11
29.06802470163021
 21
-18.94763984096577
 31
0.0
 11
29.10874584402459
 21
-18.89910504204115
 31
0.0
 11
29.15884350532301
 21
-18.84611185754986
 31
0.0
 11
29.20355383629881
 21
-18.8039100104721
 31
0.0
 11
29.25700367356684
 21
-18.75871075657621
 31
0.0
 11
29.31640814081001
 21
-18.71421702050948
 31
0.0
 11
29.3885444091998
 21
-18.66720481477481
 31
0.0
 11
29.4565342448901
 21
-18.62911581948587
 31
0.0
 11
29.52698570258304
 21
-18.59540267399188
 31
0.0
 11
29.59322049722284
 21
-18.56866773923108
 31
0.0
 11
29.66940548833369
 21
-18.54353842307075
 31
0.0
 11
29.74594346679338
 21
-18.52412004697332
 31
0.0
 11
29.81384859549685
 21
-18.51167234372497
 31
0.0
 11
29.88715340669705
 21
-18.50324043294507
 31
0.0
 11
29.96837902863574
 21
-18.5
 31
0.0
  0
SPLINE
  5
19D
330
75
100
AcDbEntity
  8
0
  6
Continuous
 62
     7
100
AcDbSpline
210
0.0
220
0.0
230
1.0
 70
     8
 71
     3
 72
    11
 73
     7
 74
     5
 42
0.0000000001
 43
0.0000000001
 44
0.00000001
 40
0.0
 40
0.0
 40
0.0
 40
0.0
 40
4.62234300540428
 40
9.664829673361073
 40
14.24548390889978
 40
19.20475111861761
 40
19.20475111861761
 40
19.20475111861761
 40
19.20475111861761
 10
28.86025968756126
 20
-19.54603721697467
 30
0.0
 10
28.9706597677575
 20
-21.08330344810268
 30
0.0
 10
29.20149464300897
 20
-24.29756432599322
 30
0.0
 10
29.88715805624627
 20
-28.99978004438712
 30
0.0
 10
30.7549657259406
 20
-33.78317496763081
 30
0.0
 10
31.44986922281133
 20
-36.88666864238785
 30
0.0
 10
31.81111036569964
 20
-38.50000000000003
 30
0.0
 11
28.86025968756126
 21
-19.54603721697467
 31
0.0
 11
29.24506496870998
 21
-24.1523350531127
 31
0.0
 11
29.93945199489951
 21
-29.14678181470519
 31
0.0
 11
30.76175496213255
 21
-33.65302315928921
 31
0.0
 11
31.81111036569964
 21
-38.50000000000003
 31
0.0
  0
SPLINE
  5
19E
330
75
100
AcDbEntity
  8
0
  6
Continuous
 62
     7
100
AcDbSpline
210
0.0
220
0.0
230
1.0
 70
     8
 71
     3
 72
    11
 73
     7
 74
     5
 42
0.0000000001
 43
0.0000000001
 44
0.00000001
 40
0.0
 40
0.0
 40
0.0
 40
0.0
 40
0.0607454294460192
 40
0.1322572875858505
 40
0.2135601632708569
 40
0.2834072743668692
 40
0.2834072743668692
 40
0.2834072743668692
 40
0.2834072743668692
 10
30.30298599737525
 20
-41.50059252208886
 30
0.0
 10
30.32311251574225
 20
-41.50307940149631
 30
0.0
 10
30.36693274636767
 20
-41.50849393108282
 30
0.0
 10
30.43535623889311
 20
-41.52904237921439
 30
0.0
 10
30.50490147778735
 20
-41.55502468677001
 30
0.0
 10
30.55068359505394
 20
-41.57610481455308
 30
0.0
 10
30.57183972413493
 20
-41.58584603953455
 30
0.0
 11
30.30298599737525
 21
-41.50059252208886
 31
0.0
 11
30.36306057004489
 21
-41.50959546145005
 31
0.0
 11
30.43194956415666
 21
-41.52878536360925
 31
0.0
 11
30.50806652531713
 21
-41.55735747970776
 31
0.0
 11
30.57183972413493
 21
-41.58584603953455
 31
0.0
  0
SPLINE
  5
19F
330
75
100
AcDbEntity
  8
0
  6
Continuous
 62
     7
100
AcDbSpline
210
0.0
220
0.0
230
1.0
 70
     8
 71
     3
 72
    26
 73
    22
 74
    20
 42
0.0000000001
 43
0.0000000001
 44
0.00000001
 40
0.0
 40
0.0
 40
0.0
 40
0.0
 40
0.0208013108383075
 40
0.0431076019778249
 40
0.0668318288843143
 40
0.0918879586974311
 40
0.1181910699682153
 40
0.1456574627817933
 40
0.1742047808814566
 40
0.2160614630609044
 40
0.2574404748092652
 40
0.2778649369458318
 40
0.2980451187325096
 40
0.3080833847282343
 40
0.318073561004807
 40
0.32355431883399
 40
0.3283114200465067
 40
0.3322352996678237
 40
0.3352163623455262
 40
0.3371449883856312
 40
0.3379115421070851
 40
0.3379115421070851
 40
0.3379115421070851
 40
0.3379115421070851
 10
31.92107817794954
 20
-38.72465913081555
 30
0.0
 10
31.91555553724694
 20
-38.72046647669441
 30
0.0
 10
31.90411069133675
 20
-38.71177782882555
 30
0.0
 10
31.88653786680931
 20
-38.69808479682795
 30
0.0
 10
31.86799304312452
 20
-38.68333396464786
 30
0.0
 10
31.84858767775058
 20
-38.66752717218842
 30
0.0
 10
31.82841693661529
 20
-38.65068784949241
 30
0.0
 10
31.80758071640194
 20
-38.63283308620728
 30
0.0
 10
31.78309847564933
 20
-38.61126982294201
 30
0.0
 10
31.75556830304229
 20
-38.58615642881369
 30
0.0
 10
31.7305415790167
 20
-38.56232780944612
 30
0.0
 10
31.7110645125003
 20
-38.54315798122371
 30
0.0
 10
31.69916598229183
 20
-38.5311827644927
 30
0.0
 10
31.6898006291512
 20
-38.52159481748492
 30
0.0
 10
31.68389397640065
 20
-38.51547807697446
 30
0.0
 10
31.67923215041924
 20
-38.51060660747552
 30
0.0
 10
31.67597846409207
 20
-38.50718645184309
 30
0.0
 10
31.67330672348883
 20
-38.50436274939071
 30
0.0
 10
31.67128689812275
 20
-38.50222019531542
 30
0.0
 10
31.66999279881416
 20
-38.50083987528313
 30
0.0
 10
31.66937673849903
 20
-38.50018597894
 30
0.0
 10
31.66920152075143
 20
-38.49999999999998
 30
0.0
 11
31.92107817794954
 21
-38.72465913081555
 31
0.0
 11
31.90453589064196
 21
-38.71204773663309
 31
0.0
 11
31.88693301787381
 21
-38.69834702516583
 31
0.0
 11
31.86836849397788
 21
-38.68357551898575
 31
0.0
 11
31.848941253287
 21
-38.66775174066481
 31
0.0
 11
31.82875023013397
 21
-38.65089421277496
 31
0.0
 11
31.80789435885161
 21
-38.63302145788817
 31
0.0
 11
31.78647257377273
 21
-38.61415199857642
 31
0.0
 11
31.75555278310077
 21
-38.58593944130357
 31
0.0
 11
31.72558939338847
 21
-38.55740143348558
 31
0.0
 11
31.71103342580758
 21
-38.54307375183948
 31
0.0
 11
31.69681050837725
 21
-38.52875773435159
 31
0.0
 11
31.68979631641128
 21
-38.52157665537518
 31
0.0
 11
31.68285682873175
 21
-38.51439006141263
 31
0.0
 11
31.67906746211883
 21
-38.5104303383093
 31
0.0
 11
31.67578873675185
 21
-38.50698360479566
 31
0.0
 11
31.67309171628122
 21
-38.5041335325398
 31
0.0
 11
31.67104746435733
 21
-38.50196379320982
 31
0.0
 11
31.66972704463061
 21
-38.50055805847387
 31
0.0
 11
31.66920152075143
 21
-38.49999999999998
 31
0.0
  0
SPLINE
  5
1A0
330
75
100
AcDbEntity
  8
0
  6
Continuous
 62
     7
100
AcDbSpline
210
0.0
220
0.0
230
1.0
 70
     8
 71
     3
 72
    11
 73
     7
 74
     5
 42
0.0000000001
 43
0.0000000001
 44
0.00000001
 40
0.0
 40
0.0
 40
0.0
 40
0.0
 40
0.668728165953722
 40
1.285051518675204
 40
1.953227331189283
 40
2.56705807570375
 40
2.56705807570375
 40
2.56705807570375
 40
2.56705807570375
 10
31.66920152075143
 20
-38.49999999999998
 30
0.0
 10
31.71858309981042
 20
-38.71737104957911
 30
0.0
 10
31.81347647561707
 20
-39.13507888902581
 30
0.0
 10
31.96049968211306
 20
-39.76933894206633
 30
0.0
 10
32.10512371799422
 20
-40.3853681869552
 30
0.0
 10
32.20447050821809
 20
-40.80099563232747
 30
0.0
 10
32.25203821672466
 20
-40.99999999999999
 30
0.0
 11
31.66920152075143
 21
-38.49999999999998
 31
0.0
 11
31.81784317118689
 21
-39.15199924823241
 31
0.0
 11
31.95686662381245
 21
-39.75243821659632
 31
0.0
 11
32.10971961304862
 21
-40.40289565571929
 31
0.0
 11
32.25203821672466
 21
-40.99999999999999
 31
0.0
  0
SPLINE
  5
1A1
330
75
100
AcDbEntity
  8
0
  6
Continuous
 62
     7
100
AcDbSpline
210
0.0
220
0.0
230
1.0
 70
     8
 71
     3
 72
    11
 73
     7
 74
     5
 42
0.0000000001
 43
0.0000000001
 44
0.00000001
 40
0.0
 40
0.0
 40
0.0
 40
0.0
 40
0.0576733194352072
 40
0.1268027422569691
 40
0.190234570719489
 40
0.2519547707612296
 40
0.2519547707612296
 40
0.2519547707612296
 40
0.2519547707612296
 10
31.92107817794954
 20
-38.72465913081555
 30
0.0
 10
31.90965247597222
 20
-38.70918045732336
 30
0.0
 10
31.88453149529824
 20
-38.67514846012723
 30
0.0
 10
31.85345919338171
 20
-38.61969431076191
 30
0.0
 10
31.82735299273287
 20
-38.56021763498796
 30
0.0
 10
31.81647498406747
 20
-38.51988869350155
 30
0.0
 10
31.81111036569964
 20
-38.50000000000003
 30
0.0
 11
31.92107817794954
 21
-38.72465913081555
 31
0.0
 11
31.88771324033813
 21
-38.67761667432291
 31
0.0
 11
31.85357271693586
 21
-38.61750592851578
 31
0.0
 11
31.82864865038206
 21
-38.55917593821474
 31
0.0
 11
31.81111036569964
 21
-38.50000000000003
 31
0.0
  0
SPLINE
  5
1A2
330
75
100
AcDbEntity
  8
0
  6
Continuous
 62
     7
100
AcDbSpline
210
0.0
220
0.0
230
1.0
 70
     8
 71
     3
 72
    11
 73
     7
 74
     5
 42
0.0000000001
 43
0.0000000001
 44
0.00000001
 40
0.0
 40
0.0
 40
0.0
 40
0.0
 40
0.2304230017212117
 40
0.4618229731988124
 40
0.6917062362544409
 40
0.9229666898772004
 40
0.9229666898772004
 40
0.9229666898772004
 40
0.9229666898772004
 10
33.65583728299946
 20
-65.08112335523998
 30
0.0
 10
33.68404919075951
 20
-65.15256218233336
 30
0.0
 10
33.74059262185813
 20
-65.2957427297772
 30
0.0
 10
33.82530675548328
 20
-65.51018494137878
 30
0.0
 10
33.91013985101252
 20
-65.72488030041839
 30
0.0
 10
33.96664385612476
 20
-65.86783297495084
 30
0.0
 10
33.9949802323588
 20
-65.93952277395124
 30
0.0
 11
33.65583728299946
 21
-65.08112335523998
 31
0.0
 11
33.74047714119762
 21
-65.29543820336397
 31
0.0
 11
33.82549525723627
 21
-65.51065406417602
 31
0.0
 11
33.90997518656917
 21
-65.72445176335216
 31
0.0
 11
33.9949802323588
 21
-65.93952277395124
 31
0.0
  0
SPLINE
  5
1A3
330
75
100
AcDbEntity
  8
0
  6
Continuous
 62
     7
100
AcDbSpline
210
0.0
220
0.0
230
1.0
 70
     8
 71
     3
 72
     9
 73
     5
 74
     3
 42
0.0000000001
 43
0.0000000001
 44
0.00000001
 40
0.0
 40
0.0
 40
0.0
 40
0.0
 40
0.2560820150851199
 40
0.5196953196781415
 40
0.5196953196781415
 40
0.5196953196781415
 40
0.5196953196781415
 10
35.94049351401286
 20
-60.04358838958403
 30
0.0
 10
35.97922487703428
 20
-60.12201958575478
 30
0.0
 10
36.0578266799774
 20
-60.28118861429103
 30
0.0
 10
36.21270526463243
 20
-60.36824533157974
 30
0.0
 10
36.29126678705847
 20
-60.41240449188487
 30
0.0
 11
35.94049351401286
 21
-60.04358838958403
 31
0.0
 11
36.0752081115886
 21
-60.2613726306348
 31
0.0
 11
36.29126678705847
 21
-60.41240449188487
 31
0.0
  0
SPLINE
  5
1A4
330
75
100
AcDbEntity
  8
0
  6
Continuous
 62
     7
100
AcDbSpline
210
0.0
220
0.0
230
1.0
 70
     8
 71
     3
 72
    11
 73
     7
 74
     5
 42
0.0000000001
 43
0.0000000001
 44
0.00000001
 40
0.0
 40
0.0
 40
0.0
 40
0.0
 40
1.037848319818806
 40
2.154601044702932
 40
3.268396589571026
 40
4.310723022233487
 40
4.310723022233487
 40
4.310723022233487
 40
4.310723022233487
 10
34.35832763319767
 20
-61.64415176191561
 30
0.0
 10
34.32791906719716
 20
-61.98876231142465
 30
0.0
 10
34.26479006576078
 20
-62.70418308709006
 30
0.0
 10
34.17201478104339
 20
-63.78969237823189
 30
0.0
 10
34.0811158810145
 20
-64.87685813656901
 30
0.0
 10
34.02305055017359
 20
-65.59321628450802
 30
0.0
 10
33.9949802323588
 20
-65.93952277395124
 30
0.0
 11
34.35832763319767
 21
-61.64415176191561
 31
0.0
 11
34.26755889207509
 21
-62.67802320972029
 31
0.0
 11
34.17227310446821
 21
-63.79070342757996
 31
0.0
 11
34.07961594577799
 21
-64.90063818544255
 31
0.0
 11
33.9949802323588
 21
-65.93952277395124
 31
0.0
  0
SPLINE
  5
1A5
330
75
100
AcDbEntity
  8
0
  6
Continuous
 62
     7
100
AcDbSpline
210
0.0
220
0.0
230
1.0
 70
     8
 71
     3
 72
    11
 73
     7
 74
     5
 42
0.0000000001
 43
0.0000000001
 44
0.00000001
 40
0.0
 40
0.0
 40
0.0
 40
0.0
 40
0.0150438320186077
 40
0.0299324998169943
 40
0.0431397277807926
 40
0.0564238858085585
 40
0.0564238858085585
 40
0.0564238858085585
 40
0.0564238858085585
 10
35.21790758857308
 20
-61.89119406545088
 30
0.0
 10
35.21428051845486
 20
-61.89466255836105
 30
0.0
 10
35.20706378833479
 20
-61.90156376965284
 30
0.0
 10
35.19555249241989
 20
-61.91022660192006
 30
0.0
 10
35.18378377414429
 20
-61.91749974207271
 30
0.0
 10
35.17563920867082
 20
-61.92094315207769
 30
0.0
 10
35.1715551001666
 20
-61.92266985685167
 30
0.0
 11
35.21790758857308
 21
-61.89119406545088
 31
0.0
 11
35.20683178066969
 21
-61.90137460380066
 31
0.0
 11
35.19496521149909
 21
-61.91036665389672
 31
0.0
 11
35.18365397143844
 21
-61.91718477084923
 31
0.0
 11
35.1715551001666
 21
-61.92266985685167
 31
0.0
  0
SPLINE
  5
1A6
330
75
100
AcDbEntity
  8
0
  6
Continuous
 62
     7
100
AcDbSpline
210
0.0
220
0.0
230
1.0
 70
     8
 71
     3
 72
    29
 73
    25
 74
    23
 42
0.0000000001
 43
0.0000000001
 44
0.00000001
 40
0.0
 40
0.0
 40
0.0
 40
0.0
 40
0.0582243858776193
 40
0.130116534178753
 40
0.214888040529627
 40
0.3083809845215134
 40
0.4004489961891071
 40
0.4523826822140167
 40
0.5164594826457117
 40
0.5900080406005348
 40
0.6347771513892436
 40
0.6852509065948508
 40
0.7372094088980577
 40
0.7792250898378915
 40
0.8480287863455567
 40
0.9103914726927025
 40
0.9587027945317006
 40
1.002584849979262
 40
1.029988315607576
 40
1.053149234091486
 40
1.075403227865443
 40
1.099564548755843
 40
1.106244535872107
 40
1.112800189211527
 40
1.112800189211527
 40
1.112800189211527
 40
1.112800189211527
 10
33.9949802323588
 20
-65.93952277395124
 30
0.0
 10
34.00239133930085
 20
-65.95746447526341
 30
0.0
 10
34.01895325807756
 20
-65.99755956526434
 30
0.0
 10
34.0507852590566
 20
-66.06179326943142
 30
0.0
 10
34.09201638345596
 20
-66.1343248298341
 30
0.0
 10
34.14167791529978
 20
-66.2096011253
 30
0.0
 10
34.18949755034942
 20
-66.27276306220789
 30
0.0
 10
34.23412343553039
 20
-66.32587774906558
 30
0.0
 10
34.27676739197464
 20
-66.37253473762178
 30
0.0
 10
34.32007997152101
 20
-66.41525431821768
 30
0.0
 10
34.36202786474479
 20
-66.45276941249331
 30
0.0
 10
34.39997522976957
 20
-66.48390376678466
 30
0.0
 10
34.43873319334412
 20
-66.51251882149717
 30
0.0
 10
34.48408953525009
 20
-66.54233278764126
 30
0.0
 10
34.53462963841019
 20
-66.5704488630885
 30
0.0
 10
34.59014535563845
 20
-66.59324821199444
 30
0.0
 10
34.64028142502994
 20
-66.60585003532225
 30
0.0
 10
34.680300615988
 20
-66.60892346794199
 30
0.0
 10
34.71172924691978
 20
-66.60551424111323
 30
0.0
 10
34.73523410681146
 20
-66.59907099909063
 30
0.0
 10
34.75642216371241
 20
-66.58939316696716
 30
0.0
 10
34.77107509964559
 20
-66.57927870436106
 30
0.0
 10
34.78050242113003
 20
-66.57111655197
 30
0.0
 10
34.78366373683397
 20
-66.5680377109515
 30
0.0
 10
34.78522954620457
 20
-66.5665127515457
 30
0.0
 11
33.9949802323588
 21
-65.93952277395124
 31
0.0
 11
34.01775672239079
 21
-65.99310738566625
 31
0.0
 11
34.04942796423484
 21
-66.05764739982342
 31
0.0
 11
34.09134016390255
 21
-66.1313330551982
 31
0.0
 11
34.14277085756832
 21
-66.20940875132271
 31
0.0
 11
34.19835068479917
 21
-66.28280767214184
 31
0.0
 11
34.23176319524944
 21
-66.32256583972467
 31
0.0
 11
34.27500958142293
 21
-66.3698478282245
 31
0.0
 11
34.32741944206915
 21
-66.42144818562905
 31
0.0
 11
34.36080529304395
 21
-66.45127532487336
 31
0.0
 11
34.39985425822561
 21
-66.48325622984488
 31
0.0
 11
34.44169754834433
 21
-66.51405923349117
 31
0.0
 11
34.47683549289001
 21
-66.53709490795367
 31
0.0
 11
34.5371404220799
 21
-66.57021988596908
 31
0.0
 11
34.59502123998313
 21
-66.59343444104312
 31
0.0
 11
34.64197720504442
 21
-66.60479759038626
 31
0.0
 11
34.68576464563877
 21
-66.60767766616635
 31
0.0
 11
34.71299282006619
 21
-66.60458308286773
 31
0.0
 11
34.73531119978889
 21
-66.5983929236152
 31
0.0
 11
34.75553664117657
 21
-66.58911004908384
 31
0.0
 11
34.77544737282265
 21
-66.57542311398183
 31
0.0
 11
34.78048912998726
 21
-66.57104100118472
 31
0.0
 11
34.78522954620457
 21
-66.5665127515457
 31
0.0
  0
SPLINE
  5
1A7
330
75
100
AcDbEntity
  8
0
  6
Continuous
 62
     7
100
AcDbSpline
210
0.0
220
0.0
230
1.0
 70
     8
 71
     3
 72
    11
 73
     7
 74
     5
 42
0.0000000001
 43
0.0000000001
 44
0.00000001
 40
0.0
 40
0.0
 40
0.0
 40
0.0
 40
1.115648535034065
 40
2.328872932747947
 40
3.487253401567587
 40
4.65989824789859
 40
4.65989824789859
 40
4.65989824789859
 40
4.65989824789859
 10
35.1715551001666
 20
-61.92266985685167
 30
0.0
 10
35.13931660527964
 20
-62.2931528541152
 30
0.0
 10
35.0720200008589
 20
-63.06652170396003
 30
0.0
 10
34.97459376297146
 20
-64.22485088572782
 30
0.0
 10
34.87780345378384
 20
-65.40229697232084
 30
0.0
 10
34.8162131464364
 20
-66.17686088062075
 30
0.0
 10
34.78522954620457
 20
-66.5665127515457
 30
0.0
 11
35.1715551001666
 21
-61.92266985685167
 31
0.0
 11
35.07535206256615
 21
-63.03416282996491
 31
0.0
 11
34.97345174196986
 21
-64.24310028238773
 31
0.0
 11
34.87870367392857
 21
-65.39759935737447
 31
0.0
 11
34.78522954620457
 21
-66.5665127515457
 31
0.0
  0
SPLINE
  5
1A8
330
75
100
AcDbEntity
  8
0
  6
Continuous
 62
     7
100
AcDbSpline
210
0.0
220
0.0
230
1.0
 70
     8
 71
     3
 72
   117
 73
   113
 74
   111
 42
0.0000000001
 43
0.0000000001
 44
0.00000001
 40
0.0
 40
0.0
 40
0.0
 40
0.0
 40
0.0059285926494677
 40
0.0119868926633614
 40
0.0181758786743425
 40
0.0244955770754766
 40
0.030945169948613
 40
0.037523091830488
 40
0.0442271158295788
 40
0.0510544298541659
 40
0.0580017038320448
 40
0.0650651488363013
 40
0.0722405690114167
 40
0.0795234071416467
 40
0.086908784634594
 40
0.0943915366173799
 40
0.1019662427658233
 40
0.1096272544147693
 40
0.1190850372939011
 40
0.1287250187579907
 40
0.1385422218869315
 40
0.1485314508904588
 40
0.1586873158412043
 40
0.1690042543518759
 40
0.1794765506279243
 40
0.1900983522623873
 40
0.2008636850860489
 40
0.2117664663398164
 40
0.2248375617407135
 40
0.2381000432357963
 40
0.2515443345809552
 40
0.2651607463624465
 40
0.2789394916802048
 40
0.2928707001813668
 40
0.3069444307020237
 40
0.32115068273719
 40
0.335479406927701
 40
0.3499205147269267
 40
0.3644638873891403
 40
0.3790993844047879
 40
0.3938168514924241
 40
0.4086061282478177
 40
0.4234570555396397
 40
0.438265556047538
 40
0.4531213656553083
 40
0.468014647729369
 40
0.4829355984520283
 40
0.4978744538592534
 40
0.51282149707424
 40
0.5277670658042891
 40
0.5427015601711837
 40
0.5574938604534414
 40
0.5722602313735289
 40
0.586991459098714
 40
0.6016784278138257
 40
0.6163121301030581
 40
0.6308836781631341
 40
0.6453843159601919
 40
0.6598054324539584
 40
0.6678482971148959
 40
0.6757062001147446
 40
0.683379776595137
 40
0.6908696277906566
 40
0.6981763209123009
 40
0.705300389043796
 40
0.7122423310513449
 40
0.7190026115072534
 40
0.7255816606281211
 40
0.73197987422823
 40
0.7381976136890611
 40
0.7442352059457676
 40
0.7500929434918745
 40
0.7557710844034262
 40
0.7612698523844259
 40
0.766589436835344
 40
0.7717299929475684
 40
0.7766916418266174
 40
0.7814744706483593
 40
0.7910077653267173
 40
0.8004478380748284
 40
0.8097932676157584
 40
0.8190427414100501
 40
0.8281950634509265
 40
0.8372491626337597
 40
0.8435880968255292
 40
0.8500982680828795
 40
0.8567657501854439
 40
0.863576856193927
 40
0.8664576175022388
 40
0.869554263258466
 40
0.8728497368414756
 40
0.8763270411733187
 40
0.8772661192755328
 40
0.8783836349206717
 40
0.8796586481086905
 40
0.8810702257248647
 40
0.8825974431052769
 40
0.8829131339324828
 40
0.8834297758140859
 40
0.8840996174471418
 40
0.8848749099250349
 40
0.8857079081912078
 40
0.8863060208684498
 40
0.886753310198538
 40
0.8870660024176068
 40
0.8872603195426432
 40
0.887712253040673
 40
0.8880442248681756
 40
0.8883283835897707
 40
0.8884494071932563
 40
0.88864305484009
 40
0.8888070780482599
 40
0.8888070780482599
 40
0.8888070780482599
 40
0.8888070780482599
 10
35.1715551001666
 20
-61.92266985685167
 30
0.0
 10
35.16969887080579
 20
-61.92334855513562
 30
0.0
 10
35.16594580099274
 20
-61.9247208004494
 30
0.0
 10
35.16016456319409
 20
-61.92653942785589
 30
0.0
 10
35.15420647204939
 20
-61.92821690787525
 30
0.0
 10
35.14807131232201
 20
-61.92973623646496
 30
0.0
 10
35.14176862967123
 20
-61.93110627863615
 30
0.0
 10
35.1353052746591
 20
-61.93232873188981
 30
0.0
 10
35.12868884760619
 20
-61.93340726315211
 30
0.0
 10
35.12192674727373
 20
-61.93434498687175
 30
0.0
 10
35.11502643347042
 20
-61.93514516307428
 30
0.0
 10
35.10799535444563
 20
-61.93581100647752
 30
0.0
 10
35.10084096652084
 20
-61.936345740362
 30
0.0
 10
35.09357072838067
 20
-61.93675258269761
 30
0.0
 10
35.08619210182368
 20
-61.93703475100169
 30
0.0
 10
35.07871255258881
 20
-61.93719546066195
 30
0.0
 10
35.07113954415304
 20
-61.93723792952581
 30
0.0
 10
35.06290845963466
 20
-61.93715994265293
 30
0.0
 10
35.0539913035825
 20
-61.93693322267542
 30
0.0
 10
35.04436106096805
 20
-61.93652865659007
 30
0.0
 10
35.03456156756531
 20
-61.935962051203
 30
0.0
 10
35.02460023039229
 20
-61.93523559023695
 30
0.0
 10
35.01448444857459
 20
-61.93435145294193
 30
0.0
 10
35.00422162593534
 20
-61.93331182005989
 30
0.0
 10
34.9938191668731
 20
-61.93211887230306
 30
0.0
 10
34.9832844783792
 20
-61.93077479074121
 30
0.0
 10
34.97262496471262
 20
-61.92928175707529
 30
0.0
 10
34.96117674247305
 20
-61.92753980743983
 30
0.0
 10
34.94892982516272
 20
-61.92551913699409
 30
0.0
 10
34.93587640525792
 20
-61.92318963276077
 30
0.0
 10
34.92267501325637
 20
-61.92066084396598
 30
0.0
 10
34.90933710707193
 20
-61.91793556191411
 30
0.0
 10
34.89587413895009
 20
-61.91501657633292
 30
0.0
 10
34.88229756389924
 20
-61.91190667836123
 30
0.0
 10
34.8686188371768
 20
-61.90860865966188
 30
0.0
 10
34.85484941479589
 20
-61.90512531259505
 30
0.0
 10
34.84100075323348
 20
-61.90145943010529
 30
0.0
 10
34.82708430937787
 20
-61.89761380569232
 30
0.0
 10
34.81311154042564
 20
-61.89359123335444
 30
0.0
 10
34.79909390381442
 20
-61.88939450757589
 30
0.0
 10
34.78504285712806
 20
-61.88502642318117
 30
0.0
 10
34.77096985812609
 20
-61.88048977570022
 30
0.0
 10
34.75691606209259
 20
-61.87579727576919
 30
0.0
 10
34.74289068875714
 20
-61.8709521532986
 30
0.0
 10
34.72890286680675
 20
-61.86595751687639
 30
0.0
 10
34.71493244265757
 20
-61.86080506483851
 30
0.0
 10
34.7009906419887
 20
-61.85549733699629
 30
0.0
 10
34.68708869056808
 20
-61.85003687313895
 30
0.0
 10
34.67323781379399
 20
-61.84442621324574
 30
0.0
 10
34.65944923705925
 20
-61.83866789747555
 30
0.0
 10
34.64577141317628
 20
-61.8327804903159
 30
0.0
 10
34.63221368796172
 20
-61.82676740537777
 30
0.0
 10
34.61878531741281
 20
-61.82063201277523
 30
0.0
 10
34.6054591134945
 20
-61.81435974685795
 30
0.0
 10
34.59224614869065
 20
-61.80795301110828
 30
0.0
 10
34.5791574962829
 20
-61.80141420982987
 30
0.0
 10
34.56620422464323
 20
-61.79474574401036
 30
0.0
 10
34.55339741722962
 20
-61.78795002581914
 30
0.0
 10
34.54258760676647
 20
-61.78203584278397
 30
0.0
 10
34.53377084819894
 20
-61.77709379737681
 30
0.0
 10
34.52694476630596
 20
-61.77320075984251
 30
0.0
 10
34.52030712541081
 20
-61.76934983308716
 30
0.0
 10
34.51385631250934
 20
-61.76554342629893
 30
0.0
 10
34.50759071950107
 20
-61.76178394990399
 30
0.0
 10
34.50150873702442
 20
-61.75807381398832
 30
0.0
 10
34.49560875605182
 20
-61.75441542870232
 30
0.0
 10
34.48988916748073
 20
-61.75081120415304
 30
0.0
 10
34.48434836224218
 20
-61.74726355042809
 30
0.0
 10
34.47898473127642
 20
-61.74377487758478
 30
0.0
 10
34.47379666554355
 20
-61.74034759564871
 30
0.0
 10
34.46878255602529
 20
-61.73698411460462
 30
0.0
 10
34.46394079373221
 20
-61.7336868444036
 30
0.0
 10
34.45926976970233
 20
-61.73045819491024
 30
0.0
 10
34.45476787503272
 20
-61.72730057605701
 30
0.0
 10
34.45043350079968
 20
-61.72421639725575
 30
0.0
 10
34.44626503838046
 20
-61.72120806943987
 30
0.0
 10
34.44226087835915
 20
-61.71827799776642
 30
0.0
 10
34.43709973532646
 20
-61.71444974068142
 30
0.0
 10
34.4307854823523
 20
-61.70967057087972
 30
0.0
 10
34.42333537883322
 20
-61.70387338692666
 30
0.0
 10
34.41603969126869
 20
-61.69803322107469
 30
0.0
 10
34.40890172029623
 20
-61.69215098343284
 30
0.0
 10
34.40192476155885
 20
-61.68622758951744
 30
0.0
 10
34.39576823235162
 20
-61.68083830808978
 30
0.0
 10
34.39033928870558
 20
-61.6759562776131
 30
0.0
 10
34.38555225172459
 20
-61.6715508012788
 30
0.0
 10
34.3807047752831
 20
-61.66697929060953
 30
0.0
 10
34.37678606031067
 20
-61.66318691560402
 30
0.0
 10
34.37375145852756
 20
-61.66019306687836
 30
0.0
 10
34.37156421692777
 20
-61.65800900084906
 30
0.0
 10
34.3692515739601
 20
-61.65566919802384
 30
0.0
 10
34.3674575345678
 20
-61.65382810017761
 30
0.0
 10
34.36617645453437
 20
-61.65250088274993
 30
0.0
 10
34.36540699399846
 20
-61.65170011897724
 30
0.0
 10
34.36453081716009
 20
-61.65078347710109
 30
0.0
 10
34.36356332003705
 20
-61.64976521156427
 30
0.0
 10
34.36281879634449
 20
-61.64897619733638
 30
0.0
 10
34.3622802434827
 20
-61.64840298762842
 30
0.0
 10
34.36193779644074
 20
-61.64803767199829
 30
0.0
 10
34.36149130693514
 20
-61.64755990025381
 30
0.0
 10
34.36097392786739
 20
-61.6470040456865
 30
0.0
 10
34.36047425216624
 20
-61.64646438120134
 30
0.0
 10
34.36005024742394
 20
-61.64600365716431
 30
0.0
 10
34.35974478445883
 20
-61.64566955440282
 30
0.0
 10
34.35953093009203
 20
-61.64543405423348
 30
0.0
 10
34.35931701617208
 20
-61.64519657309334
 30
0.0
 10
34.35909957775202
 20
-61.64495329310607
 30
0.0
 10
34.3588689873146
 20
-61.64468279302402
 30
0.0
 10
34.3587118511835
 20
-61.64449198922337
 30
0.0
 10
34.35860682763978
 20
-61.64432404266131
 30
0.0
 10
34.35850048862736
 20
-61.64419394923963
 30
0.0
 10
34.35838197980448
 20
-61.6441650258201
 30
0.0
 10
34.35832763319767
 20
-61.64415176191561
 30
0.0
 11
35.1715551001666
 21
-61.92266985685167
 31
0.0
 11
35.16597182670162
 21
-61.92466366431945
 31
0.0
 11
35.16019766441609
 21
-61.92649725341155
 31
0.0
 11
35.15424009833106
 21
-61.92817384345883
 31
0.0
 11
35.1481066134676
 21
-61.92969665379209
 31
0.0
 11
35.14180469484676
 21
-61.93106890374217
 31
0.0
 11
35.1353418274896
 21
-61.9322938126399
 31
0.0
 11
35.12872549641716
 21
-61.93337459981613
 31
0.0
 11
35.1219631866505
 21
-61.93431448460167
 31
0.0
 11
35.11506238321068
 21
-61.93511668632735
 31
0.0
 11
35.10803057111877
 21
-61.93578442432405
 31
0.0
 11
35.10087523539582
 21
-61.93632091792256
 31
0.0
 11
35.09360386106285
 21
-61.93672938645368
 31
0.0
 11
35.08622393314096
 21
-61.93701304924831
 31
0.0
 11
35.07874293665118
 21
-61.93717512563726
 31
0.0
 11
35.07116835661456
 21
-61.93721883495132
 31
0.0
 11
35.06350767805219
 21
-61.93714739652138
 31
0.0
 11
35.05405290229205
 21
-61.93690891735194
 31
0.0
 11
35.04442134225791
 21
-61.93650606013554
 31
0.0
 11
35.03462041381654
 21
-61.93594101238358
 31
0.0
 11
35.02465753283477
 21
-61.93521596160749
 31
0.0
 11
35.01454011517936
 21
-61.93433309531866
 31
0.0
 11
35.00427557671715
 21
-61.93329460102851
 31
0.0
 11
34.99387133331489
 21
-61.93210266624844
 31
0.0
 11
34.9833348008394
 21
-61.93075947848986
 31
0.0
 11
34.97267339515747
 21
-61.92926722526419
 31
0.0
 11
34.9618945321359
 21
-61.92762809408283
 31
0.0
 11
34.9489975654401
 21
-61.92550164515877
 31
0.0
 11
34.93594112727131
 21
-61.92317294643369
 31
0.0
 11
34.92273668000862
 21
-61.92064479646578
 31
0.0
 11
34.90939568603112
 21
-61.91791999381321
 31
0.0
 11
34.8959296077179
 21
-61.91500133703418
 31
0.0
 11
34.88234990744802
 21
-61.91189162468682
 31
0.0
 11
34.86866804760058
 21
-61.90859365532933
 31
0.0
 11
34.85489549055466
 21
-61.90511022751989
 31
0.0
 11
34.84104369868934
 21
-61.90144413981669
 31
0.0
 11
34.82712413438368
 21
-61.89759819077783
 31
0.0
 11
34.81314826001681
 21
-61.89357517896161
 31
0.0
 11
34.79912753796776
 21
-61.88937790292609
 31
0.0
 11
34.78507343061567
 21
-61.8850091612295
 31
0.0
 11
34.77099740033956
 21
-61.88047175243001
 31
0.0
 11
34.75691090951855
 21
-61.87576847508579
 31
0.0
 11
34.74291403843266
 21
-61.87093326184362
 31
0.0
 11
34.72892338235972
 21
-61.86593760155181
 31
0.0
 11
34.71495017192508
 21
-61.86078403569051
 31
0.0
 11
34.70100563775404
 21
-61.85547510573987
 31
0.0
 11
34.68710101047197
 21
-61.85001335318006
 31
0.0
 11
34.67324752070419
 21
-61.84440131949123
 31
0.0
 11
34.65945639907603
 21
-61.8386415461535
 31
0.0
 11
34.64573887621282
 21
-61.83273657464704
 31
0.0
 11
34.63221705490198
 21
-61.82673886707846
 31
0.0
 11
34.61878641172788
 21
-61.82060180474542
 31
0.0
 11
34.60545802684577
 21
-61.81432779273351
 31
0.0
 11
34.59224298041085
 21
-61.80791923612834
 31
0.0
 11
34.57915235257835
 21
-61.80137854001548
 31
0.0
 11
34.56619722350351
 21
-61.79470810948055
 31
0.0
 11
34.55338867334153
 21
-61.78791034960913
 31
0.0
 11
34.54073778224765
 21
-61.78098766548679
 31
0.0
 11
34.53372201582157
 21
-61.77705489376587
 31
0.0
 11
34.52689628292639
 21
-61.77316182171432
 31
0.0
 11
34.52025897436287
 21
-61.76931085936275
 31
0.0
 11
34.51380848093178
 21
-61.76550441674183
 31
0.0
 11
34.50754319343386
 21
-61.76174490388212
 31
0.0
 11
34.50146150266989
 21
-61.75803473081424
 31
0.0
 11
34.49556179944061
 21
-61.75437630756883
 31
0.0
 11
34.48984247454678
 21
-61.75077204417648
 31
0.0
 11
34.48430191878916
 21
-61.74722435066781
 31
0.0
 11
34.4789385229685
 21
-61.74373563707344
 31
0.0
 11
34.47375067788555
 21
-61.74030831342398
 31
0.0
 11
34.4687367743411
 21
-61.73694478975005
 31
0.0
 11
34.46389520313586
 21
-61.73364747608227
 31
0.0
 11
34.45922435507063
 21
-61.73041878245125
 31
0.0
 11
34.45472262094614
 21
-61.72726111888759
 31
0.0
 11
34.45038839156317
 21
-61.72417689542192
 31
0.0
 11
34.44622005772245
 21
-61.72116852208484
 31
0.0
 11
34.44221601022475
 21
-61.71823840890697
 31
0.0
 11
34.43837463987082
 21
-61.71538896591893
 31
0.0
 11
34.43077370542338
 21
-61.70963488015748
 31
0.0
 11
34.42332397439723
 21
-61.70383690800098
 31
0.0
 11
34.41602874163451
 21
-61.69799596353606
 31
0.0
 11
34.40889130197739
 21
-61.69211296084931
 31
0.0
 11
34.40191495026804
 21
-61.68618881402742
 31
0.0
 11
34.3951029813486
 21
-61.68022443715694
 31
0.0
 11
34.39038980074099
 21
-61.67598556758503
 31
0.0
 11
34.38559974694092
 21
-61.6715767452488
 31
0.0
 11
34.38074940236077
 21
-61.66700187092901
 31
0.0
 11
34.37585534941288
 21
-61.66226484540638
 31
0.0
 11
34.37380465209098
 21
-61.66024162366633
 31
0.0
 11
34.37161344233289
 21
-61.65805351609686
 31
0.0
 11
34.36929689131536
 21
-61.65570964376255
 31
0.0
 11
34.36687017021521
 21
-61.65321912772801
 31
0.0
 11
34.36621799342407
 21
-61.65254345538496
 31
0.0
 11
34.3654437001218
 21
-61.65173765696154
 31
0.0
 11
34.36456270831302
 21
-61.65081596717507
 31
0.0
 11
34.3635904360023
 21
-61.64979262074287
 31
0.0
 11
34.36254230119421
 21
-61.64868185238218
 31
0.0
 11
34.3623261424141
 21
-61.64845177396041
 31
0.0
 11
34.36197280493677
 21
-61.64807485027989
 31
0.0
 11
34.36151545844529
 21
-61.64758544043109
 31
0.0
 11
34.36098727262275
 21
-61.64701790350441
 31
0.0
 11
34.36042141715227
 21
-61.64640659859033
 31
0.0
 11
34.36001647848227
 21
-61.6459664128929
 31
0.0
 11
34.35971472787752
 21
-61.64563623973024
 31
0.0
 11
34.35950460004793
 21
-61.6454046739316
 31
0.0
 11
34.35937452970346
 21
-61.64526031032618
 31
0.0
 11
34.35907457595465
 21
-61.64492226944815
 31
0.0
 11
34.35885915294082
 21
-61.64466968635416
 31
0.0
 11
34.35868460620095
 21
-61.64444545519072
 31
0.0
 11
34.3586173879203
 21
-61.64434481516217
 31
0.0
 11
34.35848245978625
 21
-61.6442059130032
 31
0.0
 11
34.35832763319767
 21
-61.64415176191561
 31
0.0
  0
SPLINE
  5
1A9
330
75
100
AcDbEntity
  8
0
  6
Continuous
 62
     7
100
AcDbSpline
210
0.0
220
0.0
230
1.0
 70
     8
 71
     3
 72
     9
 73
     5
 74
     3
 42
0.0000000001
 43
0.0000000001
 44
0.00000001
 40
0.0
 40
0.0
 40
0.0
 40
0.0
 40
0.163809484705341
 40
0.3011911569321238
 40
0.3011911569321238
 40
0.3011911569321238
 40
0.3011911569321238
 10
36.46971065462589
 20
-60.17085875066709
 30
0.0
 10
36.44224084500379
 20
-60.21830536782996
 30
0.0
 10
36.39173300197096
 20
-60.30554391535064
 30
0.0
 10
36.32273753875424
 20
-60.37893072487666
 30
0.0
 10
36.29126678705847
 20
-60.41240449188487
 30
0.0
 11
36.46971065462589
 21
-60.17085875066709
 31
0.0
 11
36.38183264455824
 21
-60.30910130065072
 31
0.0
 11
36.29126678705847
 21
-60.41240449188487
 31
0.0
  0
SPLINE
  5
1AA
330
75
100
AcDbEntity
  8
0
  6
Continuous
 62
     7
100
AcDbSpline
210
0.0
220
0.0
230
1.0
 70
     8
 71
     3
 72
    23
 73
    19
 74
    17
 42
0.0000000001
 43
0.0000000001
 44
0.00000001
 40
0.0
 40
0.0
 40
0.0
 40
0.0
 40
0.0305303480245017
 40
0.0539089456090041
 40
0.0825635807109342
 40
0.1103514396483375
 40
0.1429258028563051
 40
0.1835670235923204
 40
0.24812604990554
 40
0.3106135583850617
 40
0.3582338967932535
 40
0.404859592347929
 40
0.444454648921079
 40
0.4733099113001932
 40
0.509954875113363
 40
0.5434213418272977
 40
0.5549215976374283
 40
0.566650688427176
 40
0.566650688427176
 40
0.566650688427176
 40
0.566650688427176
 10
36.33473247481236
 20
-59.82791135238624
 30
0.0
 10
36.33827505546421
 20
-59.83746024756962
 30
0.0
 10
36.34453036534546
 20
-59.85432120410549
 30
0.0
 10
36.35686717444295
 20
-59.87896557504643
 30
0.0
 10
36.37053637942782
 20
-59.90182623885692
 30
0.0
 10
36.38793362149532
 20
-59.92590598035854
 30
0.0
 10
36.40990233619537
 20
-59.9514734413491
 30
0.0
 10
36.44290308862035
 20
-59.98350307928324
 30
0.0
 10
36.48707663345695
 20
-60.01798087743398
 30
0.0
 10
36.53668846919224
 20
-60.04866999553538
 30
0.0
 10
36.58378177975735
 20
-60.07147729104408
 30
0.0
 10
36.62599080457597
 20
-60.08631765213471
 30
0.0
 10
36.6639194465062
 20
-60.09336362041216
 30
0.0
 10
36.69913933435322
 20
-60.0931612165729
 30
0.0
 10
36.73158988018466
 20
-60.08446610447263
 30
0.0
 10
36.75464202779489
 20
-60.06941432089615
 30
0.0
 10
36.76896949754718
 20
-60.0570904838989
 30
0.0
 10
36.77451224479576
 20
-60.05167994449799
 30
0.0
 10
36.77731091954209
 20
-60.04894802487286
 30
0.0
 11
36.33473247481236
 21
-59.82791135238624
 31
0.0
 11
36.34593749158392
 21
-59.85631117192169
 31
0.0
 11
36.35630808095249
 21
-59.87726373026588
 31
0.0
 11
36.37103670715547
 21
-59.90184330884237
 31
0.0
 11
36.38728044381446
 21
-59.92438895417973
 31
0.0
 11
36.40846692202744
 21
-59.94913208008039
 31
0.0
 11
36.43754937516644
 21
-59.97752080570045
 31
0.0
 11
36.48829844047741
 21
-60.01742569573381
 31
0.0
 11
36.54149395712483
 21
-60.0502117556464
 31
0.0
 11
36.58443913803979
 21
-60.07078863748724
 31
0.0
 11
36.62856681940218
 21
-60.08584530456653
 31
0.0
 11
36.66758583266466
 21
-60.09257472571948
 31
0.0
 11
36.69643691951201
 21
-60.09208385435753
 31
0.0
 11
36.73176191925248
 21
-60.08233717460469
 31
0.0
 11
36.76010554764954
 21
-60.06454270569988
 31
0.0
 11
36.76883140230119
 21
-60.0570516881257
 31
0.0
 11
36.77731091954209
 21
-60.04894802487286
 31
0.0
  0
SPLINE
  5
1AB
330
75
100
AcDbEntity
  8
0
  6
Continuous
 62
     7
100
AcDbSpline
210
0.0
220
0.0
230
1.0
 70
     8
 71
     3
 72
     9
 73
     5
 74
     3
 42
0.0000000001
 43
0.0000000001
 44
0.00000001
 40
0.0
 40
0.0
 40
0.0
 40
0.0
 40
0.1966895219568918
 40
0.3852811961576338
 40
0.3852811961576338
 40
0.3852811961576338
 40
0.3852811961576338
 10
36.46971065462589
 20
-60.17085875066709
 30
0.0
 10
36.42883948183174
 20
-60.11953987481415
 30
0.0
 10
36.34877983154723
 20
-60.01901495779081
 30
0.0
 10
36.27863995062001
 20
-59.91133879535657
 30
0.0
 10
36.24430711085459
 20
-59.85863228398901
 30
0.0
 11
36.46971065462589
 21
-60.17085875066709
 31
0.0
 11
36.34968242106872
 21
-60.01503836946881
 31
0.0
 11
36.24430711085459
 21
-59.85863228398901
 31
0.0
  0
SPLINE
  5
1AC
330
75
100
AcDbEntity
  8
0
  6
Continuous
 62
     7
100
AcDbSpline
210
0.0
220
0.0
230
1.0
 70
     8
 71
     3
 72
     9
 73
     5
 74
     3
 42
0.0000000001
 43
0.0000000001
 44
0.00000001
 40
0.0
 40
0.0
 40
0.0
 40
0.0
 40
0.1898363528291803
 40
0.329657481167121
 40
0.329657481167121
 40
0.329657481167121
 40
0.329657481167121
 10
36.46971065462589
 20
-60.17085875066709
 30
0.0
 10
36.53375108691159
 20
-60.17061433988273
 30
0.0
 10
36.64495954243409
 20
-60.17018991198815
 30
0.0
 10
36.74762471718461
 20
-60.12850565346858
 30
0.0
 10
36.79116918802085
 20
-60.11082566623001
 30
0.0
 11
36.46971065462589
 21
-60.17085875066709
 31
0.0
 11
36.65899887975159
 21
-60.15644317977145
 31
0.0
 11
36.79116918802085
 21
-60.11082566623001
 31
0.0
  0
SPLINE
  5
1AD
330
75
100
AcDbEntity
  8
0
  6
Continuous
 62
     7
100
AcDbSpline
210
0.0
220
0.0
230
1.0
 70
     8
 71
     3
 72
    11
 73
     7
 74
     5
 42
0.0000000001
 43
0.0000000001
 44
0.00000001
 40
0.0
 40
0.0
 40
0.0
 40
0.0
 40
0.0156187149767277
 40
0.0314023403643303
 40
0.0473479636988661
 40
0.0634521899795351
 40
0.0634521899795351
 40
0.0634521899795351
 40
0.0634521899795351
 10
36.79116918802085
 20
-60.11082566623001
 30
0.0
 10
36.79031980446996
 20
-60.1056886364687
 30
0.0
 10
36.78861206914058
 20
-60.09536033754866
 30
0.0
 10
36.78537389624076
 20
-60.07990956233566
 30
0.0
 10
36.78167048090906
 20
-60.06439760177336
 30
0.0
 10
36.77876889296245
 20
-60.05411484570197
 30
0.0
 10
36.77731091954209
 20
-60.04894802487286
 30
0.0
 11
36.79116918802085
 21
-60.11082566623001
 31
0.0
 11
36.78851221415927
 21
-60.09543460559654
 31
0.0
 11
36.78531405953976
 21
-60.07997838880827
 31
0.0
 11
36.78157875014151
 21
-60.0644764416007
 31
0.0
 11
36.77731091954209
 21
-60.04894802487286
 31
0.0
  0
SPLINE
  5
1AE
330
75
100
AcDbEntity
  8
0
  6
Continuous
 62
     7
100
AcDbSpline
210
0.0
220
0.0
230
1.0
 70
     8
 71
     3
 72
    11
 73
     7
 74
     5
 42
0.0000000001
 43
0.0000000001
 44
0.00000001
 40
0.0
 40
0.0
 40
0.0
 40
0.0
 40
0.0227135338052425
 40
0.047758605313254
 40
0.0705343977184426
 40
0.0955224437348333
 40
0.0955224437348333
 40
0.0955224437348333
 40
0.0955224437348333
 10
36.33473247481236
 20
-59.82791135238624
 30
0.0
 10
36.32748816703547
 20
-59.83011276255644
 30
0.0
 10
36.31225592537503
 20
-59.83474155701673
 30
0.0
 10
36.28992979529043
 20
-59.84211897845294
 30
0.0
 10
36.26700901705465
 20
-59.85010235823646
 30
0.0
 10
36.2521045209309
 20
-59.85570251551817
 30
0.0
 10
36.24430711085459
 20
-59.85863228398901
 30
0.0
 11
36.33473247481236
 21
-59.82791135238624
 31
0.0
 11
36.31302562927938
 21
-59.83459846498654
 31
0.0
 11
36.28923407741883
 21
-59.84242263694965
 31
0.0
 11
36.26773544416581
 21
-59.84994231034257
 31
0.0
 11
36.24430711085459
 21
-59.85863228398901
 31
0.0
  0
SPLINE
  5
1AF
330
75
100
AcDbEntity
  8
0
  6
Continuous
 62
     7
100
AcDbSpline
210
0.0
220
0.0
230
1.0
 70
     8
 71
     3
 72
     9
 73
     5
 74
     3
 42
0.0000000001
 43
0.0000000001
 44
0.00000001
 40
0.0
 40
0.0
 40
0.0
 40
0.0
 40
0.2399305352856265
 40
0.4398438984637051
 40
0.4398438984637051
 40
0.4398438984637051
 40
0.4398438984637051
 10
36.29126678705847
 20
-60.41240449188487
 30
0.0
 10
36.36992408058846
 20
-60.44341126123475
 30
0.0
 10
36.51411969365478
 20
-60.50025328967178
 30
0.0
 10
36.65013819800306
 20
-60.42936234278012
 30
0.0
 10
36.71195994147546
 20
-60.3971417125486
 30
0.0
 11
36.29126678705847
 21
-60.41240449188487
 31
0.0
 11
36.52480549080756
 21
-60.46741663248712
 31
0.0
 11
36.71195994147546
 21
-60.3971417125486
 31
0.0
  0
SPLINE
  5
1B0
330
75
100
AcDbEntity
  8
0
  6
Continuous
 62
     7
100
AcDbSpline
210
0.0
220
0.0
230
1.0
 70
     8
 71
     3
 72
     9
 73
     5
 74
     3
 42
0.0000000001
 43
0.0000000001
 44
0.00000001
 40
0.0
 40
0.0
 40
0.0
 40
0.0
 40
0.1449659822560331
 40
0.3056208595587034
 40
0.3056208595587034
 40
0.3056208595587034
 40
0.3056208595587034
 10
36.71195994147546
 20
-60.3971417125486
 30
0.0
 10
36.74113659479792
 20
-60.35670247528144
 30
0.0
 10
36.80264753501083
 20
-60.27144747779067
 30
0.0
 10
36.79512404194425
 20
-60.16616776402412
 30
0.0
 10
36.79116918802085
 20
-60.11082566623001
 30
0.0
 11
36.71195994147546
 21
-60.3971417125486
 31
0.0
 11
36.78395773687333
 21
-60.27131860867136
 31
0.0
 11
36.79116918802085
 21
-60.11082566623001
 31
0.0
  0
SPLINE
  5
1B1
330
75
100
AcDbEntity
  8
0
  6
Continuous
 62
     7
100
AcDbSpline
210
0.0
220
0.0
230
1.0
 70
     8
 71
     3
 72
    11
 73
     7
 74
     5
 42
0.0000000001
 43
0.0000000001
 44
0.00000001
 40
0.0
 40
0.0
 40
0.0
 40
0.0
 40
4.741949614494951
 40
9.852949536064525
 40
14.43928505819891
 40
19.38296989710944
 40
19.38296989710944
 40
19.38296989710944
 40
19.38296989710944
 10
30.30298599737525
 20
-41.50059252208886
 30
0.0
 10
30.72681694902285
 20
-43.02339766311784
 30
0.0
 10
31.60746421816319
 20
-46.18752284950835
 30
0.0
 10
32.99313625445868
 20
-50.79713007001544
 30
0.0
 10
34.44606534949503
 20
-55.45625342777431
 30
0.0
 10
35.43005187120598
 20
-58.47672365188214
 30
0.0
 10
35.94049351401286
 20
-60.04358838958403
 30
0.0
 11
30.30298599737525
 21
-41.50059252208886
 31
0.0
 11
31.58951005222207
 21
-46.06468520330265
 31
0.0
 11
33.05229841923484
 21
-50.96188546382052
 31
0.0
 11
34.41946357197667
 21
-55.33970832075753
 31
0.0
 11
35.94049351401286
 21
-60.04358838958403
 31
0.0
  0
SPLINE
  5
1B2
330
75
100
AcDbEntity
  8
0
  6
Continuous
 62
     7
100
AcDbSpline
210
0.0
220
0.0
230
1.0
 70
     8
 71
     3
 72
    17
 73
    13
 74
    11
 42
0.0000000001
 43
0.0000000001
 44
0.00000001
 40
0.0
 40
0.0
 40
0.0
 40
0.0
 40
1.291181188892691
 40
2.312345984316709
 40
3.358137924228135
 40
4.653512372043145
 40
5.968142435819594
 40
7.019684645061234
 40
8.11360568828793
 40
9.40772642148085
 40
14.5003514256677
 40
19.13272555477886
 40
19.13272555477886
 40
19.13272555477886
 40
19.13272555477886
 10
36.33473247481236
 20
-59.82791135238624
 30
0.0
 10
36.19606512455081
 20
-59.42046770978839
 30
0.0
 10
35.94772903253563
 20
-58.69078648541702
 30
0.0
 10
35.59011972729181
 20
-57.63006584029213
 30
0.0
 10
35.23410330047501
 20
-56.56733588473541
 30
0.0
 10
34.84987459396211
 20
-55.41089509355377
 30
0.0
 10
34.46831765231897
 20
-54.25155162554089
 30
0.0
 10
34.11073495192034
 20
-53.15501811818111
 30
0.0
 10
33.75801397474066
 20
-52.06409140595761
 30
0.0
 10
32.99829301443599
 20
-49.68909708088774
 30
0.0
 10
31.90339924277556
 20
-46.182768361117
 30
0.0
 10
31.00146440218606
 20
-43.06903266753609
 30
0.0
 10
30.57183972413493
 20
-41.58584603953455
 30
0.0
 11
36.33473247481236
 21
-59.82791135238624
 31
0.0
 11
35.91938317980627
 21
-58.60535917530409
 31
0.0
 11
35.59304828425338
 21
-57.63774195999741
 31
0.0
 11
35.26089562885532
 21
-56.64609918404646
 31
0.0
 11
34.85247361791055
 21
-55.41679595821978
 31
0.0
 11
34.44153155979676
 21
-54.16804505052919
 31
0.0
 11
34.11552547315727
 21
-53.16831456220206
 31
0.0
 11
33.77903988590053
 21
-52.12742998724542
 31
0.0
 11
33.38463674278889
 21
-50.89487384946368
 31
0.0
 11
31.8753193460607
 21
-46.0310491785691
 31
0.0
 11
30.57183972413493
 21
-41.58584603953455
 31
0.0
  0
SPLINE
  5
1B3
330
75
100
AcDbEntity
  8
0
  6
Continuous
 62
     7
100
AcDbSpline
210
0.0
220
0.0
230
1.0
 70
     8
 71
     3
 72
    11
 73
     7
 74
     5
 42
0.0000000001
 43
0.0000000001
 44
0.00000001
 40
0.0
 40
0.0
 40
0.0
 40
0.0
 40
0.196812402911715
 40
0.385509622002527
 40
0.5585077243991554
 40
0.7186373151779818
 40
0.7186373151779818
 40
0.7186373151779818
 40
0.7186373151779818
 10
32.25203821672466
 20
-40.99999999999999
 30
0.0
 10
32.24055831094073
 20
-41.06514279770844
 30
0.0
 10
32.21807185137863
 20
-41.19274235418574
 30
0.0
 10
32.12078598938134
 20
-41.3548866462601
 30
0.0
 10
31.98483505901432
 20
-41.47515467660529
 30
0.0
 10
31.87295440655746
 20
-41.49193428744513
 30
0.0
 10
31.81917501967068
 20
-41.49999999999999
 30
0.0
 11
32.25203821672466
 21
-40.99999999999999
 31
0.0
 11
32.20595717764657
 21
-41.19134173558679
 31
0.0
 11
32.10955166049933
 21
-41.35355337745068
 31
0.0
 11
31.97471570221554
 21
-41.46193975937445
 31
0.0
 11
31.81917501967068
 21
-41.49999999999999
 31
0.0
  0
SPLINE
  5
1B4
330
75
100
AcDbEntity
  8
0
  6
Continuous
 62
     7
100
AcDbSpline
210
0.0
220
0.0
230
1.0
 70
     8
 71
     3
 72
    11
 73
     7
 74
     5
 42
0.0000000001
 43
0.0000000001
 44
0.00000001
 40
0.0
 40
0.0
 40
0.0
 40
0.0
 40
0.0598595405861165
 40
0.1169455291813732
 40
0.1770339445838529
 40
0.2193104152975828
 40
0.2193104152975828
 40
0.2193104152975828
 40
0.2193104152975828
 10
32.45638869879217
 20
-40.92096445503403
 30
0.0
 10
32.43738140353258
 20
-40.92704257878742
 30
0.0
 10
32.40024750339445
 20
-40.93891720047362
 30
0.0
 10
32.3448293581971
 20
-40.95922238146427
 30
0.0
 10
32.29552561813705
 20
-40.97916240332427
 30
0.0
 10
32.26474892334771
 20
-40.99390948712792
 30
0.0
 10
32.25203821672466
 20
-40.99999999999999
 30
0.0
 11
32.45638869879217
 21
-40.92096445503403
 31
0.0
 11
32.39950453069188
 21
-40.93960194463749
 31
0.0
 11
32.3458756701002
 21
-40.9591660803336
 31
0.0
 11
32.29031966984946
 21
-40.98206037005224
 31
0.0
 11
32.25203821672466
 21
-40.99999999999999
 31
0.0
  0
SPLINE
  5
1B5
330
75
100
AcDbEntity
  8
0
  6
Continuous
 62
     7
100
AcDbSpline
210
0.0
220
0.0
230
1.0
 70
     8
 71
     3
 72
    29
 73
    25
 74
    23
 42
0.0000000001
 43
0.0000000001
 44
0.00000001
 40
0.0
 40
0.0
 40
0.0
 40
0.0
 40
0.040202771116828
 40
0.0824291858196256
 40
0.1218714539034217
 40
0.1638485919054744
 40
0.2045753152756521
 40
0.2516279822131088
 40
0.3049953067798604
 40
0.3743382716069583
 40
0.443100694710744
 40
0.5110369568725234
 40
0.5656007989766734
 40
0.6204293234267928
 40
0.6734905289645255
 40
0.7304204310505256
 40
0.7801488132550541
 40
0.8251928585319268
 40
0.8656043236533336
 40
0.9137063436112758
 40
0.959384122207421
 40
1.002896829303854
 40
1.007018551054662
 40
1.011125815706403
 40
1.011125815706403
 40
1.011125815706403
 40
1.011125815706403
 10
32.45638869879217
 20
-40.92096445503403
 30
0.0
 10
32.4595589726968
 20
-40.93398615430937
 30
0.0
 10
32.4660590991688
 20
-40.96068501211037
 30
0.0
 10
32.47363106955583
 20
-41.00062466352157
 30
0.0
 10
32.47864793489072
 20
-41.04156637796122
 30
0.0
 10
32.48037935374195
 20
-41.08229715129386
 30
0.0
 10
32.47841848795481
 20
-41.12555941731411
 30
0.0
 10
32.47177729107207
 20
-41.17222279719776
 30
0.0
 10
32.45774689806083
 20
-41.22716519977182
 30
0.0
 10
32.43417236051769
 20
-41.28670616299051
 30
0.0
 10
32.40055447257532
 20
-41.346807477281
 30
0.0
 10
32.3626595445702
 20
-41.3982810014877
 30
0.0
 10
32.32257005985475
 20
-41.44183877911941
 30
0.0
 10
32.28209243393262
 20
-41.47794833041922
 30
0.0
 10
32.23758265016635
 20
-41.51030638217523
 30
0.0
 10
32.19134924913185
 20
-41.53693919691028
 30
0.0
 10
32.14500272841909
 20
-41.55737747820599
 30
0.0
 10
32.10214153014736
 20
-41.57149369980636
 30
0.0
 10
32.05876959775558
 20
-41.58173524504253
 30
0.0
 10
32.01446516744284
 20
-41.5883072677238
 30
0.0
 10
31.96877966385822
 20
-41.59150154880787
 30
0.0
 10
31.93766872656852
 20
-41.59194156622937
 30
0.0
 10
31.92042164966556
 20
-41.59189926230874
 30
0.0
 10
31.9176786922479
 20
-41.59188379369216
 30
0.0
 10
31.91630962302216
 20
-41.59187607297189
 30
0.0
 11
32.45638869879217
 21
-40.92096445503403
 31
0.0
 11
32.46557155290625
 21
-40.96010443454082
 31
0.0
 11
32.47333341243704
 21
-41.00161134523382
 31
0.0
 11
32.47804066465726
 21
-41.04077171152589
 31
0.0
 11
32.47977309536367
 21
-41.08271308487836
 31
0.0
 11
32.47791055447959
 21
-41.12339719649366
 31
0.0
 11
32.47128964061482
 21
-41.16998171071805
 31
0.0
 11
32.45812781788197
 21
-41.22170054436462
 31
0.0
 11
32.43270685465043
 21
-41.28621582472046
 31
0.0
 11
32.39921010541286
 21
-41.34626779073007
 31
0.0
 11
32.35895723486288
 21
-41.40099476880305
 31
0.0
 11
32.32200148919555
 21
-41.44113808365545
 31
0.0
 11
32.28107009433348
 21
-41.47761805087065
 31
0.0
 11
32.23813042864637
 21
-41.508789779148
 31
0.0
 11
32.18877714399035
 21
-41.53716700672899
 31
0.0
 11
32.1432702723768
 21
-41.55721785789864
 31
0.0
 11
32.10049026742239
 21
-41.57131882208573
 31
0.0
 11
32.06116714041329
 21
-41.5806343035808
 31
0.0
 11
32.01360059583946
 21
-41.58779168867173
 31
0.0
 11
31.96804408831065
 21
-41.59111795974549
 31
0.0
 11
31.92453854287456
 21
-41.59190738685964
 31
0.0
 11
31.92041683406649
 21
-41.59189705765111
 31
0.0
 11
31.91630962302216
 21
-41.59187607297189
 31
0.0
  0
SPLINE
  5
1B6
330
75
100
AcDbEntity
  8
0
  6
Continuous
 62
     7
100
AcDbSpline
210
0.0
220
0.0
230
1.0
 70
     8
 71
     3
 72
    11
 73
     7
 74
     5
 42
0.0000000001
 43
0.0000000001
 44
0.00000001
 40
0.0
 40
0.0
 40
0.0
 40
0.0
 40
0.0996436826427646
 40
0.1945218751355777
 40
0.2816015979559774
 40
0.3583666982371344
 40
0.3583666982371344
 40
0.3583666982371344
 40
0.3583666982371344
 10
36.24430711085459
 20
-59.85863228398901
 30
0.0
 10
36.21351872542738
 20
-59.87116828364645
 30
0.0
 10
36.15341441869307
 20
-59.89564074487419
 30
0.0
 10
36.07079941388726
 20
-59.9403751485608
 30
0.0
 10
35.99815725777762
 20
-59.9876037434385
 30
0.0
 10
35.95889077298895
 20
-60.02572683626509
 30
0.0
 10
35.94049351401286
 20
-60.04358838958403
 30
0.0
 11
36.24430711085459
 21
-59.85863228398901
 31
0.0
 11
36.15273869264971
 21
-59.89792717269056
 31
0.0
 11
36.06913506130166
 21
-59.94278588685094
 31
0.0
 11
35.99716405561747
 21
-59.99180682592074
 31
0.0
 11
35.94049351401286
 21
-60.04358838958403
 31
0.0
  0
SPLINE
  5
1B7
330
75
100
AcDbEntity
  8
0
  6
Continuous
 62
     7
100
AcDbSpline
210
0.0
220
0.0
230
1.0
 70
     8
 71
     3
 72
    21
 73
    17
 74
    15
 42
0.0000000001
 43
0.0000000001
 44
0.00000001
 40
0.0
 40
0.0
 40
0.0
 40
0.0
 40
0.1158340283652129
 40
0.2181005676523651
 40
0.3168099181067142
 40
0.426641258149397
 40
0.5199330997876948
 40
0.6235480526066707
 40
0.7177965380336464
 40
0.8094696796847982
 40
0.8934156532376688
 40
0.98588950502485
 40
1.065385411152586
 40
1.152514794876125
 40
1.309973856641497
 40
1.463505819661065
 40
1.463505819661065
 40
1.463505819661065
 40
1.463505819661065
 10
33.65583728299946
 20
-65.08112335523998
 30
0.0
 10
33.66947093405766
 20
-65.11725811295936
 30
0.0
 10
33.69514134435879
 20
-65.1852952112266
 30
0.0
 10
33.72575543323121
 20
-65.28643578734656
 30
0.0
 10
33.75107410561014
 20
-65.38693101092635
 30
0.0
 10
33.77015285809025
 20
-65.48578520252639
 30
0.0
 10
33.78378768216336
 20
-65.58716390652071
 30
0.0
 10
33.79103841263204
 20
-65.68401459526383
 30
0.0
 10
33.79209585070939
 20
-65.78058359127704
 30
0.0
 10
33.78725735136209
 20
-65.87047658522961
 30
0.0
 10
33.77654694398409
 20
-65.95926145386755
 30
0.0
 10
33.7602145168408
 20
-66.0430742632064
 30
0.0
 10
33.73721495992015
 20
-66.12643368350481
 30
0.0
 10
33.69982653721214
 20
-66.22779082510408
 30
0.0
 10
33.6391230210067
 20
-66.34728388525379
 30
0.0
 10
33.57026688811151
 20
-66.42524037437593
 30
0.0
 10
33.5362735686688
 20
-66.46372641368629
 30
0.0
 11
33.65583728299946
 21
-65.08112335523998
 31
0.0
 11
33.69544216460424
 21
-65.1899763546492
 31
0.0
 11
33.72530968185044
 21
-65.28778420950411
 31
0.0
 11
33.74931535190511
 21
-65.38353003798946
 31
0.0
 11
33.77008428775121
 21
-65.49137981573328
 31
0.0
 11
33.78246479172559
 21
-65.58384651697003
 31
0.0
 11
33.7901185832694
 21
-65.68717839938142
 31
0.0
 11
33.79107416497557
 21
-65.78142204038113
 31
0.0
 11
33.78606502185676
 21
-65.8729582265886
 31
0.0
 11
33.77593420248611
 21
-65.95629065109802
 31
0.0
 11
33.75814570694921
 21
-66.04703745650124
 31
0.0
 11
33.73688374589377
 21
-66.12363724829696
 31
0.0
 11
33.70678842797513
 21
-66.20540399794142
 31
0.0
 11
33.63302860345972
 21
-66.34451849905287
 31
0.0
 11
33.5362735686688
 21
-66.46372641368629
 31
0.0
  0
SPLINE
  5
1B8
330
75
100
AcDbEntity
  8
0
  6
Continuous
 62
     7
100
AcDbSpline
210
0.0
220
0.0
230
1.0
 70
     8
 71
     3
 72
    11
 73
     7
 74
     5
 42
0.0000000001
 43
0.0000000001
 44
0.00000001
 40
0.0
 40
0.0
 40
0.0
 40
0.0
 40
0.0299499580974429
 40
0.0574237500031185
 40
0.0949269631850148
 40
0.1396112480258571
 40
0.1396112480258571
 40
0.1396112480258571
 40
0.1396112480258571
 10
31.81917501967068
 20
-41.49999999999999
 30
0.0
 10
31.82918380889432
 20
-41.50176819281823
 30
0.0
 10
31.84837389284511
 20
-41.50515838996044
 30
0.0
 10
31.87332330110437
 20
-41.5260331358558
 30
0.0
 10
31.89647048009617
 20
-41.55436631773041
 30
0.0
 10
31.90932227017274
 20
-41.5786651244876
 30
0.0
 10
31.91630962302216
 20
-41.59187607297189
 30
0.0
 11
31.81917501967068
 21
-41.49999999999999
 31
0.0
 11
31.8480867504527
 21
-41.50781740450704
 31
0.0
 11
31.870086153978
 21
-41.52427448463102
 31
0.0
 11
31.89401849159207
 21
-41.55314894073486
 31
0.0
 11
31.91630962302216
 21
-41.59187607297189
 31
0.0
  0
SPLINE
  5
1B9
330
75
100
AcDbEntity
  8
0
  6
Continuous
 62
     7
100
AcDbSpline
210
0.0
220
0.0
230
1.0
 70
     8
 71
     3
 72
   114
 73
   110
 74
   108
 42
0.0000000001
 43
0.0000000001
 44
0.00000001
 40
0.0
 40
0.0
 40
0.0
 40
0.0
 40
0.0000663130559207
 40
0.0001646968214377
 40
0.0003403598478847
 40
0.0006090964827827
 40
0.000949057289628
 40
0.0013850914476121
 40
0.0019242354302597
 40
0.0025733952682974
 40
0.0036252568400334
 40
0.0048255331846652
 40
0.0061584540391377
 40
0.0076081820710039
 40
0.0091588417333626
 40
0.0107945341158805
 40
0.0130688546590345
 40
0.0154871232711362
 40
0.0180297582470748
 40
0.0206771674146704
 40
0.0234097512853923
 40
0.0262079051028524
 40
0.0290520202215255
 40
0.0319224850623381
 40
0.0347996857920562
 40
0.0376640068169558
 40
0.0404958311488531
 40
0.0432755406810487
 40
0.0449722441161151
 40
0.0467884289912466
 40
0.0487266081016406
 40
0.0507892943450635
 40
0.0529790007184044
 40
0.0552982403140703
 40
0.0577495263163557
 40
0.0603353719978133
 40
0.0630582907156948
 40
0.0659207959084922
 40
0.0689254010925699
 40
0.0720746198589389
 40
0.0753709658701533
 40
0.0788169528573263
 40
0.0824150946172897
 40
0.0861679050098843
 40
0.0900778979553442
 40
0.0941475874318334
 40
0.0983794874730866
 40
0.1027761121661648
 40
0.1073399756492956
 40
0.1120735921098481
 40
0.1148042505913824
 40
0.1176977723593483
 40
0.1207546771612188
 40
0.1239754847854112
 40
0.1273607150615029
 40
0.1309108878602981
 40
0.1346265230938591
 40
0.1385081407154551
 40
0.1425562607194684
 40
0.146771403141281
 40
0.1511540880571281
 40
0.1557048355839173
 40
0.1604241658790651
 40
0.1653125991402922
 40
0.1703706556054113
 40
0.1755988555521511
 40
0.1809977192978879
 40
0.1865677671994725
 40
0.1923095196529983
 40
0.1982234970935524
 40
0.2043102199949985
 40
0.2105702088697833
 40
0.2170039842686536
 40
0.2236120667804604
 40
0.230394977031938
 40
0.2373532356874384
 40
0.2444873634487504
 40
0.2546548413454637
 40
0.2649961138306312
 40
0.2755091720668285
 40
0.2861920072249832
 40
0.2970426104867754
 40
0.3080589730468632
 40
0.3192390861149923
 40
0.3305809409179337
 40
0.3420825287013471
 40
0.3537418407315465
 40
0.3655568682971532
 40
0.377525602710711
 40
0.3896460353102277
 40
0.4019161574606319
 40
0.4143339605552413
 40
0.4268974360171414
 40
0.4396045753005329
 40
0.4524533698920943
 40
0.4654418113122765
 40
0.4785678911165802
 40
0.4918296008968623
 40
0.5052249322825629
 40
0.5187518769419992
 40
0.5324084265835914
 40
0.5461925729571199
 40
0.5601023078549909
 40
0.5829249274611866
 40
0.6058914303238087
 40
0.6289923339240583
 40
0.6522181558081143
 40
0.6755594136026948
 40
0.6990066250305196
 40
0.6990066250305196
 40
0.6990066250305196
 40
0.6990066250305196
 10
-44.99722213651107
 20
-14.50277786346104
 30
0.0
 10
-44.99719962342198
 20
-14.50278840972256
 30
0.0
 10
-44.99714370933144
 20
-14.50281460269052
 30
0.0
 10
-44.99707428267069
 20
-14.50269041433047
 30
0.0
 10
-44.99701776125299
 20
-14.50253440876085
 30
0.0
 10
-44.99695389650574
 20
-14.50227295078672
 30
0.0
 10
-44.99689076152746
 20
-14.50193339914425
 30
0.0
 10
-44.99682488710678
 20
-14.50149879981674
 30
0.0
 10
-44.99675676771291
 20
-14.50096203409976
 30
0.0
 10
-44.99667561085815
 20
-14.50021954739477
 30
0.0
 10
-44.99658582637564
 20
-14.49925665607323
 30
0.0
 10
-44.9964895611137
 20
-14.49806547551104
 30
0.0
 10
-44.99639469140754
 20
-14.49674122114005
 30
0.0
 10
-44.99630147010501
 20
-14.49529978516436
 30
0.0
 10
-44.99621015854386
 20
-14.4937571196927
 30
0.0
 10
-44.99611060373405
 20
-14.49193961520184
 30
0.0
 10
-44.99600411311228
 20
-14.4898328710143
 30
0.0
 10
-44.99589152142252
 20
-14.48742375465845
 30
0.0
 10
-44.99578106967623
 20
-14.48489005323723
 30
0.0
 10
-44.99567297890628
 20
-14.48225138769463
 30
0.0
 10
-44.99556746806694
 20
-14.47952737946461
 30
0.0
 10
-44.99546475058165
 20
-14.47673765078301
 30
0.0
 10
-44.99536503727476
 20
-14.47390182424846
 30
0.0
 10
-44.9952685368189
 20
-14.47103952273874
 30
0.0
 10
-44.99517545635384
 20
-14.46817036931112
 30
0.0
 10
-44.99508600220064
 20
-14.46531398713726
 30
0.0
 10
-44.99500037888973
 20
-14.46248999951487
 30
0.0
 10
-44.99492871101155
 20
-14.46005497455617
 30
0.0
 10
-44.99486834701036
 20
-14.45795831065128
 30
0.0
 10
-44.99481692240201
 20
-14.456142015949
 30
0.0
 10
-44.9947629866576
 20
-14.45420374941398
 30
0.0
 10
-44.99470659823209
 20
-14.45214099600836
 30
0.0
 10
-44.99464781626556
 20
-14.44995124068089
 30
0.0
 10
-44.9945866997224
 20
-14.44763196838332
 30
0.0
 10
-44.9945233076394
 20
-14.44518066406567
 30
0.0
 10
-44.99445769904912
 20
-14.44259481267778
 30
0.0
 10
-44.99438993299897
 20
-14.43987189916892
 30
0.0
 10
-44.99432006854367
 20
-14.43700940848799
 30
0.0
 10
-44.99424816474513
 20
-14.43400482558357
 30
0.0
 10
-44.99417428067134
 20
-14.4308556354039
 30
0.0
 10
-44.99409847539517
 20
-14.42755932289697
 30
0.0
 10
-44.99402080799399
 20
-14.42411337301054
 30
0.0
 10
-44.99394133754868
 20
-14.42051527069216
 30
0.0
 10
-44.99386012314427
 20
-14.41676250088916
 30
0.0
 10
-44.99377722386454
 20
-14.41285254854881
 30
0.0
 10
-44.99369269881246
 20
-14.40878289861782
 30
0.0
 10
-44.99360660702661
 20
-14.40455103604433
 30
0.0
 10
-44.99351900781127
 20
-14.40015444577018
 30
0.0
 10
-44.99342995942995
 20
-14.39559061276157
 30
0.0
 10
-44.99335337428047
 20
-14.3915819646825
 30
0.0
 10
-44.9932884869267
 20
-14.3881299755486
 30
0.0
 10
-44.99323475460793
 20
-14.3852367794192
 30
0.0
 10
-44.99317870151964
 20
-14.3821802152505
 30
0.0
 10
-44.99312041407413
 20
-14.3789597617514
 30
0.0
 10
-44.99305997943698
 20
-14.375574897619
 30
0.0
 10
-44.99299748457223
 20
-14.3720251015535
 30
0.0
 10
-44.99293301651558
 20
-14.36830985225394
 30
0.0
 10
-44.99286666229278
 20
-14.36442862841947
 30
0.0
 10
-44.99279850894096
 20
-14.36038090874904
 30
0.0
 10
-44.99272864350111
 20
-14.35616617194154
 30
0.0
 10
-44.99265715301858
 20
-14.3517838966957
 30
0.0
 10
-44.99258412454239
 20
-14.34723356171025
 30
0.0
 10
-44.99250964512431
 20
-14.3425146456838
 30
0.0
 10
-44.99243380181868
 20
-14.33762662731495
 30
0.0
 10
-44.99235668168181
 20
-14.33256898530222
 30
0.0
 10
-44.99227837177171
 20
-14.32734119834413
 30
0.0
 10
-44.99219895914808
 20
-14.32194274513912
 30
0.0
 10
-44.99211853087165
 20
-14.31637310438565
 30
0.0
 10
-44.99203717400443
 20
-14.3106317547821
 30
0.0
 10
-44.99195497560929
 20
-14.30471817502689
 30
0.0
 10
-44.99187202274993
 20
-14.29863184381837
 30
0.0
 10
-44.99178840249103
 20
-14.29237223985488
 30
0.0
 10
-44.99170420189641
 20
-14.28593884183483
 30
0.0
 10
-44.99161950803675
 20
-14.2793311284563
 30
0.0
 10
-44.99153440795839
 20
-14.27254857841847
 30
0.0
 10
-44.99144898880459
 20
-14.26559067041634
 30
0.0
 10
-44.99135190418511
 20
-14.25750463168658
 30
0.0
 10
-44.99124426066913
 20
-14.24829096752533
 30
0.0
 10
-44.99112729444681
 20
-14.23795102596715
 30
0.0
 10
-44.99101222545097
 20
-14.2274392669027
 30
0.0
 10
-44.99089914664284
 20
-14.21675769965197
 30
0.0
 10
-44.99078815082986
 20
-14.20590833352937
 30
0.0
 10
-44.99067933085641
 20
-14.19489317785111
 30
0.0
 10
-44.99057277955167
 20
-14.18371424193307
 30
0.0
 10
-44.99046858974469
 20
-14.17237353509146
 30
0.0
 10
-44.99036685426037
 20
-14.16087306664254
 30
0.0
 10
-44.99026766592112
 20
-14.14921484590273
 30
0.0
 10
-44.99017111754665
 20
-14.13740088218852
 30
0.0
 10
-44.99007730195427
 20
-14.1254331848165
 30
0.0
 10
-44.98998631195919
 20
-14.11331376310338
 30
0.0
 10
-44.98989824037444
 20
-14.10104462636586
 30
0.0
 10
-44.98981318001142
 20
-14.08862778392079
 30
0.0
 10
-44.98973122367956
 20
-14.076065245085
 30
0.0
 10
-44.98965246418699
 20
-14.06335901917543
 30
0.0
 10
-44.98957699434014
 20
-14.05051111550904
 30
0.0
 10
-44.98950490694412
 20
-14.0375235434028
 30
0.0
 10
-44.98943629480313
 20
-14.02439831217378
 30
0.0
 10
-44.98937125071892
 20
-14.01113743113897
 30
0.0
 10
-44.98930986749622
 20
-13.99774290961565
 30
0.0
 10
-44.98925223792428
 20
-13.98421675692016
 30
0.0
 10
-44.98919845484529
 20
-13.97056098237262
 30
0.0
 10
-44.98914861089682
 20
-13.95677759527871
 30
0.0
 10
-44.98909314989438
 20
-13.93993885272939
 30
0.0
 10
-44.98903605246929
 20
-13.92003931453349
 30
0.0
 10
-44.98898220353627
 20
-13.89707603465362
 30
0.0
 10
-44.98894003412711
 20
-13.87397832922462
 30
0.0
 10
-44.98890996884074
 20
-13.85075568678268
 30
0.0
 10
-44.98889103739221
 20
-13.82741759582217
 30
0.0
 10
-44.98888869210637
 20
-13.81182143923712
 30
0.0
 10
-44.98888751680798
 20
-13.80400570200552
 30
0.0
 11
-44.99722213651107
 21
-14.50277786346104
 31
0.0
 11
-44.99715821555868
 21
-14.50279551376505
 31
0.0
 11
-44.99709357273797
 21
-14.50272134725612
 31
0.0
 11
-44.9970290301333
 21
-14.50255797115308
 31
0.0
 11
-44.99696218625547
 21
-14.50229768040232
 31
0.0
 11
-44.99689810776918
 21
-14.50196381321647
 31
0.0
 11
-44.99683164128368
 21
-14.50153287471363
 31
0.0
 11
-44.99676277783372
 21
-14.50099814668997
 31
0.0
 11
-44.99669150845408
 21
-14.5003529109417
 31
0.0
 11
-44.99659243079183
 21
-14.49930572596141
 31
0.0
 11
-44.99649484758938
 21
-14.49810942298052
 31
0.0
 11
-44.99639894623213
 21
-14.49677995657103
 31
0.0
 11
-44.99630491410542
 21
-14.49533328130494
 31
0.0
 11
-44.99621293859469
 21
-14.49378535175425
 31
0.0
 11
-44.99612320708528
 21
-14.49215212249097
 31
0.0
 11
-44.99600793105548
 21
-14.4898807252624
 31
0.0
 11
-44.99589468787469
 21
-14.48746510959299
 31
0.0
 11
-44.99578367934514
 21
-14.48492489902549
 31
0.0
 11
-44.99567510726904
 21
-14.48227971710264
 31
0.0
 11
-44.99556917344859
 21
-14.47954918736719
 31
0.0
 11
-44.99546607968603
 21
-14.47675293336186
 31
0.0
 11
-44.99536602778355
 21
-14.47391057862941
 31
0.0
 11
-44.99526921954341
 21
-14.47104174671259
 31
0.0
 11
-44.99517585676776
 21
-14.46816606115412
 31
0.0
 11
-44.99508614125887
 21
-14.46530314549676
 31
0.0
 11
-44.99500027481894
 21
-14.46247262328324
 31
0.0
 11
-44.99491845925017
 21
-14.45969411805631
 31
0.0
 11
-44.9948696234776
 21
-14.45799811758052
 31
0.0
 11
-44.9948182154783
 21
-14.45618266041543
 31
0.0
 11
-44.99476429436991
 21
-14.45424523150628
 31
0.0
 11
-44.99470791927007
 21
-14.45218331579827
 31
0.0
 11
-44.99464914929641
 21
-14.44999439823663
 31
0.0
 11
-44.99458804356655
 21
-14.44767596376659
 31
0.0
 11
-44.99452466119814
 21
-14.44522549733336
 31
0.0
 11
-44.99445906130882
 21
-14.44264048388217
 31
0.0
 11
-44.99439130301622
 21
-14.43991840835824
 31
0.0
 11
-44.99432144543797
 21
-14.43705675570679
 31
0.0
 11
-44.9942495476917
 21
-14.43405301087304
 31
0.0
 11
-44.99417566889507
 21
-14.43090465880222
 31
0.0
 11
-44.99409986816567
 21
-14.42760918443954
 31
0.0
 11
-44.99402220462117
 21
-14.42416407273023
 31
0.0
 11
-44.99394273737921
 21
-14.42056680861952
 31
0.0
 11
-44.9938615255574
 21
-14.41681487705261
 31
0.0
 11
-44.99377862827339
 21
-14.41290576297473
 31
0.0
 11
-44.9936941046448
 21
-14.40883695133111
 31
0.0
 11
-44.99360801378929
 21
-14.40460592706697
 31
0.0
 11
-44.99352041482447
 21
-14.40021017512752
 31
0.0
 11
-44.99343136686798
 21
-14.395647180458
 31
0.0
 11
-44.99334092903747
 21
-14.39091442800362
 31
0.0
 11
-44.99328960663932
 21
-14.38818425186384
 31
0.0
 11
-44.99323587527631
 21
-14.38529122902219
 31
0.0
 11
-44.99317982201944
 21
-14.38223483817675
 31
0.0
 11
-44.9931215339397
 21
-14.37901455802561
 31
0.0
 11
-44.99306109810812
 21
-14.37562986726685
 31
0.0
 11
-44.99299860159567
 21
-14.37208024459856
 31
0.0
 11
-44.99293413147336
 21
-14.36836516871882
 31
0.0
 11
-44.9928677748122
 21
-14.36448411832572
 31
0.0
 11
-44.99279961868318
 21
-14.36043657211734
 31
0.0
 11
-44.99272975015731
 21
-14.35622200879177
 31
0.0
 11
-44.99265825630557
 21
-14.35183990704708
 31
0.0
 11
-44.99258522419899
 21
-14.34728974558138
 31
0.0
 11
-44.99251074090856
 21
-14.34257100309273
 31
0.0
 11
-44.99243489350527
 21
-14.33768315827923
 31
0.0
 11
-44.99235776906013
 21
-14.33262568983896
 31
0.0
 11
-44.99227945464413
 21
-14.32739807647
 31
0.0
 11
-44.9922000373283
 21
-14.32199979687045
 31
0.0
 11
-44.9921196041836
 21
-14.31643032973838
 31
0.0
 11
-44.99203824228105
 21
-14.31068915377188
 31
0.0
 11
-44.99195603869165
 21
-14.30477574766902
 31
0.0
 11
-44.99187308048643
 21
-14.29868959012791
 31
0.0
 11
-44.99178945473633
 21
-14.29243015984662
 31
0.0
 11
-44.99170524851239
 21
-14.28599693552324
 31
0.0
 11
-44.99162054888561
 21
-14.27938939585585
 31
0.0
 11
-44.99153544292697
 21
-14.27260701954254
 31
0.0
 11
-44.99145001770751
 21
-14.26564928528139
 31
0.0
 11
-44.99136436029818
 21
-14.25851567177049
 31
0.0
 11
-44.99124556059675
 21
-14.24834888794221
 31
0.0
 11
-44.99112856661075
 21
-14.23800827727263
 31
0.0
 11
-44.99101347113039
 21
-14.22749584907986
 31
0.0
 11
-44.99090036694599
 21
-14.216813612682
 31
0.0
 11
-44.99078934684778
 21
-14.20596357739715
 31
0.0
 11
-44.99068050362602
 21
-14.1949477525434
 31
0.0
 11
-44.99057393007099
 21
-14.18376814743886
 31
0.0
 11
-44.99046971897293
 21
-14.17242677140162
 31
0.0
 11
-44.99036796312213
 21
-14.16092563374979
 31
0.0
 11
-44.9902687553088
 21
-14.14926674380146
 31
0.0
 11
-44.99017218832326
 21
-14.13745211087473
 31
0.0
 11
-44.99007835495574
 21
-14.1254837442877
 31
0.0
 11
-44.98998734799651
 21
-14.11336365335847
 31
0.0
 11
-44.98989926023582
 21
-14.10109384740515
 31
0.0
 11
-44.98981418446396
 21
-14.08867633574582
 31
0.0
 11
-44.98973221347114
 21
-14.07611312769859
 31
0.0
 11
-44.98965344004768
 21
-14.06340623258155
 31
0.0
 11
-44.98957795698379
 21
-14.05055765971282
 31
0.0
 11
-44.98950585706976
 21
-14.03756941841047
 31
0.0
 11
-44.98943723309586
 21
-14.02444351799263
 31
0.0
 11
-44.98937217785232
 21
-14.01118196777738
 31
0.0
 11
-44.98931078412944
 21
-13.99778677708282
 31
0.0
 11
-44.98925314471744
 21
-13.98425995522705
 31
0.0
 11
-44.98919935240661
 21
-13.97060351152818
 31
0.0
 11
-44.98914949998719
 21
-13.9568194553043
 31
0.0
 11
-44.98910368024947
 21
-13.9429097958735
 31
0.0
 11
-44.98903817804451
 21
-13.92008727026501
 31
0.0
 11
-44.98898429055006
 21
-13.89712083062198
 31
0.0
 11
-44.98894214922267
 21
-13.87401996545947
 31
0.0
 11
-44.98891188551886
 21
-13.85079416329252
 31
0.0
 11
-44.98889363089512
 21
-13.82745291263619
 31
0.0
 11
-44.98888751680798
 21
-13.80400570200552
 31
0.0
  0
SPLINE
  5
1BA
330
75
100
AcDbEntity
  8
0
  6
Continuous
 62
     7
100
AcDbSpline
210
0.0
220
0.0
230
1.0
 70
     8
 71
     3
 72
    21
 73
    17
 74
    15
 42
0.0000000001
 43
0.0000000001
 44
0.00000001
 40
0.0
 40
0.0
 40
0.0
 40
0.0
 40
0.0776162466199474
 40
0.1459524517340724
 40
0.2145087172346731
 40
0.2924071396318568
 40
0.4287834900689398
 40
0.5384782490584655
 40
0.6751851886464558
 40
0.7851052050581078
 40
0.9218245473101523
 40
1.031731254557333
 40
1.154771031418198
 40
1.277807892746923
 40
1.423914145074978
 40
1.570018473094314
 40
1.570018473094314
 40
1.570018473094314
 40
1.570018473094314
 10
45.98912915026774
 20
-9.499999999999996
 30
0.0
 10
45.96325014029925
 20
-9.500574852048063
 30
0.0
 10
45.91458629583579
 20
-9.501655825033144
 30
0.0
 10
45.84347583307615
 20
-9.509928700193196
 30
0.0
 10
45.77298104455327
 20
-9.522693744351328
 30
0.0
 10
45.68163505275336
 20
-9.546372560345207
 30
0.0
 10
45.58023464302615
 20
-9.584591929859569
 30
0.0
 10
45.46707772699168
 20
-9.64402838806516
 30
0.0
 10
45.36917738362684
 20
-9.711995727422034
 30
0.0
 10
45.27380964352822
 20
-9.797384666945801
 30
0.0
 10
45.19542386292977
 20
-9.887260754646224
 30
0.0
 10
45.12637230580785
 20
-9.989581043019676
 30
0.0
 10
45.07165746494699
 20
-10.09526067230764
 30
0.0
 10
45.0264821642167
 20
-10.21817431747563
 30
0.0
 10
44.99506644229326
 20
-10.35376791481064
 30
0.0
 10
44.99094714959414
 20
-10.45125618560165
 30
0.0
 10
44.98888751680806
 20
-10.5
 30
0.0
 11
45.98912915026774
 21
-9.499999999999996
 31
0.0
 11
45.91157131814317
 21
-9.50301071677588
 31
0.0
 11
45.84366142200217
 21
-9.510631932920226
 31
0.0
 11
45.77621505408003
 21
-9.522918063047307
 31
0.0
 11
45.70080421032649
 21
-9.542446730599128
 31
0.0
 11
45.57319659375159
 21
-9.590559152598146
 31
0.0
 11
45.47608213013002
 21
-9.641566221767668
 31
0.0
 11
45.36378597817671
 21
-9.719530069722946
 31
0.0
 11
45.28189389953467
 21
-9.792851945473807
 31
0.0
 11
45.19203431113504
 21
-9.895892873839578
 31
0.0
 11
45.13054158579659
 21
-9.986986940761458
 31
0.0
 11
45.07402624913674
 21
-10.09627922508288
 31
0.0
 11
45.03136311653199
 21
-10.21168254549427
 31
0.0
 11
44.99956336171721
 21
-10.35428623606036
 31
0.0
 11
44.98888751680806
 21
-10.5
 31
0.0
  0
ENDBLK
  5
77
330
75
100
AcDbEntity
  8
0
100
AcDbBlockEnd
  0
BLOCK
  5
79
330
78
100
AcDbEntity
  8
0
100
AcDbBlockBegin
  2
HL522_Abgangsbogen_DN40_50_90Grad
 70
     0
 10
62.007509039662
 20
-133.4769577560539
 30
0.0
  3
HL522_Abgangsbogen_DN40_50_90Grad
  1

  0
LINE
  5
1BB
330
78
100
AcDbEntity
  8
1
  6
DASHED
 62
     2
100
AcDbLine
 10
61.99500653991196
 20
-197.1530442169172
 30
0.0
 11
61.99500653991196
 21
-133.4355023071556
 31
0.0
  0
LINE
  5
1BC
330
78
100
AcDbEntity
  8
1
  6
PHANTOM
 62
     2
100
AcDbLine
 10
66.9950065399086
 20
-144.3976600550717
 30
0.0
 11
66.9950065399086
 21
-69.80087129519049
 31
0.0
  0
LINE
  5
1BD
330
78
100
AcDbEntity
  8
0
  6
DASHED
 62
     7
100
AcDbLine
 10
37.93282871342088
 20
-192.9955213210459
 30
0.0
 11
86.057184366403
 21
-192.9955213210459
 31
0.0
  0
LINE
  5
1BE
330
78
100
AcDbEntity
  8
0
  6
DASHED
 62
     7
100
AcDbLine
 10
53.51500653991195
 20
-137.9955213210459
 30
0.0
 11
52.49500653991194
 21
-137.9955213210459
 31
0.0
  0
LINE
  5
1BF
330
78
100
AcDbEntity
  8
0
  6
DASHED
 62
     7
100
AcDbLine
 10
52.49500653991194
 20
-137.9955213210459
 30
0.0
 11
46.99500653991195
 21
-137.9955213210459
 31
0.0
  0
LINE
  5
1C0
330
78
100
AcDbEntity
  8
0
  6
DASHED
 62
     7
100
AcDbLine
 10
71.49500653991193
 20
-137.9955213210459
 30
0.0
 11
70.47500653991193
 21
-137.9955213210459
 31
0.0
  0
LINE
  5
1C1
330
78
100
AcDbEntity
  8
0
  6
DASHED
 62
     7
100
AcDbLine
 10
70.47500653991193
 20
-137.9955213210459
 30
0.0
 11
53.51500653991195
 21
-137.9955213210459
 31
0.0
  0
LINE
  5
1C2
330
78
100
AcDbEntity
  8
0
  6
DASHED
 62
     7
100
AcDbLine
 10
46.99500653991195
 20
-137.9955213210459
 30
0.0
 11
37.99500653991195
 21
-137.9955213210459
 31
0.0
  0
LINE
  5
1C3
330
78
100
AcDbEntity
  8
0
  6
DASHED
 62
     7
100
AcDbLine
 10
46.99500653991195
 20
-137.9955213210459
 30
0.0
 11
46.99500653991195
 21
-83.31112531223116
 31
0.0
  0
LINE
  5
1C4
330
78
100
AcDbEntity
  8
0
  6
DASHED
 62
     7
100
AcDbLine
 10
71.99500653991193
 20
-138.4955213210459
 30
0.0
 11
70.63500653991193
 21
-138.4955213210459
 31
0.0
  0
LINE
  5
1C5
330
78
100
AcDbEntity
  8
0
  6
DASHED
 62
     7
100
AcDbLine
 10
82.09500653991195
 20
-137.9955213210459
 30
0.0
 11
71.49500653991193
 21
-137.9955213210459
 31
0.0
  0
LINE
  5
1C6
330
78
100
AcDbEntity
  8
0
  6
DASHED
 62
     7
100
AcDbLine
 10
70.63500653991193
 20
-138.4955213210459
 30
0.0
 11
53.35500653991195
 21
-138.4955213210459
 31
0.0
  0
LINE
  5
1C7
330
78
100
AcDbEntity
  8
0
  6
DASHED
 62
     7
100
AcDbLine
 10
53.35500653991195
 20
-138.4955213210459
 30
0.0
 11
51.99500653991195
 21
-138.4955213210459
 31
0.0
  0
LINE
  5
1C8
330
78
100
AcDbEntity
  8
0
  6
DASHED
 62
     7
100
AcDbLine
 10
51.99500653991195
 20
-138.9955213210459
 30
0.0
 11
51.99500653991195
 21
-138.4955213210459
 31
0.0
  0
LINE
  5
1C9
330
78
100
AcDbEntity
  8
0
  6
DASHED
 62
     7
100
AcDbLine
 10
51.99500653991195
 20
-138.9955213210459
 30
0.0
 11
36.99500653991195
 21
-138.9955213210459
 31
0.0
  0
LINE
  5
1CA
330
78
100
AcDbEntity
  8
0
  6
DASHED
 62
     7
100
AcDbLine
 10
71.99500653991193
 20
-138.9955213210459
 30
0.0
 11
71.99500653991193
 21
-138.4955213210459
 31
0.0
  0
LINE
  5
1CB
330
78
100
AcDbEntity
  8
0
  6
DASHED
 62
     7
100
AcDbLine
 10
86.99500653991194
 20
-138.9955213210459
 30
0.0
 11
86.99500653990651
 21
-74.18500653990432
 31
0.0
  0
LINE
  5
1CC
330
78
100
AcDbEntity
  8
0
  6
DASHED
 62
     7
100
AcDbLine
 10
86.99500653991194
 20
-138.9955213210459
 30
0.0
 11
71.99500653991193
 21
-138.9955213210459
 31
0.0
  0
LINE
  5
1CD
330
78
100
AcDbEntity
  8
0
  6
DASHED
 62
     7
100
AcDbLine
 10
71.99500653991193
 20
-139.4955213210459
 30
0.0
 11
71.99500653991193
 21
-138.9955213210459
 31
0.0
  0
LINE
  5
1CE
330
78
100
AcDbEntity
  8
0
  6
DASHED
 62
     7
100
AcDbLine
 10
71.99500653991193
 20
-139.4955213210459
 30
0.0
 11
70.63500653991193
 21
-139.4955213210459
 31
0.0
  0
LINE
  5
1CF
330
78
100
AcDbEntity
  8
0
  6
DASHED
 62
     7
100
AcDbLine
 10
70.63500653991193
 20
-139.4955213210459
 30
0.0
 11
53.35500653991195
 21
-139.4955213210459
 31
0.0
  0
LINE
  5
1D0
330
78
100
AcDbEntity
  8
0
  6
DASHED
 62
     7
100
AcDbLine
 10
70.63500653991193
 20
-139.4955213210459
 30
0.0
 11
70.63500653991193
 21
-138.4955213210459
 31
0.0
  0
LINE
  5
1D1
330
78
100
AcDbEntity
  8
0
  6
DASHED
 62
     7
100
AcDbLine
 10
53.35500653991195
 20
-139.4955213210459
 30
0.0
 11
53.35500653991195
 21
-138.4955213210459
 31
0.0
  0
LINE
  5
1D2
330
78
100
AcDbEntity
  8
0
  6
DASHED
 62
     7
100
AcDbLine
 10
53.35500653991195
 20
-139.4955213210459
 30
0.0
 11
51.99500653991195
 21
-139.4955213210459
 31
0.0
  0
LINE
  5
1D3
330
78
100
AcDbEntity
  8
0
  6
DASHED
 62
     7
100
AcDbLine
 10
51.99500653991195
 20
-139.4955213210459
 30
0.0
 11
51.99500653991195
 21
-138.9955213210459
 31
0.0
  0
LINE
  5
1D4
330
78
100
AcDbEntity
  8
0
  6
DASHED
 62
     7
100
AcDbLine
 10
53.51500653991195
 20
-139.9955213210459
 30
0.0
 11
52.49500653991195
 21
-139.9955213210459
 31
0.0
  0
LINE
  5
1D5
330
78
100
AcDbEntity
  8
0
  6
DASHED
 62
     7
100
AcDbLine
 10
70.47500653991192
 20
-139.9955213210459
 30
0.0
 11
53.51500653991195
 21
-139.9955213210459
 31
0.0
  0
LINE
  5
1D6
330
78
100
AcDbEntity
  8
0
  6
DASHED
 62
     7
100
AcDbLine
 10
71.49500653991193
 20
-139.9955213210459
 30
0.0
 11
70.47500653991192
 21
-139.9955213210459
 31
0.0
  0
LINE
  5
1D7
330
78
100
AcDbEntity
  8
0
  6
DASHED
 62
     7
100
AcDbLine
 10
36.99500653991195
 20
-189.4955213210459
 30
0.0
 11
37.93282871342088
 21
-192.9955213210459
 31
0.0
  0
LINE
  5
1D8
330
78
100
AcDbEntity
  8
0
  6
DASHED
 62
     7
100
AcDbLine
 10
86.99500653991194
 20
-189.4955213210459
 30
0.0
 11
86.057184366403
 21
-192.9955213210459
 31
0.0
  0
LINE
  5
1D9
330
78
100
AcDbEntity
  8
0
  6
DASHED
 62
     7
100
AcDbLine
 10
36.99500653991195
 20
-189.4955213210459
 30
0.0
 11
36.99500653991195
 21
-138.9955213210459
 31
0.0
  0
LINE
  5
1DA
330
78
100
AcDbEntity
  8
0
  6
DASHED
 62
     7
100
AcDbLine
 10
86.99500653991194
 20
-189.4955213210459
 30
0.0
 11
86.99500653991194
 21
-138.9955213210459
 31
0.0
  0
LINE
  5
1DB
330
78
100
AcDbEntity
  8
0
  6
DASHED
 62
     7
100
AcDbLine
 10
36.99500653991195
 20
-189.4955213210459
 30
0.0
 11
86.99500653991194
 21
-189.4955213210459
 31
0.0
  0
ARC
  5
1DC
330
78
100
AcDbEntity
  8
0
  6
DASHED
 62
     7
100
AcDbCircle
 10
52.49500653991195
 20
-138.4955213210459
 30
0.0
 40
0.5
100
AcDbArc
 50
90.00000000000082
 51
180.0
  0
ARC
  5
1DD
330
78
100
AcDbEntity
  8
0
  6
DASHED
 62
     7
100
AcDbCircle
 10
71.49500653991193
 20
-138.4955213210459
 30
0.0
 40
0.5
100
AcDbArc
 50
0.0
 51
90.0
  0
ARC
  5
1DE
330
78
100
AcDbEntity
  8
0
  6
DASHED
 62
     7
100
AcDbCircle
 10
37.99500653991195
 20
-138.9955213210459
 30
0.0
 40
1.0
100
AcDbArc
 50
90.0
 51
180.0
  0
ARC
  5
1DF
330
78
100
AcDbEntity
  8
0
  6
DASHED
 62
     7
100
AcDbCircle
 10
52.49500653991195
 20
-139.4955213210459
 30
0.0
 40
0.5
100
AcDbArc
 50
180.0
 51
270.0
  0
ARC
  5
1E0
330
78
100
AcDbEntity
  8
0
  6
DASHED
 62
     7
100
AcDbCircle
 10
71.49500653991193
 20
-139.4955213210459
 30
0.0
 40
0.5
100
AcDbArc
 50
270.0
 51
0.0
  0
SPLINE
  5
1E1
330
78
100
AcDbEntity
  8
0
  6
DASHED
 62
     7
100
AcDbSpline
210
0.0
220
0.0
230
1.0
 70
     8
 71
     3
 72
    13
 73
     9
 74
     7
 42
0.0000000001
 43
0.0000000001
 44
0.00000001
 40
0.0
 40
0.0
 40
0.0
 40
0.0
 40
0.1295242792261685
 40
0.25116950384373
 40
0.3577988525611485
 40
0.4438910213935803
 40
0.5070108983732509
 40
0.5517896950645615
 40
0.5517896950645615
 40
0.5517896950645615
 40
0.5517896950645615
 10
53.35500653991195
 20
-138.4955213210459
 30
0.0
 10
53.35601543921067
 20
-138.4523153630923
 30
0.0
 10
53.3579718657417
 20
-138.3685316965309
 30
0.0
 10
53.3737501693433
 20
-138.2502955062687
 30
0.0
 10
53.39745847807327
 20
-138.1473227676209
 30
0.0
 10
53.42916508197335
 20
-138.0694716063371
 30
0.0
 10
53.46490096028032
 20
-138.0105480766997
 30
0.0
 10
53.50031106743587
 20
-137.9999285203187
 30
0.0
 10
53.51500653991195
 20
-137.9955213210459
 30
0.0
 11
53.35500653991195
 21
-138.4955213210459
 31
0.0
 11
53.36045844890912
 21
-138.366111832996
 31
0.0
 11
53.37644247530644
 21
-138.2455213210459
 31
0.0
 11
53.40186948508511
 21
-138.141968024712
 31
0.0
 11
53.43500653991194
 21
-138.0625086191537
 31
0.0
 11
53.47359550373596
 21
-138.0125585366621
 31
0.0
 11
53.51500653991195
 21
-137.9955213210459
 31
0.0
  0
SPLINE
  5
1E2
330
78
100
AcDbEntity
  8
0
  6
DASHED
 62
     7
100
AcDbSpline
210
0.0
220
0.0
230
1.0
 70
     8
 71
     3
 72
    13
 73
     9
 74
     7
 42
0.0000000001
 43
0.0000000001
 44
0.00000001
 40
0.0
 40
0.0
 40
0.0
 40
0.0
 40
0.1295242792261685
 40
0.25116950384373
 40
0.3577988525611451
 40
0.4438910213935797
 40
0.5070108983732502
 40
0.5517896950645609
 40
0.5517896950645609
 40
0.5517896950645609
 40
0.5517896950645609
 10
70.63500653991193
 20
-138.4955213210459
 30
0.0
 10
70.6339976406132
 20
-138.4523153630923
 30
0.0
 10
70.63204121408221
 20
-138.3685316965309
 30
0.0
 10
70.61626291048057
 20
-138.2502955062687
 30
0.0
 10
70.59255460175063
 20
-138.1473227676209
 30
0.0
 10
70.56084799785052
 20
-138.069471606337
 30
0.0
 10
70.52511211954355
 20
-138.0105480766997
 30
0.0
 10
70.489702012388
 20
-137.9999285203187
 30
0.0
 10
70.47500653991193
 20
-137.9955213210459
 30
0.0
 11
70.63500653991193
 21
-138.4955213210459
 31
0.0
 11
70.62955463091475
 21
-138.366111832996
 31
0.0
 11
70.61357060451743
 21
-138.2455213210459
 31
0.0
 11
70.58814359473878
 21
-138.141968024712
 31
0.0
 11
70.55500653991194
 21
-138.0625086191537
 31
0.0
 11
70.51641757608792
 21
-138.0125585366621
 31
0.0
 11
70.47500653991193
 21
-137.9955213210459
 31
0.0
  0
SPLINE
  5
1E3
330
78
100
AcDbEntity
  8
0
  6
DASHED
 62
     7
100
AcDbSpline
210
0.0
220
0.0
230
1.0
 70
     8
 71
     3
 72
    23
 73
    19
 74
    17
 42
0.0000000001
 43
0.0000000001
 44
0.00000001
 40
0.0
 40
0.0
 40
0.0
 40
0.0
 40
0.6154531363063059
 40
1.111773858384703
 40
1.563876949030469
 40
2.095785120696084
 40
2.571715590953941
 40
2.945767207163032
 40
3.28579809576978
 40
3.658703237243528
 40
3.984756979568449
 40
4.230196170429896
 40
4.444044774653831
 40
4.658638760023305
 40
4.809872602594948
 40
4.953544228370233
 40
5.060081240632412
 40
5.151401590750704
 40
5.151401590750704
 40
5.151401590750704
 40
5.151401590750704
 10
82.09500653991195
 20
-137.9955213210459
 30
0.0
 10
82.30016419394593
 20
-137.9970721386773
 30
0.0
 10
82.67076741805398
 20
-137.9998735843115
 30
0.0
 10
83.19173423429129
 20
-138.0201380730082
 30
0.0
 10
83.68435105125226
 20
-138.049128997961
 30
0.0
 10
84.16938210326096
 20
-138.0895669432423
 30
0.0
 10
84.62724723212634
 20
-138.1405202368014
 30
0.0
 10
85.02016958026158
 20
-138.1952632978745
 30
0.0
 10
85.37756717538886
 20
-138.2551245274791
 30
0.0
 10
85.71712403988066
 20
-138.3237438328146
 30
0.0
 10
86.02280465341218
 20
-138.3994893989985
 30
0.0
 10
86.27354364762823
 20
-138.4750864815309
 30
0.0
 10
86.48475170959206
 20
-138.5520218727999
 30
0.0
 10
86.66088711592771
 20
-138.6320256557334
 30
0.0
 10
86.80740150810271
 20
-138.7192605089545
 30
0.0
 10
86.91005978100611
 20
-138.8050781138819
 30
0.0
 10
86.9811268423759
 20
-138.8987620569699
 30
0.0
 10
86.99062342605586
 20
-138.9649654051136
 30
0.0
 10
86.99500653991194
 20
-138.9955213210459
 30
0.0
 11
82.09500653991195
 21
-137.9955213210459
 31
0.0
 11
82.71040493125918
 21
-138.0037300308418
 31
0.0
 11
83.20637316917214
 21
-138.0224320667185
 31
0.0
 11
83.65768007008205
 21
-138.049251570117
 31
0.0
 11
84.18772844822651
 21
-138.0936927662203
 31
0.0
 11
84.66069674869127
 21
-138.1467097377987
 31
0.0
 11
85.0311309156552
 21
-138.1986052051766
 31
0.0
 11
85.36643681930244
 21
-138.2550937543348
 31
0.0
 11
85.7318117005357
 21
-138.3296554113801
 31
0.0
 11
86.04807855989637
 21
-138.4089417062502
 31
0.0
 11
86.28286191168681
 21
-138.4804761324572
 31
0.0
 11
86.48349673443056
 21
-138.5544821689077
 31
0.0
 11
86.67808909887167
 21
-138.6449497888497
 31
0.0
 11
86.80710661343905
 21
-138.7238557840201
 31
0.0
 11
86.91562592773629
 21
-138.8180104146942
 31
0.0
 11
86.97510972174187
 21
-138.9063948773132
 31
0.0
 11
86.99500653991194
 21
-138.9955213210459
 31
0.0
  0
SPLINE
  5
1E4
330
78
100
AcDbEntity
  8
0
  6
DASHED
 62
     7
100
AcDbSpline
210
0.0
220
0.0
230
1.0
 70
     8
 71
     3
 72
    13
 73
     9
 74
     7
 42
0.0000000001
 43
0.0000000001
 44
0.00000001
 40
0.0
 40
0.0
 40
0.0
 40
0.0
 40
0.0447787966912998
 40
0.1078986736710067
 40
0.1939908425034729
 40
0.3006201912208914
 40
0.4222654158384248
 40
0.5517896950645649
 40
0.5517896950645649
 40
0.5517896950645649
 40
0.5517896950645649
 10
70.47500653991192
 20
-139.9955213210459
 30
0.0
 10
70.48970201238798
 20
-139.9911141217731
 30
0.0
 10
70.52511211954358
 20
-139.9804945653922
 30
0.0
 10
70.56084799785047
 20
-139.9215710357547
 30
0.0
 10
70.59255460175062
 20
-139.8437198744709
 30
0.0
 10
70.61626291048057
 20
-139.740747135823
 30
0.0
 10
70.63204121408218
 20
-139.6225109455609
 30
0.0
 10
70.63399764061322
 20
-139.5387272789995
 30
0.0
 10
70.63500653991193
 20
-139.4955213210459
 30
0.0
 11
70.47500653991192
 21
-139.9955213210459
 31
0.0
 11
70.5164175760879
 21
-139.9784841054297
 31
0.0
 11
70.55500653991191
 21
-139.9285340229381
 31
0.0
 11
70.58814359473877
 21
-139.8490746173798
 31
0.0
 11
70.61357060451743
 21
-139.7455213210459
 31
0.0
 11
70.62955463091475
 21
-139.6249308090958
 31
0.0
 11
70.63500653991193
 21
-139.4955213210459
 31
0.0
  0
SPLINE
  5
1E5
330
78
100
AcDbEntity
  8
0
  6
DASHED
 62
     7
100
AcDbSpline
210
0.0
220
0.0
230
1.0
 70
     8
 71
     3
 72
    13
 73
     9
 74
     7
 42
0.0000000001
 43
0.0000000001
 44
0.00000001
 40
0.0
 40
0.0
 40
0.0
 40
0.0
 40
0.0447787966912998
 40
0.1078986736710154
 40
0.1939908425034761
 40
0.3006201912208929
 40
0.4222654158384263
 40
0.5517896950645664
 40
0.5517896950645664
 40
0.5517896950645664
 40
0.5517896950645664
 10
53.51500653991195
 20
-139.9955213210459
 30
0.0
 10
53.50031106743589
 20
-139.9911141217732
 30
0.0
 10
53.46490096028031
 20
-139.9804945653922
 30
0.0
 10
53.42916508197337
 20
-139.9215710357547
 30
0.0
 10
53.39745847807326
 20
-139.8437198744709
 30
0.0
 10
53.3737501693433
 20
-139.7407471358231
 30
0.0
 10
53.35797186574169
 20
-139.6225109455609
 30
0.0
 10
53.35601543921067
 20
-139.5387272789995
 30
0.0
 10
53.35500653991195
 20
-139.4955213210459
 30
0.0
 11
53.51500653991195
 21
-139.9955213210459
 31
0.0
 11
53.47359550373596
 21
-139.9784841054297
 31
0.0
 11
53.43500653991194
 21
-139.9285340229381
 31
0.0
 11
53.4018694850851
 21
-139.8490746173798
 31
0.0
 11
53.37644247530644
 21
-139.7455213210459
 31
0.0
 11
53.36045844890912
 21
-139.6249308090958
 31
0.0
 11
53.35500653991195
 21
-139.4955213210459
 31
0.0
  0
ENDBLK
  5
7A
330
78
100
AcDbEntity
  8
0
100
AcDbBlockEnd
  0
BLOCK
  5
82
330
7B
100
AcDbEntity
  8
0
100
AcDbBlockBegin
  2
HL_522V_Brausetassensifon
 70
     0
 10
40.8943592354977
 20
-81.31901785013655
 30
0.0
  3
HL_522V_Brausetassensifon
  1

  0
INSERT
  5
7C
330
7B
100
AcDbEntity
  8
0
100
AcDbBlockReference
  2
Bg-11092-Abdeckplatte
 10
-0.00000000000027
 20
11.58733633524297
 30
0.0
  0
INSERT
  5
7D
330
7B
100
AcDbEntity
  8
0
100
AcDbBlockReference
  2
HL522_Abgangsbogen_DN40_50
 10
123.1389644617254
 20
-53.4875032611321
 30
0.0
  0
INSERT
  5
7E
330
7B
100
AcDbEntity
  8
0
100
AcDbBlockReference
  2
0522_1E_Schraubventil_3-23
 10
0.00000000000003
 20
3.25
 30
0.0
  0
INSERT
  5
7F
330
7B
100
AcDbEntity
  8
0
100
AcDbBlockReference
  2
01076D_Ventildichtung
 10
0.00000000000002
 20
-1.49999999999999
 30
0.0
  0
INSERT
  5
80
330
7B
100
AcDbEntity
  8
0
100
AcDbBlockReference
  2
HL522V_Körper
 10
19.06738181024733
 20
-25.69526567073385
 30
0.0
  0
INSERT
  5
81
330
7B
100
AcDbEntity
  8
0
100
AcDbBlockReference
  2
HL522_Abgangsbogen_DN40_50_90Grad
 10
62.007509039662
 20
-133.4769577560539
 30
0.0
  0
DIMENSION
  5
1F1
330
7B
100
AcDbEntity
  8
1
100
AcDbDimension
  2
*D13
 10
220.5469982226514
 20
-23.97500653990977
 30
0.0
 11
215.0469982226514
 21
-46.35701308217667
 31
0.0
 70
    32
  1
<>
 71
     5
 42
-1.0
 53
90.0
  3
ME10_DIM_10
100
AcDbAlignedDimension
 13
201.785521321048
 23
-73.97500653990977
 33
0.0
 14
201.785521321048
 24
-23.97500653990977
 34
0.0
 50
90.0
100
AcDbRotatedDimension
  0
DIMENSION
  5
1FD
330
7B
100
AcDbEntity
  8
1
100
AcDbDimension
  2
*D14
 10
139.979369307302
 20
-33.97500653990976
 30
0.0
 11
134.479369307302
 21
-16.2410664222919
 31
0.0
 70
    32
  1
<>
 71
     5
 42
-1.0
 53
90.0
  3
ME10_DIM_11
100
AcDbAlignedDimension
 13
151.2855213210481
 23
-73.97500653990977
 33
0.0
 14
150.2855213210481
 24
-33.97500653990976
 34
0.0
 50
90.0
100
AcDbRotatedDimension
  0
DIMENSION
  5
208
330
7B
100
AcDbEntity
  8
1
100
AcDbDimension
  2
*D15
 10
61.99500653991196
 20
-208.6148478400113
 30
0.0
 11
29.59305710204333
 21
-203.1148478400113
 31
0.0
 70
    32
  1
<>
 71
     5
 42
-1.0
 53
0.00013888888889
  3
ME10_DIM_12
100
AcDbAlignedDimension
 13
0.0000000000002
 23
-83.76044499172637
 33
0.0
 14
61.99500653991196
 24
-197.1530442169172
 34
0.0
100
AcDbRotatedDimension
  0
DIMENSION
  5
215
330
7B
100
AcDbEntity
  8
1
100
AcDbDimension
  2
*D16
 10
-70.9107274253789
 20
0.0
 30
0.0
 11
-76.4107274253789
 21
26.1884679482954
 31
0.0
 70
    32
  1
<>
 71
     5
 42
-1.0
 53
-89.99999999999987
  3
ME10_DIM_13
100
AcDbAlignedDimension
 13
-55.99999999999997
 23
6.0
 33
0.0
 14
-55.00000000000007
 24
0.0
 34
0.0
 50
-89.99999999999987
100
AcDbRotatedDimension
  0
DIMENSION
  5
220
330
7B
100
AcDbEntity
  8
1
100
AcDbDimension
  2
*D17
 10
-56.65297197665212
 20
38.9768121397382
 30
0.0
 11
2.33429641245049
 21
44.4768121397382
 31
0.0
 70
    33
  1
<>
 71
     5
 42
-1.0
 53
0.00013888888889
  3
ME10_DIM_14
100
AcDbAlignedDimension
 13
56.65297197665169
 23
14.0620033713775
 33
0.0
 14
-56.65297197665209
 24
14.0620033713775
 34
0.0
  0
DIMENSION
  5
22B
330
7B
100
AcDbEntity
  8
1
100
AcDbDimension
  2
*D18
 10
108.3323733413596
 20
0.0
 30
0.0
 11
102.8323733413596
 21
-20.65900738417087
 31
0.0
 70
    32
  1
<>
 71
     5
 42
-1.0
 53
-89.99999999999987
  3
ME10_DIM_15
100
AcDbAlignedDimension
 13
71.5636215475345
 23
-53.97500653990642
 33
0.0
 14
55.00000000000011
 24
0.0
 34
0.0
 50
-89.99999999999987
100
AcDbRotatedDimension
  0
DIMENSION
  5
236
330
7B
100
AcDbEntity
  8
1
100
AcDbDimension
  2
*D19
 10
205.285521321048
 20
-88.26252115435138
 30
0.0
 11
179.4980903404104
 21
-82.76252115435138
 31
0.0
 70
    32
  1
<>
 71
     5
 42
-1.0
 53
0.00013888888889
  3
ME10_DIM_16
100
AcDbAlignedDimension
 13
152.2855213210481
 23
-57.45500653990973
 33
0.0
 14
205.285521321048
 24
-73.03718436640082
 34
0.0
 50
-0.00000000000001
100
AcDbRotatedDimension
  0
DIMENSION
  5
241
330
7B
100
AcDbEntity
  8
1
100
AcDbDimension
  2
*D20
 10
205.285521321048
 20
-118.6718278969915
 30
0.0
 11
120.3926772349968
 21
-113.1718278969915
 31
0.0
 70
    32
  1
<>
 71
     5
 42
-1.0
 53
0.00013888888889
  3
ME10_DIM_17
100
AcDbAlignedDimension
 13
0.0000000000002
 23
-83.76044499172637
 33
0.0
 14
205.285521321048
 24
-73.03718436640082
 34
0.0
 50
-0.00000000000001
100
AcDbRotatedDimension
  0
DIMENSION
  5
24C
330
7B
100
AcDbEntity
  8
1
100
AcDbDimension
  2
*D21
 10
205.285521321048
 20
-103.6813245731548
 30
0.0
 11
149.9453837877034
 21
-98.18132457315478
 31
0.0
 70
    32
  1
<>
 71
     5
 42
-1.0
 53
0.00013888888889
  3
ME10_DIM_18
100
AcDbAlignedDimension
 13
95.23219943089352
 23
-32.91763599070395
 33
0.0
 14
205.285521321048
 24
-73.03718436640082
 34
0.0
 50
-0.00000000000001
100
AcDbRotatedDimension
  0
DIMENSION
  5
257
330
7B
100
AcDbEntity
  8
1
100
AcDbDimension
  2
*D22
 10
-131.758279751656
 20
0.0
 30
0.0
 11
-137.258279751656
 21
-93.4604406955471
 31
0.0
 70
    32
  1
<>
 71
     5
 42
-1.0
 53
-89.99999999999987
  3
ME10_DIM_19
100
AcDbAlignedDimension
 13
37.93282871342088
 23
-192.9955213210459
 33
0.0
 14
-55.00000000000007
 24
0.0
 34
0.0
 50
-89.99999999999987
100
AcDbRotatedDimension
  0
DIMENSION
  5
262
330
7B
100
AcDbEntity
  8
1
100
AcDbDimension
  2
*D23
 10
-119.5232771809575
 20
0.0
 30
0.0
 11
-125.0232771809575
 21
-41.4999999911779
 31
0.0
 70
    32
  1
<>
 71
     5
 42
-1.0
 53
-89.99999999999987
  3
ME10_DIM_20
100
AcDbAlignedDimension
 13
36.83488470653133
 23
-82.99999998235442
 33
0.0
 14
-55.00000000000007
 24
0.0
 34
0.0
 50
-89.99999999999987
100
AcDbRotatedDimension
  0
ENDBLK
  5
83
330
7B
100
AcDbEntity
  8
0
100
AcDbBlockEnd
  0
BLOCK
  5
85
330
84
100
AcDbEntity
  8
0
100
AcDbBlockBegin
  2
GV_Einsatz-Rohr
 70
     0
 10
0.00000000000003
 20
8.5
 30
0.0
  3
GV_Einsatz-Rohr
  1

  0
LINE
  5
263
330
84
100
AcDbEntity
  8
0
  6
Continuous
 62
     7
100
AcDbLine
 10
-0.99999999999993
 20
11.0
 30
0.0
 11
-3.49999999999997
 21
11.0
 31
0.0
  0
LINE
  5
264
330
84
100
AcDbEntity
  8
0
  6
Continuous
 62
     7
100
AcDbLine
 10
-3.49999999999997
 20
11.0
 30
0.0
 11
-3.49999999999997
 21
7.0
 31
0.0
  0
LINE
  5
265
330
84
100
AcDbEntity
  8
0
  6
Continuous
 62
     7
100
AcDbLine
 10
-2.99999999999997
 20
7.0
 30
0.0
 11
-3.49999999999997
 21
7.0
 31
0.0
  0
LINE
  5
266
330
84
100
AcDbEntity
  8
0
  6
Continuous
 62
     7
100
AcDbLine
 10
3.50000000000003
 20
11.0
 30
0.0
 11
3.50000000000003
 21
7.0
 31
0.0
  0
LINE
  5
267
330
84
100
AcDbEntity
  8
0
  6
Continuous
 62
     7
100
AcDbLine
 10
3.50000000000003
 20
11.0
 30
0.0
 11
1.00000000000006
 21
11.0
 31
0.0
  0
LINE
  5
268
330
84
100
AcDbEntity
  8
0
  6
Continuous
 62
     7
100
AcDbLine
 10
3.50000000000003
 20
7.0
 30
0.0
 11
3.00000000000003
 21
7.0
 31
0.0
  0
ARC
  5
269
330
84
100
AcDbEntity
  8
0
  6
Continuous
 62
     7
100
AcDbCircle
 10
-3.49999999999997
 20
-3.0
 30
0.0
 40
14.0
100
AcDbArc
 50
90.0
 51
139.9947991151398
  0
ARC
  5
26A
330
84
100
AcDbEntity
  8
0
  6
Continuous
 62
     7
100
AcDbCircle
 10
3.50000000000003
 20
-3.0
 30
0.0
 40
9.999999999999993
100
AcDbArc
 50
64.1580672368329
 51
90.0
  0
ARC
  5
26B
330
84
100
AcDbEntity
  8
0
  6
Continuous
 62
     7
100
AcDbCircle
 10
3.50000000000003
 20
-3.0
 30
0.0
 40
14.0
100
AcDbArc
 50
40.00520088486021
 51
90.0
  0
ARC
  5
26C
330
84
100
AcDbEntity
  8
0
  6
Continuous
 62
     7
100
AcDbCircle
 10
-3.49999999999997
 20
-3.0
 30
0.0
 40
9.999999999999996
100
AcDbArc
 50
90.0
 51
115.8419327631672
  0
SPLINE
  5
26D
330
84
100
AcDbEntity
  8
0
  6
Continuous
 62
     7
100
AcDbSpline
210
0.0
220
0.0
230
1.0
 70
     8
 71
     3
 72
    22
 73
    18
 74
    16
 42
0.0000000001
 43
0.0000000001
 44
0.00000001
 40
0.0
 40
0.0
 40
0.0
 40
0.0
 40
0.0837055222974668
 40
0.1694993175204322
 40
0.3854921650880775
 40
0.6171952569362485
 40
0.8663526497386947
 40
1.134661656378661
 40
1.423777938917033
 40
1.590952738342129
 40
1.765626650156722
 40
1.881719297484632
 40
2.00118329722274
 40
2.11153690229795
 40
2.224795985754811
 40
2.232483704631842
 40
2.240171423508874
 40
2.240171423508874
 40
2.240171423508874
 40
2.240171423508874
 10
-1.000000000000043
 20
8.000000000000156
 30
0.0
 10
-1.026422890249551
 20
7.991034133075607
 30
0.0
 10
-1.079927865086131
 20
7.97287872011146
 30
0.0
 10
-1.200669064238194
 20
7.928886249056808
 30
0.0
 10
-1.36606296689361
 20
7.86343567393983
 30
0.0
 10
-1.578907587879274
 20
7.770308927219991
 30
0.0
 10
-1.804566629301979
 20
7.663274886665168
 30
0.0
 10
-2.044378747575582
 20
7.541658367022294
 30
0.0
 10
-2.257287957954387
 20
7.427566740542824
 30
0.0
 10
-2.441198732668847
 20
7.32552209319993
 30
0.0
 10
-2.573956932534982
 20
7.250175173525752
 30
0.0
 10
-2.692394091035169
 20
7.18182621371927
 30
0.0
 10
-2.791951641923943
 20
7.123660058566196
 30
0.0
 10
-2.890416252680706
 20
7.065498595263225
 30
0.0
 10
-2.956630513759642
 20
7.025999943058544
 30
0.0
 10
-2.993407524103104
 20
7.003954779986043
 30
0.0
 10
-2.997802508034349
 20
7.001318259995348
 30
0.0
 10
-2.999999999999972
 20
7.0
 30
0.0
 11
-1.000000000000043
 21
8.000000000000156
 31
0.0
 11
-1.079167323224715
 21
7.972812697880746
 31
0.0
 11
-1.159811199190528
 21
7.943535734787375
 31
0.0
 11
-1.36071455417216
 21
7.864221472781702
 31
0.0
 11
-1.573104754124719
 21
7.771610859264061
 31
0.0
 11
-1.798330825315564
 21
7.66506216971769
 31
0.0
 11
-2.037741794012053
 21
7.543933679625829
 31
0.0
 11
-2.292686686481545
 21
7.407583664471716
 31
0.0
 11
-2.438884309449191
 21
7.326505500941508
 31
0.0
 11
-2.590814540281798
 21
7.240318608505575
 31
0.0
 11
-2.69136951409728
 21
7.182299646048719
 31
0.0
 11
-2.79452352178096
 21
7.122042713400084
 31
0.0
 11
-2.889542331853917
 21
7.065923698036174
 31
0.0
 11
-2.986813516720431
 21
7.007907005781682
 31
0.0
 11
-2.993407298697843
 21
7.003954404009858
 31
0.0
 11
-2.999999999999972
 21
7.0
 31
0.0
  0
SPLINE
  5
26E
330
84
100
AcDbEntity
  8
0
  6
Continuous
 62
     7
100
AcDbSpline
210
0.0
220
0.0
230
1.0
 70
     8
 71
     3
 72
    22
 73
    18
 74
    16
 42
0.0000000001
 43
0.0000000001
 44
0.00000001
 40
0.0
 40
0.0
 40
0.0
 40
0.0
 40
0.0075169975956936
 40
0.0150339951913887
 40
0.127698943513612
 40
0.2374895206552567
 40
0.3573240762230115
 40
0.4737675565131452
 40
0.648398906992538
 40
0.8155347443285551
 40
1.104288188534519
 40
1.372287373844986
 40
1.621180812257528
 40
1.85265836368361
 40
2.068456292103001
 40
2.155385927323129
 40
2.24017161375749
 40
2.24017161375749
 40
2.24017161375749
 40
2.24017161375749
 10
3.000000000000028
 20
7.0
 30
0.0
 10
2.99785131001069
 20
7.001288989110849
 30
0.0
 10
2.993553930032014
 20
7.003866967332546
 30
0.0
 10
2.957044609828902
 20
7.025752135653697
 30
0.0
 10
2.891211389355894
 20
7.065025544424067
 30
0.0
 10
2.79297534848437
 20
7.123058402101832
 30
0.0
 10
2.693375557575103
 20
7.181256905198066
 30
0.0
 10
2.574745526459819
 20
7.24972436254487
 30
0.0
 10
2.441912425345459
 20
7.325121170469206
 30
0.0
 10
2.258136314946353
 20
7.427103219577912
 30
0.0
 10
2.045444600267887
 20
7.541098303625601
 30
0.0
 10
1.805926020065554
 20
7.662603047219244
 30
0.0
 10
1.580527900780078
 20
7.769564941876638
 30
0.0
 10
1.367917423532417
 20
7.862657155308613
 30
0.0
 10
1.202325703824425
 20
7.928255011458296
 30
0.0
 10
1.080966500553429
 20
7.972520039426083
 30
0.0
 10
1.02676324891962
 20
7.990916576360426
 30
0.0
 10
1.000000000000028
 20
8.0
 30
0.0
 11
3.000000000000028
 21
7.0
 31
0.0
 11
2.993553714561906
 21
7.003866607932531
 31
0.0
 11
2.98710639606287
 21
7.007731493057044
 31
0.0
 11
2.890346852319585
 21
7.065446146959156
 31
0.0
 11
2.795815564770493
 21
7.121283468737751
 31
0.0
 11
2.692345040251462
 21
7.181733210373906
 31
0.0
 11
2.591488811239088
 21
7.23993205204178
 31
0.0
 11
2.439599242591875
 21
7.326104364917902
 31
0.0
 11
2.293439800670839
 21
7.407171039077774
 31
0.0
 11
2.038825209952243
 21
7.543369283317589
 31
0.0
 11
1.799706005305259
 21
7.66438816323336
 31
0.0
 11
1.57473888287321
 21
7.77086697572421
 31
0.0
 11
1.362580538799424
 21
7.863445017689263
 31
0.0
 11
1.161887669227227
 21
7.94276158602765
 31
0.0
 11
1.080185787057297
 21
7.972452728299299
 31
0.0
 11
1.000000000000028
 21
8.0
 31
0.0
  0
ENDBLK
  5
86
330
84
100
AcDbEntity
  8
0
100
AcDbBlockEnd
  0
BLOCK
  5
88
330
87
100
AcDbEntity
  8
0
100
AcDbBlockBegin
  2
Holländermutter_1_Zoll
 70
     0
 10
-58.69642582332727
 20
-59.99999998235626
 30
0.0
  3
Holländermutter_1_Zoll
  1

  0
LINE
  5
26F
330
87
100
AcDbEntity
  8
1
  6
Continuous
 62
     7
100
AcDbLine
 10
-52.49999999999987
 20
-56.5999999823548
 30
0.0
 11
-52.49999999999987
 21
-59.99999998235262
 31
0.0
  0
LINE
  5
270
330
87
100
AcDbEntity
  8
1
  6
Continuous
 62
     7
100
AcDbLine
 10
-67.50000000000347
 20
-42.5999999823548
 30
0.0
 11
-67.50000000000347
 21
-59.99999998235262
 31
0.0
  0
LINE
  5
271
330
87
100
AcDbEntity
  8
1
  6
Continuous
 62
     7
100
AcDbLine
 10
-49.99999999999987
 20
-39.8499999823548
 30
0.0
 11
-51.99999999999987
 21
-39.8499999823548
 31
0.0
  0
LINE
  5
272
330
87
100
AcDbEntity
  8
1
  6
Continuous
 62
     7
100
AcDbLine
 10
-62.09999999999837
 20
-40.99999998235261
 30
0.0
 11
-52.49999999999987
 21
-40.99999998235261
 31
0.0
  0
LINE
  5
273
330
87
100
AcDbEntity
  8
1
  6
Continuous
 62
     7
100
AcDbLine
 10
-52.49999999999987
 20
-40.3499999823548
 30
0.0
 11
-52.49999999999987
 21
-40.99999998235261
 31
0.0
  0
LINE
  5
274
330
87
100
AcDbEntity
  8
1
  6
Continuous
 62
     7
100
AcDbLine
 10
-66.50000000000347
 20
-41.5999999823548
 30
0.0
 11
-62.70000000000059
 21
-41.5999999823548
 31
0.0
  0
LINE
  5
275
330
87
100
AcDbEntity
  8
1
  6
Continuous
 62
     7
100
AcDbLine
 10
-62.70000000000059
 20
-56.5999999823548
 30
0.0
 11
-62.70000000000059
 21
-59.99999998235262
 31
0.0
  0
LINE
  5
276
330
87
100
AcDbEntity
  8
1
  6
Continuous
 62
     7
100
AcDbLine
 10
-52.49999999999987
 20
-53.90291569520968
 30
0.0
 11
-52.49999999999987
 21
-56.5999999823548
 31
0.0
  0
LINE
  5
277
330
87
100
AcDbEntity
  8
1
  6
DOT_CENTER
 62
     2
100
AcDbLine
 10
-62.09999999999837
 20
-59.99999998235262
 30
0.0
 11
-68.19642582332727
 21
-59.99999998235262
 31
0.0
  0
LINE
  5
278
330
87
100
AcDbEntity
  8
1
  6
Continuous
 62
     7
100
AcDbLine
 10
-62.70000000000059
 20
-41.5999999823548
 30
0.0
 11
-62.09999999999837
 21
-40.99999998235261
 31
0.0
  0
LINE
  5
279
330
87
100
AcDbEntity
  8
1
  6
Continuous
 62
     7
100
AcDbLine
 10
-62.09999999999837
 20
-56.5999999823548
 30
0.0
 11
-62.70000000000059
 21
-56.5999999823548
 31
0.0
  0
LINE
  5
27A
330
87
100
AcDbEntity
  8
1
  6
Continuous
 62
     7
100
AcDbLine
 10
-62.09999999999837
 20
-59.99999998235262
 30
0.0
 11
-62.09999999999837
 21
-56.5999999823548
 31
0.0
  0
LINE
  5
27B
330
87
100
AcDbEntity
  8
1
  6
DOT_CENTER
 62
     2
100
AcDbLine
 10
-49.19642582332727
 20
-59.99999998235262
 30
0.0
 11
-62.09999999999837
 21
-59.99999998235262
 31
0.0
  0
LINE
  5
27C
330
87
100
AcDbEntity
  8
1
  6
Continuous
 62
     7
100
AcDbLine
 10
-52.49999999999987
 20
-56.5999999823548
 30
0.0
 11
-62.09999999999837
 21
-56.5999999823548
 31
0.0
  0
LINE
  5
27D
330
87
100
AcDbEntity
  8
1
  6
Continuous
 62
     7
100
AcDbLine
 10
-62.70000000000059
 20
-48.01394294947431
 30
0.0
 11
-62.70000000000059
 21
-53.90291569520968
 31
0.0
  0
LINE
  5
27E
330
87
100
AcDbEntity
  8
1
  6
Continuous
 62
     7
100
AcDbLine
 10
-62.09999999999837
 20
-53.59782919878171
 30
0.0
 11
-62.09999999999837
 21
-47.70885645304997
 31
0.0
  0
LINE
  5
27F
330
87
100
AcDbEntity
  8
1
  6
Continuous
 62
     7
100
AcDbLine
 10
-62.70000000000059
 20
-42.63954021898871
 30
0.0
 11
-62.70000000000059
 21
-46.03954021898653
 31
0.0
  0
LINE
  5
280
330
87
100
AcDbEntity
  8
1
  6
Continuous
 62
     7
100
AcDbLine
 10
-62.09999999999837
 20
-45.51111490647281
 30
0.0
 11
-62.09999999999837
 21
-42.11111490647499
 31
0.0
  0
LINE
  5
281
330
87
100
AcDbEntity
  8
1
  6
Continuous
 62
     7
100
AcDbLine
 10
-52.49999999999987
 20
-47.70885645304997
 30
0.0
 11
-62.09999999999837
 21
-47.70885645304997
 31
0.0
  0
LINE
  5
282
330
87
100
AcDbEntity
  8
1
  6
Continuous
 62
     7
100
AcDbLine
 10
-52.49999999999987
 20
-46.03954021898653
 30
0.0
 11
-52.49999999999987
 21
-47.70885645304997
 31
0.0
  0
LINE
  5
283
330
87
100
AcDbEntity
  8
1
  6
Continuous
 62
     7
100
AcDbLine
 10
-52.49999999999987
 20
-53.90291569520968
 30
0.0
 11
-62.70000000000059
 21
-53.90291569520968
 31
0.0
  0
LINE
  5
284
330
87
100
AcDbEntity
  8
1
  6
Continuous
 62
     7
100
AcDbLine
 10
-52.49999999999987
 20
-53.59782919878171
 30
0.0
 11
-52.49999999999987
 21
-53.90291569520968
 31
0.0
  0
LINE
  5
285
330
87
100
AcDbEntity
  8
1
  6
Continuous
 62
     7
100
AcDbLine
 10
-52.49999999999987
 20
-46.03954021898653
 30
0.0
 11
-62.70000000000059
 21
-46.03954021898653
 31
0.0
  0
LINE
  5
286
330
87
100
AcDbEntity
  8
1
  6
Continuous
 62
     7
100
AcDbLine
 10
-52.49999999999987
 20
-45.51111490647281
 30
0.0
 11
-52.49999999999987
 21
-46.03954021898653
 31
0.0
  0
LINE
  5
287
330
87
100
AcDbEntity
  8
1
  6
Continuous
 62
     7
100
AcDbLine
 10
-52.49999999999987
 20
-42.11111490647499
 30
0.0
 11
-62.09999999999837
 21
-42.11111490647499
 31
0.0
  0
LINE
  5
288
330
87
100
AcDbEntity
  8
1
  6
Continuous
 62
     7
100
AcDbLine
 10
-52.49999999999987
 20
-41.91685866233137
 30
0.0
 11
-52.49999999999987
 21
-42.11111490647499
 31
0.0
  0
LINE
  5
289
330
87
100
AcDbEntity
  8
1
  6
Continuous
 62
     7
100
AcDbLine
 10
-62.70000000000059
 20
-41.91685866233137
 30
0.0
 11
-62.70000000000059
 21
-41.5999999823548
 31
0.0
  0
LINE
  5
28A
330
87
100
AcDbEntity
  8
1
  6
Continuous
 62
     7
100
AcDbLine
 10
-52.49999999999987
 20
-41.91685866233137
 30
0.0
 11
-62.70000000000059
 21
-41.91685866233137
 31
0.0
  0
LINE
  5
28B
330
87
100
AcDbEntity
  8
1
  6
Continuous
 62
     7
100
AcDbLine
 10
-52.49999999999987
 20
-41.30668566947542
 30
0.0
 11
-52.49999999999987
 21
-41.91685866233137
 31
0.0
  0
LINE
  5
28C
330
87
100
AcDbEntity
  8
1
  6
Continuous
 62
     7
100
AcDbLine
 10
-52.49999999999987
 20
-45.51111490647281
 30
0.0
 11
-62.09999999999837
 21
-45.51111490647281
 31
0.0
  0
LINE
  5
28D
330
87
100
AcDbEntity
  8
1
  6
Continuous
 62
     7
100
AcDbLine
 10
-52.49999999999987
 20
-42.11111490647499
 30
0.0
 11
-52.49999999999987
 21
-45.51111490647281
 31
0.0
  0
LINE
  5
28E
330
87
100
AcDbEntity
  8
1
  6
Continuous
 62
     7
100
AcDbLine
 10
-62.70000000000059
 20
-46.03954021898653
 30
0.0
 11
-62.09999999999837
 21
-45.51111490647281
 31
0.0
  0
LINE
  5
28F
330
87
100
AcDbEntity
  8
1
  6
Continuous
 62
     7
100
AcDbLine
 10
-62.70000000000059
 20
-42.63954021898871
 30
0.0
 11
-62.09999999999837
 21
-42.11111490647499
 31
0.0
  0
LINE
  5
290
330
87
100
AcDbEntity
  8
1
  6
Continuous
 62
     7
100
AcDbLine
 10
-62.09999999999837
 20
-45.51111490647281
 30
0.0
 11
-62.09999999999837
 21
-42.11111490647499
 31
0.0
  0
LINE
  5
291
330
87
100
AcDbEntity
  8
1
  6
Continuous
 62
     7
100
AcDbLine
 10
-62.70000000000059
 20
-53.90291569520968
 30
0.0
 11
-62.09999999999837
 21
-53.59782919878171
 31
0.0
  0
LINE
  5
292
330
87
100
AcDbEntity
  8
1
  6
Continuous
 62
     7
100
AcDbLine
 10
-52.49999999999987
 20
-53.59782919878171
 30
0.0
 11
-62.09999999999837
 21
-53.59782919878171
 31
0.0
  0
LINE
  5
293
330
87
100
AcDbEntity
  8
1
  6
Continuous
 62
     7
100
AcDbLine
 10
-52.49999999999987
 20
-47.70885645304997
 30
0.0
 11
-52.49999999999987
 21
-53.59782919878171
 31
0.0
  0
LINE
  5
294
330
87
100
AcDbEntity
  8
1
  6
Continuous
 62
     7
100
AcDbLine
 10
-62.70000000000059
 20
-48.01394294947431
 30
0.0
 11
-62.09999999999837
 21
-47.70885645304997
 31
0.0
  0
LINE
  5
295
330
87
100
AcDbEntity
  8
1
  6
Continuous
 62
     7
100
AcDbLine
 10
-62.09999999999837
 20
-41.30668566947542
 30
0.0
 11
-52.49999999999987
 21
-41.30668566947542
 31
0.0
  0
LINE
  5
296
330
87
100
AcDbEntity
  8
1
  6
Continuous
 62
     7
100
AcDbLine
 10
-52.49999999999987
 20
-40.99999998235261
 30
0.0
 11
-52.49999999999987
 21
-41.30668566947542
 31
0.0
  0
LINE
  5
297
330
87
100
AcDbEntity
  8
1
  6
Continuous
 62
     7
100
AcDbLine
 10
-62.70000000000059
 20
-41.91685866233137
 30
0.0
 11
-62.09999999999837
 21
-41.30668566947542
 31
0.0
  0
LINE
  5
298
330
87
100
AcDbEntity
  8
1
  6
Continuous
 62
     7
100
AcDbLine
 10
-62.09999999999837
 20
-41.30668566947542
 30
0.0
 11
-62.09999999999837
 21
-40.99999998235261
 31
0.0
  0
LINE
  5
299
330
87
100
AcDbEntity
  8
1
  6
Continuous
 62
     7
100
AcDbLine
 10
-49.99999999999987
 20
-53.75580267598752
 30
0.0
 11
-49.99999999999987
 21
-80.14999998235771
 31
0.0
  0
LINE
  5
29A
330
87
100
AcDbEntity
  8
1
  6
Continuous
 62
     7
100
AcDbLine
 10
-52.49999999999987
 20
-59.99999998235262
 30
0.0
 11
-52.49999999999987
 21
-63.39999998235771
 31
0.0
  0
LINE
  5
29B
330
87
100
AcDbEntity
  8
1
  6
Continuous
 62
     7
100
AcDbLine
 10
-67.50000000000347
 20
-59.99999998235262
 30
0.0
 11
-67.50000000000347
 21
-77.39999998235771
 31
0.0
  0
LINE
  5
29C
330
87
100
AcDbEntity
  8
1
  6
Continuous
 62
     7
100
AcDbLine
 10
-51.99999999999987
 20
-80.14999998235771
 30
0.0
 11
-49.99999999999987
 21
-80.14999998235771
 31
0.0
  0
LINE
  5
29D
330
87
100
AcDbEntity
  8
1
  6
Continuous
 62
     7
100
AcDbLine
 10
-52.49999999999987
 20
-78.99999998235262
 30
0.0
 11
-62.09999999999837
 21
-78.99999998235262
 31
0.0
  0
LINE
  5
29E
330
87
100
AcDbEntity
  8
1
  6
Continuous
 62
     7
100
AcDbLine
 10
-52.49999999999987
 20
-78.99999998235262
 30
0.0
 11
-52.49999999999987
 21
-79.64999998235771
 31
0.0
  0
LINE
  5
29F
330
87
100
AcDbEntity
  8
1
  6
Continuous
 62
     7
100
AcDbLine
 10
-62.70000000000059
 20
-78.39999998235771
 30
0.0
 11
-66.50000000000347
 21
-78.39999998235771
 31
0.0
  0
LINE
  5
2A0
330
87
100
AcDbEntity
  8
1
  6
Continuous
 62
     7
100
AcDbLine
 10
-62.70000000000059
 20
-59.99999998235262
 30
0.0
 11
-62.70000000000059
 21
-63.39999998235771
 31
0.0
  0
LINE
  5
2A1
330
87
100
AcDbEntity
  8
1
  6
Continuous
 62
     7
100
AcDbLine
 10
-52.49999999999987
 20
-63.39999998235771
 30
0.0
 11
-52.49999999999987
 21
-66.09708426950283
 31
0.0
  0
LINE
  5
2A2
330
87
100
AcDbEntity
  8
1
  6
Continuous
 62
     7
100
AcDbLine
 10
-62.09999999999837
 20
-78.99999998235262
 30
0.0
 11
-62.70000000000059
 21
-78.39999998235771
 31
0.0
  0
LINE
  5
2A3
330
87
100
AcDbEntity
  8
1
  6
Continuous
 62
     7
100
AcDbLine
 10
-62.70000000000059
 20
-63.39999998235771
 30
0.0
 11
-62.09999999999837
 21
-63.39999998235771
 31
0.0
  0
LINE
  5
2A4
330
87
100
AcDbEntity
  8
1
  6
Continuous
 62
     7
100
AcDbLine
 10
-62.09999999999837
 20
-63.39999998235771
 30
0.0
 11
-62.09999999999837
 21
-59.99999998235262
 31
0.0
  0
LINE
  5
2A5
330
87
100
AcDbEntity
  8
1
  6
Continuous
 62
     7
100
AcDbLine
 10
-62.09999999999837
 20
-63.39999998235771
 30
0.0
 11
-52.49999999999987
 21
-63.39999998235771
 31
0.0
  0
LINE
  5
2A6
330
87
100
AcDbEntity
  8
1
  6
Continuous
 62
     7
100
AcDbLine
 10
-62.70000000000059
 20
-66.09708426950283
 30
0.0
 11
-62.70000000000059
 21
-71.98605701523093
 31
0.0
  0
LINE
  5
2A7
330
87
100
AcDbEntity
  8
1
  6
Continuous
 62
     7
100
AcDbLine
 10
-62.09999999999837
 20
-72.2911435116589
 30
0.0
 11
-62.09999999999837
 21
-66.40217076592353
 31
0.0
  0
LINE
  5
2A8
330
87
100
AcDbEntity
  8
1
  6
Continuous
 62
     7
100
AcDbLine
 10
-62.70000000000059
 20
-73.9604597457187
 30
0.0
 11
-62.70000000000059
 21
-77.3604597457238
 31
0.0
  0
LINE
  5
2A9
330
87
100
AcDbEntity
  8
1
  6
Continuous
 62
     7
100
AcDbLine
 10
-62.09999999999837
 20
-77.88888505823388
 30
0.0
 11
-62.09999999999837
 21
-74.48888505823243
 31
0.0
  0
LINE
  5
2AA
330
87
100
AcDbEntity
  8
1
  6
Continuous
 62
     7
100
AcDbLine
 10
-62.09999999999837
 20
-72.2911435116589
 30
0.0
 11
-52.49999999999987
 21
-72.2911435116589
 31
0.0
  0
LINE
  5
2AB
330
87
100
AcDbEntity
  8
1
  6
Continuous
 62
     7
100
AcDbLine
 10
-52.49999999999987
 20
-72.2911435116589
 30
0.0
 11
-52.49999999999987
 21
-73.9604597457187
 31
0.0
  0
LINE
  5
2AC
330
87
100
AcDbEntity
  8
1
  6
Continuous
 62
     7
100
AcDbLine
 10
-62.70000000000059
 20
-66.09708426950283
 30
0.0
 11
-52.49999999999987
 21
-66.09708426950283
 31
0.0
  0
LINE
  5
2AD
330
87
100
AcDbEntity
  8
1
  6
Continuous
 62
     7
100
AcDbLine
 10
-52.49999999999987
 20
-66.09708426950283
 30
0.0
 11
-52.49999999999987
 21
-66.40217076592353
 31
0.0
  0
LINE
  5
2AE
330
87
100
AcDbEntity
  8
1
  6
Continuous
 62
     7
100
AcDbLine
 10
-62.70000000000059
 20
-73.9604597457187
 30
0.0
 11
-52.49999999999987
 21
-73.9604597457187
 31
0.0
  0
LINE
  5
2AF
330
87
100
AcDbEntity
  8
1
  6
Continuous
 62
     7
100
AcDbLine
 10
-52.49999999999987
 20
-73.9604597457187
 30
0.0
 11
-52.49999999999987
 21
-74.48888505823243
 31
0.0
  0
LINE
  5
2B0
330
87
100
AcDbEntity
  8
1
  6
Continuous
 62
     7
100
AcDbLine
 10
-62.09999999999837
 20
-77.88888505823388
 30
0.0
 11
-52.49999999999987
 21
-77.88888505823388
 31
0.0
  0
LINE
  5
2B1
330
87
100
AcDbEntity
  8
1
  6
Continuous
 62
     7
100
AcDbLine
 10
-52.49999999999987
 20
-77.88888505823388
 30
0.0
 11
-52.49999999999987
 21
-78.08314130237748
 31
0.0
  0
LINE
  5
2B2
330
87
100
AcDbEntity
  8
1
  6
Continuous
 62
     7
100
AcDbLine
 10
-62.70000000000059
 20
-78.39999998235771
 30
0.0
 11
-62.70000000000059
 21
-78.08314130237748
 31
0.0
  0
LINE
  5
2B3
330
87
100
AcDbEntity
  8
1
  6
Continuous
 62
     7
100
AcDbLine
 10
-62.70000000000059
 20
-78.08314130237748
 30
0.0
 11
-52.49999999999987
 21
-78.08314130237748
 31
0.0
  0
LINE
  5
2B4
330
87
100
AcDbEntity
  8
1
  6
Continuous
 62
     7
100
AcDbLine
 10
-52.49999999999987
 20
-78.08314130237748
 30
0.0
 11
-52.49999999999987
 21
-78.69331429522981
 31
0.0
  0
LINE
  5
2B5
330
87
100
AcDbEntity
  8
1
  6
Continuous
 62
     7
100
AcDbLine
 10
-62.09999999999837
 20
-74.48888505823243
 30
0.0
 11
-52.49999999999987
 21
-74.48888505823243
 31
0.0
  0
LINE
  5
2B6
330
87
100
AcDbEntity
  8
1
  6
Continuous
 62
     7
100
AcDbLine
 10
-52.49999999999987
 20
-74.48888505823243
 30
0.0
 11
-52.49999999999987
 21
-77.88888505823388
 31
0.0
  0
LINE
  5
2B7
330
87
100
AcDbEntity
  8
1
  6
Continuous
 62
     7
100
AcDbLine
 10
-62.09999999999837
 20
-74.48888505823243
 30
0.0
 11
-62.70000000000059
 21
-73.9604597457187
 31
0.0
  0
LINE
  5
2B8
330
87
100
AcDbEntity
  8
1
  6
Continuous
 62
     7
100
AcDbLine
 10
-62.09999999999837
 20
-77.88888505823388
 30
0.0
 11
-62.70000000000059
 21
-77.3604597457238
 31
0.0
  0
LINE
  5
2B9
330
87
100
AcDbEntity
  8
1
  6
Continuous
 62
     7
100
AcDbLine
 10
-62.09999999999837
 20
-77.88888505823388
 30
0.0
 11
-62.09999999999837
 21
-74.48888505823243
 31
0.0
  0
LINE
  5
2BA
330
87
100
AcDbEntity
  8
1
  6
Continuous
 62
     7
100
AcDbLine
 10
-62.09999999999837
 20
-66.40217076592353
 30
0.0
 11
-62.70000000000059
 21
-66.09708426950283
 31
0.0
  0
LINE
  5
2BB
330
87
100
AcDbEntity
  8
1
  6
Continuous
 62
     7
100
AcDbLine
 10
-62.09999999999837
 20
-66.40217076592353
 30
0.0
 11
-52.49999999999987
 21
-66.40217076592353
 31
0.0
  0
LINE
  5
2BC
330
87
100
AcDbEntity
  8
1
  6
Continuous
 62
     7
100
AcDbLine
 10
-52.49999999999987
 20
-66.40217076592353
 30
0.0
 11
-52.49999999999987
 21
-72.2911435116589
 31
0.0
  0
LINE
  5
2BD
330
87
100
AcDbEntity
  8
1
  6
Continuous
 62
     7
100
AcDbLine
 10
-62.09999999999837
 20
-72.2911435116589
 30
0.0
 11
-62.70000000000059
 21
-71.98605701523093
 31
0.0
  0
LINE
  5
2BE
330
87
100
AcDbEntity
  8
1
  6
Continuous
 62
     7
100
AcDbLine
 10
-52.49999999999987
 20
-78.69331429522981
 30
0.0
 11
-62.09999999999837
 21
-78.69331429522981
 31
0.0
  0
LINE
  5
2BF
330
87
100
AcDbEntity
  8
1
  6
Continuous
 62
     7
100
AcDbLine
 10
-52.49999999999987
 20
-78.69331429522981
 30
0.0
 11
-52.49999999999987
 21
-78.99999998235262
 31
0.0
  0
LINE
  5
2C0
330
87
100
AcDbEntity
  8
1
  6
Continuous
 62
     7
100
AcDbLine
 10
-62.09999999999837
 20
-78.69331429522981
 30
0.0
 11
-62.70000000000059
 21
-78.08314130237748
 31
0.0
  0
LINE
  5
2C1
330
87
100
AcDbEntity
  8
1
  6
Continuous
 62
     7
100
AcDbLine
 10
-62.09999999999837
 20
-78.99999998235262
 30
0.0
 11
-62.09999999999837
 21
-78.69331429522981
 31
0.0
  0
LINE
  5
2C2
330
87
100
AcDbEntity
  8
1
  6
Continuous
 62
     7
100
AcDbLine
 10
-49.99999999999987
 20
-39.8499999823548
 30
0.0
 11
-49.99999999999987
 21
-53.75580267598752
 31
0.0
  0
ARC
  5
2C3
330
87
100
AcDbEntity
  8
1
  6
Continuous
 62
     7
100
AcDbCircle
 10
-66.50000000000347
 20
-42.5999999823548
 30
0.0
 40
1.0
100
AcDbArc
 50
90.0
 51
180.0
  0
ARC
  5
2C4
330
87
100
AcDbEntity
  8
1
  6
Continuous
 62
     7
100
AcDbCircle
 10
-51.99999999999987
 20
-40.3499999823548
 30
0.0
 40
0.5
100
AcDbArc
 50
90.0
 51
180.0
  0
ARC
  5
2C5
330
87
100
AcDbEntity
  8
1
  6
Continuous
 62
     7
100
AcDbCircle
 10
-66.50000000000347
 20
-77.39999998235771
 30
0.0
 40
1.0
100
AcDbArc
 50
180.0
 51
270.0
  0
ARC
  5
2C6
330
87
100
AcDbEntity
  8
1
  6
Continuous
 62
     7
100
AcDbCircle
 10
-51.99999999999987
 20
-79.64999998235771
 30
0.0
 40
0.5
100
AcDbArc
 50
180.0
 51
270.0
  0
ENDBLK
  5
89
330
87
100
AcDbEntity
  8
0
100
AcDbBlockEnd
  0
BLOCK
  5
8B
330
8A
100
AcDbEntity
  8
0
100
AcDbBlockBegin
  2
HL19_2Körper
 70
     0
 10
-70.31884014708017
 20
-38.70912476488275
 30
0.0
  3
HL19_2Körper
  1

  0
POINT
  5
2C7
330
8A
100
AcDbEntity
  8
1
 62
     3
 60
     1
100
AcDbPoint
 10
-67.49999999999989
 20
-48.49999998235262
 30
0.0
  0
POINT
  5
2C8
330
8A
100
AcDbEntity
  8
1
 62
     3
 60
     1
100
AcDbPoint
 10
-67.49999999999989
 20
-71.49999998235262
 30
0.0
  0
LINE
  5
2C9
330
8A
100
AcDbEntity
  8
1
  6
Continuous
 62
     7
100
AcDbLine
 10
-67.49999999999989
 20
-71.49999998235262
 30
0.0
 11
-67.49999999999989
 21
-48.49999998235262
 31
0.0
  0
LINE
  5
2CA
330
8A
100
AcDbEntity
  8
0
  6
Continuous
 62
     7
100
AcDbLine
 10
-82.99999999999989
 20
-71.49999998235262
 30
0.0
 11
-82.99999999999989
 21
-59.99999998235262
 31
0.0
  0
LINE
  5
2CB
330
8A
100
AcDbEntity
  8
0
  6
Continuous
 62
     7
100
AcDbLine
 10
-82.99999999999989
 20
-71.49999998235262
 30
0.0
 11
-67.49999999999989
 21
-71.49999998235262
 31
0.0
  0
LINE
  5
2CC
330
8A
100
AcDbEntity
  8
0
  6
Continuous
 62
     7
100
AcDbLine
 10
-82.99999999999989
 20
-59.99999998235262
 30
0.0
 11
-82.99999999999989
 21
-52.41712453830449
 31
0.0
  0
LINE
  5
2CD
330
8A
100
AcDbEntity
  8
0
  6
Continuous
 62
     7
100
AcDbLine
 10
-76.49999999999628
 20
-48.49999998235262
 30
0.0
 11
-67.49999999999989
 21
-48.49999998235262
 31
0.0
  0
LINE
  5
2CE
330
8A
100
AcDbEntity
  8
0
  6
Continuous
 62
     7
100
AcDbLine
 10
-94.49999999999989
 20
-42.49999998235261
 30
0.0
 11
-93.24999999999989
 21
-42.49999998235261
 31
0.0
  0
LINE
  5
2CF
330
8A
100
AcDbEntity
  8
0
  6
Continuous
 62
     7
100
AcDbLine
 10
-94.49999999999989
 20
-42.49999998235261
 30
0.0
 11
-94.49999999999989
 21
-59.99999998235262
 31
0.0
  0
LINE
  5
2D0
330
8A
100
AcDbEntity
  8
0
  6
Continuous
 62
     7
100
AcDbLine
 10
-76.49999999999628
 20
-42.49999998235261
 30
0.0
 11
-76.49999999999628
 21
-48.49999998235262
 31
0.0
  0
LINE
  5
2D1
330
8A
100
AcDbEntity
  8
0
  6
Continuous
 62
     7
100
AcDbLine
 10
-93.24999999999989
 20
-42.49999998235261
 30
0.0
 11
-77.74999999999628
 21
-42.49999998235261
 31
0.0
  0
LINE
  5
2D2
330
8A
100
AcDbEntity
  8
0
  6
Continuous
 62
     7
100
AcDbLine
 10
-77.74999999999628
 20
-42.49999998235261
 30
0.0
 11
-76.49999999999628
 21
-42.49999998235261
 31
0.0
  0
LINE
  5
2D3
330
8A
100
AcDbEntity
  8
0
  6
Continuous
 62
     7
100
AcDbLine
 10
-80.49999999999628
 20
-15.49999998235261
 30
0.0
 11
-80.99999999999628
 21
-8.49999998235261
 31
0.0
  0
LINE
  5
2D4
330
8A
100
AcDbEntity
  8
0
  6
Continuous
 62
     7
100
AcDbLine
 10
-90.49999999999989
 20
-15.49999998235261
 30
0.0
 11
-89.99999999999989
 21
-8.49999998235261
 31
0.0
  0
LINE
  5
2D5
330
8A
100
AcDbEntity
  8
0
  6
Continuous
 62
     7
100
AcDbLine
 10
-80.74999999999628
 20
-15.49999998235261
 30
0.0
 11
-90.24999999999989
 21
-15.49999998235261
 31
0.0
  0
LINE
  5
2D6
330
8A
100
AcDbEntity
  8
0
  6
Continuous
 62
     7
100
AcDbLine
 10
-91.24999999999989
 20
-21.99999998235261
 30
0.0
 11
-90.24999999999989
 21
-15.49999998235261
 31
0.0
  0
LINE
  5
2D7
330
8A
100
AcDbEntity
  8
0
  6
Continuous
 62
     7
100
AcDbLine
 10
-90.24999999999989
 20
-15.49999998235261
 30
0.0
 11
-90.49999999999989
 21
-15.49999998235261
 31
0.0
  0
LINE
  5
2D8
330
8A
100
AcDbEntity
  8
0
  6
Continuous
 62
     7
100
AcDbLine
 10
-90.49999999999989
 20
-21.99999998235261
 30
0.0
 11
-91.24999999999989
 21
-21.99999998235261
 31
0.0
  0
LINE
  5
2D9
330
8A
100
AcDbEntity
  8
0
  6
Continuous
 62
     7
100
AcDbLine
 10
-79.74999999999628
 20
-21.99999998235261
 30
0.0
 11
-80.74999999999628
 21
-15.49999998235261
 31
0.0
  0
LINE
  5
2DA
330
8A
100
AcDbEntity
  8
0
  6
Continuous
 62
     7
100
AcDbLine
 10
-80.49999999999628
 20
-15.49999998235261
 30
0.0
 11
-80.74999999999628
 21
-15.49999998235261
 31
0.0
  0
LINE
  5
2DB
330
8A
100
AcDbEntity
  8
0
  6
Continuous
 62
     7
100
AcDbLine
 10
-79.74999999999628
 20
-21.99999998235261
 30
0.0
 11
-80.49999999999628
 21
-21.99999998235261
 31
0.0
  0
LINE
  5
2DC
330
8A
100
AcDbEntity
  8
0
  6
Continuous
 62
     7
100
AcDbLine
 10
-80.49999999999628
 20
-21.99999998235261
 30
0.0
 11
-90.49999999999989
 21
-21.99999998235261
 31
0.0
  0
LINE
  5
2DD
330
8A
100
AcDbEntity
  8
0
  6
Continuous
 62
     7
100
AcDbLine
 10
-79.24999999999628
 20
-28.99999998235261
 30
0.0
 11
-80.49999999999628
 21
-21.99999998235261
 31
0.0
  0
LINE
  5
2DE
330
8A
100
AcDbEntity
  8
0
  6
Continuous
 62
     7
100
AcDbLine
 10
-91.74999999999989
 20
-28.99999998235261
 30
0.0
 11
-90.49999999999989
 21
-21.99999998235261
 31
0.0
  0
LINE
  5
2DF
330
8A
100
AcDbEntity
  8
0
  6
Continuous
 62
     7
100
AcDbLine
 10
-90.74999999999989
 20
-28.99999998235261
 30
0.0
 11
-91.74999999999989
 21
-28.99999998235261
 31
0.0
  0
LINE
  5
2E0
330
8A
100
AcDbEntity
  8
0
  6
Continuous
 62
     7
100
AcDbLine
 10
-80.24999999999628
 20
-28.99999998235261
 30
0.0
 11
-90.74999999999989
 21
-28.99999998235261
 31
0.0
  0
LINE
  5
2E1
330
8A
100
AcDbEntity
  8
0
  6
Continuous
 62
     7
100
AcDbLine
 10
-93.24999999999989
 20
-42.49999998235261
 30
0.0
 11
-90.99999999999989
 21
-35.49999998235261
 31
0.0
  0
LINE
  5
2E2
330
8A
100
AcDbEntity
  8
0
  6
Continuous
 62
     7
100
AcDbLine
 10
-90.99999999999989
 20
-35.49999998235261
 30
0.0
 11
-92.49999999999989
 21
-35.49999998235261
 31
0.0
  0
LINE
  5
2E3
330
8A
100
AcDbEntity
  8
0
  6
Continuous
 62
     7
100
AcDbLine
 10
-92.49999999999989
 20
-35.49999998235261
 30
0.0
 11
-90.74999999999989
 21
-28.99999998235261
 31
0.0
  0
LINE
  5
2E4
330
8A
100
AcDbEntity
  8
0
  6
Continuous
 62
     7
100
AcDbLine
 10
-77.74999999999628
 20
-42.49999998235261
 30
0.0
 11
-79.99999999999628
 21
-35.49999998235261
 31
0.0
  0
LINE
  5
2E5
330
8A
100
AcDbEntity
  8
0
  6
Continuous
 62
     7
100
AcDbLine
 10
-78.49999999999628
 20
-35.49999998235261
 30
0.0
 11
-79.99999999999628
 21
-35.49999998235261
 31
0.0
  0
LINE
  5
2E6
330
8A
100
AcDbEntity
  8
0
  6
Continuous
 62
     7
100
AcDbLine
 10
-78.49999999999628
 20
-35.49999998235261
 30
0.0
 11
-80.24999999999628
 21
-28.99999998235261
 31
0.0
  0
LINE
  5
2E7
330
8A
100
AcDbEntity
  8
0
  6
Continuous
 62
     7
100
AcDbLine
 10
-79.24999999999628
 20
-28.99999998235261
 30
0.0
 11
-80.24999999999628
 21
-28.99999998235261
 31
0.0
  0
LINE
  5
2E8
330
8A
100
AcDbEntity
  8
0
  6
Continuous
 62
     7
100
AcDbLine
 10
-79.99999999999628
 20
-35.49999998235261
 30
0.0
 11
-90.99999999999989
 21
-35.49999998235261
 31
0.0
  0
LINE
  5
2E9
330
8A
100
AcDbEntity
  8
0
  6
Continuous
 62
     7
100
AcDbLine
 10
-80.99999999999628
 20
-8.49999998235261
 30
0.0
 11
-89.99999999999989
 21
-8.49999998235261
 31
0.0
  0
LINE
  5
2EA
330
8A
100
AcDbEntity
  8
1
  6
PHANTOM
 62
     2
100
AcDbLine
 10
-86.40680463122396
 20
-59.99999998235262
 30
0.0
 11
-46.06880540759067
 21
-59.99999998235262
 31
0.0
  0
LINE
  5
2EB
330
8A
100
AcDbEntity
  8
1
  6
PHANTOM
 62
     2
100
AcDbLine
 10
-85.49999999999989
 20
-61.89252422061736
 30
0.0
 11
-85.49999999999989
 21
-5.91824954741287
 31
0.0
  0
ARC
  5
2EC
330
8A
100
AcDbEntity
  8
0
  6
Continuous
 62
     7
100
AcDbCircle
 10
-82.99999999999989
 20
-59.99999998235262
 30
0.0
 40
11.5
100
AcDbArc
 50
180.0
 51
270.0
  0
SPLINE
  5
2ED
330
8A
100
AcDbEntity
  8
0
  6
Continuous
 62
     7
100
AcDbSpline
210
0.0
220
0.0
230
1.0
 70
     8
 71
     3
 72
    15
 73
    11
 74
     9
 42
0.0000000001
 43
0.0000000001
 44
0.00000001
 40
0.0
 40
0.0
 40
0.0
 40
0.0
 40
2.53941063197844
 40
4.816281886744249
 40
6.922035970774344
 40
8.755628710324439
 40
10.83970118628669
 40
12.48666463154985
 40
13.48421160451865
 40
14.37971672599962
 40
14.37971672599962
 40
14.37971672599962
 40
14.37971672599962
 10
-82.99999999999989
 20
-52.41712453830449
 30
0.0
 10
-83.80164393574147
 20
-52.68926312571531
 30
0.0
 10
-85.32205308844416
 20
-53.20540499451176
 30
0.0
 10
-87.46948799906508
 20
-54.05171918184593
 30
0.0
 10
-89.35939304134519
 20
-54.90486579552622
 30
0.0
 10
-91.1287755571878
 20
-55.85562248164506
 30
0.0
 10
-92.67349535709704
 20
-56.89858934486685
 30
0.0
 10
-93.7910611128749
 20
-58.02349971502321
 30
0.0
 10
-94.39779048647185
 20
-59.06714792967713
 30
0.0
 10
-94.46717688189942
 20
-59.70042793628431
 30
0.0
 10
-94.49999999999989
 20
-59.99999998235262
 30
0.0
 11
-82.99999999999989
 21
-52.41712453830449
 31
0.0
 11
-85.39763549605581
 21
-53.25375491419207
 31
0.0
 11
-87.51523584770607
 21
-54.09036202716061
 31
0.0
 11
-89.43056909091077
 21
-54.96540421464896
 31
0.0
 11
-91.04133369944236
 21
-55.84147482278102
 31
0.0
 11
-92.74681123356989
 21
-57.03926631784587
 31
0.0
 11
-93.87792541457736
 21
-58.2363750428817
 31
0.0
 11
-94.34445308409055
 21
-59.11810737009773
 31
0.0
 11
-94.49999999999989
 21
-59.99999998235262
 31
0.0
  0
SPLINE
  5
2EE
330
8A
100
AcDbEntity
  8
0
  6
Continuous
 62
     7
100
AcDbSpline
210
0.0
220
0.0
230
1.0
 70
     8
 71
     3
 72
    22
 73
    18
 74
    16
 42
0.0000000001
 43
0.0000000001
 44
0.00000001
 40
0.0
 40
0.0
 40
0.0
 40
0.0
 40
0.0295122662250234
 40
0.0590245324487222
 40
0.146466172960631
 40
0.2339049458265974
 40
0.5725708469969353
 40
0.9040301201279587
 40
1.656841645029629
 40
2.370304506128233
 40
3.29876664652385
 40
4.164666433535609
 40
4.972648002301238
 40
5.727576241516838
 40
6.434564144834121
 40
7.043672696181086
 40
7.624094121618482
 40
7.624094121618482
 40
7.624094121618482
 40
7.624094121618482
 10
-76.49999999999628
 20
-48.49999998235262
 30
0.0
 10
-76.5077478690866
 20
-48.50606178097399
 30
0.0
 10
-76.5232436072669
 20
-48.51818537821651
 30
0.0
 10
-76.56171396464453
 20
-48.54824573531416
 30
0.0
 10
-76.6154384554384
 20
-48.59014444812001
 30
0.0
 10
-76.75058106334583
 20
-48.69521486085967
 30
0.0
 10
-76.95050709515495
 20
-48.84947950046634
 30
0.0
 10
-77.32781556107079
 20
-49.13690272523433
 30
0.0
 10
-77.80838981636504
 20
-49.49492157200574
 30
0.0
 10
-78.45658208331282
 20
-49.96086345566425
 30
0.0
 10
-79.14618076448315
 20
-50.43355797820293
 30
0.0
 10
-79.87634567532896
 20
-50.90216916560756
 30
0.0
 10
-80.57279693384767
 20
-51.31532884399136
 30
0.0
 10
-81.23865135530505
 20
-51.67523438079269
 30
0.0
 10
-81.86089130807188
 20
-51.97465982081951
 30
0.0
 10
-82.44275727990438
 20
-52.22288071141516
 30
0.0
 10
-82.81726299744352
 20
-52.3534260216424
 30
0.0
 10
-82.99999999999989
 20
-52.41712453830449
 30
0.0
 11
-76.49999999999628
 21
-48.49999998235262
 31
0.0
 11
-76.52324547354951
 21
-48.51818299137265
 31
0.0
 11
-76.54649984539338
 21
-48.53635461892236
 31
0.0
 11
-76.61545259889576
 21
-48.59012783046728
 31
0.0
 11
-76.68448270037686
 21
-48.64379704035353
 31
0.0
 11
-76.95262382576978
 21
-48.85066639402521
 31
0.0
 11
-77.21630794942746
 21
-49.05150446978632
 31
0.0
 11
-77.82020395035246
 21
-49.50098729714635
 31
0.0
 11
-78.39972208732058
 21
-49.91714590043602
 31
0.0
 11
-79.16607487611293
 21
-50.44130746833108
 31
0.0
 11
-79.8953583694639
 21
-50.90813508905719
 31
0.0
 11
-80.59076461637552
 21
-51.31952829174929
 31
0.0
 11
-81.25548566584989
 21
-51.67738660554242
 31
0.0
 11
-81.89271356688897
 21
-51.9836095595715
 31
0.0
 11
-82.45406247771813
 21
-52.22004269522495
 31
0.0
 11
-82.99999999999989
 21
-52.41712453830449
 31
0.0
  0
ENDBLK
  5
8C
330
8A
100
AcDbEntity
  8
0
100
AcDbBlockEnd
  0
BLOCK
  5
8E
330
8D
100
AcDbEntity
  8
0
100
AcDbBlockBegin
  2
11073-Kappenhalter-520-522-verpresst
 70
     0
 10
-0.0000000000002
 20
9.4063671470997
 30
0.0
  3
11073-Kappenhalter-520-522-verpresst
  1

  0
LINE
  5
2EF
330
8D
100
AcDbEntity
  8
0
  6
Continuous
 62
     7
100
AcDbLine
 10
53.05877425286629
 20
6.45298164814321
 30
0.0
 11
54.4107558467305
 21
12.81273429419929
 31
0.0
  0
LINE
  5
2F0
330
8D
100
AcDbEntity
  8
0
  6
Continuous
 62
     7
100
AcDbLine
 10
-53.05877425286599
 20
6.4529816481396
 30
0.0
 11
-54.4107558467309
 21
12.81273429419929
 31
0.0
  0
LINE
  5
2F1
330
8D
100
AcDbEntity
  8
0
  6
Continuous
 62
     3
100
AcDbLine
 10
-52.76533163557591
 20
6.5101270565664
 30
0.0
 11
-54.10516498801471
 21
12.81273429419929
 31
0.0
  0
LINE
  5
2F2
330
8D
100
AcDbEntity
  8
0
  6
Continuous
 62
     3
100
AcDbLine
 10
-38.10115215395721
 20
6.45298164814321
 30
0.0
 11
-39.13564335696379
 21
12.81273429419929
 31
0.0
  0
LINE
  5
2F3
330
8D
100
AcDbEntity
  8
0
  6
Continuous
 62
     7
100
AcDbLine
 10
-38.1897650292651
 20
6.4671968542857
 30
0.0
 11
-39.22194394726859
 21
12.81273429419929
 31
0.0
  0
LINE
  5
2F4
330
8D
100
AcDbEntity
  8
0
  6
Continuous
 62
     3
100
AcDbLine
 10
-36.9352859973395
 20
6.45298164814321
 30
0.0
 11
-38.10115215395721
 21
6.45298164814321
 31
0.0
  0
LINE
  5
2F5
330
8D
100
AcDbEntity
  8
0
  6
Continuous
 62
     3
100
AcDbLine
 10
-36.9352859973395
 20
6.45298164814321
 30
0.0
 11
-37.8127855004544
 21
12.81273429419929
 31
0.0
  0
LINE
  5
2F6
330
8D
100
AcDbEntity
  8
0
  6
Continuous
 62
     3
100
AcDbLine
 10
52.7653316355754
 20
6.5101270565664
 30
0.0
 11
54.1051649880143
 21
12.81273429419929
 31
0.0
  0
LINE
  5
2F7
330
8D
100
AcDbEntity
  8
0
  6
Continuous
 62
     3
100
AcDbLine
 10
38.1011521539566
 20
6.45298164814321
 30
0.0
 11
39.13564335696329
 21
12.81273429419929
 31
0.0
  0
LINE
  5
2F8
330
8D
100
AcDbEntity
  8
0
  6
Continuous
 62
     3
100
AcDbLine
 10
36.9352859973391
 20
6.45298164814321
 30
0.0
 11
37.81278550045399
 21
12.81273429419929
 31
0.0
  0
LINE
  5
2F9
330
8D
100
AcDbEntity
  8
0
  6
Continuous
 62
     3
100
AcDbLine
 10
36.51569100794709
 20
6.5101270565664
 30
0.0
 11
37.38530572994529
 21
12.81273429419929
 31
0.0
  0
LINE
  5
2FA
330
8D
100
AcDbEntity
  8
0
  6
Continuous
 62
     3
100
AcDbLine
 10
38.1011521539566
 20
6.45298164814321
 30
0.0
 11
36.9352859973391
 21
6.45298164814321
 31
0.0
  0
LINE
  5
2FB
330
8D
100
AcDbEntity
  8
0
  6
Continuous
 62
     7
100
AcDbLine
 10
38.1897650292647
 20
6.4671968542857
 30
0.0
 11
39.22194394726829
 21
12.81273429419929
 31
0.0
  0
LINE
  5
2FC
330
8D
100
AcDbEntity
  8
0
  6
Continuous
 62
     3
100
AcDbLine
 10
-0.82439186530039
 20
6.45298164814321
 30
0.0
 11
-0.93540176088391
 21
12.81273429419929
 31
0.0
  0
LINE
  5
2FD
330
8D
100
AcDbEntity
  8
0
  6
Continuous
 62
     3
100
AcDbLine
 10
0.82439186530001
 20
6.45298164814321
 30
0.0
 11
0.9354017608835
 21
12.81273429419929
 31
0.0
  0
LINE
  5
2FE
330
8D
100
AcDbEntity
  8
0
  6
Continuous
 62
     7
100
AcDbLine
 10
1.24999999999979
 20
12.81273429419929
 30
0.0
 11
1.24999999999979
 21
6.0
 31
0.0
  0
LINE
  5
2FF
330
8D
100
AcDbEntity
  8
0
  6
Continuous
 62
     7
100
AcDbLine
 10
1.23435859126101
 20
12.81273429419929
 30
0.0
 11
1.1243461728618
 21
6.51012706520479
 31
0.0
  0
LINE
  5
300
330
8D
100
AcDbEntity
  8
0
  6
Continuous
 62
     7
100
AcDbLine
 10
1.1243461728618
 20
6.51012706520479
 30
0.0
 11
1.115441871817
 21
6.0
 31
0.0
  0
LINE
  5
301
330
8D
100
AcDbEntity
  8
0
  6
Continuous
 62
     7
100
AcDbLine
 10
-1.23435859126139
 20
12.81273429419929
 30
0.0
 11
-1.12434617271149
 21
6.5101270565664
 31
0.0
  0
LINE
  5
302
330
8D
100
AcDbEntity
  8
0
  6
Continuous
 62
     7
100
AcDbLine
 10
-1.12434617271149
 20
6.5101270565664
 30
0.0
 11
-1.11544187181742
 21
6.0
 31
0.0
  0
LINE
  5
303
330
8D
100
AcDbEntity
  8
0
  6
Continuous
 62
     7
100
AcDbLine
 10
-1.25000000000021
 20
12.81273429419929
 30
0.0
 11
-1.25000000000021
 21
6.0
 31
0.0
  0
LINE
  5
304
330
8D
100
AcDbEntity
  8
0
  6
Continuous
 62
     3
100
AcDbLine
 10
0.82439186530001
 20
6.45298164814321
 30
0.0
 11
-0.82439186530039
 21
6.45298164814321
 31
0.0
  0
LINE
  5
305
330
8D
100
AcDbEntity
  8
0
  6
Continuous
 62
     3
100
AcDbLine
 10
-36.51569100794752
 20
6.5101270565664
 30
0.0
 11
-37.38530572994569
 21
12.81273429419929
 31
0.0
  0
ARC
  5
306
330
8D
100
AcDbEntity
  8
0
  6
Continuous
 62
     3
100
AcDbCircle
 10
-52.0806309997891
 20
6.65568297122201
 30
0.0
 40
0.7000010606692626
100
AcDbArc
 50
192.0014652802549
 51
249.5026751675829
  0
ARC
  5
307
330
8D
100
AcDbEntity
  8
0
  6
Continuous
 62
     7
100
AcDbCircle
 10
-52.0806321086287
 20
6.66091900809889
 30
0.0
 40
0.9999999999999799
100
AcDbArc
 50
192.001503594728
 51
221.3699992858525
  0
ARC
  5
308
330
8D
100
AcDbEntity
  8
0
  6
Continuous
 62
     3
100
AcDbCircle
 10
52.0806309997887
 20
6.65568297122201
 30
0.0
 40
0.7000010606692395
100
AcDbArc
 50
290.4973248324165
 51
347.9985347197431
  0
ARC
  5
309
330
8D
100
AcDbEntity
  8
0
  6
Continuous
 62
     7
100
AcDbCircle
 10
52.0806321086283
 20
6.66091900809889
 30
0.0
 40
0.9999999999999379
100
AcDbArc
 50
318.6300007141461
 51
347.9984964054826
  0
SPLINE
  5
30A
330
8D
100
AcDbEntity
  8
0
  6
Continuous
 62
     3
100
AcDbSpline
210
0.0
220
0.0
230
1.0
 70
     8
 71
     3
 72
    26
 73
    22
 74
    20
 42
0.0000000001
 43
0.0000000001
 44
0.00000001
 40
0.0
 40
0.0
 40
0.0
 40
0.0
 40
0.0360318022955215
 40
0.0730382537749426
 40
0.1101303876903977
 40
0.1373933401480552
 40
0.1636619345185998
 40
0.1884910196956904
 40
0.211435486156175
 40
0.2281903064121259
 40
0.2433102718049933
 40
0.2567059599663089
 40
0.2682880147777952
 40
0.2779672116695564
 40
0.2845961078050074
 40
0.289924943726796
 40
0.2939836793332752
 40
0.2962207971745367
 40
0.2977935457648948
 40
0.2982273025216425
 40
0.2990896459662865
 40
0.2990896459662865
 40
0.2990896459662865
 40
0.2990896459662865
 10
-52.76533163557591
 20
6.510127056566404
 30
0.0
 10
-52.77708138018771
 20
6.507637451159725
 30
0.0
 10
-52.80089869639377
 20
6.502590897284868
 30
0.0
 10
-52.83683162880895
 20
6.495076842828964
 30
0.0
 10
-52.86991806793238
 20
6.488231180689628
 30
0.0
 10
-52.89951392104489
 20
6.48218108241011
 30
0.0
 10
-52.92511613793197
 20
6.477004879647223
 30
0.0
 10
-52.94931916618236
 20
6.472172445205376
 30
0.0
 10
-52.97042421759944
 20
6.468020904389563
 30
0.0
 10
-52.98836523687455
 20
6.464552989456693
 30
0.0
 10
-53.00319075190298
 20
6.461739069355854
 30
0.0
 10
-53.01633218806646
 20
6.45929965407363
 30
0.0
 10
-53.02770101108607
 20
6.457248222915439
 30
0.0
 10
-53.03686105234136
 20
6.45566013949742
 30
0.0
 10
-53.04397833936692
 20
6.454490627335586
 30
0.0
 10
-53.04925638411051
 20
6.453691264388182
 30
0.0
 10
-53.05309645107269
 20
6.453159148654294
 30
0.0
 10
-53.05570470090428
 20
6.452899616490203
 30
0.0
 10
-53.05711584159494
 20
6.452760530558808
 30
0.0
 10
-53.05807364707488
 20
6.452807440908759
 30
0.0
 10
-53.05849434617843
 20
6.452912048702152
 30
0.0
 10
-53.05877425286599
 20
6.452981648139598
 30
0.0
 11
-52.76533163557591
 21
6.510127056566404
 31
0.0
 11
-52.80058411429605
 21
6.502673633141581
 31
0.0
 11
-52.8368063300878
 21
6.495095471475686
 31
0.0
 11
-52.87312992252121
 21
6.487583944924182
 31
0.0
 11
-52.89984064739077
 21
6.482124480330361
 31
0.0
 11
-52.92558860346463
 21
6.476920461861662
 31
0.0
 11
-52.94993759395147
 21
6.472061435930175
 31
0.0
 11
-52.97245142206001
 21
6.467636948947984
 31
0.0
 11
-52.98890214929826
 21
6.464459280755404
 31
0.0
 11
-53.00375741801874
 21
6.461642483864644
 31
0.0
 11
-53.01692876033391
 21
6.459201131179822
 31
0.0
 11
-53.02832770835625
 21
6.457149795605062
 31
0.0
 11
-53.03786579419819
 21
6.455503050044484
 31
0.0
 11
-53.04440817709397
 21
6.454435581066202
 31
0.0
 11
-53.04967734673491
 21
6.453640380728963
 31
0.0
 11
-53.0537011779594
 21
6.45310923385648
 31
0.0
 11
-53.05592631083935
 21
6.452877976635566
 31
0.0
 11
-53.05749623492179
 21
6.452783761435882
 31
0.0
 11
-53.05792921091329
 21
6.452809775178677
 31
0.0
 11
-53.05877425286599
 21
6.452981648139598
 31
0.0
  0
SPLINE
  5
30B
330
8D
100
AcDbEntity
  8
0
  6
Continuous
 62
     3
100
AcDbSpline
210
0.0
220
0.0
230
1.0
 70
     8
 71
     3
 72
    17
 73
    13
 74
    11
 42
0.0000000001
 43
0.0000000001
 44
0.00000001
 40
0.0
 40
0.0
 40
0.0
 40
0.0
 40
0.0178874325644364
 40
0.0345108452724823
 40
0.0495258824201513
 40
0.062606527305615
 40
0.0734747557228288
 40
0.0819557254299441
 40
0.0863222051047821
 40
0.0897578354796003
 40
0.0912014886991367
 40
0.0925672579800103
 40
0.0925672579800103
 40
0.0925672579800103
 40
0.0925672579800103
 10
-38.10115215395721
 20
6.452981648143208
 30
0.0
 10
-38.10711408126156
 20
6.452879432863615
 30
0.0
 10
-38.11861663479937
 20
6.452682225372497
 30
0.0
 10
-38.13512668689504
 20
6.452978193254291
 30
0.0
 10
-38.15001462695361
 20
6.453786349285487
 30
0.0
 10
-38.16294046150961
 20
6.455154076599731
 30
0.0
 10
-38.17358405079778
 20
6.457093092648758
 30
0.0
 10
-38.18118597486076
 20
6.459404695701139
 30
0.0
 10
-38.18602068452434
 20
6.461933942734992
 30
0.0
 10
-38.18835468809631
 20
6.464027641819071
 30
0.0
 10
-38.18943852645448
 20
6.465836786010261
 30
0.0
 10
-38.18965822518705
 20
6.466751955088782
 30
0.0
 10
-38.1897650292651
 20
6.467196854285703
 30
0.0
 11
-38.10115215395721
 21
6.452981648143208
 31
0.0
 11
-38.1190384877459
 21
6.452783387338609
 31
0.0
 11
-38.13565900848261
 21
6.453093452658607
 31
0.0
 11
-38.15064913704392
 21
6.453957967702621
 31
0.0
 11
-38.16364914895321
 21
6.455408126651804
 31
0.0
 11
-38.17432080091846
 21
6.457465851915629
 31
0.0
 11
-38.18237256843842
 21
6.460129662527805
 31
0.0
 11
-38.18618838240323
 21
6.462252327959924
 31
0.0
 11
-38.18866670220931
 21
6.46463171590878
 31
0.0
 11
-38.18938130851527
 21
6.465886097208771
 31
0.0
 11
-38.1897650292651
 21
6.467196854285703
 31
0.0
  0
SPLINE
  5
30C
330
8D
100
AcDbEntity
  8
0
  6
Continuous
 62
     7
100
AcDbSpline
210
0.0
220
0.0
230
1.0
 70
     8
 71
     3
 72
    11
 73
     7
 74
     5
 42
0.0000000001
 43
0.0000000001
 44
0.00000001
 40
0.0
 40
0.0
 40
0.0
 40
0.0
 40
0.1588303877601612
 40
0.3835917898253404
 40
0.4468493482086424
 40
0.5057500453125193
 40
0.5057500453125193
 40
0.5057500453125193
 40
0.5057500453125193
 10
-38.00580645781529
 20
6.0
 30
0.0
 10
-38.03398413190489
 20
6.044931232075039
 30
0.0
 10
-38.10203612491188
 20
6.153444797859113
 30
0.0
 10
-38.15208642894044
 20
6.295362898429121
 30
0.0
 10
-38.17942440765029
 20
6.407713383131416
 30
0.0
 10
-38.18640109827531
 20
6.44784615183765
 30
0.0
 10
-38.1897650292651
 20
6.467196854285703
 30
0.0
 11
-38.00580645781529
 21
6.0
 31
0.0
 11
-38.08603840463782
 21
6.137076353851093
 31
0.0
 11
-38.16435193603829
 21
6.347753069835306
 31
0.0
 11
-38.1790572367013
 21
6.409277640740168
 31
0.0
 11
-38.1897650292651
 21
6.467196854285703
 31
0.0
  0
SPLINE
  5
30D
330
8D
100
AcDbEntity
  8
0
  6
Continuous
 62
     3
100
AcDbSpline
210
0.0
220
0.0
230
1.0
 70
     8
 71
     3
 72
    11
 73
     7
 74
     5
 42
0.0000000001
 43
0.0000000001
 44
0.00000001
 40
0.0
 40
0.0
 40
0.0
 40
0.0
 40
0.0970278107757463
 40
0.177028634668619
 40
0.3507123288576559
 40
0.485086316429721
 40
0.485086316429721
 40
0.485086316429721
 40
0.485086316429721
 10
-37.93624142331209
 20
6.0
 30
0.0
 10
-37.95275551074787
 20
6.027840665409554
 30
0.0
 10
-37.98288570051698
 20
6.078636359410218
 30
0.0
 10
-38.03139610882249
 20
6.185125088494869
 30
0.0
 10
-38.0738670070439
 20
6.30793017484749
 30
0.0
 10
-38.09286519294974
 20
6.408927060235147
 30
0.0
 10
-38.10115215395721
 20
6.452981648143208
 30
0.0
 11
-37.93624142331209
 21
6.0
 31
0.0
 11
-37.98408831166751
 21
6.084410137653233
 31
0.0
 11
-38.01770944566241
 21
6.157003189472505
 31
0.0
 11
-38.07349108241208
 21
6.321485512622072
 31
0.0
 11
-38.10115215395721
 21
6.452981648143208
 31
0.0
  0
SPLINE
  5
30E
330
8D
100
AcDbEntity
  8
0
  6
Continuous
 62
     3
100
AcDbSpline
210
0.0
220
0.0
230
1.0
 70
     8
 71
     3
 72
    16
 73
    12
 74
    10
 42
0.0000000001
 43
0.0000000001
 44
0.00000001
 40
0.0
 40
0.0
 40
0.0
 40
0.0
 40
0.0130487725644506
 40
0.0250887525248574
 40
0.0709652278599768
 40
0.1303550667242826
 40
0.2032015759687991
 40
0.3134207266311086
 40
0.4008208235221015
 40
0.506694505900821
 40
0.6153375137477344
 40
0.6153375137477344
 40
0.6153375137477344
 40
0.6153375137477344
 10
36.211154169012
 20
6.0
 30
0.0
 10
36.21497523839335
 20
6.002078922183561
 30
0.0
 10
36.22232197262569
 20
6.006076046351692
 30
0.0
 10
36.24265776931124
 20
6.01816696813377
 30
0.0
 10
36.2749503522205
 20
6.040345715270336
 30
0.0
 10
36.31984948784732
 20
6.079420850953107
 30
0.0
 10
36.37375183491586
 20
6.139931026090913
 30
0.0
 10
36.42300561334683
 20
6.216034339914108
 30
0.0
 10
36.46559570282491
 20
6.307957325368743
 30
0.0
 10
36.49746242226352
 20
6.403837630047857
 30
0.0
 10
36.50956274260562
 20
6.474393631055199
 30
0.0
 10
36.51569100794709
 20
6.510127056566404
 30
0.0
 11
36.211154169012
 21
6.0
 31
0.0
 11
36.22257482588303
 21
6.006311819236394
 31
0.0
 11
36.23293336038579
 21
6.012448746839198
 31
0.0
 11
36.2707664488197
 21
6.038396933841877
 31
0.0
 11
36.31566339693126
 21
6.077273880874745
 31
0.0
 11
36.36427758132449
 21
6.131525839225503
 31
0.0
 11
36.42459314002929
 21
6.223777096945106
 31
0.0
 11
36.4616284362256
 21
6.302942517250983
 31
0.0
 11
36.49460235652101
 21
6.403550455311468
 31
0.0
 11
36.51569100794709
 21
6.510127056566404
 31
0.0
  0
SPLINE
  5
30F
330
8D
100
AcDbEntity
  8
0
  6
Continuous
 62
     7
100
AcDbSpline
210
0.0
220
0.0
230
1.0
 70
     8
 71
     3
 72
    11
 73
     7
 74
     5
 42
0.0000000001
 43
0.0000000001
 44
0.00000001
 40
0.0
 40
0.0
 40
0.0
 40
0.0
 40
0.0589006968780238
 40
0.1221582549877698
 40
0.3469196574289545
 40
0.505750045310402
 40
0.505750045310402
 40
0.505750045310402
 40
0.505750045310402
 10
38.1897650292647
 20
6.467196854285703
 30
0.0
 10
38.18640109828841
 20
6.447846151911792
 30
0.0
 10
38.17942440769318
 20
6.407713383369514
 30
0.0
 10
38.1520864290324
 20
6.29536289869815
 30
0.0
 10
38.10203612501454
 20
6.153444798038551
 30
0.0
 10
38.03398413192434
 20
6.044931232110653
 30
0.0
 10
38.00580645781529
 20
6.0
 30
0.0
 11
38.1897650292647
 21
6.467196854285703
 31
0.0
 11
38.17905723674654
 21
6.40927764096141
 31
0.0
 11
38.1643519361668
 21
6.347753070317907
 31
0.0
 11
38.08603840469075
 21
6.137076353960648
 31
0.0
 11
38.00580645781529
 21
6.0
 31
0.0
  0
SPLINE
  5
310
330
8D
100
AcDbEntity
  8
0
  6
Continuous
 62
     3
100
AcDbSpline
210
0.0
220
0.0
230
1.0
 70
     8
 71
     3
 72
    11
 73
     7
 74
     5
 42
0.0000000001
 43
0.0000000001
 44
0.00000001
 40
0.0
 40
0.0
 40
0.0
 40
0.0
 40
0.0817829000332641
 40
0.1770304067020514
 40
0.3291362026600326
 40
0.4851012245117118
 40
0.4851012245117118
 40
0.4851012245117118
 40
0.4851012245117118
 10
37.93624160425609
 20
6.0
 30
0.0
 10
37.95024753794495
 20
6.023407332051291
 30
0.0
 10
37.98056531997727
 20
6.074075742087678
 30
0.0
 10
38.02671255697005
 20
6.173776334364603
 30
0.0
 10
38.07192123949285
 20
6.300897832109023
 30
0.0
 10
38.09132748132699
 20
6.401865433265561
 30
0.0
 10
38.1011521539566
 20
6.452981648143208
 30
0.0
 11
37.93624160425609
 21
6.0
 31
0.0
 11
37.97708628129769
 21
6.070853052829207
 31
0.0
 11
38.0177094456619
 21
6.157003189472505
 31
0.0
 11
38.06780130681757
 21
6.300624144106472
 31
0.0
 11
38.1011521539566
 21
6.452981648143208
 31
0.0
  0
SPLINE
  5
311
330
8D
100
AcDbEntity
  8
0
  6
Continuous
 62
     3
100
AcDbSpline
210
0.0
220
0.0
230
1.0
 70
     8
 71
     3
 72
    17
 73
    13
 74
    11
 42
0.0000000001
 43
0.0000000001
 44
0.00000001
 40
0.0
 40
0.0
 40
0.0
 40
0.0
 40
0.0013657692808108
 40
0.0028094225004535
 40
0.0062450528760551
 40
0.0106115325499978
 40
0.0190925022600424
 40
0.0299607306744136
 40
0.043041375559931
 40
0.0580564127075261
 40
0.0746798254155966
 40
0.0925672579802103
 40
0.0925672579802103
 40
0.0925672579802103
 40
0.0925672579802103
 10
38.1897650292647
 20
6.467196854285703
 30
0.0
 10
38.18965822518664
 20
6.466751955088808
 30
0.0
 10
38.18943852645401
 20
6.465836786010287
 30
0.0
 10
38.18835468809572
 20
6.464027641818835
 30
0.0
 10
38.18602068452309
 20
6.461933942735453
 30
0.0
 10
38.18118597485928
 20
6.459404695700492
 30
0.0
 10
38.17358405079693
 20
6.457093092646164
 30
0.0
 10
38.16294046150805
 20
6.455154076600499
 30
0.0
 10
38.15001462695324
 20
6.453786349285178
 30
0.0
 10
38.13512668689457
 20
6.452978193254699
 30
0.0
 10
38.1186166347989
 20
6.452682225372418
 30
0.0
 10
38.10711408126102
 20
6.452879432863588
 30
0.0
 10
38.1011521539566
 20
6.452981648143208
 30
0.0
 11
38.1897650292647
 21
6.467196854285703
 31
0.0
 11
38.18938130851484
 21
6.465886097208845
 31
0.0
 11
38.1886667022088
 21
6.46463171590878
 31
0.0
 11
38.18618838240175
 21
6.462252327959806
 31
0.0
 11
38.18237256843789
 21
6.460129662527805
 31
0.0
 11
38.17432080091556
 21
6.457465851913476
 31
0.0
 11
38.16364914895279
 21
6.455408126651804
 31
0.0
 11
38.15064913704344
 21
6.453957967702647
 31
0.0
 11
38.1356590084822
 21
6.453093452658806
 31
0.0
 11
38.11903848774547
 21
6.452783387338635
 31
0.0
 11
38.1011521539566
 21
6.452981648143208
 31
0.0
  0
SPLINE
  5
312
330
8D
100
AcDbEntity
  8
0
  6
Continuous
 62
     3
100
AcDbSpline
210
0.0
220
0.0
230
1.0
 70
     8
 71
     3
 72
    15
 73
    11
 74
     9
 42
0.0000000001
 43
0.0000000001
 44
0.00000001
 40
0.0
 40
0.0
 40
0.0
 40
0.0
 40
0.0421137153688911
 40
0.0927573976962258
 40
0.1501898857409477
 40
0.2114405566078109
 40
0.2728273445212652
 40
0.3306503792798752
 40
0.3818930187141278
 40
0.4247499680480948
 40
0.4247499680480948
 40
0.4247499680480948
 40
0.4247499680480948
 10
36.9352859973391
 20
6.452981648143208
 30
0.0
 10
36.92124596183636
 20
6.452902567993659
 30
0.0
 10
36.89032213701137
 20
6.452728390322148
 30
0.0
 10
36.84030312535472
 20
6.455363899232176
 30
0.0
 10
36.7840609628029
 20
6.460178093956667
 30
0.0
 10
36.72445098224852
 20
6.467314240426886
 30
0.0
 10
36.66497564590598
 20
6.476401365865202
 30
0.0
 10
36.60912248817206
 20
6.486856077582052
 30
0.0
 10
36.55964959174659
 20
6.497781201920644
 30
0.0
 10
36.52944669150038
 20
6.506263745808336
 30
0.0
 10
36.51569100794709
 20
6.510127056566404
 30
0.0
 11
36.9352859973391
 21
6.452981648143208
 31
0.0
 11
36.89317249574952
 21
6.45311583471549
 31
0.0
 11
36.84258510836249
 21
6.455503050044484
 31
0.0
 11
36.78536012671056
 21
6.460380770612831
 31
0.0
 11
36.72454078309679
 21
6.467636948947984
 31
0.0
 11
36.66386116624812
 21
6.476927903120164
 31
0.0
 11
36.60702849851409
 21
6.487583944924182
 31
0.0
 11
36.55704936701522
 21
6.49889299045455
 31
0.0
 11
36.51569100794709
 21
6.510127056566404
 31
0.0
  0
SPLINE
  5
313
330
8D
100
AcDbEntity
  8
0
  6
Continuous
 62
     3
100
AcDbSpline
210
0.0
220
0.0
230
1.0
 70
     8
 71
     3
 72
    11
 73
     7
 74
     5
 42
0.0000000001
 43
0.0000000001
 44
0.00000001
 40
0.0
 40
0.0
 40
0.0
 40
0.0
 40
0.0811778896773799
 40
0.1758005507634229
 40
0.3049194949054849
 40
0.4825213729432322
 40
0.4825213729432322
 40
0.4825213729432322
 40
0.4825213729432322
 10
36.77820280623289
 20
6.0
 30
0.0
 10
36.79180654844455
 20
6.023410609510321
 30
0.0
 10
36.82126709962122
 20
6.074109119436831
 30
0.0
 10
36.86267645518859
 20
6.167093638767203
 30
0.0
 10
36.90680998599764
 20
6.293786183486986
 30
0.0
 10
36.92484380024408
 20
6.394604426746533
 30
0.0
 10
36.9352859973391
 20
6.452981648143208
 30
0.0
 11
36.77820280623289
 21
6.0
 31
0.0
 11
36.81782294646317
 21
6.070852623526628
 31
0.0
 11
36.8569576877835
 21
6.157003189472505
 31
0.0
 11
36.89869731451891
 21
6.279189544260383
 31
0.0
 11
36.9352859973391
 21
6.452981648143208
 31
0.0
  0
SPLINE
  5
314
330
8D
100
AcDbEntity
  8
0
  6
Continuous
 62
     7
100
AcDbSpline
210
0.0
220
0.0
230
1.0
 70
     8
 71
     3
 72
    11
 73
     7
 74
     5
 42
0.0000000001
 43
0.0000000001
 44
0.00000001
 40
0.0
 40
0.0
 40
0.0
 40
0.0
 40
0.338241615490685
 40
0.676483231167437
 40
3.753974640788919
 40
6.831466050410668
 40
6.831466050410668
 40
6.831466050410668
 40
6.831466050410668
 10
23.11605786708361
 20
6.0
 30
0.0
 10
23.10771423473238
 20
6.112438054373872
 30
0.0
 10
23.09102697002532
 20
6.337314163183466
 30
0.0
 10
22.99842516392321
 20
7.585207933290437
 30
0.0
 10
22.83825244854418
 20
9.743681310303678
 30
0.0
 10
22.68642336578494
 20
11.7897166329008
 30
0.0
 10
22.61050882440531
 20
12.8127342941994
 30
0.0
 11
23.11605786708361
 21
6.0
 31
0.0
 11
23.09102696999865
 21
6.337314163119295
 31
0.0
 11
23.06599607277268
 21
6.674628326414705
 31
0.0
 11
22.83825244858907
 21
9.743681310306924
 31
0.0
 11
22.61050882440531
 21
12.8127342941994
 31
0.0
  0
SPLINE
  5
315
330
8D
100
AcDbEntity
  8
0
  6
Continuous
 62
     3
100
AcDbSpline
210
0.0
220
0.0
230
1.0
 70
    24
 71
     3
 72
     9
 73
     5
 74
     3
 42
0.0000000001
 43
0.0000000001
 44
0.00000001
 40
0.0
 40
0.0
 40
0.0
 40
0.0
 40
3.415733025215251
 40
6.831466050430501
 40
6.831466050430501
 40
6.831466050430501
 40
6.831466050430501
 10
22.6988454305935
 20
12.81273429419929
 30
0.0
 10
22.78310360441813
 20
11.67727857849941
 30
0.0
 10
22.95161995206738
 20
9.406367147099644
 30
0.0
 10
23.12013629971666
 20
7.13545571569988
 30
0.0
 10
23.20439447354129
 20
6.0
 30
0.0
 11
22.6988454305935
 21
12.81273429419929
 31
0.0
 11
22.95161995206739
 21
9.406367147099644
 31
0.0
 11
23.20439447354129
 21
6.0
 31
0.0
  0
SPLINE
  5
316
330
8D
100
AcDbEntity
  8
0
  6
Continuous
 62
     3
100
AcDbSpline
210
0.0
220
0.0
230
1.0
 70
     8
 71
     3
 72
    13
 73
     9
 74
     7
 42
0.0000000001
 43
0.0000000001
 44
0.00000001
 40
0.0
 40
0.0
 40
0.0
 40
0.0
 40
1.042396883601648
 40
2.469488337142492
 40
4.273137105762538
 40
6.445080612556499
 40
6.629410232802759
 40
6.815380119818025
 40
6.815380119818025
 40
6.815380119818025
 40
6.815380119818025
 10
25.15519742714269
 20
12.81273429419929
 30
0.0
 10
25.13716587932947
 20
12.46572670075249
 30
0.0
 10
25.09444827557809
 20
11.64364902726989
 30
0.0
 10
25.05494355612768
 20
10.21971382227358
 30
0.0
 10
25.01591587387738
 20
8.419265615035156
 30
0.0
 10
24.9955857326301
 20
7.032754221174113
 30
0.0
 10
24.98478152796718
 20
6.185409101580593
 30
0.0
 10
24.98326216444071
 20
6.061985271933525
 30
0.0
 10
24.98249911761561
 20
6.0
 30
0.0
 11
25.15519742714269
 21
12.81273429419929
 31
0.0
 11
25.10464627205162
 21
11.77156387411361
 31
0.0
 11
25.05969887419202
 21
10.34518042349629
 31
0.0
 11
25.02048835093376
 21
8.541957914927142
 31
0.0
 11
24.98714781964679
 21
6.370270320985981
 31
0.0
 11
24.98480196915223
 21
6.18595562844741
 31
0.0
 11
24.98249911761561
 21
6.0
 31
0.0
  0
SPLINE
  5
317
330
8D
100
AcDbEntity
  8
0
  6
Continuous
 62
     3
100
AcDbSpline
210
0.0
220
0.0
230
1.0
 70
     8
 71
     3
 72
    13
 73
     9
 74
     7
 42
0.0000000001
 43
0.0000000001
 44
0.00000001
 40
0.0
 40
0.0
 40
0.0
 40
0.0
 40
0.1859136010126056
 40
0.366204828046247
 40
2.508165954193107
 40
4.312233838094663
 40
5.757318139324756
 40
6.822484951626148
 40
6.822484951626148
 40
6.822484951626148
 40
6.822484951626148
 10
25.78968905051391
 20
6.0
 30
0.0
 10
25.7873372630847
 20
6.061926566333037
 30
0.0
 10
25.78270481066367
 20
6.183906924154983
 30
0.0
 10
25.75058440883207
 20
7.019344619426707
 30
0.0
 10
25.6949484868465
 20
8.393681312439288
 30
0.0
 10
25.60890054625742
 20
10.18863029458136
 30
0.0
 10
25.53083402259865
 20
11.62473807828706
 30
0.0
 10
25.46362523231413
 20
12.45881367049078
 30
0.0
 10
25.43510674166588
 20
12.81273429419929
 30
0.0
 11
25.78968905051391
 21
6.0
 31
0.0
 11
25.78261892318226
 21
6.185779117074521
 31
0.0
 11
25.77569672765539
 21
6.365937407903402
 31
0.0
 11
25.68751160033691
 21
8.50608246122202
 31
0.0
 11
25.60103348707758
 21
10.30807648608785
 31
0.0
 11
25.51673949760978
 21
11.75070019343542
 31
0.0
 11
25.43510674166588
 21
12.81273429419929
 31
0.0
  0
SPLINE
  5
318
330
8D
100
AcDbEntity
  8
0
  6
Continuous
 62
     3
100
AcDbSpline
210
0.0
220
0.0
230
1.0
 70
     8
 71
     3
 72
    14
 73
    10
 74
     8
 42
0.0000000001
 43
0.0000000001
 44
0.00000001
 40
0.0
 40
0.0
 40
0.0
 40
0.0
 40
0.1857555646149405
 40
0.3705047813150042
 40
1.784615693749523
 40
3.22549990707965
 40
4.604352790588434
 40
5.832424461752715
 40
6.821107351732943
 40
6.821107351732943
 40
6.821107351732943
 40
6.821107351732943
 10
25.7518138541128
 20
6.0
 30
0.0
 10
25.74963758631648
 20
6.061880264553492
 30
0.0
 10
25.74529684085547
 20
6.185305551616261
 30
0.0
 10
25.72413586779303
 20
6.779801013138335
 30
0.0
 10
25.68652529230842
 20
7.792350539022506
 30
0.0
 10
25.62926681534078
 20
9.202483796055299
 30
0.0
 10
25.56631310376188
 20
10.55026974709354
 30
0.0
 10
25.5037275602338
 20
11.74724694401489
 30
0.0
 10
25.44819280405728
 20
12.48409611963499
 30
0.0
 10
25.42342404336841
 20
12.81273429419929
 30
0.0
 11
25.7518138541128
 21
6.0
 31
0.0
 11
25.74527185617299
 21
6.185640329800318
 31
0.0
 11
25.738701945184
 21
6.370272692458883
 31
0.0
 11
25.68605033975307
 21
7.783403076079564
 31
0.0
 11
25.62693429370636
 21
9.223074083401647
 31
0.0
 11
25.56261626019356
 21
10.60042605908743
 31
0.0
 11
25.49435869236435
 21
11.82659934779922
 31
0.0
 11
25.42342404336841
 21
12.81273429419929
 31
0.0
  0
SPLINE
  5
319
330
8D
100
AcDbEntity
  8
0
  6
Continuous
 62
     3
100
AcDbSpline
210
0.0
220
0.0
230
1.0
 70
     8
 71
     3
 72
    13
 73
     9
 74
     7
 42
0.0000000001
 43
0.0000000001
 44
0.00000001
 40
0.0
 40
0.0
 40
0.0
 40
0.0
 40
1.048438591848808
 40
2.480357917536128
 40
4.284597239238576
 40
6.449847162876036
 40
6.629701547696193
 40
6.815816430826213
 40
6.815816430826213
 40
6.815816430826213
 40
6.815816430826213
 10
25.14516294682539
 20
12.81273429419929
 30
0.0
 10
25.12561336949983
 20
12.46379006622876
 30
0.0
 10
25.07936368994688
 20
11.63827049326169
 30
0.0
 10
25.03671104904002
 20
10.21058700153188
 30
0.0
 10
24.99466898360566
 20
8.410635733047195
 30
0.0
 10
24.97279670595037
 20
7.027671263499791
 30
0.0
 10
24.96118557709145
 20
6.184011814690726
 30
0.0
 10
24.95956415229506
 20
6.062032821117397
 30
0.0
 10
24.95873957134548
 20
6.0
 30
0.0
 11
25.14516294682539
 21
12.81273429419929
 31
0.0
 11
25.09036603643163
 21
11.76572866886139
 31
0.0
 11
25.04179318522495
 21
10.33463341228254
 31
0.0
 11
24.99953917768782
 21
8.530888937911415
 31
0.0
 11
24.96369879830271
 21
6.365935659196708
 31
0.0
 11
24.96122814329021
 21
6.186098244839055
 31
0.0
 11
24.95873957134548
 21
6.0
 31
0.0
  0
SPLINE
  5
31A
330
8D
100
AcDbEntity
  8
0
  6
Continuous
 62
     3
100
AcDbSpline
210
0.0
220
0.0
230
1.0
 70
     8
 71
     3
 72
    11
 73
     7
 74
     5
 42
0.0000000001
 43
0.0000000001
 44
0.00000001
 40
0.0
 40
0.0
 40
0.0
 40
0.0
 40
3.207132909591757
 40
6.443303536816531
 40
6.628462498504618
 40
6.813624024938609
 40
6.813624024938609
 40
6.813624024938609
 40
6.813624024938609
 10
-1.235531318579412
 20
12.81273429419929
 30
0.0
 10
-1.21825557591588
 20
11.74382958800985
 30
0.0
 10
-1.18354767420337
 20
9.596342200345923
 30
0.0
 10
-1.147842395504403
 20
7.38714321801622
 30
0.0
 10
-1.128415437771265
 20
6.185136492905857
 30
0.0
 10
-1.126420641155117
 20
6.061712449236564
 30
0.0
 10
-1.125423235939316
 20
6.000000000000085
 30
0.0
 11
-1.235531318579412
 21
12.81273429419929
 31
0.0
 11
-1.183704093443634
 21
9.606020175584845
 31
0.0
 11
-1.131407619177317
 21
6.370272131114803
 31
0.0
 11
-1.128415450491278
 21
6.185137347727228
 31
0.0
 11
-1.125423235939316
 21
6.000000000000085
 31
0.0
  0
SPLINE
  5
31B
330
8D
100
AcDbEntity
  8
0
  6
Continuous
 62
     3
100
AcDbSpline
210
0.0
220
0.0
230
1.0
 70
    24
 71
     3
 72
    11
 73
     7
 74
     5
 42
0.0000000001
 43
0.0000000001
 44
0.00000001
 40
0.0
 40
0.0
 40
0.0
 40
0.0
 40
1.334674200599869
 40
2.403387743230846
 40
4.6170269868849
 40
6.813624024792214
 40
6.813624024792214
 40
6.813624024792214
 40
6.813624024792214
 10
1.125423245017991
 20
6.0
 30
0.0
 10
1.132612684125047
 20
6.44483330578679
 30
0.0
 10
1.145558922107947
 20
7.245857941183441
 30
0.0
 10
1.170429286991786
 20
8.784665971307858
 30
0.0
 10
1.199942539097103
 20
10.6107440969205
 30
0.0
 10
1.22369899229683
 20
12.08063089292376
 30
0.0
 10
1.235531318593694
 20
12.81273429419929
 30
0.0
 11
1.125423245017991
 21
6.0
 31
0.0
 11
1.146991562338211
 21
7.334499917360385
 31
0.0
 11
1.164261958964083
 21
8.403073906190002
 31
0.0
 11
1.200034339696778
 21
10.6164240903728
 31
0.0
 11
1.235531318593694
 21
12.81273429419929
 31
0.0
  0
SPLINE
  5
31C
330
8D
100
AcDbEntity
  8
0
  6
Continuous
 62
     3
100
AcDbSpline
210
0.0
220
0.0
230
1.0
 70
     8
 71
     3
 72
    11
 73
     7
 74
     5
 42
0.0000000001
 43
0.0000000001
 44
0.00000001
 40
0.0
 40
0.0
 40
0.0
 40
0.0
 40
0.0757002701600107
 40
0.1570149087621542
 40
0.3004492693787361
 40
0.4530154603398794
 40
0.4530154603398794
 40
0.4530154603398794
 40
0.4530154603398794
 10
-0.8188570886638971
 20
6.0
 30
0.0
 10
-0.8191653813786064
 20
6.025231540012713
 30
0.0
 10
-0.8198048315730344
 20
6.077565936503639
 30
0.0
 10
-0.8210284246670739
 20
6.177708217977816
 30
0.0
 10
-0.8225650570305811
 20
6.303470560685216
 30
0.0
 10
-0.8237705326136129
 20
6.402130046905857
 30
0.0
 10
-0.8243918653003917
 20
6.452981648143208
 30
0.0
 11
-0.8188570886638971
 21
6.0
 31
0.0
 11
-0.8197819668190895
 21
6.075694620037996
 31
0.0
 11
-0.8207754392701148
 21
6.157003189472505
 31
0.0
 11
-0.8225278673961506
 21
6.300426844429247
 31
0.0
 11
-0.8243918653003917
 21
6.452981648143208
 31
0.0
  0
SPLINE
  5
31D
330
8D
100
AcDbEntity
  8
0
  6
Continuous
 62
     3
100
AcDbSpline
210
0.0
220
0.0
230
1.0
 70
     8
 71
     3
 72
    18
 73
    14
 74
    12
 42
0.0000000001
 43
0.0000000001
 44
0.00000001
 40
0.0
 40
0.0
 40
0.0
 40
0.0
 40
0.0043840726658429
 40
0.0093362778700214
 40
0.0191946740820069
 40
0.0324135361949006
 40
0.0511887568606511
 40
0.0745726283680875
 40
0.1023658679456082
 40
0.1508164994720383
 40
0.2046589861919644
 40
0.2604214389622993
 40
0.3149006534849957
 40
0.3149006534849957
 40
0.3149006534849957
 40
0.3149006534849957
 10
1.124346172861799
 20
6.510127065204785
 30
0.0
 10
1.124169636073011
 20
6.508663493070461
 30
0.0
 10
1.123793685070364
 20
6.505546684301454
 30
0.0
 10
1.120524219848914
 20
6.499882489092476
 30
0.0
 10
1.113604716788754
 20
6.493445898797771
 30
0.0
 10
1.101474488809886
 20
6.486409224192727
 30
0.0
 10
1.084296990856082
 20
6.479537348767985
 30
0.0
 10
1.06189026366428
 20
6.472995900370204
 30
0.0
 10
1.029417369909507
 20
6.465944087276332
 30
0.0
 10
0.9864683030103656
 20
6.459698480697338
 30
0.0
 10
0.933971816506734
 20
6.455052841306383
 30
0.0
 10
0.8793039391920285
 20
6.452672852983937
 30
0.0
 10
0.8425532946250172
 20
6.452879518300652
 30
0.0
 10
0.824391865300008
 20
6.452981648143208
 30
0.0
 11
1.124346172861799
 21
6.510127065204785
 31
0.0
 11
1.123548806455798
 21
6.505816114038979
 31
0.0
 11
1.121233171714486
 21
6.50143865220258
 31
0.0
 11
1.114253344740685
 21
6.494476612897298
 31
0.0
 11
1.10297374174359
 21
6.487583944924182
 31
0.0
 11
1.085641851137688
 21
6.480364909041694
 31
0.0
 11
1.063242513667653
 21
6.473651107765233
 31
0.0
 11
1.036107774679884
 21
6.467636948947984
 31
0.0
 11
0.9882029998994568
 21
6.460384621835501
 31
0.0
 11
0.9345822610661045
 21
6.455503050044484
 31
0.0
 11
0.8788709135867627
 21
6.453116231869619
 31
0.0
 11
0.824391865300008
 21
6.452981648143208
 31
0.0
  0
SPLINE
  5
31E
330
8D
100
AcDbEntity
  8
0
  6
Continuous
 62
     3
100
AcDbSpline
210
0.0
220
0.0
230
1.0
 70
     8
 71
     3
 72
    18
 73
    14
 74
    12
 42
0.0000000001
 43
0.0000000001
 44
0.00000001
 40
0.0
 40
0.0
 40
0.0
 40
0.0
 40
0.0544792145196845
 40
0.1102416672930384
 40
0.1640841540042283
 40
0.2125347855393045
 40
0.240328025309765
 40
0.2637118965800953
 40
0.2824871172976356
 40
0.2957059794546322
 40
0.3055643756251843
 40
0.3105165798660751
 40
0.3149006450754169
 40
0.3149006450754169
 40
0.3149006450754169
 40
0.3149006450754169
 10
-0.8243918653003918
 20
6.452981648143208
 30
0.0
 10
-0.8425532946243884
 20
6.452879518300833
 30
0.0
 10
-0.879303939191385
 20
6.452672852984476
 30
0.0
 10
-0.9339718165033033
 20
6.455052841307072
 30
0.0
 10
-0.9864683030076331
 20
6.459698480693199
 30
0.0
 10
-1.029417369970656
 20
6.465944087302413
 30
0.0
 10
-1.061890263713298
 20
6.472995900348483
 30
0.0
 10
-1.08429699094358
 20
6.479537348707947
 30
0.0
 10
-1.101474488753314
 20
6.486409224238103
 30
0.0
 10
-1.113604716919951
 20
6.493445898717733
 30
0.0
 10
-1.120524219390325
 20
6.499882489038949
 30
0.0
 10
-1.123793683873876
 20
6.50554668125647
 30
0.0
 10
-1.124169635684397
 20
6.508663487015061
 30
0.0
 10
-1.124346172711491
 20
6.510127056566404
 30
0.0
 11
-0.8243918653003918
 21
6.452981648143208
 31
0.0
 11
-0.8788709135841335
 21
6.453116231870075
 31
0.0
 11
-0.9345822610665167
 21
6.455503050044484
 31
0.0
 11
-0.9882029998910548
 21
6.46038462183596
 31
0.0
 11
-1.036107774680296
 21
6.467636948947984
 31
0.0
 11
-1.063242513863424
 21
6.473651107775447
 31
0.0
 11
-1.085641851106943
 21
6.480364908981801
 31
0.0
 11
-1.102973741744002
 21
6.487583944924182
 31
0.0
 11
-1.114253344781972
 21
6.49447661291499
 31
0.0
 11
-1.121233171714898
 21
6.50143865220258
 31
0.0
 11
-1.12354880643737
 21
6.505816112959181
 31
0.0
 11
-1.124346172711491
 21
6.510127056566404
 31
0.0
  0
SPLINE
  5
31F
330
8D
100
AcDbEntity
  8
0
  6
Continuous
 62
     3
100
AcDbSpline
210
0.0
220
0.0
230
1.0
 70
     8
 71
     3
 72
    11
 73
     7
 74
     5
 42
0.0000000001
 43
0.0000000001
 44
0.00000001
 40
0.0
 40
0.0
 40
0.0
 40
0.0
 40
0.0757002701600108
 40
0.1570149087621542
 40
0.3004492693787361
 40
0.4530154603398797
 40
0.4530154603398797
 40
0.4530154603398797
 40
0.4530154603398797
 10
0.8188570886634849
 20
6.0
 30
0.0
 10
0.8191653813781995
 20
6.025231540012711
 30
0.0
 10
0.8198048315726392
 20
6.077565936503638
 30
0.0
 10
0.8210284246666529
 20
6.177708217977816
 30
0.0
 10
0.8225650570301708
 20
6.303470560685216
 30
0.0
 10
0.8237705326132203
 20
6.402130046905858
 30
0.0
 10
0.824391865300008
 20
6.452981648143208
 30
0.0
 11
0.8188570886634849
 21
6.0
 31
0.0
 11
0.8197819668186881
 21
6.075694620037996
 31
0.0
 11
0.8207754392697026
 21
6.157003189472505
 31
0.0
 11
0.822527867395742
 21
6.300426844429247
 31
0.0
 11
0.824391865300008
 21
6.452981648143208
 31
0.0
  0
SPLINE
  5
320
330
8D
100
AcDbEntity
  8
0
  6
Continuous
 62
     7
100
AcDbSpline
210
0.0
220
0.0
230
1.0
 70
     8
 71
     3
 72
    11
 73
     7
 74
     5
 42
0.0000000001
 43
0.0000000001
 44
0.00000001
 40
0.0
 40
0.0
 40
0.0
 40
0.0
 40
3.077491409621758
 40
6.154982819243331
 40
6.493224434919975
 40
6.831466050410552
 40
6.831466050410552
 40
6.831466050410552
 40
6.831466050410552
 10
-22.61050882440569
 20
12.81273429419929
 30
0.0
 10
-22.68642336578528
 20
11.78971663290068
 30
0.0
 10
-22.83825244854447
 20
9.743681310303531
 30
0.0
 10
-22.99842516392404
 20
7.58520793329032
 30
0.0
 10
-23.09102697002574
 20
6.337314163183368
 30
0.0
 10
-23.10771423473271
 20
6.112438054373838
 30
0.0
 10
-23.1160578670839
 20
6.0
 30
0.0
 11
-22.61050882440569
 21
12.81273429419929
 31
0.0
 11
-22.83825244858949
 21
9.743681310306808
 31
0.0
 11
-23.06599607277321
 21
6.674628326414506
 31
0.0
 11
-23.09102696999906
 21
6.337314163119196
 31
0.0
 11
-23.1160578670839
 21
6.0
 31
0.0
  0
SPLINE
  5
321
330
8D
100
AcDbEntity
  8
0
  6
Continuous
 62
     3
100
AcDbSpline
210
0.0
220
0.0
230
1.0
 70
    24
 71
     3
 72
     9
 73
     5
 74
     3
 42
0.0000000001
 43
0.0000000001
 44
0.00000001
 40
0.0
 40
0.0
 40
0.0
 40
0.0
 40
3.415733025215347
 40
6.831466050430604
 40
6.831466050430604
 40
6.831466050430604
 40
6.831466050430604
 10
-22.69884543059391
 20
12.8127342941994
 30
0.0
 10
-22.78310360441854
 20
11.67727857849949
 30
0.0
 10
-22.95161995206781
 20
9.406367147099692
 30
0.0
 10
-23.120136299717
 20
7.135455715699887
 30
0.0
 10
-23.20439447354159
 20
6.0
 30
0.0
 11
-22.69884543059391
 21
12.8127342941994
 31
0.0
 11
-22.95161995206779
 21
9.406367147099658
 31
0.0
 11
-23.20439447354159
 21
6.0
 31
0.0
  0
SPLINE
  5
322
330
8D
100
AcDbEntity
  8
0
  6
Continuous
 62
     3
100
AcDbSpline
210
0.0
220
0.0
230
1.0
 70
     8
 71
     3
 72
    26
 73
    22
 74
    20
 42
0.0000000001
 43
0.0000000001
 44
0.00000001
 40
0.0
 40
0.0
 40
0.0
 40
0.0
 40
0.0005967233309555
 40
0.0013034502278563
 40
0.0028761988182286
 40
0.0051133166594901
 40
0.0091720522608726
 40
0.0145008881826728
 40
0.0211297843233003
 40
0.0308089812150126
 40
0.0423910360264498
 40
0.0557867241877516
 40
0.070906689580661
 40
0.0876615098366954
 40
0.1106059762891504
 40
0.1354350614680973
 40
0.1617036558435397
 40
0.188966608302368
 40
0.226058742217844
 40
0.2630651936972857
 40
0.29909699599287
 40
0.29909699599287
 40
0.29909699599287
 40
0.29909699599287
 10
53.05877425286629
 20
6.452981648143208
 30
0.0
 10
53.05858560506718
 20
6.452913708655309
 30
0.0
 10
53.05817353299962
 20
6.452765305305903
 30
0.0
 10
53.0572023999945
 20
6.452787631115957
 30
0.0
 10
53.05570681925811
 20
6.452881491098122
 30
0.0
 10
53.05309521284379
 20
6.453169743391866
 30
0.0
 10
53.04925693098806
 20
6.453686585134015
 30
0.0
 10
53.04397813447217
 20
6.45449238051236
 30
0.0
 10
53.03686114275936
 20
6.455659365859009
 30
0.0
 10
53.02770097721037
 20
6.457248512763915
 30
0.0
 10
53.01633219947648
 20
6.459299556441852
 30
0.0
 10
53.00319074820885
 20
6.461739100960557
 30
0.0
 10
52.98836523802765
 20
6.464552979586651
 30
0.0
 10
52.97042421714595
 20
6.46802090828755
 30
0.0
 10
52.9493191663365
 20
6.472172443920976
 30
0.0
 10
52.92511613789241
 20
6.477004880023778
 30
0.0
 10
52.89951392105931
 20
6.482181082302803
 30
0.0
 10
52.86991806792758
 20
6.488231180730462
 30
0.0
 10
52.83683162880997
 20
6.495076842816703
 30
0.0
 10
52.80089869639295
 20
6.502590897287841
 30
0.0
 10
52.7770813801871
 20
6.507637451160706
 30
0.0
 10
52.7653316355754
 20
6.510127056566404
 30
0.0
 11
53.05877425286629
 21
6.452981648143208
 31
0.0
 11
53.05820243466138
 21
6.452811053083962
 31
0.0
 11
53.0574962349214
 21
6.452783761435882
 31
0.0
 11
53.05592631083895
 21
6.452877976635566
 31
0.0
 11
53.05370117795899
 21
6.45310923385648
 31
0.0
 11
53.04967734673955
 21
6.453640380728236
 31
0.0
 11
53.04440817709859
 21
6.45443558106541
 31
0.0
 11
53.03786579419769
 21
6.455503050044484
 31
0.0
 11
53.0283277083558
 21
6.457149795605063
 31
0.0
 11
53.01692876033351
 21
6.459201131179822
 31
0.0
 11
53.00375741801835
 21
6.461642483864645
 31
0.0
 11
52.98890214929783
 21
6.464459280755406
 31
0.0
 11
52.9724514220595
 21
6.467636948947984
 31
0.0
 11
52.94993759395884
 21
6.472061435928632
 31
0.0
 11
52.92558860347018
 21
6.47692046186049
 31
0.0
 11
52.89984064739151
 21
6.482124480330146
 31
0.0
 11
52.8731299225208
 21
6.487583944924182
 31
0.0
 11
52.83680633008738
 21
6.495095471475686
 31
0.0
 11
52.8005841142956
 21
6.50267363314158
 31
0.0
 11
52.7653316355754
 21
6.510127056566404
 31
0.0
  0
SPLINE
  5
323
330
8D
100
AcDbEntity
  8
0
  6
Continuous
 62
     3
100
AcDbSpline
210
0.0
220
0.0
230
1.0
 70
     8
 71
     3
 72
    13
 73
     9
 74
     7
 42
0.0000000001
 43
0.0000000001
 44
0.00000001
 40
0.0
 40
0.0
 40
0.0
 40
0.0
 40
0.1835625171030232
 40
0.3662047404504393
 40
2.508139502100512
 40
4.31220556191171
 40
5.757302151404391
 40
6.822484945032729
 40
6.822484945032729
 40
6.822484945032729
 40
6.822484945032729
 10
-25.78968890558719
 20
6.0
 30
0.0
 10
-25.78736696522206
 20
6.061143440148371
 30
0.0
 10
-25.78273472557872
 20
6.183123776783296
 30
0.0
 10
-25.750616702923
 20
7.018552734238076
 30
0.0
 10
-25.69494914836795
 20
8.39366305549613
 30
0.0
 10
-25.60890176411591
 20
10.18860675917395
 30
0.0
 10
-25.53083504595563
 20
11.62472336127078
 30
0.0
 10
-25.46362561617429
 20
12.45880835628089
 30
0.0
 10
-25.43510674745631
 20
12.81273429419929
 30
0.0
 11
-25.78968890558719
 21
6.0
 31
0.0
 11
-25.78270871219361
 21
6.183429753817056
 31
0.0
 11
-25.77569673082071
 21
6.365937325896994
 31
0.0
 11
-25.68751277100798
 21
8.506056040453899
 31
0.0
 11
-25.60103497126344
 21
10.30804825417571
 31
0.0
 11
-25.51674055545643
 21
11.75068424583374
 31
0.0
 11
-25.43510674745631
 21
12.81273429419929
 31
0.0
  0
SPLINE
  5
324
330
8D
100
AcDbEntity
  8
0
  6
Continuous
 62
     3
100
AcDbSpline
210
0.0
220
0.0
230
1.0
 70
     8
 71
     3
 72
    14
 73
    10
 74
     8
 42
0.0000000001
 43
0.0000000001
 44
0.00000001
 40
0.0
 40
0.0
 40
0.0
 40
0.0
 40
0.1863751876098262
 40
0.3705046926162305
 40
2.418886408050424
 40
4.035083648098402
 40
5.272147474124692
 40
6.18313471588172
 40
6.821110916120974
 40
6.821110916120974
 40
6.821110916120974
 40
6.821110916120974
 10
-25.75181381887391
 20
6.0
 30
0.0
 10
-25.74963030384203
 20
6.062086679197655
 30
0.0
 10
-25.74528958351288
 20
6.185511939215885
 30
0.0
 10
-25.7166060539834
 20
6.991297068151017
 30
0.0
 10
-25.66825650406034
 20
8.273290958071378
 30
0.0
 10
-25.59812441647934
 20
9.905685311118345
 30
0.0
 10
-25.53457371267076
 20
11.15881977038313
 30
0.0
 10
-25.48052715145597
 20
12.08597221391754
 30
0.0
 10
-25.44015760126941
 20
12.60072253973579
 30
0.0
 10
-25.42353047403379
 20
12.81273429419929
 30
0.0
 11
-25.75181381887391
 21
6.0
 31
0.0
 11
-25.74524991791505
 21
6.186259565555169
 31
0.0
 11
-25.73870194830972
 21
6.370272605060393
 31
0.0
 11
-25.66082879689618
 21
8.417173536814065
 31
0.0
 11
-25.59034262361015
 21
10.03183301116592
 31
0.0
 11
-25.52727587860329
 21
11.26728818855482
 31
0.0
 11
-25.47166101202728
 21
12.17657622941965
 31
0.0
 11
-25.42353047403379
 21
12.81273429419929
 31
0.0
  0
SPLINE
  5
325
330
8D
100
AcDbEntity
  8
0
  6
Continuous
 62
     3
100
AcDbSpline
210
0.0
220
0.0
230
1.0
 70
     8
 71
     3
 72
    16
 73
    12
 74
    10
 42
0.0000000001
 43
0.0000000001
 44
0.00000001
 40
0.0
 40
0.0
 40
0.0
 40
0.0
 40
0.0130487725646598
 40
0.0250887525248893
 40
0.1242050826948744
 40
0.2030566314233712
 40
0.3132757820877271
 40
0.4006758789767752
 40
0.4568261387996287
 40
0.5287892898836816
 40
0.6152627524328053
 40
0.6152627524328053
 40
0.6152627524328053
 40
0.6152627524328053
 10
-36.21115416901251
 20
6.0
 30
0.0
 10
-36.21497523678182
 20
6.002079055334905
 30
0.0
 10
-36.22232196791457
 20
6.006076435511815
 30
0.0
 10
-36.25791425131015
 20
6.027232220350386
 30
0.0
 10
-36.3082485740661
 20
6.066617981940073
 30
0.0
 10
-36.37265251753101
 20
6.138241047128671
 30
0.0
 10
-36.42296296589583
 20
6.216036932219172
 30
0.0
 10
-36.45872997798092
 20
6.292890477250576
 30
0.0
 10
-36.48300584161964
 20
6.360540058487747
 30
0.0
 10
-36.50244102341073
 20
6.429511839307921
 30
0.0
 10
-36.51101267025118
 20
6.481663233929307
 30
0.0
 10
-36.51569100794752
 20
6.510127056566404
 30
0.0
 11
-36.21115416901251
 21
6.0
 31
0.0
 11
-36.22257482588373
 21
6.00631181923648
 31
0.0
 11
-36.23293336038629
 21
6.012448746839283
 31
0.0
 11
-36.31133003331241
 21
6.073095334381211
 31
0.0
 11
-36.36427758132479
 21
6.131525839225503
 31
0.0
 11
-36.42459314003069
 21
6.223777096946831
 31
0.0
 11
-36.46162843622611
 21
6.302942517250983
 31
0.0
 11
-36.4806814645897
 21
6.355761394447967
 31
0.0
 11
-36.49993479373455
 21
6.42510116969123
 31
0.0
 11
-36.51569100794752
 21
6.510127056566404
 31
0.0
  0
SPLINE
  5
326
330
8D
100
AcDbEntity
  8
0
  6
Continuous
 62
     3
100
AcDbSpline
210
0.0
220
0.0
230
1.0
 70
     8
 71
     3
 72
    15
 73
    11
 74
     9
 42
0.0000000001
 43
0.0000000001
 44
0.00000001
 40
0.0
 40
0.0
 40
0.0
 40
0.0
 40
0.0428569493346841
 40
0.0940995887676145
 40
0.1519226235207596
 40
0.2133094114396669
 40
0.2745600822887924
 40
0.3319925703513617
 40
0.3826362526323497
 40
0.4247499680471334
 40
0.4247499680471334
 40
0.4247499680471334
 40
0.4247499680471334
 10
-36.51569100794752
 20
6.510127056566404
 30
0.0
 10
-36.5294466915028
 20
6.506263745814971
 30
0.0
 10
-36.5596495917527
 20
6.497781201942048
 30
0.0
 10
-36.60912248816946
 20
6.486856077575282
 30
0.0
 10
-36.66497564590507
 20
6.476401365867664
 30
0.0
 10
-36.72445098224112
 20
6.467314240426865
 30
0.0
 10
-36.78406096279761
 20
6.460178093959508
 30
0.0
 10
-36.84030312533373
 20
6.45536389922967
 30
0.0
 10
-36.89032213699674
 20
6.452728390334606
 30
0.0
 10
-36.9212459618215
 20
6.452902567997491
 30
0.0
 10
-36.9352859973395
 20
6.452981648143208
 30
0.0
 11
-36.51569100794752
 21
6.510127056566404
 31
0.0
 11
-36.55704936701998
 21
6.498892990467745
 31
0.0
 11
-36.6070284985145
 21
6.487583944924182
 31
0.0
 11
-36.66386116624313
 21
6.476927903121017
 31
0.0
 11
-36.72454078309719
 21
6.467636948947984
 31
0.0
 11
-36.78536012669337
 21
6.460380770615157
 31
0.0
 11
-36.84258510836302
 21
6.455503050044484
 31
0.0
 11
-36.89317249570405
 21
6.45311583472407
 31
0.0
 11
-36.9352859973395
 21
6.452981648143208
 31
0.0
  0
SPLINE
  5
327
330
8D
100
AcDbEntity
  8
0
  6
Continuous
 62
     3
100
AcDbSpline
210
0.0
220
0.0
230
1.0
 70
     8
 71
     3
 72
    11
 73
     7
 74
     5
 42
0.0000000001
 43
0.0000000001
 44
0.00000001
 40
0.0
 40
0.0
 40
0.0
 40
0.0
 40
0.0963152613258816
 40
0.175798716509226
 40
0.3485862095034601
 40
0.4825152701005498
 40
0.4825152701005498
 40
0.4825152701005498
 40
0.4825152701005498
 10
-36.7782026243144
 20
6.0
 30
0.0
 10
-36.7942378636486
 20
6.027846038201911
 30
0.0
 10
-36.82350606533401
 20
6.078671812937649
 30
0.0
 10
-36.87019121278384
 20
6.185203556025798
 30
0.0
 10
-36.9105392339432
 20
6.308078441575567
 30
0.0
 10
-36.92776450916904
 20
6.408940019886328
 30
0.0
 10
-36.9352859973395
 20
6.452981648143208
 30
0.0
 11
-36.7782026243144
 21
6.0
 31
0.0
 11
-36.82459020703696
 21
6.084408659114042
 31
0.0
 11
-36.85695768778411
 21
6.157003189472505
 31
0.0
 11
-36.90989608673396
 21
6.321481284220283
 31
0.0
 11
-36.9352859973395
 21
6.452981648143208
 31
0.0
  0
SPLINE
  5
328
330
8D
100
AcDbEntity
  8
0
  6
Continuous
 62
     3
100
AcDbSpline
210
0.0
220
0.0
230
1.0
 70
     8
 71
     3
 72
    14
 73
    10
 74
     8
 42
0.0000000001
 43
0.0000000001
 44
0.00000001
 40
0.0
 40
0.0
 40
0.0
 40
0.0
 40
0.9973583137729969
 40
2.234278944945246
 40
3.617093170066896
 40
5.051986012185338
 40
6.445086609114823
 40
6.629416234999956
 40
6.815386188454933
 40
6.815386188454933
 40
6.815386188454933
 40
6.815386188454933
 10
-25.15517560042449
 20
12.8127342941994
 30
0.0
 10
-25.13777120772239
 20
12.4807279297694
 30
0.0
 10
-25.09878194215271
 20
11.73696832061993
 30
0.0
 10
-25.06349431706992
 20
10.53170951269754
 30
0.0
 10
-25.03140478235807
 20
9.180562438513626
 30
0.0
 10
-25.00659225085052
 20
7.777166714438986
 30
0.0
 10
-24.9922691359486
 20
6.773161551709993
 30
0.0
 10
-24.98478197657506
 20
6.185409123516455
 30
0.0
 10
-24.98326231450262
 20
6.061985285976798
 30
0.0
 10
-24.98249911761921
 20
6.0
 30
0.0
 11
-25.15517560042449
 21
12.8127342941994
 31
0.0
 11
-25.10638817837574
 21
11.8165699535899
 31
0.0
 11
-25.06599309342256
 21
10.58030910533369
 31
0.0
 11
-25.03318894150902
 21
9.197884037268143
 31
0.0
 11
-25.00717431857922
 21
7.763227037230656
 31
0.0
 11
-24.98714782057721
 21
6.370270393058604
 31
0.0
 11
-24.98480196998769
 21
6.185955694881913
 31
0.0
 11
-24.98249911761921
 21
6.0
 31
0.0
  0
SPLINE
  5
329
330
8D
100
AcDbEntity
  8
0
  6
Continuous
 62
     3
100
AcDbSpline
210
0.0
220
0.0
230
1.0
 70
     8
 71
     3
 72
    13
 73
     9
 74
     7
 42
0.0000000001
 43
0.0000000001
 44
0.00000001
 40
0.0
 40
0.0
 40
0.0
 40
0.0
 40
1.048438554796148
 40
2.480357844834189
 40
4.284597150096568
 40
6.449847094327513
 40
6.629701653970297
 40
6.815816430826038
 40
6.815816430826038
 40
6.815816430826038
 40
6.815816430826038
 10
-25.14516294680391
 20
12.81273429419929
 30
0.0
 10
-25.1256133700647
 20
12.46379007856693
 30
0.0
 10
-25.07936369162006
 20
11.63827052981137
 30
0.0
 10
-25.03671105081974
 20
10.21058706780934
 30
0.0
 10
-24.99466898505186
 20
8.410635809832726
 30
0.0
 10
-24.97279670610111
 20
7.02767128063855
 30
0.0
 10
-24.96118557693174
 20
6.184011802117388
 30
0.0
 10
-24.95956415187461
 20
6.062032785696053
 30
0.0
 10
-24.95873957141772
 20
6.0
 30
0.0
 11
-25.14516294680391
 21
12.81273429419929
 31
0.0
 11
-25.09036603797329
 21
11.76572870588295
 31
0.0
 11
-25.04179318726499
 21
10.33463348495699
 31
0.0
 11
-24.99953917943952
 21
8.530889027037203
 31
0.0
 11
-24.96369879925741
 21
6.365935727739384
 31
0.0
 11
-24.96122814187208
 21
6.186098138575204
 31
0.0
 11
-24.95873957141772
 21
6.0
 31
0.0
  0
ENDBLK
  5
8F
330
8D
100
AcDbEntity
  8
0
100
AcDbBlockEnd
  0
BLOCK
  5
1EE
330
1E6
100
AcDbEntity
  8
0
100
AcDbBlockBegin
  2
*D13
 70
     1
 10
0.0
 20
0.0
 30
0.0
  3
*D13
  1

  0
LINE
  5
1E7
330
1E6
100
AcDbEntity
  8
1
  6
Continuous
 62
     4
100
AcDbLine
 10
220.5469982226514
 20
-73.97500653990977
 30
0.0
 11
220.5469982226514
 21
-23.97500653990977
 31
0.0
  0
LINE
  5
1E8
330
1E6
100
AcDbEntity
  8
1
  6
Continuous
 62
     4
100
AcDbLine
 10
201.785521321048
 20
-73.97500653990977
 30
0.0
 11
222.5469982226514
 21
-73.97500653990977
 31
0.0
  0
LINE
  5
1E9
330
1E6
100
AcDbEntity
  8
1
  6
Continuous
 62
     4
100
AcDbLine
 10
201.785521321048
 20
-23.97500653990977
 30
0.0
 11
222.5469982226514
 21
-23.97500653990977
 31
0.0
  0
SOLID
  5
1EA
330
1E6
100
AcDbEntity
  8
1
 62
     4
100
AcDbTrace
 10
221.4685657057632
 20
-30.97500653990977
 30
0.0
 11
219.6254307395396
 21
-30.97500653990977
 31
0.0
 12
220.5469982226514
 22
-23.97500653990977
 32
0.0
 13
220.5469982226514
 23
-23.97500653990977
 33
0.0
  0
SOLID
  5
1EB
330
1E6
100
AcDbEntity
  8
1
 62
     4
100
AcDbTrace
 10
219.6254307395396
 20
-66.97500653990977
 30
0.0
 11
221.4685657057632
 21
-66.97500653990977
 31
0.0
 12
220.5469982226514
 22
-73.97500653990977
 32
0.0
 13
220.5469982226514
 23
-73.97500653990977
 33
0.0
  0
MTEXT
  5
1ED
330
1E6
100
AcDbEntity
  8
1
 62
     1
100
AcDbMText
 10
218.5469982226514
 20
-55.38701308217667
 30
0.0
 40
7.0
 41
0.0
 71
     7
 72
     1
  1
\C1;DN\C1;50
  7
CONVERTER_11
 11
0.0
 21
1.0
 31
0.0
 73
     1
 44
0.60024009603842
  0
ENDBLK
  5
1EF
330
1E6
100
AcDbEntity
  8
0
100
AcDbBlockEnd
  0
BLOCK
  5
1FA
330
1F2
100
AcDbEntity
  8
0
100
AcDbBlockBegin
  2
*D14
 70
     1
 10
0.0
 20
0.0
 30
0.0
  3
*D14
  1

  0
LINE
  5
1F3
330
1F2
100
AcDbEntity
  8
1
  6
Continuous
 62
     4
100
AcDbLine
 10
139.979369307302
 20
-73.97500653990977
 30
0.0
 11
139.979369307302
 21
-33.97500653990976
 31
0.0
  0
LINE
  5
1F4
330
1F2
100
AcDbEntity
  8
1
  6
Continuous
 62
     4
100
AcDbLine
 10
139.979369307302
 20
-33.97500653990976
 30
0.0
 11
139.979369307302
 21
-3.2910664222919
 31
0.0
  0
LINE
  5
1F5
330
1F2
100
AcDbEntity
  8
1
  6
Continuous
 62
     4
100
AcDbLine
 10
151.2855213210481
 20
-73.97500653990977
 30
0.0
 11
137.979369307302
 21
-73.97500653990977
 31
0.0
  0
LINE
  5
1F6
330
1F2
100
AcDbEntity
  8
1
  6
Continuous
 62
     4
100
AcDbLine
 10
150.2855213210481
 20
-33.97500653990976
 30
0.0
 11
137.979369307302
 21
-33.97500653990976
 31
0.0
  0
SOLID
  5
1F7
330
1F2
100
AcDbEntity
  8
1
 62
     4
100
AcDbTrace
 10
140.9009367904138
 20
-40.97500653990976
 30
0.0
 11
139.0578018241902
 21
-40.97500653990976
 31
0.0
 12
139.979369307302
 22
-33.97500653990976
 32
0.0
 13
139.979369307302
 23
-33.97500653990976
 33
0.0
  0
SOLID
  5
1F8
330
1F2
100
AcDbEntity
  8
1
 62
     4
100
AcDbTrace
 10
139.0578018241902
 20
-66.97500653990977
 30
0.0
 11
140.9009367904138
 21
-66.97500653990977
 31
0.0
 12
139.979369307302
 22
-73.97500653990977
 32
0.0
 13
139.979369307302
 23
-73.97500653990977
 33
0.0
  0
MTEXT
  5
1F9
330
1F2
100
AcDbEntity
  8
1
 62
     1
100
AcDbMText
 10
137.979369307302
 20
-25.2710664222919
 30
0.0
 40
7.0
 41
0.0
 71
     7
 72
     1
  1
\C1;DN\C1;40
  7
CONVERTER_11
 11
0.0
 21
1.0
 31
0.0
 73
     1
 44
0.60024009603842
  0
ENDBLK
  5
1FB
330
1F2
100
AcDbEntity
  8
0
100
AcDbBlockEnd
  0
BLOCK
  5
205
330
1FE
100
AcDbEntity
  8
0
100
AcDbBlockBegin
  2
*D15
 70
     1
 10
0.0
 20
0.0
 30
0.0
  3
*D15
  1

  0
LINE
  5
1FF
330
1FE
100
AcDbEntity
  8
1
  6
Continuous
 62
     4
100
AcDbLine
 10
0.0000000000002
 20
-208.6148478400113
 30
0.0
 11
61.99500653991196
 21
-208.6148478400113
 31
0.0
  0
LINE
  5
200
330
1FE
100
AcDbEntity
  8
1
  6
Continuous
 62
     4
100
AcDbLine
 10
0.0000000000002
 20
-83.76044499172639
 30
0.0
 11
0.0000000000002
 21
-210.6148478400113
 31
0.0
  0
LINE
  5
201
330
1FE
100
AcDbEntity
  8
1
  6
Continuous
 62
     4
100
AcDbLine
 10
61.99500653991196
 20
-197.1530442169172
 30
0.0
 11
61.99500653991196
 21
-210.6148478400113
 31
0.0
  0
SOLID
  5
202
330
1FE
100
AcDbEntity
  8
1
 62
     4
100
AcDbTrace
 10
54.99500653991196
 20
-209.5364153231231
 30
0.0
 11
54.99500653991196
 21
-207.6932803568995
 31
0.0
 12
61.99500653991196
 22
-208.6148478400113
 32
0.0
 13
61.99500653991196
 23
-208.6148478400113
 33
0.0
  0
SOLID
  5
203
330
1FE
100
AcDbEntity
  8
1
 62
     4
100
AcDbTrace
 10
7.0000000000002
 20
-207.6932803568995
 30
0.0
 11
7.0000000000002
 21
-209.5364153231231
 31
0.0
 12
0.0000000000002
 22
-208.6148478400113
 32
0.0
 13
0.0000000000002
 23
-208.6148478400113
 33
0.0
  0
MTEXT
  5
204
330
1FE
100
AcDbEntity
  8
1
 62
     1
100
AcDbMText
 10
24.34305710204333
 20
-206.6148478400113
 30
0.0
 40
7.0
 41
0.0
 71
     7
 72
     1
  1
62
  7
CONVERTER_11
 11
0.9999999999970619
 21
2.424068405545306E-6
 31
0.0
 73
     1
 44
0.60024009603842
  0
ENDBLK
  5
206
330
1FE
100
AcDbEntity
  8
0
100
AcDbBlockEnd
  0
BLOCK
  5
212
330
209
100
AcDbEntity
  8
0
100
AcDbBlockBegin
  2
*D16
 70
     1
 10
0.0
 20
0.0
 30
0.0
  3
*D16
  1

  0
LINE
  5
20A
330
209
100
AcDbEntity
  8
1
  6
Continuous
 62
     4
100
AcDbLine
 10
-70.9107274253789
 20
-14.0
 30
0.0
 11
-70.9107274253789
 21
0.0
 31
0.0
  0
LINE
  5
20B
330
209
100
AcDbEntity
  8
1
  6
Continuous
 62
     4
100
AcDbLine
 10
-70.9107274253789
 20
0.0
 30
0.0
 11
-70.9107274253789
 21
6.0
 31
0.0
  0
LINE
  5
20C
330
209
100
AcDbEntity
  8
1
  6
Continuous
 62
     4
100
AcDbLine
 10
-70.9107274253789
 20
6.0
 30
0.0
 11
-70.9107274253789
 21
38.0884679482954
 31
0.0
  0
LINE
  5
20D
330
209
100
AcDbEntity
  8
1
  6
Continuous
 62
     4
100
AcDbLine
 10
-55.00000000000007
 20
0.0
 30
0.0
 11
-72.9107274253789
 21
0.0
 31
0.0
  0
LINE
  5
20E
330
209
100
AcDbEntity
  8
1
  6
Continuous
 62
     4
100
AcDbLine
 10
-55.99999999999997
 20
6.0
 30
0.0
 11
-72.9107274253789
 21
6.0
 31
0.0
  0
SOLID
  5
20F
330
209
100
AcDbEntity
  8
1
 62
     4
100
AcDbTrace
 10
-69.98915994226712
 20
-7.0
 30
0.0
 11
-71.83229490849067
 21
-7.0
 31
0.0
 12
-70.9107274253789
 22
0.0
 32
0.0
 13
-70.9107274253789
 23
0.0
 33
0.0
  0
SOLID
  5
210
330
209
100
AcDbEntity
  8
1
 62
     4
100
AcDbTrace
 10
-71.83229490849067
 20
13.0
 30
0.0
 11
-69.98915994226712
 21
13.0
 31
0.0
 12
-70.9107274253789
 22
6.0
 32
0.0
 13
-70.9107274253789
 23
6.0
 33
0.0
  0
MTEXT
  5
211
330
209
100
AcDbEntity
  8
1
 62
     1
100
AcDbMText
 10
-72.9107274253789
 20
14.2884679482954
 30
0.0
 40
7.0
 41
0.0
 71
     7
 72
     1
  1
\C1;6\C1;-24
  7
CONVERTER_11
 11
0.0
 21
1.0
 31
0.0
 73
     1
 44
0.60024009603842
  0
ENDBLK
  5
213
330
209
100
AcDbEntity
  8
0
100
AcDbBlockEnd
  0
BLOCK
  5
21D
330
216
100
AcDbEntity
  8
0
100
AcDbBlockBegin
  2
*D17
 70
     1
 10
0.0
 20
0.0
 30
0.0
  3
*D17
  1

  0
LINE
  5
217
330
216
100
AcDbEntity
  8
1
  6
Continuous
 62
     4
100
AcDbLine
 10
-56.65297197665212
 20
38.9768121397382
 30
0.0
 11
56.65297197665168
 21
38.9768121397382
 31
0.0
  0
LINE
  5
218
330
216
100
AcDbEntity
  8
1
  6
Continuous
 62
     4
100
AcDbLine
 10
-56.65297197665212
 20
14.06200337137747
 30
0.0
 11
-56.65297197665212
 21
40.9768121397382
 31
0.0
  0
LINE
  5
219
330
216
100
AcDbEntity
  8
1
  6
Continuous
 62
     4
100
AcDbLine
 10
56.65297197665168
 20
14.06200337137747
 30
0.0
 11
56.65297197665168
 21
40.9768121397382
 31
0.0
  0
SOLID
  5
21A
330
216
100
AcDbEntity
  8
1
 62
     4
100
AcDbTrace
 10
-49.65297197665212
 20
39.89837962284997
 30
0.0
 11
-49.65297197665212
 21
38.05524465662643
 31
0.0
 12
-56.65297197665212
 22
38.9768121397382
 32
0.0
 13
-56.65297197665212
 23
38.9768121397382
 33
0.0
  0
SOLID
  5
21B
330
216
100
AcDbEntity
  8
1
 62
     4
100
AcDbTrace
 10
49.65297197665168
 20
38.05524465662643
 30
0.0
 11
49.65297197665168
 21
39.89837962284997
 31
0.0
 12
56.65297197665168
 22
38.9768121397382
 32
0.0
 13
56.65297197665168
 23
38.9768121397382
 33
0.0
  0
MTEXT
  5
21C
330
216
100
AcDbEntity
  8
1
 62
     1
100
AcDbMText
 10
-16.98570358749891
 20
40.97677039728026
 30
0.0
 40
7.0
 41
0.0
 71
     7
 72
     1
  1
\C1;{\Fgdt;n}\C1;113
  7
CONVERTER_11
 11
0.9999999999970619
 21
2.424068405545306E-6
 31
0.0
 73
     1
 44
0.60024009603842
  0
ENDBLK
  5
21E
330
216
100
AcDbEntity
  8
0
100
AcDbBlockEnd
  0
BLOCK
  5
228
330
221
100
AcDbEntity
  8
0
100
AcDbBlockBegin
  2
*D18
 70
     1
 10
0.0
 20
0.0
 30
0.0
  3
*D18
  1

  0
LINE
  5
222
330
221
100
AcDbEntity
  8
1
  6
Continuous
 62
     4
100
AcDbLine
 10
108.3323733413596
 20
-53.97500653990642
 30
0.0
 11
108.3323733413596
 21
0.0
 31
0.0
  0
LINE
  5
223
330
221
100
AcDbEntity
  8
1
  6
Continuous
 62
     4
100
AcDbLine
 10
71.56362154753445
 20
-53.97500653990642
 30
0.0
 11
110.3323733413596
 21
-53.97500653990642
 31
0.0
  0
LINE
  5
224
330
221
100
AcDbEntity
  8
1
  6
Continuous
 62
     4
100
AcDbLine
 10
55.00000000000007
 20
0.0
 30
0.0
 11
110.3323733413596
 21
0.0
 31
0.0
  0
SOLID
  5
225
330
221
100
AcDbEntity
  8
1
 62
     4
100
AcDbTrace
 10
109.2539408244714
 20
-7.0
 30
0.0
 11
107.4108058582478
 21
-7.0
 31
0.0
 12
108.3323733413596
 22
0.0
 32
0.0
 13
108.3323733413596
 23
0.0
 33
0.0
  0
SOLID
  5
226
330
221
100
AcDbEntity
  8
1
 62
     4
100
AcDbTrace
 10
107.4108058582478
 20
-46.97500653990642
 30
0.0
 11
109.2539408244714
 21
-46.97500653990642
 31
0.0
 12
108.3323733413596
 22
-53.97500653990642
 32
0.0
 13
108.3323733413596
 23
-53.97500653990642
 33
0.0
  0
MTEXT
  5
227
330
221
100
AcDbEntity
  8
1
 62
     1
100
AcDbMText
 10
106.3323733413596
 20
-25.90900738417087
 30
0.0
 40
7.0
 41
0.0
 71
     7
 72
     1
  1
54
  7
CONVERTER_11
 11
0.0
 21
1.0
 31
0.0
 73
     1
 44
0.60024009603842
  0
ENDBLK
  5
229
330
221
100
AcDbEntity
  8
0
100
AcDbBlockEnd
  0
BLOCK
  5
233
330
22C
100
AcDbEntity
  8
0
100
AcDbBlockBegin
  2
*D19
 70
     1
 10
0.0
 20
0.0
 30
0.0
  3
*D19
  1

  0
LINE
  5
22D
330
22C
100
AcDbEntity
  8
1
  6
Continuous
 62
     4
100
AcDbLine
 10
152.285521321048
 20
-88.26252115435138
 30
0.0
 11
205.285521321048
 21
-88.26252115435138
 31
0.0
  0
LINE
  5
22E
330
22C
100
AcDbEntity
  8
1
  6
Continuous
 62
     4
100
AcDbLine
 10
152.285521321048
 20
-57.45500653990973
 30
0.0
 11
152.285521321048
 21
-90.26252115435138
 31
0.0
  0
LINE
  5
22F
330
22C
100
AcDbEntity
  8
1
  6
Continuous
 62
     4
100
AcDbLine
 10
205.285521321048
 20
-73.03718436640082
 30
0.0
 11
205.285521321048
 21
-90.26252115435138
 31
0.0
  0
SOLID
  5
230
330
22C
100
AcDbEntity
  8
1
 62
     4
100
AcDbTrace
 10
198.285521321048
 20
-89.18408863746315
 30
0.0
 11
198.285521321048
 21
-87.3409536712396
 31
0.0
 12
205.285521321048
 22
-88.26252115435138
 32
0.0
 13
205.285521321048
 23
-88.26252115435138
 33
0.0
  0
SOLID
  5
231
330
22C
100
AcDbEntity
  8
1
 62
     4
100
AcDbTrace
 10
159.285521321048
 20
-87.3409536712396
 30
0.0
 11
159.285521321048
 21
-89.18408863746315
 31
0.0
 12
152.285521321048
 22
-88.26252115435138
 32
0.0
 13
152.285521321048
 23
-88.26252115435138
 33
0.0
  0
MTEXT
  5
232
330
22C
100
AcDbEntity
  8
1
 62
     1
100
AcDbMText
 10
174.2480903404104
 20
-86.26252115435138
 30
0.0
 40
7.0
 41
0.0
 71
     7
 72
     1
  1
53
  7
CONVERTER_11
 11
0.9999999999970619
 21
2.424068405545306E-6
 31
0.0
 73
     1
 44
0.60024009603842
  0
ENDBLK
  5
234
330
22C
100
AcDbEntity
  8
0
100
AcDbBlockEnd
  0
BLOCK
  5
23E
330
237
100
AcDbEntity
  8
0
100
AcDbBlockBegin
  2
*D20
 70
     1
 10
0.0
 20
0.0
 30
0.0
  3
*D20
  1

  0
LINE
  5
238
330
237
100
AcDbEntity
  8
1
  6
Continuous
 62
     4
100
AcDbLine
 10
0.0000000000002
 20
-118.6718278969915
 30
0.0
 11
205.285521321048
 21
-118.6718278969915
 31
0.0
  0
LINE
  5
239
330
237
100
AcDbEntity
  8
1
  6
Continuous
 62
     4
100
AcDbLine
 10
0.0000000000002
 20
-83.76044499172639
 30
0.0
 11
0.0000000000002
 21
-120.6718278969915
 31
0.0
  0
LINE
  5
23A
330
237
100
AcDbEntity
  8
1
  6
Continuous
 62
     4
100
AcDbLine
 10
205.285521321048
 20
-73.03718436640082
 30
0.0
 11
205.285521321048
 21
-120.6718278969915
 31
0.0
  0
SOLID
  5
23B
330
237
100
AcDbEntity
  8
1
 62
     4
100
AcDbTrace
 10
198.285521321048
 20
-119.5933953801033
 30
0.0
 11
198.285521321048
 21
-117.7502604138797
 31
0.0
 12
205.285521321048
 22
-118.6718278969915
 32
0.0
 13
205.285521321048
 23
-118.6718278969915
 33
0.0
  0
SOLID
  5
23C
330
237
100
AcDbEntity
  8
1
 62
     4
100
AcDbTrace
 10
7.0000000000002
 20
-117.7502604138797
 30
0.0
 11
7.0000000000002
 21
-119.5933953801033
 31
0.0
 12
0.0000000000002
 22
-118.6718278969915
 32
0.0
 13
0.0000000000002
 23
-118.6718278969915
 33
0.0
  0
MTEXT
  5
23D
330
237
100
AcDbEntity
  8
1
 62
     1
100
AcDbMText
 10
111.9926772349968
 20
-116.6718278969915
 30
0.0
 40
7.0
 41
0.0
 71
     7
 72
     1
  1
205
  7
CONVERTER_11
 11
0.9999999999970619
 21
2.424068405545306E-6
 31
0.0
 73
     1
 44
0.60024009603842
  0
ENDBLK
  5
23F
330
237
100
AcDbEntity
  8
0
100
AcDbBlockEnd
  0
BLOCK
  5
249
330
242
100
AcDbEntity
  8
0
100
AcDbBlockBegin
  2
*D21
 70
     1
 10
0.0
 20
0.0
 30
0.0
  3
*D21
  1

  0
LINE
  5
243
330
242
100
AcDbEntity
  8
1
  6
Continuous
 62
     4
100
AcDbLine
 10
95.23219943089349
 20
-103.6813245731548
 30
0.0
 11
205.285521321048
 21
-103.6813245731548
 31
0.0
  0
LINE
  5
244
330
242
100
AcDbEntity
  8
1
  6
Continuous
 62
     4
100
AcDbLine
 10
95.23219943089349
 20
-32.91763599070394
 30
0.0
 11
95.23219943089349
 21
-105.6813245731548
 31
0.0
  0
LINE
  5
245
330
242
100
AcDbEntity
  8
1
  6
Continuous
 62
     4
100
AcDbLine
 10
205.285521321048
 20
-73.03718436640082
 30
0.0
 11
205.285521321048
 21
-105.6813245731548
 31
0.0
  0
SOLID
  5
246
330
242
100
AcDbEntity
  8
1
 62
     4
100
AcDbTrace
 10
198.285521321048
 20
-104.6028920562666
 30
0.0
 11
198.285521321048
 21
-102.759757090043
 31
0.0
 12
205.285521321048
 22
-103.6813245731548
 32
0.0
 13
205.285521321048
 23
-103.6813245731548
 33
0.0
  0
SOLID
  5
247
330
242
100
AcDbEntity
  8
1
 62
     4
100
AcDbTrace
 10
102.2321994308935
 20
-102.759757090043
 30
0.0
 11
102.2321994308935
 21
-104.6028920562666
 31
0.0
 12
95.23219943089349
 22
-103.6813245731548
 32
0.0
 13
95.23219943089349
 23
-103.6813245731548
 33
0.0
  0
MTEXT
  5
248
330
242
100
AcDbEntity
  8
1
 62
     1
100
AcDbMText
 10
143.6453837877034
 20
-101.6813245731548
 30
0.0
 40
7.0
 41
0.0
 71
     7
 72
     1
  1
110
  7
CONVERTER_11
 11
0.9999999999970619
 21
2.424068405545306E-6
 31
0.0
 73
     1
 44
0.60024009603842
  0
ENDBLK
  5
24A
330
242
100
AcDbEntity
  8
0
100
AcDbBlockEnd
  0
BLOCK
  5
254
330
24D
100
AcDbEntity
  8
0
100
AcDbBlockBegin
  2
*D22
 70
     1
 10
0.0
 20
0.0
 30
0.0
  3
*D22
  1

  0
LINE
  5
24E
330
24D
100
AcDbEntity
  8
1
  6
Continuous
 62
     4
100
AcDbLine
 10
-131.758279751656
 20
0.0
 30
0.0
 11
-131.758279751656
 21
-192.9955213210459
 31
0.0
  0
LINE
  5
24F
330
24D
100
AcDbEntity
  8
1
  6
Continuous
 62
     4
100
AcDbLine
 10
37.93282871342089
 20
-192.9955213210459
 30
0.0
 11
-133.758279751656
 21
-192.9955213210459
 31
0.0
  0
LINE
  5
250
330
24D
100
AcDbEntity
  8
1
  6
Continuous
 62
     4
100
AcDbLine
 10
-55.00000000000007
 20
0.0
 30
0.0
 11
-133.758279751656
 21
0.0
 31
0.0
  0
SOLID
  5
251
330
24D
100
AcDbEntity
  8
1
 62
     4
100
AcDbTrace
 10
-130.8367122685442
 20
-7.0
 30
0.0
 11
-132.6798472347678
 21
-7.0
 31
0.0
 12
-131.758279751656
 22
0.0
 32
0.0
 13
-131.758279751656
 23
0.0
 33
0.0
  0
SOLID
  5
252
330
24D
100
AcDbEntity
  8
1
 62
     4
100
AcDbTrace
 10
-132.6798472347678
 20
-185.9955213210459
 30
0.0
 11
-130.8367122685442
 21
-185.9955213210459
 31
0.0
 12
-131.758279751656
 22
-192.9955213210459
 32
0.0
 13
-131.758279751656
 23
-192.9955213210459
 33
0.0
  0
MTEXT
  5
253
330
24D
100
AcDbEntity
  8
1
 62
     1
100
AcDbMText
 10
-133.758279751656
 20
-100.8104406955471
 30
0.0
 40
7.0
 41
0.0
 71
     7
 72
     1
  1
193
  7
CONVERTER_11
 11
0.0
 21
1.0
 31
0.0
 73
     1
 44
0.60024009603842
  0
ENDBLK
  5
255
330
24D
100
AcDbEntity
  8
0
100
AcDbBlockEnd
  0
BLOCK
  5
25F
330
258
100
AcDbEntity
  8
0
100
AcDbBlockBegin
  2
*D23
 70
     1
 10
0.0
 20
0.0
 30
0.0
  3
*D23
  1

  0
LINE
  5
259
330
258
100
AcDbEntity
  8
1
  6
Continuous
 62
     4
100
AcDbLine
 10
-119.5232771809575
 20
0.0
 30
0.0
 11
-119.5232771809575
 21
-82.99999998235442
 31
0.0
  0
LINE
  5
25A
330
258
100
AcDbEntity
  8
1
  6
Continuous
 62
     4
100
AcDbLine
 10
36.8348847065314
 20
-82.99999998235442
 30
0.0
 11
-121.5232771809575
 21
-82.99999998235442
 31
0.0
  0
LINE
  5
25B
330
258
100
AcDbEntity
  8
1
  6
Continuous
 62
     4
100
AcDbLine
 10
-55.00000000000007
 20
0.0
 30
0.0
 11
-121.5232771809575
 21
0.0
 31
0.0
  0
SOLID
  5
25C
330
258
100
AcDbEntity
  8
1
 62
     4
100
AcDbTrace
 10
-118.6017096978457
 20
-7.0
 30
0.0
 11
-120.4448446640693
 21
-7.0
 31
0.0
 12
-119.5232771809575
 22
0.0
 32
0.0
 13
-119.5232771809575
 23
0.0
 33
0.0
  0
SOLID
  5
25D
330
258
100
AcDbEntity
  8
1
 62
     4
100
AcDbTrace
 10
-120.4448446640693
 20
-75.99999998235442
 30
0.0
 11
-118.6017096978457
 21
-75.99999998235442
 31
0.0
 12
-119.5232771809575
 22
-82.99999998235442
 32
0.0
 13
-119.5232771809575
 23
-82.99999998235442
 33
0.0
  0
MTEXT
  5
25E
330
258
100
AcDbEntity
  8
1
 62
     1
100
AcDbMText
 10
-121.5232771809575
 20
-46.7499999911779
 30
0.0
 40
7.0
 41
0.0
 71
     7
 72
     1
  1
83
  7
CONVERTER_11
 11
0.0
 21
1.0
 31
0.0
 73
     1
 44
0.60024009603842
  0
ENDBLK
  5
260
330
258
100
AcDbEntity
  8
0
100
AcDbBlockEnd
  0
ENDSEC
  0
SECTION
  2
ENTITIES
  0
INSERT
  5
90
330
1F
100
AcDbEntity
  8
0
100
AcDbBlockReference
  2
HL_522V_Brausetassensifon
 10
40.8943592354977
 20
-81.31901785013655
 30
0.0
  0
INSERT
  5
91
330
1F
100
AcDbEntity
  8
0
100
AcDbBlockReference
  2
GV_Einsatz-Rohr
 10
0.00000000000003
 20
8.5
 30
0.0
  0
INSERT
  5
92
330
1F
100
AcDbEntity
  8
0
100
AcDbBlockReference
  2
Holländermutter_1_Zoll
 10
-58.69642582332727
 20
-59.99999998235626
 30
0.0
  0
INSERT
  5
93
330
1F
100
AcDbEntity
  8
0
100
AcDbBlockReference
  2
HL19_2Körper
 10
-70.31884014708017
 20
-38.70912476488275
 30
0.0
  0
INSERT
  5
94
330
1F
100
AcDbEntity
  8
0
100
AcDbBlockReference
  2
11073-Kappenhalter-520-522-verpresst
 10
-0.0000000000002
 20
9.4063671470997
 30
0.0
  0
ENDSEC
  0
SECTION
  2
OBJECTS
  0
DICTIONARY
  5
C
330
0
100
AcDbDictionary
281
     1
  3
ACAD_GROUP
350
D
  3
ACAD_LAYOUT
350
1A
  3
ACAD_MLEADERSTYLE
350
32C
  3
ACAD_MLINESTYLE
350
17
  3
ACAD_PLOTSETTINGS
350
19
  3
ACAD_PLOTSTYLENAME
350
E
  3
ACAD_SCALELIST
350
47
  3
ACAD_VISUALSTYLE
350
2A
  3
AcDbVariableDictionary
350
32A
  0
DICTIONARY
  5
D
102
{ACAD_REACTORS
330
C
102
}
330
C
100
AcDbDictionary
281
     1
  0
DICTIONARY
  5
1A
102
{ACAD_REACTORS
330
C
102
}
330
C
100
AcDbDictionary
281
     1
  3
Layout1
350
1E
  3
Layout2
350
26
  3
Model
350
22
  0
DICTIONARY
  5
32C
102
{ACAD_REACTORS
330
C
102
}
330
C
100
AcDbDictionary
281
     1
  0
DICTIONARY
  5
17
102
{ACAD_REACTORS
330
C
102
}
330
C
100
AcDbDictionary
281
     1
  3
Standard
350
18
  0
DICTIONARY
  5
19
102
{ACAD_REACTORS
330
C
102
}
330
C
100
AcDbDictionary
281
     1
  0
ACDBDICTIONARYWDFLT
  5
E
102
{ACAD_REACTORS
330
C
102
}
330
C
100
AcDbDictionary
281
     1
  3
Normal
350
F
100
AcDbDictionaryWithDefault
340
F
  0
DICTIONARY
  5
47
102
{ACAD_REACTORS
330
C
102
}
330
C
100
AcDbDictionary
281
     1
  3
A0
350
48
  3
A1
350
49
  3
A2
350
4A
  3
A3
350
4B
  3
A4
350
4C
  3
A5
350
4D
  3
A6
350
4E
  3
A7
350
4F
  3
A8
350
50
  3
A9
350
51
  3
B0
350
52
  3
B1
350
53
  3
B2
350
54
  3
B3
350
55
  3
B4
350
56
  3
B5
350
57
  3
B6
350
58
  3
B7
350
59
  3
B8
350
5A
  3
B9
350
5B
  3
C0
350
5C
  3
C1
350
5D
  3
C2
350
5E
  3
C3
350
5F
  3
C4
350
60
  3
C5
350
61
  3
C6
350
62
  3
C7
350
63
  3
C8
350
64
  3
C9
350
65
  3
D0
350
66
  3
D1
350
67
  3
D2
350
68
  0
DICTIONARY
  5
2A
102
{ACAD_REACTORS
330
C
102
}
330
C
100
AcDbDictionary
281
     1
  3
2dWireframe
350
2F
  3
3D Hidden
350
31
  3
3dWireframe
350
30
  3
Basic
350
32
  3
Brighten
350
36
  3
ColorChange
350
3A
  3
Conceptual
350
34
  3
Dim
350
35
  3
Facepattern
350
39
  3
Flat
350
2B
  3
FlatWithEdges
350
2C
  3
Gouraud
350
2D
  3
GouraudWithEdges
350
2E
  3
Linepattern
350
38
  3
Realistic
350
33
  3
Thicken
350
37
  0
DICTIONARY
  5
32A
102
{ACAD_REACTORS
330
C
102
}
330
C
100
AcDbDictionary
281
     1
  3
CANNOSCALE
350
32D
  0
LAYOUT
  5
1E
102
{ACAD_REACTORS
330
1A
102
}
330
1A
100
AcDbPlotSettings
  1

  2
none_device
  4

  6

 40
0.0
 41
0.0
 42
0.0
 43
0.0
 44
0.0
 45
0.0
 46
0.0
 47
0.0
 48
0.0
 49
0.0
140
0.0
141
0.0
142
1.0
143
1.0
 70
   688
 72
     0
 73
     0
 74
     5
  7

 75
    16
147
1.0
148
0.0
149
0.0
100
AcDbLayout
  1
Layout1
 70
     1
 71
     1
 10
0.0
 20
0.0
 11
12.0
 21
9.0
 12
0.0
 22
0.0
 32
0.0
 14
1.00000000000000E+20
 24
1.00000000000000E+20
 34
1.00000000000000E+20
 15
-1.00000000000000E+20
 25
-1.00000000000000E+20
 35
-1.00000000000000E+20
146
0.0
 13
0.0
 23
0.0
 33
0.0
 16
1.0
 26
0.0
 36
0.0
 17
0.0
 27
1.0
 37
0.0
 76
     0
330
1B
  0
LAYOUT
  5
26
102
{ACAD_REACTORS
330
1A
102
}
330
1A
100
AcDbPlotSettings
  1

  2
none_device
  4

  6

 40
0.0
 41
0.0
 42
0.0
 43
0.0
 44
0.0
 45
0.0
 46
0.0
 47
0.0
 48
0.0
 49
0.0
140
0.0
141
0.0
142
1.0
143
1.0
 70
   688
 72
     0
 73
     0
 74
     5
  7

 75
    16
147
1.0
148
0.0
149
0.0
100
AcDbLayout
  1
Layout2
 70
     1
 71
     2
 10
0.0
 20
0.0
 11
0.0
 21
0.0
 12
0.0
 22
0.0
 32
0.0
 14
0.0
 24
0.0
 34
0.0
 15
0.0
 25
0.0
 35
0.0
146
0.0
 13
0.0
 23
0.0
 33
0.0
 16
1.0
 26
0.0
 36
0.0
 17
0.0
 27
1.0
 37
0.0
 76
     0
330
23
  0
LAYOUT
  5
22
102
{ACAD_REACTORS
330
1A
102
}
330
1A
100
AcDbPlotSettings
  1

  2
none_device
  4

  6

 40
0.0
 41
0.0
 42
0.0
 43
0.0
 44
0.0
 45
0.0
 46
0.0
 47
0.0
 48
0.0
 49
0.0
140
0.0
141
0.0
142
1.0
143
1.0
 70
  1712
 72
     0
 73
     0
 74
     0
  7

 75
     0
147
1.0
148
0.0
149
0.0
100
AcDbLayout
  1
Model
 70
     1
 71
     0
 10
0.0
 20
0.0
 11
12.0
 21
9.0
 12
0.0
 22
0.0
 32
0.0
 14
-140.758279751656
 24
-210.6148478400113
 34
0.0
 15
222.5469982226514
 25
47.9768121397382
 35
0.0
146
0.0
 13
0.0
 23
0.0
 33
0.0
 16
1.0
 26
0.0
 36
0.0
 17
0.0
 27
1.0
 37
0.0
 76
     0
330
1F
331
29
  0
MLINESTYLE
  5
18
102
{ACAD_REACTORS
330
17
102
}
330
17
100
AcDbMlineStyle
  2
Standard
 70
     0
  3

 62
   256
 51
90.0
 52
90.0
 71
     2
 49
0.5
 62
   256
  6
BYLAYER
 49
-0.5
 62
   256
  6
BYLAYER
  0
ACDBPLACEHOLDER
  5
F
102
{ACAD_REACTORS
330
E
102
}
330
E
  0
SCALE
  5
48
102
{ACAD_REACTORS
330
47
102
}
330
47
100
AcDbScale
 70
     0
300
1:1
140
1.0
141
1.0
290
     1
  0
SCALE
  5
49
102
{ACAD_REACTORS
330
47
102
}
330
47
100
AcDbScale
 70
     0
300
1:2
140
1.0
141
2.0
290
     0
  0
SCALE
  5
4A
102
{ACAD_REACTORS
330
47
102
}
330
47
100
AcDbScale
 70
     0
300
1:4
140
1.0
141
4.0
290
     0
  0
SCALE
  5
4B
102
{ACAD_REACTORS
330
47
102
}
330
47
100
AcDbScale
 70
     0
300
1:5
140
1.0
141
5.0
290
     0
  0
SCALE
  5
4C
102
{ACAD_REACTORS
330
47
102
}
330
47
100
AcDbScale
 70
     0
300
1:8
140
1.0
141
8.0
290
     0
  0
SCALE
  5
4D
102
{ACAD_REACTORS
330
47
102
}
330
47
100
AcDbScale
 70
     0
300
1:10
140
1.0
141
10.0
290
     0
  0
SCALE
  5
4E
102
{ACAD_REACTORS
330
47
102
}
330
47
100
AcDbScale
 70
     0
300
1:16
140
1.0
141
16.0
290
     0
  0
SCALE
  5
4F
102
{ACAD_REACTORS
330
47
102
}
330
47
100
AcDbScale
 70
     0
300
1:20
140
1.0
141
20.0
290
     0
  0
SCALE
  5
50
102
{ACAD_REACTORS
330
47
102
}
330
47
100
AcDbScale
 70
     0
300
1:30
140
1.0
141
30.0
290
     0
  0
SCALE
  5
51
102
{ACAD_REACTORS
330
47
102
}
330
47
100
AcDbScale
 70
     0
300
1:40
140
1.0
141
40.0
290
     0
  0
SCALE
  5
52
102
{ACAD_REACTORS
330
47
102
}
330
47
100
AcDbScale
 70
     0
300
1:50
140
1.0
141
50.0
290
     0
  0
SCALE
  5
53
102
{ACAD_REACTORS
330
47
102
}
330
47
100
AcDbScale
 70
     0
300
1:100
140
1.0
141
100.0
290
     0
  0
SCALE
  5
54
102
{ACAD_REACTORS
330
47
102
}
330
47
100
AcDbScale
 70
     0
300
2:1
140
2.0
141
1.0
290
     0
  0
SCALE
  5
55
102
{ACAD_REACTORS
330
47
102
}
330
47
100
AcDbScale
 70
     0
300
4:1
140
4.0
141
1.0
290
     0
  0
SCALE
  5
56
102
{ACAD_REACTORS
330
47
102
}
330
47
100
AcDbScale
 70
     0
300
8:1
140
8.0
141
1.0
290
     0
  0
SCALE
  5
57
102
{ACAD_REACTORS
330
47
102
}
330
47
100
AcDbScale
 70
     0
300
10:1
140
10.0
141
1.0
290
     0
  0
SCALE
  5
58
102
{ACAD_REACTORS
330
47
102
}
330
47
100
AcDbScale
 70
     0
300
100:1
140
100.0
141
1.0
290
     0
  0
SCALE
  5
59
102
{ACAD_REACTORS
330
47
102
}
330
47
100
AcDbScale
 70
     0
300
1/128" = 1'-0"
140
0.0078125
141
12.0
290
     0
  0
SCALE
  5
5A
102
{ACAD_REACTORS
330
47
102
}
330
47
100
AcDbScale
 70
     0
300
1/64" = 1'-0"
140
0.015625
141
12.0
290
     0
  0
SCALE
  5
5B
102
{ACAD_REACTORS
330
47
102
}
330
47
100
AcDbScale
 70
     0
300
1/32" = 1'-0"
140
0.03125
141
12.0
290
     0
  0
SCALE
  5
5C
102
{ACAD_REACTORS
330
47
102
}
330
47
100
AcDbScale
 70
     0
300
1/16" = 1'-0"
140
0.0625
141
12.0
290
     0
  0
SCALE
  5
5D
102
{ACAD_REACTORS
330
47
102
}
330
47
100
AcDbScale
 70
     0
300
3/32" = 1'-0"
140
0.09375
141
12.0
290
     0
  0
SCALE
  5
5E
102
{ACAD_REACTORS
330
47
102
}
330
47
100
AcDbScale
 70
     0
300
1/8" = 1'-0"
140
0.125
141
12.0
290
     0
  0
SCALE
  5
5F
102
{ACAD_REACTORS
330
47
102
}
330
47
100
AcDbScale
 70
     0
300
3/16" = 1'-0"
140
0.1875
141
12.0
290
     0
  0
SCALE
  5
60
102
{ACAD_REACTORS
330
47
102
}
330
47
100
AcDbScale
 70
     0
300
1/4" = 1'-0"
140
0.25
141
12.0
290
     0
  0
SCALE
  5
61
102
{ACAD_REACTORS
330
47
102
}
330
47
100
AcDbScale
 70
     0
300
3/8" = 1'-0"
140
0.375
141
12.0
290
     0
  0
SCALE
  5
62
102
{ACAD_REACTORS
330
47
102
}
330
47
100
AcDbScale
 70
     0
300
1/2" = 1'-0"
140
0.5
141
12.0
290
     0
  0
SCALE
  5
63
102
{ACAD_REACTORS
330
47
102
}
330
47
100
AcDbScale
 70
     0
300
3/4" = 1'-0"
140
0.75
141
12.0
290
     0
  0
SCALE
  5
64
102
{ACAD_REACTORS
330
47
102
}
330
47
100
AcDbScale
 70
     0
300
1" = 1'-0"
140
1.0
141
12.0
290
     0
  0
SCALE
  5
65
102
{ACAD_REACTORS
330
47
102
}
330
47
100
AcDbScale
 70
     0
300
1-1/2" = 1'-0"
140
1.5
141
12.0
290
     0
  0
SCALE
  5
66
102
{ACAD_REACTORS
330
47
102
}
330
47
100
AcDbScale
 70
     0
300
3" = 1'-0"
140
3.0
141
12.0
290
     0
  0
SCALE
  5
67
102
{ACAD_REACTORS
330
47
102
}
330
47
100
AcDbScale
 70
     0
300
6" = 1'-0"
140
6.0
141
12.0
290
     0
  0
SCALE
  5
68
102
{ACAD_REACTORS
330
47
102
}
330
47
100
AcDbScale
 70
     0
300
1'-0" = 1'-0"
140
12.0
141
12.0
290
     0
  0
VISUALSTYLE
  5
2F
102
{ACAD_REACTORS
330
2A
102
}
330
2A
100
AcDbVisualStyle
  2
2dWireframe
 70
     4
 71
     0
 72
     2
 73
     0
 90
        0
 40
-0.6
 41
-30.0
 62
     5
 63
     7
 74
     1
 91
        4
 64
     7
 65
   257
 75
     1
175
     1
 42
1.0
 92
        0
 66
   257
 43
1.0
 76
     1
 77
     6
 78
     2
 67
     7
 79
     5
170
     0
171
     0
290
     0
174
     0
 93
        1
 44
0.0
173
     0
291
     0
 45
0.0
1001
ACAD
1000
AcDbSavedByObjectVersion
1070
     0
  0
VISUALSTYLE
  5
31
102
{ACAD_REACTORS
330
2A
102
}
330
2A
100
AcDbVisualStyle
  2
3D Hidden
 70
     6
 71
     1
 72
     2
 73
     2
 90
        0
 40
-0.6
 41
-30.0
 62
     5
 63
     7
 74
     2
 91
        2
 64
     7
 65
   257
 75
     2
175
     1
 42
40.0
 92
        0
 66
   257
 43
1.0
 76
     1
 77
     6
 78
     2
 67
     7
 79
     3
170
     0
171
     0
290
     0
174
     0
 93
        1
 44
0.0
173
     0
291
     0
 45
0.0
1001
ACAD
1000
AcDbSavedByObjectVersion
1070
     0
  0
VISUALSTYLE
  5
30
102
{ACAD_REACTORS
330
2A
102
}
330
2A
100
AcDbVisualStyle
  2
3dWireframe
 70
     5
 71
     0
 72
     2
 73
     0
 90
        0
 40
-0.6
 41
-30.0
 62
     5
 63
     7
 74
     1
 91
        4
 64
     7
 65
   257
 75
     1
175
     1
 42
1.0
 92
        0
 66
   257
 43
1.0
 76
     1
 77
     6
 78
     2
 67
     7
 79
     5
170
     0
171
     0
290
     0
174
     0
 93
        1
 44
0.0
173
     0
291
     0
 45
0.0
1001
ACAD
1000
AcDbSavedByObjectVersion
1070
     0
  0
VISUALSTYLE
  5
32
102
{ACAD_REACTORS
330
2A
102
}
330
2A
100
AcDbVisualStyle
  2
Basic
 70
     7
 71
     1
 72
     0
 73
     1
 90
        0
 40
-0.6
 41
-30.0
 62
     5
 63
     7
 74
     0
 91
        4
 64
     7
 65
   257
 75
     1
175
     1
 42
1.0
 92
        8
 66
     7
 43
1.0
 76
     1
 77
     6
 78
     2
 67
     7
 79
     5
170
     0
171
     0
290
     0
174
     0
 93
        1
 44
0.0
173
     0
291
     1
 45
0.0
1001
ACAD
1000
AcDbSavedByObjectVersion
1070
     0
  0
VISUALSTYLE
  5
36
102
{ACAD_REACTORS
330
2A
102
}
330
2A
100
AcDbVisualStyle
  2
Brighten
 70
    12
 71
     2
 72
     2
 73
     0
 90
        0
 40
-0.6
 41
-30.0
 62
     5
 63
     7
 74
     1
 91
        4
 64
     7
 65
   257
 75
     1
175
     1
 42
1.0
 92
        8
 66
     7
 43
1.0
 76
     1
 77
     6
 78
     2
 67
     7
 79
     5
170
     0
171
     0
290
     0
174
     0
 93
        1
 44
50.0
173
     0
291
     1
 45
0.0
1001
ACAD
1000
AcDbSavedByObjectVersion
1070
     0
  0
VISUALSTYLE
  5
3A
102
{ACAD_REACTORS
330
2A
102
}
330
2A
100
AcDbVisualStyle
  2
ColorChange
 70
    16
 71
     2
 72
     2
 73
     3
 90
        0
 40
-0.6
 41
-30.0
 62
     5
 63
     8
 74
     1
 91
        4
 64
     7
 65
   257
 75
     1
175
     1
 42
1.0
 92
        8
 66
     8
 43
1.0
 76
     1
 77
     6
 78
     2
 67
     7
 79
     5
170
     0
171
     0
290
     0
174
     0
 93
        1
 44
0.0
173
     0
291
     1
 45
0.0
1001
ACAD
1000
AcDbSavedByObjectVersion
1070
     0
  0
VISUALSTYLE
  5
34
102
{ACAD_REACTORS
330
2A
102
}
330
2A
100
AcDbVisualStyle
  2
Conceptual
 70
     9
 71
     3
 72
     2
 73
     0
 90
        0
 40
-0.6
 41
-30.0
 62
     5
 63
     7
 74
     2
 91
        2
 64
     7
 65
   257
 75
     1
175
     1
 42
40.0
 92
        8
 66
     7
 43
1.0
 76
     1
 77
     6
 78
     2
 67
     7
 79
     3
170
     0
171
     0
290
     0
174
     0
 93
        1
 44
0.0
173
     0
291
     0
 45
0.0
1001
ACAD
1000
AcDbSavedByObjectVersion
1070
     0
  0
VISUALSTYLE
  5
35
102
{ACAD_REACTORS
330
2A
102
}
330
2A
100
AcDbVisualStyle
  2
Dim
 70
    11
 71
     2
 72
     2
 73
     0
 90
        0
 40
-0.6
 41
-30.0
 62
     5
 63
     7
 74
     1
 91
        4
 64
     7
 65
   257
 75
     1
175
     1
 42
1.0
 92
        8
 66
     7
 43
1.0
 76
     1
 77
     6
 78
     2
 67
     7
 79
     5
170
     0
171
     0
290
     0
174
     0
 93
        1
 44
-50.0
173
     0
291
     1
 45
0.0
1001
ACAD
1000
AcDbSavedByObjectVersion
1070
     0
  0
VISUALSTYLE
  5
39
102
{ACAD_REACTORS
330
2A
102
}
330
2A
100
AcDbVisualStyle
  2
Facepattern
 70
    15
 71
     2
 72
     2
 73
     0
 90
        0
 40
-0.6
 41
-30.0
 62
     5
 63
     7
 74
     1
 91
        4
 64
     7
 65
   257
 75
     1
175
     1
 42
1.0
 92
        8
 66
     7
 43
1.0
 76
     1
 77
     6
 78
     2
 67
     7
 79
     5
170
     0
171
     0
290
     0
174
     0
 93
        1
 44
0.0
173
     0
291
     1
 45
0.0
1001
ACAD
1000
AcDbSavedByObjectVersion
1070
     0
  0
VISUALSTYLE
  5
2B
102
{ACAD_REACTORS
330
2A
102
}
330
2A
100
AcDbVisualStyle
  2
Flat
 70
     0
 71
     2
 72
     1
 73
     1
 90
        2
 40
-0.6
 41
30.0
 62
     5
 63
     7
 74
     0
 91
        4
 64
     7
 65
   257
 75
     1
175
     1
 42
1.0
 92
        8
 66
     7
 43
1.0
 76
     1
 77
     6
 78
     2
 67
     7
 79
     5
170
     0
171
     0
290
     0
174
     0
 93
       13
 44
0.0
173
     0
291
     1
 45
0.0
1001
ACAD
1000
AcDbSavedByObjectVersion
1070
     0
  0
VISUALSTYLE
  5
2C
102
{ACAD_REACTORS
330
2A
102
}
330
2A
100
AcDbVisualStyle
  2
FlatWithEdges
 70
     1
 71
     2
 72
     1
 73
     1
 90
        2
 40
-0.6
 41
30.0
 62
     5
 63
     7
 74
     1
 91
        4
 64
     7
 65
   257
 75
     1
175
     1
 42
1.0
 92
        0
 66
   257
 43
1.0
 76
     1
 77
     6
 78
     2
 67
     7
 79
     5
170
     0
171
     0
290
     0
174
     0
 93
       13
 44
0.0
173
     0
291
     1
 45
0.0
1001
ACAD
1000
AcDbSavedByObjectVersion
1070
     0
  0
VISUALSTYLE
  5
2D
102
{ACAD_REACTORS
330
2A
102
}
330
2A
100
AcDbVisualStyle
  2
Gouraud
 70
     2
 71
     2
 72
     2
 73
     1
 90
        2
 40
-0.6
 41
30.0
 62
     5
 63
     7
 74
     0
 91
        4
 64
     7
 65
   257
 75
     1
175
     1
 42
1.0
 92
        0
 66
     7
 43
1.0
 76
     1
 77
     6
 78
     2
 67
     7
 79
     5
170
     0
171
     0
290
     0
174
     0
 93
       13
 44
0.0
173
     0
291
     1
 45
0.0
1001
ACAD
1000
AcDbSavedByObjectVersion
1070
     0
  0
VISUALSTYLE
  5
2E
102
{ACAD_REACTORS
330
2A
102
}
330
2A
100
AcDbVisualStyle
  2
GouraudWithEdges
 70
     3
 71
     2
 72
     2
 73
     1
 90
        2
 40
-0.6
 41
30.0
 62
     5
 63
     7
 74
     1
 91
        4
 64
     7
 65
   257
 75
     1
175
     1
 42
1.0
 92
        0
 66
   257
 43
1.0
 76
     1
 77
     6
 78
     2
 67
     7
 79
     5
170
     0
171
     0
290
     0
174
     0
 93
       13
 44
0.0
173
     0
291
     1
 45
0.0
1001
ACAD
1000
AcDbSavedByObjectVersion
1070
     0
  0
VISUALSTYLE
  5
38
102
{ACAD_REACTORS
330
2A
102
}
330
2A
100
AcDbVisualStyle
  2
Linepattern
 70
    14
 71
     2
 72
     2
 73
     0
 90
        0
 40
-0.6
 41
-30.0
 62
     5
 63
     7
 74
     1
 91
        4
 64
     7
 65
   257
 75
     7
175
     7
 42
1.0
 92
        8
 66
     7
 43
1.0
 76
     1
 77
     6
 78
     2
 67
     7
 79
     5
170
     0
171
     0
290
     0
174
     0
 93
        1
 44
0.0
173
     0
291
     1
 45
0.0
1001
ACAD
1000
AcDbSavedByObjectVersion
1070
     0
  0
VISUALSTYLE
  5
33
102
{ACAD_REACTORS
330
2A
102
}
330
2A
100
AcDbVisualStyle
  2
Realistic
 70
     8
 71
     2
 72
     2
 73
     0
 90
        0
 40
-0.6
 41
-30.0
 62
     5
 63
     7
 74
     1
 91
        0
 64
     7
 65
   257
 75
     1
175
     1
 42
1.0
 92
        8
 66
     8
 43
1.0
 76
     1
 77
     6
 78
     2
 67
     7
 79
     5
170
     0
171
     0
290
     0
174
     0
 93
       13
 44
0.0
173
     0
291
     0
 45
0.0
1001
ACAD
1000
AcDbSavedByObjectVersion
1070
     0
  0
VISUALSTYLE
  5
37
102
{ACAD_REACTORS
330
2A
102
}
330
2A
100
AcDbVisualStyle
  2
Thicken
 70
    13
 71
     2
 72
     2
 73
     0
 90
        0
 40
-0.6
 41
-30.0
 62
     5
 63
     7
 74
     1
 91
        4
 64
     7
 65
   257
 75
     1
175
     1
 42
1.0
 92
       12
 66
     7
 43
1.0
 76
     1
 77
     6
 78
     2
 67
     7
 79
     5
170
     0
171
     0
290
     0
174
     0
 93
        1
 44
0.0
173
     0
291
     1
 45
0.0
1001
ACAD
1000
AcDbSavedByObjectVersion
1070
     0
  0
DICTIONARYVAR
  5
32D
102
{ACAD_REACTORS
330
32A
102
}
330
32A
100
DictionaryVariables
280
     0
  1
1:1
  0
ENDSEC
  0
EOF
