  0
SECTION
  2
HEADER
  9
$ACADVER
  1
AC1014
  9
$ACADMAINTVER
 70
             0
  9
$DWGCODEPAGE
  3
ANSI_1252
  9
$INSBASE
 10
0.0
 20
0.0
 30
0.0
  9
$EXTMIN
 10
1.00000000000000E+20
 20
1.00000000000000E+20
 30
1.00000000000000E+20
  9
$EXTMAX
 10
-1.00000000000000E+20
 20
-1.00000000000000E+20
 30
-1.00000000000000E+20
  9
$LIMMIN
 10
0.0
 20
0.0
  9
$LIMMAX
 10
0.0
 20
0.0
  9
$ORTHOMODE
 70
             0
  9
$REGENMODE
 70
             1
  9
$FILLMODE
 70
             1
  9
$QTEXTMODE
 70
             0
  9
$MIRRTEXT
 70
             1
  9
$DRAGMODE
 70
             2
  9
$LTSCALE
 40
1.0
  9
$OSMODE
 70
             0
  9
$ATTMODE
 70
             1
  9
$TEXTSIZE
 40
0.2
  9
$TRACEWID
 40
0.05
  9
$TEXTSTYLE
  7
STANDARD
  9
$CLAYER
  8
0
  9
$CELTYPE
  6
CONTINUOUS
  9
$CECOLOR
 62
           256
  9
$CELTSCALE
 40
1.0
  9
$DELOBJ
 70
             1
  9
$DISPSILH
 70
             0
  9
$DIMSCALE
 40
1.0
  9
$DIMASZ
 40
0.18
  9
$DIMEXO
 40
0.0625
  9
$DIMDLI
 40
0.38
  9
$DIMRND
 40
0.0
  9
$DIMDLE
 40
0.0
  9
$DIMEXE
 40
0.18
  9
$DIMTP
 40
0.0
  9
$DIMTM
 40
0.0
  9
$DIMTXT
 40
0.18
  9
$DIMCEN
 40
0.09
  9
$DIMTSZ
 40
0.0
  9
$DIMTOL
 70
             0
  9
$DIMLIM
 70
             0
  9
$DIMTIH
 70
             1
  9
$DIMTOH
 70
             1
  9
$DIMSE1
 70
             0
  9
$DIMSE2
 70
             0
  9
$DIMTAD
 70
             0
  9
$DIMZIN
 70
             0
  9
$DIMBLK
  1

  9
$DIMASO
 70
             1
  9
$DIMSHO
 70
             1
  9
$DIMPOST
  1

  9
$DIMAPOST
  1

  9
$DIMALT
 70
             0
  9
$DIMALTD
 70
             2
  9
$DIMALTF
 40
25.4
  9
$DIMLFAC
 40
1.0
  9
$DIMTOFL
 70
             0
  9
$DIMTVP
 40
0.0
  9
$DIMTIX
 70
             0
  9
$DIMSOXD
 70
             0
  9
$DIMSAH
 70
             0
  9
$DIMBLK1
  1

  9
$DIMBLK2
  1

  9
$DIMSTYLE
  2
STANDARD
  9
$DIMCLRD
 70
             0
  9
$DIMCLRE
 70
             0
  9
$DIMCLRT
 70
             0
  9
$DIMTFAC
 40
1.0
  9
$DIMGAP
 40
0.09
  9
$DIMJUST
 70
             0
  9
$DIMSD1
 70
             0
  9
$DIMSD2
 70
             0
  9
$DIMTOLJ
 70
             1
  9
$DIMTZIN
 70
             0
  9
$DIMALTZ
 70
             0
  9
$DIMALTTZ
 70
             0
  9
$DIMFIT
 70
             3
  9
$DIMUPT
 70
             0
  9
$DIMUNIT
 70
             2
  9
$DIMDEC
 70
             4
  9
$DIMTDEC
 70
             4
  9
$DIMALTU
 70
             2
  9
$DIMALTTD
 70
             2
  9
$DIMTXSTY
  7
STANDARD
  9
$DIMAUNIT
 70
             0
  9
$LUNITS
 70
             2
  9
$LUPREC
 70
             4
  9
$SKETCHINC
 40
0.1
  9
$FILLETRAD
 40
0.0
  9
$AUNITS
 70
             0
  9
$AUPREC
 70
             0
  9
$MENU
  1
acad
  9
$ELEVATION
 40
0.0
  9
$PELEVATION
 40
0.0
  9
$THICKNESS
 40
0.0
  9
$LIMCHECK
 70
             0
  9
$BLIPMODE
 70
             1
  9
$CHAMFERA
 40
0.0
  9
$CHAMFERB
 40
0.0
  9
$CHAMFERC
 40
0.0
  9
$CHAMFERD
 40
0.0
  9
$SKPOLY
 70
             0
  9
$TDCREATE
 40
0.000000000
  9
$TDUPDATE
 40
0.000000000
  9
$TDINDWG
 40
0.0000000000
  9
$TDUSRTIMER
 40
0.0000000000
  9
$USRTIMER
 70
             1
  9
$ANGBASE
 50
0.0
  9
$ANGDIR
 70
             0
  9
$PDMODE
 70
             0
  9
$PDSIZE
 40
0.0
  9
$PLINEWID
 40
0.0
  9
$COORDS
 70
             0
  9
$SPLFRAME
 70
             0
  9
$SPLINETYPE
 70
             6
  9
$SPLINESEGS
 70
             8
  9
$ATTDIA
 70
             0
  9
$ATTREQ
 70
             1
  9
$HANDLING
 70
             1
  9
$HANDSEED
  5
11A
  9
$SURFTAB1
 70
             6
  9
$SURFTAB2
 70
             6
  9
$SURFTYPE
 70
             6
  9
$SURFU
 70
             6
  9
$SURFV
 70
             6
  9
$UCSNAME
  2

  9
$UCSORG
 10
0.0
 20
0.0
 30
0.0
  9
$UCSXDIR
 10
1.0
 20
0.0
 30
0.0
  9
$UCSYDIR
 10
0.0
 20
1.0
 30
0.0
  9
$PUCSNAME
  2

  9
$PUCSORG
 10
0.0
 20
0.0
 30
0.0
  9
$PUCSXDIR
 10
1.0
 20
0.0
 30
0.0
  9
$PUCSYDIR
 10
0.0
 20
1.0
 30
0.0
  9
$USERI1
 70
             0
  9
$USERI2
 70
             0
  9
$USERI3
 70
             0
  9
$USERI4
 70
             0
  9
$USERI5
 70
             0
  9
$USERR1
 40
11.6
  9
$USERR2
 40
0.0
  9
$USERR3
 40
0.0
  9
$USERR4
 40
0.0
  9
$USERR5
 40
0.0
  9
$WORLDVIEW
 70
             1
  9
$SHADEDGE
 70
             3
  9
$SHADEDIF
 70
            70
  9
$TILEMODE
 70
             1
  9
$MAXACTVP
 70
            16
  9
$PINSBASE
 10
0.0
 20
0.0
 30
0.0
  9
$PLIMCHECK
 70
             0
  9
$PEXTMIN
 10
1.00000000000000E+20
 20
1.00000000000000E+20
 30
1.00000000000000E+20
  9
$PEXTMAX
 10
-1.00000000000000E+20
 20
-1.00000000000000E+20
 30
-1.00000000000000E+20
  9
$PLIMMIN
 10
0.0
 20
0.0
  9
$PLIMMAX
 10
12.0
 20
9.0
  9
$UNITMODE
 70
             0
  9
$VISRETAIN
 70
             0
  9
$PLINEGEN
 70
             1
  9
$PSLTSCALE
 70
             0
  9
$TREEDEPTH
 70
          3020
  9
$PICKSTYLE
 70
             1
  9
$CMLSTYLE
  2
STANDARD
  9
$CMLJUST
 70
             0
  9
$CMLSCALE
 40
1.0
  9
$PROXYGRAPHICS
 70
             0
  9
$MEASUREMENT
 70
             1
  0
ENDSEC
  0
SECTION
  2
CLASSES
  0
CLASS
  1
LWPOLYLINE
  2
AcDbPolyline
  3
"AutoCAD"
 90
        0
280
             0
281
             1
  0
CLASS
  1
IMAGE
  2
AcDbRasterImage
  3
ISM
 90
      127
280
             0
281
             1
  0
CLASS
  1
OLE2FRAME
  2
AcDbOle2Frame
  3
""
 90
        0
280
             0
281
             1
  0
CLASS
  1
HATCH
  2
AcDbHatch
  3
"ACAD_SEDONA"
 90
        0
280
             0
281
             1
  0
CLASS
  1
DICTIONARYVAR
  2
AcDbDictionaryVar
  3
"AutoCAD"
 90
        0
280
             0
281
             0
  0
CLASS
  1
RASTERVARIABLES
  2
AcDbRasterVariables
  3
ISM
 90
        0
280
             0
281
             0
  0
CLASS
  1
IMAGEDEF
  2
AcDbRasterImageDef
  3
ISM
 90
        0
280
             0
281
             0
  0
CLASS
  1
IMAGEDEF_REACTOR
  2
AcDbRasterImageDefReactor
  3
ISM
 90
        1
280
             0
281
             0
  0
CLASS
  1
IDBUFFER
  2
AcDbIdBuffer
  3
"Acad"
 90
        0
280
             0
281
             0
  0
CLASS
  1
SPATIAL_FILTER
  2
AcDbSpatialFilter
  3
"Acad"
 90
        0
280
             0
281
             0
  0
CLASS
  1
XRECORD
  2
AcDbXrecord
  3
"<Built In>"
 90
        0
280
             0
281
             0
  0
CLASS
  1
SORTENTSTABLE
  2
AcDbSortentsTable
  3
"AutoCAD"
 90
        0
280
             0
281
             0
  0
CLASS
  1
LAYER_INDEX
  2
AcDbLayerIndex
  3
"Acad"
 90
        0
280
             0
281
             0
  0
CLASS
  1
SPATIAL_INDEX
  2
AcDbSpatialIndex
  3
"Acad"
 90
        0
280
             0
281
             0
  0
CLASS
  1
OBJECT_PTR
  2
CAseDLPNTableRecord
  3
"ASE-LPNTableRecord"
 90
        1
280
             0
281
             0
  0
CLASS
  1
LAYOUT
  2
AcDbLayout
  3
"AutoCAD 2000"
 90
        1
280
             0
281
             0
  0
CLASS
  1
PLOTSETTINGS
  2
AcDbPlotSettings
  3
"AutoCAD 2000"
 90
        1
280
             0
281
             0
  0
CLASS
  1
ACDBDICTIONARYWDFLT
  2
AcDbDictionaryWithDefault
  3
"AutoCAD 2000"
 90
        1
280
             0
281
             0
  0
CLASS
  1
ACDBPLACEHOLDER
  2
AcDbPlaceHolder
  3
"AutoCAD 2000"
 90
        1
280
             0
281
             0
  0
ENDSEC
  0
SECTION
  2
TABLES
  0
TABLE
  2
VPORT
  5
7
100
AcDbSymbolTable
 70
             1
  0
VPORT
  5
15
100
AcDbSymbolTableRecord
100
AcDbViewportTableRecord
  2
*ACTIVE
 70
             0
 10
0.0
 20
0.0
 11
1.0
 21
1.0
 12
74.33245080626176
 22
-1.29740318715496
 13
0.0
 23
0.0
 14
1.0
 24
1.0
 15
0.0
 25
0.0
 16
0.0
 26
0.0
 36
1.0
 17
0.0
 27
0.0
 37
0.0
 40
285.62723519531289
 41
1.60267857142857
 42
50.0
 43
0.0
 44
0.0
 50
0.0
 51
0.0
 71
             0
 72
           100
 73
             1
 74
             1
 75
             0
 76
             0
 77
             0
 78
             0
  0
ENDTAB
  0
TABLE
  2
LTYPE
  5
4
100
AcDbSymbolTable
 70
            11
  0
LTYPE
  5
11
100
AcDbSymbolTableRecord
100
AcDbLinetypeTableRecord
  2
BYBLOCK
 70
            64
  3

 72
            65
 73
             0
 40
0.0
  0
LTYPE
  5
12
100
AcDbSymbolTableRecord
100
AcDbLinetypeTableRecord
  2
BYLAYER
 70
            64
  3

 72
            65
 73
             0
 40
0.0
  0
LTYPE
  5
13
100
AcDbSymbolTableRecord
100
AcDbLinetypeTableRecord
  2
CONTINUOUS
 70
            64
  3
Solid line
 72
            65
 73
             0
 40
0.0
  0
LTYPE
  5
1D
100
AcDbSymbolTableRecord
100
AcDbLinetypeTableRecord
  2
DASHED
 70
            64
  3
Dashed
 72
            65
 73
             2
 40
15.0
 49
12.0
 74
             0
 49
-3.0
 74
             0
  0
LTYPE
  5
1E
100
AcDbSymbolTableRecord
100
AcDbLinetypeTableRecord
  2
DOTTED
 70
            64
  3
Dotted
 72
            65
 73
             2
 40
3.5
 49
0.5
 74
             0
 49
-3.0
 74
             0
  0
LTYPE
  5
1F
100
AcDbSymbolTableRecord
100
AcDbLinetypeTableRecord
  2
DOT_CENTER
 70
            64
  3
Dot_Center
 72
            65
 73
             4
 40
2.0
 49
1.25
 74
             0
 49
-0.25
 74
             0
 49
0.25
 74
             0
 49
-0.25
 74
             0
  0
LTYPE
  5
20
100
AcDbSymbolTableRecord
100
AcDbLinetypeTableRecord
  2
LONG_DASHED
 70
            64
  3
Long_Dashed
 72
            65
 73
             2
 40
2.0
 49
1.5
 74
             0
 49
-0.5
 74
             0
  0
LTYPE
  5
21
100
AcDbSymbolTableRecord
100
AcDbLinetypeTableRecord
  2
DASH_CENTER
 70
            64
  3
Dash_Center
 72
            65
 73
             4
 40
36.0
 49
24.0
 74
             0
 49
-3.0
 74
             0
 49
6.0
 74
             0
 49
-3.0
 74
             0
  0
LTYPE
  5
22
100
AcDbSymbolTableRecord
100
AcDbLinetypeTableRecord
  2
PHANTOM
 70
            64
  3
Phantom
 72
            65
 73
             6
 40
2.5
 49
1.25
 74
             0
 49
-0.25
 74
             0
 49
0.25
 74
             0
 49
-0.25
 74
             0
 49
0.25
 74
             0
 49
-0.25
 74
             0
  0
LTYPE
  5
23
100
AcDbSymbolTableRecord
100
AcDbLinetypeTableRecord
  2
CENTER_DASH_DASH
 70
            64
  3
Center_Dash_Dash
 72
            65
 73
             6
 40
22.0
 49
12.0
 74
             0
 49
-3.0
 74
             0
 49
0.5
 74
             0
 49
-3.0
 74
             0
 49
0.5
 74
             0
 49
-3.0
 74
             0
  0
LTYPE
  5
24
100
AcDbSymbolTableRecord
100
AcDbLinetypeTableRecord
  2
DASHDOT
 70
            64
  3
DASHDOT
 72
            65
 73
             4
 40
16.0
 49
10.0
 74
             0
 49
-3.0
 74
             0
 49
0.0
 74
             0
 49
-3.0
 74
             0
  0
ENDTAB
  0
TABLE
  2
LAYER
  5
2
100
AcDbSymbolTable
 70
             9
  0
LAYER
  5
14
100
AcDbSymbolTableRecord
100
AcDbLayerTableRecord
  2
0
 70
             0
 62
             7
  6
CONTINUOUS
  0
LAYER
  5
25
100
AcDbSymbolTableRecord
100
AcDbLayerTableRecord
  2
1
 70
             0
 62
             7
  6
CONTINUOUS
  0
LAYER
  5
26
100
AcDbSymbolTableRecord
100
AcDbLayerTableRecord
  2
LC-002-002-RND-0
 70
             0
 62
             7
  6
CONTINUOUS
  0
LAYER
  5
27
100
AcDbSymbolTableRecord
100
AcDbLayerTableRecord
  2
LC-003-002-----0
 70
             0
 62
             7
  6
CONTINUOUS
  0
LAYER
  5
28
100
AcDbSymbolTableRecord
100
AcDbLayerTableRecord
  2
LC-004-205-----0
 70
             0
 62
             7
  6
CONTINUOUS
  0
LAYER
  5
29
100
AcDbSymbolTableRecord
100
AcDbLayerTableRecord
  2
LC-005-003-----0
 70
             0
 62
             7
  6
CONTINUOUS
  0
LAYER
  5
2A
100
AcDbSymbolTableRecord
100
AcDbLayerTableRecord
  2
LC-005-207-----0
 70
             0
 62
             7
  6
CONTINUOUS
  0
LAYER
  5
2B
100
AcDbSymbolTableRecord
100
AcDbLayerTableRecord
  2
LC-009-207-----0
 70
             0
 62
             7
  6
CONTINUOUS
  0
LAYER
  5
2C
100
AcDbSymbolTableRecord
100
AcDbLayerTableRecord
  2
LC-010-005-----0
 70
             0
 62
             7
  6
CONTINUOUS
  0
ENDTAB
  0
TABLE
  2
STYLE
  5
3
100
AcDbSymbolTable
 70
             2
  0
STYLE
  5
17
100
AcDbSymbolTableRecord
100
AcDbTextStyleTableRecord
  2
STANDARD
 70
             0
 40
0.0
 41
1.0
 50
0.0
 71
             0
 42
0.0
  3
txt
  4

  0
STYLE
  5
CE
100
AcDbSymbolTableRecord
100
AcDbTextStyleTableRecord
  2
CONVERTER_1
 70
             0
 40
0.0
 41
0.9
 50
0.0
 71
             0
 42
0.0
  3
txt.shx
  4

  0
ENDTAB
  0
TABLE
  2
VIEW
  5
5
100
AcDbSymbolTable
 70
             0
  0
ENDTAB
  0
TABLE
  2
UCS
  5
6
100
AcDbSymbolTable
 70
             0
  0
ENDTAB
  0
TABLE
  2
APPID
  5
8
100
AcDbSymbolTable
 70
             1
  0
APPID
  5
16
100
AcDbSymbolTableRecord
100
AcDbRegAppTableRecord
  2
ACAD
 70
             0
  0
ENDTAB
  0
TABLE
  2
DIMSTYLE
  5
9
100
AcDbSymbolTable
 70
             8
  0
DIMSTYLE
105
18
100
AcDbSymbolTableRecord
100
AcDbDimStyleTableRecord
  2
STANDARD
 70
             0
  3

  4

  5

  6

  7

 40
1.0
 41
0.18
 42
0.0625
 43
0.38
 44
0.18
 45
0.0
 46
0.0
 47
0.0
 48
0.0
 71
             0
 72
             0
 73
             1
 74
             1
 75
             0
 76
             0
 77
             0
 78
             0
140
0.18
141
0.09
142
0.0
143
25.4
144
1.0
145
0.0
146
1.0
147
0.09
170
             0
171
             2
172
             0
173
             0
174
             0
175
             0
176
             0
177
             0
178
             0
270
             2
271
             4
272
             4
273
             2
274
             2
275
             0
280
             0
281
             0
282
             0
283
             1
284
             0
285
             0
286
             0
287
             0
288
             0
340
17
  0
DIMSTYLE
105
D1
100
AcDbSymbolTableRecord
100
AcDbDimStyleTableRecord
  2
ME10_DIM_0
 70
             0
  3
Ø<>
  4

  5

  6

  7

 40
1.0
 41
10.0
 42
0.0
 43
0.38
 44
2.0
 45
0.0
 46
0.0
 47
0.0
 48
0.0
 71
             0
 72
             0
 73
             0
 74
             0
 75
             0
 76
             0
 77
             1
 78
             8
140
10.0
141
0.09
142
0.0
143
25.4
144
1.0
145
0.0
146
1.0
147
0.625
170
             0
171
             2
172
             0
173
             1
174
             0
175
             0
176
             4
177
             4
178
             1
270
             2
271
             2
272
             4
273
             2
274
             2
275
             0
280
             0
281
             0
282
             0
283
             1
284
             0
285
             0
286
             0
287
             0
288
             0
340
17
  0
DIMSTYLE
105
DD
100
AcDbSymbolTableRecord
100
AcDbDimStyleTableRecord
  2
ME10_DIM_1
 70
             0
  3
DN<>
  4

  5

  6

  7

 40
1.0
 41
10.0
 42
0.0
 43
0.38
 44
2.0
 45
0.0
 46
0.0
 47
0.0
 48
0.0
 71
             0
 72
             0
 73
             0
 74
             0
 75
             0
 76
             0
 77
             1
 78
             8
140
10.0
141
0.09
142
0.0
143
25.4
144
1.0
145
0.0
146
1.0
147
0.625
170
             0
171
             2
172
             0
173
             1
174
             0
175
             0
176
             4
177
             4
178
             1
270
             2
271
             2
272
             4
273
             2
274
             2
275
             0
280
             0
281
             0
282
             0
283
             1
284
             0
285
             0
286
             0
287
             0
288
             0
340
17
  0
DIMSTYLE
105
E9
100
AcDbSymbolTableRecord
100
AcDbDimStyleTableRecord
  2
ME10_DIM_2
 70
             0
  3
DN<>
  4

  5

  6

  7

 40
1.0
 41
10.0
 42
0.0
 43
0.38
 44
2.0
 45
0.0
 46
0.0
 47
0.0
 48
0.0
 71
             0
 72
             0
 73
             0
 74
             0
 75
             0
 76
             0
 77
             1
 78
             8
140
10.0
141
0.09
142
0.0
143
25.4
144
1.0
145
0.0
146
1.0
147
0.625
170
             0
171
             2
172
             0
173
             1
174
             0
175
             0
176
             4
177
             4
178
             1
270
             2
271
             2
272
             4
273
             2
274
             2
275
             0
280
             0
281
             0
282
             0
283
             1
284
             0
285
             0
286
             0
287
             0
288
             0
340
17
  0
DIMSTYLE
105
F4
100
AcDbSymbolTableRecord
100
AcDbDimStyleTableRecord
  2
ME10_DIM_3
 70
             0
  3

  4

  5

  6

  7

 40
1.0
 41
10.0
 42
0.0
 43
0.38
 44
2.0
 45
0.0
 46
0.0
 47
0.0
 48
0.0
 71
             0
 72
             0
 73
             0
 74
             0
 75
             0
 76
             0
 77
             1
 78
             8
140
10.0
141
0.09
142
0.0
143
25.4
144
1.0
145
0.0
146
1.0
147
0.625
170
             0
171
             2
172
             0
173
             1
174
             0
175
             0
176
             4
177
             4
178
             1
270
             2
271
             2
272
             4
273
             2
274
             2
275
             0
280
             0
281
             0
282
             0
283
             1
284
             0
285
             0
286
             0
287
             0
288
             0
340
17
  0
DIMSTYLE
105
101
100
AcDbSymbolTableRecord
100
AcDbDimStyleTableRecord
  2
ME10_DIM_4
 70
             0
  3
0-<>(8-16)
  4

  5

  6

  7

 40
1.0
 41
10.0
 42
0.0
 43
0.38
 44
2.0
 45
0.0
 46
0.0
 47
0.0
 48
0.0
 71
             0
 72
             0
 73
             0
 74
             0
 75
             0
 76
             0
 77
             1
 78
             8
140
10.0
141
0.09
142
0.0
143
25.4
144
1.0
145
0.0
146
1.0
147
0.625
170
             0
171
             2
172
             0
173
             1
174
             0
175
             0
176
             4
177
             4
178
             1
270
             2
271
             2
272
             4
273
             2
274
             2
275
             0
280
             0
281
             0
282
             0
283
             1
284
             0
285
             0
286
             0
287
             0
288
             0
340
17
  0
DIMSTYLE
105
10C
100
AcDbSymbolTableRecord
100
AcDbDimStyleTableRecord
  2
ME10_DIM_5
 70
             0
  3

  4

  5

  6

  7

 40
1.0
 41
10.0
 42
0.0
 43
0.38
 44
2.0
 45
0.0
 46
0.0
 47
0.0
 48
0.0
 71
             0
 72
             0
 73
             0
 74
             0
 75
             0
 76
             0
 77
             1
 78
             8
140
10.0
141
0.09
142
0.0
143
25.4
144
1.0
145
0.0
146
1.0
147
0.625
170
             0
171
             2
172
             0
173
             1
174
             0
175
             0
176
             4
177
             4
178
             1
270
             2
271
             2
272
             4
273
             2
274
             2
275
             0
280
             0
281
             0
282
             0
283
             1
284
             0
285
             0
286
             0
287
             0
288
             0
340
17
  0
DIMSTYLE
105
117
100
AcDbSymbolTableRecord
100
AcDbDimStyleTableRecord
  2
ME10_DIM_6
 70
             0
  3

  4

  5

  6

  7

 40
1.0
 41
10.0
 42
0.0
 43
0.38
 44
2.0
 45
0.0
 46
0.0
 47
0.0
 48
0.0
 71
             0
 72
             0
 73
             0
 74
             0
 75
             0
 76
             0
 77
             1
 78
             8
140
10.0
141
0.09
142
0.0
143
25.4
144
1.0
145
0.0
146
1.0
147
0.625
170
             0
171
             2
172
             0
173
             1
174
             0
175
             0
176
             4
177
             4
178
             1
270
             2
271
             2
272
             4
273
             2
274
             2
275
             0
280
             0
281
             0
282
             0
283
             1
284
             0
285
             0
286
             0
287
             0
288
             0
340
17
  0
ENDTAB
  0
TABLE
  2
BLOCK_RECORD
  5
1
100
AcDbSymbolTable
 70
             8
  0
BLOCK_RECORD
  5
A
100
AcDbSymbolTableRecord
100
AcDbBlockTableRecord
  2
*MODEL_SPACE
  0
BLOCK_RECORD
  5
B
100
AcDbSymbolTableRecord
100
AcDbBlockTableRecord
  2
*PAPER_SPACE
  0
BLOCK_RECORD
  5
2D
100
AcDbSymbolTableRecord
100
AcDbBlockTableRecord
  2
HL_524_BRAUSETASSENSIFN__1
  0
BLOCK_RECORD
  5
C7
100
AcDbSymbolTableRecord
100
AcDbBlockTableRecord
  2
*D1
  0
BLOCK_RECORD
  5
D3
100
AcDbSymbolTableRecord
100
AcDbBlockTableRecord
  2
*D2
  0
BLOCK_RECORD
  5
DF
100
AcDbSymbolTableRecord
100
AcDbBlockTableRecord
  2
*D3
  0
BLOCK_RECORD
  5
EB
100
AcDbSymbolTableRecord
100
AcDbBlockTableRecord
  2
*D4
  0
BLOCK_RECORD
  5
F6
100
AcDbSymbolTableRecord
100
AcDbBlockTableRecord
  2
*D5
  0
BLOCK_RECORD
  5
103
100
AcDbSymbolTableRecord
100
AcDbBlockTableRecord
  2
*D6
  0
BLOCK_RECORD
  5
10E
100
AcDbSymbolTableRecord
100
AcDbBlockTableRecord
  2
*D7
  0
ENDTAB
  0
ENDSEC
  0
SECTION
  2
BLOCKS
  0
BLOCK
  5
D
100
AcDbEntity
  8
0
100
AcDbBlockBegin
  2
*MODEL_SPACE
 70
             0
 10
0.0
 20
0.0
 30
0.0
  3
*MODEL_SPACE
  1

  0
ENDBLK
  5
E
100
AcDbEntity
  8
0
100
AcDbBlockEnd
  0
BLOCK
  5
F
100
AcDbEntity
 67
             1
  8
0
100
AcDbBlockBegin
  2
*PAPER_SPACE
 70
             0
 10
0.0
 20
0.0
 30
0.0
  3
*PAPER_SPACE
  1

  0
ENDBLK
  5
10
100
AcDbEntity
 67
             1
  8
0
100
AcDbBlockEnd
  0
BLOCK
  5
2E
100
AcDbEntity
  8
0
100
AcDbBlockBegin
  2
HL_524_BRAUSETASSENSIFN__1
 70
             0
 10
267.68454548895932
 20
1151.1338619999999
 30
0.0
  3
HL_524_BRAUSETASSENSIFN__1
  1

  0
ARC
  5
C4
100
AcDbEntity
  8
LC-004-205-----0
  6
CONTINUOUS
 62
             7
100
AcDbCircle
 10
82.45076099999983
 20
-44.26610199999982
 40
29.59999999999953
100
AcDbArc
 50
102.92539099999991
 51
124.989538999999
  0
ARC
  5
C3
100
AcDbEntity
  8
LC-003-002-----0
  6
CONTINUOUS
 62
             7
100
AcDbCircle
 10
111.28329100000001
 20
-38.07454799999982
 40
66.51603299999968
100
AcDbArc
 50
164.45627400000032
 51
-152.77083699999955
  0
ARC
  5
C2
100
AcDbEntity
  8
LC-002-002-RND-0
  6
DASHED
 62
             7
100
AcDbCircle
 10
33.87465599999996
 20
186.17767300000011
 40
88.13000000000021
100
AcDbArc
 50
-101.12690099999983
 51
-93.88038800000022
  0
ARC
  5
C1
100
AcDbEntity
  8
LC-003-002-----0
  6
DASHED
 62
             7
100
AcDbCircle
 10
-0.14047000000005
 20
13.23097900000016
 40
88.13000000000024
100
AcDbArc
 50
78.87309900000018
 51
101.12690099999982
  0
ARC
  5
C0
100
AcDbEntity
  8
LC-002-002-RND-0
  6
DASHED
 62
             7
100
AcDbCircle
 10
-34.15559500000018
 20
186.17767300000011
 40
88.12999999999992
100
AcDbArc
 50
-86.11961199999978
 51
-78.87309900000004
  0
ARC
  5
BF
100
AcDbEntity
  8
LC-002-002-RND-0
  6
DASHED
 62
             7
100
AcDbCircle
 10
-36.14047000000005
 20
95.54383800000005
 40
1.50000000000058
100
AcDbArc
 50
103.2053680000069
 51
180.0
  0
ARC
  5
BE
100
AcDbEntity
  8
LC-002-002-RND-0
  6
DASHED
 62
             7
100
AcDbCircle
 10
-36.14047000000005
 20
95.54383800000005
 40
1.5
100
AcDbArc
 50
180.0
 51
-76.7946319999832
  0
ARC
  5
BD
100
AcDbEntity
  8
LC-003-002-----0
  6
DASHED
 62
             7
100
AcDbCircle
 10
-24.70122700000002
 20
46.79292400000009
 40
51.57502200000023
100
AcDbArc
 50
93.88038799999987
 51
103.20536799999998
  0
ARC
  5
BC
100
AcDbEntity
  8
LC-003-002-----0
  6
DASHED
 62
             7
100
AcDbCircle
 10
24.42028800000003
 20
46.79292400000009
 40
51.57502199999968
100
AcDbArc
 50
76.79463200000026
 51
86.1196120000004
  0
ARC
  5
BB
100
AcDbEntity
  8
LC-002-002-RND-0
  6
DASHED
 62
             7
100
AcDbCircle
 10
35.85952999999995
 20
95.54383800000005
 40
1.5
100
AcDbArc
 50
0.0
 51
76.7946319999931
  0
ARC
  5
BA
100
AcDbEntity
  8
LC-002-002-RND-0
  6
DASHED
 62
             7
100
AcDbCircle
 10
35.85952999999995
 20
95.54383800000005
 40
1.49999999999947
100
AcDbArc
 50
-103.20536800001682
 51
0.0
  0
ARC
  5
B9
100
AcDbEntity
  8
LC-002-002-RND-0
  6
DASHED
 62
             7
100
AcDbCircle
 10
17.35952999999995
 20
90.40566100000024
 40
2.0
100
AcDbArc
 50
0.0
 51
90.0
  0
ARC
  5
B8
100
AcDbEntity
  8
LC-002-002-RND-0
  6
DASHED
 62
             7
100
AcDbCircle
 10
-17.64047000000005
 20
90.40566100000024
 40
2.0
100
AcDbArc
 50
90.0
 51
180.0
  0
ARC
  5
B7
100
AcDbEntity
  8
LC-009-207-----0
  6
CONTINUOUS
 62
             7
100
AcDbCircle
 10
82.45076099999983
 20
-44.25899699999991
 40
31.69999999999986
100
AcDbArc
 50
52.0589279999996
 51
102.05578900000066
  0
ARC
  5
B6
100
AcDbEntity
  8
LC-009-207-----0
  6
CONTINUOUS
 62
             7
100
AcDbCircle
 10
82.45076099999983
 20
-44.25899699999991
 40
31.6999999999997
100
AcDbArc
 50
-102.17272799999928
 51
-52.05892799999961
  0
ARC
  5
B5
100
AcDbEntity
  8
LC-002-002-RND-0
  6
CONTINUOUS
 62
             7
100
AcDbCircle
 10
-36.90004199999999
 20
-8.5
 40
2.0
100
AcDbArc
 50
90.0
 51
175.49999999998931
  0
ARC
  5
B4
100
AcDbEntity
  8
LC-002-002-RND-0
  6
CONTINUOUS
 62
             7
100
AcDbCircle
 10
45.90004299999987
 20
-8.5
 40
1.99999999999976
100
AcDbArc
 50
4.50000000001069
 51
90.0
  0
ARC
  5
B3
100
AcDbEntity
  8
LC-002-002-RND-0
  6
CONTINUOUS
 62
             7
100
AcDbCircle
 10
-25.90000000000009
 20
2.05951600000003
 40
2.0
100
AcDbArc
 50
0.0
 51
70.00000000001067
  0
ARC
  5
B2
100
AcDbEntity
  8
LC-002-002-RND-0
  6
CONTINUOUS
 62
             7
100
AcDbCircle
 10
25.89999999999986
 20
2.05951600000003
 40
2.00000000000004
100
AcDbArc
 50
109.99999999998904
 51
180.0
  0
ARC
  5
B1
100
AcDbEntity
  8
LC-002-002-RND-0
  6
CONTINUOUS
 62
             7
100
AcDbCircle
 10
17.5
 20
12.39506499999993
 40
2.0
100
AcDbArc
 50
0.0
 51
90.0
  0
ARC
  5
B0
100
AcDbEntity
  8
LC-002-002-RND-0
  6
CONTINUOUS
 62
             7
100
AcDbCircle
 10
-17.5
 20
12.39506499999993
 40
2.0
100
AcDbArc
 50
90.0
 51
180.0
  0
ARC
  5
AF
100
AcDbEntity
  8
LC-002-002-RND-0
  6
CONTINUOUS
 62
             7
100
AcDbCircle
 10
-37.70000000000005
 20
-22.0
 40
1.5
100
AcDbArc
 50
180.0
 51
-90.0
  0
ARC
  5
AE
100
AcDbEntity
  8
LC-004-205-----0
  6
CONTINUOUS
 62
             7
100
AcDbCircle
 10
82.45076099999983
 20
-44.25899699999991
 40
29.60000000000007
100
AcDbArc
 50
-124.98953899999874
 51
-102.92539099999981
  0
ARC
  5
AD
100
AcDbEntity
  8
LC-002-002-RND-0
  6
CONTINUOUS
 62
             7
100
AcDbCircle
 10
48.75804999999991
 20
-108.0
 40
2.0
100
AcDbArc
 50
-90.0
 51
-1.99999999999722
  0
ARC
  5
AC
100
AcDbEntity
  8
LC-003-002-----0
  6
CONTINUOUS
 62
             7
100
AcDbCircle
 10
82.45076099999983
 20
-44.25899699999991
 40
32.49999999999994
100
AcDbArc
 50
102.25842499999962
 51
128.88107600000072
  0
ARC
  5
AB
100
AcDbEntity
  8
LC-002-002-RND-0
  6
CONTINUOUS
 62
             7
100
AcDbCircle
 10
-31.65805
 20
-108.0
 40
1.99999999999993
100
AcDbArc
 50
-178.00000000000279
 51
-90.0
  0
ARC
  5
AA
100
AcDbEntity
  8
LC-005-207-----0
  6
CONTINUOUS
 62
             7
100
AcDbCircle
 10
153.7495700000004
 20
-22.51254999999992
 40
3.25
100
AcDbArc
 50
0.0
 51
90.0
  0
ARC
  5
A9
100
AcDbEntity
  8
LC-005-207-----0
  6
CONTINUOUS
 62
             7
100
AcDbCircle
 10
157.9995700000004
 20
-28.26254999999992
 40
1.0
100
AcDbArc
 50
180.0
 51
-90.0
  0
ARC
  5
A8
100
AcDbEntity
  8
LC-002-002-RND-0
  6
CONTINUOUS
 62
             7
100
AcDbCircle
 10
35.85952999999995
 20
17.53324199999975
 40
1.49999999999947
100
AcDbArc
 50
-103.20536800001682
 51
0.0
  0
ARC
  5
A7
100
AcDbEntity
  8
LC-002-002-RND-0
  6
CONTINUOUS
 62
             7
100
AcDbCircle
 10
35.85952999999995
 20
17.53324199999975
 40
1.5
100
AcDbArc
 50
0.0
 51
76.79463199999309
  0
ARC
  5
A6
100
AcDbEntity
  8
LC-003-002-----0
  6
CONTINUOUS
 62
             7
100
AcDbCircle
 10
24.42028800000003
 20
-31.21767200000022
 40
51.57502199999969
100
AcDbArc
 50
76.79463200000026
 51
86.1196120000004
  0
ARC
  5
A5
100
AcDbEntity
  8
LC-003-002-----0
  6
CONTINUOUS
 62
             7
100
AcDbCircle
 10
-24.70122700000002
 20
-31.21767200000022
 40
51.57502200000024
100
AcDbArc
 50
93.88038799999987
 51
103.20536799999998
  0
ARC
  5
A4
100
AcDbEntity
  8
LC-002-002-RND-0
  6
CONTINUOUS
 62
             7
100
AcDbCircle
 10
-36.14047000000005
 20
17.53324199999975
 40
1.5
100
AcDbArc
 50
180.0
 51
-76.7946319999832
  0
ARC
  5
A3
100
AcDbEntity
  8
LC-002-002-RND-0
  6
CONTINUOUS
 62
             7
100
AcDbCircle
 10
-36.14047000000005
 20
17.53324199999975
 40
1.50000000000058
100
AcDbArc
 50
103.20536800000693
 51
180.0
  0
ARC
  5
A2
100
AcDbEntity
  8
LC-002-002-RND-0
  6
CONTINUOUS
 62
             7
100
AcDbCircle
 10
-34.15559500000018
 20
108.16707699999979
 40
88.12999999999991
100
AcDbArc
 50
-86.11961199999978
 51
-78.87309900000004
  0
ARC
  5
A1
100
AcDbEntity
  8
LC-003-002-----0
  6
CONTINUOUS
 62
             7
100
AcDbCircle
 10
-0.14047000000005
 20
-64.77961700000014
 40
88.13000000000024
100
AcDbArc
 50
78.87309900000018
 51
101.12690099999982
  0
ARC
  5
A0
100
AcDbEntity
  8
LC-002-002-RND-0
  6
CONTINUOUS
 62
             7
100
AcDbCircle
 10
33.87465599999996
 20
108.16707699999979
 40
88.13000000000019
100
AcDbArc
 50
-101.12690099999983
 51
-93.88038800000022
  0
LINE
  5
9F
100
AcDbEntity
  8
LC-003-002-----0
  6
CONTINUOUS
 62
             7
100
AcDbLine
 10
-35.0
 20
7.5
 11
35.0
 21
7.5
  0
LINE
  5
9E
100
AcDbEntity
  8
LC-003-002-----0
  6
CONTINUOUS
 62
             7
100
AcDbLine
 10
-38.89387699999998
 20
-8.34308199999987
 11
-39.4571390000001
 21
-15.5
  0
LINE
  5
9D
100
AcDbEntity
  8
LC-003-002-----0
  6
CONTINUOUS
 62
             7
100
AcDbLine
 10
206.9995700000004
 20
-29.26254999999992
 11
206.99957000000049
 21
-69.26254999999992
  0
LINE
  5
9C
100
AcDbEntity
  8
LC-003-002-----0
  6
CONTINUOUS
 62
             7
100
AcDbLine
 10
65.47732599999995
 20
-20.01610199999982
 11
65.47732599999995
 21
-68.50899699999991
  0
LINE
  5
9B
100
AcDbEntity
  8
LC-003-002-----0
  6
CONTINUOUS
 62
             7
100
AcDbLine
 10
62.05031699999995
 20
-20.01610199999982
 11
65.47732599999995
 21
-20.01610199999982
  0
LINE
  5
9A
100
AcDbEntity
  8
LC-003-002-----0
  6
CONTINUOUS
 62
             7
100
AcDbLine
 10
101.94152799999981
 20
-19.25899699999991
 11
101.94152799999981
 21
-69.25899699999991
  0
LINE
  5
99
100
AcDbEntity
  8
LC-003-002-----0
  6
CONTINUOUS
 62
             7
100
AcDbLine
 10
-19.5
 20
12.39506499999993
 11
-19.5
 21
8.0
  0
LINE
  5
98
100
AcDbEntity
  8
LC-003-002-----0
  6
CONTINUOUS
 62
             7
100
AcDbLine
 10
-39.20000000000005
 20
-19.5
 11
-39.20000000000005
 21
-21.0
  0
LINE
  5
97
100
AcDbEntity
  8
LC-003-002-----0
  6
DASHED
 62
             7
100
AcDbLine
 10
-36.14047000000005
 20
94.04383800000005
 11
10.85952999999995
 21
94.04383800000005
  0
LINE
  5
96
100
AcDbEntity
  8
LC-003-002-----0
  6
DASHED
 62
             7
100
AcDbLine
 10
35.85952999999995
 20
94.04383800000005
 11
10.85952999999995
 21
94.04383800000005
  0
LINE
  5
95
100
AcDbEntity
  8
LC-003-002-----0
  6
DASHED
 62
             7
100
AcDbLine
 10
10.85952999999995
 20
92.40566100000024
 11
10.85952999999995
 21
94.04383800000005
  0
LINE
  5
94
100
AcDbEntity
  8
LC-003-002-----0
  6
DASHED
 62
             7
100
AcDbLine
 10
19.35952999999995
 20
84.51973500000008
 11
19.35952999999995
 21
82.67595600000004
  0
LINE
  5
93
100
AcDbEntity
  8
LC-003-002-----0
  6
DASHED
 62
             7
100
AcDbLine
 10
-8.14047000000005
 20
92.40566100000024
 11
17.45952999999986
 21
92.40566100000024
  0
LINE
  5
92
100
AcDbEntity
  8
LC-003-002-----0
  6
DASHED
 62
             7
100
AcDbLine
 10
-11.14047000000005
 20
92.40566100000024
 11
-11.14047000000005
 21
94.04383800000005
  0
LINE
  5
91
100
AcDbEntity
  8
LC-003-002-----0
  6
DASHED
 62
             7
100
AcDbLine
 10
-11.14047000000005
 20
92.40566100000024
 11
-11.14047000000005
 21
93.90566100000024
  0
LINE
  5
90
100
AcDbEntity
  8
LC-003-002-----0
  6
DASHED
 62
             7
100
AcDbLine
 10
-17.44047000000001
 20
82.67595600000004
 11
-16.94047000000001
 21
82.17595600000004
  0
LINE
  5
8F
100
AcDbEntity
  8
LC-003-002-----0
  6
DASHED
 62
             7
100
AcDbLine
 10
19.35952999999995
 20
90.40566100000024
 11
19.35952999999995
 21
84.1543230000002
  0
LINE
  5
8E
100
AcDbEntity
  8
LC-003-002-----0
  6
DASHED
 62
             7
100
AcDbLine
 10
16.6595299999999
 20
-5.54925899999989
 11
16.6595299999999
 21
74.92085300000008
  0
LINE
  5
8D
100
AcDbEntity
  8
LC-003-002-----0
  6
DASHED
 62
             7
100
AcDbLine
 10
-19.64047000000005
 20
90.40566100000024
 11
-19.64047000000005
 21
82.67595600000004
  0
LINE
  5
8C
100
AcDbEntity
  8
LC-003-002-----0
  6
DASHED
 62
             7
100
AcDbLine
 10
-8.14047000000005
 20
92.40566100000024
 11
-17.64047000000005
 21
92.40566100000024
  0
LINE
  5
8B
100
AcDbEntity
  8
LC-003-002-----0
  6
DASHED
 62
             7
100
AcDbLine
 10
-16.94047000000001
 20
77.40566100000024
 11
-0.14047000000005
 21
77.40566100000024
  0
LINE
  5
8A
100
AcDbEntity
  8
LC-003-002-----0
  6
DASHED
 62
             7
100
AcDbLine
 10
16.6595299999999
 20
82.17595600000004
 11
16.6595299999999
 21
74.92085300000008
  0
LINE
  5
89
100
AcDbEntity
  8
LC-003-002-----0
  6
DASHED
 62
             7
100
AcDbLine
 10
17.1595299999999
 20
82.67595600000004
 11
16.6595299999999
 21
82.17595600000004
  0
LINE
  5
88
100
AcDbEntity
  8
LC-003-002-----0
  6
DASHED
 62
             7
100
AcDbLine
 10
-16.94047000000001
 20
-5.54925899999989
 11
-16.94047000000001
 21
82.17595600000004
  0
LINE
  5
87
100
AcDbEntity
  8
LC-003-002-----0
  6
DASHED
 62
             7
100
AcDbLine
 10
19.35952999999995
 20
82.67595600000004
 11
17.1595299999999
 21
82.67595600000004
  0
LINE
  5
86
100
AcDbEntity
  8
LC-003-002-----0
  6
DASHED
 62
             7
100
AcDbLine
 10
16.6595299999999
 20
77.40566100000024
 11
-15.24047000000019
 21
77.40566100000024
  0
LINE
  5
85
100
AcDbEntity
  8
LC-003-002-----0
  6
DASHED
 62
             7
100
AcDbLine
 10
-19.64047000000005
 20
82.67595600000004
 11
18.25952999999981
 21
82.67595600000004
  0
LINE
  5
84
100
AcDbEntity
  8
LC-009-207-----0
  6
CONTINUOUS
 62
             7
100
AcDbLine
 10
75.82977199999982
 20
-75.24626599999988
 11
75.82977199999982
 21
-74.44002499999988
  0
LINE
  5
83
100
AcDbEntity
  8
LC-009-207-----0
  6
CONTINUOUS
 62
             7
100
AcDbLine
 10
75.82977199999982
 20
-74.44002499999988
 11
75.82977199999982
 21
-13.25814999999989
  0
LINE
  5
82
100
AcDbEntity
  8
LC-009-207-----0
  6
CONTINUOUS
 62
             7
100
AcDbLine
 10
209.9995700000004
 20
-30.06639699999892
 11
209.9995700000004
 21
-67.01254999999992
  0
LINE
  5
81
100
AcDbEntity
  8
LC-009-207-----0
  6
CONTINUOUS
 62
             7
100
AcDbLine
 10
206.99957000000049
 20
-69.26254999999992
 11
209.9995700000004
 21
-68.4587019999999
  0
LINE
  5
80
100
AcDbEntity
  8
LC-009-207-----0
  6
CONTINUOUS
 62
             7
100
AcDbLine
 10
101.94152799999981
 20
-69.25899699999991
 11
152.94957099999991
 21
-69.26254999999969
  0
LINE
  5
7F
100
AcDbEntity
  8
LC-009-207-----0
  6
CONTINUOUS
 62
             7
100
AcDbLine
 10
152.94957099999991
 20
-69.26254999999969
 11
206.99957000000049
 21
-69.26254999999992
  0
LINE
  5
7E
100
AcDbEntity
  8
LC-009-207-----0
  6
CONTINUOUS
 62
             7
100
AcDbLine
 10
101.94152799999981
 20
-19.25899699999991
 11
153.7495700000004
 21
-19.26254999999992
  0
LINE
  5
7D
100
AcDbEntity
  8
LC-009-207-----0
  6
CONTINUOUS
 62
             7
100
AcDbLine
 10
209.9995700000004
 20
-67.01254999999992
 11
209.9995700000004
 21
-68.4587019999999
  0
LINE
  5
7C
100
AcDbEntity
  8
LC-003-002-----0
  6
CONTINUOUS
 62
             7
100
AcDbLine
 10
-36.25
 20
0.0
 11
-36.25
 21
-6.5
  0
LINE
  5
7B
100
AcDbEntity
  8
LC-003-002-----0
  6
CONTINUOUS
 62
             7
100
AcDbLine
 10
36.25
 20
0.0
 11
36.25
 21
-6.5
  0
LINE
  5
7A
100
AcDbEntity
  8
LC-003-002-----0
  6
CONTINUOUS
 62
             7
100
AcDbLine
 10
35.0
 20
8.0
 11
0.0
 21
8.0
  0
LINE
  5
79
100
AcDbEntity
  8
LC-003-002-----0
  6
CONTINUOUS
 62
             7
100
AcDbLine
 10
47.19999999999982
 20
-19.5
 11
47.19999999999982
 21
-21.0
  0
LINE
  5
78
100
AcDbEntity
  8
LC-003-002-----0
  6
CONTINUOUS
 62
             7
100
AcDbLine
 10
48.19999999999982
 20
-17.0
 11
48.19999999999982
 21
-18.5
  0
LINE
  5
77
100
AcDbEntity
  8
LC-003-002-----0
  6
CONTINUOUS
 62
             7
100
AcDbLine
 10
35.0
 20
8.0
 11
35.0
 21
7.5
  0
LINE
  5
76
100
AcDbEntity
  8
LC-003-002-----0
  6
CONTINUOUS
 62
             7
100
AcDbLine
 10
11.0
 20
14.39506499999993
 11
11.0
 21
16.03324199999975
  0
LINE
  5
75
100
AcDbEntity
  8
LC-003-002-----0
  6
CONTINUOUS
 62
             7
100
AcDbLine
 10
47.19999999999982
 20
-20.0
 11
47.19999999999982
 21
-21.0
  0
LINE
  5
74
100
AcDbEntity
  8
LC-003-002-----0
  6
CONTINUOUS
 62
             7
100
AcDbLine
 10
-39.20000000000005
 20
-17.0
 11
-39.20000000000005
 21
-19.5
  0
LINE
  5
73
100
AcDbEntity
  8
LC-003-002-----0
  6
CONTINUOUS
 62
             7
100
AcDbLine
 10
-39.20000000000005
 20
-18.5
 11
-39.20000000000005
 21
-19.5
  0
LINE
  5
72
100
AcDbEntity
  8
LC-003-002-----0
  6
CONTINUOUS
 62
             7
100
AcDbLine
 10
48.45713899999987
 20
-15.5
 11
50.64011499999992
 21
-15.5
  0
LINE
  5
71
100
AcDbEntity
  8
LC-003-002-----0
  6
CONTINUOUS
 62
             7
100
AcDbLine
 10
-39.20000000000005
 20
-17.0
 11
-42.20000000000005
 21
-17.0
  0
LINE
  5
70
100
AcDbEntity
  8
LC-003-002-----0
  6
CONTINUOUS
 62
             7
100
AcDbLine
 10
48.19999999999982
 20
-17.0
 11
48.19999999999982
 21
-19.5
  0
LINE
  5
6F
100
AcDbEntity
  8
LC-003-002-----0
  6
CONTINUOUS
 62
             7
100
AcDbLine
 10
47.19999999999982
 20
-19.5
 11
48.19999999999982
 21
-19.5
  0
LINE
  5
6E
100
AcDbEntity
  8
LC-003-002-----0
  6
CONTINUOUS
 62
             7
100
AcDbLine
 10
48.45713899999987
 20
-15.5
 11
-41.64011400000004
 21
-15.5
  0
LINE
  5
6D
100
AcDbEntity
  8
LC-003-002-----0
  6
CONTINUOUS
 62
             7
100
AcDbLine
 10
-39.20000000000005
 20
-17.0
 11
51.19999999999982
 21
-17.0
  0
LINE
  5
6C
100
AcDbEntity
  8
LC-003-002-----0
  6
CONTINUOUS
 62
             7
100
AcDbLine
 10
-42.20000000000005
 20
-17.0
 11
-38.89387699999998
 21
-8.34308199999987
  0
LINE
  5
6B
100
AcDbEntity
  8
LC-003-002-----0
  6
CONTINUOUS
 62
             7
100
AcDbLine
 10
0.0
 20
-6.5
 11
-36.90004199999999
 21
-6.5
  0
LINE
  5
6A
100
AcDbEntity
  8
LC-003-002-----0
  6
CONTINUOUS
 62
             7
100
AcDbLine
 10
51.19999999999982
 20
-17.0
 11
47.89387699999998
 21
-8.34308199999987
  0
LINE
  5
69
100
AcDbEntity
  8
LC-003-002-----0
  6
CONTINUOUS
 62
             7
100
AcDbLine
 10
45.90004299999987
 20
-6.5
 11
0.0
 21
-6.5
  0
LINE
  5
68
100
AcDbEntity
  8
LC-003-002-----0
  6
CONTINUOUS
 62
             7
100
AcDbLine
 10
47.89387699999998
 20
-8.34308199999987
 11
48.45713899999987
 21
-15.5
  0
LINE
  5
67
100
AcDbEntity
  8
LC-003-002-----0
  6
CONTINUOUS
 62
             7
100
AcDbLine
 10
0.0
 20
14.39506499999993
 11
17.59999999999991
 21
14.39506499999993
  0
LINE
  5
66
100
AcDbEntity
  8
LC-003-002-----0
  6
CONTINUOUS
 62
             7
100
AcDbLine
 10
35.0
 20
7.5
 11
25.21596
 21
3.93890099999999
  0
LINE
  5
65
100
AcDbEntity
  8
LC-003-002-----0
  6
CONTINUOUS
 62
             7
100
AcDbLine
 10
0.0
 20
8.0
 11
-35.0
 21
8.0
  0
LINE
  5
64
100
AcDbEntity
  8
LC-003-002-----0
  6
CONTINUOUS
 62
             7
100
AcDbLine
 10
-11.0
 20
14.39506499999993
 11
-11.0
 21
16.03324199999975
  0
LINE
  5
63
100
AcDbEntity
  8
LC-003-002-----0
  6
CONTINUOUS
 62
             7
100
AcDbLine
 10
36.29999999999996
 20
0.0
 11
23.89999999999986
 21
0.0
  0
LINE
  5
62
100
AcDbEntity
  8
LC-003-002-----0
  6
CONTINUOUS
 62
             7
100
AcDbLine
 10
-35.0
 20
7.5
 11
-25.21596
 21
3.93890099999999
  0
LINE
  5
61
100
AcDbEntity
  8
LC-003-002-----0
  6
CONTINUOUS
 62
             7
100
AcDbLine
 10
-35.0
 20
8.0
 11
-35.0
 21
7.5
  0
LINE
  5
60
100
AcDbEntity
  8
LC-003-002-----0
  6
CONTINUOUS
 62
             7
100
AcDbLine
 10
19.5
 20
12.39506499999993
 11
19.5
 21
8.0
  0
LINE
  5
5F
100
AcDbEntity
  8
LC-003-002-----0
  6
CONTINUOUS
 62
             7
100
AcDbLine
 10
0.0
 20
14.39506499999993
 11
-17.5
 21
14.39506499999993
  0
LINE
  5
5E
100
AcDbEntity
  8
LC-003-002-----0
  6
CONTINUOUS
 62
             7
100
AcDbLine
 10
-36.30000000000018
 20
0.0
 11
-23.90000000000009
 21
0.0
  0
LINE
  5
5D
100
AcDbEntity
  8
LC-003-002-----0
  6
CONTINUOUS
 62
             3
100
AcDbLine
 10
-37.70000000000005
 20
-23.5
 11
4.5
 21
-23.5
  0
LINE
  5
5C
100
AcDbEntity
  8
LC-003-002-----0
  6
CONTINUOUS
 62
             7
100
AcDbLine
 10
-39.20000000000005
 20
-22.0
 11
-39.20000000000005
 21
-21.0
  0
LINE
  5
5B
100
AcDbEntity
  8
LC-003-002-----0
  6
CONTINUOUS
 62
             7
100
AcDbLine
 10
52.25
 20
-21.0
 11
62.05031699999995
 21
-21.0
  0
LINE
  5
5A
100
AcDbEntity
  8
LC-003-002-----0
  6
CONTINUOUS
 62
             7
100
AcDbLine
 10
25.97092999999995
 20
-110.0
 11
48.75804999999991
 21
-110.0
  0
LINE
  5
59
100
AcDbEntity
  8
LC-003-002-----0
  6
CONTINUOUS
 62
             7
100
AcDbLine
 10
64.55031699999995
 20
-68.50899699999991
 11
65.47732599999995
 21
-68.50899699999991
  0
LINE
  5
58
100
AcDbEntity
  8
LC-003-002-----0
  6
CONTINUOUS
 62
             7
100
AcDbLine
 10
64.55031699999995
 20
-20.01610199999982
 11
64.55031699999995
 21
-70.25899699999991
  0
LINE
  5
57
100
AcDbEntity
  8
LC-003-002-----0
  6
CONTINUOUS
 62
             7
100
AcDbLine
 10
62.05031699999995
 20
-68.50899699999991
 11
62.05031699999995
 21
-18.95935499999996
  0
LINE
  5
56
100
AcDbEntity
  8
LC-003-002-----0
  6
CONTINUOUS
 62
             7
100
AcDbLine
 10
62.05031699999995
 20
-68.50899699999991
 11
62.05031699999995
 21
-70.25899699999991
  0
LINE
  5
55
100
AcDbEntity
  8
LC-003-002-----0
  6
CONTINUOUS
 62
             7
100
AcDbLine
 10
75.55031699999995
 20
-15.474559
 11
75.55031699999995
 21
-12.5
  0
LINE
  5
54
100
AcDbEntity
  8
LC-003-002-----0
  6
CONTINUOUS
 62
             7
100
AcDbLine
 10
62.05031699999995
 20
-70.25899699999991
 11
64.55031699999995
 21
-70.25899699999991
  0
LINE
  5
53
100
AcDbEntity
  8
LC-003-002-----0
  6
CONTINUOUS
 62
             7
100
AcDbLine
 10
-36.15000000000009
 20
-23.5
 11
-36.15000000000009
 21
-36.67479400000002
  0
LINE
  5
52
100
AcDbEntity
  8
LC-003-002-----0
  6
CONTINUOUS
 62
             7
100
AcDbLine
 10
47.19999999999982
 20
-21.0
 11
55.25
 21
-21.0
  0
LINE
  5
51
100
AcDbEntity
  8
LC-003-002-----0
  6
CONTINUOUS
 62
             7
100
AcDbLine
 10
-31.65805
 20
-110.0
 11
25.97092999999995
 21
-110.0
  0
LINE
  5
50
100
AcDbEntity
  8
LC-003-002-----0
  6
CONTINUOUS
 62
             7
100
AcDbLine
 10
-36.15000000000009
 20
-36.67479400000002
 11
-33.65683100000001
 21
-108.0697989999999
  0
LINE
  5
4F
100
AcDbEntity
  8
LC-003-002-----0
  6
CONTINUOUS
 62
             7
100
AcDbLine
 10
52.1383249999999
 20
-68.50899699999991
 11
50.75683200000003
 21
-108.0697989999999
  0
LINE
  5
4E
100
AcDbEntity
  8
LC-003-002-----0
  6
CONTINUOUS
 62
             7
100
AcDbLine
 10
52.208167
 20
-68.50899699999991
 11
62.05031699999995
 21
-68.50899699999991
  0
LINE
  5
4D
100
AcDbEntity
  8
LC-010-005-----0
  6
CONTINUOUS
 62
             2
100
AcDbLine
 10
207.91306500000039
 20
-69.0177799999999
 11
209.9182950000004
 21
-67.01254999999992
  0
LINE
  5
4C
100
AcDbEntity
  8
LC-005-207-----0
  6
CONTINUOUS
 62
             7
100
AcDbLine
 10
157.9995700000004
 20
-29.26254999999992
 11
206.9995700000004
 21
-29.26254999999992
  0
LINE
  5
4B
100
AcDbEntity
  8
LC-005-207-----0
  6
CONTINUOUS
 62
             7
100
AcDbLine
 10
156.9995700000004
 20
-22.51254999999992
 11
156.9995700000004
 21
-28.26254999999992
  0
LINE
  5
4A
100
AcDbEntity
  8
LC-005-207-----0
  6
CONTINUOUS
 62
             7
100
AcDbLine
 10
206.9995700000004
 20
-29.26254999999992
 11
209.9995700000004
 21
-30.06639699999892
  0
LINE
  5
49
100
AcDbEntity
  8
1
  6
CONTINUOUS
 62
             7
100
AcDbLine
 10
156.9995700000004
 20
-28.26254999999992
 11
156.9995700000004
 21
-64.26254999999992
  0
LINE
  5
48
100
AcDbEntity
  8
1
  6
CONTINUOUS
 62
             3
100
AcDbLine
 10
153.7495700000004
 20
-19.26254999999992
 11
153.7495700000004
 21
-64.26254999999992
  0
LINE
  5
47
100
AcDbEntity
  8
1
  6
PHANTOM
 62
             2
100
AcDbLine
 10
36.58459700090293
 20
-44.25447967367927
 11
161.05905058057331
 21
-44.26308308452667
  0
LINE
  5
46
100
AcDbEntity
  8
1
  6
PHANTOM
 62
             2
100
AcDbLine
 10
150.20373682347289
 20
-49.26254999999969
 11
213.80138007021611
 21
-49.26254999999969
  0
LINE
  5
45
100
AcDbEntity
  8
LC-003-002-----0
  6
CONTINUOUS
 62
             7
100
AcDbLine
 10
35.85952999999995
 20
16.03324199999975
 11
10.85952999999995
 21
16.03324199999975
  0
LINE
  5
44
100
AcDbEntity
  8
LC-003-002-----0
  6
CONTINUOUS
 62
             7
100
AcDbLine
 10
-36.14047000000005
 20
16.03324199999975
 11
-11.0
 21
16.03324199999975
  0
LINE
  5
43
100
AcDbEntity
  8
LC-003-002-----0
  6
CONTINUOUS
 62
             7
100
AcDbLine
 10
-11.0
 20
16.03324199999975
 11
10.85952999999995
 21
16.03324199999975
  0
LINE
  5
42
100
AcDbEntity
  8
1
  6
CONTINUOUS
 62
             7
100
AcDbLine
 10
-23.90000000000009
 20
2.05951600000003
 11
-23.90000000000009
 21
0.0
  0
LINE
  5
41
100
AcDbEntity
  8
LC-003-002-----0
  6
CONTINUOUS
 62
             7
100
AcDbLine
 10
-23.90000000000009
 20
0.0
 11
0.0
 21
0.0
  0
LINE
  5
40
100
AcDbEntity
  8
1
  6
CONTINUOUS
 62
             7
100
AcDbLine
 10
23.89999999999986
 20
2.05951600000003
 11
23.89999999999986
 21
0.0
  0
LINE
  5
3F
100
AcDbEntity
  8
LC-003-002-----0
  6
CONTINUOUS
 62
             7
100
AcDbLine
 10
23.89999999999986
 20
0.0
 11
0.0
 21
0.0
  0
LINE
  5
3E
100
AcDbEntity
  8
1
  6
DOT_CENTER
 62
             2
100
AcDbLine
 10
5.21199464247695
 20
23.3608670000001
 11
-0.78800535752305
 21
23.3608670000001
  0
LINE
  5
3D
100
AcDbEntity
  8
1
  6
DOT_CENTER
 62
             2
100
AcDbLine
 10
5.21199464247695
 20
101.3608670000001
 11
-0.78800535752305
 21
101.3608670000001
  0
LINE
  5
3C
100
AcDbEntity
  8
LC-003-002-----0
  6
DASHDOT
 62
             2
100
AcDbLine
 10
0.0
 20
104.20761193218
 11
0.0
 21
-113.5
  0
POINT
  5
3B
100
AcDbEntity
  8
LC-005-003-----0
 62
             7
100
AcDbPoint
 10
209.9995700000004
 20
-44.26610299999993
  0
POINT
  5
3A
100
AcDbEntity
  8
LC-005-003-----0
 62
             7
100
AcDbPoint
 10
48.75804999999991
 20
-110.0
  0
POINT
  5
39
100
AcDbEntity
  8
LC-005-003-----0
 62
             7
100
AcDbPoint
 10
-31.65805
 20
-110.0
  0
POINT
  5
38
100
AcDbEntity
  8
LC-005-003-----0
 62
             7
100
AcDbPoint
 10
-36.25
 20
0.0
  0
POINT
  5
37
100
AcDbEntity
  8
LC-005-003-----0
 62
             7
100
AcDbPoint
 10
50.75683200000003
 20
-108.0697989999999
  0
POINT
  5
36
100
AcDbEntity
  8
LC-005-003-----0
 62
             7
100
AcDbPoint
 10
-33.65683100000001
 20
-108.0697989999999
  0
POINT
  5
35
100
AcDbEntity
  8
LC-005-003-----0
 62
             7
100
AcDbPoint
 10
-35.0
 20
7.5
  0
POINT
  5
34
100
AcDbEntity
  8
LC-005-003-----0
 62
             7
100
AcDbPoint
 10
-36.30000000000018
 20
0.0
  0
POINT
  5
33
100
AcDbEntity
  8
LC-005-003-----0
 62
             7
100
AcDbPoint
 10
207.0692160000003
 20
-69.24388799999997
  0
POINT
  5
32
100
AcDbEntity
  8
LC-005-003-----0
 62
             7
100
AcDbPoint
 10
151.94957099999991
 20
-19.26254999999992
  0
ENDBLK
  5
C5
100
AcDbEntity
  8
0
100
AcDbBlockEnd
  0
BLOCK
  5
C8
100
AcDbEntity
  8
0
100
AcDbBlockBegin
  2
*D1
 70
             1
 10
0.0
 20
0.0
 30
0.0
  3
*D1
  1

  0
LINE
  5
C9
100
AcDbEntity
  8
0
  6
CONTINUOUS
 62
             4
100
AcDbLine
 10
-37.64047000000006
 20
116.53315826526
 11
37.35952999999996
 21
116.53315826526
  0
LINE
  5
CA
100
AcDbEntity
  8
0
  6
CONTINUOUS
 62
             4
100
AcDbLine
 10
37.35952999999996
 20
17.5332419999997
 11
37.35952999999996
 21
118.53315826526
  0
LINE
  5
CB
100
AcDbEntity
  8
0
  6
CONTINUOUS
 62
             4
100
AcDbLine
 10
-37.64047000000006
 20
17.5332419999997
 11
-37.64047000000006
 21
118.53315826526
  0
SOLID
  5
CC
100
AcDbEntity
  8
0
 62
             4
100
AcDbTrace
 10
27.35952999999996
 20
115.21663328938604
 11
27.35952999999996
 21
117.84968324113396
 12
37.35952999999996
 22
116.53315826526
 13
37.35952999999996
 23
116.53315826526
  0
SOLID
  5
CD
100
AcDbEntity
  8
0
 62
             4
100
AcDbTrace
 10
-27.64047000000006
 20
117.84968324113396
 11
-27.64047000000006
 21
115.21663328938604
 12
-37.64047000000006
 22
116.53315826526
 13
-37.64047000000006
 23
116.53315826526
  0
MTEXT
  5
CF
100
AcDbEntity
  8
0
 62
             1
100
AcDbMText
 10
-10.26323456122596
 20
118.53313838789907
 30
0.0
 40
10.0
 41
0.0
 71
             7
 72
             1
  1
\C1;Ø\C1;75
  7
CONVERTER_1
 11
0.99999999999706
 21
0.00000242406841
 31
0.0
  0
ENDBLK
  5
D0
100
AcDbEntity
  8
0
100
AcDbBlockEnd
  0
BLOCK
  5
D4
100
AcDbEntity
  8
0
100
AcDbBlockBegin
  2
*D2
 70
             1
 10
0.0
 20
0.0
 30
0.0
  3
*D2
  1

  0
LINE
  5
D5
100
AcDbEntity
  8
0
  6
CONTINUOUS
 62
             4
100
AcDbLine
 10
142.9530269218933
 20
-19.26180376578751
 11
142.95620208869454
 21
26.67662223969932
  0
LINE
  5
D6
100
AcDbEntity
  8
0
  6
CONTINUOUS
 62
             4
100
AcDbLine
 10
142.94957102388642
 20
-69.26185882116103
 11
142.9530269218933
 21
-19.26180376578751
  0
LINE
  5
D7
100
AcDbEntity
  8
0
  6
CONTINUOUS
 62
             4
100
AcDbLine
 10
153.7495700000004
 20
-19.26254999999992
 11
140.95302692667059
 21
-19.26166553001977
  0
LINE
  5
D8
100
AcDbEntity
  8
0
  6
CONTINUOUS
 62
             4
100
AcDbLine
 10
152.94957099999988
 20
-69.26254999999969
 11
140.94957102866371
 21
-69.26172058539329
  0
SOLID
  5
D9
100
AcDbEntity
  8
0
 62
             4
100
AcDbTrace
 10
144.26886071578386
 20
-29.26189473732149
 11
141.63581077032538
 21
-29.2617127464807
 12
142.9530269218933
 22
-19.26180376578751
 13
142.9530269218933
 23
-19.26180376578751
  0
SOLID
  5
DA
100
AcDbEntity
  8
0
 62
             4
100
AcDbTrace
 10
141.63373722999586
 20
-59.26176784962705
 11
144.26678717545434
 21
-59.26194984046783
 12
142.94957102388642
 22
-69.26185882116103
 13
142.94957102388642
 23
-69.26185882116103
  0
MTEXT
  5
DB
100
AcDbEntity
  8
0
 62
             1
100
AcDbMText
 10
140.95403179191842
 20
-4.72323944952963
 30
0.0
 40
10.0
 41
0.0
 71
             7
 72
             1
  1
\C1;DN\C1;50
  7
CONVERTER_1
 11
0.00006911788387
 21
0.99999999761136
 31
0.0
  0
ENDBLK
  5
DC
100
AcDbEntity
  8
0
100
AcDbBlockEnd
  0
BLOCK
  5
E0
100
AcDbEntity
  8
0
100
AcDbBlockBegin
  2
*D3
 70
             1
 10
0.0
 20
0.0
 30
0.0
  3
*D3
  1

  0
LINE
  5
E1
100
AcDbEntity
  8
0
  6
CONTINUOUS
 62
             4
100
AcDbLine
 10
229.332771237456
 20
-29.26254999999992
 11
229.332771237456
 21
15.04337095052006
  0
LINE
  5
E2
100
AcDbEntity
  8
0
  6
CONTINUOUS
 62
             4
100
AcDbLine
 10
229.332771237456
 20
-69.26254999999992
 11
229.332771237456
 21
-29.26254999999992
  0
LINE
  5
E3
100
AcDbEntity
  8
0
  6
CONTINUOUS
 62
             4
100
AcDbLine
 10
206.99957000000043
 20
-29.26254999999992
 11
231.332771237456
 21
-29.26254999999992
  0
LINE
  5
E4
100
AcDbEntity
  8
0
  6
CONTINUOUS
 62
             4
100
AcDbLine
 10
206.99957000000055
 20
-69.26254999999992
 11
231.332771237456
 21
-69.26254999999992
  0
SOLID
  5
E5
100
AcDbEntity
  8
0
 62
             4
100
AcDbTrace
 10
230.64929621332996
 20
-39.26254999999992
 11
228.01624626158204
 21
-39.26254999999992
 12
229.332771237456
 22
-29.26254999999992
 13
229.332771237456
 23
-29.26254999999992
  0
SOLID
  5
E6
100
AcDbEntity
  8
0
 62
             4
100
AcDbTrace
 10
228.01624626158204
 20
-59.26254999999992
 11
230.64929621332996
 21
-59.26254999999992
 12
229.332771237456
 22
-69.26254999999992
 13
229.332771237456
 23
-69.26254999999992
  0
MTEXT
  5
E7
100
AcDbEntity
  8
0
 62
             1
100
AcDbMText
 10
227.332771237456
 20
-16.35662904947994
 30
0.0
 40
10.0
 41
0.0
 71
             7
 72
             1
  1
\C1;DN\C1;40
  7
CONVERTER_1
 11
0.0
 21
1.0
 31
0.0
  0
ENDBLK
  5
E8
100
AcDbEntity
  8
0
100
AcDbBlockEnd
  0
BLOCK
  5
EC
100
AcDbEntity
  8
0
100
AcDbBlockBegin
  2
*D4
 70
             1
 10
0.0
 20
0.0
 30
0.0
  3
*D4
  1

  0
LINE
  5
ED
100
AcDbEntity
  8
0
  6
CONTINUOUS
 62
             4
100
AcDbLine
 10
0.0
 20
-129.12796463956988
 11
209.9995700000004
 21
-129.12796463956988
  0
LINE
  5
EE
100
AcDbEntity
  8
0
  6
CONTINUOUS
 62
             4
100
AcDbLine
 10
209.9995700000004
 20
-67.01254999999993
 11
209.9995700000004
 21
-131.12796463956988
  0
LINE
  5
EF
100
AcDbEntity
  8
0
  6
CONTINUOUS
 62
             4
100
AcDbLine
 10
0.0
 20
-113.50000000000001
 11
0.0
 21
-131.12796463956988
  0
SOLID
  5
F0
100
AcDbEntity
  8
0
 62
             4
100
AcDbTrace
 10
199.9995700000004
 20
-130.44448961544384
 11
199.9995700000004
 21
-127.81143966369592
 12
209.9995700000004
 22
-129.12796463956988
 13
209.9995700000004
 23
-129.12796463956988
  0
SOLID
  5
F1
100
AcDbEntity
  8
0
 62
             4
100
AcDbTrace
 10
10.0
 20
-127.81143966369592
 11
10.0
 21
-130.44448961544384
 12
0.0
 22
-129.12796463956988
 13
0.0
 23
-129.12796463956988
  0
MTEXT
  5
F2
100
AcDbEntity
  8
0
 62
             1
100
AcDbMText
 10
74.361036292525
 20
-127.1279646395699
 30
0.0
 40
10.0
 41
0.0
 71
             7
 72
             1
  1
210
  7
CONVERTER_1
 11
0.99999999999706
 21
0.00000242406841
 31
0.0
  0
ENDBLK
  5
F3
100
AcDbEntity
  8
0
100
AcDbBlockEnd
  0
BLOCK
  5
F7
100
AcDbEntity
  8
0
100
AcDbBlockBegin
  2
*D5
 70
             1
 10
0.0
 20
0.0
 30
0.0
  3
*D5
  1

  0
LINE
  5
F8
100
AcDbEntity
  8
0
  6
CONTINUOUS
 62
             4
100
AcDbLine
 10
-70.66786962493249
 20
8.0
 11
-70.66786962493249
 21
89.82804385190761
  0
LINE
  5
F9
100
AcDbEntity
  8
0
  6
CONTINUOUS
 62
             4
100
AcDbLine
 10
-70.66786962493249
 20
0.0
 11
-70.66786962493249
 21
8.0
  0
LINE
  5
FA
100
AcDbEntity
  8
0
  6
CONTINUOUS
 62
             4
100
AcDbLine
 10
-70.66786962493249
 20
-20.0
 11
-70.66786962493249
 21
0.0
  0
LINE
  5
FB
100
AcDbEntity
  8
0
  6
CONTINUOUS
 62
             4
100
AcDbLine
 10
-35.0
 20
8.0
 11
-72.66786962493249
 21
8.0
  0
LINE
  5
FC
100
AcDbEntity
  8
0
  6
CONTINUOUS
 62
             4
100
AcDbLine
 10
-36.25
 20
0.0
 11
-72.66786962493249
 21
0.0
  0
SOLID
  5
FD
100
AcDbEntity
  8
0
 62
             4
100
AcDbTrace
 10
-69.35134464905853
 20
-10.0
 11
-71.98439460080645
 21
-10.0
 12
-70.66786962493249
 22
0.0
 13
-70.66786962493249
 23
0.0
  0
SOLID
  5
FE
100
AcDbEntity
  8
0
 62
             4
100
AcDbTrace
 10
-71.98439460080645
 20
18.0
 11
-69.35134464905853
 21
18.0
 12
-70.66786962493249
 22
8.0
 13
-70.66786962493249
 23
8.0
  0
MTEXT
  5
FF
100
AcDbEntity
  8
0
 62
             1
100
AcDbMText
 10
-72.66786962493249
 20
24.42804385190761
 30
0.0
 40
10.0
 41
0.0
 71
             7
 72
             1
  1
\C1;0-\C1;8\C1;(8-16)
  7
CONVERTER_1
 11
0.0
 21
1.0
 31
0.0
  0
ENDBLK
  5
100
100
AcDbEntity
  8
0
100
AcDbBlockEnd
  0
BLOCK
  5
104
100
AcDbEntity
  8
0
100
AcDbBlockBegin
  2
*D6
 70
             1
 10
0.0
 20
0.0
 30
0.0
  3
*D6
  1

  0
LINE
  5
105
100
AcDbEntity
  8
0
  6
CONTINUOUS
 62
             4
100
AcDbLine
 10
58.36276401131192
 20
23.36086700000011
 11
58.36276401131192
 21
101.3608670000001
  0
LINE
  5
106
100
AcDbEntity
  8
0
  6
CONTINUOUS
 62
             4
100
AcDbLine
 10
5.21199464247695
 20
101.3608670000001
 11
60.36276401131192
 21
101.3608670000001
  0
LINE
  5
107
100
AcDbEntity
  8
0
  6
CONTINUOUS
 62
             4
100
AcDbLine
 10
5.21199464247695
 20
23.36086700000011
 11
60.36276401131192
 21
23.36086700000011
  0
SOLID
  5
108
100
AcDbEntity
  8
0
 62
             4
100
AcDbTrace
 10
57.04623903543796
 20
33.36086700000011
 11
59.67928898718588
 21
33.36086700000011
 12
58.36276401131192
 22
23.36086700000011
 13
58.36276401131192
 23
23.36086700000011
  0
SOLID
  5
109
100
AcDbEntity
  8
0
 62
             4
100
AcDbTrace
 10
59.67928898718587
 20
91.3608670000001
 11
57.04623903543796
 21
91.3608670000001
 12
58.36276401131192
 22
101.3608670000001
 13
58.36276401131192
 23
101.3608670000001
  0
MTEXT
  5
10A
100
AcDbEntity
  8
0
 62
             1
100
AcDbMText
 10
56.36276401131192
 20
56.38263097943013
 30
0.0
 40
10.0
 41
0.0
 71
             7
 72
             1
  1
78
  7
CONVERTER_1
 11
0.0
 21
1.0
 31
0.0
  0
ENDBLK
  5
10B
100
AcDbEntity
  8
0
100
AcDbBlockEnd
  0
BLOCK
  5
10F
100
AcDbEntity
  8
0
100
AcDbBlockBegin
  2
*D7
 70
             1
 10
0.0
 20
0.0
 30
0.0
  3
*D7
  1

  0
LINE
  5
110
100
AcDbEntity
  8
0
  6
CONTINUOUS
 62
             4
100
AcDbLine
 10
-54.07204281522706
 20
-110.0
 11
-54.07204281522706
 21
0.0
  0
LINE
  5
111
100
AcDbEntity
  8
0
  6
CONTINUOUS
 62
             4
100
AcDbLine
 10
-36.30000000000018
 20
0.0
 11
-56.07204281522706
 21
0.0
  0
LINE
  5
112
100
AcDbEntity
  8
0
  6
CONTINUOUS
 62
             4
100
AcDbLine
 10
-31.65805
 20
-110.0
 11
-56.07204281522706
 21
-110.0
  0
SOLID
  5
113
100
AcDbEntity
  8
0
 62
             4
100
AcDbTrace
 10
-55.38856779110102
 20
-100.0
 11
-52.7555178393531
 21
-100.0
 12
-54.07204281522706
 22
-110.0
 13
-54.07204281522706
 23
-110.0
  0
SOLID
  5
114
100
AcDbEntity
  8
0
 62
             4
100
AcDbTrace
 10
-52.7555178393531
 20
-10.0
 11
-55.38856779110102
 21
-10.0
 12
-54.07204281522706
 22
0.0
 13
-54.07204281522706
 23
0.0
  0
MTEXT
  5
115
100
AcDbEntity
  8
0
 62
             1
100
AcDbMText
 10
-56.07204281522706
 20
-65.70584504445992
 30
0.0
 40
10.0
 41
0.0
 71
             7
 72
             1
  1
110
  7
CONVERTER_1
 11
0.0
 21
1.0
 31
0.0
  0
ENDBLK
  5
116
100
AcDbEntity
  8
0
100
AcDbBlockEnd
  0
ENDSEC
  0
SECTION
  2
ENTITIES
  0
DIMENSION
  5
118
100
AcDbEntity
  8
1
100
AcDbDimension
  2
*D7
 10
-54.07204281522706
 20
-110.0
 11
-61.07204281522706
 21
-56.70584504445992
 31
0.0
 53
90.0
  1
<>
  3
ME10_DIM_6
100
AcDbAlignedDimension
 13
-36.30000000000018
 23
0.0
 14
-31.65805
 24
-110.0
 50
90.0
100
AcDbRotatedDimension
  0
DIMENSION
  5
10D
100
AcDbEntity
  8
1
100
AcDbDimension
  2
*D6
 10
58.36276401131192
 20
23.36086700000011
 11
51.36276401131192
 21
63.88263097943013
 31
0.0
 53
90.0
  1
<>
  3
ME10_DIM_5
100
AcDbAlignedDimension
 13
5.21199464247695
 23
101.3608670000001
 14
5.21199464247695
 24
23.3608670000001
 50
90.0
100
AcDbRotatedDimension
  0
DIMENSION
  5
102
100
AcDbEntity
  8
1
100
AcDbDimension
  2
*D5
 10
-70.66786962493249
 20
0.0
 11
-77.66786962493249
 21
55.82804385190761
 31
0.0
 53
90.0
  1
<>
  3
ME10_DIM_4
100
AcDbAlignedDimension
 13
-35.0
 23
8.0
 14
-36.25
 24
0.0
 50
90.0
100
AcDbRotatedDimension
  0
DIMENSION
  5
F5
100
AcDbEntity
  8
1
100
AcDbDimension
  2
*D4
 10
209.9995700000004
 20
-129.12796463956988
 11
84.861036292525
 21
-122.1279646395699
 31
0.0
 53
0.00013888888889
  1
<>
  3
ME10_DIM_3
100
AcDbAlignedDimension
 13
0.0
 23
-113.5
 14
209.9995700000004
 24
-67.01254999999992
100
AcDbRotatedDimension
  0
DIMENSION
  5
EA
100
AcDbEntity
  8
1
100
AcDbDimension
  2
*D3
 10
229.332771237456
 20
-29.26254999999992
 11
222.332771237456
 21
-3.45662904947994
 31
0.0
 53
90.0
  1
<>
  3
ME10_DIM_2
100
AcDbAlignedDimension
 13
206.99957000000049
 23
-69.26254999999992
 14
206.9995700000004
 24
-29.26254999999992
 50
90.0
100
AcDbRotatedDimension
  0
DIMENSION
  5
DE
100
AcDbEntity
  8
1
100
AcDbDimension
  2
*D2
 10
142.9530269218933
 20
-19.26180376578751
 11
135.9549234245635
 21
8.17710610907623
 31
0.0
 53
89.99603983696242
  1
<>
  3
ME10_DIM_1
100
AcDbAlignedDimension
 13
152.94957099999991
 23
-69.26254999999969
 14
153.7495700000004
 24
-19.26254999999992
 50
89.99603983696242
100
AcDbRotatedDimension
  0
DIMENSION
  5
D2
100
AcDbEntity
  8
1
100
AcDbDimension
  2
*D1
 10
37.35952999999996
 20
116.53315826526
 11
-0.56323456125006
 21
123.53315826526
 31
0.0
 53
180.0
  1
<>
  3
ME10_DIM_0
100
AcDbAlignedDimension
 13
-37.64047000000005
 23
17.53324199999975
 14
37.35952999999995
 24
17.53324199999975
 50
180.0
100
AcDbRotatedDimension
  0
INSERT
  5
31
100
AcDbEntity
  8
1
100
AcDbBlockReference
  2
HL_524_BRAUSETASSENSIFN__1
 10
267.68454548895932
 20
1151.1338619999999
  0
ENDSEC
  0
SECTION
  2
OBJECTS
  0
DICTIONARY
  5
19
100
AcDbDictionary
  3
ACAD_GROUP
350
1A
  3
ACAD_MLINESTYLE
350
1B
  0
DICTIONARY
  5
1A
102
{ACAD_REACTORS
330
19
102
}
100
AcDbDictionary
  0
DICTIONARY
  5
1B
102
{ACAD_REACTORS
330
19
102
}
100
AcDbDictionary
  3
STANDARD
350
1C
  0
MLINESTYLE
  5
1C
102
{ACAD_REACTORS
330
1B
102
}
100
AcDbMlineStyle
  2
STANDARD
 70
             0
  3

 62
             0
 51
90.0
 52
90.0
 71
             2
 49
0.5
 62
           256
  6
BYLAYER
 49
-0.5
 62
           256
  6
BYLAYER
  0
ENDSEC
  0
EOF
