  0
SECTION
  2
HEADER
  9
$ACADVER
  1
AC1014
  9
$ACADMAINTVER
 70
             0
  9
$DWGCODEPAGE
  3
ANSI_1252
  9
$INSBASE
 10
0.0
 20
0.0
 30
0.0
  9
$EXTMIN
 10
-285.26638479091002
 20
-105.0
 30
0.0
  9
$EXTMAX
 10
277.03730224083102
 20
439.56432109288102
 30
0.0
  9
$LIMMIN
 10
0.0
 20
0.0
  9
$LIMMAX
 10
0.0
 20
0.0
  9
$ORTHOMODE
 70
             0
  9
$REGENMODE
 70
             1
  9
$FILLMODE
 70
             1
  9
$QTEXTMODE
 70
             0
  9
$MIRRTEXT
 70
             1
  9
$DRAGMODE
 70
             2
  9
$LTSCALE
 40
1.0
  9
$OSMODE
 70
             0
  9
$ATTMODE
 70
             1
  9
$TEXTSIZE
 40
0.2
  9
$TRACEWID
 40
0.05
  9
$TEXTSTYLE
  7
STANDARD
  9
$CLAYER
  8
0
  9
$CELTYPE
  6
CONTINUOUS
  9
$CECOLOR
 62
           256
  9
$CELTSCALE
 40
1.0
  9
$DELOBJ
 70
             1
  9
$DISPSILH
 70
             0
  9
$DIMSCALE
 40
1.0
  9
$DIMASZ
 40
0.18
  9
$DIMEXO
 40
0.0625
  9
$DIMDLI
 40
0.38
  9
$DIMRND
 40
0.0
  9
$DIMDLE
 40
0.0
  9
$DIMEXE
 40
0.18
  9
$DIMTP
 40
0.0
  9
$DIMTM
 40
0.0
  9
$DIMTXT
 40
0.18
  9
$DIMCEN
 40
0.09
  9
$DIMTSZ
 40
0.0
  9
$DIMTOL
 70
             0
  9
$DIMLIM
 70
             0
  9
$DIMTIH
 70
             1
  9
$DIMTOH
 70
             1
  9
$DIMSE1
 70
             0
  9
$DIMSE2
 70
             0
  9
$DIMTAD
 70
             0
  9
$DIMZIN
 70
             0
  9
$DIMBLK
  1

  9
$DIMASO
 70
             1
  9
$DIMSHO
 70
             1
  9
$DIMPOST
  1

  9
$DIMAPOST
  1

  9
$DIMALT
 70
             0
  9
$DIMALTD
 70
             2
  9
$DIMALTF
 40
25.4
  9
$DIMLFAC
 40
1.0
  9
$DIMTOFL
 70
             0
  9
$DIMTVP
 40
0.0
  9
$DIMTIX
 70
             0
  9
$DIMSOXD
 70
             0
  9
$DIMSAH
 70
             0
  9
$DIMBLK1
  1

  9
$DIMBLK2
  1

  9
$DIMSTYLE
  2
STANDARD
  9
$DIMCLRD
 70
             0
  9
$DIMCLRE
 70
             0
  9
$DIMCLRT
 70
             0
  9
$DIMTFAC
 40
1.0
  9
$DIMGAP
 40
0.09
  9
$DIMJUST
 70
             0
  9
$DIMSD1
 70
             0
  9
$DIMSD2
 70
             0
  9
$DIMTOLJ
 70
             1
  9
$DIMTZIN
 70
             0
  9
$DIMALTZ
 70
             0
  9
$DIMALTTZ
 70
             0
  9
$DIMFIT
 70
             3
  9
$DIMUPT
 70
             0
  9
$DIMUNIT
 70
             2
  9
$DIMDEC
 70
             4
  9
$DIMTDEC
 70
             4
  9
$DIMALTU
 70
             2
  9
$DIMALTTD
 70
             2
  9
$DIMTXSTY
  7
STANDARD
  9
$DIMAUNIT
 70
             0
  9
$LUNITS
 70
             2
  9
$LUPREC
 70
             4
  9
$SKETCHINC
 40
0.1
  9
$FILLETRAD
 40
0.0
  9
$AUNITS
 70
             0
  9
$AUPREC
 70
             0
  9
$MENU
  1
acad
  9
$ELEVATION
 40
0.0
  9
$PELEVATION
 40
0.0
  9
$THICKNESS
 40
0.0
  9
$LIMCHECK
 70
             0
  9
$BLIPMODE
 70
             1
  9
$CHAMFERA
 40
0.0
  9
$CHAMFERB
 40
0.0
  9
$CHAMFERC
 40
0.0
  9
$CHAMFERD
 40
0.0
  9
$SKPOLY
 70
             0
  9
$TDCREATE
 40
0.000000000
  9
$TDUPDATE
 40
0.000000000
  9
$TDINDWG
 40
0.0000000000
  9
$TDUSRTIMER
 40
0.0000000000
  9
$USRTIMER
 70
             1
  9
$ANGBASE
 50
0.0
  9
$ANGDIR
 70
             0
  9
$PDMODE
 70
             0
  9
$PDSIZE
 40
0.0
  9
$PLINEWID
 40
0.0
  9
$COORDS
 70
             0
  9
$SPLFRAME
 70
             0
  9
$SPLINETYPE
 70
             6
  9
$SPLINESEGS
 70
             8
  9
$ATTDIA
 70
             0
  9
$ATTREQ
 70
             1
  9
$HANDLING
 70
             1
  9
$HANDSEED
  5
6B6
  9
$SURFTAB1
 70
             6
  9
$SURFTAB2
 70
             6
  9
$SURFTYPE
 70
             6
  9
$SURFU
 70
             6
  9
$SURFV
 70
             6
  9
$UCSNAME
  2

  9
$UCSORG
 10
0.0
 20
0.0
 30
0.0
  9
$UCSXDIR
 10
1.0
 20
0.0
 30
0.0
  9
$UCSYDIR
 10
0.0
 20
1.0
 30
0.0
  9
$PUCSNAME
  2

  9
$PUCSORG
 10
0.0
 20
0.0
 30
0.0
  9
$PUCSXDIR
 10
1.0
 20
0.0
 30
0.0
  9
$PUCSYDIR
 10
0.0
 20
1.0
 30
0.0
  9
$USERI1
 70
             0
  9
$USERI2
 70
             0
  9
$USERI3
 70
             0
  9
$USERI4
 70
             0
  9
$USERI5
 70
             0
  9
$USERR1
 40
12.01
  9
$USERR2
 40
0.0
  9
$USERR3
 40
0.0
  9
$USERR4
 40
0.0
  9
$USERR5
 40
0.0
  9
$WORLDVIEW
 70
             1
  9
$SHADEDGE
 70
             3
  9
$SHADEDIF
 70
            70
  9
$TILEMODE
 70
             1
  9
$MAXACTVP
 70
            16
  9
$PINSBASE
 10
0.0
 20
0.0
 30
0.0
  9
$PLIMCHECK
 70
             0
  9
$PEXTMIN
 10
1.00000000000000E+20
 20
1.00000000000000E+20
 30
1.00000000000000E+20
  9
$PEXTMAX
 10
-1.00000000000000E+20
 20
-1.00000000000000E+20
 30
-1.00000000000000E+20
  9
$PLIMMIN
 10
0.0
 20
0.0
  9
$PLIMMAX
 10
12.0
 20
9.0
  9
$UNITMODE
 70
             0
  9
$VISRETAIN
 70
             0
  9
$PLINEGEN
 70
             1
  9
$PSLTSCALE
 70
             0
  9
$TREEDEPTH
 70
          3020
  9
$PICKSTYLE
 70
             1
  9
$CMLSTYLE
  2
STANDARD
  9
$CMLJUST
 70
             0
  9
$CMLSCALE
 40
1.0
  9
$PROXYGRAPHICS
 70
             0
  9
$MEASUREMENT
 70
             1
  0
ENDSEC
  0
SECTION
  2
CLASSES
  0
CLASS
  1
LWPOLYLINE
  2
AcDbPolyline
  3
"AutoCAD"
 90
        0
280
             0
281
             1
  0
CLASS
  1
IMAGE
  2
AcDbRasterImage
  3
ISM
 90
      127
280
             0
281
             1
  0
CLASS
  1
OLE2FRAME
  2
AcDbOle2Frame
  3
""
 90
        0
280
             0
281
             1
  0
CLASS
  1
HATCH
  2
AcDbHatch
  3
"ACAD_SEDONA"
 90
        0
280
             0
281
             1
  0
CLASS
  1
DICTIONARYVAR
  2
AcDbDictionaryVar
  3
"AutoCAD"
 90
        0
280
             0
281
             0
  0
CLASS
  1
RASTERVARIABLES
  2
AcDbRasterVariables
  3
ISM
 90
        0
280
             0
281
             0
  0
CLASS
  1
IMAGEDEF
  2
AcDbRasterImageDef
  3
ISM
 90
        0
280
             0
281
             0
  0
CLASS
  1
IMAGEDEF_REACTOR
  2
AcDbRasterImageDefReactor
  3
ISM
 90
        1
280
             0
281
             0
  0
CLASS
  1
IDBUFFER
  2
AcDbIdBuffer
  3
"Acad"
 90
        0
280
             0
281
             0
  0
CLASS
  1
SPATIAL_FILTER
  2
AcDbSpatialFilter
  3
"Acad"
 90
        0
280
             0
281
             0
  0
CLASS
  1
XRECORD
  2
AcDbXrecord
  3
"<Built In>"
 90
        0
280
             0
281
             0
  0
CLASS
  1
SORTENTSTABLE
  2
AcDbSortentsTable
  3
"AutoCAD"
 90
        0
280
             0
281
             0
  0
CLASS
  1
LAYER_INDEX
  2
AcDbLayerIndex
  3
"Acad"
 90
        0
280
             0
281
             0
  0
CLASS
  1
SPATIAL_INDEX
  2
AcDbSpatialIndex
  3
"Acad"
 90
        0
280
             0
281
             0
  0
CLASS
  1
OBJECT_PTR
  2
CAseDLPNTableRecord
  3
"ASE-LPNTableRecord"
 90
        1
280
             0
281
             0
  0
CLASS
  1
LAYOUT
  2
AcDbLayout
  3
"AutoCAD 2000"
 90
        0
280
             0
281
             0
  0
CLASS
  1
PLOTSETTINGS
  2
AcDbPlotSettings
  3
"AutoCAD 2000"
 90
        0
280
             0
281
             0
  0
CLASS
  1
ACDBDICTIONARYWDFLT
  2
AcDbDictionaryWithDefault
  3
"AutoCAD 2000"
 90
        0
280
             0
281
             0
  0
CLASS
  1
ACDBPLACEHOLDER
  2
AcDbPlaceHolder
  3
"AutoCAD 2000"
 90
        0
280
             0
281
             0
  0
ENDSEC
  0
SECTION
  2
TABLES
  0
TABLE
  2
VPORT
  5
7
100
AcDbSymbolTable
 70
             1
  0
VPORT
  5
15
100
AcDbSymbolTableRecord
100
AcDbViewportTableRecord
  2
*ACTIVE
 70
             0
 10
0.0
 20
0.0
 11
1.0
 21
1.0
 12
-4.1145412750395
 22
167.28216054644051
 13
0.0
 23
0.0
 14
1.0
 24
1.0
 15
0.0
 25
0.0
 16
0.0
 26
0.0
 36
1.0
 17
0.0
 27
0.0
 37
0.0
 40
599.0207532021692
 41
1.60267857142857
 42
50.0
 43
0.0
 44
0.0
 50
0.0
 51
0.0
 71
             0
 72
           100
 73
             1
 74
             1
 75
             0
 76
             0
 77
             0
 78
             0
  0
ENDTAB
  0
TABLE
  2
LTYPE
  5
4
100
AcDbSymbolTable
 70
            10
  0
LTYPE
  5
11
100
AcDbSymbolTableRecord
100
AcDbLinetypeTableRecord
  2
BYBLOCK
 70
            64
  3

 72
            65
 73
             0
 40
0.0
  0
LTYPE
  5
12
100
AcDbSymbolTableRecord
100
AcDbLinetypeTableRecord
  2
BYLAYER
 70
            64
  3

 72
            65
 73
             0
 40
0.0
  0
LTYPE
  5
13
100
AcDbSymbolTableRecord
100
AcDbLinetypeTableRecord
  2
CONTINUOUS
 70
            64
  3
Solid line
 72
            65
 73
             0
 40
0.0
  0
LTYPE
  5
1D
100
AcDbSymbolTableRecord
100
AcDbLinetypeTableRecord
  2
DASHED
 70
            64
  3
Dashed
 72
            65
 73
             2
 40
15.0
 49
7.0
 74
             0
 49
-8.0
 74
             0
  0
LTYPE
  5
1E
100
AcDbSymbolTableRecord
100
AcDbLinetypeTableRecord
  2
DOTTED
 70
            64
  3
Dotted
 72
            65
 73
             2
 40
1.0
 49
0.0
 74
             0
 49
-1.0
 74
             0
  0
LTYPE
  5
1F
100
AcDbSymbolTableRecord
100
AcDbLinetypeTableRecord
  2
DOT_CENTER
 70
            64
  3
Dot_Center
 72
            65
 73
             4
 40
14.0
 49
12.0
 74
             0
 49
-1.0
 74
             0
 49
0.0
 74
             0
 49
-1.0
 74
             0
  0
LTYPE
  5
20
100
AcDbSymbolTableRecord
100
AcDbLinetypeTableRecord
  2
LONG_DASHED
 70
            64
  3
Long_Dashed
 72
            65
 73
             2
 40
15.0
 49
10.0
 74
             0
 49
-5.0
 74
             0
  0
LTYPE
  5
21
100
AcDbSymbolTableRecord
100
AcDbLinetypeTableRecord
  2
DASH_CENTER
 70
            64
  3
Dash_Center
 72
            65
 73
             4
 40
14.0
 49
11.0
 74
             0
 49
-1.0
 74
             0
 49
1.0
 74
             0
 49
-1.0
 74
             0
  0
LTYPE
  5
22
100
AcDbSymbolTableRecord
100
AcDbLinetypeTableRecord
  2
PHANTOM
 70
            64
  3
Phantom
 72
            65
 73
             6
 40
13.0
 49
10.0
 74
             0
 49
-1.0
 74
             0
 49
0.0
 74
             0
 49
-1.0
 74
             0
 49
0.0
 74
             0
 49
-1.0
 74
             0
  0
LTYPE
  5
23
100
AcDbSymbolTableRecord
100
AcDbLinetypeTableRecord
  2
CENTER_DASH_DASH
 70
            64
  3
Center_Dash_Dash
 72
            65
 73
             6
 40
14.0
 49
9.0
 74
             0
 49
-1.0
 74
             0
 49
1.0
 74
             0
 49
-1.0
 74
             0
 49
1.0
 74
             0
 49
-1.0
 74
             0
  0
ENDTAB
  0
TABLE
  2
LAYER
  5
2
100
AcDbSymbolTable
 70
             6
  0
LAYER
  5
14
100
AcDbSymbolTableRecord
100
AcDbLayerTableRecord
  2
0
 70
             0
 62
             7
  6
CONTINUOUS
  0
LAYER
  5
24
100
AcDbSymbolTableRecord
100
AcDbLayerTableRecord
  2
1
 70
             0
 62
             7
  6
CONTINUOUS
  0
LAYER
  5
25
100
AcDbSymbolTableRecord
100
AcDbLayerTableRecord
  2
CAMPITURA
 70
             0
 62
             7
  6
CONTINUOUS
  0
LAYER
  5
26
100
AcDbSymbolTableRecord
100
AcDbLayerTableRecord
  2
GIALLO
 70
             0
 62
             7
  6
CONTINUOUS
  0
LAYER
  5
27
100
AcDbSymbolTableRecord
100
AcDbLayerTableRecord
  2
MAGENTA
 70
             0
 62
             7
  6
CONTINUOUS
  0
LAYER
  5
28
100
AcDbSymbolTableRecord
100
AcDbLayerTableRecord
  2
VERDE
 70
             0
 62
             7
  6
CONTINUOUS
  0
ENDTAB
  0
TABLE
  2
STYLE
  5
3
100
AcDbSymbolTable
 70
             2
  0
STYLE
  5
17
100
AcDbSymbolTableRecord
100
AcDbTextStyleTableRecord
  2
STANDARD
 70
             0
 40
0.0
 41
1.0
 50
0.0
 71
             0
 42
0.0
  3
txt
  4

  0
STYLE
  5
654
100
AcDbSymbolTableRecord
100
AcDbTextStyleTableRecord
  2
CONVERTER_1
 70
             0
 40
0.0
 41
0.9
 50
0.0
 71
             0
 42
0.0
  3
txt.shx
  4

  0
ENDTAB
  0
TABLE
  2
VIEW
  5
5
100
AcDbSymbolTable
 70
             0
  0
ENDTAB
  0
TABLE
  2
UCS
  5
6
100
AcDbSymbolTable
 70
             0
  0
ENDTAB
  0
TABLE
  2
APPID
  5
8
100
AcDbSymbolTable
 70
             1
  0
APPID
  5
16
100
AcDbSymbolTableRecord
100
AcDbRegAppTableRecord
  2
ACAD
 70
             0
  0
ENDTAB
  0
TABLE
  2
DIMSTYLE
  5
9
100
AcDbSymbolTable
 70
            10
  0
DIMSTYLE
105
18
100
AcDbSymbolTableRecord
100
AcDbDimStyleTableRecord
  2
STANDARD
 70
             0
  3

  4

  5

  6

  7

 40
1.0
 41
0.18
 42
0.0625
 43
0.38
 44
0.18
 45
0.0
 46
0.0
 47
0.0
 48
0.0
 71
             0
 72
             0
 73
             1
 74
             1
 75
             0
 76
             0
 77
             0
 78
             0
140
0.18
141
0.09
142
0.0
143
25.4
144
1.0
145
0.0
146
1.0
147
0.09
170
             0
171
             2
172
             0
173
             0
174
             0
175
             0
176
             0
177
             0
178
             0
270
             2
271
             4
272
             4
273
             2
274
             2
275
             0
280
             0
281
             0
282
             0
283
             1
284
             0
285
             0
286
             0
287
             3
288
             0
340
17
  0
DIMSTYLE
105
657
100
AcDbSymbolTableRecord
100
AcDbDimStyleTableRecord
  2
ME10_DIM_0
 70
             0
  3
Ø<>
  4

  5

  6

  7

 40
1.0
 41
12.0
 42
0.0
 43
0.38
 44
2.0
 45
0.0
 46
0.0
 47
0.0
 48
0.0
 71
             0
 72
             0
 73
             0
 74
             0
 75
             0
 76
             0
 77
             1
 78
             8
140
12.0
141
0.09
142
0.0
143
25.4
144
1.0
145
0.0
146
1.0
147
0.625
170
             0
171
             2
172
             1
173
             1
174
             0
175
             0
176
             4
177
             4
178
             1
270
             2
271
             2
272
             4
273
             2
274
             2
275
             0
280
             0
281
             0
282
             0
283
             1
284
             0
285
             0
286
             0
287
             3
288
             0
340
654
  0
DIMSTYLE
105
662
100
AcDbSymbolTableRecord
100
AcDbDimStyleTableRecord
  2
ME10_DIM_1
 70
             0
  3
max.<>
  4

  5

  6

  7

 40
1.0
 41
12.0
 42
0.0
 43
0.38
 44
2.0
 45
0.0
 46
0.0
 47
0.0
 48
0.0
 71
             0
 72
             0
 73
             0
 74
             0
 75
             0
 76
             0
 77
             1
 78
             8
140
12.0
141
0.09
142
0.0
143
25.4
144
1.0
145
0.0
146
1.0
147
0.625
170
             0
171
             2
172
             1
173
             1
174
             0
175
             0
176
             4
177
             4
178
             1
270
             2
271
             2
272
             4
273
             2
274
             2
275
             0
280
             0
281
             0
282
             0
283
             1
284
             0
285
             0
286
             0
287
             3
288
             0
340
654
  0
DIMSTYLE
105
66D
100
AcDbSymbolTableRecord
100
AcDbDimStyleTableRecord
  2
ME10_DIM_2
 70
             0
  3
Ø<>
  4

  5

  6

  7

 40
1.0
 41
12.0
 42
0.0
 43
0.38
 44
2.0
 45
0.0
 46
0.0
 47
0.0
 48
0.0
 71
             0
 72
             0
 73
             0
 74
             0
 75
             0
 76
             0
 77
             1
 78
             8
140
12.0
141
0.09
142
0.0
143
25.4
144
1.0
145
0.0
146
1.0
147
0.625
170
             0
171
             2
172
             1
173
             1
174
             0
175
             0
176
             4
177
             4
178
             1
270
             2
271
             2
272
             4
273
             2
274
             2
275
             0
280
             0
281
             0
282
             0
283
             1
284
             0
285
             0
286
             0
287
             3
288
             0
340
654
  0
DIMSTYLE
105
679
100
AcDbSymbolTableRecord
100
AcDbDimStyleTableRecord
  2
ME10_DIM_3
 70
             0
  3
DN<>
  4

  5

  6

  7

 40
1.0
 41
10.0
 42
0.0
 43
0.38
 44
2.0
 45
0.0
 46
0.0
 47
0.0
 48
0.0
 71
             0
 72
             0
 73
             0
 74
             0
 75
             0
 76
             0
 77
             1
 78
             8
140
10.0
141
0.09
142
0.0
143
25.4
144
1.0
145
0.0
146
1.0
147
0.625
170
             0
171
             2
172
             1
173
             1
174
             0
175
             0
176
             4
177
             4
178
             1
270
             2
271
             2
272
             4
273
             2
274
             2
275
             0
280
             0
281
             0
282
             0
283
             1
284
             0
285
             0
286
             0
287
             3
288
             0
340
654
  0
DIMSTYLE
105
685
100
AcDbSymbolTableRecord
100
AcDbDimStyleTableRecord
  2
ME10_DIM_4
 70
             0
  3
DN<>
  4

  5

  6

  7

 40
1.0
 41
10.0
 42
0.0
 43
0.38
 44
2.0
 45
0.0
 46
0.0
 47
0.0
 48
0.0
 71
             0
 72
             0
 73
             0
 74
             0
 75
             0
 76
             0
 77
             1
 78
             8
140
10.0
141
0.09
142
0.0
143
25.4
144
1.0
145
0.0
146
1.0
147
0.625
170
             0
171
             2
172
             1
173
             1
174
             0
175
             0
176
             4
177
             4
178
             1
270
             2
271
             2
272
             4
273
             2
274
             2
275
             0
280
             0
281
             0
282
             0
283
             1
284
             0
285
             0
286
             0
287
             3
288
             0
340
654
  0
DIMSTYLE
105
692
100
AcDbSymbolTableRecord
100
AcDbDimStyleTableRecord
  2
ME10_DIM_5
 70
             0
  3
Ø<>-13
  4

  5

  6

  7

 40
1.0
 41
10.0
 42
0.0
 43
0.38
 44
2.0
 45
0.0
 46
0.0
 47
0.0
 48
0.0
 71
             0
 72
             0
 73
             0
 74
             0
 75
             0
 76
             0
 77
             1
 78
             8
140
10.0
141
0.09
142
0.0
143
25.4
144
1.0
145
0.0
146
1.0
147
0.625
170
             0
171
             2
172
             1
173
             1
174
             0
175
             0
176
             4
177
             4
178
             1
270
             2
271
             2
272
             4
273
             2
274
             2
275
             0
280
             0
281
             0
282
             0
283
             1
284
             0
285
             0
286
             0
287
             3
288
             0
340
654
  0
DIMSTYLE
105
69D
100
AcDbSymbolTableRecord
100
AcDbDimStyleTableRecord
  2
ME10_DIM_6
 70
             0
  3
max.<>
  4

  5

  6

  7

 40
1.0
 41
10.0
 42
0.0
 43
0.38
 44
2.0
 45
0.0
 46
0.0
 47
0.0
 48
0.0
 71
             0
 72
             0
 73
             0
 74
             0
 75
             0
 76
             0
 77
             1
 78
             8
140
10.0
141
0.09
142
0.0
143
25.4
144
1.0
145
0.0
146
1.0
147
0.625
170
             0
171
             2
172
             1
173
             1
174
             0
175
             0
176
             4
177
             4
178
             1
270
             2
271
             2
272
             4
273
             2
274
             2
275
             0
280
             0
281
             0
282
             0
283
             1
284
             0
285
             0
286
             0
287
             3
288
             0
340
654
  0
DIMSTYLE
105
6A8
100
AcDbSymbolTableRecord
100
AcDbDimStyleTableRecord
  2
ME10_DIM_7
 70
             0
  3

  4

  5

  6

  7

 40
1.0
 41
10.0
 42
0.0
 43
0.38
 44
2.0
 45
0.0
 46
0.0
 47
0.0
 48
0.0
 71
             0
 72
             0
 73
             0
 74
             0
 75
             0
 76
             0
 77
             1
 78
             8
140
10.0
141
0.09
142
0.0
143
25.4
144
1.0
145
0.0
146
1.0
147
0.625
170
             0
171
             2
172
             1
173
             1
174
             0
175
             0
176
             4
177
             4
178
             1
270
             2
271
             2
272
             4
273
             2
274
             2
275
             0
280
             0
281
             0
282
             0
283
             1
284
             0
285
             0
286
             0
287
             3
288
             0
340
654
  0
DIMSTYLE
105
6B3
100
AcDbSymbolTableRecord
100
AcDbDimStyleTableRecord
  2
ME10_DIM_8
 70
             0
  3

  4

  5

  6

  7

 40
1.0
 41
10.0
 42
0.0
 43
0.38
 44
2.0
 45
0.0
 46
0.0
 47
0.0
 48
0.0
 71
             0
 72
             0
 73
             0
 74
             0
 75
             0
 76
             0
 77
             1
 78
             8
140
10.0
141
0.09
142
0.0
143
25.4
144
1.0
145
0.0
146
1.0
147
0.625
170
             0
171
             2
172
             1
173
             1
174
             0
175
             0
176
             4
177
             4
178
             1
270
             2
271
             2
272
             4
273
             2
274
             2
275
             0
280
             0
281
             0
282
             0
283
             1
284
             0
285
             0
286
             0
287
             3
288
             0
340
654
  0
ENDTAB
  0
TABLE
  2
BLOCK_RECORD
  5
1
100
AcDbSymbolTable
 70
            19
  0
BLOCK_RECORD
  5
A
100
AcDbSymbolTableRecord
100
AcDbBlockTableRecord
  2
*MODEL_SPACE
  0
BLOCK_RECORD
  5
B
100
AcDbSymbolTableRecord
100
AcDbBlockTableRecord
  2
*PAPER_SPACE
  0
BLOCK_RECORD
  5
29
100
AcDbSymbolTableRecord
100
AcDbBlockTableRecord
  2
HL_555N_AB-_BERLAUFGARITUR
  0
BLOCK_RECORD
  5
2B
100
AcDbSymbolTableRecord
100
AcDbBlockTableRecord
  2
HL_500_ABGANGSSTUTZEN
  0
BLOCK_RECORD
  5
2D
100
AcDbSymbolTableRecord
100
AcDbBlockTableRecord
  2
HOLL_NDERMUTTER_6_4
  0
BLOCK_RECORD
  5
2F
100
AcDbSymbolTableRecord
100
AcDbBlockTableRecord
  2
HL_500_K_RPER
  0
BLOCK_RECORD
  5
31
100
AcDbSymbolTableRecord
100
AcDbBlockTableRecord
  2
0555_5E_SIFON_DN40_50X6_4
  0
BLOCK_RECORD
  5
36
100
AcDbSymbolTableRecord
100
AcDbBlockTableRecord
  2
0555_2E__BERLAUFSCHLAUCH
  0
BLOCK_RECORD
  5
38
100
AcDbSymbolTableRecord
100
AcDbBlockTableRecord
  2
WANNENK_RPER
  0
BLOCK_RECORD
  5
3A
100
AcDbSymbolTableRecord
100
AcDbBlockTableRecord
  2
01074D_VENTILDICHTUNG
  0
BLOCK_RECORD
  5
3C
100
AcDbSymbolTableRecord
100
AcDbBlockTableRecord
  2
01011D__BERLAUFDICHTUNG
  0
BLOCK_RECORD
  5
3E
100
AcDbSymbolTableRecord
100
AcDbBlockTableRecord
  2
0555N_1E_DICHTUNGSSET
  0
BLOCK_RECORD
  5
64C
100
AcDbSymbolTableRecord
100
AcDbBlockTableRecord
  2
*D10
  0
BLOCK_RECORD
  5
659
100
AcDbSymbolTableRecord
100
AcDbBlockTableRecord
  2
*D11
  0
BLOCK_RECORD
  5
664
100
AcDbSymbolTableRecord
100
AcDbBlockTableRecord
  2
*D12
  0
BLOCK_RECORD
  5
66F
100
AcDbSymbolTableRecord
100
AcDbBlockTableRecord
  2
*D13
  0
BLOCK_RECORD
  5
67B
100
AcDbSymbolTableRecord
100
AcDbBlockTableRecord
  2
*D14
  0
BLOCK_RECORD
  5
687
100
AcDbSymbolTableRecord
100
AcDbBlockTableRecord
  2
*D15
  0
BLOCK_RECORD
  5
694
100
AcDbSymbolTableRecord
100
AcDbBlockTableRecord
  2
*D16
  0
BLOCK_RECORD
  5
69F
100
AcDbSymbolTableRecord
100
AcDbBlockTableRecord
  2
*D17
  0
BLOCK_RECORD
  5
6AA
100
AcDbSymbolTableRecord
100
AcDbBlockTableRecord
  2
*D18
  0
ENDTAB
  0
ENDSEC
  0
SECTION
  2
BLOCKS
  0
BLOCK
  5
D
100
AcDbEntity
  8
0
100
AcDbBlockBegin
  2
*MODEL_SPACE
 70
             0
 10
0.0
 20
0.0
 30
0.0
  3
*MODEL_SPACE
  1

  0
ENDBLK
  5
E
100
AcDbEntity
  8
0
100
AcDbBlockEnd
  0
BLOCK
  5
F
100
AcDbEntity
 67
             1
  8
0
100
AcDbBlockBegin
  2
*PAPER_SPACE
 70
             0
 10
0.0
 20
0.0
 30
0.0
  3
*PAPER_SPACE
  1

  0
ENDBLK
  5
10
100
AcDbEntity
 67
             1
  8
0
100
AcDbBlockEnd
  0
BLOCK
  5
2A
100
AcDbEntity
  8
0
100
AcDbBlockBegin
  2
HL_555N_AB-_BERLAUFGARITUR
 70
             0
 10
-75.89546153399488
 20
160.03543159341299
 30
0.0
  3
HL_555N_AB-_BERLAUFGARITUR
  1

  0
ARC
  5
126
100
AcDbEntity
  8
1
  6
CONTINUOUS
 62
             7
100
AcDbCircle
 10
-166.15381472747521
 20
318.50686907086327
 40
0.50000000000001
100
AcDbArc
 50
-79.99999999999498
 51
10.00000000000502
  0
ARC
  5
125
100
AcDbEntity
  8
1
  6
CONTINUOUS
 62
             7
100
AcDbCircle
 10
-167.5430001488115
 20
326.38533109496092
 40
0.50000000000001
100
AcDbArc
 50
10.00000000000502
 51
100.00000000000503
  0
ARC
  5
124
100
AcDbEntity
  8
1
  6
CONTINUOUS
 62
             7
100
AcDbCircle
 10
-175.5963124699241
 20
317.34961525953361
 40
1.00000000000011
100
AcDbArc
 50
-80.00000000000253
 51
9.99999999999861
  0
ARC
  5
123
100
AcDbEntity
  8
1
  6
CONTINUOUS
 62
             7
100
AcDbCircle
 10
-175.6842702859858
 20
319.91333941359272
 40
0.58000000000006
100
AcDbArc
 50
-75.9143832200233
 51
9.99999999999694
  0
ARC
  5
122
100
AcDbEntity
  8
1
  6
CONTINUOUS
 62
             7
100
AcDbCircle
 10
-176.81184971359241
 20
324.2432695306191
 40
0.99999999999999
100
AcDbArc
 50
9.99999999999861
 51
99.99999999999861
  0
ARC
  5
121
100
AcDbEntity
  8
1
  6
CONTINUOUS
 62
             7
100
AcDbCircle
 10
-176.01765772166749
 20
321.80407351646301
 40
0.58000000000002
100
AcDbArc
 50
10.00000000000848
 51
95.91438322002119
  0
ARC
  5
120
100
AcDbEntity
  8
1
  6
CONTINUOUS
 62
             7
100
AcDbCircle
 10
-174.2752711497005
 20
302.24960864744492
 40
2.99999999999996
100
AcDbArc
 50
-154.99999999999875
 51
-79.99999999999766
  0
ARC
  5
11F
100
AcDbEntity
  8
1
  6
CONTINUOUS
 62
             7
100
AcDbCircle
 10
-171.93455465714609
 20
299.10834697767149
 40
0.49999999999999
100
AcDbArc
 50
9.99999999999219
 51
100.00000000000503
  0
ARC
  5
11E
100
AcDbEntity
  8
1
  6
CONTINUOUS
 62
             7
100
AcDbCircle
 10
-171.05066840685359
 20
294.0955789557778
 40
0.50000000000004
100
AcDbArc
 50
-68.69006752598496
 51
10.00000000000502
  0
ARC
  5
11D
100
AcDbEntity
  8
1
  6
CONTINUOUS
 62
             7
100
AcDbCircle
 10
-180.49369036031561
 20
347.64961768270553
 40
0.5
100
AcDbArc
 50
9.99999999999861
 51
88.69006752597345
  0
ARC
  5
11C
100
AcDbEntity
  8
1
  6
CONTINUOUS
 62
             7
100
AcDbCircle
 10
-179.6098041100235
 20
342.63684966081172
 40
0.50000000000001
100
AcDbArc
 50
-79.99999999999498
 51
9.99999999999635
  0
ARC
  5
11B
100
AcDbEntity
  8
1
  6
CONTINUOUS
 62
             7
100
AcDbCircle
 10
-180.73498335890949
 20
338.88445705949988
 40
3.00000000000007
100
AcDbArc
 50
99.99999999999609
 51
174.9999999999971
  0
XLINE
  5
11A
100
AcDbEntity
  8
1
  6
DOT_CENTER
 62
             3
 60
             1
100
AcDbXline
 10
-155.38754869967011
 20
297.51577822087899
 30
0.0
 11
-0.1736481776669369
 21
0.9848077530122069
 31
0.0
  0
XLINE
  5
119
100
AcDbEntity
  8
1
  6
DOT_CENTER
 62
             3
 60
             1
100
AcDbXline
 10
-149.79232099646239
 20
298.50236782816188
 30
0.0
 11
-0.1736481776669369
 21
0.9848077530122069
 31
0.0
  0
SPLINE
  5
118
100
AcDbEntity
  8
0
  6
CONTINUOUS
 62
             7
100
AcDbSpline
210
0.0
220
0.0
230
1.0
 70
             0
 71
             3
 72
            13
 73
             9
 74
            13
 42
0.00000000001
 43
0.00000000001
 44
0.00000000001
 40
0.0
 40
0.0
 40
0.0
 40
0.0
 40
1.6177153773375099
 40
2.5411099977614402
 40
3.54020720029638
 40
4.6044324019262799
 40
5.7178009777384204
 40
7.27906970089788
 40
7.27906970089788
 40
7.27906970089788
 40
7.27906970089788
 10
-219.36101848473999
 20
295.622424697572
 30
0.0
 10
-218.83813958738011
 20
295.47251784372997
 30
0.0
 10
-218.1009673686001
 20
295.02348250219001
 30
0.0
 10
-217.27622729125011
 20
294.17285098935503
 30
0.0
 10
-216.69555946703011
 20
293.36011457107497
 30
0.0
 10
-216.19549354607011
 20
292.42375222177498
 30
0.0
 10
-215.7392918952801
 20
291.26121152703092
 30
0.0
 10
-215.52205575880001
 20
290.39345391071708
 30
0.0
 10
-215.4316319652801
 20
289.88103723385001
 30
0.0
 11
-219.36101848473999
 21
295.622424697572
 31
0.0
 11
-218.61754407778741
 21
295.30440787922686
 31
0.0
 11
-217.95838706483329
 21
294.83532269369533
 31
0.0
 11
-217.62107295734896
 21
294.51941532332745
 31
0.0
 11
-217.31095951316593
 21
294.17691917732623
 31
0.0
 11
-217.00432254332554
 21
293.78220820625745
 31
0.0
 11
-216.72612108589323
 21
293.36688261389253
 31
0.0
 11
-216.45936084748379
 21
292.90616956696692
 31
0.0
 11
-216.22164180268669
 21
292.42982555447634
 31
0.0
 11
-216.00259877073148
 21
291.9178225603585
 31
0.0
 11
-215.8128500112918
 21
291.39422000365431
 31
0.0
 11
-215.59465486691337
 21
290.64444897283818
 31
0.0
 11
-215.4316319652801
 21
289.88103723385001
 31
0.0
  0
SPLINE
  5
117
100
AcDbEntity
  8
0
  6
CONTINUOUS
 62
             7
100
AcDbSpline
210
0.0
220
0.0
230
1.0
 70
             0
 71
             3
 72
            13
 73
             9
 74
            13
 42
0.00000000001
 43
0.00000000001
 44
0.00000000001
 40
0.0
 40
0.0
 40
0.0
 40
0.0
 40
1.6177153773372801
 40
2.5411099977612701
 40
3.5402072002962202
 40
4.6044324019260996
 40
5.7178009777382401
 40
7.2790697008976304
 40
7.2790697008976304
 40
7.2790697008976304
 40
7.2790697008976304
 10
-225.18021646486
 20
328.62473640697192
 30
0.0
 10
-224.74014218708001
 20
328.94443788674891
 30
0.0
 10
-224.2010060247201
 20
329.61852083159101
 30
0.0
 10
-223.71693697189991
 20
330.69993070667289
 30
0.0
 10
-223.44925992861999
 20
331.66225321403812
 30
0.0
 10
-223.29960645770009
 20
332.71317862201499
 30
0.0
 10
-223.26852946790001
 20
333.96163968821901
 30
0.0
 10
-223.36118485778999
 20
334.85136425143401
 30
0.0
 10
-223.45147111153011
 20
335.36380518027403
 30
0.0
 11
-225.18021646486
 21
328.62473640697192
 31
0.0
 11
-224.59034720869272
 21
329.17785768768186
 31
0.0
 11
-224.1313788100685
 21
329.84409855109169
 31
0.0
 11
-223.92245391646827
 21
330.25632259526651
 31
0.0
 11
-223.74818318230567
 21
330.68422874093847
 31
0.0
 11
-223.59503778738343
 21
331.16001174816864
 31
0.0
 11
-223.47566364937029
 21
331.64544064488149
 31
0.0
 11
-223.38256416415965
 21
332.16960667035113
 31
0.0
 11
-223.322100579368
 21
332.69852832561656
 31
0.0
 11
-223.29138279603637
 21
333.25457089019335
 31
0.0
 11
-223.29215990847786
 21
333.8114942468527
 31
0.0
 11
-223.34356033683625
 21
334.59067568634293
 31
0.0
 11
-223.45147111153011
 21
335.36380518027403
 31
0.0
  0
ARC
  5
116
100
AcDbEntity
  8
0
  6
CONTINUOUS
 62
             7
100
AcDbCircle
 10
-196.84548249971749
 20
351.12429667233812
 40
0.49999999999915
100
AcDbArc
 50
94.69773169608116
 51
-169.9999999998721
  0
ARC
  5
115
100
AcDbEntity
  8
0
  6
CONTINUOUS
 62
             7
100
AcDbCircle
 10
-185.22791661083011
 20
285.23780645847103
 40
0.50000000000376
100
AcDbArc
 50
-170.00000000012378
 51
-74.69773169609277
  0
ARC
  5
114
100
AcDbEntity
  8
0
  6
CONTINUOUS
 62
             7
100
AcDbCircle
 10
-184.7261415375101
 20
311.18595102331699
 40
0.99999999999906
100
AcDbArc
 50
114.99999999997455
 51
-169.99999999997416
  0
ARC
  5
113
100
AcDbEntity
  8
0
  6
CONTINUOUS
 62
             7
100
AcDbCircle
 10
-182.39051985549011
 20
286.42244127427711
 40
0.99999999999986
100
AcDbArc
 50
-76.70353465527582
 51
9.99999999992641
  0
ARC
  5
112
100
AcDbEntity
  8
0
  6
CONTINUOUS
 62
             7
100
AcDbCircle
 10
-197.60571782614011
 20
254.18086336137111
 40
1.65835401474069
100
AcDbArc
 50
-57.26393577265462
 51
17.49864454219577
  0
ARC
  5
111
100
AcDbEntity
  8
0
  6
CONTINUOUS
 62
             7
100
AcDbCircle
 10
-210.08106940739
 20
348.79743156331398
 40
1.00000000000131
100
AcDbArc
 50
100.00000000016549
 51
-169.99999999997726
  0
ARC
  5
110
100
AcDbEntity
  8
0
  6
CONTINUOUS
 62
             7
100
AcDbCircle
 10
-196.4495358387901
 20
343.12000108954692
 40
0.49999999999925
100
AcDbArc
 50
-80.00000000037647
 51
10.00000000019077
  0
ARC
  5
10F
100
AcDbEntity
  8
0
  6
CONTINUOUS
 62
             7
100
AcDbCircle
 10
-195.87711683673999
 20
340.11285458498901
 40
0.4999999999982
100
AcDbArc
 50
33.5193036924484
 51
104.76529991942851
  0
ARC
  5
10E
100
AcDbEntity
  8
0
  6
CONTINUOUS
 62
             7
100
AcDbCircle
 10
-189.18911633701009
 20
301.94411596626901
 40
0.50000000000375
100
AcDbArc
 50
9.99999999986981
 51
99.99999999959769
  0
ARC
  5
10D
100
AcDbEntity
  8
0
  6
CONTINUOUS
 62
             7
100
AcDbCircle
 10
-198.27299332603999
 20
281.83050435848412
 40
0.99999999999796
100
AcDbArc
 50
-169.99999999996766
 51
-79.99999999983187
  0
ARC
  5
10C
100
AcDbEntity
  8
0
  6
CONTINUOUS
 62
             7
100
AcDbCircle
 10
-200.26927461039011
 20
275.47978236574102
 40
1.75465865020377
100
AcDbArc
 50
-61.43771652628371
 51
81.67262111267392
  0
ARC
  5
10B
100
AcDbEntity
  8
0
  6
CONTINUOUS
 62
             7
100
AcDbCircle
 10
-198.89753282794999
 20
267.75884200633112
 40
1.75465865020382
100
AcDbArc
 50
-61.43771652628875
 51
81.67262111267705
  0
ARC
  5
10A
100
AcDbEntity
  8
0
  6
CONTINUOUS
 62
             7
100
AcDbCircle
 10
-710.00409615926299
 20
143.37098928963201
 40
505.9999999999946
100
AcDbArc
 50
-5.29726372800479
 51
9.99999999999989
  0
ARC
  5
109
100
AcDbEntity
  8
0
  6
CONTINUOUS
 62
             7
100
AcDbCircle
 10
-224.00827750073
 20
327.00407016608489
 40
1.99999999999925
100
AcDbArc
 50
125.87150903805959
 51
-169.99999999997789
  0
ARC
  5
108
100
AcDbEntity
  8
0
  6
CONTINUOUS
 62
             7
100
AcDbCircle
 10
-218.81405658812989
 20
297.54617953737102
 40
1.9999999999958
100
AcDbArc
 50
-169.99999999997362
 51
-105.87150903797503
  0
ARC
  5
107
100
AcDbEntity
  8
0
  6
CONTINUOUS
 62
             7
100
AcDbCircle
 10
-231.6477223024001
 20
269.94691542488999
 40
1.75465865020543
100
AcDbArc
 50
118.32737888743382
 51
-98.56228347397584
  0
ARC
  5
106
100
AcDbEntity
  8
0
  6
CONTINUOUS
 62
             7
100
AcDbCircle
 10
-230.29602080465
 20
262.22244142258899
 40
1.75465865020444
100
AcDbArc
 50
118.32737888744809
 51
-98.56228347365544
  0
ARC
  5
105
100
AcDbEntity
  8
0
  6
CONTINUOUS
 62
             7
100
AcDbCircle
 10
-710.00409615926299
 20
143.37098928963201
 40
499.99999999999744
100
AcDbArc
 50
-5.29726372800482
 51
9.99999999999932
  0
ARC
  5
104
100
AcDbEntity
  8
0
  6
CONTINUOUS
 62
             7
100
AcDbCircle
 10
34.75000000000001
 20
7.99551260505905
 40
0.24999999999973
100
AcDbArc
 50
-85.91200000100069
 51
0.0
  0
ARC
  5
103
100
AcDbEntity
  8
0
  6
CONTINUOUS
 62
             7
100
AcDbCircle
 10
44.51630614095006
 20
-24.478227648494
 40
19.99999999999978
100
AcDbArc
 50
119.08360124175049
 51
143.20802912393327
  0
ARC
  5
102
100
AcDbEntity
  8
0
  6
CONTINUOUS
 62
             7
100
AcDbCircle
 10
-34.74999999999999
 20
7.99551260505905
 40
0.25
100
AcDbArc
 50
180.0
 51
-94.08800000133668
  0
ARC
  5
101
100
AcDbEntity
  8
0
  6
CONTINUOUS
 62
             7
100
AcDbCircle
 10
-12.49999999999999
 20
-14.5
 40
2.5
100
AcDbArc
 50
0.0
 51
90.0
  0
ARC
  5
100
100
AcDbEntity
  8
MAGENTA
  6
CONTINUOUS
 62
             6
100
AcDbCircle
 10
-38.48393042705992
 20
-28.43087797811802
 40
20.00000000000112
100
AcDbArc
 50
55.23964391847968
 51
67.15284333215654
  0
ARC
  5
FF
100
AcDbEntity
  8
0
  6
CONTINUOUS
 62
             7
100
AcDbCircle
 10
-44.51630614096006
 20
-24.478227648494
 40
19.9999999999958
100
AcDbArc
 50
46.37836286696066
 51
60.91639875824946
  0
ARC
  5
FE
100
AcDbEntity
  8
0
  6
CONTINUOUS
 62
             7
100
AcDbCircle
 10
28.00000000000001
 20
-27.5
 40
0.5
100
AcDbArc
 50
0.0
 51
90.0
  0
ARC
  5
FD
100
AcDbEntity
  8
0
  6
CONTINUOUS
 62
             7
100
AcDbCircle
 10
28.00000000000001
 20
-45.5
 40
0.5
100
AcDbArc
 50
-90.0
 51
0.0
  0
ARC
  5
FC
100
AcDbEntity
  8
0
  6
CONTINUOUS
 62
             7
100
AcDbCircle
 10
-12.49999999999999
 20
-43.5
 40
2.5
100
AcDbArc
 50
-90.0
 51
0.0
  0
ARC
  5
FB
100
AcDbEntity
  8
MAGENTA
  6
CONTINUOUS
 62
             6
100
AcDbCircle
 10
-14.39231536117994
 20
-54.85366977180104
 40
9.99999999999768
100
AcDbArc
 50
132.66176570274672
 51
144.17108050200761
  0
ARC
  5
FA
100
AcDbEntity
  8
0
  6
CONTINUOUS
 62
             7
100
AcDbCircle
 10
-55.49999999999999
 20
-14.5
 40
2.5
100
AcDbArc
 50
90.0
 51
180.0
  0
ARC
  5
F9
100
AcDbEntity
  8
MAGENTA
  6
CONTINUOUS
 62
             6
100
AcDbCircle
 10
-63.65264291570998
 20
-27.5
 40
2.5000000000074
100
AcDbArc
 50
-162.54239687633128
 51
-139.45839812654995
  0
ARC
  5
F8
100
AcDbEntity
  8
0
  6
CONTINUOUS
 62
             7
100
AcDbCircle
 10
-55.49999999999999
 20
-34.786255063554
 40
2.5
100
AcDbArc
 50
180.0
 51
-110.00000000012656
  0
ARC
  5
F7
100
AcDbEntity
  8
0
  6
CONTINUOUS
 62
             7
100
AcDbCircle
 10
-101.26716509268
 20
84.94765532985502
 40
105.54935001517303
100
AcDbArc
 50
173.63145955263809
 51
-87.48467647487392
  0
ARC
  5
F6
100
AcDbEntity
  8
0
  6
CONTINUOUS
 62
             7
100
AcDbCircle
 10
-101.2739104643001
 20
84.94539481814104
 40
111.54190171209034
100
AcDbArc
 50
173.68754339579866
 51
-87.61642350075186
  0
LINE
  5
F5
100
AcDbEntity
  8
1
  6
CONTINUOUS
 62
             7
100
AcDbLine
 10
-165.7482349398033
 20
319.08609703620272
 11
-165.66141085096911
 21
318.59369315969678
  0
LINE
  5
F4
100
AcDbEntity
  8
1
  6
CONTINUOUS
 62
             3
100
AcDbLine
 10
-174.6115047169119
 20
317.52326343720051
 11
-165.7482349398033
 21
319.08609703620272
  0
LINE
  5
F3
100
AcDbEntity
  8
1
  6
CONTINUOUS
 62
             7
100
AcDbLine
 10
-165.9218831174702
 20
320.07090478921492
 11
-165.7482349398033
 21
319.08609703620272
  0
LINE
  5
F2
100
AcDbEntity
  8
1
  6
CONTINUOUS
 62
             7
100
AcDbLine
 10
-174.78515289457849
 20
318.50807119021272
 11
-175.04562516107899
 21
319.98528281973103
  0
LINE
  5
F1
100
AcDbEntity
  8
1
  6
CONTINUOUS
 62
             3
100
AcDbLine
 10
-174.78515289457849
 20
318.50807119021272
 11
-165.9218831174702
 21
320.07090478921492
  0
LINE
  5
F0
100
AcDbEntity
  8
1
  6
CONTINUOUS
 62
             7
100
AcDbLine
 10
-166.18235538397059
 20
321.54811641873317
 11
-165.9218831174702
 21
320.07090478921492
  0
LINE
  5
EF
100
AcDbEntity
  8
1
  6
CONTINUOUS
 62
             7
100
AcDbLine
 10
-175.04562516107899
 20
319.98528281973103
 11
-175.3929215164128
 21
321.95489832575538
  0
LINE
  5
EE
100
AcDbEntity
  8
1
  6
CONTINUOUS
 62
             3
100
AcDbLine
 10
-175.04562516107899
 20
319.98528281973103
 11
-166.18235538397059
 21
321.54811641873317
  0
LINE
  5
ED
100
AcDbEntity
  8
1
  6
CONTINUOUS
 62
             7
100
AcDbLine
 10
-166.52965173930451
 20
323.51773192475758
 11
-166.18235538397059
 21
321.54811641873317
  0
LINE
  5
EC
100
AcDbEntity
  8
1
  6
CONTINUOUS
 62
             7
100
AcDbLine
 10
-175.3929215164128
 20
321.95489832575538
 11
-175.6533937829133
 21
323.4321099552738
  0
LINE
  5
EB
100
AcDbEntity
  8
1
  6
CONTINUOUS
 62
             3
100
AcDbLine
 10
-175.3929215164128
 20
321.95489832575538
 11
-166.52965173930451
 21
323.51773192475758
  0
LINE
  5
EA
100
AcDbEntity
  8
1
  6
CONTINUOUS
 62
             7
100
AcDbLine
 10
-166.7901240058049
 20
324.99494355427601
 11
-166.52965173930451
 21
323.51773192475758
  0
LINE
  5
E9
100
AcDbEntity
  8
1
  6
CONTINUOUS
 62
             7
100
AcDbLine
 10
-175.6533937829133
 20
323.4321099552738
 11
-175.8270419605802
 21
324.41691770828601
  0
LINE
  5
E8
100
AcDbEntity
  8
1
  6
CONTINUOUS
 62
             3
100
AcDbLine
 10
-175.6533937829133
 20
323.4321099552738
 11
-166.7901240058049
 21
324.99494355427601
  0
LINE
  5
E7
100
AcDbEntity
  8
1
  6
CONTINUOUS
 62
             7
100
AcDbLine
 10
-166.96377218347189
 20
325.97975130728821
 11
-166.7901240058049
 21
324.99494355427601
  0
LINE
  5
E6
100
AcDbEntity
  8
1
  6
CONTINUOUS
 62
             3
100
AcDbLine
 10
-175.8270419605802
 20
324.41691770828601
 11
-166.96377218347189
 21
325.97975130728821
  0
LINE
  5
E5
100
AcDbEntity
  8
1
  6
CONTINUOUS
 62
             7
100
AcDbLine
 10
-166.0669906386417
 20
318.01446519435717
 11
-175.4226642922572
 21
316.36480750652129
  0
LINE
  5
E4
100
AcDbEntity
  8
1
  6
CONTINUOUS
 62
             7
100
AcDbLine
 10
-167.0505962723054
 20
326.47215518379443
 11
-166.96377218347189
 21
325.97975130728821
  0
LINE
  5
E3
100
AcDbEntity
  8
1
  6
CONTINUOUS
 62
             7
100
AcDbLine
 10
-176.98549789125931
 20
325.22807728363131
 11
-167.62982423764501
 21
326.87773497146702
  0
LINE
  5
E2
100
AcDbEntity
  8
1
  6
CONTINUOUS
 62
             7
100
AcDbLine
 10
-175.44646922492041
 20
321.90478945950991
 11
-175.11308178923869
 21
320.01405535663952
  0
LINE
  5
E1
100
AcDbEntity
  8
1
  6
DOT_CENTER
 62
             2
100
AcDbLine
 10
-229.72938479699309
 20
311.35848720122868
 11
-165.37119580862529
 21
322.70657234941223
  0
LINE
  5
E0
100
AcDbEntity
  8
0
  6
CONTINUOUS
 62
             7
100
AcDbLine
 10
-185.09596099283999
 20
284.75553297290497
 11
-182.1605301554801
 21
285.44924821126801
  0
LINE
  5
DF
100
AcDbEntity
  8
0
  6
CONTINUOUS
 62
             7
100
AcDbLine
 10
-183.66426900994691
 20
312.78448823386282
 11
-185.14875979925
 21
312.09225881035297
  0
LINE
  5
DE
100
AcDbEntity
  8
0
  6
CONTINUOUS
 62
             7
100
AcDbLine
 10
-185.71094929051989
 20
311.01230284565003
 11
-181.88802321321759
 21
289.3314116857054
  0
LINE
  5
DD
100
AcDbEntity
  8
0
  6
CONTINUOUS
 62
             7
100
AcDbLine
 10
-196.9058185107601
 20
351.71743415422401
 11
-190.6260730107401
 21
352.26684069530398
  0
LINE
  5
DC
100
AcDbEntity
  8
0
  6
CONTINUOUS
 62
             7
100
AcDbLine
 10
-190.01888700432781
 20
348.8233177360118
 11
-183.66426900994691
 21
312.78448823386282
  0
LINE
  5
DB
100
AcDbEntity
  8
1
  6
CONTINUOUS
 62
             7
100
AcDbLine
 10
-182.9548465776663
 20
324.17552005296108
 11
-187.2092269305065
 21
348.30331000176011
  0
LINE
  5
DA
100
AcDbEntity
  8
0
  6
CONTINUOUS
 62
             7
100
AcDbLine
 10
-190.6260730107401
 20
352.26684069530398
 11
-190.01888700432781
 21
348.8233177360118
  0
LINE
  5
D9
100
AcDbEntity
  8
1
  6
CONTINUOUS
 62
             7
100
AcDbLine
 10
-187.2092269305065
 20
348.30331000176011
 11
-190.01888700432781
 21
348.8233177360118
  0
LINE
  5
D8
100
AcDbEntity
  8
1
  6
CONTINUOUS
 62
             7
100
AcDbLine
 10
-180.48226003882269
 20
348.14948701338159
 11
-187.20922693050429
 21
348.30331000176142
  0
LINE
  5
D7
100
AcDbEntity
  8
1
  6
CONTINUOUS
 62
             7
100
AcDbLine
 10
-183.72356745318481
 20
339.14592428774301
 11
-184.344031999001
 21
332.0539820770598
  0
LINE
  5
D6
100
AcDbEntity
  8
1
  6
CONTINUOUS
 62
             7
100
AcDbLine
 10
-176.98549789125931
 20
325.22807728363131
 11
-182.9548465776663
 21
324.17552005296108
  0
LINE
  5
D5
100
AcDbEntity
  8
1
  6
CONTINUOUS
 62
             7
100
AcDbLine
 10
-174.6115047169119
 20
317.52326343720051
 11
-174.78515289457849
 21
318.50807119021272
  0
LINE
  5
D4
100
AcDbEntity
  8
1
  6
CONTINUOUS
 62
             7
100
AcDbLine
 10
-181.39201297866379
 20
315.31225027585123
 11
-181.82613342283111
 21
317.77426965838168
  0
LINE
  5
D3
100
AcDbEntity
  8
1
  6
CONTINUOUS
 62
             7
100
AcDbLine
 10
-181.39201297866379
 20
315.31225027585123
 11
-175.4226642922572
 21
316.36480750652129
  0
LINE
  5
D2
100
AcDbEntity
  8
0
  6
CONTINUOUS
 62
             7
100
AcDbLine
 10
-181.4539027690501
 20
286.86939230317398
 11
-181.40571210247001
 21
286.59608945194412
  0
LINE
  5
D1
100
AcDbEntity
  8
1
  6
CONTINUOUS
 62
             7
100
AcDbLine
 10
-181.88802321321759
 20
289.3314116857054
 11
-177.1376326258235
 21
291.18446032705219
  0
LINE
  5
D0
100
AcDbEntity
  8
0
  6
CONTINUOUS
 62
             7
100
AcDbLine
 10
-181.88802321321759
 20
289.3314116857054
 11
-181.4539027690501
 21
286.86939230317398
  0
LINE
  5
CF
100
AcDbEntity
  8
1
  6
CONTINUOUS
 62
             7
100
AcDbLine
 10
-177.1376326258235
 20
291.18446032705219
 11
-180.0028275573282
 21
307.43378825175353
  0
LINE
  5
CE
100
AcDbEntity
  8
1
  6
CONTINUOUS
 62
             7
100
AcDbLine
 10
-182.5207261334989
 20
321.71350067043062
 11
-176.07742221989091
 21
322.38098616561552
  0
LINE
  5
CD
100
AcDbEntity
  8
1
  6
CONTINUOUS
 62
             7
100
AcDbLine
 10
-182.5207261334989
 20
321.71350067043062
 11
-182.9548465776663
 21
324.17552005296108
  0
LINE
  5
CC
100
AcDbEntity
  8
1
  6
CONTINUOUS
 62
             7
100
AcDbLine
 10
-175.54311479700181
 20
319.35077819209789
 11
-181.82613342283111
 21
317.77426965838168
  0
LINE
  5
CB
100
AcDbEntity
  8
1
  6
CONTINUOUS
 62
             7
100
AcDbLine
 10
-181.82613342283111
 20
317.77426965838168
 11
-182.5207261334989
 21
321.71350067043062
  0
LINE
  5
CA
100
AcDbEntity
  8
1
  6
CONTINUOUS
 62
             7
100
AcDbLine
 10
-177.1376326258235
 20
291.18446032705219
 11
-170.86896203797161
 21
293.62976483457948
  0
LINE
  5
C9
100
AcDbEntity
  8
1
  6
CONTINUOUS
 62
             7
100
AcDbLine
 10
-170.55826453034749
 20
294.18240304461131
 11
-171.44215078063999
 21
299.19517106650488
  0
LINE
  5
C8
100
AcDbEntity
  8
1
  6
CONTINUOUS
 62
             7
100
AcDbLine
 10
-180.0028275573282
 20
307.43378825175353
 11
-176.99419451081039
 21
300.98175386222277
  0
LINE
  5
C7
100
AcDbEntity
  8
1
  6
CONTINUOUS
 62
             7
100
AcDbLine
 10
-180.0028275573282
 20
307.43378825175353
 11
-181.39201297866379
 21
315.31225027585123
  0
LINE
  5
C6
100
AcDbEntity
  8
1
  6
CONTINUOUS
 62
             7
100
AcDbLine
 10
-173.75432661669959
 20
299.2951853884083
 11
-172.0213787459796
 21
299.60075085417759
  0
LINE
  5
C5
100
AcDbEntity
  8
1
  6
CONTINUOUS
 62
             7
100
AcDbLine
 10
-179.11740023351729
 20
342.72367374964517
 11
-180.00128648380951
 21
347.73644177153898
  0
LINE
  5
C4
100
AcDbEntity
  8
1
  6
CONTINUOUS
 62
             7
100
AcDbLine
 10
-179.52298002118999
 20
342.14444578430562
 11
-181.25592789191009
 21
341.83888031853661
  0
LINE
  5
C3
100
AcDbEntity
  8
0
  6
CONTINUOUS
 62
             7
100
AcDbLine
 10
-220.45144869381011
 20
236.28735319939199
 11
-222.44840273697989
 21
247.612642359033
  0
LINE
  5
C2
100
AcDbEntity
  8
0
  6
CONTINUOUS
 62
             7
100
AcDbLine
 10
-222.9824644601799
 20
247.54611776569001
 11
-223.59065382379001
 21
247.97197654274601
  0
LINE
  5
C1
100
AcDbEntity
  8
0
  6
CONTINUOUS
 62
             7
100
AcDbLine
 10
-223.59065382379001
 20
247.97197654274601
 11
-224.04648029015991
 21
250.557096894403
  0
LINE
  5
C0
100
AcDbEntity
  8
0
  6
CONTINUOUS
 62
             7
100
AcDbLine
 10
-211.39785617209009
 20
252.60743170565601
 11
-225.18516471426011
 21
250.176357218319
  0
LINE
  5
BF
100
AcDbEntity
  8
VERDE
  6
CONTINUOUS
 62
             3
100
AcDbLine
 10
-213.0927290833599
 20
249.262300046869
 11
-222.44840273697989
 21
247.612642359033
  0
LINE
  5
BE
100
AcDbEntity
  8
VERDE
  6
CONTINUOUS
 62
             3
100
AcDbLine
 10
-212.68714929569001
 20
249.84152801220799
 11
-223.02763070232001
 21
248.01822214670599
  0
LINE
  5
BD
100
AcDbEntity
  8
0
  6
CONTINUOUS
 62
             7
100
AcDbLine
 10
-212.68714929569001
 20
249.84152801220799
 11
-213.12126973986011
 21
252.30354739473901
  0
LINE
  5
BC
100
AcDbEntity
  8
0
  6
CONTINUOUS
 62
             7
100
AcDbLine
 10
-213.0927290833599
 20
249.262300046869
 11
-212.68714929569001
 21
249.84152801220799
  0
LINE
  5
BB
100
AcDbEntity
  8
0
  6
CONTINUOUS
 62
             7
100
AcDbLine
 10
-211.09577504019009
 20
237.93701088722801
 11
-213.0927290833599
 21
249.262300046869
  0
LINE
  5
BA
100
AcDbEntity
  8
0
  6
CONTINUOUS
 62
             7
100
AcDbLine
 10
-211.09577504019009
 20
237.93701088722801
 11
-220.45144869381011
 21
236.28735319939199
  0
LINE
  5
B9
100
AcDbEntity
  8
0
  6
CONTINUOUS
 62
             7
100
AcDbLine
 10
-217.89187222216989
 20
229.25767531795699
 11
-219.07607846869001
 21
235.97364267453
  0
LINE
  5
B8
100
AcDbEntity
  8
VERDE
  6
CONTINUOUS
 62
             3
100
AcDbLine
 10
40.50000000000001
 20
0.0
 11
45.65910488589999
 21
0.0
  0
LINE
  5
B7
100
AcDbEntity
  8
0
  6
CONTINUOUS
 62
             3
100
AcDbLine
 10
-0.00000000001
 20
21.98934440242601
 11
-0.00000000001
 21
27.77363434544498
  0
LINE
  5
B6
100
AcDbEntity
  8
0
  6
CONTINUOUS
 62
             3
100
AcDbLine
 10
-205.26638479091
 20
408.33727679813899
 11
-205.26638479091
 21
415.56432109288102
  0
LINE
  5
B5
100
AcDbEntity
  8
0
  6
CONTINUOUS
 62
             3
100
AcDbLine
 10
-163.95277600009101
 20
296.00549755191389
 11
-158.35754829688329
 21
296.99208715919679
  0
LINE
  5
B4
100
AcDbEntity
  8
0
  6
CONTINUOUS
 62
             3
100
AcDbLine
 10
-172.98248123877099
 20
347.21550070854789
 11
-167.38725353556421
 21
348.20209031583079
  0
LINE
  5
B3
100
AcDbEntity
  8
CAMPITURA
  6
CONTINUOUS
 62
             2
100
AcDbLine
 10
-25.24507343261006
 20
0.11430690130203
 11
-24.99999999999999
 21
0.359380333903
  0
LINE
  5
B2
100
AcDbEntity
  8
0
  6
DOT_CENTER
 62
             2
100
AcDbLine
 10
-239.9779830723601
 20
317.9636256487351
 11
-258.76638479091002
 21
317.9636256487351
  0
LINE
  5
B1
100
AcDbEntity
  8
0
  6
CONTINUOUS
 62
             7
100
AcDbLine
 10
-193.15466926955989
 20
301.75259529677601
 11
-194.6585066013599
 21
310.28128061630002
  0
LINE
  5
B0
100
AcDbEntity
  8
0
  6
CONTINUOUS
 62
             7
100
AcDbLine
 10
-200.24144059368001
 20
341.94367266704211
 11
-199.88327576707999
 21
339.91241899752299
  0
LINE
  5
AF
100
AcDbEntity
  8
0
  6
CONTINUOUS
 62
             7
100
AcDbLine
 10
-209.93716400556991
 20
342.22253299106808
 11
-211.06587716040011
 21
348.62378338564702
  0
LINE
  5
AE
100
AcDbEntity
  8
0
  6
CONTINUOUS
 62
             7
100
AcDbLine
 10
-210.74832358091001
 20
341.06407706038902
 11
-209.93716400556991
 21
342.22253299106808
  0
LINE
  5
AD
100
AcDbEntity
  8
0
  6
CONTINUOUS
 62
             7
100
AcDbLine
 10
-207.30029432602009
 20
350.30318384932701
 11
-210.25471758506001
 21
349.78223931632698
  0
LINE
  5
AC
100
AcDbEntity
  8
0
  6
CONTINUOUS
 62
             7
100
AcDbLine
 10
-196.0045469233601
 20
340.59634354352198
 11
-199.88327576707999
 21
339.91241899752299
  0
LINE
  5
AB
100
AcDbEntity
  8
0
  6
CONTINUOUS
 62
             7
100
AcDbLine
 10
-196.36271174996
 20
342.62759721304099
 11
-200.24144059368001
 21
341.94367266704211
  0
LINE
  5
AA
100
AcDbEntity
  8
0
  6
CONTINUOUS
 62
             7
100
AcDbLine
 10
-189.27594042583999
 20
302.43651984277511
 11
-193.15466926955989
 21
301.75259529677601
  0
LINE
  5
A9
100
AcDbEntity
  8
0
  6
CONTINUOUS
 62
             7
100
AcDbLine
 10
-194.6585066013599
 20
310.28128061630002
 11
-190.28737388114001
 21
311.05202925113292
  0
LINE
  5
A8
100
AcDbEntity
  8
0
  6
CONTINUOUS
 62
             7
100
AcDbLine
 10
-213.63273991774011
 20
279.679013469202
 11
-200.8302391285799
 21
281.936439778872
  0
LINE
  5
A7
100
AcDbEntity
  8
0
  6
CONTINUOUS
 62
             7
100
AcDbLine
 10
-201.54497016457
 20
288.86926615074202
 11
-200.38651423389001
 21
288.05810657539701
  0
LINE
  5
A6
100
AcDbEntity
  8
0
  6
CONTINUOUS
 62
             7
100
AcDbLine
 10
-195.14492188933011
 20
281.36664113847303
 11
-198.09934514837011
 21
280.84569660547203
  0
LINE
  5
A5
100
AcDbEntity
  8
0
  6
CONTINUOUS
 62
             7
100
AcDbLine
 10
-201.81504688159001
 20
281.76279160120498
 11
-203.0221817940801
 21
288.608793884242
  0
LINE
  5
A4
100
AcDbEntity
  8
0
  6
CONTINUOUS
 62
             7
100
AcDbLine
 10
-212.22282874617011
 20
271.683009874584
 11
-199.4203279569999
 21
273.94043618425599
  0
LINE
  5
A3
100
AcDbEntity
  8
0
  6
CONTINUOUS
 62
             7
100
AcDbLine
 10
-213.35583530744
 20
263.52041480229087
 11
-198.0528494928501
 21
266.21874408680299
  0
LINE
  5
A2
100
AcDbEntity
  8
0
  6
CONTINUOUS
 62
             7
100
AcDbLine
 10
-211.43343066703011
 20
267.23977455490001
 11
-198.6309298778601
 21
269.49720086457188
  0
LINE
  5
A1
100
AcDbEntity
  8
0
  6
CONTINUOUS
 62
             7
100
AcDbLine
 10
-212.8009091311701
 20
274.96146665235301
 11
-199.998408342
 21
277.21889296202511
  0
LINE
  5
A0
100
AcDbEntity
  8
0
  6
CONTINUOUS
 62
             7
100
AcDbLine
 10
-198.62985051983989
 20
269.49639727427302
 11
-199.3953237537601
 21
273.94484509991702
  0
LINE
  5
9F
100
AcDbEntity
  8
0
  6
CONTINUOUS
 62
             7
100
AcDbLine
 10
-196.0241056950899
 20
254.679502614857
 11
-198.0586063169101
 21
266.21772900339801
  0
LINE
  5
9E
100
AcDbEntity
  8
0
  6
CONTINUOUS
 62
             7
100
AcDbLine
 10
-213.7421065705901
 20
265.90233637132098
 11
-211.39785617209009
 21
252.60743170565601
  0
LINE
  5
9D
100
AcDbEntity
  8
0
  6
CONTINUOUS
 62
             7
100
AcDbLine
 10
-199.98046605826991
 20
277.20963042512699
 11
-200.8302391285799
 21
281.936439778872
  0
LINE
  5
9C
100
AcDbEntity
  8
0
  6
CONTINUOUS
 62
             7
100
AcDbLine
 10
-193.67369884835011
 20
310.45492879396699
 11
-198.89846801407
 21
340.08606717519001
  0
LINE
  5
9B
100
AcDbEntity
  8
VERDE
  6
CONTINUOUS
 62
             3
100
AcDbLine
 10
-201.54497016457
 20
288.86926615074202
 11
-210.74832358091001
 21
341.06407706038902
  0
LINE
  5
9A
100
AcDbEntity
  8
0
  6
CONTINUOUS
 62
             7
100
AcDbLine
 10
-199.2578010790501
 20
281.65685618081699
 11
-209.93716400556991
 21
342.22253299106808
  0
LINE
  5
99
100
AcDbEntity
  8
0
  6
CONTINUOUS
 62
             7
100
AcDbLine
 10
-223.45147111153011
 20
335.36380518027403
 11
-224.65099686841
 21
342.16665379742801
  0
LINE
  5
98
100
AcDbEntity
  8
0
  6
CONTINUOUS
 62
             7
100
AcDbLine
 10
-224.65099686841
 20
342.16665379742801
 11
-243.36234417563989
 21
338.86733842175602
  0
LINE
  5
97
100
AcDbEntity
  8
VERDE
  6
CONTINUOUS
 62
             3
100
AcDbLine
 10
-225.23984178854991
 20
273.52152824826811
 11
-215.96037621315011
 21
275.157748395765
  0
LINE
  5
96
100
AcDbEntity
  8
VERDE
  6
CONTINUOUS
 62
             3
100
AcDbLine
 10
-224.3716009002101
 20
268.597489483206
 11
-215.09213532481999
 21
270.23370963070408
  0
LINE
  5
95
100
AcDbEntity
  8
0
  6
CONTINUOUS
 62
             7
100
AcDbLine
 10
-231.91898380640009
 20
268.21004632124612
 11
-230.93417605340011
 21
268.38369449891201
  0
LINE
  5
94
100
AcDbEntity
  8
0
  6
CONTINUOUS
 62
             7
100
AcDbLine
 10
-230.55150534225999
 20
260.48835422379301
 11
-227.14314384962
 21
261.08934031495397
  0
LINE
  5
93
100
AcDbEntity
  8
0
  6
CONTINUOUS
 62
             7
100
AcDbLine
 10
-231.1295857272701
 20
263.76681100156298
 11
-230.14477797425999
 21
263.94045917922892
  0
LINE
  5
92
100
AcDbEntity
  8
0
  6
CONTINUOUS
 62
             7
100
AcDbLine
 10
-232.49706419141009
 20
271.48850309901587
 11
-231.51225643841011
 21
271.66215127668198
  0
LINE
  5
91
100
AcDbEntity
  8
0
  6
CONTINUOUS
 62
             7
100
AcDbLine
 10
-231.12862193752991
 20
263.76698094369692
 11
-231.8957220832001
 21
268.21414799066508
  0
LINE
  5
90
100
AcDbEntity
  8
VERDE
  6
CONTINUOUS
 62
             3
100
AcDbLine
 10
-224.3716009002101
 20
268.597489483206
 11
-225.23984178854991
 21
273.52152824826811
  0
LINE
  5
8F
100
AcDbEntity
  8
0
  6
CONTINUOUS
 62
             7
100
AcDbLine
 10
-233.3288949779801
 20
276.20604991586299
 11
-232.34408722497011
 21
276.37969809353001
  0
LINE
  5
8E
100
AcDbEntity
  8
0
  6
CONTINUOUS
 62
             7
100
AcDbLine
 10
-232.48128722502
 20
271.49128500386507
 11
-233.3288949779801
 21
276.20604991586299
  0
LINE
  5
8D
100
AcDbEntity
  8
VERDE
  6
CONTINUOUS
 62
             3
100
AcDbLine
 10
-217.98568652718001
 20
274.80063154309488
 11
-217.11744563885011
 21
269.87659277803402
  0
LINE
  5
8C
100
AcDbEntity
  8
VERDE
  6
CONTINUOUS
 62
             3
100
AcDbLine
 10
-215.96037621315011
 20
275.157748395765
 11
-215.09213532481999
 21
270.23370963070408
  0
LINE
  5
8B
100
AcDbEntity
  8
0
  6
CONTINUOUS
 62
             7
100
AcDbLine
 10
-228.52276154449009
 20
248.94911275184799
 11
-230.55726216631001
 21
260.48733914038911
  0
LINE
  5
8A
100
AcDbEntity
  8
0
  6
CONTINUOUS
 62
             7
100
AcDbLine
 10
-227.52941511276001
 20
263.47126188398408
 11
-225.18516471426011
 21
250.176357218319
  0
LINE
  5
89
100
AcDbEntity
  8
0
  6
CONTINUOUS
 62
             7
100
AcDbLine
 10
-220.78367209415001
 20
297.19888318203698
 11
-225.97789300675001
 21
326.65677381075102
  0
LINE
  5
88
100
AcDbEntity
  8
0
  6
CONTINUOUS
 62
             7
100
AcDbLine
 10
-229.99143449528989
 20
263.03714143981699
 11
-243.36234417563989
 21
338.86733842175602
  0
LINE
  5
87
100
AcDbEntity
  8
0
  6
CONTINUOUS
 62
             7
100
AcDbLine
 10
-211.28008718806001
 20
266.33645681548808
 11
-215.4316319652801
 21
289.88103723385001
  0
LINE
  5
86
100
AcDbEntity
  8
0
  6
CONTINUOUS
 62
             7
100
AcDbLine
 10
-229.99143449528989
 20
263.03714143981699
 11
-211.28008718806001
 21
266.33645681548808
  0
LINE
  5
85
100
AcDbEntity
  8
0
  6
CONTINUOUS
 62
             7
100
AcDbLine
 10
-201.54497016457
 20
288.86926615074202
 11
-214.83987483023
 21
286.52501575223801
  0
LINE
  5
84
100
AcDbEntity
  8
0
  6
CONTINUOUS
 62
             7
100
AcDbLine
 10
-210.74832358091001
 20
341.06407706038902
 11
-224.0432282465799
 21
338.71982666188501
  0
LINE
  5
83
100
AcDbEntity
  8
VERDE
  6
CONTINUOUS
 62
             3
100
AcDbLine
 10
-10.99999999999999
 20
-12.5
 11
28.50000000000001
 21
-12.5
  0
LINE
  5
82
100
AcDbEntity
  8
0
  6
CONTINUOUS
 62
             7
100
AcDbLine
 10
27.84999999998992
 20
-26.0
 11
28.50000000000001
 21
-25.35000000000002
  0
LINE
  5
81
100
AcDbEntity
  8
0
  6
CONTINUOUS
 62
             7
100
AcDbLine
 10
27.71834750240988
 20
-27.0
 11
28.00000000000001
 21
-27.0
  0
LINE
  5
80
100
AcDbEntity
  8
0
  6
CONTINUOUS
 62
             7
100
AcDbLine
 10
27.84999999998992
 20
-26.0
 11
27.71834750240988
 21
-27.0
  0
LINE
  5
7F
100
AcDbEntity
  8
0
  6
CONTINUOUS
 62
             7
100
AcDbLine
 10
22.49999999999001
 20
-47.5
 11
22.44164868901363
 21
-50.00000000000011
  0
LINE
  5
7E
100
AcDbEntity
  8
0
  6
CONTINUOUS
 62
             7
100
AcDbLine
 10
25.75000000000001
 20
-46.0
 11
28.00000000000001
 21
-46.0
  0
LINE
  5
7D
100
AcDbEntity
  8
0
  6
CONTINUOUS
 62
             7
100
AcDbLine
 10
25.75000000000001
 20
-46.0
 11
25.75000000000001
 21
-47.5
  0
LINE
  5
7C
100
AcDbEntity
  8
VERDE
  6
CONTINUOUS
 62
             3
100
AcDbLine
 10
25.75000000000001
 20
-41.95108363672205
 11
25.75000000000001
 21
-46.0
  0
LINE
  5
7B
100
AcDbEntity
  8
VERDE
  6
CONTINUOUS
 62
             3
100
AcDbLine
 10
27.71834750240988
 20
-27.0
 11
25.75000000000001
 21
-41.95108363672205
  0
LINE
  5
7A
100
AcDbEntity
  8
0
  6
CONTINUOUS
 62
             7
100
AcDbLine
 10
28.50000000000001
 20
-27.5
 11
28.50000000000001
 21
-45.5
  0
LINE
  5
79
100
AcDbEntity
  8
0
  6
CONTINUOUS
 62
             7
100
AcDbLine
 10
-24.65254396608997
 20
-46.0
 11
-24.65254396608997
 21
-47.5
  0
LINE
  5
78
100
AcDbEntity
  8
0
  6
CONTINUOUS
 62
             7
100
AcDbLine
 10
-22.49999999999999
 20
-49.0
 11
-22.49999999999999
 21
-50.0
  0
LINE
  5
77
100
AcDbEntity
  8
0
  6
CONTINUOUS
 62
             7
100
AcDbLine
 10
-32.00000000000999
 20
-46.0
 11
-12.49999999999999
 21
-46.0
  0
LINE
  5
76
100
AcDbEntity
  8
0
  6
CONTINUOUS
 62
             7
100
AcDbLine
 10
-24.65254396608997
 20
-47.5
 11
25.75000000000001
 21
-47.5
  0
LINE
  5
75
100
AcDbEntity
  8
VERDE
  6
CONTINUOUS
 62
             3
100
AcDbLine
 10
-9.99999999999999
 20
-26.0
 11
27.84999999998992
 21
-26.0
  0
LINE
  5
74
100
AcDbEntity
  8
VERDE
  6
CONTINUOUS
 62
             3
100
AcDbLine
 10
-9.99999999999999
 20
-25.349999999999
 11
28.50000000000001
 21
-25.35000000000002
  0
LINE
  5
73
100
AcDbEntity
  8
GIALLO
  6
CONTINUOUS
 62
             2
100
AcDbLine
 10
-9.99999999999999
 20
-41.95108363672205
 11
25.75000000000001
 21
-41.95108363672205
  0
LINE
  5
72
100
AcDbEntity
  8
0
  6
CONTINUOUS
 62
             7
100
AcDbLine
 10
28.50000000000001
 20
-12.5
 11
28.50000000000001
 21
-25.35000000000002
  0
LINE
  5
71
100
AcDbEntity
  8
0
  6
CONTINUOUS
 62
             7
100
AcDbLine
 10
-9.99999999999999
 20
-14.5
 11
-9.99999999999999
 21
-43.5
  0
LINE
  5
70
100
AcDbEntity
  8
0
  6
CONTINUOUS
 62
             3
100
AcDbLine
 10
-25.99999999999999
 20
16.74447693772163
 11
-25.99999999999999
 21
20.96019415386365
  0
LINE
  5
6F
100
AcDbEntity
  8
0
  6
CONTINUOUS
 62
             3
100
AcDbLine
 10
26.00000000000001
 20
16.74447693772163
 11
26.00000000000001
 21
20.96019415386365
  0
LINE
  5
6E
100
AcDbEntity
  8
0
  6
CONTINUOUS
 62
             7
100
AcDbLine
 10
-72.5
 20
-18.75
 11
-60.99999999999999
 21
-18.75
  0
LINE
  5
6D
100
AcDbEntity
  8
0
  6
CONTINUOUS
 62
             7
100
AcDbLine
 10
-61.84004464167991
 20
-8.54499999999996
 11
-63.65264291570998
 21
-8.54499999999996
  0
LINE
  5
6C
100
AcDbEntity
  8
GIALLO
  6
CONTINUOUS
 62
             2
100
AcDbLine
 10
-60.99999999999999
 20
-10.024
 11
-63.65264291570998
 21
-10.024
  0
LINE
  5
6B
100
AcDbEntity
  8
0
  6
CONTINUOUS
 62
             7
100
AcDbLine
 10
-60.99999999999999
 20
-10.0
 11
-61.84004464167991
 21
-8.54499999999996
  0
LINE
  5
6A
100
AcDbEntity
  8
0
  6
CONTINUOUS
 62
             7
100
AcDbLine
 10
-60.99999999999999
 20
-18.75
 11
-60.49999999999999
 21
-18.25
  0
LINE
  5
69
100
AcDbEntity
  8
MAGENTA
  6
CONTINUOUS
 62
             6
100
AcDbLine
 10
-60.99999999999999
 20
-10.0
 11
-60.99999999999999
 21
-18.75
  0
LINE
  5
68
100
AcDbEntity
  8
VERDE
  6
CONTINUOUS
 62
             3
100
AcDbLine
 10
-61.84004464167991
 20
-8.54499999999996
 11
-61.84004464167991
 21
-18.75
  0
LINE
  5
67
100
AcDbEntity
  8
0
  6
CONTINUOUS
 62
             7
100
AcDbLine
 10
-60.49999999999999
 20
-18.25
 11
-57.99999999999999
 21
-18.25
  0
LINE
  5
66
100
AcDbEntity
  8
0
  6
CONTINUOUS
 62
             7
100
AcDbLine
 10
-72.5
 20
-28.25
 11
-60.99999999999999
 21
-28.25
  0
LINE
  5
65
100
AcDbEntity
  8
GIALLO
  6
CONTINUOUS
 62
             2
100
AcDbLine
 10
-65.15264291570998
 20
-28.75
 11
-65.15264291570998
 21
-29.5
  0
LINE
  5
64
100
AcDbEntity
  8
0
  6
CONTINUOUS
 62
             7
100
AcDbLine
 10
-60.99999999999999
 20
-28.25
 11
-60.49999999999999
 21
-28.75
  0
LINE
  5
63
100
AcDbEntity
  8
0
  6
CONTINUOUS
 62
             7
100
AcDbLine
 10
-60.49999999999999
 20
-28.75
 11
-57.99999999999999
 21
-28.75
  0
LINE
  5
62
100
AcDbEntity
  8
GIALLO
  6
CONTINUOUS
 62
             2
100
AcDbLine
 10
-60.99999999999999
 20
-48.976
 11
-63.65264291570998
 21
-48.976
  0
LINE
  5
61
100
AcDbEntity
  8
0
  6
CONTINUOUS
 62
             7
100
AcDbLine
 10
-61.84004464167991
 20
-50.45500000000004
 11
-63.65264291570998
 21
-50.45499999999902
  0
LINE
  5
60
100
AcDbEntity
  8
0
  6
CONTINUOUS
 62
             7
100
AcDbLine
 10
-60.99999999999999
 20
-49.0
 11
-61.84004464167991
 21
-50.45500000000004
  0
LINE
  5
5F
100
AcDbEntity
  8
MAGENTA
  6
CONTINUOUS
 62
             6
100
AcDbLine
 10
-61.84004464167991
 20
-28.25
 11
-61.84004464167991
 21
-50.45500000000004
  0
LINE
  5
5E
100
AcDbEntity
  8
VERDE
  6
CONTINUOUS
 62
             3
100
AcDbLine
 10
-60.99999999999999
 20
-28.25
 11
-60.99999999999999
 21
-48.976
  0
LINE
  5
5D
100
AcDbEntity
  8
0
  6
CONTINUOUS
 62
             7
100
AcDbLine
 10
-96.63496539279004
 20
-20.49999999999898
 11
-72.5
 21
-20.5
  0
LINE
  5
5C
100
AcDbEntity
  8
0
  6
CONTINUOUS
 62
             7
100
AcDbLine
 10
-96.63496539279004
 20
-26.50000000000102
 11
-72.5
 21
-26.5
  0
LINE
  5
5B
100
AcDbEntity
  8
0
  6
CONTINUOUS
 62
             7
100
AcDbLine
 10
-72.5
 20
-18.75
 11
-72.5
 21
-28.25
  0
LINE
  5
5A
100
AcDbEntity
  8
0
  6
CONTINUOUS
 62
             7
100
AcDbLine
 10
-57.99999999999999
 20
-14.5
 11
-57.99999999999999
 21
-34.786255063554
  0
LINE
  5
59
100
AcDbEntity
  8
MAGENTA
  6
CONTINUOUS
 62
             6
100
AcDbLine
 10
-60.49999999999999
 20
-18.25
 11
-60.49999999999999
 21
-28.75
  0
LINE
  5
58
100
AcDbEntity
  8
VERDE
  6
CONTINUOUS
 62
             3
100
AcDbLine
 10
-60.99999999999999
 20
-18.75
 11
-60.99999999999999
 21
-28.25
  0
LINE
  5
57
100
AcDbEntity
  8
0
  6
CONTINUOUS
 62
             7
100
AcDbLine
 10
-60.99999999999999
 20
-49.0
 11
-22.49999999999999
 21
-49.0
  0
LINE
  5
56
100
AcDbEntity
  8
0
  6
CONTINUOUS
 62
             7
100
AcDbLine
 10
-32.00000000000999
 20
-46.0
 11
-56.35505035832011
 21
-37.13548661551897
  0
LINE
  5
55
100
AcDbEntity
  8
0
  6
CONTINUOUS
 62
             7
100
AcDbLine
 10
-55.49999999999999
 20
-12.0
 11
-12.49999999999999
 21
-12.0
  0
LINE
  5
54
100
AcDbEntity
  8
0
  6
CONTINUOUS
 62
             7
100
AcDbLine
 10
-60.99999999999999
 20
-10.0
 11
-30.71844673603004
 21
-10.0
  0
LINE
  5
53
100
AcDbEntity
  8
0
  6
CONTINUOUS
 62
             7
100
AcDbLine
 10
-211.69137313509009
 20
231.23696718909699
 11
-212.81918860796009
 21
237.63312657631101
  0
LINE
  5
52
100
AcDbEntity
  8
1
  6
DOT_CENTER
 62
             2
100
AcDbLine
 10
0.00000000000001
 20
15.50577183508096
 11
0.00000000000001
 21
-95.49345790605503
  0
LINE
  5
51
100
AcDbEntity
  8
VERDE
  6
CONTINUOUS
 62
             3
100
AcDbLine
 10
-45.65910488589997
 20
0.0
 11
-40.49999999999999
 21
0.0
  0
POINT
  5
50
100
AcDbEntity
  8
1
 62
             3
 60
             1
100
AcDbPoint
 10
0.00000000000001
 20
15.50577183508096
  0
POINT
  5
4F
100
AcDbEntity
  8
1
 62
             3
 60
             1
100
AcDbPoint
 10
0.00000000000001
 20
-95.49345790605503
  0
POINT
  5
4E
100
AcDbEntity
  8
1
 62
             3
 60
             1
100
AcDbPoint
 10
-229.72938479699309
 20
311.35848720122868
  0
POINT
  5
4D
100
AcDbEntity
  8
1
 62
             3
 60
             1
100
AcDbPoint
 10
-156.53649941149411
 20
324.26436769059433
  0
POINT
  5
4C
100
AcDbEntity
  8
1
 62
             3
 60
             1
100
AcDbPoint
 10
-153.48466534239401
 20
286.72399043190637
  0
POINT
  5
4B
100
AcDbEntity
  8
1
 62
             3
 60
             1
100
AcDbPoint
 10
-147.8894376391863
 20
287.71058003918938
  0
POINT
  5
4A
100
AcDbEntity
  8
1
 62
             3
 60
             1
100
AcDbPoint
 10
-166.50827866741429
 20
360.58457190782201
  0
POINT
  5
49
100
AcDbEntity
  8
1
 62
             3
 60
             1
100
AcDbPoint
 10
-160.9130509642066
 20
361.57116151510502
  0
ENDBLK
  5
127
100
AcDbEntity
  8
0
100
AcDbBlockEnd
  0
BLOCK
  5
2C
100
AcDbEntity
  8
0
100
AcDbBlockBegin
  2
HL_500_ABGANGSSTUTZEN
 70
             0
 10
80.0
 20
-46.70000000000005
 30
0.0
  3
HL_500_ABGANGSSTUTZEN
  1

  0
ARC
  5
14C
100
AcDbEntity
  8
1
  6
CONTINUOUS
 62
             7
100
AcDbCircle
 10
80.0
 20
-46.70000000000005
 40
36.0
100
AcDbArc
 50
-9.59406822686046
 51
11.44874180574856
  0
ARC
  5
14B
100
AcDbEntity
  8
1
  6
CONTINUOUS
 62
             7
100
AcDbCircle
 10
80.0
 20
-30.20000000000005
 40
20.0
100
AcDbArc
 50
90.0
 51
166.58181341519025
  0
ARC
  5
14A
100
AcDbEntity
  8
1
  6
CONTINUOUS
 62
             7
100
AcDbCircle
 10
80.0
 20
-46.70000000000005
 40
35.99999999999999
100
AcDbArc
 50
149.99999999999997
 51
-170.40593177313954
  0
LINE
  5
149
100
AcDbEntity
  8
1
  6
CONTINUOUS
 62
             7
100
AcDbLine
 10
168.15503530687761
 20
-50.20287897150411
 11
169.8981501618309
 21
-30.27898500966921
  0
LINE
  5
148
100
AcDbEntity
  8
1
  6
CONTINUOUS
 62
             7
100
AcDbLine
 10
166.36188485031269
 20
-50.04599863455837
 11
168.15503530687761
 21
-50.20287897150411
  0
LINE
  5
147
100
AcDbEntity
  8
1
  6
CONTINUOUS
 62
             7
100
AcDbLine
 10
168.10499970526581
 20
-30.12210467272348
 11
166.36188485031269
 21
-50.04599863455837
  0
LINE
  5
146
100
AcDbEntity
  8
1
  6
CONTINUOUS
 62
             7
100
AcDbLine
 10
169.8981501618309
 20
-30.27898500966921
 11
171.205486303046
 21
-15.33606453829293
  0
LINE
  5
145
100
AcDbEntity
  8
1
  6
CONTINUOUS
 62
             7
100
AcDbLine
 10
169.8981501618309
 20
-30.27898500966921
 11
168.10499970526581
 21
-30.12210467272348
  0
LINE
  5
144
100
AcDbEntity
  8
1
  6
CONTINUOUS
 62
             7
100
AcDbLine
 10
221.513318556679
 20
-19.73742954704972
 11
217.15553141929601
 21
-69.54716445163695
  0
LINE
  5
143
100
AcDbEntity
  8
1
  6
CONTINUOUS
 62
             7
100
AcDbLine
 10
44.50352130140233
 20
-52.70000000000005
 11
115.4964786985977
 21
-52.70000000000005
  0
LINE
  5
142
100
AcDbEntity
  8
1
  6
CONTINUOUS
 62
             7
100
AcDbLine
 10
171.205486303046
 20
-15.33606453829293
 11
157.75730961222189
 21
-54.3122950344864
  0
LINE
  5
141
100
AcDbEntity
  8
1
  6
CONTINUOUS
 62
             7
100
AcDbLine
 10
171.205486303046
 20
-15.33606453829293
 11
221.513318556679
 21
-19.73742954704972
  0
LINE
  5
140
100
AcDbEntity
  8
1
  6
CONTINUOUS
 62
             7
100
AcDbLine
 10
166.84769916566279
 20
-65.14579944288039
 11
168.15503530687761
 21
-50.20287897150411
  0
LINE
  5
13F
100
AcDbEntity
  8
1
  6
CONTINUOUS
 62
             7
100
AcDbLine
 10
115.28369618641641
 20
-39.5543171477691
 11
60.54595462473844
 21
-25.55886667534014
  0
LINE
  5
13E
100
AcDbEntity
  8
1
  6
CONTINUOUS
 62
             7
100
AcDbLine
 10
48.82308546376022
 20
-28.70000000000005
 11
115.28369618641641
 21
-39.5543171477691
  0
LINE
  5
13D
100
AcDbEntity
  8
1
  6
DASH_CENTER
 62
             2
100
AcDbLine
 10
160.50104641283789
 20
-39.49504333708887
 11
227.05990697937611
 21
-45.31818909386357
  0
LINE
  5
13C
100
AcDbEntity
  8
1
  6
CONTINUOUS
 62
             7
100
AcDbLine
 10
118.0
 20
-52.70000000000005
 11
118.0
 21
-55.20000000000005
  0
LINE
  5
13B
100
AcDbEntity
  8
1
  6
CONTINUOUS
 62
             7
100
AcDbLine
 10
115.4964786985977
 20
-52.70000000000005
 11
118.0
 21
-52.70000000000005
  0
LINE
  5
13A
100
AcDbEntity
  8
1
  6
CONTINUOUS
 62
             7
100
AcDbLine
 10
118.0
 20
-55.20000000000005
 11
111.886517527005
 21
-55.20000000000005
  0
LINE
  5
139
100
AcDbEntity
  8
1
  6
CONTINUOUS
 62
             7
100
AcDbLine
 10
42.00000000000001
 20
-52.70000000000005
 11
44.50352130140233
 21
-52.70000000000005
  0
LINE
  5
138
100
AcDbEntity
  8
1
  6
CONTINUOUS
 62
             7
100
AcDbLine
 10
42.00000000000001
 20
-55.20000000000005
 11
42.00000000000001
 21
-52.70000000000005
  0
LINE
  5
137
100
AcDbEntity
  8
1
  6
CONTINUOUS
 62
             7
100
AcDbLine
 10
111.886517527005
 20
-55.20000000000005
 11
42.00000000000001
 21
-55.20000000000005
  0
LINE
  5
136
100
AcDbEntity
  8
1
  6
CONTINUOUS
 62
             7
100
AcDbLine
 10
120.2646696768752
 20
-39.99009586150714
 11
122.2421817200873
 21
-51.20512396025129
  0
LINE
  5
135
100
AcDbEntity
  8
1
  6
CONTINUOUS
 62
             7
100
AcDbLine
 10
115.28369618641641
 20
-39.5543171477691
 11
120.2646696768752
 21
-39.99009586150714
  0
LINE
  5
134
100
AcDbEntity
  8
1
  6
CONTINUOUS
 62
             7
100
AcDbLine
 10
222.82110643130861
 20
-44.94734209896024
 11
220.7239494507146
 21
-68.91795607425138
  0
LINE
  5
133
100
AcDbEntity
  8
1
  6
CONTINUOUS
 62
             7
100
AcDbLine
 10
222.82110643130861
 20
-44.94734209896024
 11
224.9182634119027
 21
-20.97672812366909
  0
LINE
  5
132
100
AcDbEntity
  8
1
  6
CONTINUOUS
 62
             7
100
AcDbLine
 10
217.15553141929601
 20
-69.54716445163695
 11
220.7239494507146
 21
-68.91795607425138
  0
LINE
  5
131
100
AcDbEntity
  8
1
  6
CONTINUOUS
 62
             7
100
AcDbLine
 10
221.513318556679
 20
-19.73742954704972
 11
224.9182634119027
 21
-20.97672812366909
  0
LINE
  5
130
100
AcDbEntity
  8
1
  6
CONTINUOUS
 62
             7
100
AcDbLine
 10
166.84769916566279
 20
-65.14579944288039
 11
157.75730961222189
 21
-54.3122950344864
  0
LINE
  5
12F
100
AcDbEntity
  8
1
  6
CONTINUOUS
 62
             7
100
AcDbLine
 10
122.2421817200873
 20
-51.20512396025129
 11
157.75730961222189
 21
-54.3122950344864
  0
LINE
  5
12E
100
AcDbEntity
  8
1
  6
CONTINUOUS
 62
             7
100
AcDbLine
 10
166.84769916566279
 20
-65.14579944288039
 11
217.15553141929601
 21
-69.54716445163695
  0
LINE
  5
12D
100
AcDbEntity
  8
1
  6
CONTINUOUS
 62
             7
100
AcDbLine
 10
112.5
 20
-10.20000000000005
 11
171.205486303046
 21
-15.33606453829293
  0
LINE
  5
12C
100
AcDbEntity
  8
1
  6
CONTINUOUS
 62
             7
100
AcDbLine
 10
80.0
 20
-10.20000000000005
 11
112.5
 21
-10.20000000000005
  0
LINE
  5
12B
100
AcDbEntity
  8
1
  6
CONTINUOUS
 62
             7
100
AcDbLine
 10
48.82308546376022
 20
-28.70000000000005
 11
60.54595462473844
 21
-25.55886667534014
  0
LINE
  5
12A
100
AcDbEntity
  8
1
  6
PHANTOM
 62
             2
100
AcDbLine
 10
79.99999999999977
 20
-104.7059688505731
 11
80.00000000000023
 21
-32.84555284354929
  0
LINE
  5
129
100
AcDbEntity
  8
1
  6
PHANTOM
 62
             2
100
AcDbLine
 10
110.75688514504689
 20
-30.12389396183494
 11
169.46237144809291
 21
-35.25995850012805
  0
LINE
  5
128
100
AcDbEntity
  8
1
  6
DOT_CENTER
 62
             2
100
AcDbLine
 10
217.25187503782701
 20
-45.0
 11
228.25187503782701
 21
-45.0
  0
ENDBLK
  5
14D
100
AcDbEntity
  8
0
100
AcDbBlockEnd
  0
BLOCK
  5
2E
100
AcDbEntity
  8
0
100
AcDbBlockBegin
  2
HOLL_NDERMUTTER_6_4
 70
             0
 10
375.27393665074032
 20
-48.12747593505264
 30
0.0
  3
HOLL_NDERMUTTER_6_4
  1

  0
SPLINE
  5
18E
100
AcDbEntity
  8
0
  6
CONTINUOUS
 62
             7
100
AcDbSpline
210
0.0
220
0.0
230
1.0
 70
             0
 71
             3
 72
            11
 73
             7
 74
             5
 42
0.00000000001
 43
0.00000000001
 44
0.00000000001
 40
10.19555243465282
 40
10.19555243465282
 40
10.19555243465282
 40
10.19555243465282
 40
10.819635921994889
 40
10.819635921994889
 40
10.819635921994889
 40
11.431124435565939
 40
11.431124435565939
 40
11.431124435565939
 40
11.431124435565939
 10
28.499999999980911
 20
-65.00000000003638
 30
0.0
 10
28.33728848614102
 20
-65.136531171287061
 30
0.0
 10
28.17555515099502
 20
-65.267327604971797
 30
0.0
 10
28.01472806716539
 20
-65.392374328675942
 30
0.0
 10
27.84978906629021
 20
-65.520618161612219
 30
0.0
 10
27.68638934535829
 20
-65.642358817800414
 30
0.0
 10
27.524420523447599
 20
-65.757717363321717
 30
0.0
 11
28.499999999980911
 21
-65.00000000003638
 31
0.0
 11
28.256657372319303
 21
-65.200493832186112
 31
0.0
 11
28.01472806716539
 21
-65.392374328675942
 31
0.0
 11
27.768460478194804
 21
-65.579877828779431
 31
0.0
 11
27.524420523447599
 21
-65.757717363321717
 31
0.0
  0
SPLINE
  5
18D
100
AcDbEntity
  8
0
  6
CONTINUOUS
 62
             7
100
AcDbSpline
210
0.0
220
0.0
230
1.0
 70
             0
 71
             3
 72
            11
 73
             7
 74
             5
 42
0.00000000001
 43
0.00000000001
 44
0.00000000001
 40
9.6520212354362247
 40
9.6520212354362247
 40
9.6520212354362247
 40
9.6520212354362247
 40
10.76957509520426
 40
10.76957509520426
 40
10.76957509520426
 40
11.88858825881975
 40
11.88858825881975
 40
11.88858825881975
 40
11.88858825881975
 10
18.04849083799764
 20
-65.757717363372649
 30
0.0
 10
18.396649719949899
 20
-65.642742758423992
 30
0.0
 10
18.748651742879709
 20
-65.521171670225158
 30
0.0
 10
19.104760895365882
 20
-65.392802005018893
 30
0.0
 10
19.4518429422269
 20
-65.267686416598735
 30
0.0
 10
19.801048657193871
 20
-65.136753450915421
 30
0.0
 10
20.152543263814561
 20
-65.0
 30
0.0
 11
18.04849083799764
 21
-65.757717363372649
 31
0.0
 11
18.573644515231543
 21
-65.580282831792374
 31
0.0
 11
19.104760895365882
 21
-65.392802005018893
 31
0.0
 11
19.626997369680346
 21
-65.20076520094517
 31
0.0
 11
20.152543263814561
 21
-65.0
 31
0.0
  0
SPLINE
  5
18C
100
AcDbEntity
  8
0
  6
CONTINUOUS
 62
             7
100
AcDbSpline
210
0.0
220
0.0
230
1.0
 70
             0
 71
             3
 72
            11
 73
             7
 74
             5
 42
0.00000000001
 43
0.00000000001
 44
0.00000000001
 40
12.6022249851908
 40
12.6022249851908
 40
12.6022249851908
 40
12.6022249851908
 40
13.319387266273759
 40
13.319387266273759
 40
13.319387266273759
 40
14.0365495399508
 40
14.0365495399508
 40
14.0365495399508
 40
14.0365495399508
 10
26.42442052344542
 20
-66.67819926235461
 30
0.0
 10
26.60566399482833
 20
-66.526551676794043
 30
0.0
 10
26.78898743047375
 20
-66.373154884735413
 30
0.0
 10
26.974433157126452
 20
-66.217973404654913
 30
0.0
 10
27.156230361443701
 20
-66.065845017819811
 30
0.0
 10
27.339556615642319
 20
-65.912428709601954
 30
0.0
 10
27.524420523447599
 20
-65.757717363321717
 30
0.0
 11
26.42442052344542
 21
-66.67819926235461
 31
0.0
 11
26.697850994559762
 21
-66.449411543949736
 31
0.0
 11
26.974433157126452
 21
-66.217973404654913
 31
0.0
 11
27.248276826479014
 21
-65.988813993780241
 31
0.0
 11
27.524420523447599
 21
-65.757717363321717
 31
0.0
  0
SPLINE
  5
18B
100
AcDbEntity
  8
0
  6
CONTINUOUS
 62
             7
100
AcDbSpline
210
0.0
220
0.0
230
1.0
 70
             0
 71
             3
 72
            11
 73
             7
 74
             5
 42
0.00000000001
 43
0.00000000001
 44
0.00000000001
 40
12.602224985190871
 40
12.602224985190871
 40
12.602224985190871
 40
12.602224985190871
 40
13.31938726627383
 40
13.31938726627383
 40
13.31938726627383
 40
14.03654953995088
 40
14.03654953995088
 40
14.03654953995088
 40
14.03654953995088
 10
-26.424420523447221
 20
-66.67819926235461
 30
0.0
 10
-26.60642174173789
 20
-66.525917665050656
 30
0.0
 10
-26.789761535584152
 20
-66.372507111511368
 30
0.0
 10
-26.974433157128249
 20
-66.217973404654913
 30
0.0
 10
-27.156161294617949
 20
-66.065902813126741
 30
0.0
 10
-27.3394860437338
 20
-65.912487770754524
 30
0.0
 10
-27.5244205234494
 20
-65.757717363321717
 30
0.0
 11
-26.424420523447221
 21
-66.67819926235461
 31
0.0
 11
-26.698425439067702
 21
-66.448930874586949
 31
0.0
 11
-26.974433157128249
 21
-66.217973404654913
 31
0.0
 11
-27.248224461954113
 21
-65.988857814952553
 31
0.0
 11
-27.5244205234494
 21
-65.757717363321717
 31
0.0
  0
SPLINE
  5
18A
100
AcDbEntity
  8
0
  6
CONTINUOUS
 62
             7
100
AcDbSpline
210
0.0
220
0.0
230
1.0
 70
             0
 71
             3
 72
            11
 73
             7
 74
             5
 42
0.00000000001
 43
0.00000000001
 44
0.00000000001
 40
110.6006816517057
 40
110.6006816517057
 40
110.6006816517057
 40
110.6006816517057
 40
111.20324172357979
 40
111.20324172357979
 40
111.20324172357979
 40
111.8057903305485
 40
111.8057903305485
 40
111.8057903305485
 40
111.8057903305485
 10
20.876917962733401
 20
-65.757717363321717
 30
0.0
 10
20.746359006493559
 20
-65.91223985527904
 30
0.0
 10
20.616724246668142
 20
-66.065660352287523
 30
0.0
 10
20.488018185179509
 20
-66.217973382477794
 30
0.0
 10
20.35652598196522
 20
-66.373583582077117
 30
0.0
 10
20.226903152003629
 20
-66.526972734645824
 30
0.0
 10
20.099100503425699
 20
-66.67819926235461
 30
0.0
 11
20.876917962733401
 21
-65.757717363321717
 31
0.0
 11
20.681773238424753
 21
-65.9886739210624
 31
0.0
 11
20.488018185179509
 21
-66.217973382477794
 31
0.0
 11
20.29217576131397
 21
-66.449730199375153
 31
0.0
 11
20.099100503425699
 21
-66.67819926235461
 31
0.0
  0
SPLINE
  5
189
100
AcDbEntity
  8
0
  6
CONTINUOUS
 62
             7
100
AcDbSpline
210
0.0
220
0.0
230
1.0
 70
             0
 71
             3
 72
            11
 73
             7
 74
             5
 42
0.00000000001
 43
0.00000000001
 44
0.00000000001
 40
12.60222498519019
 40
12.60222498519019
 40
12.60222498519019
 40
12.60222498519019
 40
13.20477356312731
 40
13.20477356312731
 40
13.20477356312731
 40
13.807333664033029
 40
13.807333664033029
 40
13.807333664033029
 40
13.807333664033029
 10
-17.270673378684471
 20
-66.67819926235461
 30
0.0
 10
-17.398734616502232
 20
-66.526666750742152
 30
0.0
 10
-17.528362007048589
 20
-66.373272165914386
 30
0.0
 10
-17.65959104169541
 20
-66.217973404654913
 30
0.0
 10
-17.788328314237319
 20
-66.065623438753391
 30
0.0
 10
-17.917963808396038
 20
-65.912202068633633
 30
0.0
 10
-18.048490837988531
 20
-65.757717363321717
 30
0.0
 11
-17.270673378684471
 21
-66.67819926235461
 31
0.0
 11
-17.463944286379043
 21
-66.449498677122392
 31
0.0
 11
-17.65959104169541
 21
-66.217973404654913
 31
0.0
 11
-17.853369780948
 21
-65.988645911267213
 31
0.0
 11
-18.048490837988531
 21
-65.757717363321717
 31
0.0
  0
SPLINE
  5
188
100
AcDbEntity
  8
0
  6
CONTINUOUS
 62
             7
100
AcDbSpline
210
0.0
220
0.0
230
1.0
 70
             0
 71
             3
 72
            11
 73
             7
 74
             5
 42
0.00000000001
 43
0.00000000001
 44
0.00000000001
 40
110.6006816516911
 40
110.6006816516911
 40
110.6006816516911
 40
110.6006816516911
 40
111.2032417235651
 40
111.2032417235651
 40
111.2032417235651
 40
111.8057903305339
 40
111.8057903305339
 40
111.8057903305339
 40
111.8057903305339
 10
18.04849083799764
 20
-65.757717363372649
 30
0.0
 10
17.91787329211639
 20
-65.912309198782168
 30
0.0
 10
17.788239850501679
 20
-66.06572812829836
 30
0.0
 10
17.659591060432842
 20
-66.217973382477794
 30
0.0
 10
17.528461936627551
 20
-66.373153907483356
 30
0.0
 10
17.39883267014649
 20
-66.526550725662673
 30
0.0
 10
17.270673378679032
 20
-66.67819926235461
 30
0.0
 11
18.04849083799764
 21
-65.757717363372649
 31
0.0
 11
17.853302665785584
 21
-65.988725340886504
 31
0.0
 11
17.659591060432842
 21
-66.217973382477794
 31
0.0
 11
17.464018532429243
 21
-66.449410818033797
 31
0.0
 11
17.270673378679032
 21
-66.67819926235461
 31
0.0
  0
SPLINE
  5
187
100
AcDbEntity
  8
0
  6
CONTINUOUS
 62
             7
100
AcDbSpline
210
0.0
220
0.0
230
1.0
 70
             0
 71
             3
 72
            11
 73
             7
 74
             5
 42
0.00000000001
 43
0.00000000001
 44
0.00000000001
 40
12.60222498519215
 40
12.60222498519215
 40
12.60222498519215
 40
12.60222498519215
 40
13.20477356312929
 40
13.20477356312929
 40
13.20477356312929
 40
13.80733366403499
 40
13.80733366403499
 40
13.80733366403499
 40
13.80733366403499
 10
-20.099100503427501
 20
-66.67819926235461
 30
0.0
 10
-20.227551685748939
 20
-66.526205336573184
 30
0.0
 10
-20.357186965303288
 20
-66.372801362700557
 30
0.0
 10
-20.488018166442082
 20
-66.217973404654913
 30
0.0
 10
-20.615852009709659
 20
-66.066692572938337
 30
0.0
 10
-20.745469537575438
 20
-65.913292582401482
 30
0.0
 10
-20.876917962735199
 20
-65.757717363321717
 30
0.0
 11
-20.099100503427501
 21
-66.67819926235461
 31
0.0
 11
-20.292666827878286
 21
-66.449149095603843
 31
0.0
 11
-20.488018166442082
 21
-66.217973404654913
 31
0.0
 11
-20.681112596379069
 21
-65.989455779249511
 31
0.0
 11
-20.876917962735199
 21
-65.757717363321717
 31
0.0
  0
SPLINE
  5
186
100
AcDbEntity
  8
0
  6
CONTINUOUS
 62
             7
100
AcDbSpline
210
0.0
220
0.0
230
1.0
 70
             0
 71
             3
 72
            11
 73
             7
 74
             5
 42
0.00000000001
 43
0.00000000001
 44
0.00000000001
 40
10.195552434652781
 40
10.195552434652781
 40
10.195552434652781
 40
10.195552434652781
 40
11.264995853159769
 40
11.264995853159769
 40
11.264995853159769
 40
12.33452008509969
 40
12.33452008509969
 40
12.33452008509969
 40
12.33452008509969
 10
-0.0000000000009024
 20
-65.0
 30
0.0
 10
-0.3366485074011436
 20
-65.13779164450898
 30
0.0
 10
-0.6681681591735398
 20
-65.268478900456103
 30
0.0
 10
-0.9948383386408679
 20
-65.392374328675942
 30
0.0
 10
-1.3318473291264969
 20
-65.520190933351842
 30
0.0
 10
-1.666845105589339
 20
-65.641973704743577
 30
0.0
 10
-2.0000000000009019
 20
-65.757717363321717
 30
0.0
 11
-0.0000000000009024
 21
-65.0
 31
0.0
 11
-0.5011610422957276
 21
-65.201398245446399
 31
0.0
 11
-0.9948383386408679
 21
-65.392374328675942
 31
0.0
 11
-1.498864455348659
 21
-65.579573200785489
 31
0.0
 11
-2.0000000000009019
 21
-65.757717363321717
 31
0.0
  0
SPLINE
  5
185
100
AcDbEntity
  8
0
  6
CONTINUOUS
 62
             7
100
AcDbSpline
210
0.0
220
0.0
230
1.0
 70
             0
 71
             3
 72
            11
 73
             7
 74
             5
 42
0.00000000001
 43
0.00000000001
 44
0.00000000001
 40
10.195552434652781
 40
10.195552434652781
 40
10.195552434652781
 40
10.195552434652781
 40
10.72829261095816
 40
10.72829261095816
 40
10.72829261095816
 40
11.244087937724711
 40
11.244087937724711
 40
11.244087937724711
 40
11.244087937724711
 10
-20.152543263816359
 20
-65.0
 30
0.0
 10
-20.274607587210092
 20
-65.137943633464602
 30
0.0
 10
-20.394678575958999
 20
-65.268618442292791
 30
0.0
 10
-20.51286112483011
 20
-65.392374328675942
 30
0.0
 10
-20.635342013659269
 20
-65.520631259219954
 30
0.0
 10
-20.7566672900948
 20
-65.642370644422044
 30
0.0
 10
-20.876917962735199
 20
-65.757717363321717
 30
0.0
 11
-20.152543263816359
 21
-65.0
 31
0.0
 11
-20.334157859769217
 21
-65.201507569493515
 31
0.0
 11
-20.51286112483011
 21
-65.392374328675942
 31
0.0
 11
-20.695725874853441
 21
-65.579887175365457
 31
0.0
 11
-20.876917962735199
 21
-65.757717363321717
 31
0.0
  0
SPLINE
  5
184
100
AcDbEntity
  8
0
  6
CONTINUOUS
 62
             7
100
AcDbSpline
210
0.0
220
0.0
230
1.0
 70
             0
 71
             3
 72
            11
 73
             7
 74
             5
 42
0.00000000001
 43
0.00000000001
 44
0.00000000001
 40
10.19555243465293
 40
10.19555243465293
 40
10.19555243465293
 40
10.19555243465293
 40
11.313304530967139
 40
11.313304530967139
 40
11.313304530967139
 40
12.43211945463684
 40
12.43211945463684
 40
12.43211945463684
 40
12.43211945463684
 10
-20.152543263816359
 20
-65.0
 30
0.0
 10
-19.798548731579089
 20
-65.137726078839478
 30
0.0
 10
-19.449779689338349
 20
-65.268418751402351
 30
0.0
 10
-19.105947253953659
 20
-65.392374328675942
 30
0.0
 10
-18.750301521876271
 20
-65.520588736297213
 30
0.0
 10
-18.39789278902844
 20
-65.642332252180495
 30
0.0
 10
-18.048490837988531
 20
-65.757717363321717
 30
0.0
 11
-20.152543263816359
 21
-65.0
 31
0.0
 11
-19.625434472565289
 21
-65.201351102425178
 31
0.0
 11
-19.105947253953659
 21
-65.392374328675942
 31
0.0
 11
-18.574877628082042
 21
-65.579856832178848
 31
0.0
 11
-18.048490837988531
 21
-65.757717363321717
 31
0.0
  0
SPLINE
  5
183
100
AcDbEntity
  8
0
  6
CONTINUOUS
 62
             7
100
AcDbSpline
210
0.0
220
0.0
230
1.0
 70
             0
 71
             3
 72
            11
 73
             7
 74
             5
 42
0.00000000001
 43
0.00000000001
 44
0.00000000001
 40
10.19555243465283
 40
10.19555243465283
 40
10.19555243465283
 40
10.19555243465283
 40
11.26499585315983
 40
11.26499585315983
 40
11.26499585315983
 40
12.33452008509976
 40
12.33452008509976
 40
12.33452008509976
 40
12.33452008509976
 10
-0.0000000000009024
 20
-65.0
 30
0.0
 10
0.3332558010361097
 20
-65.136402995580283
 30
0.0
 10
0.6648254651472669
 20
-65.26721112478117
 30
0.0
 10
0.9948383386390631
 20
-65.392374328675942
 30
0.0
 10
1.332898932970245
 20
-65.520589772662788
 30
0.0
 10
1.667879836269101
 20
-65.642333187726763
 30
0.0
 10
1.9999999999990981
 20
-65.757717363321717
 30
0.0
 11
-0.0000000000009024
 21
-65.0
 31
0.0
 11
0.4986352671485363
 21
-65.200402086220038
 31
0.0
 11
0.9948383386390631
 21
-65.392374328675942
 31
0.0
 11
1.4996468307945248
 21
-65.579857571645789
 31
0.0
 11
1.9999999999990981
 21
-65.757717363321717
 31
0.0
  0
SPLINE
  5
182
100
AcDbEntity
  8
0
  6
CONTINUOUS
 62
             7
100
AcDbSpline
210
0.0
220
0.0
230
1.0
 70
             0
 71
             3
 72
            11
 73
             7
 74
             5
 42
0.00000000001
 43
0.00000000001
 44
0.00000000001
 40
9.6520212354362265
 40
9.6520212354362265
 40
9.6520212354362265
 40
9.6520212354362265
 40
10.16722522019518
 40
10.16722522019518
 40
10.16722522019518
 40
10.7005567454881
 40
10.7005567454881
 40
10.7005567454881
 40
10.7005567454881
 10
20.876917962733401
 20
-65.757717363321717
 30
0.0
 10
20.757140629207239
 20
-65.642824680347985
 30
0.0
 10
20.635955804776142
 20
-65.521262157100864
 30
0.0
 10
20.513269559584849
 20
-65.392802005018893
 30
0.0
 10
20.394165524877291
 20
-65.268092650778271
 30
0.0
 10
20.273949000375989
 20
-65.137199371198221
 30
0.0
 10
20.152543263814561
 20
-65.0
 30
0.0
 11
20.876917962733401
 21
-65.757717363321717
 31
0.0
 11
20.696184603033551
 21
-65.580347485085895
 31
0.0
 11
20.513269559584849
 21
-65.392802005018893
 31
0.0
 11
20.333769549894907
 21
-65.201084758868546
 31
0.0
 11
20.152543263814561
 21
-65.0
 31
0.0
  0
SPLINE
  5
181
100
AcDbEntity
  8
0
  6
CONTINUOUS
 62
             7
100
AcDbSpline
210
0.0
220
0.0
230
1.0
 70
             0
 71
             3
 72
            11
 73
             7
 74
             5
 42
0.00000000001
 43
0.00000000001
 44
0.00000000001
 40
10.19448601636854
 40
10.19448601636854
 40
10.19448601636854
 40
10.19448601636854
 40
10.818569247931419
 40
10.818569247931419
 40
10.818569247931419
 40
11.430058017314931
 40
11.430058017314931
 40
11.430058017314931
 40
11.430058017314931
 10
-28.500000000000899
 20
-65.0
 30
0.0
 10
-28.33668186586236
 20
-65.13704018612043
 30
0.0
 10
-28.17495890605732
 20
-65.26779119479761
 30
0.0
 10
-28.014728269129581
 20
-65.392374171642587
 30
0.0
 10
-27.849789339584269
 20
-65.52061795345071
 30
0.0
 10
-27.686389549374319
 20
-65.642358672495902
 30
0.0
 10
-27.5244205234494
 20
-65.757717363321717
 30
0.0
 11
-28.500000000000899
 21
-65.0
 31
0.0
 11
-28.25620632311119
 21
-65.200858539299588
 31
0.0
 11
-28.014728269129581
 21
-65.392374171642587
 31
0.0
 11
-27.76846068243184
 21
-65.579877676600518
 31
0.0
 11
-27.5244205234494
 21
-65.757717363321717
 31
0.0
  0
LINE
  5
180
100
AcDbEntity
  8
1
  6
PHANTOM
 62
             2
100
AcDbLine
 10
-0.0000000000009
 20
-50.0
 11
-0.0000000000009
 21
-52.5
  0
LINE
  5
17F
100
AcDbEntity
  8
0
  6
CONTINUOUS
 62
             7
100
AcDbLine
 10
18.04849083798673
 20
-52.5
 11
20.0991005034257
 21
-52.5
  0
LINE
  5
17E
100
AcDbEntity
  8
0
  6
CONTINUOUS
 62
             7
100
AcDbLine
 10
20.8769179627334
 20
-52.5
 11
26.42442052344542
 21
-52.5
  0
LINE
  5
17D
100
AcDbEntity
  8
0
  6
CONTINUOUS
 62
             7
100
AcDbLine
 10
-2.0000000000009
 20
-52.5
 11
-17.27067337868447
 21
-52.5
  0
LINE
  5
17C
100
AcDbEntity
  8
0
  6
CONTINUOUS
 62
             7
100
AcDbLine
 10
26.42442052344542
 20
-52.5
 11
27.5244205234476
 21
-52.5
  0
LINE
  5
17B
100
AcDbEntity
  8
0
  6
CONTINUOUS
 62
             7
100
AcDbLine
 10
27.5244205234476
 20
-52.5
 11
27.5244205234476
 21
-65.75771736332172
  0
LINE
  5
17A
100
AcDbEntity
  8
0
  6
CONTINUOUS
 62
             7
100
AcDbLine
 10
20.0991005034257
 20
-66.67819926235461
 11
26.42442052344542
 21
-66.67819926235461
  0
LINE
  5
179
100
AcDbEntity
  8
0
  6
CONTINUOUS
 62
             7
100
AcDbLine
 10
-2.0000000000009
 20
-65.75771736332172
 11
-2.0000000000009
 21
-66.67819926235461
  0
LINE
  5
178
100
AcDbEntity
  8
0
  6
CONTINUOUS
 62
             7
100
AcDbLine
 10
26.42442052344542
 20
-52.5
 11
26.42442052344542
 21
-66.67819926235461
  0
LINE
  5
177
100
AcDbEntity
  8
0
  6
CONTINUOUS
 62
             7
100
AcDbLine
 10
28.4999999999991
 20
-50.0
 11
28.4999999999991
 21
-52.5
  0
LINE
  5
176
100
AcDbEntity
  8
0
  6
CONTINUOUS
 62
             7
100
AcDbLine
 10
-28.5000000000009
 20
-50.0
 11
-28.5000000000009
 21
-52.5
  0
LINE
  5
175
100
AcDbEntity
  8
0
  6
CONTINUOUS
 62
             7
100
AcDbLine
 10
-28.5000000000009
 20
-50.0
 11
28.4999999999991
 21
-50.0
  0
LINE
  5
174
100
AcDbEntity
  8
0
  6
CONTINUOUS
 62
             7
100
AcDbLine
 10
-27.5244205234494
 20
-52.5
 11
-27.5244205234494
 21
-65.75771736332172
  0
LINE
  5
173
100
AcDbEntity
  8
0
  6
CONTINUOUS
 62
             7
100
AcDbLine
 10
-20.8769179627352
 20
-52.5
 11
-26.42442052344722
 21
-52.5
  0
LINE
  5
172
100
AcDbEntity
  8
0
  6
CONTINUOUS
 62
             7
100
AcDbLine
 10
-26.42442052344722
 20
-52.5
 11
-26.42442052344722
 21
-66.67819926235461
  0
LINE
  5
171
100
AcDbEntity
  8
0
  6
CONTINUOUS
 62
             7
100
AcDbLine
 10
-20.0991005034275
 20
-66.67819926235461
 11
-26.42442052344722
 21
-66.67819926235461
  0
LINE
  5
170
100
AcDbEntity
  8
0
  6
CONTINUOUS
 62
             7
100
AcDbLine
 10
20.0991005034257
 20
-52.5
 11
20.15254326381456
 21
-52.5
  0
LINE
  5
16F
100
AcDbEntity
  8
0
  6
CONTINUOUS
 62
             7
100
AcDbLine
 10
-0.0000000000009
 20
-52.5
 11
1.9999999999991
 21
-52.5
  0
LINE
  5
16E
100
AcDbEntity
  8
0
  6
CONTINUOUS
 62
             7
100
AcDbLine
 10
-20.0991005034275
 20
-52.5
 11
-18.04849083798853
 21
-52.5
  0
LINE
  5
16D
100
AcDbEntity
  8
0
  6
CONTINUOUS
 62
             7
100
AcDbLine
 10
-17.27067337868447
 20
-52.5
 11
-18.04849083798853
 21
-52.5
  0
LINE
  5
16C
100
AcDbEntity
  8
0
  6
CONTINUOUS
 62
             7
100
AcDbLine
 10
-0.0000000000009
 20
-52.5
 11
-2.0000000000009
 21
-52.5
  0
LINE
  5
16B
100
AcDbEntity
  8
0
  6
CONTINUOUS
 62
             7
100
AcDbLine
 10
-20.0991005034275
 20
-52.5
 11
-20.15254326381636
 21
-52.5
  0
LINE
  5
16A
100
AcDbEntity
  8
0
  6
CONTINUOUS
 62
             7
100
AcDbLine
 10
-20.15254326381636
 20
-52.5
 11
-20.8769179627352
 21
-52.5
  0
LINE
  5
169
100
AcDbEntity
  8
0
  6
CONTINUOUS
 62
             7
100
AcDbLine
 10
17.27067337867903
 20
-52.5
 11
1.9999999999991
 21
-52.5
  0
LINE
  5
168
100
AcDbEntity
  8
0
  6
CONTINUOUS
 62
             7
100
AcDbLine
 10
18.04849083798673
 20
-52.5
 11
17.27067337867903
 21
-52.5
  0
LINE
  5
167
100
AcDbEntity
  8
0
  6
CONTINUOUS
 62
             7
100
AcDbLine
 10
20.8769179627334
 20
-52.5
 11
20.15254326381456
 21
-52.5
  0
LINE
  5
166
100
AcDbEntity
  8
0
  6
CONTINUOUS
 62
             7
100
AcDbLine
 10
20.8769179627334
 20
-52.5
 11
20.8769179627334
 21
-63.0
  0
LINE
  5
165
100
AcDbEntity
  8
0
  6
CONTINUOUS
 62
             7
100
AcDbLine
 10
-20.8769179627352
 20
-52.5
 11
-20.8769179627352
 21
-64.0
  0
LINE
  5
164
100
AcDbEntity
  8
0
  6
CONTINUOUS
 62
             7
100
AcDbLine
 10
-0.0000000000009
 20
-52.5
 11
-0.0000000000009
 21
-65.0
  0
LINE
  5
163
100
AcDbEntity
  8
0
  6
CONTINUOUS
 62
             7
100
AcDbLine
 10
-20.15254326381636
 20
-52.5
 11
-20.15254326381636
 21
-65.0
  0
LINE
  5
162
100
AcDbEntity
  8
0
  6
CONTINUOUS
 62
             7
100
AcDbLine
 10
20.15254326381456
 20
-52.5
 11
20.15254326381456
 21
-65.0
  0
LINE
  5
161
100
AcDbEntity
  8
0
  6
CONTINUOUS
 62
             7
100
AcDbLine
 10
-2.0000000000009
 20
-52.5
 11
-2.0000000000009
 21
-65.75771736332172
  0
LINE
  5
160
100
AcDbEntity
  8
0
  6
CONTINUOUS
 62
             7
100
AcDbLine
 10
18.04849083798673
 20
-52.5
 11
18.04849083799764
 21
-65.75771736337265
  0
LINE
  5
15F
100
AcDbEntity
  8
0
  6
CONTINUOUS
 62
             7
100
AcDbLine
 10
-18.04849083798853
 20
-52.5
 11
-18.04849083798853
 21
-65.75771736332172
  0
LINE
  5
15E
100
AcDbEntity
  8
0
  6
CONTINUOUS
 62
             7
100
AcDbLine
 10
-20.8769179627352
 20
-64.0
 11
-20.8769179627352
 21
-65.75771736332172
  0
LINE
  5
15D
100
AcDbEntity
  8
0
  6
CONTINUOUS
 62
             7
100
AcDbLine
 10
1.9999999999991
 20
-52.5
 11
1.9999999999991
 21
-65.75771736332172
  0
LINE
  5
15C
100
AcDbEntity
  8
0
  6
CONTINUOUS
 62
             7
100
AcDbLine
 10
17.27067337867903
 20
-52.5
 11
17.27067337867903
 21
-66.67819926235461
  0
LINE
  5
15B
100
AcDbEntity
  8
0
  6
CONTINUOUS
 62
             7
100
AcDbLine
 10
1.9999999999991
 20
-65.75771736332172
 11
1.9999999999991
 21
-66.67819926235461
  0
LINE
  5
15A
100
AcDbEntity
  8
0
  6
CONTINUOUS
 62
             7
100
AcDbLine
 10
-17.27067337868447
 20
-52.5
 11
-17.27067337868447
 21
-66.67819926235461
  0
LINE
  5
159
100
AcDbEntity
  8
0
  6
CONTINUOUS
 62
             7
100
AcDbLine
 10
-2.0000000000009
 20
-66.67819926235461
 11
-17.27067337868447
 21
-66.67819926235461
  0
LINE
  5
158
100
AcDbEntity
  8
0
  6
CONTINUOUS
 62
             7
100
AcDbLine
 10
17.27067337867903
 20
-66.67819926235461
 11
1.9999999999991
 21
-66.67819926235461
  0
LINE
  5
157
100
AcDbEntity
  8
0
  6
CONTINUOUS
 62
             7
100
AcDbLine
 10
20.8769179627334
 20
-64.0
 11
20.8769179627334
 21
-65.75771736332172
  0
LINE
  5
156
100
AcDbEntity
  8
0
  6
CONTINUOUS
 62
             7
100
AcDbLine
 10
20.8769179627334
 20
-63.0
 11
20.8769179627334
 21
-64.0
  0
LINE
  5
155
100
AcDbEntity
  8
0
  6
CONTINUOUS
 62
             7
100
AcDbLine
 10
-26.42442052344722
 20
-52.5
 11
-27.5244205234494
 21
-52.5
  0
LINE
  5
154
100
AcDbEntity
  8
0
  6
CONTINUOUS
 62
             7
100
AcDbLine
 10
26.11649281480915
 20
-67.0
 11
28.49999999998091
 21
-65.00000000003638
  0
LINE
  5
153
100
AcDbEntity
  8
0
  6
CONTINUOUS
 62
             7
100
AcDbLine
 10
28.4999999999991
 20
-52.5
 11
27.5244205234476
 21
-52.5
  0
LINE
  5
152
100
AcDbEntity
  8
0
  6
CONTINUOUS
 62
             7
100
AcDbLine
 10
-28.5000000000009
 20
-52.5
 11
-27.5244205234494
 21
-52.5
  0
LINE
  5
151
100
AcDbEntity
  8
0
  6
CONTINUOUS
 62
             7
100
AcDbLine
 10
-28.5000000000009
 20
-52.5
 11
-28.5000000000009
 21
-65.0
  0
LINE
  5
150
100
AcDbEntity
  8
0
  6
CONTINUOUS
 62
             7
100
AcDbLine
 10
28.4999999999991
 20
-52.5
 11
28.49999999998091
 21
-65.00000000003638
  0
LINE
  5
14F
100
AcDbEntity
  8
0
  6
CONTINUOUS
 62
             7
100
AcDbLine
 10
-26.11649281481094
 20
-67.0
 11
-28.5000000000009
 21
-65.0
  0
LINE
  5
14E
100
AcDbEntity
  8
0
  6
CONTINUOUS
 62
             7
100
AcDbLine
 10
26.11649281480915
 20
-67.0
 11
-26.11649281481094
 21
-67.0
  0
ENDBLK
  5
18F
100
AcDbEntity
  8
0
100
AcDbBlockEnd
  0
BLOCK
  5
30
100
AcDbEntity
  8
0
100
AcDbBlockBegin
  2
HL_500_K_RPER
 70
             0
 10
80.0
 20
-36.0
 30
0.0
  3
HL_500_K_RPER
  1

  0
ARC
  5
1CC
100
AcDbEntity
  8
1
  6
CONTINUOUS
 62
             7
100
AcDbCircle
 10
52.5
 20
-95.5
 40
4.49999999999999
100
AcDbArc
 50
180.0
 51
-90.0
  0
ARC
  5
1CB
100
AcDbEntity
  8
1
  6
CONTINUOUS
 62
             7
100
AcDbCircle
 10
44.50000000000001
 20
-86.78356083413974
 40
3.5
100
AcDbArc
 50
0.0
 51
82.64486212908312
  0
ARC
  5
1CA
100
AcDbEntity
  8
1
  6
CONTINUOUS
 62
             7
100
AcDbCircle
 10
120.5
 20
-88.5
 40
1.0
100
AcDbArc
 50
-90.0
 51
0.0
  0
ARC
  5
1C9
100
AcDbEntity
  8
1
  6
CONTINUOUS
 62
             7
100
AcDbCircle
 10
-19.99999999999999
 20
-88.5
 40
1.0
100
AcDbArc
 50
180.0
 51
-90.0
  0
ARC
  5
1C8
100
AcDbEntity
  8
1
  6
CONTINUOUS
 62
             7
100
AcDbCircle
 10
120.5
 20
-90.5
 40
1.0000000000002
100
AcDbArc
 50
0.0
 51
90.0
  0
ARC
  5
1C7
100
AcDbEntity
  8
1
  6
CONTINUOUS
 62
             7
100
AcDbCircle
 10
-19.99999999999999
 20
-90.5
 40
1.0
100
AcDbArc
 50
90.0
 51
180.0
  0
ARC
  5
1C6
100
AcDbEntity
  8
1
  6
CONTINUOUS
 62
             7
100
AcDbCircle
 10
-10.99999999999999
 20
-91.0
 40
9.0
100
AcDbArc
 50
180.0
 51
-90.0
  0
ARC
  5
1C5
100
AcDbEntity
  8
1
  6
CONTINUOUS
 62
             7
100
AcDbCircle
 10
115.5
 20
-95.0
 40
5.0
100
AcDbArc
 50
-90.0
 51
0.0
  0
ARC
  5
1C4
100
AcDbEntity
  8
1
  6
CONTINUOUS
 62
             7
100
AcDbCircle
 10
55.5
 20
-74.0
 40
16.00000000000002
100
AcDbArc
 50
131.40962210927094
 51
180.0
  0
ARC
  5
1C3
100
AcDbEntity
  8
1
  6
CONTINUOUS
 62
             7
100
AcDbCircle
 10
104.5
 20
-74.0
 40
16.0
100
AcDbArc
 50
0.0
 51
48.59037789072904
  0
LINE
  5
1C2
100
AcDbEntity
  8
1
  6
PHANTOM
 62
             2
100
AcDbLine
 10
-48.38751778876758
 20
-81.0
 11
-17.82899644505233
 21
-81.0
  0
LINE
  5
1C1
100
AcDbEntity
  8
1
  6
CONTINUOUS
 62
             7
100
AcDbLine
 10
-22.7857142857174
 20
-87.25
 11
-20.0
 21
-87.25
  0
LINE
  5
1C0
100
AcDbEntity
  8
1
  6
CONTINUOUS
 62
             7
100
AcDbLine
 10
-22.7857142857174
 20
-74.75
 11
-20.0
 21
-74.75
  0
LINE
  5
1BF
100
AcDbEntity
  8
0
  6
CONTINUOUS
 62
             7
100
AcDbLine
 10
-26.5
 20
-74.75
 11
-26.5
 21
-75.75
  0
LINE
  5
1BE
100
AcDbEntity
  8
0
  6
CONTINUOUS
 62
             7
100
AcDbLine
 10
-33.5
 20
-75.25
 11
-33.5
 21
-76.0
  0
LINE
  5
1BD
100
AcDbEntity
  8
0
  6
CONTINUOUS
 62
             7
100
AcDbLine
 10
-40.0
 20
-76.0
 11
-40.0
 21
-76.25
  0
LINE
  5
1BC
100
AcDbEntity
  8
0
  6
CONTINUOUS
 62
             7
100
AcDbLine
 10
-26.5
 20
-86.25
 11
-22.7857142857174
 21
-87.25
  0
LINE
  5
1BB
100
AcDbEntity
  8
0
  6
CONTINUOUS
 62
             7
100
AcDbLine
 10
-47.0
 20
-76.5
 11
-47.0
 21
-77.5
  0
LINE
  5
1BA
100
AcDbEntity
  8
0
  6
CONTINUOUS
 62
             7
100
AcDbLine
 10
-47.0
 20
-85.5
 11
-40.0
 21
-86.0
  0
LINE
  5
1B9
100
AcDbEntity
  8
0
  6
CONTINUOUS
 62
             7
100
AcDbLine
 10
-26.5
 20
-86.25
 11
-26.5
 21
-87.25
  0
LINE
  5
1B8
100
AcDbEntity
  8
0
  6
CONTINUOUS
 62
             7
100
AcDbLine
 10
-33.5
 20
-86.0
 11
-26.5
 21
-87.25
  0
LINE
  5
1B7
100
AcDbEntity
  8
0
  6
CONTINUOUS
 62
             7
100
AcDbLine
 10
-33.5
 20
-86.0
 11
-33.5
 21
-86.75
  0
LINE
  5
1B6
100
AcDbEntity
  8
0
  6
CONTINUOUS
 62
             7
100
AcDbLine
 10
-40.0
 20
-85.75
 11
-40.0
 21
-86.0
  0
LINE
  5
1B5
100
AcDbEntity
  8
0
  6
CONTINUOUS
 62
             7
100
AcDbLine
 10
-40.0
 20
-85.75
 11
-33.5
 21
-86.75
  0
LINE
  5
1B4
100
AcDbEntity
  8
0
  6
CONTINUOUS
 62
             7
100
AcDbLine
 10
-47.0
 20
-84.5
 11
-47.0
 21
-85.5
  0
LINE
  5
1B3
100
AcDbEntity
  8
0
  6
CONTINUOUS
 62
             7
100
AcDbLine
 10
-47.0
 20
-77.5
 11
-47.0
 21
-84.5
  0
LINE
  5
1B2
100
AcDbEntity
  8
0
  6
CONTINUOUS
 62
             7
100
AcDbLine
 10
-47.0
 20
-76.5
 11
-40.0
 21
-76.0
  0
LINE
  5
1B1
100
AcDbEntity
  8
0
  6
CONTINUOUS
 62
             7
100
AcDbLine
 10
-40.0
 20
-76.25
 11
-33.5
 21
-75.25
  0
LINE
  5
1B0
100
AcDbEntity
  8
0
  6
CONTINUOUS
 62
             7
100
AcDbLine
 10
-33.5
 20
-76.0
 11
-26.5
 21
-74.75
  0
LINE
  5
1AF
100
AcDbEntity
  8
0
  6
CONTINUOUS
 62
             7
100
AcDbLine
 10
-26.5
 20
-75.75
 11
-22.7857142857174
 21
-74.75
  0
LINE
  5
1AE
100
AcDbEntity
  8
1
  6
CONTINUOUS
 62
             7
100
AcDbLine
 10
-40.0
 20
-76.25
 11
-40.0
 21
-85.75
  0
LINE
  5
1AD
100
AcDbEntity
  8
1
  6
CONTINUOUS
 62
             7
100
AcDbLine
 10
-33.5
 20
-76.0
 11
-33.5
 21
-86.0
  0
LINE
  5
1AC
100
AcDbEntity
  8
1
  6
CONTINUOUS
 62
             7
100
AcDbLine
 10
-26.5
 20
-86.25
 11
-26.5
 21
-75.75
  0
LINE
  5
1AB
100
AcDbEntity
  8
1
  6
CONTINUOUS
 62
             7
100
AcDbLine
 10
-22.7857142857174
 20
-74.75
 11
-22.7857142857174
 21
-87.25
  0
LINE
  5
1AA
100
AcDbEntity
  8
1
  6
DOT_CENTER
 62
             2
100
AcDbLine
 10
-50.0
 20
-77.0
 11
-48.0
 21
-77.0
  0
LINE
  5
1A9
100
AcDbEntity
  8
1
  6
DOT_CENTER
 62
             2
100
AcDbLine
 10
-48.0
 20
-85.0
 11
-50.0
 21
-85.0
  0
LINE
  5
1A8
100
AcDbEntity
  8
1
  6
CONTINUOUS
 62
             7
100
AcDbLine
 10
110.5
 20
-55.20000000000005
 11
110.5
 21
-62.0
  0
LINE
  5
1A7
100
AcDbEntity
  8
1
  6
CONTINUOUS
 62
             7
100
AcDbLine
 10
42.50000000000001
 20
-72.5
 11
117.5
 21
-72.5
  0
LINE
  5
1A6
100
AcDbEntity
  8
1
  6
CONTINUOUS
 62
             7
100
AcDbLine
 10
-14.37273111799231
 20
-95.49345790605503
 11
117.5
 21
-95.49345790605503
  0
LINE
  5
1A5
100
AcDbEntity
  8
1
  6
CONTINUOUS
 62
             7
100
AcDbLine
 10
48.00000000000001
 20
-86.78356083413974
 11
48.00000000000001
 21
-95.5
  0
LINE
  5
1A4
100
AcDbEntity
  8
1
  6
CONTINUOUS
 62
             7
100
AcDbLine
 10
39.50000000000001
 20
-82.60911684091479
 11
44.94806680354192
 21
-83.31235986911861
  0
LINE
  5
1A3
100
AcDbEntity
  8
1
  6
CONTINUOUS
 62
             7
100
AcDbLine
 10
49.50000000000001
 20
-62.0
 11
110.5
 21
-62.0
  0
LINE
  5
1A2
100
AcDbEntity
  8
1
  6
CONTINUOUS
 62
             7
100
AcDbLine
 10
121.5000000000002
 20
-88.5
 11
120.5
 21
-88.5
  0
LINE
  5
1A1
100
AcDbEntity
  8
1
  6
CONTINUOUS
 62
             7
100
AcDbLine
 10
-19.99999999999999
 20
-88.5
 11
-20.99999999999999
 21
-88.5
  0
LINE
  5
1A0
100
AcDbEntity
  8
1
  6
CONTINUOUS
 62
             7
100
AcDbLine
 10
-19.99999999999999
 20
-88.5
 11
120.5
 21
-88.5
  0
LINE
  5
19F
100
AcDbEntity
  8
1
  6
CONTINUOUS
 62
             7
100
AcDbLine
 10
-19.99999999999999
 20
-67.0
 11
-19.99999999999999
 21
-88.5
  0
LINE
  5
19E
100
AcDbEntity
  8
1
  6
CONTINUOUS
 62
             7
100
AcDbLine
 10
39.50000000000001
 20
-82.60911684091479
 11
39.50000000000001
 21
-74.0
  0
LINE
  5
19D
100
AcDbEntity
  8
1
  6
CONTINUOUS
 62
             7
100
AcDbLine
 10
20.00000000000001
 20
-80.09203334240533
 11
39.50000000000001
 21
-82.60911684091479
  0
LINE
  5
19C
100
AcDbEntity
  8
1
  6
CONTINUOUS
 62
             7
100
AcDbLine
 10
20.00000000000001
 20
-80.09203334240533
 11
20.00000000000001
 21
-67.0
  0
LINE
  5
19B
100
AcDbEntity
  8
1
  6
CONTINUOUS
 62
             7
100
AcDbLine
 10
-19.99999999999999
 20
-89.5
 11
-16.99999999999999
 21
-89.5
  0
LINE
  5
19A
100
AcDbEntity
  8
1
  6
CONTINUOUS
 62
             7
100
AcDbLine
 10
44.91699475574161
 20
-62.0
 11
49.50000000000001
 21
-62.0
  0
LINE
  5
199
100
AcDbEntity
  8
1
  6
CONTINUOUS
 62
             7
100
AcDbLine
 10
49.50000000000001
 20
-62.0
 11
49.50000000000001
 21
-55.20000000000005
  0
LINE
  5
198
100
AcDbEntity
  8
1
  6
CONTINUOUS
 62
             7
100
AcDbLine
 10
120.5
 20
-89.5
 11
-16.99999999999999
 21
-89.5
  0
LINE
  5
197
100
AcDbEntity
  8
1
  6
CONTINUOUS
 62
             7
100
AcDbLine
 10
120.5
 20
-74.0
 11
120.5
 21
-88.5
  0
LINE
  5
196
100
AcDbEntity
  8
1
  6
CONTINUOUS
 62
             7
100
AcDbLine
 10
110.5
 20
-62.0
 11
115.0830052442584
 21
-62.0
  0
LINE
  5
195
100
AcDbEntity
  8
1
  6
CONTINUOUS
 62
             7
100
AcDbLine
 10
120.5
 20
-90.5
 11
121.5000000000002
 21
-90.5
  0
LINE
  5
194
100
AcDbEntity
  8
1
  6
CONTINUOUS
 62
             7
100
AcDbLine
 10
-20.99999999999999
 20
-90.5
 11
-19.99999999999999
 21
-90.5
  0
LINE
  5
193
100
AcDbEntity
  8
1
  6
CONTINUOUS
 62
             7
100
AcDbLine
 10
-19.99999999999999
 20
-90.5
 11
-19.99999999999999
 21
-91.0
  0
LINE
  5
192
100
AcDbEntity
  8
1
  6
CONTINUOUS
 62
             7
100
AcDbLine
 10
-19.99999999999999
 20
-90.5
 11
120.5
 21
-90.5
  0
LINE
  5
191
100
AcDbEntity
  8
1
  6
CONTINUOUS
 62
             7
100
AcDbLine
 10
120.5
 20
-95.0
 11
120.5
 21
-90.5
  0
LINE
  5
190
100
AcDbEntity
  8
1
  6
CONTINUOUS
 62
             7
100
AcDbLine
 10
-10.99999999999999
 20
-100.0
 11
115.5
 21
-100.0
  0
ENDBLK
  5
1CD
100
AcDbEntity
  8
0
100
AcDbBlockEnd
  0
BLOCK
  5
32
100
AcDbEntity
  8
0
100
AcDbBlockBegin
  2
0555_5E_SIFON_DN40_50X6_4
 70
             0
 10
-28.50617634786543
 20
-104.7059688505731
 30
0.0
  3
0555_5E_SIFON_DN40_50X6_4
  1

  0
INSERT
  5
33
100
AcDbEntity
  8
1
100
AcDbBlockReference
  2
HL_500_ABGANGSSTUTZEN
 10
80.0
 20
-46.70000000000005
  0
INSERT
  5
34
100
AcDbEntity
  8
0
100
AcDbBlockReference
  2
HOLL_NDERMUTTER_6_4
 10
375.27393665074032
 20
-48.12747593505264
  0
INSERT
  5
35
100
AcDbEntity
  8
1
100
AcDbBlockReference
  2
HL_500_K_RPER
 10
80.0
 20
-36.0
  0
ENDBLK
  5
1CE
100
AcDbEntity
  8
0
100
AcDbBlockEnd
  0
BLOCK
  5
37
100
AcDbEntity
  8
0
100
AcDbBlockBegin
  2
0555_2E__BERLAUFSCHLAUCH
 70
             0
 10
-228.52276154449009
 20
-54.5
 30
0.0
  3
0555_2E__BERLAUFSCHLAUCH
  1

  0
SPLINE
  5
5FD
100
AcDbEntity
  8
MAGENTA
  6
CONTINUOUS
 62
             6
100
AcDbSpline
210
0.0
220
0.0
230
1.0
 70
             0
 71
             3
 72
            12
 73
             8
 74
            11
 42
0.00000000001
 43
0.00000000001
 44
0.00000000001
 40
0.0
 40
0.0
 40
0.0
 40
0.0
 40
0.990269652334077
 40
1.45251455437693
 40
1.87691261702073
 40
2.2536811394140899
 40
2.7918909213968499
 40
2.7918909213968499
 40
2.7918909213968499
 40
2.7918909213968499
 10
-66.152642915709976
 20
-44.289092176817007
 30
0.0
 10
-66.152321487300014
 20
-44.619150992431059
 30
0.0
 10
-66.124903963730048
 20
-45.103688970566047
 30
0.0
 10
-66.026641566400031
 20
-45.722053008008061
 30
0.0
 10
-65.929084894389916
 20
-46.132311760339007
 30
0.0
 10
-65.785628302130135
 20
-46.555654747863969
 30
0.0
 10
-65.643459316090002
 20
-46.828599954627983
 30
0.0
 10
-65.527642915709976
 20
-46.966875051072982
 30
0.0
 11
-66.152642915709976
 21
-44.289092176817007
 31
0.0
 11
-66.137853834355937
 21
-44.78400763957881
 31
0.0
 11
-66.0923355365003
 21
-45.277043817044905
 31
0.0
 11
-66.059595608331648
 21
-45.505867939716403
 31
0.0
 11
-66.018668319498758
 21
-45.733380853240661
 31
0.0
 11
-65.973091800868431
 21
-45.940697187896525
 31
0.0
 11
-65.918687358831122
 21
-46.145833908848672
 31
0.0
 11
-65.861853446403487
 21
-46.325460652968751
 31
0.0
 11
-65.795430525399553
 21
-46.5018708064854
 31
0.0
 11
-65.679338730041337
 21
-46.744836122958475
 31
0.0
 11
-65.527642915709976
 21
-46.966875051072982
 31
0.0
  0
SPLINE
  5
5FC
100
AcDbEntity
  8
MAGENTA
  6
CONTINUOUS
 62
             6
100
AcDbSpline
210
0.0
220
0.0
230
1.0
 70
             0
 71
             3
 72
            12
 73
             8
 74
            11
 42
0.00000000001
 43
0.00000000001
 44
0.00000000001
 40
0.0
 40
0.0
 40
0.0
 40
0.0
 40
0.314206302895795
 40
0.454566010641922
 40
0.582389342692017
 40
0.698437835062236
 40
0.887214024795271
 40
0.887214024795271
 40
0.887214024795271
 40
0.887214024795271
 10
-65.527642915709976
 20
-47.220417405730018
 30
0.0
 10
-65.629378793609931
 20
-47.244720453309007
 30
0.0
 10
-65.774071955419913
 20
-47.294822096774062
 30
0.0
 10
-65.939822974469962
 20
-47.39739801978601
 30
0.0
 10
-66.036226419769946
 20
-47.482854435852012
 30
0.0
 10
-66.122879072740034
 20
-47.599692840587977
 30
0.0
 10
-66.153004304509977
 20
-47.700102684436047
 30
0.0
 10
-66.152642915709976
 20
-47.763455967290952
 30
0.0
 11
-65.527642915709976
 21
-47.220417405730018
 31
0.0
 11
-65.678256254761948
 21
-47.265116558137926
 31
0.0
 11
-65.82208880719412
 21
-47.328298173697796
 31
0.0
 11
-65.882978139608511
 21
-47.363305857084143
 31
0.0
 11
-65.940914847576096
 21
-47.403005734799301
 31
0.0
 11
-65.990393959948207
 21
-47.44358119615643
 31
0.0
 11
-66.035789644194281
 21
-47.488665393818387
 31
0.0
 11
-66.072539109295178
 21
-47.533699990810064
 31
0.0
 11
-66.103830474356982
 21
-47.582674425361951
 31
0.0
 11
-66.139816257960803
 21
-47.670024595725494
 31
0.0
 11
-66.152642915709976
 21
-47.763455967290952
 31
0.0
  0
SPLINE
  5
5FB
100
AcDbEntity
  8
MAGENTA
  6
CONTINUOUS
 62
             6
100
AcDbSpline
210
0.0
220
0.0
230
1.0
 70
             0
 71
             3
 72
            12
 73
             8
 74
            11
 42
0.00000000001
 43
0.00000000001
 44
0.00000000001
 40
0.0
 40
0.0
 40
0.0
 40
0.0
 40
0.314206302895795
 40
0.454566010641922
 40
0.582389342692017
 40
0.698437835062236
 40
0.887214024795271
 40
0.887214024795271
 40
0.887214024795271
 40
0.887214024795271
 10
-65.527642915709976
 20
-11.779582594271011
 30
0.0
 10
-65.629378793609931
 20
-11.755279546690989
 30
0.0
 10
-65.774071955419913
 20
-11.70517790322697
 30
0.0
 10
-65.939822974469962
 20
-11.60260198021501
 30
0.0
 10
-66.036226419769946
 20
-11.517145564148001
 30
0.0
 10
-66.122879072740034
 20
-11.40030715941305
 30
0.0
 10
-66.153004304509977
 20
-11.29989731556498
 30
0.0
 10
-66.152642915709976
 20
-11.236544032709959
 30
0.0
 11
-65.527642915709976
 21
-11.779582594271011
 31
0.0
 11
-65.678256254761948
 21
-11.734883441862584
 31
0.0
 11
-65.82208880719412
 21
-11.671701826303131
 31
0.0
 11
-65.882978139608511
 21
-11.636694142916836
 31
0.0
 11
-65.940914847576096
 21
-11.596994265201536
 31
0.0
 11
-65.990393959948207
 21
-11.556418803844076
 31
0.0
 11
-66.035789644194281
 21
-11.511334606181929
 31
0.0
 11
-66.072539109295178
 21
-11.4663000091904
 31
0.0
 11
-66.103830474356982
 21
-11.417325574638799
 31
0.0
 11
-66.139816257960803
 21
-11.329975404275483
 31
0.0
 11
-66.152642915709976
 21
-11.236544032709959
 31
0.0
  0
SPLINE
  5
5FA
100
AcDbEntity
  8
MAGENTA
  6
CONTINUOUS
 62
             6
100
AcDbSpline
210
0.0
220
0.0
230
1.0
 70
             0
 71
             3
 72
            12
 73
             8
 74
            11
 42
0.00000000001
 43
0.00000000001
 44
0.00000000001
 40
0.0
 40
0.0
 40
0.0
 40
0.0
 40
0.990269652334077
 40
1.4525145543768201
 40
1.87691261702072
 40
2.2536811394140899
 40
2.7918909213968499
 40
2.7918909213968499
 40
2.7918909213968499
 40
2.7918909213968499
 10
-66.152642915709976
 20
-14.710907823184019
 30
0.0
 10
-66.152321487300014
 20
-14.38084900756996
 30
0.0
 10
-66.124903963730048
 20
-13.896311029434971
 30
0.0
 10
-66.026641566400031
 20
-13.277946991992961
 30
0.0
 10
-65.929084894389916
 20
-12.867688239662019
 30
0.0
 10
-65.785628302130135
 20
-12.444345252137961
 30
0.0
 10
-65.643459316090002
 20
-12.17140004537203
 30
0.0
 10
-65.527642915709976
 20
-12.03312494892805
 30
0.0
 11
-66.152642915709976
 21
-14.710907823184019
 31
0.0
 11
-66.137853834355937
 21
-14.215992360422199
 31
0.0
 11
-66.092335536500286
 21
-13.722956182956082
 31
0.0
 11
-66.059595608331662
 21
-13.494132060284633
 31
0.0
 11
-66.018668319498772
 21
-13.266619146760423
 31
0.0
 11
-65.973091800868445
 21
-13.059302812104532
 31
0.0
 11
-65.918687358831107
 21
-12.85416609115248
 31
0.0
 11
-65.861853446403472
 21
-12.674539347032631
 31
0.0
 11
-65.795430525399553
 21
-12.498129193515977
 31
0.0
 11
-65.679338730041323
 21
-12.255163877042264
 31
0.0
 11
-65.527642915709976
 21
-12.03312494892805
 31
0.0
  0
SPLINE
  5
5F9
100
AcDbEntity
  8
0
  6
CONTINUOUS
 62
             7
100
AcDbSpline
210
0.0
220
0.0
230
1.0
 70
             0
 71
             3
 72
            14
 73
            10
 74
            15
 42
0.00000000001
 43
0.00000000001
 44
0.00000000001
 40
0.0
 40
0.0
 40
0.0
 40
0.0
 40
0.691268361591581
 40
1.02537488238695
 40
1.3467506985731601
 40
1.65300731216548
 40
1.9433584986775201
 40
2.2189652103162101
 40
2.7409138318013802
 40
2.7409138318013802
 40
2.7409138318013802
 40
2.7409138318013802
 10
-76.652642915709976
 20
-44.289092176817007
 30
0.0
 10
-76.883122432139999
 20
-44.289222176215048
 30
0.0
 10
-77.225535677149992
 20
-44.332262137599969
 30
0.0
 10
-77.651794863100122
 20
-44.47766430050001
 30
0.0
 10
-77.938227974180109
 20
-44.624309810248967
 30
0.0
 10
-78.186455245380102
 20
-44.805634376689
 30
0.0
 10
-78.388882866780023
 20
-45.016627772732022
 30
0.0
 10
-78.585781879710112
 20
-45.324199826404993
 30
0.0
 10
-78.653351339320125
 20
-45.588536952809022
 30
0.0
 10
-78.652642915709976
 20
-45.763455967290952
 30
0.0
 11
-76.652642915709976
 21
-44.289092176817007
 31
0.0
 11
-76.997573285566091
 21
-44.311185011700672
 31
0.0
 11
-77.336683202363218
 21
-44.378007193028246
 31
0.0
 11
-77.496567635537986
 21
-44.4267765634984
 31
0.0
 11
-77.652642915710175
 21
-44.486619470320079
 31
0.0
 11
-77.798226629647147
 21
-44.554913650485446
 31
0.0
 11
-77.9382181350867
 21
-44.634027778462062
 31
0.0
 11
-78.065270903962315
 21
-44.719749741858365
 31
0.0
 11
-78.184731801949383
 21
-44.81575319060331
 31
0.0
 11
-78.289597497412871
 21
-44.91638210510532
 31
0.0
 11
-78.384693723281416
 21
-45.026274072054001
 31
0.0
 11
-78.464370802440342
 21
-45.138939950228867
 31
0.0
 11
-78.532028157283719
 21
-45.259193852359282
 31
0.0
 11
-78.621514940585371
 21
-45.504362080041169
 31
0.0
 11
-78.652642915709976
 21
-45.763455967290952
 31
0.0
  0
SPLINE
  5
5F8
100
AcDbEntity
  8
0
  6
CONTINUOUS
 62
             7
100
AcDbSpline
210
0.0
220
0.0
230
1.0
 70
             0
 71
             3
 72
            14
 73
            10
 74
            15
 42
0.00000000001
 43
0.00000000001
 44
0.00000000001
 40
0.0
 40
0.0
 40
0.0
 40
0.0
 40
0.6912683615918041
 40
1.02537488238696
 40
1.3467506985731701
 40
1.65300731216549
 40
1.9433584986775301
 40
2.2189652103162101
 40
2.7409138318013899
 40
2.7409138318013899
 40
2.7409138318013899
 40
2.7409138318013899
 10
-76.652642915709976
 20
-14.710907823184019
 30
0.0
 10
-76.883122432139999
 20
-14.71077782378598
 30
0.0
 10
-77.225535677149992
 20
-14.667737862401051
 30
0.0
 10
-77.651794863100122
 20
-14.52233569950101
 30
0.0
 10
-77.938227974180109
 20
-14.375690189752049
 30
0.0
 10
-78.186455245380102
 20
-14.19436562331202
 30
0.0
 10
-78.388882866780023
 20
-13.983372227268999
 30
0.0
 10
-78.585781879710112
 20
-13.67580017359705
 30
0.0
 10
-78.653351339320125
 20
-13.411463047192001
 30
0.0
 10
-78.652642915709976
 20
-13.236544032709959
 30
0.0
 11
-76.652642915709976
 21
-14.710907823184019
 31
0.0
 11
-76.997573285566119
 21
-14.688814988300345
 31
0.0
 11
-77.336683202363346
 21
-14.621992806972742
 31
0.0
 11
-77.496567635538028
 21
-14.573223436502607
 31
0.0
 11
-77.652642915710118
 21
-14.513380529680962
 31
0.0
 11
-77.798226629647118
 21
-14.445086349515591
 31
0.0
 11
-77.938218135086686
 21
-14.365972221538968
 31
0.0
 11
-78.065270903962301
 21
-14.280250258142658
 31
0.0
 11
-78.184731801949383
 21
-14.184246809397713
 31
0.0
 11
-78.289597497412871
 21
-14.083617894895715
 31
0.0
 11
-78.384693723281416
 21
-13.973725927947163
 31
0.0
 11
-78.464370802440357
 21
-13.861060049772552
 31
0.0
 11
-78.532028157283719
 21
-13.740806147642317
 31
0.0
 11
-78.621514940585371
 21
-13.495637919960167
 31
0.0
 11
-78.652642915709976
 21
-13.236544032709959
 31
0.0
  0
ARC
  5
5F7
100
AcDbEntity
  8
MAGENTA
  6
CONTINUOUS
 62
             6
100
AcDbCircle
 10
-63.65264291570998
 20
-31.5
 40
2.50000000000278
100
AcDbArc
 50
139.45839812654995
 51
180.0
  0
ARC
  5
5F6
100
AcDbEntity
  8
0
  6
CONTINUOUS
 62
             7
100
AcDbCircle
 10
-65.15264291570998
 20
-53.5
 40
1.0
100
AcDbArc
 50
180.0
 51
-90.0
  0
ARC
  5
5F5
100
AcDbEntity
  8
0
  6
CONTINUOUS
 62
             7
100
AcDbCircle
 10
-65.15264291570998
 20
-5.50000000000102
 40
1.0
100
AcDbArc
 50
90.0
 51
180.0
  0
ARC
  5
5F4
100
AcDbEntity
  8
VERDE
  6
CONTINUOUS
 62
             3
100
AcDbCircle
 10
-85.66824669892003
 20
-13.65382751203197
 40
1.04999999999665
100
AcDbArc
 50
15.00000000006953
 51
164.99999999998477
  0
ARC
  5
5F3
100
AcDbEntity
  8
VERDE
  6
CONTINUOUS
 62
             3
100
AcDbCircle
 10
-82.04574669892008
 20
-13.65382751203197
 40
1.04999999999638
100
AcDbArc
 50
15.00000000001523
 51
165.00000000012608
  0
ARC
  5
5F2
100
AcDbEntity
  8
VERDE
  6
CONTINUOUS
 62
             3
100
AcDbCircle
 10
-89.29074669891998
 20
-13.65382751203197
 40
1.04999999999638
100
AcDbArc
 50
15.00000000001523
 51
165.00000000012608
  0
ARC
  5
5F1
100
AcDbEntity
  8
VERDE
  6
CONTINUOUS
 62
             3
100
AcDbCircle
 10
-89.29074669891998
 20
-44.10382751203201
 40
1.05000000000631
100
AcDbArc
 50
-165.00000000007176
 51
-15.00000000006953
  0
ARC
  5
5F0
100
AcDbEntity
  8
VERDE
  6
CONTINUOUS
 62
             3
100
AcDbCircle
 10
-82.04574669892008
 20
-44.10382751203201
 40
1.05000000000631
100
AcDbArc
 50
-165.00000000007176
 51
-15.00000000006953
  0
ARC
  5
5EF
100
AcDbEntity
  8
VERDE
  6
CONTINUOUS
 62
             3
100
AcDbCircle
 10
-85.66824669892003
 20
-44.10382751203201
 40
1.05000000000631
100
AcDbArc
 50
-165.00000000007176
 51
-15.00000000006953
  0
ARC
  5
5EE
100
AcDbEntity
  8
0
  6
CONTINUOUS
 62
             7
100
AcDbCircle
 10
-76.65264291570998
 20
-6.5
 40
2.0
100
AcDbArc
 50
90.0
 51
180.0
  0
ARC
  5
5ED
100
AcDbEntity
  8
0
  6
CONTINUOUS
 62
             7
100
AcDbCircle
 10
-76.65264291570998
 20
-13.23654403270996
 40
2.0
100
AcDbArc
 50
90.0
 51
180.0
  0
ARC
  5
5EC
100
AcDbEntity
  8
0
  6
CONTINUOUS
 62
             7
100
AcDbCircle
 10
-77.65264291570998
 20
-9.00000000000102
 40
3.00000000000213
100
AcDbArc
 50
123.55730976194683
 51
180.0
  0
ARC
  5
5EB
100
AcDbEntity
  8
0
  6
CONTINUOUS
 62
             7
100
AcDbCircle
 10
-76.65264291570998
 20
-29.5
 40
2.0
100
AcDbArc
 50
90.0
 51
-90.0
  0
ARC
  5
5EA
100
AcDbEntity
  8
0
  6
CONTINUOUS
 62
             7
100
AcDbCircle
 10
-76.65264291570998
 20
-45.76345596729095
 40
2.0
100
AcDbArc
 50
180.0
 51
-90.0
  0
ARC
  5
5E9
100
AcDbEntity
  8
0
  6
CONTINUOUS
 62
             7
100
AcDbCircle
 10
-76.65264291570998
 20
-52.5
 40
2.0
100
AcDbArc
 50
180.0
 51
-90.0
  0
ARC
  5
5E8
100
AcDbEntity
  8
0
  6
CONTINUOUS
 62
             7
100
AcDbCircle
 10
-77.65264291570998
 20
-50.0
 40
3.0
100
AcDbArc
 50
180.0
 51
-123.55730976195761
  0
ARC
  5
5E7
100
AcDbEntity
  8
VERDE
  6
CONTINUOUS
 62
             3
100
AcDbCircle
 10
-107.4296650908
 20
-13.56729370934602
 40
1.04999999999642
100
AcDbArc
 50
15.00000000001453
 51
164.99999999998406
  0
ARC
  5
5E6
100
AcDbEntity
  8
VERDE
  6
CONTINUOUS
 62
             3
100
AcDbCircle
 10
-107.4296650908
 20
-44.01729370934697
 40
1.04999999999633
100
AcDbArc
 50
-164.999999999984
 51
-15.00000000001463
  0
ARC
  5
5E5
100
AcDbEntity
  8
VERDE
  6
CONTINUOUS
 62
             3
100
AcDbCircle
 10
-109.9952311793199
 20
-13.40035695981203
 40
1.05000000000291
100
AcDbArc
 50
12.24137931030604
 51
162.2413793102177
  0
ARC
  5
5E4
100
AcDbEntity
  8
VERDE
  6
CONTINUOUS
 62
             3
100
AcDbCircle
 10
-111.46074138941999
 20
-43.81507017272998
 40
1.05000000000323
100
AcDbArc
 50
-167.75862068964111
 51
-17.75862068962019
  0
ARC
  5
5E3
100
AcDbEntity
  8
VERDE
  6
CONTINUOUS
 62
             3
100
AcDbCircle
 10
-112.5497897770201
 20
-13.11013703668596
 40
1.04999999999461
100
AcDbArc
 50
9.48275862075958
 51
159.48275862076542
  0
ARC
  5
5E2
100
AcDbEntity
  8
VERDE
  6
CONTINUOUS
 62
             3
100
AcDbCircle
 10
-115.4774136030301
 20
-43.41907167209297
 40
1.04999999999444
100
AcDbArc
 50
-170.51724137923293
 51
-20.51724137923468
  0
ARC
  5
5E1
100
AcDbEntity
  8
VERDE
  6
CONTINUOUS
 62
             3
100
AcDbCircle
 10
-115.0874202162499
 20
-12.69730657895798
 40
1.05000000000567
100
AcDbArc
 50
6.72413793099956
 51
156.72413793098391
  0
ARC
  5
5E0
100
AcDbEntity
  8
VERDE
  6
CONTINUOUS
 62
             3
100
AcDbCircle
 10
-119.47037234198
 20
-42.83021600807706
 40
1.05000000000595
100
AcDbArc
 50
-173.27586206900844
 51
-23.27586206896516
  0
ARC
  5
5DF
100
AcDbEntity
  8
VERDE
  6
CONTINUOUS
 62
             3
100
AcDbCircle
 10
-117.6022410634901
 20
-12.16282239848101
 40
1.04999999999877
100
AcDbArc
 50
3.96551724136411
 51
153.96551724133118
  0
ARC
  5
5DE
100
AcDbEntity
  8
VERDE
  6
CONTINUOUS
 62
             3
100
AcDbCircle
 10
-123.43036317706991
 20
-42.04986796389505
 40
1.0500000000087
100
AcDbArc
 50
-176.0344827586238
 51
-26.03448275866318
  0
ARC
  5
5DD
100
AcDbEntity
  8
VERDE
  6
CONTINUOUS
 62
             3
100
AcDbCircle
 10
-120.0884237507501
 20
-11.50792326238195
 40
1.05000000000305
100
AcDbArc
 50
1.20689655172853
 51
151.20689655175974
  0
ARC
  5
5DC
100
AcDbEntity
  8
VERDE
  6
CONTINUOUS
 62
             3
100
AcDbCircle
 10
-127.34820808837
 20
-41.07983614219495
 40
1.05000000000301
100
AcDbArc
 50
-178.79310344831507
 51
-28.79310344820249
  0
ARC
  5
5DB
100
AcDbEntity
  8
VERDE
  6
CONTINUOUS
 62
             3
100
AcDbCircle
 10
-122.5402060843201
 20
-10.73412702198004
 40
1.04999999999555
100
AcDbArc
 50
-1.55172413793644
 51
148.44827586206847
  0
ARC
  5
5DA
100
AcDbEntity
  8
VERDE
  6
CONTINUOUS
 62
             3
100
AcDbCircle
 10
-131.2148267370001
 20
-39.92236877327696
 40
1.05000000000557
100
AcDbArc
 50
178.44827586207848
 51
-31.55172413792263
  0
ARC
  5
5D9
100
AcDbEntity
  8
VERDE
  6
CONTINUOUS
 62
             3
100
AcDbCircle
 10
-124.95190559977
 20
-9.84322709489197
 40
1.04999999999671
100
AcDbArc
 50
-4.31034482758877
 51
145.68965517262279
  0
ARC
  5
5D8
100
AcDbEntity
  8
VERDE
  6
CONTINUOUS
 62
             3
100
AcDbCircle
 10
-135.02125751055999
 20
-38.58014850440804
 40
1.04999999999673
100
AcDbArc
 50
175.68965517241168
 51
-34.31034482768874
  0
ARC
  5
5D7
100
AcDbEntity
  8
VERDE
  6
CONTINUOUS
 62
             3
100
AcDbCircle
 10
-127.31793273208
 20
-8.837288308442
 40
1.04999999999805
100
AcDbArc
 50
-7.06896551723188
 51
142.93103448276139
  0
ARC
  5
5D6
100
AcDbEntity
  8
VERDE
  6
CONTINUOUS
 62
             3
100
AcDbCircle
 10
-138.75867829329991
 20
-37.05628618227604
 40
1.04999999999808
100
AcDbArc
 50
172.93103448271205
 51
-37.06896551720016
  0
ARC
  5
5D5
100
AcDbEntity
  8
VERDE
  6
CONTINUOUS
 62
             3
100
AcDbCircle
 10
-129.63280377052999
 20
-7.71864211404397
 40
1.04999999999614
100
AcDbArc
 50
-9.82758620696692
 51
140.17241379298548
  0
ARC
  5
5D4
100
AcDbEntity
  8
VERDE
  6
CONTINUOUS
 62
             3
100
AcDbCircle
 10
-142.41842691304009
 20
-35.35431364302497
 40
1.04999999999596
100
AcDbArc
 50
170.17241379303721
 51
-39.82758620701035
  0
ARC
  5
5D3
100
AcDbEntity
  8
VERDE
  6
CONTINUOUS
 62
             3
100
AcDbCircle
 10
-131.89115356823001
 20
-6.48988118362604
 40
1.05000000000283
100
AcDbArc
 50
-12.58620689651818
 51
137.41379310342637
  0
ARC
  5
5D2
100
AcDbEntity
  8
VERDE
  6
CONTINUOUS
 62
             3
100
AcDbCircle
 10
-145.99202121737989
 20
-33.478175526565
 40
1.05000000000297
100
AcDbArc
 50
167.41379310347676
 51
-42.58620689657756
  0
ARC
  5
5D1
100
AcDbEntity
  8
VERDE
  6
CONTINUOUS
 62
             3
100
AcDbCircle
 10
-134.08774797684009
 20
-5.15385340062301
 40
1.05000000000007
100
AcDbArc
 50
-15.34482758623488
 51
134.65517241396128
  0
ARC
  5
5D0
100
AcDbEntity
  8
VERDE
  6
CONTINUOUS
 62
             3
100
AcDbCircle
 10
-149.4711787326801
 20
-31.43222013412697
 40
1.04999999999994
100
AcDbArc
 50
164.65517241376909
 51
-45.34482758602644
  0
ARC
  5
5CF
100
AcDbEntity
  8
VERDE
  6
CONTINUOUS
 62
             3
100
AcDbCircle
 10
-136.21749597770011
 20
-3.71365525948102
 40
1.05000000000016
100
AcDbArc
 50
-18.10344827585853
 51
131.89655172377837
  0
ARC
  5
5CE
100
AcDbEntity
  8
VERDE
  6
CONTINUOUS
 62
             3
100
AcDbCircle
 10
-152.84783586020009
 20
-29.22118935026299
 40
1.05000000000016
100
AcDbArc
 50
161.89655172414126
 51
-48.10344827580732
  0
ARC
  5
5CD
100
AcDbEntity
  8
VERDE
  6
CONTINUOUS
 62
             3
100
AcDbCircle
 10
-100.15824669892
 20
-13.65382751203197
 40
1.04999999999634
100
AcDbArc
 50
15.00000000001583
 51
165.00000000012668
  0
ARC
  5
5CC
100
AcDbEntity
  8
VERDE
  6
CONTINUOUS
 62
             3
100
AcDbCircle
 10
-96.53574669892009
 20
-13.65382751203197
 40
1.04999999999687
100
AcDbArc
 50
15.00000000006632
 51
165.00000000012608
  0
ARC
  5
5CB
100
AcDbEntity
  8
VERDE
  6
CONTINUOUS
 62
             3
100
AcDbCircle
 10
-103.78074669892
 20
-13.65382751203197
 40
1.04999999999669
100
AcDbArc
 50
15.00000000006893
 51
165.00000000007097
  0
ARC
  5
5CA
100
AcDbEntity
  8
VERDE
  6
CONTINUOUS
 62
             3
100
AcDbCircle
 10
-92.91324669891992
 20
-13.65382751203197
 40
1.04999999999638
100
AcDbArc
 50
15.00000000001523
 51
165.00000000012926
  0
ARC
  5
5C9
100
AcDbEntity
  8
VERDE
  6
CONTINUOUS
 62
             3
100
AcDbCircle
 10
-103.78074669892
 20
-44.10382751203201
 40
1.05000000000599
100
AcDbArc
 50
-165.00000000012528
 51
-15.00000000006893
  0
ARC
  5
5C8
100
AcDbEntity
  8
VERDE
  6
CONTINUOUS
 62
             3
100
AcDbCircle
 10
-92.91324669891992
 20
-44.10382751203201
 40
1.05000000000653
100
AcDbArc
 50
-165.00000000007498
 51
-15.00000000006953
  0
ARC
  5
5C7
100
AcDbEntity
  8
VERDE
  6
CONTINUOUS
 62
             3
100
AcDbCircle
 10
-96.53574669892009
 20
-44.10382751203201
 40
1.05000000000631
100
AcDbArc
 50
-165.00000000007176
 51
-15.00000000006632
  0
ARC
  5
5C6
100
AcDbEntity
  8
VERDE
  6
CONTINUOUS
 62
             3
100
AcDbCircle
 10
-100.15824669892
 20
-44.10382751203201
 40
1.05000000000636
100
AcDbArc
 50
-165.00000000007239
 51
-15.00000000007013
  0
ARC
  5
5C5
100
AcDbEntity
  8
VERDE
  6
CONTINUOUS
 62
             3
100
AcDbCircle
 10
-138.27546148119001
 20
-2.17262468894501
 40
1.05000000000036
100
AcDbArc
 50
-20.86206896546336
 51
129.13793103455535
  0
ARC
  5
5C4
100
AcDbEntity
  8
VERDE
  6
CONTINUOUS
 62
             3
100
AcDbCircle
 10
-156.11416656508001
 20
-26.85020765264301
 40
1.04999999999135
100
AcDbArc
 50
159.13793103428949
 51
-50.86206896540926
  0
ARC
  5
5C3
100
AcDbEntity
  8
VERDE
  6
CONTINUOUS
 62
             3
100
AcDbCircle
 10
-140.25687476709001
 20
-0.53433331578799
 40
1.05000000000053
100
AcDbArc
 50
-23.62068965519576
 51
126.37931034491037
  0
ARC
  5
5C2
100
AcDbEntity
  8
VERDE
  6
CONTINUOUS
 62
             3
100
AcDbCircle
 10
-159.26260051455009
 20
-24.32477023511297
 40
1.0500000000003
100
AcDbArc
 50
156.37931034480539
 51
-53.62068965508073
  0
ARC
  5
5C1
100
AcDbEntity
  8
VERDE
  6
CONTINUOUS
 62
             3
100
AcDbCircle
 10
-142.15714353925
 20
1.19742181310096
 40
1.0499999999943
100
AcDbArc
 50
-26.37931034500168
 51
123.62068965541782
  0
ARC
  5
5C0
100
AcDbEntity
  8
VERDE
  6
CONTINUOUS
 62
             3
100
AcDbCircle
 10
-162.28584062367011
 20
-21.650730271562
 40
1.05000000000303
100
AcDbArc
 50
153.62068965522755
 51
-56.37931034458219
  0
ARC
  5
5BF
100
AcDbEntity
  8
VERDE
  6
CONTINUOUS
 62
             3
100
AcDbCircle
 10
-143.97186356913991
 20
3.01862703108805
 40
1.04999999999864
100
AcDbArc
 50
-29.13793103453286
 51
120.86206896556688
  0
ARC
  5
5BE
100
AcDbEntity
  8
VERDE
  6
CONTINUOUS
 62
             3
100
AcDbCircle
 10
-165.17687996763991
 20
-18.83428535009102
 40
1.04999999999889
100
AcDbArc
 50
150.86206896547506
 51
-59.13793103443722
  0
ARC
  5
5BD
100
AcDbEntity
  8
VERDE
  6
CONTINUOUS
 62
             3
100
AcDbCircle
 10
-145.69682890343009
 20
4.92506135421502
 40
1.05000000000337
100
AcDbArc
 50
-31.89655172406551
 51
118.10344827593164
  0
ARC
  5
5BC
100
AcDbEntity
  8
VERDE
  6
CONTINUOUS
 62
             3
100
AcDbCircle
 10
-147.3280416121099
 20
6.91230626412096
 40
1.05000000000287
100
AcDbArc
 50
-34.6551724136917
 51
115.34482758613315
  0
ARC
  5
5BB
100
AcDbEntity
  8
VERDE
  6
CONTINUOUS
 62
             3
100
AcDbCircle
 10
-148.86172105441011
 20
8.97575594878595
 40
1.04999999999584
100
AcDbArc
 50
-37.41379310359272
 51
112.58620689687474
  0
ARC
  5
5BA
100
AcDbEntity
  8
VERDE
  6
CONTINUOUS
 62
             3
100
AcDbCircle
 10
-150.29431264119009
 20
11.11062797736099
 40
1.04999999999968
100
AcDbArc
 50
-40.17241379312752
 51
109.82758620701007
  0
ARC
  5
5B9
100
AcDbEntity
  8
VERDE
  6
CONTINUOUS
 62
             3
100
AcDbCircle
 10
-151.62249607331
 20
13.31197438434697
 40
1.05000000000045
100
AcDbArc
 50
-42.93103448273613
 51
107.0689655172838
  0
ARC
  5
5B8
100
AcDbEntity
  8
VERDE
  6
CONTINUOUS
 62
             3
100
AcDbCircle
 10
-152.84319303706999
 20
15.57469313743104
 40
1.0499999999958
100
AcDbArc
 50
-45.68965517269248
 51
104.31034482785444
  0
ARC
  5
5B7
100
AcDbEntity
  8
VERDE
  6
CONTINUOUS
 62
             3
100
AcDbCircle
 10
-153.95357433879011
 20
17.89353996240197
 40
1.04999999999489
100
AcDbArc
 50
-48.44827586235023
 51
101.55172413808992
  0
ARC
  5
5B6
100
AcDbEntity
  8
VERDE
  6
CONTINUOUS
 62
             3
100
AcDbCircle
 10
-154.95106646199
 20
20.26314049773805
 40
1.05000000000086
100
AcDbArc
 50
-51.20689655161402
 51
98.79310344826328
  0
ARC
  5
5B5
100
AcDbEntity
  8
VERDE
  6
CONTINUOUS
 62
             3
100
AcDbCircle
 10
-155.83335753195999
 20
22.67800275069294
 40
1.04999999999777
100
AcDbArc
 50
-53.96551724155038
 51
96.03448275881041
  0
ARC
  5
5B4
100
AcDbEntity
  8
VERDE
  6
CONTINUOUS
 62
             3
100
AcDbCircle
 10
-167.92901802168009
 20
-15.88196310894398
 40
1.05000000000331
100
AcDbArc
 50
148.10344827593951
 51
-61.89655172406294
  0
ARC
  5
5B3
100
AcDbEntity
  8
VERDE
  6
CONTINUOUS
 62
             3
100
AcDbCircle
 10
-170.53587619074011
 20
-12.80060610748501
 40
1.05000000000229
100
AcDbArc
 50
145.34482758635409
 51
-64.65517241387396
  0
ARC
  5
5B2
100
AcDbEntity
  8
VERDE
  6
CONTINUOUS
 62
             3
100
AcDbCircle
 10
-172.99141259312
 20
-9.59735596728706
 40
1.05000000000377
100
AcDbArc
 50
142.58620689673026
 51
-67.4137931036213
  0
ARC
  5
5B1
100
AcDbEntity
  8
VERDE
  6
CONTINUOUS
 62
             3
100
AcDbCircle
 10
-175.28993606360001
 20
-6.27963682008499
 40
1.04999999999961
100
AcDbArc
 50
139.82758620686948
 51
-70.17241379298982
  0
ARC
  5
5B0
100
AcDbEntity
  8
VERDE
  6
CONTINUOUS
 62
             3
100
AcDbCircle
 10
-177.4261193438401
 20
-2.85513810096006
 40
1.05000000000039
100
AcDbArc
 50
137.06896551726075
 51
-72.93103448270405
  0
ARC
  5
5AF
100
AcDbEntity
  8
VERDE
  6
CONTINUOUS
 62
             3
100
AcDbCircle
 10
-179.39501142927
 20
0.66820327335904
 40
1.05000000000212
100
AcDbArc
 50
134.31034482774933
 51
-75.68965517269881
  0
ARC
  5
5AE
100
AcDbEntity
  8
VERDE
  6
CONTINUOUS
 62
             3
100
AcDbCircle
 10
-156.59840267402001
 20
25.13252982601705
 40
1.04999999999516
100
AcDbArc
 50
-56.72413793147074
 51
93.27586206919624
  0
ARC
  5
5AD
100
AcDbEntity
  8
VERDE
  6
CONTINUOUS
 62
             3
100
AcDbCircle
 10
-157.24442875287011
 20
27.62103289781396
 40
1.04999999999854
100
AcDbArc
 50
-59.48275862082941
 51
90.51724137978583
  0
ARC
  5
5AC
100
AcDbEntity
  8
VERDE
  6
CONTINUOUS
 62
             3
100
AcDbCircle
 10
-157.76993848216009
 20
30.13774439445604
 40
1.05000000000081
100
AcDbArc
 50
-62.24137931026461
 51
87.75862068968392
  0
ARC
  5
5AB
100
AcDbEntity
  8
VERDE
  6
CONTINUOUS
 62
             3
100
AcDbCircle
 10
-158.17371389472009
 20
32.67683136600795
 40
1.05000000000047
100
AcDbArc
 50
-64.99999999987017
 51
84.99999999972796
  0
ARC
  5
5AA
100
AcDbEntity
  8
VERDE
  6
CONTINUOUS
 62
             3
100
AcDbCircle
 10
-162.5769975599101
 20
57.64909396301596
 40
1.05000000000143
100
AcDbArc
 50
-64.99999999988791
 51
84.99999999972317
  0
ARC
  5
5A9
100
AcDbEntity
  8
VERDE
  6
CONTINUOUS
 62
             3
100
AcDbCircle
 10
-161.9479570363101
 20
54.08162787772903
 40
1.05000000000154
100
AcDbArc
 50
-64.99999999989053
 51
84.99999999972749
  0
ARC
  5
5A8
100
AcDbEntity
  8
VERDE
  6
CONTINUOUS
 62
             3
100
AcDbCircle
 10
-163.20603808351009
 20
61.216560048303
 40
1.05000000000155
100
AcDbArc
 50
-64.99999999989085
 51
84.99999999972309
  0
ARC
  5
5A7
100
AcDbEntity
  8
VERDE
  6
CONTINUOUS
 62
             3
100
AcDbCircle
 10
-158.80275441832009
 20
36.24429745129498
 40
1.05000000000057
100
AcDbArc
 50
-64.99999999987271
 51
84.99999999972958
  0
ARC
  5
5A6
100
AcDbEntity
  8
VERDE
  6
CONTINUOUS
 62
             3
100
AcDbCircle
 10
-161.3189165127101
 20
50.514161792442
 40
1.05000000000062
100
AcDbArc
 50
-64.9999999998671
 51
85.0000000002718
  0
ARC
  5
5A5
100
AcDbEntity
  8
VERDE
  6
CONTINUOUS
 62
             3
100
AcDbCircle
 10
-160.06083546551011
 20
43.37922962186894
 40
1.04999999999721
100
AcDbArc
 50
-65.00000000038267
 51
85.00000000026701
  0
ARC
  5
5A4
100
AcDbEntity
  8
VERDE
  6
CONTINUOUS
 62
             3
100
AcDbCircle
 10
-160.68987598911011
 20
46.94669570715598
 40
1.04999999999732
100
AcDbArc
 50
-65.00000000038546
 51
85.00000000026697
  0
ARC
  5
5A3
100
AcDbEntity
  8
VERDE
  6
CONTINUOUS
 62
             3
100
AcDbCircle
 10
-159.43179494192009
 20
39.81176353658202
 40
1.05000000000062
100
AcDbArc
 50
-64.9999999998671
 51
84.999999999729
  0
ARC
  5
5A2
100
AcDbEntity
  8
VERDE
  6
CONTINUOUS
 62
             3
100
AcDbCircle
 10
-181.19204904398001
 20
4.28222129979201
 40
1.04999999999559
100
AcDbArc
 50
131.55172413760786
 51
-78.44827586189405
  0
ARC
  5
5A1
100
AcDbEntity
  8
VERDE
  6
CONTINUOUS
 62
             3
100
AcDbCircle
 10
-182.81306721695
 20
7.978539815148
 40
1.04999999999543
100
AcDbArc
 50
128.79310344793774
 51
-81.20689655173983
  0
ARC
  5
5A0
100
AcDbEntity
  8
VERDE
  6
CONTINUOUS
 62
             3
100
AcDbCircle
 10
-184.25430893516
 20
11.74859190944801
 40
1.05000000000139
100
AcDbArc
 50
-177.76782608024325
 51
-101.29465167707754
  0
ARC
  5
59F
100
AcDbEntity
  8
VERDE
  6
CONTINUOUS
 62
             3
100
AcDbCircle
 10
-188.16110997394
 20
27.38924435604997
 40
1.05000000000146
100
AcDbArc
 50
115.0000000000994
 51
-95.00000000026604
  0
ARC
  5
59E
100
AcDbEntity
  8
VERDE
  6
CONTINUOUS
 62
             3
100
AcDbCircle
 10
-164.46411913070011
 20
68.35149221887696
 40
1.04999999999722
100
AcDbArc
 50
-65.00000000038143
 51
85.00000000026697
  0
ARC
  5
59D
100
AcDbEntity
  8
VERDE
  6
CONTINUOUS
 62
             3
100
AcDbCircle
 10
-163.83507860711009
 20
64.78402613359003
 40
1.05000000000154
100
AcDbArc
 50
-64.99999999989069
 51
84.99999999972414
  0
ARC
  5
59C
100
AcDbEntity
  8
VERDE
  6
CONTINUOUS
 62
             3
100
AcDbCircle
 10
-193.19343416273
 20
55.92897303834502
 40
1.05000000000048
100
AcDbArc
 50
115.00000000011745
 51
-94.99999999972818
  0
ARC
  5
59B
100
AcDbEntity
  8
VERDE
  6
CONTINUOUS
 62
             3
100
AcDbCircle
 10
-193.82247468633
 20
59.49643912363104
 40
1.04999999999709
100
AcDbArc
 50
114.99999999960312
 51
-94.99999999973301
  0
ARC
  5
59A
100
AcDbEntity
  8
VERDE
  6
CONTINUOUS
 62
             3
100
AcDbCircle
 10
-194.45151520991999
 20
63.06390520891796
 40
1.05000000000151
100
AcDbArc
 50
115.0000000001051
 51
-95.00000000027738
  0
ARC
  5
599
100
AcDbEntity
  8
VERDE
  6
CONTINUOUS
 62
             3
100
AcDbCircle
 10
-195.08055573351999
 20
66.631371294205
 40
1.05000000000151
100
AcDbArc
 50
115.0000000001051
 51
-95.00000000027688
  0
ARC
  5
598
100
AcDbEntity
  8
VERDE
  6
CONTINUOUS
 62
             3
100
AcDbCircle
 10
-190.04823154473999
 20
38.09164261191097
 40
1.04999999999627
100
AcDbArc
 50
114.99999999962408
 51
-94.9999999997287
  0
ARC
  5
597
100
AcDbEntity
  8
VERDE
  6
CONTINUOUS
 62
             3
100
AcDbCircle
 10
-189.41919102113999
 20
34.52417652662405
 40
1.05000000000131
100
AcDbArc
 50
115.00000000009805
 51
-94.99999999973301
  0
ARC
  5
596
100
AcDbEntity
  8
VERDE
  6
CONTINUOUS
 62
             3
100
AcDbCircle
 10
-191.93535311553001
 20
48.79404086777095
 40
1.0500000000014
100
AcDbArc
 50
115.00000000009402
 51
-95.00000000027738
  0
ARC
  5
595
100
AcDbEntity
  8
VERDE
  6
CONTINUOUS
 62
             3
100
AcDbCircle
 10
-190.67727206833001
 20
41.65910869719801
 40
1.05000000000048
100
AcDbArc
 50
115.00000000011745
 51
-95.00000000027049
  0
ARC
  5
594
100
AcDbEntity
  8
VERDE
  6
CONTINUOUS
 62
             3
100
AcDbCircle
 10
-191.30631259193001
 20
45.22657478248402
 40
1.05000000000131
100
AcDbArc
 50
115.00000000009648
 51
-95.00000000027529
  0
ARC
  5
593
100
AcDbEntity
  8
VERDE
  6
CONTINUOUS
 62
             3
100
AcDbCircle
 10
-192.56439363913
 20
52.36150695305798
 40
1.05000000000048
100
AcDbArc
 50
115.00000000011762
 51
-95.00000000027258
  0
ARC
  5
592
100
AcDbEntity
  8
VERDE
  6
CONTINUOUS
 62
             3
100
AcDbCircle
 10
-188.79015049754
 20
30.95671044133701
 40
1.05000000000141
100
AcDbArc
 50
115.00000000009393
 51
-95.00000000027688
  0
ARC
  5
591
100
AcDbEntity
  8
VERDE
  6
CONTINUOUS
 62
             3
100
AcDbCircle
 10
-165.09315965430011
 20
71.91895830416297
 40
1.05000000000053
100
AcDbArc
 50
-64.99999999987693
 51
85.00000000027184
  0
ARC
  5
590
100
AcDbEntity
  8
VERDE
  6
CONTINUOUS
 62
             3
100
AcDbCircle
 10
-165.71681335767991
 20
75.45587421386495
 40
1.05000000000039
100
AcDbArc
 50
-64.99999999987853
 51
84.99999999974345
  0
ARC
  5
58F
100
AcDbEntity
  8
VERDE
  6
CONTINUOUS
 62
             3
100
AcDbCircle
 10
-166.34585388127991
 20
79.02334029915198
 40
1.05000000000142
100
AcDbArc
 50
-64.99999999990475
 51
84.99999999974013
  0
ARC
  5
58E
100
AcDbEntity
  8
VERDE
  6
CONTINUOUS
 62
             3
100
AcDbCircle
 10
-170.74913754646991
 20
103.995602896159
 40
1.05000000000048
100
AcDbArc
 50
-64.99999999988083
 51
84.99999999973853
  0
ARC
  5
58D
100
AcDbEntity
  8
VERDE
  6
CONTINUOUS
 62
             3
100
AcDbCircle
 10
-170.12009702286991
 20
100.428136810873
 40
1.05000000000136
100
AcDbArc
 50
-64.99999999990311
 51
84.9999999997338
  0
ARC
  5
58C
100
AcDbEntity
  8
VERDE
  6
CONTINUOUS
 62
             3
100
AcDbCircle
 10
-201.3655741492901
 20
102.27548197148801
 40
1.05000000000137
100
AcDbArc
 50
115.00000000009483
 51
-94.99999999971618
  0
ARC
  5
58B
100
AcDbEntity
  8
VERDE
  6
CONTINUOUS
 62
             3
100
AcDbCircle
 10
-166.9748944048799
 20
82.59080638443902
 40
1.05000000000142
100
AcDbArc
 50
-64.99999999990475
 51
84.99999999974013
  0
ARC
  5
58A
100
AcDbEntity
  8
VERDE
  6
CONTINUOUS
 62
             3
100
AcDbCircle
 10
-169.49105649926989
 20
96.86067072558603
 40
1.05000000000141
100
AcDbArc
 50
-64.99999999990615
 51
85.00000000027879
  0
ARC
  5
589
100
AcDbEntity
  8
VERDE
  6
CONTINUOUS
 62
             3
100
AcDbCircle
 10
-168.23297545206989
 20
89.72573855501196
 40
1.04999999999626
100
AcDbArc
 50
-65.00000000037731
 51
85.00000000028884
  0
ARC
  5
588
100
AcDbEntity
  8
VERDE
  6
CONTINUOUS
 62
             3
100
AcDbCircle
 10
-168.86201597566989
 20
93.293204640299
 40
1.05000000000048
100
AcDbArc
 50
-64.99999999988255
 51
85.00000000027778
  0
ARC
  5
587
100
AcDbEntity
  8
VERDE
  6
CONTINUOUS
 62
             3
100
AcDbCircle
 10
-167.6039349284699
 20
86.15827246972594
 40
1.04999999999708
100
AcDbArc
 50
-65.0000000003983
 51
85.00000000028396
  0
ARC
  5
586
100
AcDbEntity
  8
VERDE
  6
CONTINUOUS
 62
             3
100
AcDbCircle
 10
-198.22037153130009
 20
84.43815154505398
 40
1.0499999999972
100
AcDbArc
 50
114.99999999960049
 51
-94.99999999972222
  0
ARC
  5
585
100
AcDbEntity
  8
VERDE
  6
CONTINUOUS
 62
             3
100
AcDbCircle
 10
-197.59133100770009
 20
80.87068545976797
 40
1.04999999999627
100
AcDbArc
 50
114.99999999962408
 51
-94.99999999971789
  0
ARC
  5
584
100
AcDbEntity
  8
VERDE
  6
CONTINUOUS
 62
             3
100
AcDbCircle
 10
-200.1074931020901
 20
95.14054980091498
 40
1.05000000000048
100
AcDbArc
 50
115.00000000011745
 51
-95.00000000026172
  0
ARC
  5
583
100
AcDbEntity
  8
VERDE
  6
CONTINUOUS
 62
             3
100
AcDbCircle
 10
-198.84941205490011
 20
88.00561763034102
 40
1.04999999999708
100
AcDbArc
 50
114.99999999960171
 51
-94.99999999972067
  0
ARC
  5
582
100
AcDbEntity
  8
VERDE
  6
CONTINUOUS
 62
             3
100
AcDbCircle
 10
-199.47845257849011
 20
91.57308371562795
 40
1.05000000000048
100
AcDbArc
 50
115.00000000011745
 51
-95.00000000026019
  0
ARC
  5
581
100
AcDbEntity
  8
VERDE
  6
CONTINUOUS
 62
             3
100
AcDbCircle
 10
-200.7365336256901
 20
98.708015886201
 40
1.05000000000141
100
AcDbArc
 50
115.00000000009386
 51
-95.00000000026606
  0
ARC
  5
580
100
AcDbEntity
  8
VERDE
  6
CONTINUOUS
 62
             3
100
AcDbCircle
 10
-196.3332499605001
 20
73.73575328919401
 40
1.05000000000048
100
AcDbArc
 50
115.00000000011745
 51
-94.99999999972222
  0
ARC
  5
57F
100
AcDbEntity
  8
VERDE
  6
CONTINUOUS
 62
             3
100
AcDbCircle
 10
-195.7042094369001
 20
70.16828720390697
 40
1.05000000000141
100
AcDbArc
 50
115.00000000009386
 51
-95.00000000026606
  0
ARC
  5
57E
100
AcDbEntity
  8
VERDE
  6
CONTINUOUS
 62
             3
100
AcDbCircle
 10
-196.96229048410009
 20
77.30321937448105
 40
1.05000000000039
100
AcDbArc
 50
115.00000000012147
 51
-94.99999999972222
  0
ARC
  5
57D
100
AcDbEntity
  8
VERDE
  6
CONTINUOUS
 62
             3
100
AcDbCircle
 10
-203.87634942345991
 20
116.51479613705
 40
1.04999999999856
100
AcDbArc
 50
-146.18209729190153
 51
-95.00000000028165
  0
ARC
  5
57C
100
AcDbEntity
  8
VERDE
  6
CONTINUOUS
 62
             3
100
AcDbCircle
 10
-171.37817807007011
 20
107.56306898144599
 40
1.05000000000057
100
AcDbArc
 50
-64.99999999987098
 51
84.99999999972299
  0
ARC
  5
57B
100
AcDbEntity
  8
VERDE
  6
CONTINUOUS
 62
             3
100
AcDbCircle
 10
-172.6362591172601
 20
114.69800115202
 40
1.05000000000128
100
AcDbArc
 50
-64.99999999989075
 51
85.00000000026684
  0
ARC
  5
57A
100
AcDbEntity
  8
VERDE
  6
CONTINUOUS
 62
             3
100
AcDbCircle
 10
-172.0072185936601
 20
111.1305350667332
 40
1.04999999999743
100
AcDbArc
 50
-65.0000000003936
 51
85.00000000026589
  0
ARC
  5
579
100
AcDbEntity
  8
VERDE
  6
CONTINUOUS
 62
             3
100
AcDbCircle
 10
-201.99461467289009
 20
105.842948056775
 40
1.04999999999626
100
AcDbArc
 50
114.99999999962441
 51
-94.999999999713
  0
ARC
  5
578
100
AcDbEntity
  8
VERDE
  6
CONTINUOUS
 62
             3
100
AcDbCircle
 10
-202.62365519649009
 20
109.410414142062
 40
1.04999999999627
100
AcDbArc
 50
114.99999999962408
 51
-94.99999999971251
  0
ARC
  5
577
100
AcDbEntity
  8
VERDE
  6
CONTINUOUS
 62
             3
100
AcDbCircle
 10
-203.25269572008011
 20
112.977880227348
 40
1.05000000000139
100
AcDbArc
 50
115.00000000009452
 51
-95.00000000026002
  0
ARC
  5
576
100
AcDbEntity
  8
VERDE
  6
CONTINUOUS
 62
             3
100
AcDbCircle
 10
-173.26529964086009
 20
118.265467237306
 40
1.05000000000056
100
AcDbArc
 50
-64.99999999987239
 51
85.00000000027164
  0
ARC
  5
575
100
AcDbEntity
  8
VERDE
  6
CONTINUOUS
 62
             3
100
AcDbCircle
 10
-175.14703439144
 20
128.93731531758201
 40
1.05000000000048
100
AcDbArc
 50
-64.99999999988255
 51
84.99999999973853
  0
ARC
  5
574
100
AcDbEntity
  8
VERDE
  6
CONTINUOUS
 62
             3
100
AcDbCircle
 10
-176.40511543862999
 20
136.07224748815599
 40
1.05000000000139
100
AcDbArc
 50
-64.99999999990548
 51
85.00000000027765
  0
ARC
  5
573
100
AcDbEntity
  8
VERDE
  6
CONTINUOUS
 62
             3
100
AcDbCircle
 10
-175.77607491502999
 20
132.5047814028691
 40
1.04999999999723
100
AcDbArc
 50
-65.00000000040222
 51
85.00000000027725
  0
ARC
  5
572
100
AcDbEntity
  8
VERDE
  6
CONTINUOUS
 62
             3
100
AcDbCircle
 10
-173.88895334424001
 20
121.802383147009
 40
1.05000000000129
100
AcDbArc
 50
-64.99999999990146
 51
84.9999999997338
  0
ARC
  5
571
100
AcDbEntity
  8
VERDE
  6
CONTINUOUS
 62
             3
100
AcDbCircle
 10
-203.87634942345991
 20
116.51479613705
 40
1.05000000000151
100
AcDbArc
 50
115.00000000010857
 51
140.10732739809936
  0
ARC
  5
570
100
AcDbEntity
  8
VERDE
  6
CONTINUOUS
 62
             3
100
AcDbCircle
 10
-174.51799386784
 20
125.369849232295
 40
1.05000000000048
100
AcDbArc
 50
-64.99999999988083
 51
84.99999999973909
  0
ARC
  5
56F
100
AcDbEntity
  8
VERDE
  6
CONTINUOUS
 62
             3
100
AcDbCircle
 10
-178.92127753303001
 20
150.34211182930301
 40
1.0500000000014
100
AcDbArc
 50
-64.99999999990409
 51
84.9999999997338
  0
ARC
  5
56E
100
AcDbEntity
  8
VERDE
  6
CONTINUOUS
 62
             3
100
AcDbCircle
 10
-178.29223700943001
 20
146.774645744016
 40
1.05000000000147
100
AcDbArc
 50
-64.99999999990605
 51
84.9999999997338
  0
ARC
  5
56D
100
AcDbEntity
  8
VERDE
  6
CONTINUOUS
 62
             3
100
AcDbCircle
 10
-179.55031805662
 20
153.90957791458899
 40
1.04999999999624
100
AcDbArc
 50
-65.00000000037525
 51
85.00000000028238
  0
ARC
  5
56C
100
AcDbEntity
  8
VERDE
  6
CONTINUOUS
 62
             3
100
AcDbCircle
 10
-180.80839910381999
 20
161.04451008516301
 40
1.05000000000048
100
AcDbArc
 50
-64.99999999988255
 51
85.00000000028238
  0
ARC
  5
56B
100
AcDbEntity
  8
VERDE
  6
CONTINUOUS
 62
             3
100
AcDbCircle
 10
-180.17935858022
 20
157.477043999876
 40
1.04999999999633
100
AcDbArc
 50
-65.00000000037929
 51
85.00000000027765
  0
ARC
  5
56A
100
AcDbEntity
  8
VERDE
  6
CONTINUOUS
 62
             3
100
AcDbCircle
 10
-210.7957951830401
 20
155.75692307520501
 40
1.05000000000051
100
AcDbArc
 50
115.00000000012373
 51
-95.0000000002662
  0
ARC
  5
569
100
AcDbEntity
  8
VERDE
  6
CONTINUOUS
 62
             3
100
AcDbCircle
 10
-211.4248357066401
 20
159.3243891604919
 40
1.05000000000047
100
AcDbArc
 50
115.00000000011951
 51
-95.0000000002666
  0
ARC
  5
568
100
AcDbEntity
  8
VERDE
  6
CONTINUOUS
 62
             3
100
AcDbCircle
 10
-177.66319648583001
 20
143.2071796587289
 40
1.05000000000039
100
AcDbArc
 50
-64.99999999987853
 51
85.00000000028292
  0
ARC
  5
567
100
AcDbEntity
  8
VERDE
  6
CONTINUOUS
 62
             3
100
AcDbCircle
 10
-177.03415596222999
 20
139.63971357344201
 40
1.05000000000048
100
AcDbArc
 50
-64.99999999988255
 51
85.00000000028433
  0
ARC
  5
566
100
AcDbEntity
  8
VERDE
  6
CONTINUOUS
 62
             3
100
AcDbCircle
 10
-181.43743962741999
 20
164.61197617044999
 40
1.05000000000143
100
AcDbArc
 50
-64.99999999989987
 51
84.99999999973495
  0
ARC
  5
565
100
AcDbEntity
  8
VERDE
  6
CONTINUOUS
 62
             3
100
AcDbCircle
 10
-183.94821490159009
 20
178.851290336012
 40
1.04999999999639
100
AcDbArc
 50
-65.00000000036187
 51
85.00000000027156
  0
ARC
  5
564
100
AcDbEntity
  8
VERDE
  6
CONTINUOUS
 62
             3
100
AcDbCircle
 10
-183.3191743780001
 20
175.2838242507249
 40
1.05000000000051
100
AcDbArc
 50
-64.99999999986447
 51
84.99999999972827
  0
ARC
  5
563
100
AcDbEntity
  8
VERDE
  6
CONTINUOUS
 62
             3
100
AcDbCircle
 10
-213.93561098081
 20
173.56370332605499
 40
1.05000000000048
100
AcDbArc
 50
115.00000000011745
 51
-95.00000000027228
  0
ARC
  5
562
100
AcDbEntity
  8
VERDE
  6
CONTINUOUS
 62
             3
100
AcDbCircle
 10
-214.56465150440999
 20
177.13116941134101
 40
1.05000000000147
100
AcDbArc
 50
115.00000000009396
 51
-95.00000000027701
  0
ARC
  5
561
100
AcDbEntity
  8
VERDE
  6
CONTINUOUS
 62
             3
100
AcDbCircle
 10
-182.06109333080011
 20
168.148892080152
 40
1.05000000000152
100
AcDbArc
 50
-64.99999999989004
 51
84.99999999972299
  0
ARC
  5
560
100
AcDbEntity
  8
VERDE
  6
CONTINUOUS
 62
             3
100
AcDbCircle
 10
-213.30657045722
 20
169.99623724076699
 40
1.04999999999716
100
AcDbArc
 50
114.99999999959975
 51
-94.99999999973277
  0
ARC
  5
55F
100
AcDbEntity
  8
VERDE
  6
CONTINUOUS
 62
             3
100
AcDbCircle
 10
-212.04848941002001
 20
162.86130507019399
 40
1.05000000000048
100
AcDbArc
 50
115.00000000011745
 51
-94.99999999973318
  0
ARC
  5
55E
100
AcDbEntity
  8
VERDE
  6
CONTINUOUS
 62
             3
100
AcDbCircle
 10
-212.67752993362001
 20
166.42877115548109
 40
1.05000000000048
100
AcDbArc
 50
115.00000000011745
 51
-94.99999999972803
  0
ARC
  5
55D
100
AcDbEntity
  8
VERDE
  6
CONTINUOUS
 62
             3
100
AcDbCircle
 10
-182.6901338544001
 20
171.716358165439
 40
1.05000000000152
100
AcDbArc
 50
-64.99999999989004
 51
84.9999999997234
  0
ARC
  5
55C
100
AcDbEntity
  8
VERDE
  6
CONTINUOUS
 62
             3
100
AcDbCircle
 10
-188.35149856679001
 20
203.82355293301899
 40
1.05000000000047
100
AcDbArc
 50
-64.99999999988049
 51
84.99999999972786
  0
ARC
  5
55B
100
AcDbEntity
  8
VERDE
  6
CONTINUOUS
 62
             3
100
AcDbCircle
 10
-188.98053909038001
 20
207.39101901830699
 40
1.05000000000137
100
AcDbArc
 50
-64.99999999990342
 51
85.00000000026644
  0
ARC
  5
55A
100
AcDbEntity
  8
VERDE
  6
CONTINUOUS
 62
             3
100
AcDbCircle
 10
-187.72245804318999
 20
200.25608684773289
 40
1.05000000000128
100
AcDbArc
 50
-64.99999999990287
 51
84.99999999972508
  0
ARC
  5
559
100
AcDbEntity
  8
VERDE
  6
CONTINUOUS
 62
             3
100
AcDbCircle
 10
-186.46437699599011
 20
193.12115467715901
 40
1.05000000000053
100
AcDbArc
 50
-64.99999999987693
 51
84.99999999972155
  0
ARC
  5
558
100
AcDbEntity
  8
VERDE
  6
CONTINUOUS
 62
             3
100
AcDbCircle
 10
-187.0934175195901
 20
196.68862076244599
 40
1.05000000000051
100
AcDbArc
 50
-64.99999999987628
 51
84.99999999972309
  0
ARC
  5
557
100
AcDbEntity
  8
VERDE
  6
CONTINUOUS
 62
             3
100
AcDbCircle
 10
-219.59697569319999
 20
205.670898093635
 40
1.05000000000148
100
AcDbArc
 50
115.00000000010577
 51
-95.00000000027701
  0
ARC
  5
556
100
AcDbEntity
  8
VERDE
  6
CONTINUOUS
 62
             3
100
AcDbCircle
 10
-218.9679351696
 20
202.10343200834799
 40
1.05000000000138
100
AcDbArc
 50
115.00000000010839
 51
-95.00000000027701
  0
ARC
  5
555
100
AcDbEntity
  8
VERDE
  6
CONTINUOUS
 62
             3
100
AcDbCircle
 10
-218.338894646
 20
198.53596592306201
 40
1.05000000000054
100
AcDbArc
 50
115.00000000012795
 51
-95.00000000027228
  0
ARC
  5
554
100
AcDbEntity
  8
VERDE
  6
CONTINUOUS
 62
             3
100
AcDbCircle
 10
-217.70985412241001
 20
194.968499837775
 40
1.04999999999724
100
AcDbArc
 50
114.99999999960957
 51
-94.99999999972845
  0
ARC
  5
553
100
AcDbEntity
  8
VERDE
  6
CONTINUOUS
 62
             3
100
AcDbCircle
 10
-185.20629594879011
 20
185.9862225065859
 40
1.05000000000141
100
AcDbArc
 50
-64.99999999988741
 51
84.9999999997234
  0
ARC
  5
552
100
AcDbEntity
  8
VERDE
  6
CONTINUOUS
 62
             3
100
AcDbCircle
 10
-184.57725542519009
 20
182.41875642129901
 40
1.05000000000152
100
AcDbArc
 50
-64.99999999989004
 51
85.00000000026839
  0
ARC
  5
551
100
AcDbEntity
  8
VERDE
  6
CONTINUOUS
 62
             3
100
AcDbCircle
 10
-185.83533647239011
 20
189.553688591872
 40
1.05000000000069
100
AcDbArc
 50
-64.99999999986905
 51
85.00000000027156
  0
ARC
  5
550
100
AcDbEntity
  8
VERDE
  6
CONTINUOUS
 62
             3
100
AcDbCircle
 10
-215.82273255160999
 20
184.266101581915
 40
1.05000000000058
100
AcDbArc
 50
115.00000000012869
 51
-95.00000000027174
  0
ARC
  5
54F
100
AcDbEntity
  8
VERDE
  6
CONTINUOUS
 62
             3
100
AcDbCircle
 10
-215.19369202800999
 20
180.69863549662799
 40
1.0500000000005
100
AcDbArc
 50
115.00000000011885
 51
-95.00000000027228
  0
ARC
  5
54E
100
AcDbEntity
  8
VERDE
  6
CONTINUOUS
 62
             3
100
AcDbCircle
 10
-216.45177307521001
 20
187.833567667202
 40
1.05000000000047
100
AcDbArc
 50
115.00000000012992
 51
-95.00000000027073
  0
ARC
  5
54D
100
AcDbEntity
  8
VERDE
  6
CONTINUOUS
 62
             3
100
AcDbCircle
 10
-217.08081359881001
 20
191.4010337524879
 40
1.05000000000155
100
AcDbArc
 50
115.00000000010239
 51
-94.99999999973358
  0
ARC
  5
54C
100
AcDbEntity
  8
VERDE
  6
CONTINUOUS
 62
             3
100
AcDbCircle
 10
-189.60957961398
 20
210.95848510359301
 40
1.05000000000048
100
AcDbArc
 50
-64.99999999988255
 51
84.99999999972772
  0
ARC
  5
54B
100
AcDbEntity
  8
VERDE
  6
CONTINUOUS
 62
             3
100
AcDbCircle
 10
-191.49131436455011
 20
221.630333183869
 40
1.04999999999733
100
AcDbArc
 50
-65.00000000039098
 51
85.00000000026684
  0
ARC
  5
54A
100
AcDbEntity
  8
VERDE
  6
CONTINUOUS
 62
             3
100
AcDbCircle
 10
-190.86227384095989
 20
218.0628670985819
 40
1.05000000000038
100
AcDbArc
 50
-64.99999999987993
 51
84.99999999973576
  0
ARC
  5
549
100
AcDbEntity
  8
VERDE
  6
CONTINUOUS
 62
             3
100
AcDbCircle
 10
-192.7493954117501
 20
228.76526535444199
 40
1.05000000000054
100
AcDbArc
 50
-64.99999999987206
 51
85.00000000027156
  0
ARC
  5
548
100
AcDbEntity
  8
VERDE
  6
CONTINUOUS
 62
             3
100
AcDbCircle
 10
-193.3784359353501
 20
232.332731439729
 40
1.05000000000065
100
AcDbArc
 50
-64.99999999987467
 51
84.99999999972299
  0
ARC
  5
547
100
AcDbEntity
  8
VERDE
  6
CONTINUOUS
 62
             3
100
AcDbCircle
 10
-192.1203548881501
 20
225.19779926915501
 40
1.04999999999635
100
AcDbArc
 50
-65.00000000036607
 51
85.00000000027156
  0
ARC
  5
546
100
AcDbEntity
  8
VERDE
  6
CONTINUOUS
 62
             3
100
AcDbCircle
 10
-190.23323331735989
 20
214.49540101329501
 40
1.05000000000139
100
AcDbArc
 50
-64.99999999990548
 51
84.99999999973535
  0
ARC
  5
545
100
AcDbEntity
  8
VERDE
  6
CONTINUOUS
 62
             3
100
AcDbCircle
 10
-222.73679149097009
 20
223.47767834448391
 40
1.05000000000147
100
AcDbArc
 50
115.00000000009396
 51
-95.00000000026041
  0
ARC
  5
544
100
AcDbEntity
  8
VERDE
  6
CONTINUOUS
 62
             3
100
AcDbCircle
 10
-222.10775096737009
 20
219.910212259198
 40
1.05000000000039
100
AcDbArc
 50
115.00000000012147
 51
-95.00000000026147
  0
ARC
  5
543
100
AcDbEntity
  8
VERDE
  6
CONTINUOUS
 62
             3
100
AcDbCircle
 10
-223.36583201457009
 20
227.045144429771
 40
1.0500000000014
100
AcDbArc
 50
115.00000000009592
 51
-95.00000000026101
  0
ARC
  5
542
100
AcDbEntity
  8
VERDE
  6
CONTINUOUS
 62
             3
100
AcDbCircle
 10
-223.99487253817011
 20
230.61261051505801
 40
1.05000000000046
100
AcDbArc
 50
115.00000000011811
 51
-94.99999999971143
  0
ARC
  5
541
100
AcDbEntity
  8
VERDE
  6
CONTINUOUS
 62
             3
100
AcDbCircle
 10
-220.84966992018011
 20
212.77528008862399
 40
1.05000000000048
100
AcDbArc
 50
115.00000000011745
 51
-94.99999999971763
  0
ARC
  5
540
100
AcDbEntity
  8
VERDE
  6
CONTINUOUS
 62
             3
100
AcDbCircle
 10
-220.22062939658011
 20
209.20781400333701
 40
1.05000000000146
100
AcDbArc
 50
115.00000000009254
 51
-94.99999999972236
  0
ARC
  5
53F
100
AcDbEntity
  8
VERDE
  6
CONTINUOUS
 62
             3
100
AcDbCircle
 10
-221.4787104437801
 20
216.342746173911
 40
1.04999999999626
100
AcDbArc
 50
114.99999999962269
 51
-94.99999999971709
  0
ARC
  5
53E
100
AcDbEntity
  8
0
  6
CONTINUOUS
 62
             7
100
AcDbCircle
 10
-226.32638433483001
 20
249.472389081518
 40
2.25785096149129
100
AcDbArc
 50
-166.59937123958173
 51
-113.63533752991296
  0
ARC
  5
53D
100
AcDbEntity
  8
VERDE
  6
CONTINUOUS
 62
             3
100
AcDbCircle
 10
-195.26555750615009
 20
243.03512969558901
 40
1.05000000000057
100
AcDbArc
 50
-64.99999999987271
 51
84.99999999972928
  0
ARC
  5
53C
100
AcDbEntity
  8
VERDE
  6
CONTINUOUS
 62
             3
100
AcDbCircle
 10
-194.63651698255009
 20
239.46766361030299
 40
1.05000000000147
100
AcDbArc
 50
-64.99999999989565
 51
84.99999999972414
  0
ARC
  5
53B
100
AcDbEntity
  8
VERDE
  6
CONTINUOUS
 62
             3
100
AcDbCircle
 10
-195.89459802974011
 20
246.60259578087599
 40
1.04999999999723
100
AcDbArc
 50
-65.00000000038835
 51
85.0000000002717
  0
ARC
  5
53A
100
AcDbEntity
  8
VERDE
  6
CONTINUOUS
 62
             3
100
AcDbCircle
 10
-196.52363855334011
 20
250.170061866163
 40
1.05000000000148
100
AcDbArc
 50
-64.99999999989424
 51
85.00000000026684
  0
ARC
  5
539
100
AcDbEntity
  8
VERDE
  6
CONTINUOUS
 62
             3
100
AcDbCircle
 10
-225.8819941089701
 20
241.31500877091801
 40
1.04999999999713
100
AcDbArc
 50
114.99999999960039
 51
-94.99999999971618
  0
ARC
  5
538
100
AcDbEntity
  8
VERDE
  6
CONTINUOUS
 62
             3
100
AcDbCircle
 10
-226.51103463256001
 20
244.88247485620499
 40
1.05000000000052
100
AcDbArc
 50
115.00000000012167
 51
-95.00000000025992
  0
ARC
  5
537
100
AcDbEntity
  8
VERDE
  6
CONTINUOUS
 62
             3
100
AcDbCircle
 10
-194.00747645895009
 20
235.90019752501601
 40
1.05000000000147
100
AcDbArc
 50
-64.99999999989565
 51
84.99999999972299
  0
ARC
  5
536
100
AcDbEntity
  8
VERDE
  6
CONTINUOUS
 62
             3
100
AcDbCircle
 10
-224.62391306177011
 20
234.1800766003449
 40
1.05000000000046
100
AcDbArc
 50
115.00000000011811
 51
-94.99999999971185
  0
ARC
  5
535
100
AcDbEntity
  8
VERDE
  6
CONTINUOUS
 62
             3
100
AcDbCircle
 10
-225.25295358537011
 20
237.747542685631
 40
1.04999999999716
100
AcDbArc
 50
114.99999999959975
 51
-94.99999999971618
  0
LINE
  5
534
100
AcDbEntity
  8
0
  6
CONTINUOUS
 62
             7
100
AcDbLine
 10
-66.15264291570998
 20
-44.28909217681701
 11
-76.65264291570998
 21
-44.28909217681701
  0
LINE
  5
533
100
AcDbEntity
  8
0
  6
CONTINUOUS
 62
             7
100
AcDbLine
 10
-66.15264291570998
 20
-47.76345596729095
 11
-76.65264291570998
 21
-47.76345596729095
  0
LINE
  5
532
100
AcDbEntity
  8
0
  6
CONTINUOUS
 62
             7
100
AcDbLine
 10
-66.15264291570998
 20
-47.76345596729095
 11
-66.15264291570998
 21
-53.5
  0
LINE
  5
531
100
AcDbEntity
  8
0
  6
CONTINUOUS
 62
             7
100
AcDbLine
 10
-66.15264291570998
 20
-31.5
 11
-66.15264291570998
 21
-44.28909217681701
  0
LINE
  5
530
100
AcDbEntity
  8
GIALLO
  6
CONTINUOUS
 62
             2
100
AcDbLine
 10
-65.15264291570998
 20
-54.0
 11
-65.15264291570998
 21
-28.25
  0
LINE
  5
52F
100
AcDbEntity
  8
0
  6
CONTINUOUS
 62
             7
100
AcDbLine
 10
-66.15264291570998
 20
-18.75
 11
-66.15264291570998
 21
-14.71090782318402
  0
LINE
  5
52E
100
AcDbEntity
  8
0
  6
CONTINUOUS
 62
             7
100
AcDbLine
 10
-66.15264291570998
 20
-11.23654403270996
 11
-66.15264291570998
 21
-5.50000000000102
  0
LINE
  5
52D
100
AcDbEntity
  8
0
  6
CONTINUOUS
 62
             7
100
AcDbLine
 10
-66.15264291570998
 20
-6.5
 11
-79.31095531089
 21
-6.5
  0
LINE
  5
52C
100
AcDbEntity
  8
0
  6
CONTINUOUS
 62
             7
100
AcDbLine
 10
-66.15264291570998
 20
-11.23654403270996
 11
-76.65264291570998
 21
-11.23654403270996
  0
LINE
  5
52B
100
AcDbEntity
  8
0
  6
CONTINUOUS
 62
             7
100
AcDbLine
 10
-66.15264291570998
 20
-14.71090782318402
 11
-76.65264291570998
 21
-14.71090782318402
  0
LINE
  5
52A
100
AcDbEntity
  8
0
  6
CONTINUOUS
 62
             7
100
AcDbLine
 10
-76.65264291570998
 20
-31.5
 11
-66.15264291570998
 21
-31.5
  0
LINE
  5
529
100
AcDbEntity
  8
0
  6
CONTINUOUS
 62
             7
100
AcDbLine
 10
-76.65264291570998
 20
-27.5
 11
-72.5
 21
-27.5
  0
LINE
  5
528
100
AcDbEntity
  8
0
  6
CONTINUOUS
 62
             7
100
AcDbLine
 10
-66.15264291570998
 20
-52.5
 11
-79.31095531089
 21
-52.5
  0
LINE
  5
527
100
AcDbEntity
  8
0
  6
CONTINUOUS
 62
             7
100
AcDbLine
 10
-76.65264291570998
 20
-54.5
 11
-63.65264291570998
 21
-54.5
  0
LINE
  5
526
100
AcDbEntity
  8
0
  6
CONTINUOUS
 62
             7
100
AcDbLine
 10
-63.65264291570998
 20
-54.5
 11
-63.65264291570998
 21
-28.25
  0
LINE
  5
525
100
AcDbEntity
  8
0
  6
CONTINUOUS
 62
             7
100
AcDbLine
 10
-63.65264291570998
 20
-4.5
 11
-63.65264291570998
 21
-18.75
  0
LINE
  5
524
100
AcDbEntity
  8
GIALLO
  6
CONTINUOUS
 62
             2
100
AcDbLine
 10
-65.15264291570998
 20
-5.00000000000102
 11
-65.15264291570998
 21
-18.75
  0
LINE
  5
523
100
AcDbEntity
  8
0
  6
CONTINUOUS
 62
             7
100
AcDbLine
 10
-76.65264291570998
 20
-4.5
 11
-63.65264291570998
 21
-4.5
  0
LINE
  5
522
100
AcDbEntity
  8
VERDE
  6
CONTINUOUS
 62
             3
100
AcDbLine
 10
-87.85202339443003
 20
-20.5
 11
-87.85202339443003
 21
-14.96632751203197
  0
LINE
  5
521
100
AcDbEntity
  8
VERDE
  6
CONTINUOUS
 62
             3
100
AcDbLine
 10
-87.10697000341997
 20
-20.5
 11
-87.10697000341997
 21
-14.96632751203197
  0
LINE
  5
520
100
AcDbEntity
  8
VERDE
  6
CONTINUOUS
 62
             3
100
AcDbLine
 10
-84.22952339443009
 20
-20.5
 11
-84.22952339443009
 21
-14.96632751203197
  0
LINE
  5
51F
100
AcDbEntity
  8
VERDE
  6
CONTINUOUS
 62
             3
100
AcDbLine
 10
-83.48447000342003
 20
-20.5
 11
-83.48447000342003
 21
-14.96632751203197
  0
LINE
  5
51E
100
AcDbEntity
  8
VERDE
  6
CONTINUOUS
 62
             3
100
AcDbLine
 10
-83.48447000342003
 20
-14.96632751203197
 11
-84.22952339443009
 21
-14.96632751203197
  0
LINE
  5
51D
100
AcDbEntity
  8
VERDE
  6
CONTINUOUS
 62
             3
100
AcDbLine
 10
-81.03152458132013
 20
-13.38206751467499
 11
-80.60702339442992
 21
-14.96632751203197
  0
LINE
  5
51C
100
AcDbEntity
  8
VERDE
  6
CONTINUOUS
 62
             3
100
AcDbLine
 10
-83.05996881653005
 20
-13.38206751467499
 11
-83.48447000342003
 21
-14.96632751203197
  0
LINE
  5
51B
100
AcDbEntity
  8
VERDE
  6
CONTINUOUS
 62
             3
100
AcDbLine
 10
-84.65402458132007
 20
-13.38206751467396
 11
-84.22952339443009
 21
-14.96632751203197
  0
LINE
  5
51A
100
AcDbEntity
  8
VERDE
  6
CONTINUOUS
 62
             3
100
AcDbLine
 10
-87.10697000341997
 20
-14.96632751203197
 11
-87.85202339443003
 21
-14.96632751203197
  0
LINE
  5
519
100
AcDbEntity
  8
VERDE
  6
CONTINUOUS
 62
             3
100
AcDbLine
 10
-86.68246881651999
 20
-13.38206751467499
 11
-87.10697000341997
 21
-14.96632751203197
  0
LINE
  5
518
100
AcDbEntity
  8
VERDE
  6
CONTINUOUS
 62
             3
100
AcDbLine
 10
-88.27652458132002
 20
-13.38206751467499
 11
-87.85202339443003
 21
-14.96632751203197
  0
LINE
  5
517
100
AcDbEntity
  8
VERDE
  6
CONTINUOUS
 62
             3
100
AcDbLine
 10
-83.48447000342003
 20
-42.79132751203201
 11
-84.22952339443009
 21
-42.79132751203201
  0
LINE
  5
516
100
AcDbEntity
  8
VERDE
  6
CONTINUOUS
 62
             3
100
AcDbLine
 10
-88.27652458132002
 20
-44.37558750939002
 11
-87.85202339443003
 21
-42.79132751203201
  0
LINE
  5
515
100
AcDbEntity
  8
VERDE
  6
CONTINUOUS
 62
             3
100
AcDbLine
 10
-86.68246881652999
 20
-44.37558750939002
 11
-87.10697000341997
 21
-42.79132751203201
  0
LINE
  5
514
100
AcDbEntity
  8
VERDE
  6
CONTINUOUS
 62
             3
100
AcDbLine
 10
-87.10697000341997
 20
-42.79132751203201
 11
-87.85202339443003
 21
-42.79132751203201
  0
LINE
  5
513
100
AcDbEntity
  8
VERDE
  6
CONTINUOUS
 62
             3
100
AcDbLine
 10
-84.65402458132007
 20
-44.37558750939002
 11
-84.22952339443009
 21
-42.79132751203201
  0
LINE
  5
512
100
AcDbEntity
  8
VERDE
  6
CONTINUOUS
 62
             3
100
AcDbLine
 10
-83.05996881653005
 20
-44.37558750939002
 11
-83.48447000342003
 21
-42.79132751203201
  0
LINE
  5
511
100
AcDbEntity
  8
VERDE
  6
CONTINUOUS
 62
             3
100
AcDbLine
 10
-81.03152458132013
 20
-44.37558750939002
 11
-80.60702339442992
 21
-42.79132751203201
  0
LINE
  5
510
100
AcDbEntity
  8
VERDE
  6
CONTINUOUS
 62
             3
100
AcDbLine
 10
-87.10697000341997
 20
-42.79132751203201
 11
-87.10697000341997
 21
-26.5
  0
LINE
  5
50F
100
AcDbEntity
  8
VERDE
  6
CONTINUOUS
 62
             3
100
AcDbLine
 10
-87.85202339443003
 20
-42.79132751203201
 11
-87.85202339443003
 21
-26.5
  0
LINE
  5
50E
100
AcDbEntity
  8
VERDE
  6
CONTINUOUS
 62
             3
100
AcDbLine
 10
-83.48447000342003
 20
-42.79132751203201
 11
-83.48447000342003
 21
-26.5
  0
LINE
  5
50D
100
AcDbEntity
  8
VERDE
  6
CONTINUOUS
 62
             3
100
AcDbLine
 10
-84.22952339443009
 20
-42.79132751203201
 11
-84.22952339443009
 21
-26.5
  0
LINE
  5
50C
100
AcDbEntity
  8
GIALLO
  6
CONTINUOUS
 62
             2
100
AcDbLine
 10
-79.31095531089
 20
-52.5
 11
-79.31095531089
 21
-26.5
  0
LINE
  5
50B
100
AcDbEntity
  8
0
  6
CONTINUOUS
 62
             7
100
AcDbLine
 10
-80.65264291570998
 20
-50.0
 11
-80.65264291570998
 21
-26.5
  0
LINE
  5
50A
100
AcDbEntity
  8
0
  6
CONTINUOUS
 62
             7
100
AcDbLine
 10
-80.65264291570998
 20
-9.00000000000102
 11
-80.65264291570998
 21
-20.5
  0
LINE
  5
509
100
AcDbEntity
  8
GIALLO
  6
CONTINUOUS
 62
             2
100
AcDbLine
 10
-79.31095531089
 20
-6.5
 11
-79.31095531089
 21
-20.5
  0
LINE
  5
508
100
AcDbEntity
  8
VERDE
  6
CONTINUOUS
 62
             3
100
AcDbLine
 10
-90.72947000341992
 20
-20.5
 11
-90.72947000341992
 21
-14.96632751203197
  0
LINE
  5
507
100
AcDbEntity
  8
VERDE
  6
CONTINUOUS
 62
             3
100
AcDbLine
 10
-91.47452339441998
 20
-20.5
 11
-91.47452339441998
 21
-14.96632751203197
  0
LINE
  5
506
100
AcDbEntity
  8
VERDE
  6
CONTINUOUS
 62
             3
100
AcDbLine
 10
-94.35197000342009
 20
-20.5
 11
-94.35197000342009
 21
-14.96632751203197
  0
LINE
  5
505
100
AcDbEntity
  8
VERDE
  6
CONTINUOUS
 62
             3
100
AcDbLine
 10
-95.09702339441992
 20
-20.5
 11
-95.09702339441992
 21
-14.96632751203197
  0
LINE
  5
504
100
AcDbEntity
  8
VERDE
  6
CONTINUOUS
 62
             3
100
AcDbLine
 10
-98.7195233944301
 20
-20.57094402779796
 11
-98.7195233944301
 21
-14.96632751203197
  0
LINE
  5
503
100
AcDbEntity
  8
VERDE
  6
CONTINUOUS
 62
             3
100
AcDbLine
 10
-97.97447000342004
 20
-20.55032307576505
 11
-97.97447000342004
 21
-14.96632751203197
  0
LINE
  5
502
100
AcDbEntity
  8
VERDE
  6
CONTINUOUS
 62
             3
100
AcDbLine
 10
-101.59697000342
 20
-20.60117942138402
 11
-101.59697000342
 21
-14.96632751203197
  0
LINE
  5
501
100
AcDbEntity
  8
VERDE
  6
CONTINUOUS
 62
             3
100
AcDbLine
 10
-102.34202339443
 20
-20.59622165149699
 11
-102.34202339443
 21
-14.96632751203197
  0
LINE
  5
500
100
AcDbEntity
  8
VERDE
  6
CONTINUOUS
 62
             3
100
AcDbLine
 10
-105.2194700034199
 20
-20.52767152205001
 11
-105.2194700034199
 21
-14.96632751203197
  0
LINE
  5
4FF
100
AcDbEntity
  8
VERDE
  6
CONTINUOUS
 62
             3
100
AcDbLine
 10
-105.9909417863
 20
-20.49593727952299
 11
-105.9909417863
 21
-14.87979370934602
  0
LINE
  5
4FE
100
AcDbEntity
  8
VERDE
  6
CONTINUOUS
 62
             3
100
AcDbLine
 10
-108.88855413155009
 20
-20.32617673558195
 11
-108.62134367362999
 21
-14.78057944861996
  0
LINE
  5
4FD
100
AcDbEntity
  8
VERDE
  6
CONTINUOUS
 62
             3
100
AcDbLine
 10
-108.7401374910901
 20
-20.33681632744197
 11
-108.62134367362999
 21
-14.78057944861996
  0
LINE
  5
4FC
100
AcDbEntity
  8
VERDE
  6
CONTINUOUS
 62
             3
100
AcDbLine
 10
-111.7773296647799
 20
-20.07711188860105
 11
-111.24392231157999
 21
-14.55488309035502
  0
LINE
  5
4FB
100
AcDbEntity
  8
VERDE
  6
CONTINUOUS
 62
             3
100
AcDbLine
 10
-111.62949256819
 20
-20.091801341978
 11
-111.24392231157999
 21
-14.55488309035502
  0
LINE
  5
4FA
100
AcDbEntity
  8
VERDE
  6
CONTINUOUS
 62
             3
100
AcDbLine
 10
-114.5104021832301
 20
-19.767586922585
 11
-113.85259938330999
 21
-14.20322772810403
  0
LINE
  5
4F9
100
AcDbEntity
  8
VERDE
  6
CONTINUOUS
 62
             3
100
AcDbLine
 10
-114.6592047562301
 20
-19.74866056652002
 11
-113.85259938330999
 21
-14.20322772810403
  0
LINE
  5
4F8
100
AcDbEntity
  8
VERDE
  6
CONTINUOUS
 62
             3
100
AcDbLine
 10
-117.53607127790001
 20
-19.34034963792703
 11
-116.4413287914501
 21
-13.72642838898605
  0
LINE
  5
4F7
100
AcDbEntity
  8
VERDE
  6
CONTINUOUS
 62
             3
100
AcDbLine
 10
-117.38477605219011
 20
-19.36383926964595
 11
-116.4413287914501
 21
-13.72642838898605
  0
LINE
  5
4F6
100
AcDbEntity
  8
VERDE
  6
CONTINUOUS
 62
             3
100
AcDbLine
 10
-120.4097532672001
 20
-18.85131675852506
 11
-119.0041106710901
 21
-13.12559014471003
  0
LINE
  5
4F5
100
AcDbEntity
  8
VERDE
  6
CONTINUOUS
 62
             3
100
AcDbLine
 10
-120.21937076743011
 20
-18.88624659377399
 11
-119.0000490545101
 21
-13.31838137274701
  0
LINE
  5
4F4
100
AcDbEntity
  8
VERDE
  6
CONTINUOUS
 62
             3
100
AcDbLine
 10
-123.28198289889001
 20
-18.28031125664302
 11
-121.53500529554999
 21
-12.40210555036299
  0
LINE
  5
4F3
100
AcDbEntity
  8
VERDE
  6
CONTINUOUS
 62
             3
100
AcDbLine
 10
-123.1212000993801
 20
-18.31446958799597
 11
-121.53500529554999
 21
-12.40210555036299
  0
LINE
  5
4F2
100
AcDbEntity
  8
VERDE
  6
CONTINUOUS
 62
             3
100
AcDbLine
 10
-126.15437527585
 20
-17.62569431771397
 11
-124.02814684284
 21
-11.55765141690199
  0
LINE
  5
4F1
100
AcDbEntity
  8
VERDE
  6
CONTINUOUS
 62
             3
100
AcDbLine
 10
-125.98664287155
 20
-17.66624580914299
 11
-124.02814684284
 21
-11.55765141690199
  0
LINE
  5
4F0
100
AcDbEntity
  8
VERDE
  6
CONTINUOUS
 62
             3
100
AcDbLine
 10
-129.02840155863009
 20
-16.88543869416799
 11
-126.47775699081009
 21
-10.59418492483405
  0
LINE
  5
4EF
100
AcDbEntity
  8
VERDE
  6
CONTINUOUS
 62
             3
100
AcDbLine
 10
-128.85228472562989
 20
-16.93328726226901
 11
-126.47775699081009
 21
-10.59418492483405
  0
LINE
  5
4EE
100
AcDbEntity
  8
VERDE
  6
CONTINUOUS
 62
             3
100
AcDbLine
 10
-131.90535996552009
 20
-16.05712823784302
 11
-128.8781583094601
 21
-9.51393908808097
  0
LINE
  5
4ED
100
AcDbEntity
  8
VERDE
  6
CONTINUOUS
 62
             3
100
AcDbLine
 10
-131.71945652084989
 20
-16.11333237260897
 11
-128.8781583094601
 21
-9.51393908808097
  0
LINE
  5
4EC
100
AcDbEntity
  8
VERDE
  6
CONTINUOUS
 62
             3
100
AcDbLine
 10
-134.78634419216999
 20
-15.13795762785196
 11
-131.22378741944999
 21
-8.31941757855395
  0
LINE
  5
4EB
100
AcDbEntity
  8
VERDE
  6
CONTINUOUS
 62
             3
100
AcDbLine
 10
-134.5892909981801
 20
-15.20373614206596
 11
-131.22378741944999
 21
-8.31941757855395
  0
LINE
  5
4EA
100
AcDbEntity
  8
VERDE
  6
CONTINUOUS
 62
             3
100
AcDbLine
 10
-137.67220882279
 20
-14.12473274892705
 11
-133.50920788630989
 21
-7.01338892342301
  0
LINE
  5
4E9
100
AcDbEntity
  8
VERDE
  6
CONTINUOUS
 62
             3
100
AcDbLine
 10
-137.43237447694989
 20
-14.212532844713
 11
-133.56023709228
 21
-7.19934852784104
  0
LINE
  5
4E8
100
AcDbEntity
  8
VERDE
  6
CONTINUOUS
 62
             3
100
AcDbLine
 10
-105.2458883953
 20
-14.87979370934704
 11
-105.9909417863
 21
-14.87979370934602
  0
LINE
  5
4E7
100
AcDbEntity
  8
VERDE
  6
CONTINUOUS
 62
             3
100
AcDbLine
 10
-106.4154429732
 20
-13.29553371198904
 11
-105.9909417863
 21
-14.87979370934602
  0
LINE
  5
4E6
100
AcDbEntity
  8
VERDE
  6
CONTINUOUS
 62
             3
100
AcDbLine
 10
-108.4438872083999
 20
-13.29553371198904
 11
-108.71998385495
 21
-14.32594042471396
  0
LINE
  5
4E5
100
AcDbEntity
  8
VERDE
  6
CONTINUOUS
 62
             3
100
AcDbLine
 10
-108.4438872083999
 20
-44.28905370670395
 11
-108.8683883952999
 21
-42.70479370934697
  0
LINE
  5
4E4
100
AcDbEntity
  8
VERDE
  6
CONTINUOUS
 62
             3
100
AcDbLine
 10
-106.4154429732
 20
-44.28905370670395
 11
-105.9909417863
 21
-42.70479370934697
  0
LINE
  5
4E3
100
AcDbEntity
  8
VERDE
  6
CONTINUOUS
 62
             3
100
AcDbLine
 10
-105.2458883953
 20
-42.70479370934595
 11
-105.9909417863
 21
-42.70479370934697
  0
LINE
  5
4E2
100
AcDbEntity
  8
VERDE
  6
CONTINUOUS
 62
             3
100
AcDbLine
 10
-105.9909417863
 20
-42.70479370934697
 11
-105.9909417863
 21
-26.49672223396601
  0
LINE
  5
4E1
100
AcDbEntity
  8
VERDE
  6
CONTINUOUS
 62
             3
100
AcDbLine
 10
-108.96910500881
 20
-13.17772479187397
 11
-108.62134367362999
 21
-14.78057944861996
  0
LINE
  5
4E0
100
AcDbEntity
  8
VERDE
  6
CONTINUOUS
 62
             3
100
AcDbLine
 10
-110.99519859443009
 20
-13.08009898769205
 11
-111.32056712914
 21
-14.096023526468
  0
LINE
  5
4DF
100
AcDbEntity
  8
VERDE
  6
CONTINUOUS
 62
             3
100
AcDbLine
 10
-112.48686755993
 20
-44.03770234066906
 11
-112.83462889511
 21
-42.43484768392204
  0
LINE
  5
4DE
100
AcDbEntity
  8
VERDE
  6
CONTINUOUS
 62
             3
100
AcDbLine
 10
-110.4607739743001
 20
-44.13532814484995
 11
-109.9605167966499
 21
-42.57333462594306
  0
LINE
  5
4DD
100
AcDbEntity
  8
VERDE
  6
CONTINUOUS
 62
             3
100
AcDbLine
 10
-109.21632680599009
 20
-42.60919286409001
 11
-109.9605167966499
 21
-42.57333462594306
  0
LINE
  5
4DC
100
AcDbEntity
  8
VERDE
  6
CONTINUOUS
 62
             3
100
AcDbLine
 10
-109.9605167966499
 20
-42.57333462594306
 11
-109.17717713251
 21
-26.31616284451002
  0
LINE
  5
4DB
100
AcDbEntity
  8
VERDE
  6
CONTINUOUS
 62
             3
100
AcDbLine
 10
-109.21632680599009
 20
-42.60919286409001
 11
-108.86843718803991
 21
-26.33766319785104
  0
LINE
  5
4DA
100
AcDbEntity
  8
VERDE
  6
CONTINUOUS
 62
             3
100
AcDbLine
 10
-111.51413779307001
 20
-12.93714868988502
 11
-111.24392231157999
 21
-14.55488309035502
  0
LINE
  5
4D9
100
AcDbEntity
  8
VERDE
  6
CONTINUOUS
 62
             3
100
AcDbLine
 10
-113.53318487800991
 20
-12.74212334759602
 11
-113.9070711984
 21
-13.74121111715704
  0
LINE
  5
4D8
100
AcDbEntity
  8
VERDE
  6
CONTINUOUS
 62
             3
100
AcDbLine
 10
-116.51306558698001
 20
-43.59206001889402
 11
-116.7832810684699
 21
-41.97432561842402
  0
LINE
  5
4D7
100
AcDbEntity
  8
VERDE
  6
CONTINUOUS
 62
             3
100
AcDbLine
 10
-114.49401850204001
 20
-43.78708536118302
 11
-113.91916477327
 21
-42.25097853305601
  0
LINE
  5
4D6
100
AcDbEntity
  8
VERDE
  6
CONTINUOUS
 62
             3
100
AcDbLine
 10
-113.17756298252991
 20
-42.32261190117197
 11
-113.91916477327
 21
-42.25097853305601
  0
LINE
  5
4D5
100
AcDbEntity
  8
VERDE
  6
CONTINUOUS
 62
             3
100
AcDbLine
 10
-113.91916477327
 20
-42.25097853305601
 11
-112.3537691782701
 21
-26.04484154716602
  0
LINE
  5
4D4
100
AcDbEntity
  8
VERDE
  6
CONTINUOUS
 62
             3
100
AcDbLine
 10
-113.17756298252991
 20
-42.32261190117197
 11
-112.04614848251001
 21
-26.07512006819604
  0
LINE
  5
4D3
100
AcDbEntity
  8
VERDE
  6
CONTINUOUS
 62
             3
100
AcDbLine
 10
-114.0446427361501
 20
-12.57436298616597
 11
-113.85259938330999
 21
-14.20322772810403
  0
LINE
  5
4D2
100
AcDbEntity
  8
VERDE
  6
CONTINUOUS
 62
             3
100
AcDbLine
 10
-116.0519638009
 20
-12.28239011350104
 11
-116.47350135545
 21
-13.26232554094895
  0
LINE
  5
4D1
100
AcDbEntity
  8
VERDE
  6
CONTINUOUS
 62
             3
100
AcDbLine
 10
-120.51314982208009
 20
-42.95315960086896
 11
-120.7051931749199
 21
-41.32429485892999
  0
LINE
  5
4D0
100
AcDbEntity
  8
VERDE
  6
CONTINUOUS
 62
             3
100
AcDbLine
 10
-118.50582875732989
 20
-43.24513247353298
 11
-117.8577108085501
 21
-41.73847255126498
  0
LINE
  5
4CF
100
AcDbEntity
  8
VERDE
  6
CONTINUOUS
 62
             3
100
AcDbLine
 10
-117.1204160187001
 20
-41.845715025613
 11
-117.8577108085501
 21
-41.73847255126498
  0
LINE
  5
4CE
100
AcDbEntity
  8
VERDE
  6
CONTINUOUS
 62
             3
100
AcDbLine
 10
-117.8577108085501
 20
-41.73847255126498
 11
-115.5223363745399
 21
-25.68271280658905
  0
LINE
  5
4CD
100
AcDbEntity
  8
VERDE
  6
CONTINUOUS
 62
             3
100
AcDbLine
 10
-117.1204160187001
 20
-41.845715025613
 11
-115.2143100783601
 21
-25.72194948969298
  0
LINE
  5
4CC
100
AcDbEntity
  8
VERDE
  6
CONTINUOUS
 62
             3
100
AcDbLine
 10
-116.5547549192399
 20
-12.09020850448496
 11
-116.4413287914501
 21
-13.72642838898605
  0
LINE
  5
4CB
100
AcDbEntity
  8
VERDE
  6
CONTINUOUS
 62
             3
100
AcDbLine
 10
-118.54569762152011
 20
-11.70196480322397
 11
-119.01390941804991
 21
-12.66047670479702
  0
LINE
  5
4CA
100
AcDbEntity
  8
VERDE
  6
CONTINUOUS
 62
             3
100
AcDbLine
 10
-124.47784932133
 20
-42.12248185789201
 11
-124.5912754491101
 21
-40.48626197339002
  0
LINE
  5
4C9
100
AcDbEntity
  8
VERDE
  6
CONTINUOUS
 62
             3
100
AcDbLine
 10
-122.4869066190399
 20
-42.51072555915198
 11
-121.76702658490009
 21
-41.03700450910606
  0
LINE
  5
4C8
100
AcDbEntity
  8
VERDE
  6
CONTINUOUS
 62
             3
100
AcDbLine
 10
-121.0357476146
 20
-41.179607535179
 11
-121.76702658490009
 21
-41.03700450910606
  0
LINE
  5
4C7
100
AcDbEntity
  8
VERDE
  6
CONTINUOUS
 62
             3
100
AcDbLine
 10
-121.76702658490009
 20
-41.03700450910606
 11
-118.6844507148501
 21
-25.229325175751
  0
LINE
  5
4C6
100
AcDbEntity
  8
VERDE
  6
CONTINUOUS
 62
             3
100
AcDbLine
 10
-121.0357476146
 20
-41.179607535179
 11
-118.37451471900999
 21
-25.277856683854
  0
LINE
  5
4C5
100
AcDbEntity
  8
VERDE
  6
CONTINUOUS
 62
             3
100
AcDbLine
 10
-119.03865668752999
 20
-11.48580736347105
 11
-119.0041106710901
 21
-13.12559014471003
  0
LINE
  5
4C4
100
AcDbEntity
  8
VERDE
  6
CONTINUOUS
 62
             3
100
AcDbLine
 10
-121.0086066450101
 20
-11.00219266105705
 11
-121.52240751504
 21
-11.93705950602202
  0
LINE
  5
4C3
100
AcDbEntity
  8
VERDE
  6
CONTINUOUS
 62
             3
100
AcDbLine
 10
-128.39797515159009
 20
-41.10195204110505
 11
-128.43252116803001
 21
-39.46216925986596
  0
LINE
  5
4C2
100
AcDbEntity
  8
VERDE
  6
CONTINUOUS
 62
             3
100
AcDbLine
 10
-126.42802519411001
 20
-41.58556674351905
 11
-125.63805153133011
 21
-40.14820019005697
  0
LINE
  5
4C1
100
AcDbEntity
  8
VERDE
  6
CONTINUOUS
 62
             3
100
AcDbLine
 10
-124.91448325646
 20
-40.32583325865198
 11
-125.63805153133011
 21
-40.14820019005697
  0
LINE
  5
4C0
100
AcDbEntity
  8
VERDE
  6
CONTINUOUS
 62
             3
100
AcDbLine
 10
-125.63805153133011
 20
-40.14820019005697
 11
-121.8416100213901
 21
-24.683823789298
  0
LINE
  5
4BF
100
AcDbEntity
  8
VERDE
  6
CONTINUOUS
 62
             3
100
AcDbLine
 10
-124.91448325646
 20
-40.32583325865198
 11
-121.5027993205001
 21
-24.74684690018501
  0
LINE
  5
4BE
100
AcDbEntity
  8
VERDE
  6
CONTINUOUS
 62
             3
100
AcDbLine
 10
-121.4905911337901
 20
-10.76256037588996
 11
-121.53500529554999
 21
-12.40210555036299
  0
LINE
  5
4BD
100
AcDbEntity
  8
VERDE
  6
CONTINUOUS
 62
             3
100
AcDbLine
 10
-123.4349826187199
 20
-10.18469553991201
 11
-123.9931817325901
 21
-11.09375059938304
  0
LINE
  5
4BC
100
AcDbEntity
  8
VERDE
  6
CONTINUOUS
 62
             3
100
AcDbLine
 10
-132.26444168754011
 20
-39.89393541936704
 11
-132.2200275257801
 21
-38.25439024489504
  0
LINE
  5
4BB
100
AcDbEntity
  8
VERDE
  6
CONTINUOUS
 62
             3
100
AcDbLine
 10
-130.32005020259999
 20
-40.47180025534499
 11
-129.46181382299011
 21
-39.07411956447902
  0
LINE
  5
4BA
100
AcDbEntity
  8
VERDE
  6
CONTINUOUS
 62
             3
100
AcDbLine
 10
-128.74763324847001
 20
-39.28637097771298
 11
-129.46181382299011
 21
-39.07411956447902
  0
LINE
  5
4B9
100
AcDbEntity
  8
VERDE
  6
CONTINUOUS
 62
             3
100
AcDbLine
 10
-129.46181382299011
 20
-39.07411956447902
 11
-124.9952096229201
 21
-24.044952478195
  0
LINE
  5
4B8
100
AcDbEntity
  8
VERDE
  6
CONTINUOUS
 62
             3
100
AcDbLine
 10
-128.74763324847001
 20
-39.28637097771298
 11
-124.6770464869501
 21
-24.11371329233998
  0
LINE
  5
4B7
100
AcDbEntity
  8
VERDE
  6
CONTINUOUS
 62
             3
100
AcDbLine
 10
-123.9048754410201
 20
-9.92214380200301
 11
-124.02814684284
 21
-11.55765141690199
  0
LINE
  5
4B6
100
AcDbEntity
  8
VERDE
  6
CONTINUOUS
 62
             3
100
AcDbLine
 10
-125.81920196223
 20
-9.25136814237396
 11
-126.42050558899
 21
-10.13250451110605
  0
LINE
  5
4B5
100
AcDbEntity
  8
VERDE
  6
CONTINUOUS
 62
             3
100
AcDbLine
 10
-136.06828766930991
 20
-38.50123179729701
 11
-135.94501626748999
 21
-36.865724182397
  0
LINE
  5
4B4
100
AcDbEntity
  8
VERDE
  6
CONTINUOUS
 62
             3
100
AcDbLine
 10
-134.15396114811011
 20
-39.17200745692605
 11
-133.22945117512
 21
-37.81725201525399
  0
LINE
  5
4B3
100
AcDbEntity
  8
VERDE
  6
CONTINUOUS
 62
             3
100
AcDbLine
 10
-132.52631354808
 20
-38.06362984074997
 11
-133.22945117512
 21
-37.81725201525399
  0
LINE
  5
4B2
100
AcDbEntity
  8
VERDE
  6
CONTINUOUS
 62
             3
100
AcDbLine
 10
-133.22945117512
 20
-37.81725201525399
 11
-128.14651296469989
 21
-23.31105567051998
  0
LINE
  5
4B1
100
AcDbEntity
  8
VERDE
  6
CONTINUOUS
 62
             3
100
AcDbLine
 10
-132.52631354808
 20
-38.06362984074997
 11
-127.82209712546
 21
-23.39107006120003
  0
LINE
  5
4B0
100
AcDbEntity
  8
VERDE
  6
CONTINUOUS
 62
             3
100
AcDbLine
 10
-126.2759140534699
 20
-8.96650546451497
 11
-126.47775699081009
 21
-10.59418492483405
  0
LINE
  5
4AF
100
AcDbEntity
  8
VERDE
  6
CONTINUOUS
 62
             3
100
AcDbLine
 10
-128.1557388009401
 20
-8.20437362937105
 11
-128.7987533069099
 21
-9.05554910891397
  0
LINE
  5
4AE
100
AcDbEntity
  8
VERDE
  6
CONTINUOUS
 62
             3
100
AcDbLine
 10
-139.8006969719099
 20
-36.92706902620205
 11
-139.59885403455999
 21
-35.29938956588296
  0
LINE
  5
4AD
100
AcDbEntity
  8
VERDE
  6
CONTINUOUS
 62
             3
100
AcDbLine
 10
-137.92087222443999
 20
-37.68920086134597
 11
-136.93223138296
 21
-36.38051056816505
  0
LINE
  5
4AC
100
AcDbEntity
  8
VERDE
  6
CONTINUOUS
 62
             3
100
AcDbLine
 10
-136.24176635647001
 20
-36.66044377920105
 11
-136.93223138296
 21
-36.38051056816505
  0
LINE
  5
4AB
100
AcDbEntity
  8
VERDE
  6
CONTINUOUS
 62
             3
100
AcDbLine
 10
-136.93223138296
 20
-36.38051056816505
 11
-131.29662070529
 21
-22.48008031385098
  0
LINE
  5
4AA
100
AcDbEntity
  8
VERDE
  6
CONTINUOUS
 62
             3
100
AcDbLine
 10
-136.24176635647001
 20
-36.66044377920105
 11
-130.96457922052991
 21
-22.57232477429
  0
LINE
  5
4A9
100
AcDbEntity
  8
VERDE
  6
CONTINUOUS
 62
             3
100
AcDbLine
 10
-128.59821164537991
 20
-7.89786023413603
 11
-128.8781583094601
 21
-9.51393908808097
  0
LINE
  5
4A8
100
AcDbEntity
  8
VERDE
  6
CONTINUOUS
 62
             3
100
AcDbLine
 10
-130.43917777341991
 20
-7.04613860664904
 11
-131.12241285214009
 21
-7.86538043851897
  0
LINE
  5
4A7
100
AcDbEntity
  8
VERDE
  6
CONTINUOUS
 62
             3
100
AcDbLine
 10
-143.45301903819001
 20
-35.17509552293302
 11
-143.17307237411001
 21
-33.55901666898797
  0
LINE
  5
4A6
100
AcDbEntity
  8
VERDE
  6
CONTINUOUS
 62
             3
100
AcDbLine
 10
-141.61205291014991
 20
-36.02681715042002
 11
-140.56157256037
 21
-34.76722514042604
  0
LINE
  5
4A5
100
AcDbEntity
  8
VERDE
  6
CONTINUOUS
 62
             3
100
AcDbLine
 10
-139.88538041634999
 20
-35.08006493939001
 11
-140.56157256037
 21
-34.76722514042604
  0
LINE
  5
4A4
100
AcDbEntity
  8
VERDE
  6
CONTINUOUS
 62
             3
100
AcDbLine
 10
-140.56157256037
 20
-34.76722514042604
 11
-134.44643787451989
 21
-21.54957812784596
  0
LINE
  5
4A3
100
AcDbEntity
  8
VERDE
  6
CONTINUOUS
 62
             3
100
AcDbLine
 10
-139.88538041634999
 20
-35.08006493939001
 11
-134.1054468367399
 21
-21.655196441822
  0
LINE
  5
4A2
100
AcDbEntity
  8
VERDE
  6
CONTINUOUS
 62
             3
100
AcDbLine
 10
-130.86638585742
 20
-6.71868489619897
 11
-131.22378741944999
 21
-8.31941757855395
  0
LINE
  5
4A1
100
AcDbEntity
  8
VERDE
  6
CONTINUOUS
 62
             3
100
AcDbLine
 10
-132.6642265824801
 20
-5.77934750065401
 11
-133.3860987087601
 21
-6.56475693857101
  0
LINE
  5
4A0
100
AcDbEntity
  8
VERDE
  6
CONTINUOUS
 62
             3
100
AcDbLine
 10
-147.01678892819001
 20
-33.24937181399196
 11
-146.65938736615999
 21
-31.64863913163697
  0
LINE
  5
49F
100
AcDbEntity
  8
VERDE
  6
CONTINUOUS
 62
             3
100
AcDbLine
 10
-145.21894820312991
 20
-34.18870920953702
 11
-144.10906302987999
 21
-32.98113482296401
  0
LINE
  5
49E
100
AcDbEntity
  8
VERDE
  6
CONTINUOUS
 62
             3
100
AcDbLine
 10
-143.44871097019001
 20
-33.32615614507006
 11
-144.10906302987999
 21
-32.98113482296401
  0
LINE
  5
49D
100
AcDbEntity
  8
VERDE
  6
CONTINUOUS
 62
             3
100
AcDbLine
 10
-144.10906302987999
 20
-32.98113482296401
 11
-137.59663869329009
 21
-20.516708572374
  0
LINE
  5
49C
100
AcDbEntity
  8
VERDE
  6
CONTINUOUS
 62
             3
100
AcDbLine
 10
-143.44871097019001
 20
-33.32615614507006
 11
-137.24543225257
 21
-20.63701592240102
  0
LINE
  5
49B
100
AcDbEntity
  8
VERDE
  6
CONTINUOUS
 62
             3
100
AcDbLine
 10
-133.07517977135009
 20
-5.43171241025004
 11
-133.50920788630989
 21
-7.01338892342301
  0
LINE
  5
49A
100
AcDbEntity
  8
VERDE
  6
CONTINUOUS
 62
             3
100
AcDbLine
 10
-134.82572826104999
 20
-4.40693633687101
 11
-135.58456436113011
 21
-5.15669304746302
  0
LINE
  5
499
100
AcDbEntity
  8
VERDE
  6
CONTINUOUS
 62
             3
100
AcDbLine
 10
-150.48374693816999
 20
-31.15436112450004
 11
-150.04971882320001
 21
-29.57268461132696
  0
LINE
  5
498
100
AcDbEntity
  8
VERDE
  6
CONTINUOUS
 62
             3
100
AcDbLine
 10
-148.73319844846989
 20
-32.17913719787896
 11
-147.56648081837011
 21
-31.02637921438304
  0
LINE
  5
497
100
AcDbEntity
  8
VERDE
  6
CONTINUOUS
 62
             3
100
AcDbLine
 10
-146.92349933249011
 20
-31.402782408142
 11
-147.56648081837011
 21
-31.02637921438304
  0
LINE
  5
496
100
AcDbEntity
  8
VERDE
  6
CONTINUOUS
 62
             3
100
AcDbLine
 10
-147.56648081837011
 20
-31.02637921438304
 11
-140.74762868988
 21
-19.37824299705301
  0
LINE
  5
495
100
AcDbEntity
  8
VERDE
  6
CONTINUOUS
 62
             3
100
AcDbLine
 10
-146.92349933249011
 20
-31.402782408142
 11
-140.36414855679001
 21
-19.52253865151704
  0
LINE
  5
494
100
AcDbEntity
  8
VERDE
  6
CONTINUOUS
 62
             3
100
AcDbLine
 10
-135.2194740938601
 20
-4.03992557590095
 11
-135.72912282036009
 21
-5.59888008853795
  0
LINE
  5
493
100
AcDbEntity
  8
VERDE
  6
CONTINUOUS
 62
             3
100
AcDbLine
 10
-153.8458577440401
 20
-28.89491903384305
 11
-153.33620901754011
 21
-27.33596452120605
  0
LINE
  5
492
100
AcDbEntity
  8
VERDE
  6
CONTINUOUS
 62
             3
100
AcDbLine
 10
-152.14665871347009
 20
-30.00275867470396
 11
-150.92581271298991
 21
-28.90748882666696
  0
LINE
  5
491
100
AcDbEntity
  8
VERDE
  6
CONTINUOUS
 62
             3
100
AcDbLine
 10
-150.3016920308701
 20
-29.31440150722801
 11
-150.92581271298991
 21
-28.90748882666696
  0
LINE
  5
490
100
AcDbEntity
  8
VERDE
  6
CONTINUOUS
 62
             3
100
AcDbLine
 10
-150.92581271298991
 20
-28.90748882666696
 11
-143.89950379382
 21
-18.13057052225895
  0
LINE
  5
48F
100
AcDbEntity
  8
VERDE
  6
CONTINUOUS
 62
             3
100
AcDbLine
 10
-150.3016920308701
 20
-29.31440150722801
 11
-143.52435665175989
 21
-18.28490903934699
  0
LINE
  5
48E
100
AcDbEntity
  8
VERDE
  6
CONTINUOUS
 62
             3
100
AcDbLine
 10
-101.59697000342
 20
-14.96632751203197
 11
-102.34202339443
 21
-14.96632751203197
  0
LINE
  5
48D
100
AcDbEntity
  8
VERDE
  6
CONTINUOUS
 62
             3
100
AcDbLine
 10
-97.97447000342004
 20
-14.96632751203197
 11
-98.7195233944301
 21
-14.96632751203197
  0
LINE
  5
48C
100
AcDbEntity
  8
VERDE
  6
CONTINUOUS
 62
             3
100
AcDbLine
 10
-101.17246881653
 20
-13.38206751467499
 11
-101.59697000342
 21
-14.96632751203197
  0
LINE
  5
48B
100
AcDbEntity
  8
VERDE
  6
CONTINUOUS
 62
             3
100
AcDbLine
 10
-97.54996881653005
 20
-13.38206751467499
 11
-97.97447000342004
 21
-14.96632751203197
  0
LINE
  5
48A
100
AcDbEntity
  8
VERDE
  6
CONTINUOUS
 62
             3
100
AcDbLine
 10
-99.14402458132008
 20
-13.38206751467499
 11
-98.7195233944301
 21
-14.96632751203197
  0
LINE
  5
489
100
AcDbEntity
  8
VERDE
  6
CONTINUOUS
 62
             3
100
AcDbLine
 10
-104.7949688165299
 20
-13.38206751467396
 11
-105.2194700034199
 21
-14.96632751203197
  0
LINE
  5
488
100
AcDbEntity
  8
VERDE
  6
CONTINUOUS
 62
             3
100
AcDbLine
 10
-102.76652458132
 20
-13.38206751467396
 11
-102.34202339443
 21
-14.96632751203197
  0
LINE
  5
487
100
AcDbEntity
  8
VERDE
  6
CONTINUOUS
 62
             3
100
AcDbLine
 10
-91.89902458131996
 20
-13.38206751467499
 11
-91.47452339441998
 21
-14.96632751203197
  0
LINE
  5
486
100
AcDbEntity
  8
VERDE
  6
CONTINUOUS
 62
             3
100
AcDbLine
 10
-93.92746881653011
 20
-13.38206751467499
 11
-94.35197000342009
 21
-14.96632751203197
  0
LINE
  5
485
100
AcDbEntity
  8
VERDE
  6
CONTINUOUS
 62
             3
100
AcDbLine
 10
-94.35197000342009
 20
-14.96632751203197
 11
-95.09702339441992
 21
-14.96632751203197
  0
LINE
  5
484
100
AcDbEntity
  8
VERDE
  6
CONTINUOUS
 62
             3
100
AcDbLine
 10
-90.30496881652994
 20
-13.38206751467499
 11
-90.72947000341992
 21
-14.96632751203197
  0
LINE
  5
483
100
AcDbEntity
  8
VERDE
  6
CONTINUOUS
 62
             3
100
AcDbLine
 10
-90.72947000341992
 20
-14.96632751203197
 11
-91.47452339441998
 21
-14.96632751203197
  0
LINE
  5
482
100
AcDbEntity
  8
VERDE
  6
CONTINUOUS
 62
             3
100
AcDbLine
 10
-95.52152458131991
 20
-13.38206751467396
 11
-95.09702339441992
 21
-14.96632751203197
  0
LINE
  5
481
100
AcDbEntity
  8
VERDE
  6
CONTINUOUS
 62
             3
100
AcDbLine
 10
-101.59697000342
 20
-42.79132751203201
 11
-102.34202339443
 21
-42.79132751203304
  0
LINE
  5
480
100
AcDbEntity
  8
VERDE
  6
CONTINUOUS
 62
             3
100
AcDbLine
 10
-102.76652458132
 20
-44.37558750939002
 11
-102.34202339443
 21
-42.79132751203304
  0
LINE
  5
47F
100
AcDbEntity
  8
VERDE
  6
CONTINUOUS
 62
             3
100
AcDbLine
 10
-101.17246881653
 20
-44.37558750939002
 11
-101.59697000342
 21
-42.79132751203201
  0
LINE
  5
47E
100
AcDbEntity
  8
VERDE
  6
CONTINUOUS
 62
             3
100
AcDbLine
 10
-104.7949688165299
 20
-44.37558750938899
 11
-105.2194700034199
 21
-42.79132751203201
  0
LINE
  5
47D
100
AcDbEntity
  8
VERDE
  6
CONTINUOUS
 62
             3
100
AcDbLine
 10
-90.30496881652994
 20
-44.37558750939002
 11
-90.72947000341992
 21
-42.79132751203201
  0
LINE
  5
47C
100
AcDbEntity
  8
VERDE
  6
CONTINUOUS
 62
             3
100
AcDbLine
 10
-91.89902458131996
 20
-44.37558750939002
 11
-91.47452339441998
 21
-42.79132751203201
  0
LINE
  5
47B
100
AcDbEntity
  8
VERDE
  6
CONTINUOUS
 62
             3
100
AcDbLine
 10
-99.14402458132008
 20
-44.37558750939002
 11
-98.7195233944301
 21
-42.79132751203201
  0
LINE
  5
47A
100
AcDbEntity
  8
VERDE
  6
CONTINUOUS
 62
             3
100
AcDbLine
 10
-97.54996881653005
 20
-44.37558750939002
 11
-97.97447000342004
 21
-42.79132751203201
  0
LINE
  5
479
100
AcDbEntity
  8
VERDE
  6
CONTINUOUS
 62
             3
100
AcDbLine
 10
-97.97447000342004
 20
-42.79132751203201
 11
-98.7195233944301
 21
-42.79132751203201
  0
LINE
  5
478
100
AcDbEntity
  8
VERDE
  6
CONTINUOUS
 62
             3
100
AcDbLine
 10
-93.92746881653011
 20
-44.37558750939002
 11
-94.35197000342009
 21
-42.79132751203201
  0
LINE
  5
477
100
AcDbEntity
  8
VERDE
  6
CONTINUOUS
 62
             3
100
AcDbLine
 10
-95.52152458131991
 20
-44.37558750939002
 11
-95.09702339442993
 21
-42.79132751203201
  0
LINE
  5
476
100
AcDbEntity
  8
VERDE
  6
CONTINUOUS
 62
             3
100
AcDbLine
 10
-94.35197000342009
 20
-42.79132751203201
 11
-95.09702339442993
 21
-42.79132751203201
  0
LINE
  5
475
100
AcDbEntity
  8
VERDE
  6
CONTINUOUS
 62
             3
100
AcDbLine
 10
-90.72947000341992
 20
-42.79132751203201
 11
-91.47452339441998
 21
-42.79132751203201
  0
LINE
  5
474
100
AcDbEntity
  8
VERDE
  6
CONTINUOUS
 62
             3
100
AcDbLine
 10
-90.72947000341992
 20
-42.79132751203201
 11
-90.72947000341992
 21
-26.5
  0
LINE
  5
473
100
AcDbEntity
  8
VERDE
  6
CONTINUOUS
 62
             3
100
AcDbLine
 10
-91.47452339441998
 20
-42.79132751203201
 11
-91.47452339441998
 21
-26.5
  0
LINE
  5
472
100
AcDbEntity
  8
VERDE
  6
CONTINUOUS
 62
             3
100
AcDbLine
 10
-94.35197000342009
 20
-42.79132751203201
 11
-94.35197000342009
 21
-26.5
  0
LINE
  5
471
100
AcDbEntity
  8
VERDE
  6
CONTINUOUS
 62
             3
100
AcDbLine
 10
-95.09702339442993
 20
-42.79132751203201
 11
-95.09702339441992
 21
-26.5
  0
LINE
  5
470
100
AcDbEntity
  8
VERDE
  6
CONTINUOUS
 62
             3
100
AcDbLine
 10
-97.97447000342004
 20
-42.79132751203201
 11
-97.97447000342004
 21
-26.54769703150396
  0
LINE
  5
46F
100
AcDbEntity
  8
VERDE
  6
CONTINUOUS
 62
             3
100
AcDbLine
 10
-98.7195233944301
 20
-42.79132751203201
 11
-98.7195233944301
 21
-26.56725443854805
  0
LINE
  5
46E
100
AcDbEntity
  8
VERDE
  6
CONTINUOUS
 62
             3
100
AcDbLine
 10
-101.59697000342
 20
-42.79132751203201
 11
-101.59697000342
 21
-26.59603905323399
  0
LINE
  5
46D
100
AcDbEntity
  8
VERDE
  6
CONTINUOUS
 62
             3
100
AcDbLine
 10
-102.34202339443
 20
-42.79132751203304
 11
-102.34202339443
 21
-26.59139271098195
  0
LINE
  5
46C
100
AcDbEntity
  8
VERDE
  6
CONTINUOUS
 62
             3
100
AcDbLine
 10
-105.2194700034199
 20
-42.79132751203201
 11
-105.2194700034199
 21
-26.52670212755902
  0
LINE
  5
46B
100
AcDbEntity
  8
VERDE
  6
CONTINUOUS
 62
             3
100
AcDbLine
 10
-160.9247327829701
 20
-2.12495750507901
 11
-149.02423833500009
 21
7.03509391473403
  0
LINE
  5
46A
100
AcDbEntity
  8
VERDE
  6
CONTINUOUS
 62
             3
100
AcDbLine
 10
-160.57827586117989
 20
-2.36132145965496
 11
-149.02423833500009
 21
7.03509391473403
  0
LINE
  5
469
100
AcDbEntity
  8
VERDE
  6
CONTINUOUS
 62
             3
100
AcDbLine
 10
-140.5635313390201
 20
-13.01387226367103
 11
-135.72912282036009
 21
-5.59888008853795
  0
LINE
  5
468
100
AcDbEntity
  8
VERDE
  6
CONTINUOUS
 62
             3
100
AcDbLine
 10
-140.34028812055999
 20
-13.10312919261401
 11
-135.72912282036009
 21
-5.59888008853795
  0
LINE
  5
467
100
AcDbEntity
  8
VERDE
  6
CONTINUOUS
 62
             3
100
AcDbLine
 10
-143.4605703789
 20
-11.80141101694198
 11
-137.87838715325009
 21
-4.07916946287105
  0
LINE
  5
466
100
AcDbEntity
  8
VERDE
  6
CONTINUOUS
 62
             3
100
AcDbLine
 10
-143.2224139370401
 20
-11.90492534320504
 11
-137.87838715325009
 21
-4.07916946287105
  0
LINE
  5
465
100
AcDbEntity
  8
VERDE
  6
CONTINUOUS
 62
             3
100
AcDbLine
 10
-146.36321996190011
 20
-10.48300601049198
 11
-139.9520195626101
 21
-2.457779260233
  0
LINE
  5
464
100
AcDbEntity
  8
VERDE
  6
CONTINUOUS
 62
             3
100
AcDbLine
 10
-146.10904603349991
 20
-10.60270313265005
 11
-139.9520195626101
 21
-2.457779260233
  0
LINE
  5
463
100
AcDbEntity
  8
VERDE
  6
CONTINUOUS
 62
             3
100
AcDbLine
 10
-148.99976609949999
 20
-9.19194361632503
 11
-141.94521401723
 21
-0.73846735588495
  0
LINE
  5
462
100
AcDbEntity
  8
VERDE
  6
CONTINUOUS
 62
             3
100
AcDbLine
 10
-149.27095948120001
 20
-9.05394578910705
 11
-141.94521401723
 21
-0.73846735588495
  0
LINE
  5
461
100
AcDbEntity
  8
VERDE
  6
CONTINUOUS
 62
             3
100
AcDbLine
 10
-151.87026322509001
 20
-7.68058954191997
 11
-143.9472444415901
 21
0.90635054649601
  0
LINE
  5
460
100
AcDbEntity
  8
VERDE
  6
CONTINUOUS
 62
             3
100
AcDbLine
 10
-152.18279937378
 20
-7.50916418269799
 11
-143.85335091590991
 21
1.07478142304001
  0
LINE
  5
45F
100
AcDbEntity
  8
VERDE
  6
CONTINUOUS
 62
             3
100
AcDbLine
 10
-154.78949974221001
 20
-6.02500530117004
 11
-145.67200779424999
 21
2.97776453312201
  0
LINE
  5
45E
100
AcDbEntity
  8
VERDE
  6
CONTINUOUS
 62
             3
100
AcDbLine
 10
-155.0972225191401
 20
-5.84325944738805
 11
-145.67200779424999
 21
2.97776453312201
  0
LINE
  5
45D
100
AcDbEntity
  8
VERDE
  6
CONTINUOUS
 62
             3
100
AcDbLine
 10
-157.6852091747601
 20
-4.25811573108103
 11
-147.39696957454001
 21
4.96607145482994
  0
LINE
  5
45C
100
AcDbEntity
  8
VERDE
  6
CONTINUOUS
 62
             3
100
AcDbLine
 10
-158.01212158945009
 20
-4.05051993685197
 11
-147.39696957454001
 21
4.96607145482994
  0
LINE
  5
45B
100
AcDbEntity
  8
VERDE
  6
CONTINUOUS
 62
             3
100
AcDbLine
 10
-163.83156661711999
 20
-0.06034988443696
 11
-150.55004257572
 21
9.18003656603503
  0
LINE
  5
45A
100
AcDbEntity
  8
VERDE
  6
CONTINUOUS
 62
             3
100
AcDbLine
 10
-163.46544760618011
 20
-0.32859541438597
 11
-150.55004257572
 21
9.18003656603503
  0
LINE
  5
459
100
AcDbEntity
  8
VERDE
  6
CONTINUOUS
 62
             3
100
AcDbLine
 10
-166.72833673931001
 20
2.14970671230196
 11
-151.97084595979999
 21
11.39592810268096
  0
LINE
  5
458
100
AcDbEntity
  8
VERDE
  6
CONTINUOUS
 62
             3
100
AcDbLine
 10
-166.34271171704
 20
1.84628037032303
 11
-151.97084595979999
 21
11.39592810268096
  0
LINE
  5
457
100
AcDbEntity
  8
VERDE
  6
CONTINUOUS
 62
             3
100
AcDbLine
 10
-169.60988802614
 20
4.51173356187394
 11
-153.2833555094501
 21
13.67763278129894
  0
LINE
  5
456
100
AcDbEntity
  8
VERDE
  6
CONTINUOUS
 62
             3
100
AcDbLine
 10
-169.20522569513989
 20
4.16965578665702
 11
-153.2833555094501
 21
13.67763278129894
  0
LINE
  5
455
100
AcDbEntity
  8
VERDE
  6
CONTINUOUS
 62
             3
100
AcDbLine
 10
-172.47012557888999
 20
7.03229287402701
 11
-154.48452923816009
 21
16.01986232424304
  0
LINE
  5
454
100
AcDbEntity
  8
VERDE
  6
CONTINUOUS
 62
             3
100
AcDbLine
 10
-172.04724827267
 20
6.647941960916
 11
-154.48452923816009
 21
16.01986232424304
  0
LINE
  5
453
100
AcDbEntity
  8
VERDE
  6
CONTINUOUS
 62
             3
100
AcDbLine
 10
-136.91867312441991
 20
-2.93208593504005
 11
-137.71271445362001
 21
-3.64445221680205
  0
LINE
  5
452
100
AcDbEntity
  8
VERDE
  6
CONTINUOUS
 62
             3
100
AcDbLine
 10
-137.29429902150989
 20
-2.54655011963303
 11
-137.87838715325009
 21
-4.07916946287105
  0
LINE
  5
451
100
AcDbEntity
  8
VERDE
  6
CONTINUOUS
 62
             3
100
AcDbLine
 10
-138.93821038116991
 20
-1.35821453700703
 11
-139.76561660007999
 21
-2.03153934775196
  0
LINE
  5
450
100
AcDbEntity
  8
VERDE
  6
CONTINUOUS
 62
             3
100
AcDbLine
 10
-157.0953290247501
 20
-26.47628222195397
 11
-156.5112408930199
 21
-24.94366287871605
  0
LINE
  5
44F
100
AcDbEntity
  8
VERDE
  6
CONTINUOUS
 62
             3
100
AcDbLine
 10
-155.45141766510011
 20
-27.66461780457996
 11
-154.1792728333501
 21
-26.62937458487204
  0
LINE
  5
44E
100
AcDbEntity
  8
VERDE
  6
CONTINUOUS
 62
             3
100
AcDbLine
 10
-153.57545947147989
 20
-27.06585365593605
 11
-154.1792728333501
 21
-26.62937458487204
  0
LINE
  5
44D
100
AcDbEntity
  8
VERDE
  6
CONTINUOUS
 62
             3
100
AcDbLine
 10
-154.1792728333501
 20
-26.62937458487204
 11
-147.0520061469999
 21
-16.76970628889501
  0
LINE
  5
44C
100
AcDbEntity
  8
VERDE
  6
CONTINUOUS
 62
             3
100
AcDbLine
 10
-153.57545947147989
 20
-27.06585365593605
 11
-146.66331119773011
 21
-16.94375150573706
  0
LINE
  5
44B
100
AcDbEntity
  8
VERDE
  6
CONTINUOUS
 62
             3
100
AcDbLine
 10
-139.29484575920989
 20
-0.95504721857503
 11
-139.9520195626101
 21
-2.457779260233
  0
LINE
  5
44A
100
AcDbEntity
  8
VERDE
  6
CONTINUOUS
 62
             3
100
AcDbLine
 10
-140.8796593756999
 20
0.31103011568996
 11
-141.73851281555989
 21
-0.32169266776498
  0
LINE
  5
449
100
AcDbEntity
  8
VERDE
  6
CONTINUOUS
 62
             3
100
AcDbLine
 10
-160.22462952243001
 20
-23.90405633232604
 11
-159.56745571902999
 21
-22.40132429066796
  0
LINE
  5
448
100
AcDbEntity
  8
VERDE
  6
CONTINUOUS
 62
             3
100
AcDbLine
 10
-158.63981590593991
 20
-25.17013366659103
 11
-157.31932067667
 21
-24.19731644513399
  0
LINE
  5
447
100
AcDbEntity
  8
VERDE
  6
CONTINUOUS
 62
             3
100
AcDbLine
 10
-156.73721408552001
 20
-24.66235028476206
 11
-157.31932067667
 21
-24.19731644513399
  0
LINE
  5
446
100
AcDbEntity
  8
VERDE
  6
CONTINUOUS
 62
             3
100
AcDbLine
 10
-157.31932067667
 20
-24.19731644513399
 11
-150.2044764490299
 21
-15.29130280285199
  0
LINE
  5
445
100
AcDbEntity
  8
VERDE
  6
CONTINUOUS
 62
             3
100
AcDbLine
 10
-156.73721408552001
 20
-24.66235028476206
 11
-149.80132728749999
 21
-15.48709820088004
  0
LINE
  5
444
100
AcDbEntity
  8
VERDE
  6
CONTINUOUS
 62
             3
100
AcDbLine
 10
-141.21647766545991
 20
0.73089452142904
 11
-141.94521401723
 21
-0.73846735588495
  0
LINE
  5
443
100
AcDbEntity
  8
VERDE
  6
CONTINUOUS
 62
             3
100
AcDbLine
 10
-142.73852043660011
 20
2.07177923614495
 11
-143.62683054381
 21
1.481124933454
  0
LINE
  5
442
100
AcDbEntity
  8
VERDE
  6
CONTINUOUS
 62
             3
100
AcDbLine
 10
-163.2265064974699
 20
-21.18420297988996
 11
-162.49777014569011
 21
-19.71484110257597
  0
LINE
  5
441
100
AcDbEntity
  8
VERDE
  6
CONTINUOUS
 62
             3
100
AcDbLine
 10
-161.70446372632
 20
-22.52508769460599
 11
-160.33867859437009
 21
-21.61695115738701
  0
LINE
  5
440
100
AcDbEntity
  8
VERDE
  6
CONTINUOUS
 62
             3
100
AcDbLine
 10
-159.77962791492999
 20
-22.10946196261898
 11
-160.33867859437009
 21
-21.61695115738701
  0
LINE
  5
43F
100
AcDbEntity
  8
VERDE
  6
CONTINUOUS
 62
             3
100
AcDbLine
 10
-160.33867859437009
 20
-21.61695115738701
 11
-153.35580274981001
 21
-13.69066518786997
  0
LINE
  5
43E
100
AcDbEntity
  8
VERDE
  6
CONTINUOUS
 62
             3
100
AcDbLine
 10
-159.77962791492999
 20
-22.10946196261898
 11
-152.93742574564001
 21
-13.91044479856305
  0
LINE
  5
43D
100
AcDbEntity
  8
VERDE
  6
CONTINUOUS
 62
             3
100
AcDbLine
 10
-143.05474099865
 20
2.507367614847
 11
-143.85335091590991
 21
1.07478142304001
  0
LINE
  5
43C
100
AcDbEntity
  8
VERDE
  6
CONTINUOUS
 62
             3
100
AcDbLine
 10
-144.51048530545
 20
3.91995195872198
 11
-145.42619325508011
 21
3.37273508868998
  0
LINE
  5
43B
100
AcDbEntity
  8
VERDE
  6
CONTINUOUS
 62
             3
100
AcDbLine
 10
-164.6382582313299
 20
-19.73561027772496
 11
-163.23034865937009
 21
-18.89425920114002
  0
LINE
  5
43A
100
AcDbEntity
  8
VERDE
  6
CONTINUOUS
 62
             3
100
AcDbLine
 10
-162.6956495962099
 20
-19.413105486002
 11
-163.23034865937009
 21
-18.89425920114002
  0
LINE
  5
439
100
AcDbEntity
  8
VERDE
  6
CONTINUOUS
 62
             3
100
AcDbLine
 10
-162.6956495962099
 20
-19.413105486002
 11
-156.05591467880001
 21
-12.21698397011005
  0
LINE
  5
438
100
AcDbEntity
  8
VERDE
  6
CONTINUOUS
 62
             3
100
AcDbLine
 10
-144.80537523945009
 20
4.37025475279097
 11
-145.67200779424999
 21
2.97776453312201
  0
LINE
  5
437
100
AcDbEntity
  8
VERDE
  6
CONTINUOUS
 62
             3
100
AcDbLine
 10
-146.19144712202001
 20
5.85126479722294
 11
-147.13243058950999
 21
5.34875363736501
  0
LINE
  5
436
100
AcDbEntity
  8
VERDE
  6
CONTINUOUS
 62
             3
100
AcDbLine
 10
-146.46432296536
 20
6.31523834565394
 11
-147.39696957454001
 21
4.96607145482994
  0
LINE
  5
435
100
AcDbEntity
  8
VERDE
  6
CONTINUOUS
 62
             3
100
AcDbLine
 10
-147.7775099426801
 20
7.86124157267204
 11
-148.74158802272001
 21
7.40460078665501
  0
LINE
  5
434
100
AcDbEntity
  8
VERDE
  6
CONTINUOUS
 62
             3
100
AcDbLine
 10
-148.0277392545199
 20
8.33781052992697
 11
-149.02423833500009
 21
7.03509391473403
  0
LINE
  5
433
100
AcDbEntity
  8
VERDE
  6
CONTINUOUS
 62
             3
100
AcDbLine
 10
-149.26499776999
 20
9.94522378769398
 11
-150.24993603118989
 21
9.53551172600601
  0
LINE
  5
432
100
AcDbEntity
  8
VERDE
  6
CONTINUOUS
 62
             3
100
AcDbLine
 10
-149.49200059706001
 20
10.433283616018
 11
-150.55004257572
 21
9.18003656603503
  0
LINE
  5
431
100
AcDbEntity
  8
VERDE
  6
CONTINUOUS
 62
             3
100
AcDbLine
 10
-150.65046307250009
 20
12.09838142345905
 11
-151.65397873609001
 21
11.73654767048799
  0
LINE
  5
430
100
AcDbEntity
  8
VERDE
  6
CONTINUOUS
 62
             3
100
AcDbLine
 10
-150.85371329327
 20
12.59680095285296
 11
-151.97084595979999
 21
11.39592810268096
  0
LINE
  5
42F
100
AcDbEntity
  8
VERDE
  6
CONTINUOUS
 62
             3
100
AcDbLine
 10
-151.9306947750699
 20
14.31572413415199
 11
-152.95046200568001
 21
14.00260730734101
  0
LINE
  5
42E
100
AcDbEntity
  8
VERDE
  6
CONTINUOUS
 62
             3
100
AcDbLine
 10
-152.10972131911009
 20
14.82334818406798
 11
-153.2833555094501
 21
13.67763278129894
  0
LINE
  5
42D
100
AcDbEntity
  8
VERDE
  6
CONTINUOUS
 62
             3
100
AcDbLine
 10
-153.1027257011101
 20
16.59211281303101
 11
-154.48452923816009
 21
16.01986232424304
  0
LINE
  5
42C
100
AcDbEntity
  8
VERDE
  6
CONTINUOUS
 62
             3
100
AcDbLine
 10
-153.25711364089011
 20
17.107764869726
 11
-154.48452923816009
 21
16.01986232424304
  0
LINE
  5
42B
100
AcDbEntity
  8
VERDE
  6
CONTINUOUS
 62
             3
100
AcDbLine
 10
-154.16383944958011
 20
18.92227150327494
 11
-155.57158320098009
 21
18.417188176163
  0
LINE
  5
42A
100
AcDbEntity
  8
VERDE
  6
CONTINUOUS
 62
             3
100
AcDbLine
 10
-154.2932309621601
 20
19.44475644659497
 11
-155.57158320098009
 21
18.417188176163
  0
LINE
  5
429
100
AcDbEntity
  8
VERDE
  6
CONTINUOUS
 62
             3
100
AcDbLine
 10
-174.9428623326101
 20
9.24798852545598
 11
-155.52198466396001
 21
18.43498359814498
  0
LINE
  5
428
100
AcDbEntity
  8
VERDE
  6
CONTINUOUS
 62
             3
100
AcDbLine
 10
-166.0940025381301
 20
-18.32302593384998
 11
-165.29539262086999
 21
-16.89043974204299
  0
LINE
  5
427
100
AcDbEntity
  8
VERDE
  6
CONTINUOUS
 62
             3
100
AcDbLine
 10
-163.23034865937009
 20
-18.89425920114002
 11
-156.50436572246011
 21
-11.96277124398603
  0
LINE
  5
426
100
AcDbEntity
  8
VERDE
  6
CONTINUOUS
 62
             3
100
AcDbLine
 10
-168.8204716856601
 20
-15.32715650752004
 11
-167.9538391308599
 21
-13.93466628785097
  0
LINE
  5
425
100
AcDbEntity
  8
VERDE
  6
CONTINUOUS
 62
             3
100
AcDbLine
 10
-167.43439980309
 20
-16.80816655195201
 11
-165.9876288850601
 21
-16.03555092459305
  0
LINE
  5
424
100
AcDbEntity
  8
VERDE
  6
CONTINUOUS
 62
             3
100
AcDbLine
 10
-165.47852070335011
 20
-16.57953016571105
 11
-165.9876288850601
 21
-16.03555092459305
  0
LINE
  5
423
100
AcDbEntity
  8
VERDE
  6
CONTINUOUS
 62
             3
100
AcDbLine
 10
-165.9876288850601
 20
-16.03555092459305
 11
-159.64798059595
 21
-10.10229728331899
  0
LINE
  5
422
100
AcDbEntity
  8
VERDE
  6
CONTINUOUS
 62
             3
100
AcDbLine
 10
-165.47852070335011
 20
-16.57953016571105
 11
-159.19747193720011
 21
-10.37751357141701
  0
LINE
  5
421
100
AcDbEntity
  8
VERDE
  6
CONTINUOUS
 62
             3
100
AcDbLine
 10
-171.39959483749001
 20
-12.20353818901901
 11
-170.46694822832001
 21
-10.854371298194
  0
LINE
  5
420
100
AcDbEntity
  8
0
  6
CONTINUOUS
 62
             7
100
AcDbLine
 10
-170.08640786017011
 20
-13.74954141603598
 11
-168.60412875846009
 21
-13.04745191922405
  0
LINE
  5
41F
100
AcDbEntity
  8
0
  6
CONTINUOUS
 62
             7
100
AcDbLine
 10
-168.12179141169011
 20
-13.61530334289398
 11
-168.60412875846009
 21
-13.04745191922405
  0
LINE
  5
41E
100
AcDbEntity
  8
VERDE
  6
CONTINUOUS
 62
             3
100
AcDbLine
 10
-168.60412875846009
 20
-13.04745191922405
 11
-162.7838361004101
 21
-8.10365077497499
  0
LINE
  5
41D
100
AcDbEntity
  8
VERDE
  6
CONTINUOUS
 62
             3
100
AcDbLine
 10
-168.12179141169011
 20
-13.61530334289398
 11
-162.3168111719701
 21
-8.410698238191
  0
LINE
  5
41C
100
AcDbEntity
  8
VERDE
  6
CONTINUOUS
 62
             3
100
AcDbLine
 10
-173.8253943930201
 20
-8.95941054842797
 11
-172.82889531252999
 21
-7.65669393323503
  0
LINE
  5
41B
100
AcDbEntity
  8
VERDE
  6
CONTINUOUS
 62
             3
100
AcDbLine
 10
-172.58813587755
 20
-10.56682380619498
 11
-171.0737840514
 21
-9.93688766374703
  0
LINE
  5
41A
100
AcDbEntity
  8
VERDE
  6
CONTINUOUS
 62
             3
100
AcDbLine
 10
-170.61933544665001
 20
-10.52729516801196
 11
-171.0737840514
 21
-9.93688766374703
  0
LINE
  5
419
100
AcDbEntity
  8
VERDE
  6
CONTINUOUS
 62
             3
100
AcDbLine
 10
-171.0737840514
 20
-9.93688766374703
 11
-165.90843098190001
 21
-5.96101086929696
  0
LINE
  5
418
100
AcDbEntity
  8
VERDE
  6
CONTINUOUS
 62
             3
100
AcDbLine
 10
-170.61933544665001
 20
-10.52729516801196
 11
-165.42489662054001
 21
-6.30287537220795
  0
LINE
  5
417
100
AcDbEntity
  8
VERDE
  6
CONTINUOUS
 62
             3
100
AcDbLine
 10
-176.09224810773
 20
-5.602292458742
 11
-175.0342061290701
 21
-4.349045408758
  0
LINE
  5
416
100
AcDbEntity
  8
VERDE
  6
CONTINUOUS
 62
             3
100
AcDbLine
 10
-174.93378563229001
 20
-7.26739026618304
 11
-173.39087087550999
 21
-6.71106747300996
  0
LINE
  5
415
100
AcDbEntity
  8
VERDE
  6
CONTINUOUS
 62
             3
100
AcDbLine
 10
-172.9653642824801
 20
-7.32266267797604
 11
-173.39087087550999
 21
-6.71106747300996
  0
LINE
  5
414
100
AcDbEntity
  8
VERDE
  6
CONTINUOUS
 62
             3
100
AcDbLine
 10
-173.39087087550999
 20
-6.71106747300996
 11
-169.01750887508001
 21
-3.66837788062298
  0
LINE
  5
413
100
AcDbEntity
  8
VERDE
  6
CONTINUOUS
 62
             3
100
AcDbLine
 10
-172.9653642824801
 20
-7.32266267797604
 11
-168.51774263687
 21
-4.04821659467802
  0
LINE
  5
412
100
AcDbEntity
  8
VERDE
  6
CONTINUOUS
 62
             3
100
AcDbLine
 10
-178.19490212388001
 20
-2.13996466946605
 11
-177.07776945735009
 21
-0.93909181929405
  0
LINE
  5
411
100
AcDbEntity
  8
VERDE
  6
CONTINUOUS
 62
             3
100
AcDbLine
 10
-177.11792064208001
 20
-3.85888785076497
 11
-175.55001894839009
 21
-3.37746778906501
  0
LINE
  5
410
100
AcDbEntity
  8
VERDE
  6
CONTINUOUS
 62
             3
100
AcDbLine
 10
-175.15444055823991
 20
-4.00883320837499
 11
-175.55001894839009
 21
-3.37746778906501
  0
LINE
  5
40F
100
AcDbEntity
  8
VERDE
  6
CONTINUOUS
 62
             3
100
AcDbLine
 10
-175.55001894839009
 20
-3.37746778906501
 11
-172.10599258009009
 21
-1.21963277827001
  0
LINE
  5
40E
100
AcDbEntity
  8
VERDE
  6
CONTINUOUS
 62
             3
100
AcDbLine
 10
-175.15444055823991
 20
-4.00883320837499
 11
-171.59057768337991
 21
-1.64075966829796
  0
LINE
  5
40D
100
AcDbEntity
  8
VERDE
  6
CONTINUOUS
 62
             3
100
AcDbLine
 10
-180.1284831472401
 20
1.41954822672096
 11
-178.95484895688989
 21
2.56526362949
  0
LINE
  5
40C
100
AcDbEntity
  8
VERDE
  6
CONTINUOUS
 62
             3
100
AcDbLine
 10
-179.13547876524009
 20
-0.34921640224195
 11
-177.54622404026011
 21
0.05618514688797
  0
LINE
  5
40B
100
AcDbEntity
  8
VERDE
  6
CONTINUOUS
 62
             3
100
AcDbLine
 10
-177.18149067995
 20
-0.59348717923706
 11
-177.54622404026011
 21
0.05618514688797
  0
LINE
  5
40A
100
AcDbEntity
  8
VERDE
  6
CONTINUOUS
 62
             3
100
AcDbLine
 10
-177.54622404026011
 20
0.05618514688797
 11
-175.16791906905999
 21
1.39139234148502
  0
LINE
  5
409
100
AcDbEntity
  8
VERDE
  6
CONTINUOUS
 62
             3
100
AcDbLine
 10
-177.18149067995
 20
-0.59348717923706
 11
-174.63778102993999
 21
0.92552613711905
  0
LINE
  5
408
100
AcDbEntity
  8
VERDE
  6
CONTINUOUS
 62
             3
100
AcDbLine
 10
-155.11157669078011
 20
21.30079962599496
 11
-156.54199794690001
 21
20.86405408570397
  0
LINE
  5
407
100
AcDbEntity
  8
VERDE
  6
CONTINUOUS
 62
             3
100
AcDbLine
 10
-175.30194657327999
 20
9.71789778841401
 11
-155.57158320098009
 21
18.417188176163
  0
LINE
  5
406
100
AcDbEntity
  8
VERDE
  6
CONTINUOUS
 62
             3
100
AcDbLine
 10
-155.21567188710989
 20
21.828906499293
 11
-156.54199794690001
 21
20.86405408570397
  0
LINE
  5
405
100
AcDbEntity
  8
VERDE
  6
CONTINUOUS
 62
             3
100
AcDbLine
 10
-155.94374086625999
 20
23.72218449708998
 11
-157.43079276649999
 21
23.33033068367695
  0
LINE
  5
404
100
AcDbEntity
  8
VERDE
  6
CONTINUOUS
 62
             3
100
AcDbLine
 10
-178.09257643165009
 20
12.57667753786097
 11
-156.54199794690001
 21
20.86405408570397
  0
LINE
  5
403
100
AcDbEntity
  8
VERDE
  6
CONTINUOUS
 62
             3
100
AcDbLine
 10
-177.64896543278999
 20
12.09078150175299
 11
-156.4916004213901
 21
20.879441786646
  0
LINE
  5
402
100
AcDbEntity
  8
VERDE
  6
CONTINUOUS
 62
             3
100
AcDbLine
 10
-156.02229848624009
 20
24.25468931384398
 11
-157.39352435812
 21
23.35478898315398
  0
LINE
  5
401
100
AcDbEntity
  8
VERDE
  6
CONTINUOUS
 62
             3
100
AcDbLine
 10
-156.65840327979001
 20
26.18081410392495
 11
-158.16259122208999
 21
25.86098383746798
  0
LINE
  5
400
100
AcDbEntity
  8
VERDE
  6
CONTINUOUS
 62
             3
100
AcDbLine
 10
-180.76722303040989
 20
15.63559973584995
 11
-157.39352435812
 21
23.35478898315398
  0
LINE
  5
3FF
100
AcDbEntity
  8
VERDE
  6
CONTINUOUS
 62
             3
100
AcDbLine
 10
-180.31150281337
 20
15.09805965309897
 11
-157.43079276649999
 21
23.33033068367695
  0
LINE
  5
3FE
100
AcDbEntity
  8
VERDE
  6
CONTINUOUS
 62
             3
100
AcDbLine
 10
-156.71124125143001
 20
26.71648268455601
 11
-158.12418886280011
 21
25.88362012420998
  0
LINE
  5
3FD
100
AcDbEntity
  8
VERDE
  6
CONTINUOUS
 62
             3
100
AcDbLine
 10
-157.2539075674799
 20
28.67099011221603
 11
-158.73229800920009
 21
28.44468646939504
  0
LINE
  5
3FC
100
AcDbEntity
  8
VERDE
  6
CONTINUOUS
 62
             3
100
AcDbLine
 10
-183.38790584656999
 20
18.86918363184896
 11
-158.12418886280011
 21
25.88362012420998
  0
LINE
  5
3FB
100
AcDbEntity
  8
VERDE
  6
CONTINUOUS
 62
             3
100
AcDbLine
 10
-182.92261013713011
 20
18.27652629428303
 11
-158.0765850136199
 21
25.87927103935294
  0
LINE
  5
3FA
100
AcDbEntity
  8
VERDE
  6
CONTINUOUS
 62
             3
100
AcDbLine
 10
-157.28090342889001
 20
29.20858094453195
 11
-158.73229800920009
 21
28.44468646939504
  0
LINE
  5
3F9
100
AcDbEntity
  8
VERDE
  6
CONTINUOUS
 62
             3
100
AcDbLine
 10
-157.72887353667011
 20
31.186941072992
 11
-159.2164423905601
 21
31.03205226811303
  0
LINE
  5
3F8
100
AcDbEntity
  8
VERDE
  6
CONTINUOUS
 62
             3
100
AcDbLine
 10
-185.87027381300001
 20
22.29969710632895
 11
-158.73229800920009
 21
28.44468646939504
  0
LINE
  5
3F7
100
AcDbEntity
  8
VERDE
  6
CONTINUOUS
 62
             3
100
AcDbLine
 10
-185.47294773500991
 20
21.63234324130701
 11
-158.73229800920009
 21
28.44468646939504
  0
LINE
  5
3F6
100
AcDbEntity
  8
VERDE
  6
CONTINUOUS
 62
             3
100
AcDbLine
 10
-157.72996471989001
 20
31.72520818962005
 11
-159.2164423905601
 21
31.03205226811303
  0
LINE
  5
3F5
100
AcDbEntity
  8
VERDE
  6
CONTINUOUS
 62
             3
100
AcDbLine
 10
-158.08220036482999
 20
33.722835799005
 11
-159.71610575054001
 21
33.86578399752796
  0
LINE
  5
3F4
100
AcDbEntity
  8
VERDE
  6
CONTINUOUS
 62
             3
100
AcDbLine
 10
-187.11838147809999
 20
29.03402345394602
 11
-159.71610575054001
 21
33.86578399752796
  0
LINE
  5
3F3
100
AcDbEntity
  8
VERDE
  6
CONTINUOUS
 62
             3
100
AcDbLine
 10
-186.48934095451
 20
25.46655736865898
 11
-159.16403140397011
 21
31.03750941051897
  0
LINE
  5
3F2
100
AcDbEntity
  8
VERDE
  6
CONTINUOUS
 62
             3
100
AcDbLine
 10
-186.61871811812011
 20
26.20029172453099
 11
-159.2164423905601
 21
31.03205226811303
  0
LINE
  5
3F1
100
AcDbEntity
  8
VERDE
  6
CONTINUOUS
 62
             3
100
AcDbLine
 10
-161.85644350641999
 20
55.12763231072597
 11
-163.49034889212999
 21
55.27058050924802
  0
LINE
  5
3F0
100
AcDbEntity
  8
VERDE
  6
CONTINUOUS
 62
             3
100
AcDbLine
 10
-162.1332483850799
 20
56.69747078662704
 11
-163.61972605575011
 21
56.00431486512002
  0
LINE
  5
3EF
100
AcDbEntity
  8
VERDE
  6
CONTINUOUS
 62
             3
100
AcDbLine
 10
-162.48548403001999
 20
58.69509839601199
 11
-164.11938941573001
 21
58.83804659453494
  0
LINE
  5
3EE
100
AcDbEntity
  8
VERDE
  6
CONTINUOUS
 62
             3
100
AcDbLine
 10
-161.5042078614799
 20
53.13000470134
 11
-162.99068553215011
 21
52.43684877983299
  0
LINE
  5
3ED
100
AcDbEntity
  8
VERDE
  6
CONTINUOUS
 62
             3
100
AcDbLine
 10
-160.34514627414001
 20
37.43325008281499
 11
-160.47452343775009
 21
38.16698443868597
  0
LINE
  5
3EC
100
AcDbEntity
  8
VERDE
  6
CONTINUOUS
 62
             3
100
AcDbLine
 10
-158.35900524349
 20
35.29267427490697
 11
-159.8454829141501
 21
34.59951835339996
  0
LINE
  5
3EB
100
AcDbEntity
  8
VERDE
  6
CONTINUOUS
 62
             3
100
AcDbLine
 10
-158.71124088843001
 20
37.29030188429204
 11
-160.34514627414001
 21
37.43325008281499
  0
LINE
  5
3EA
100
AcDbEntity
  8
VERDE
  6
CONTINUOUS
 62
             3
100
AcDbLine
 10
-159.71610575054001
 20
33.86578399752796
 11
-159.8454829141501
 21
34.59951835339996
  0
LINE
  5
3E9
100
AcDbEntity
  8
VERDE
  6
CONTINUOUS
 62
             3
100
AcDbLine
 10
-160.97418679774
 20
41.00071616810101
 11
-161.10356396135009
 21
41.73445052397301
  0
LINE
  5
3E8
100
AcDbEntity
  8
VERDE
  6
CONTINUOUS
 62
             3
100
AcDbLine
 10
-159.34028141203001
 20
40.85776796957896
 11
-160.97418679774
 21
41.00071616810101
  0
LINE
  5
3E7
100
AcDbEntity
  8
VERDE
  6
CONTINUOUS
 62
             3
100
AcDbLine
 10
-158.98804576708989
 20
38.86014036019401
 11
-160.47452343775009
 21
38.16698443868597
  0
LINE
  5
3E6
100
AcDbEntity
  8
VERDE
  6
CONTINUOUS
 62
             3
100
AcDbLine
 10
-160.8751673378799
 20
49.56253861605399
 11
-162.36164500855011
 21
48.86938269454697
  0
LINE
  5
3E5
100
AcDbEntity
  8
VERDE
  6
CONTINUOUS
 62
             3
100
AcDbLine
 10
-161.22740298283
 20
51.56016622543905
 11
-162.86130836852999
 21
51.70311442396201
  0
LINE
  5
3E4
100
AcDbEntity
  8
VERDE
  6
CONTINUOUS
 62
             3
100
AcDbLine
 10
-159.61708629068991
 20
42.42760644548002
 11
-161.10356396135009
 21
41.73445052397301
  0
LINE
  5
3E3
100
AcDbEntity
  8
VERDE
  6
CONTINUOUS
 62
             3
100
AcDbLine
 10
-160.24612681428991
 20
45.99507253076695
 11
-161.73260448495009
 21
45.30191660926005
  0
LINE
  5
3E2
100
AcDbEntity
  8
VERDE
  6
CONTINUOUS
 62
             3
100
AcDbLine
 10
-159.96932193563001
 20
44.42523405486497
 11
-161.60322732134
 21
44.56818225338805
  0
LINE
  5
3E1
100
AcDbEntity
  8
VERDE
  6
CONTINUOUS
 62
             3
100
AcDbLine
 10
-160.59836245923
 20
47.99270014015201
 11
-162.23226784492999
 21
48.13564833867497
  0
LINE
  5
3E0
100
AcDbEntity
  8
VERDE
  6
CONTINUOUS
 62
             3
100
AcDbLine
 10
-161.60322732134
 20
44.56818225338805
 11
-161.73260448495009
 21
45.30191660926005
  0
LINE
  5
3DF
100
AcDbEntity
  8
VERDE
  6
CONTINUOUS
 62
             3
100
AcDbLine
 10
-162.23226784492999
 20
48.13564833867497
 11
-162.36164500855011
 21
48.86938269454697
  0
LINE
  5
3DE
100
AcDbEntity
  8
VERDE
  6
CONTINUOUS
 62
             3
100
AcDbLine
 10
-189.76392073611009
 20
44.03762215096504
 11
-162.36164500855011
 21
48.86938269454697
  0
LINE
  5
3DD
100
AcDbEntity
  8
VERDE
  6
CONTINUOUS
 62
             3
100
AcDbLine
 10
-189.63454357250001
 20
43.30388779509303
 11
-162.23226784492999
 21
48.13564833867497
  0
LINE
  5
3DC
100
AcDbEntity
  8
VERDE
  6
CONTINUOUS
 62
             3
100
AcDbLine
 10
-189.1348802125101
 20
40.470156065678
 11
-161.73260448495009
 21
45.30191660926005
  0
LINE
  5
3DB
100
AcDbEntity
  8
VERDE
  6
CONTINUOUS
 62
             3
100
AcDbLine
 10
-189.00550304890001
 20
39.736421709806
 11
-161.60322732134
 21
44.56818225338805
  0
LINE
  5
3DA
100
AcDbEntity
  8
VERDE
  6
CONTINUOUS
 62
             3
100
AcDbLine
 10
-188.5058396889201
 20
36.90268998039096
 11
-161.10356396135009
 21
41.73445052397301
  0
LINE
  5
3D9
100
AcDbEntity
  8
VERDE
  6
CONTINUOUS
 62
             3
100
AcDbLine
 10
-188.37646252530001
 20
36.16895562451998
 11
-160.97418679774
 21
41.00071616810101
  0
LINE
  5
3D8
100
AcDbEntity
  8
VERDE
  6
CONTINUOUS
 62
             3
100
AcDbLine
 10
-187.87679916532011
 20
33.33522389510495
 11
-160.47452343775009
 21
38.16698443868597
  0
LINE
  5
3D7
100
AcDbEntity
  8
VERDE
  6
CONTINUOUS
 62
             3
100
AcDbLine
 10
-187.74742200169999
 20
32.60148953923294
 11
-160.34514627414001
 21
37.43325008281499
  0
LINE
  5
3D6
100
AcDbEntity
  8
VERDE
  6
CONTINUOUS
 62
             3
100
AcDbLine
 10
-187.24775864172011
 20
29.76775780981802
 11
-159.8454829141501
 21
34.59951835339996
  0
LINE
  5
3D5
100
AcDbEntity
  8
VERDE
  6
CONTINUOUS
 62
             3
100
AcDbLine
 10
-187.11838147809999
 20
29.03402345394602
 11
-159.71610575054001
 21
33.86578399752796
  0
LINE
  5
3D4
100
AcDbEntity
  8
VERDE
  6
CONTINUOUS
 62
             3
100
AcDbLine
 10
-181.88850974187989
 20
5.06799639246901
 11
-180.6610941446099
 21
6.15589893795197
  0
LINE
  5
3D3
100
AcDbEntity
  8
VERDE
  6
CONTINUOUS
 62
             3
100
AcDbLine
 10
-180.98178393318989
 20
3.25348975891996
 11
-179.37485957221
 21
3.58193320151304
  0
LINE
  5
3D2
100
AcDbEntity
  8
VERDE
  6
CONTINUOUS
 62
             3
100
AcDbLine
 10
-179.04181657957
 20
2.91545970578397
 11
-179.37485957221
 21
3.58193320151304
  0
LINE
  5
3D1
100
AcDbEntity
  8
VERDE
  6
CONTINUOUS
 62
             3
100
AcDbLine
 10
-179.37485957221
 20
3.58193320151304
 11
-178.19637683879
 21
4.17083196315502
  0
LINE
  5
3D0
100
AcDbEntity
  8
VERDE
  6
CONTINUOUS
 62
             3
100
AcDbLine
 10
-179.04181657957
 20
2.91545970578397
 11
-177.76889739168999
 21
3.59472225245202
  0
LINE
  5
3CF
100
AcDbEntity
  8
VERDE
  6
CONTINUOUS
 62
             3
100
AcDbLine
 10
-183.4709027167701
 20
8.79692386629199
 11
-183.06055779645001
 21
9.12676833893102
  0
LINE
  5
3CE
100
AcDbEntity
  8
VERDE
  6
CONTINUOUS
 62
             3
100
AcDbLine
 10
-182.65255698816009
 20
6.940880686892
 11
-181.25576312338009
 21
7.15694364697504
  0
LINE
  5
3CD
100
AcDbEntity
  8
VERDE
  6
CONTINUOUS
 62
             3
100
AcDbLine
 10
-180.73110660364
 20
6.50987480552999
 11
-180.80619395167989
 21
6.68017612843096
  0
LINE
  5
3CC
100
AcDbEntity
  8
VERDE
  6
CONTINUOUS
 62
             3
100
AcDbLine
 10
-180.73110660364
 20
6.50987480552999
 11
-180.67129833849
 21
6.53816694797001
  0
LINE
  5
3CB
100
AcDbEntity
  8
VERDE
  6
CONTINUOUS
 62
             3
100
AcDbLine
 10
-187.53970716898991
 20
24.56190249448105
 11
-186.48934095451
 21
25.46655736865898
  0
LINE
  5
3CA
100
AcDbEntity
  8
VERDE
  6
CONTINUOUS
 62
             3
100
AcDbLine
 10
-185.95890688683991
 20
22.30316615309698
 11
-185.87027381300001
 21
22.29969710632895
  0
LINE
  5
3C9
100
AcDbEntity
  8
VERDE
  6
CONTINUOUS
 62
             3
100
AcDbLine
 10
-188.60485914877
 20
28.34086753243901
 11
-187.11838147809999
 21
29.03402345394602
  0
LINE
  5
3C8
100
AcDbEntity
  8
VERDE
  6
CONTINUOUS
 62
             3
100
AcDbLine
 10
-187.11838147809999
 20
29.03402345394602
 11
-187.24775864172011
 21
29.76775780981802
  0
LINE
  5
3C7
100
AcDbEntity
  8
VERDE
  6
CONTINUOUS
 62
             3
100
AcDbLine
 10
-186.48934095451
 20
25.46655736865898
 11
-186.61871811812011
 21
26.20029172453099
  0
LINE
  5
3C6
100
AcDbEntity
  8
VERDE
  6
CONTINUOUS
 62
             3
100
AcDbLine
 10
-188.25262350382991
 20
26.34323992305394
 11
-186.61871811812011
 21
26.20029172453099
  0
LINE
  5
3C5
100
AcDbEntity
  8
VERDE
  6
CONTINUOUS
 62
             3
100
AcDbLine
 10
-165.00164612442001
 20
72.96496273716002
 11
-166.63555151012
 21
73.10791093568298
  0
LINE
  5
3C4
100
AcDbEntity
  8
VERDE
  6
CONTINUOUS
 62
             3
100
AcDbLine
 10
-163.49034889212999
 20
55.27058050924802
 11
-163.61972605575011
 21
56.00431486512002
  0
LINE
  5
3C3
100
AcDbEntity
  8
VERDE
  6
CONTINUOUS
 62
             3
100
AcDbLine
 10
-164.37260560082001
 20
69.39749665187298
 11
-166.00651098652
 21
69.54044485039594
  0
LINE
  5
3C2
100
AcDbEntity
  8
VERDE
  6
CONTINUOUS
 62
             3
100
AcDbLine
 10
-164.64941047947011
 20
70.96733512777496
 11
-166.13588815014009
 21
70.27417920626795
  0
LINE
  5
3C1
100
AcDbEntity
  8
VERDE
  6
CONTINUOUS
 62
             3
100
AcDbLine
 10
-163.74356507722001
 20
65.83003056658595
 11
-165.37747046293001
 21
65.97297876510902
  0
LINE
  5
3C0
100
AcDbEntity
  8
VERDE
  6
CONTINUOUS
 62
             3
100
AcDbLine
 10
-164.02036995587989
 20
67.39986904248804
 11
-165.50684762654009
 21
66.70671312098102
  0
LINE
  5
3BF
100
AcDbEntity
  8
VERDE
  6
CONTINUOUS
 62
             3
100
AcDbLine
 10
-165.37747046293001
 20
65.97297876510902
 11
-165.50684762654009
 21
66.70671312098102
  0
LINE
  5
3BE
100
AcDbEntity
  8
VERDE
  6
CONTINUOUS
 62
             3
100
AcDbLine
 10
-164.11938941573001
 20
58.83804659453494
 11
-164.2487665793401
 21
59.57178095040695
  0
LINE
  5
3BD
100
AcDbEntity
  8
VERDE
  6
CONTINUOUS
 62
             3
100
AcDbLine
 10
-162.76228890867989
 20
60.26493687191396
 11
-164.2487665793401
 21
59.57178095040695
  0
LINE
  5
3BC
100
AcDbEntity
  8
VERDE
  6
CONTINUOUS
 62
             3
100
AcDbLine
 10
-163.39132943227989
 20
63.832402957201
 11
-164.8778071029401
 21
63.13924703569398
  0
LINE
  5
3BB
100
AcDbEntity
  8
VERDE
  6
CONTINUOUS
 62
             3
100
AcDbLine
 10
-163.11452455361999
 20
62.26256448129902
 11
-164.74842993933001
 21
62.40551267982198
  0
LINE
  5
3BA
100
AcDbEntity
  8
VERDE
  6
CONTINUOUS
 62
             3
100
AcDbLine
 10
-164.74842993933001
 20
62.40551267982198
 11
-164.8778071029401
 21
63.13924703569398
  0
LINE
  5
3B9
100
AcDbEntity
  8
VERDE
  6
CONTINUOUS
 62
             3
100
AcDbLine
 10
-193.63718333755989
 20
56.88059621473303
 11
-192.15070566688999
 21
57.57375213624005
  0
LINE
  5
3B8
100
AcDbEntity
  8
VERDE
  6
CONTINUOUS
 62
             3
100
AcDbLine
 10
-193.2849476926101
 20
54.88296860534797
 11
-191.65104230691011
 21
54.74002040682501
  0
LINE
  5
3B7
100
AcDbEntity
  8
VERDE
  6
CONTINUOUS
 62
             3
100
AcDbLine
 10
-193.00814281395989
 20
53.31313012944599
 11
-191.52166514328999
 21
54.00628605095301
  0
LINE
  5
3B6
100
AcDbEntity
  8
VERDE
  6
CONTINUOUS
 62
             3
100
AcDbLine
 10
-191.52166514328999
 20
54.00628605095301
 11
-191.65104230691011
 21
54.74002040682501
  0
LINE
  5
3B5
100
AcDbEntity
  8
VERDE
  6
CONTINUOUS
 62
             3
100
AcDbLine
 10
-193.9139882162101
 20
58.45043469063501
 11
-192.28008283051011
 21
58.30748649211205
  0
LINE
  5
3B4
100
AcDbEntity
  8
VERDE
  6
CONTINUOUS
 62
             3
100
AcDbLine
 10
-194.26622386114991
 20
60.44806230001996
 11
-192.77974619048999
 21
61.14121822152697
  0
LINE
  5
3B3
100
AcDbEntity
  8
VERDE
  6
CONTINUOUS
 62
             3
100
AcDbLine
 10
-194.5430287398101
 20
62.01790077592204
 11
-192.9091233541001
 21
61.87495257739897
  0
LINE
  5
3B2
100
AcDbEntity
  8
VERDE
  6
CONTINUOUS
 62
             3
100
AcDbLine
 10
-194.89526438475011
 20
64.01552838530699
 11
-193.40878671409001
 21
64.70868430681401
  0
LINE
  5
3B1
100
AcDbEntity
  8
VERDE
  6
CONTINUOUS
 62
             3
100
AcDbLine
 10
-195.17206926341009
 20
65.58536686120897
 11
-193.5381638777001
 21
65.44241866268601
  0
LINE
  5
3B0
100
AcDbEntity
  8
VERDE
  6
CONTINUOUS
 62
             3
100
AcDbLine
 10
-193.5381638777001
 20
65.44241866268601
 11
-193.27965184254001
 21
65.48800130932295
  0
LINE
  5
3AF
100
AcDbEntity
  8
VERDE
  6
CONTINUOUS
 62
             3
100
AcDbLine
 10
-193.40878671409001
 20
64.70868430681401
 11
-193.5381638777001
 21
65.44241866268601
  0
LINE
  5
3AE
100
AcDbEntity
  8
VERDE
  6
CONTINUOUS
 62
             3
100
AcDbLine
 10
-192.15070566688999
 20
57.57375213624005
 11
-192.28008283051011
 21
58.30748649211205
  0
LINE
  5
3AD
100
AcDbEntity
  8
VERDE
  6
CONTINUOUS
 62
             3
100
AcDbLine
 10
-192.77974619048999
 20
61.14121822152697
 11
-192.9091233541001
 21
61.87495257739897
  0
LINE
  5
3AC
100
AcDbEntity
  8
VERDE
  6
CONTINUOUS
 62
             3
100
AcDbLine
 10
-193.5381638777001
 20
65.44241866268601
 11
-166.13588815014009
 21
70.27417920626795
  0
LINE
  5
3AB
100
AcDbEntity
  8
VERDE
  6
CONTINUOUS
 62
             3
100
AcDbLine
 10
-193.40878671409001
 20
64.70868430681401
 11
-166.00651098652
 21
69.54044485039594
  0
LINE
  5
3AA
100
AcDbEntity
  8
VERDE
  6
CONTINUOUS
 62
             3
100
AcDbLine
 10
-192.9091233541001
 20
61.87495257739897
 11
-165.50684762654009
 21
66.70671312098102
  0
LINE
  5
3A9
100
AcDbEntity
  8
VERDE
  6
CONTINUOUS
 62
             3
100
AcDbLine
 10
-192.77974619048999
 20
61.14121822152697
 11
-165.37747046293001
 21
65.97297876510902
  0
LINE
  5
3A8
100
AcDbEntity
  8
VERDE
  6
CONTINUOUS
 62
             3
100
AcDbLine
 10
-192.28008283051011
 20
58.30748649211205
 11
-164.8778071029401
 21
63.13924703569398
  0
LINE
  5
3A7
100
AcDbEntity
  8
VERDE
  6
CONTINUOUS
 62
             3
100
AcDbLine
 10
-192.15070566688999
 20
57.57375213624005
 11
-164.74842993933001
 21
62.40551267982198
  0
LINE
  5
3A6
100
AcDbEntity
  8
VERDE
  6
CONTINUOUS
 62
             3
100
AcDbLine
 10
-191.65104230691011
 20
54.74002040682501
 11
-164.2487665793401
 21
59.57178095040695
  0
LINE
  5
3A5
100
AcDbEntity
  8
VERDE
  6
CONTINUOUS
 62
             3
100
AcDbLine
 10
-191.52166514328999
 20
54.00628605095301
 11
-164.11938941573001
 21
58.83804659453494
  0
LINE
  5
3A4
100
AcDbEntity
  8
VERDE
  6
CONTINUOUS
 62
             3
100
AcDbLine
 10
-187.74742200169999
 20
32.60148953923294
 11
-187.87679916532011
 21
33.33522389510495
  0
LINE
  5
3A3
100
AcDbEntity
  8
VERDE
  6
CONTINUOUS
 62
             3
100
AcDbLine
 10
-188.37646252530001
 20
36.16895562451998
 11
-188.5058396889201
 21
36.90268998039096
  0
LINE
  5
3A2
100
AcDbEntity
  8
VERDE
  6
CONTINUOUS
 62
             3
100
AcDbLine
 10
-190.13974507462009
 20
37.04563817891403
 11
-188.5058396889201
 21
36.90268998039096
  0
LINE
  5
3A1
100
AcDbEntity
  8
VERDE
  6
CONTINUOUS
 62
             3
100
AcDbLine
 10
-189.86294019596991
 20
35.47579970301297
 11
-188.37646252530001
 21
36.16895562451998
  0
LINE
  5
3A0
100
AcDbEntity
  8
VERDE
  6
CONTINUOUS
 62
             3
100
AcDbLine
 10
-192.3791022903599
 20
49.74566404415998
 11
-190.89262461969
 21
50.43881996566699
  0
LINE
  5
39F
100
AcDbEntity
  8
VERDE
  6
CONTINUOUS
 62
             3
100
AcDbLine
 10
-192.65590716902011
 20
51.31550252006105
 11
-191.02200178331009
 21
51.17255432153797
  0
LINE
  5
39E
100
AcDbEntity
  8
VERDE
  6
CONTINUOUS
 62
             3
100
AcDbLine
 10
-191.7500617667599
 20
46.17819795887294
 11
-190.2635840961
 21
46.87135388037996
  0
LINE
  5
39D
100
AcDbEntity
  8
VERDE
  6
CONTINUOUS
 62
             3
100
AcDbLine
 10
-192.02686664542011
 20
47.74803643477503
 11
-190.39296125971009
 21
47.60508823625196
  0
LINE
  5
39C
100
AcDbEntity
  8
VERDE
  6
CONTINUOUS
 62
             3
100
AcDbLine
 10
-189.00550304890001
 20
39.736421709806
 11
-189.1348802125101
 21
40.470156065678
  0
LINE
  5
39B
100
AcDbEntity
  8
VERDE
  6
CONTINUOUS
 62
             3
100
AcDbLine
 10
-190.4919807195599
 20
39.04326578829898
 11
-189.00550304890001
 21
39.736421709806
  0
LINE
  5
39A
100
AcDbEntity
  8
VERDE
  6
CONTINUOUS
 62
             3
100
AcDbLine
 10
-190.76878559822009
 20
40.61310426420096
 11
-189.1348802125101
 21
40.470156065678
  0
LINE
  5
399
100
AcDbEntity
  8
VERDE
  6
CONTINUOUS
 62
             3
100
AcDbLine
 10
-191.1210212431599
 20
42.61073187358602
 11
-189.63454357250001
 21
43.30388779509303
  0
LINE
  5
398
100
AcDbEntity
  8
VERDE
  6
CONTINUOUS
 62
             3
100
AcDbLine
 10
-191.39782612182009
 20
44.18057034948799
 11
-189.76392073611009
 21
44.03762215096504
  0
LINE
  5
397
100
AcDbEntity
  8
VERDE
  6
CONTINUOUS
 62
             3
100
AcDbLine
 10
-190.2635840961
 20
46.87135388037996
 11
-190.39296125971009
 21
47.60508823625196
  0
LINE
  5
396
100
AcDbEntity
  8
VERDE
  6
CONTINUOUS
 62
             3
100
AcDbLine
 10
-189.63454357250001
 20
43.30388779509303
 11
-189.76392073611009
 21
44.03762215096504
  0
LINE
  5
395
100
AcDbEntity
  8
VERDE
  6
CONTINUOUS
 62
             3
100
AcDbLine
 10
-190.89262461969
 20
50.43881996566699
 11
-191.02200178331009
 21
51.17255432153797
  0
LINE
  5
394
100
AcDbEntity
  8
VERDE
  6
CONTINUOUS
 62
             3
100
AcDbLine
 10
-189.5107045510201
 20
33.47817209362802
 11
-187.87679916532011
 21
33.33522389510495
  0
LINE
  5
393
100
AcDbEntity
  8
VERDE
  6
CONTINUOUS
 62
             3
100
AcDbLine
 10
-190.2635840961
 20
46.87135388037996
 11
-162.86130836852999
 21
51.70311442396201
  0
LINE
  5
392
100
AcDbEntity
  8
VERDE
  6
CONTINUOUS
 62
             3
100
AcDbLine
 10
-162.86130836852999
 20
51.70311442396201
 11
-162.99068553215011
 21
52.43684877983299
  0
LINE
  5
391
100
AcDbEntity
  8
VERDE
  6
CONTINUOUS
 62
             3
100
AcDbLine
 10
-191.02200178331009
 20
51.17255432153797
 11
-163.61972605575011
 21
56.00431486512002
  0
LINE
  5
390
100
AcDbEntity
  8
VERDE
  6
CONTINUOUS
 62
             3
100
AcDbLine
 10
-190.89262461969
 20
50.43881996566699
 11
-163.49034889212999
 21
55.27058050924802
  0
LINE
  5
38F
100
AcDbEntity
  8
VERDE
  6
CONTINUOUS
 62
             3
100
AcDbLine
 10
-190.39296125971009
 20
47.60508823625196
 11
-162.99068553215011
 21
52.43684877983299
  0
LINE
  5
38E
100
AcDbEntity
  8
VERDE
  6
CONTINUOUS
 62
             3
100
AcDbLine
 10
-187.11838147809999
 20
29.03402345394602
 11
-187.24775864172011
 21
29.76775780981802
  0
LINE
  5
38D
100
AcDbEntity
  8
VERDE
  6
CONTINUOUS
 62
             3
100
AcDbLine
 10
-188.88166402743011
 20
29.91070600834098
 11
-187.24775864172011
 21
29.76775780981802
  0
LINE
  5
38C
100
AcDbEntity
  8
VERDE
  6
CONTINUOUS
 62
             3
100
AcDbLine
 10
-189.23389967236989
 20
31.90833361772604
 11
-187.74742200169999
 21
32.60148953923294
  0
LINE
  5
38B
100
AcDbEntity
  8
VERDE
  6
CONTINUOUS
 62
             3
100
AcDbLine
 10
-165.62529982779009
 20
76.501878646862
 11
-167.25920521350011
 21
76.64482684538405
  0
LINE
  5
38A
100
AcDbEntity
  8
VERDE
  6
CONTINUOUS
 62
             3
100
AcDbLine
 10
-165.27306418284999
 20
74.50425103747705
 11
-166.75954185351
 21
73.81109511597003
  0
LINE
  5
389
100
AcDbEntity
  8
VERDE
  6
CONTINUOUS
 62
             3
100
AcDbLine
 10
-166.63555151012
 20
73.10791093568298
 11
-166.75954185351
 21
73.81109511597003
  0
LINE
  5
388
100
AcDbEntity
  8
VERDE
  6
CONTINUOUS
 62
             3
100
AcDbLine
 10
-166.00651098652
 20
69.54044485039594
 11
-166.13588815014009
 21
70.27417920626795
  0
LINE
  5
387
100
AcDbEntity
  8
VERDE
  6
CONTINUOUS
 62
             3
100
AcDbLine
 10
-193.8056616430101
 20
68.47115112768699
 11
-193.77931520251991
 21
68.32173303873799
  0
LINE
  5
386
100
AcDbEntity
  8
VERDE
  6
CONTINUOUS
 62
             3
100
AcDbLine
 10
-195.5243049083501
 20
67.58299447059403
 11
-194.03782723769001
 21
68.27615039210002
  0
LINE
  5
385
100
AcDbEntity
  8
VERDE
  6
CONTINUOUS
 62
             3
100
AcDbLine
 10
-194.03782723769001
 20
68.27615039210002
 11
-193.77931520251991
 21
68.32173303873799
  0
LINE
  5
384
100
AcDbEntity
  8
VERDE
  6
CONTINUOUS
 62
             3
100
AcDbLine
 10
-193.77931520251991
 20
68.32173303873799
 11
-166.63555151012
 21
73.10791093568298
  0
LINE
  5
383
100
AcDbEntity
  8
VERDE
  6
CONTINUOUS
 62
             3
100
AcDbLine
 10
-170.02858349298
 20
101.474141243869
 11
-171.66248887869011
 21
101.6170894423919
  0
LINE
  5
382
100
AcDbEntity
  8
VERDE
  6
CONTINUOUS
 62
             3
100
AcDbLine
 10
-169.67634784804
 20
99.47651363448404
 11
-171.1628255187
 21
98.78335771297702
  0
LINE
  5
381
100
AcDbEntity
  8
VERDE
  6
CONTINUOUS
 62
             3
100
AcDbLine
 10
-201.45708767916989
 20
101.22947753849201
 11
-199.8231822934699
 21
101.086529339968
  0
LINE
  5
380
100
AcDbEntity
  8
VERDE
  6
CONTINUOUS
 62
             3
100
AcDbLine
 10
-201.18028280051999
 20
99.65963906259003
 11
-199.69380512985001
 21
100.3527949840972
  0
LINE
  5
37F
100
AcDbEntity
  8
VERDE
  6
CONTINUOUS
 62
             3
100
AcDbLine
 10
-199.69380512985001
 20
100.3527949840972
 11
-199.8231822934699
 21
101.086529339968
  0
LINE
  5
37E
100
AcDbEntity
  8
VERDE
  6
CONTINUOUS
 62
             3
100
AcDbLine
 10
-199.8231822934699
 20
101.086529339968
 11
-172.42090656589991
 21
105.91828988355
  0
LINE
  5
37D
100
AcDbEntity
  8
VERDE
  6
CONTINUOUS
 62
             3
100
AcDbLine
 10
-199.69380512985001
 20
100.3527949840972
 11
-172.29152940229011
 21
105.184555527679
  0
LINE
  5
37C
100
AcDbEntity
  8
VERDE
  6
CONTINUOUS
 62
             3
100
AcDbLine
 10
-168.5172862607001
 20
83.77975901595801
 11
-168.64666342430999
 21
84.51349337183001
  0
LINE
  5
37B
100
AcDbEntity
  8
VERDE
  6
CONTINUOUS
 62
             3
100
AcDbLine
 10
-166.53114523004999
 20
81.63918320804999
 11
-168.01762290070999
 21
80.94602728654297
  0
LINE
  5
37A
100
AcDbEntity
  8
VERDE
  6
CONTINUOUS
 62
             3
100
AcDbLine
 10
-166.88338087499011
 20
83.63681081743505
 11
-168.5172862607001
 21
83.77975901595801
  0
LINE
  5
379
100
AcDbEntity
  8
VERDE
  6
CONTINUOUS
 62
             3
100
AcDbLine
 10
-166.25434035139011
 20
80.06934473214801
 11
-167.88824573710011
 21
80.21229293067097
  0
LINE
  5
378
100
AcDbEntity
  8
VERDE
  6
CONTINUOUS
 62
             3
100
AcDbLine
 10
-167.88824573710011
 20
80.21229293067097
 11
-168.01762290070999
 21
80.94602728654297
  0
LINE
  5
377
100
AcDbEntity
  8
VERDE
  6
CONTINUOUS
 62
             3
100
AcDbLine
 10
-169.1463267843001
 20
87.34722510124504
 11
-169.27570394790999
 21
88.08095945711705
  0
LINE
  5
376
100
AcDbEntity
  8
VERDE
  6
CONTINUOUS
 62
             3
100
AcDbLine
 10
-167.51242139859011
 20
87.20427690272197
 11
-169.1463267843001
 21
87.34722510124504
  0
LINE
  5
375
100
AcDbEntity
  8
VERDE
  6
CONTINUOUS
 62
             3
100
AcDbLine
 10
-167.16018575365001
 20
85.20664929333702
 11
-168.64666342430999
 21
84.51349337183001
  0
LINE
  5
374
100
AcDbEntity
  8
VERDE
  6
CONTINUOUS
 62
             3
100
AcDbLine
 10
-169.04730732444
 20
95.909047549197
 11
-170.53378499511001
 21
95.21589162768998
  0
LINE
  5
373
100
AcDbEntity
  8
VERDE
  6
CONTINUOUS
 62
             3
100
AcDbLine
 10
-169.39954296939001
 20
97.90667515858195
 11
-171.03344835509009
 21
98.04962335710502
  0
LINE
  5
372
100
AcDbEntity
  8
VERDE
  6
CONTINUOUS
 62
             3
100
AcDbLine
 10
-167.78922627725001
 20
88.77411537862395
 11
-169.27570394790999
 21
88.08095945711705
  0
LINE
  5
371
100
AcDbEntity
  8
VERDE
  6
CONTINUOUS
 62
             3
100
AcDbLine
 10
-168.41826680084
 20
92.34158146391098
 11
-169.90474447151001
 21
91.64842554240295
  0
LINE
  5
370
100
AcDbEntity
  8
VERDE
  6
CONTINUOUS
 62
             3
100
AcDbLine
 10
-168.1414619221901
 20
90.77174298800901
 11
-169.7753673079001
 21
90.91469118653197
  0
LINE
  5
36F
100
AcDbEntity
  8
VERDE
  6
CONTINUOUS
 62
             3
100
AcDbLine
 10
-168.77050244578999
 20
94.33920907329502
 11
-170.40440783149009
 21
94.48215727181798
  0
LINE
  5
36E
100
AcDbEntity
  8
VERDE
  6
CONTINUOUS
 62
             3
100
AcDbLine
 10
-169.7753673079001
 20
90.91469118653197
 11
-169.90474447151001
 21
91.64842554240295
  0
LINE
  5
36D
100
AcDbEntity
  8
VERDE
  6
CONTINUOUS
 62
             3
100
AcDbLine
 10
-170.40440783149009
 20
94.48215727181798
 11
-170.53378499511001
 21
95.21589162768998
  0
LINE
  5
36C
100
AcDbEntity
  8
VERDE
  6
CONTINUOUS
 62
             3
100
AcDbLine
 10
-195.91956198826011
 20
78.94799847237596
 11
-196.04893915186989
 21
79.68173282824796
  0
LINE
  5
36B
100
AcDbEntity
  8
VERDE
  6
CONTINUOUS
 62
             3
100
AcDbLine
 10
-196.54860251186011
 20
82.515464557663
 11
-196.67797967546991
 21
83.249198913535
  0
LINE
  5
36A
100
AcDbEntity
  8
VERDE
  6
CONTINUOUS
 62
             3
100
AcDbLine
 10
-198.31188506117999
 20
83.39214711205796
 11
-196.67797967546991
 21
83.249198913535
  0
LINE
  5
369
100
AcDbEntity
  8
VERDE
  6
CONTINUOUS
 62
             3
100
AcDbLine
 10
-198.03508018252001
 20
81.82230863615598
 11
-196.54860251186011
 21
82.515464557663
  0
LINE
  5
368
100
AcDbEntity
  8
VERDE
  6
CONTINUOUS
 62
             3
100
AcDbLine
 10
-200.55124227691999
 20
96.09217297730299
 11
-199.06476460625001
 21
96.78532889881001
  0
LINE
  5
367
100
AcDbEntity
  8
VERDE
  6
CONTINUOUS
 62
             3
100
AcDbLine
 10
-200.82804715558001
 20
97.66201145320497
 11
-199.1941417698699
 21
97.51906325468201
  0
LINE
  5
366
100
AcDbEntity
  8
VERDE
  6
CONTINUOUS
 62
             3
100
AcDbLine
 10
-199.92220175332
 20
92.52470689201596
 11
-198.43572408265999
 21
93.21786281352297
  0
LINE
  5
365
100
AcDbEntity
  8
VERDE
  6
CONTINUOUS
 62
             3
100
AcDbLine
 10
-200.19900663198001
 20
94.09454536791805
 11
-198.5651012462699
 21
93.95159716939497
  0
LINE
  5
364
100
AcDbEntity
  8
VERDE
  6
CONTINUOUS
 62
             3
100
AcDbLine
 10
-197.17764303546011
 20
86.08293064295003
 11
-197.30702019906991
 21
86.81666499882203
  0
LINE
  5
363
100
AcDbEntity
  8
VERDE
  6
CONTINUOUS
 62
             3
100
AcDbLine
 10
-198.66412070612
 20
85.38977472144302
 11
-197.17764303546011
 21
86.08293064295003
  0
LINE
  5
362
100
AcDbEntity
  8
VERDE
  6
CONTINUOUS
 62
             3
100
AcDbLine
 10
-198.94092558477999
 20
86.95961319734499
 11
-197.30702019906991
 21
86.81666499882203
  0
LINE
  5
361
100
AcDbEntity
  8
VERDE
  6
CONTINUOUS
 62
             3
100
AcDbLine
 10
-199.29316122972
 20
88.95724080672994
 11
-197.8066835590601
 21
89.65039672823605
  0
LINE
  5
360
100
AcDbEntity
  8
VERDE
  6
CONTINUOUS
 62
             3
100
AcDbLine
 10
-199.56996610837999
 20
90.52707928263101
 11
-197.93606072266991
 21
90.38413108410805
  0
LINE
  5
35F
100
AcDbEntity
  8
VERDE
  6
CONTINUOUS
 62
             3
100
AcDbLine
 10
-198.43572408265999
 20
93.21786281352297
 11
-198.5651012462699
 21
93.95159716939497
  0
LINE
  5
35E
100
AcDbEntity
  8
VERDE
  6
CONTINUOUS
 62
             3
100
AcDbLine
 10
-197.8066835590601
 20
89.65039672823605
 11
-197.93606072266991
 21
90.38413108410805
  0
LINE
  5
35D
100
AcDbEntity
  8
VERDE
  6
CONTINUOUS
 62
             3
100
AcDbLine
 10
-199.06476460625001
 20
96.78532889881001
 11
-199.1941417698699
 21
97.51906325468201
  0
LINE
  5
35C
100
AcDbEntity
  8
VERDE
  6
CONTINUOUS
 62
             3
100
AcDbLine
 10
-197.68284453758
 20
79.82468102677103
 11
-196.04893915186989
 21
79.68173282824796
  0
LINE
  5
35B
100
AcDbEntity
  8
VERDE
  6
CONTINUOUS
 62
             3
100
AcDbLine
 10
-198.43572408265999
 20
93.21786281352297
 11
-171.03344835509009
 21
98.04962335710502
  0
LINE
  5
35A
100
AcDbEntity
  8
VERDE
  6
CONTINUOUS
 62
             3
100
AcDbLine
 10
-197.93606072266991
 20
90.38413108410805
 11
-170.53378499511001
 21
95.21589162768998
  0
LINE
  5
359
100
AcDbEntity
  8
VERDE
  6
CONTINUOUS
 62
             3
100
AcDbLine
 10
-197.8066835590601
 20
89.65039672823605
 11
-170.40440783149009
 21
94.48215727181798
  0
LINE
  5
358
100
AcDbEntity
  8
VERDE
  6
CONTINUOUS
 62
             3
100
AcDbLine
 10
-197.30702019906991
 20
86.81666499882203
 11
-169.90474447151001
 21
91.64842554240295
  0
LINE
  5
357
100
AcDbEntity
  8
VERDE
  6
CONTINUOUS
 62
             3
100
AcDbLine
 10
-197.17764303546011
 20
86.08293064295003
 11
-169.7753673079001
 21
90.91469118653197
  0
LINE
  5
356
100
AcDbEntity
  8
VERDE
  6
CONTINUOUS
 62
             3
100
AcDbLine
 10
-196.67797967546991
 20
83.249198913535
 11
-169.27570394790999
 21
88.08095945711705
  0
LINE
  5
355
100
AcDbEntity
  8
VERDE
  6
CONTINUOUS
 62
             3
100
AcDbLine
 10
-196.54860251186011
 20
82.515464557663
 11
-169.1463267843001
 21
87.34722510124504
  0
LINE
  5
354
100
AcDbEntity
  8
VERDE
  6
CONTINUOUS
 62
             3
100
AcDbLine
 10
-196.04893915186989
 20
79.68173282824796
 11
-168.64666342430999
 21
84.51349337183001
  0
LINE
  5
353
100
AcDbEntity
  8
VERDE
  6
CONTINUOUS
 62
             3
100
AcDbLine
 10
-195.91956198826011
 20
78.94799847237596
 11
-168.5172862607001
 21
83.77975901595801
  0
LINE
  5
352
100
AcDbEntity
  8
VERDE
  6
CONTINUOUS
 62
             3
100
AcDbLine
 10
-171.03344835509009
 20
98.04962335710502
 11
-171.1628255187
 21
98.78335771297702
  0
LINE
  5
351
100
AcDbEntity
  8
VERDE
  6
CONTINUOUS
 62
             3
100
AcDbLine
 10
-199.1941417698699
 20
97.51906325468201
 11
-171.79186604229989
 21
102.3508237982641
  0
LINE
  5
350
100
AcDbEntity
  8
VERDE
  6
CONTINUOUS
 62
             3
100
AcDbLine
 10
-199.06476460625001
 20
96.78532889881001
 11
-171.66248887869011
 21
101.6170894423919
  0
LINE
  5
34F
100
AcDbEntity
  8
VERDE
  6
CONTINUOUS
 62
             3
100
AcDbLine
 10
-198.5651012462699
 20
93.95159716939497
 11
-171.1628255187
 21
98.78335771297702
  0
LINE
  5
34E
100
AcDbEntity
  8
VERDE
  6
CONTINUOUS
 62
             3
100
AcDbLine
 10
-165.90210470644999
 20
78.07171712276295
 11
-167.38858237711
 21
77.37856120125696
  0
LINE
  5
34D
100
AcDbEntity
  8
VERDE
  6
CONTINUOUS
 62
             3
100
AcDbLine
 10
-166.63016468990011
 20
73.07736076009803
 11
-166.75954185351
 21
73.81109511597003
  0
LINE
  5
34C
100
AcDbEntity
  8
VERDE
  6
CONTINUOUS
 62
             3
100
AcDbLine
 10
-167.25920521350011
 20
76.64482684538405
 11
-167.38858237711
 21
77.37856120125696
  0
LINE
  5
34B
100
AcDbEntity
  8
VERDE
  6
CONTINUOUS
 62
             3
100
AcDbLine
 10
-195.79572296679001
 20
69.12228277091094
 11
-194.16181758107999
 21
68.97933457238798
  0
LINE
  5
34A
100
AcDbEntity
  8
VERDE
  6
CONTINUOUS
 62
             3
100
AcDbLine
 10
-195.29052146466009
 20
75.38053238708903
 11
-195.41989862828001
 21
76.11426674296104
  0
LINE
  5
349
100
AcDbEntity
  8
VERDE
  6
CONTINUOUS
 62
             3
100
AcDbLine
 10
-194.0324404174701
 20
68.24560021651598
 11
-194.16181758107999
 21
68.97933457238798
  0
LINE
  5
348
100
AcDbEntity
  8
VERDE
  6
CONTINUOUS
 62
             3
100
AcDbLine
 10
-194.6614809410701
 20
71.813066301802
 11
-194.79085810468001
 21
72.54680065767502
  0
LINE
  5
347
100
AcDbEntity
  8
VERDE
  6
CONTINUOUS
 62
             3
100
AcDbLine
 10
-196.14795861172999
 20
71.11991038029601
 11
-194.6614809410701
 21
71.813066301802
  0
LINE
  5
346
100
AcDbEntity
  8
VERDE
  6
CONTINUOUS
 62
             3
100
AcDbLine
 10
-196.42476349038
 20
72.68974885619798
 11
-194.79085810468001
 21
72.54680065767502
  0
LINE
  5
345
100
AcDbEntity
  8
VERDE
  6
CONTINUOUS
 62
             3
100
AcDbLine
 10
-196.77699913532999
 20
74.68737646558202
 11
-195.29052146466009
 21
75.38053238708903
  0
LINE
  5
344
100
AcDbEntity
  8
VERDE
  6
CONTINUOUS
 62
             3
100
AcDbLine
 10
-197.05380401398
 20
76.25721494148502
 11
-195.41989862828001
 21
76.11426674296104
  0
LINE
  5
343
100
AcDbEntity
  8
VERDE
  6
CONTINUOUS
 62
             3
100
AcDbLine
 10
-194.79085810468001
 20
72.54680065767502
 11
-167.38858237711
 21
77.37856120125696
  0
LINE
  5
342
100
AcDbEntity
  8
VERDE
  6
CONTINUOUS
 62
             3
100
AcDbLine
 10
-194.6614809410701
 20
71.813066301802
 11
-167.25920521350011
 21
76.64482684538405
  0
LINE
  5
341
100
AcDbEntity
  8
VERDE
  6
CONTINUOUS
 62
             3
100
AcDbLine
 10
-194.16181758107999
 20
68.97933457238798
 11
-166.75954185351
 21
73.81109511597003
  0
LINE
  5
340
100
AcDbEntity
  8
VERDE
  6
CONTINUOUS
 62
             3
100
AcDbLine
 10
-194.0324404174701
 20
68.24560021651598
 11
-166.63016468990011
 21
73.07736076009803
  0
LINE
  5
33F
100
AcDbEntity
  8
VERDE
  6
CONTINUOUS
 62
             3
100
AcDbLine
 10
-197.40603965893001
 20
78.25484255086894
 11
-195.91956198826011
 21
78.94799847237596
  0
LINE
  5
33E
100
AcDbEntity
  8
VERDE
  6
CONTINUOUS
 62
             3
100
AcDbLine
 10
-195.41989862828001
 20
76.11426674296104
 11
-168.01762290070999
 21
80.94602728654297
  0
LINE
  5
33D
100
AcDbEntity
  8
VERDE
  6
CONTINUOUS
 62
             3
100
AcDbLine
 10
-195.29052146466009
 20
75.38053238708903
 11
-167.88824573710011
 21
80.21229293067097
  0
LINE
  5
33C
100
AcDbEntity
  8
VERDE
  6
CONTINUOUS
 62
             3
100
AcDbLine
 10
-174.80769149668001
 20
119.45441986882599
 11
-174.9316818400801
 21
120.1576040491131
  0
LINE
  5
33B
100
AcDbEntity
  8
VERDE
  6
CONTINUOUS
 62
             3
100
AcDbLine
 10
-173.17378611097999
 20
119.31147167030301
 11
-174.80769149668001
 21
119.45441986882599
  0
LINE
  5
33A
100
AcDbEntity
  8
VERDE
  6
CONTINUOUS
 62
             3
100
AcDbLine
 10
-170.30538837163999
 20
103.043979719771
 11
-171.79186604229989
 21
102.3508237982641
  0
LINE
  5
339
100
AcDbEntity
  8
VERDE
  6
CONTINUOUS
 62
             3
100
AcDbLine
 10
-171.66248887869011
 20
101.6170894423919
 11
-171.79186604229989
 21
102.3508237982641
  0
LINE
  5
338
100
AcDbEntity
  8
VERDE
  6
CONTINUOUS
 62
             3
100
AcDbLine
 10
-172.54474558737999
 20
115.744005585016
 11
-174.17865097308001
 21
115.886953783539
  0
LINE
  5
337
100
AcDbEntity
  8
VERDE
  6
CONTINUOUS
 62
             3
100
AcDbLine
 10
-172.82155046603
 20
117.313844060918
 11
-174.3080281366999
 21
116.620688139411
  0
LINE
  5
336
100
AcDbEntity
  8
VERDE
  6
CONTINUOUS
 62
             3
100
AcDbLine
 10
-171.91570506378
 20
112.176539499729
 11
-173.5496104494901
 21
112.319487698252
  0
LINE
  5
335
100
AcDbEntity
  8
VERDE
  6
CONTINUOUS
 62
             3
100
AcDbLine
 10
-172.19250994243001
 20
113.74637797563121
 11
-173.67898761309991
 21
113.05322205412401
  0
LINE
  5
334
100
AcDbEntity
  8
VERDE
  6
CONTINUOUS
 62
             3
100
AcDbLine
 10
-174.17865097308001
 20
115.886953783539
 11
-174.3080281366999
 21
116.620688139411
  0
LINE
  5
333
100
AcDbEntity
  8
VERDE
  6
CONTINUOUS
 62
             3
100
AcDbLine
 10
-173.5496104494901
 20
112.319487698252
 11
-173.67898761309991
 21
113.05322205412401
  0
LINE
  5
332
100
AcDbEntity
  8
VERDE
  6
CONTINUOUS
 62
             3
100
AcDbLine
 10
-172.29152940229011
 20
105.184555527679
 11
-172.42090656589991
 21
105.91828988355
  0
LINE
  5
331
100
AcDbEntity
  8
VERDE
  6
CONTINUOUS
 62
             3
100
AcDbLine
 10
-170.65762401658
 20
105.04160732915599
 11
-172.29152940229011
 21
105.184555527679
  0
LINE
  5
330
100
AcDbEntity
  8
VERDE
  6
CONTINUOUS
 62
             3
100
AcDbLine
 10
-170.93442889523999
 20
106.611445805058
 11
-172.42090656589991
 21
105.91828988355
  0
LINE
  5
32F
100
AcDbEntity
  8
VERDE
  6
CONTINUOUS
 62
             3
100
AcDbLine
 10
-171.56346941883999
 20
110.178911890344
 11
-173.04994708949991
 21
109.485755968837
  0
LINE
  5
32E
100
AcDbEntity
  8
VERDE
  6
CONTINUOUS
 62
             3
100
AcDbLine
 10
-171.28666454018
 20
108.60907341444199
 11
-172.92056992589011
 21
108.752021612966
  0
LINE
  5
32D
100
AcDbEntity
  8
VERDE
  6
CONTINUOUS
 62
             3
100
AcDbLine
 10
-172.92056992589011
 20
108.752021612966
 11
-173.04994708949991
 21
109.485755968837
  0
LINE
  5
32C
100
AcDbEntity
  8
VERDE
  6
CONTINUOUS
 62
             3
100
AcDbLine
 10
-201.80932332411999
 20
103.227105147877
 11
-200.32284565345
 21
103.920261069383
  0
LINE
  5
32B
100
AcDbEntity
  8
VERDE
  6
CONTINUOUS
 62
             3
100
AcDbLine
 10
-202.08612820276991
 20
104.79694362377801
 11
-200.45222281705989
 21
104.653995425255
  0
LINE
  5
32A
100
AcDbEntity
  8
VERDE
  6
CONTINUOUS
 62
             3
100
AcDbLine
 10
-202.43836384771001
 20
106.794571233163
 11
-200.95188617705
 21
107.48772715467
  0
LINE
  5
329
100
AcDbEntity
  8
VERDE
  6
CONTINUOUS
 62
             3
100
AcDbLine
 10
-202.71516872636991
 20
108.3644097090649
 11
-201.08126334065989
 21
108.221461510542
  0
LINE
  5
328
100
AcDbEntity
  8
VERDE
  6
CONTINUOUS
 62
             3
100
AcDbLine
 10
-201.97780162957
 20
114.81766006082999
 11
-201.95145518908001
 21
114.668241971881
  0
LINE
  5
327
100
AcDbEntity
  8
VERDE
  6
CONTINUOUS
 62
             3
100
AcDbLine
 10
-203.06740437131
 20
110.36203731845001
 11
-201.58092670065
 21
111.05519323995701
  0
LINE
  5
326
100
AcDbEntity
  8
VERDE
  6
CONTINUOUS
 62
             3
100
AcDbLine
 10
-203.69644489491
 20
113.929503403737
 11
-202.20996722424999
 21
114.6226593252439
  0
LINE
  5
325
100
AcDbEntity
  8
VERDE
  6
CONTINUOUS
 62
             3
100
AcDbLine
 10
-203.34420924996991
 20
111.931875794352
 11
-201.71030386425991
 21
111.78892759582899
  0
LINE
  5
324
100
AcDbEntity
  8
VERDE
  6
CONTINUOUS
 62
             3
100
AcDbLine
 10
-202.20996722424999
 20
114.6226593252439
 11
-201.95145518908001
 21
114.668241971881
  0
LINE
  5
323
100
AcDbEntity
  8
VERDE
  6
CONTINUOUS
 62
             3
100
AcDbLine
 10
-201.71030386425991
 20
111.78892759582899
 11
-201.4517918291001
 21
111.834510242466
  0
LINE
  5
322
100
AcDbEntity
  8
VERDE
  6
CONTINUOUS
 62
             3
100
AcDbLine
 10
-201.58092670065
 20
111.05519323995701
 11
-201.71030386425991
 21
111.78892759582899
  0
LINE
  5
321
100
AcDbEntity
  8
VERDE
  6
CONTINUOUS
 62
             3
100
AcDbLine
 10
-200.32284565345
 20
103.920261069383
 11
-200.45222281705989
 21
104.653995425255
  0
LINE
  5
320
100
AcDbEntity
  8
VERDE
  6
CONTINUOUS
 62
             3
100
AcDbLine
 10
-200.95188617705
 20
107.48772715467
 11
-201.08126334065989
 21
108.221461510542
  0
LINE
  5
31F
100
AcDbEntity
  8
VERDE
  6
CONTINUOUS
 62
             3
100
AcDbLine
 10
-201.71030386425991
 20
111.78892759582899
 11
-174.3080281366999
 21
116.620688139411
  0
LINE
  5
31E
100
AcDbEntity
  8
VERDE
  6
CONTINUOUS
 62
             3
100
AcDbLine
 10
-201.58092670065
 20
111.05519323995701
 11
-174.17865097308001
 21
115.886953783539
  0
LINE
  5
31D
100
AcDbEntity
  8
VERDE
  6
CONTINUOUS
 62
             3
100
AcDbLine
 10
-201.08126334065989
 20
108.221461510542
 11
-173.67898761309991
 21
113.05322205412401
  0
LINE
  5
31C
100
AcDbEntity
  8
VERDE
  6
CONTINUOUS
 62
             3
100
AcDbLine
 10
-200.95188617705
 20
107.48772715467
 11
-173.5496104494901
 21
112.319487698252
  0
LINE
  5
31B
100
AcDbEntity
  8
VERDE
  6
CONTINUOUS
 62
             3
100
AcDbLine
 10
-200.45222281705989
 20
104.653995425255
 11
-173.04994708949991
 21
109.485755968837
  0
LINE
  5
31A
100
AcDbEntity
  8
VERDE
  6
CONTINUOUS
 62
             3
100
AcDbLine
 10
-200.32284565345
 20
103.920261069383
 11
-172.92056992589011
 21
108.752021612966
  0
LINE
  5
319
100
AcDbEntity
  8
VERDE
  6
CONTINUOUS
 62
             3
100
AcDbLine
 10
-201.95145518908001
 20
114.668241971881
 11
-174.80769149668001
 21
119.45441986882599
  0
LINE
  5
318
100
AcDbEntity
  8
VERDE
  6
CONTINUOUS
 62
             3
100
AcDbLine
 10
-176.68942624725989
 20
130.12626794910099
 11
-176.81880341087
 21
130.86000230497299
  0
LINE
  5
317
100
AcDbEntity
  8
VERDE
  6
CONTINUOUS
 62
             3
100
AcDbLine
 10
-174.70328521661011
 20
127.98569214119399
 11
-176.18976288727001
 21
127.292536219686
  0
LINE
  5
316
100
AcDbEntity
  8
VERDE
  6
CONTINUOUS
 62
             3
100
AcDbLine
 10
-175.05552086155009
 20
129.983319750579
 11
-176.68942624725989
 21
130.12626794910099
  0
LINE
  5
315
100
AcDbEntity
  8
VERDE
  6
CONTINUOUS
 62
             3
100
AcDbLine
 10
-174.4264803379501
 20
126.4158536652921
 11
-176.06038572365989
 21
126.55880186381501
  0
LINE
  5
314
100
AcDbEntity
  8
VERDE
  6
CONTINUOUS
 62
             3
100
AcDbLine
 10
-176.06038572365989
 20
126.55880186381501
 11
-176.18976288727001
 21
127.292536219686
  0
LINE
  5
313
100
AcDbEntity
  8
VERDE
  6
CONTINUOUS
 62
             3
100
AcDbLine
 10
-177.31846677085991
 20
133.69373403438809
 11
-177.44784393447
 21
134.42746839026009
  0
LINE
  5
312
100
AcDbEntity
  8
VERDE
  6
CONTINUOUS
 62
             3
100
AcDbLine
 10
-175.68456138515009
 20
133.55078583586501
 11
-177.31846677085991
 21
133.69373403438809
  0
LINE
  5
311
100
AcDbEntity
  8
VERDE
  6
CONTINUOUS
 62
             3
100
AcDbLine
 10
-175.33232574021011
 20
131.55315822648001
 11
-176.81880341087
 21
130.86000230497299
  0
LINE
  5
310
100
AcDbEntity
  8
VERDE
  6
CONTINUOUS
 62
             3
100
AcDbLine
 10
-175.9613662638001
 20
135.12062431176699
 11
-177.44784393447
 21
134.42746839026009
  0
LINE
  5
30F
100
AcDbEntity
  8
VERDE
  6
CONTINUOUS
 62
             3
100
AcDbLine
 10
-176.31360190875009
 20
137.11825192115199
 11
-177.94750729445011
 21
137.26120011967501
  0
LINE
  5
30E
100
AcDbEntity
  8
VERDE
  6
CONTINUOUS
 62
             3
100
AcDbLine
 10
-177.94750729445011
 20
137.26120011967501
 11
-178.07688445807
 21
137.99493447554599
  0
LINE
  5
30D
100
AcDbEntity
  8
0
  6
CONTINUOUS
 62
             7
100
AcDbLine
 10
-204.0917019748201
 20
125.29450740551999
 11
-204.22107913843001
 21
126.028241761391
  0
LINE
  5
30C
100
AcDbEntity
  8
VERDE
  6
CONTINUOUS
 62
             3
100
AcDbLine
 10
-204.0430212896899
 20
137.09478686892101
 11
-178.70592498166999
 21
141.56240056083399
  0
LINE
  5
30B
100
AcDbEntity
  8
VERDE
  6
CONTINUOUS
 62
             3
100
AcDbLine
 10
-204.0529960584399
 20
136.336481007559
 11
-178.5765478180501
 21
140.82866620496199
  0
LINE
  5
30A
100
AcDbEntity
  8
VERDE
  6
CONTINUOUS
 62
             3
100
AcDbLine
 10
-204.10222991565001
 20
133.40596388911601
 11
-178.07688445807
 21
137.99493447554599
  0
LINE
  5
309
100
AcDbEntity
  8
VERDE
  6
CONTINUOUS
 62
             3
100
AcDbLine
 10
-204.1177559871401
 20
132.646679183304
 11
-177.94750729445011
 21
137.26120011967501
  0
LINE
  5
308
100
AcDbEntity
  8
VERDE
  6
CONTINUOUS
 62
             3
100
AcDbLine
 10
-204.18847538722
 20
129.712373583958
 11
-177.44784393447
 21
134.42746839026009
  0
LINE
  5
307
100
AcDbEntity
  8
VERDE
  6
CONTINUOUS
 62
             3
100
AcDbLine
 10
-204.20957681499999
 20
128.952105792406
 11
-177.31846677085991
 21
133.69373403438809
  0
LINE
  5
306
100
AcDbEntity
  8
VERDE
  6
CONTINUOUS
 62
             3
100
AcDbLine
 10
-204.22107913843001
 20
126.028241761391
 11
-176.81880341087
 21
130.86000230497299
  0
LINE
  5
305
100
AcDbEntity
  8
VERDE
  6
CONTINUOUS
 62
             3
100
AcDbLine
 10
-204.0917019748201
 20
125.29450740551999
 11
-176.68942624725989
 21
130.12626794910099
  0
LINE
  5
304
100
AcDbEntity
  8
VERDE
  6
CONTINUOUS
 62
             3
100
AcDbLine
 10
-174.07424469301009
 20
124.418226055907
 11
-175.56072236367001
 21
123.7250701344
  0
LINE
  5
303
100
AcDbEntity
  8
VERDE
  6
CONTINUOUS
 62
             3
100
AcDbLine
 10
-173.7974398143501
 20
122.848387580005
 11
-175.43134520005989
 21
122.991335778528
  0
LINE
  5
302
100
AcDbEntity
  8
VERDE
  6
CONTINUOUS
 62
             3
100
AcDbLine
 10
-173.44520416941009
 20
120.8507599706201
 11
-174.9316818400801
 21
120.1576040491131
  0
LINE
  5
301
100
AcDbEntity
  8
VERDE
  6
CONTINUOUS
 62
             3
100
AcDbLine
 10
-174.8023046764599
 20
119.423869693241
 11
-174.9316818400801
 21
120.1576040491131
  0
LINE
  5
300
100
AcDbEntity
  8
VERDE
  6
CONTINUOUS
 62
             3
100
AcDbLine
 10
-175.43134520005989
 20
122.991335778528
 11
-175.56072236367001
 21
123.7250701344
  0
LINE
  5
2FF
100
AcDbEntity
  8
VERDE
  6
CONTINUOUS
 62
             3
100
AcDbLine
 10
-203.96786295335011
 20
115.468791704054
 11
-202.33395756764
 21
115.325843505531
  0
LINE
  5
2FE
100
AcDbEntity
  8
VERDE
  6
CONTINUOUS
 62
             3
100
AcDbLine
 10
-203.4626614512201
 20
121.7270413202321
 11
-203.59203861483999
 21
122.460775676105
  0
LINE
  5
2FD
100
AcDbEntity
  8
VERDE
  6
CONTINUOUS
 62
             3
100
AcDbLine
 10
-202.20458040402991
 20
114.592109149659
 11
-202.33395756764
 21
115.325843505531
  0
LINE
  5
2FC
100
AcDbEntity
  8
VERDE
  6
CONTINUOUS
 62
             3
100
AcDbLine
 10
-202.83362092762991
 20
118.159575234946
 11
-202.96299809124
 21
118.89330959081801
  0
LINE
  5
2FB
100
AcDbEntity
  8
VERDE
  6
CONTINUOUS
 62
             3
100
AcDbLine
 10
-204.32009859829009
 20
117.466419313439
 11
-202.83362092762991
 21
118.159575234946
  0
LINE
  5
2FA
100
AcDbEntity
  8
VERDE
  6
CONTINUOUS
 62
             3
100
AcDbLine
 10
-204.59690347694001
 20
119.03625778934099
 11
-202.96299809124
 21
118.89330959081801
  0
LINE
  5
2F9
100
AcDbEntity
  8
VERDE
  6
CONTINUOUS
 62
             3
100
AcDbLine
 10
-204.48790863266001
 20
121.24896070802799
 11
-203.4626614512201
 21
121.7270413202321
  0
LINE
  5
2F8
100
AcDbEntity
  8
VERDE
  6
CONTINUOUS
 62
             3
100
AcDbLine
 10
-204.43329444339
 20
122.534376024228
 11
-203.59203861483999
 21
122.460775676105
  0
LINE
  5
2F7
100
AcDbEntity
  8
VERDE
  6
CONTINUOUS
 62
             3
100
AcDbLine
 10
-202.96299809124
 20
118.89330959081801
 11
-175.56072236367001
 21
123.7250701344
  0
LINE
  5
2F6
100
AcDbEntity
  8
VERDE
  6
CONTINUOUS
 62
             3
100
AcDbLine
 10
-202.83362092762991
 20
118.159575234946
 11
-175.43134520005989
 21
122.991335778528
  0
LINE
  5
2F5
100
AcDbEntity
  8
VERDE
  6
CONTINUOUS
 62
             3
100
AcDbLine
 10
-202.33395756764
 20
115.325843505531
 11
-174.9316818400801
 21
120.1576040491131
  0
LINE
  5
2F4
100
AcDbEntity
  8
VERDE
  6
CONTINUOUS
 62
             3
100
AcDbLine
 10
-202.20458040402991
 20
114.592109149659
 11
-174.8023046764599
 21
119.423869693241
  0
LINE
  5
2F3
100
AcDbEntity
  8
0
  6
CONTINUOUS
 62
             7
100
AcDbLine
 10
-204.33108649670001
 20
125.182880569723
 11
-204.0917019748201
 21
125.29450740551999
  0
LINE
  5
2F2
100
AcDbEntity
  8
VERDE
  6
CONTINUOUS
 62
             3
100
AcDbLine
 10
-203.59203861483999
 20
122.460775676105
 11
-176.18976288727001
 21
127.292536219686
  0
LINE
  5
2F1
100
AcDbEntity
  8
VERDE
  6
CONTINUOUS
 62
             3
100
AcDbLine
 10
-203.4626614512201
 20
121.7270413202321
 11
-176.06038572365989
 21
126.55880186381501
  0
LINE
  5
2F0
100
AcDbEntity
  8
VERDE
  6
CONTINUOUS
 62
             3
100
AcDbLine
 10
-204.34720313394001
 20
162.001784655796
 11
-182.97444466301999
 21
165.770378626385
  0
LINE
  5
2EF
100
AcDbEntity
  8
VERDE
  6
CONTINUOUS
 62
             3
100
AcDbLine
 10
-204.37545369591001
 20
162.75335036000601
 11
-183.10382182663011
 21
166.504112982257
  0
LINE
  5
2EE
100
AcDbEntity
  8
VERDE
  6
CONTINUOUS
 62
             3
100
AcDbLine
 10
-204.52862983355001
 20
166.40472417569501
 11
-183.73286235023011
 21
170.07157906754401
  0
LINE
  5
2ED
100
AcDbEntity
  8
VERDE
  6
CONTINUOUS
 62
             3
100
AcDbLine
 10
-204.49498393707
 20
165.65410981452999
 11
-183.60348518661999
 21
169.33784471167101
  0
LINE
  5
2EC
100
AcDbEntity
  8
VERDE
  6
CONTINUOUS
 62
             3
100
AcDbLine
 10
-204.66896746525001
 20
169.30181472586901
 11
-184.23252571021999
 21
172.90531079695799
  0
LINE
  5
2EB
100
AcDbEntity
  8
VERDE
  6
CONTINUOUS
 62
             3
100
AcDbLine
 10
-204.70799347037999
 20
170.05148042872
 11
-184.3619028738301
 21
173.63904515282999
  0
LINE
  5
2EA
100
AcDbEntity
  8
VERDE
  6
CONTINUOUS
 62
             3
100
AcDbLine
 10
-204.86908144770001
 20
172.94491213310201
 11
-184.86156623382001
 21
176.47277688224511
  0
LINE
  5
2E9
100
AcDbEntity
  8
VERDE
  6
CONTINUOUS
 62
             3
100
AcDbLine
 10
-204.9134732438101
 20
173.69363170222991
 11
-184.9909433974301
 21
177.20651123811709
  0
LINE
  5
2E8
100
AcDbEntity
  8
VERDE
  6
CONTINUOUS
 62
             3
100
AcDbLine
 10
-205.0952580067401
 20
176.58341400489601
 11
-185.49060675741001
 21
180.04024296753201
  0
LINE
  5
2E7
100
AcDbEntity
  8
VERDE
  6
CONTINUOUS
 62
             3
100
AcDbLine
 10
-205.1450021728001
 20
177.331189806791
 11
-185.6199839210301
 21
180.77397732340401
  0
LINE
  5
2E6
100
AcDbEntity
  8
VERDE
  6
CONTINUOUS
 62
             3
100
AcDbLine
 10
-182.9798314832401
 20
165.80092880197
 11
-183.10382182663011
 21
166.504112982257
  0
LINE
  5
2E5
100
AcDbEntity
  8
VERDE
  6
CONTINUOUS
 62
             3
100
AcDbLine
 10
-181.34592609753011
 20
165.65798060344591
 11
-182.9798314832401
 21
165.80092880197
  0
LINE
  5
2E4
100
AcDbEntity
  8
VERDE
  6
CONTINUOUS
 62
             3
100
AcDbLine
 10
-178.2007234795401
 20
147.820650177012
 11
-179.8346288652501
 21
147.9635983755351
  0
LINE
  5
2E3
100
AcDbEntity
  8
VERDE
  6
CONTINUOUS
 62
             3
100
AcDbLine
 10
-178.47752835820009
 20
149.390488652914
 11
-179.96400602886001
 21
148.69733273140699
  0
LINE
  5
2E2
100
AcDbEntity
  8
VERDE
  6
CONTINUOUS
 62
             3
100
AcDbLine
 10
-179.8346288652501
 20
147.9635983755351
 11
-179.96400602886001
 21
148.69733273140699
  0
LINE
  5
2E1
100
AcDbEntity
  8
VERDE
  6
CONTINUOUS
 62
             3
100
AcDbLine
 10
-180.71688557394009
 20
162.09051451816001
 11
-182.35079095964011
 21
162.23346271668299
  0
LINE
  5
2E0
100
AcDbEntity
  8
VERDE
  6
CONTINUOUS
 62
             3
100
AcDbLine
 10
-180.99369045258999
 20
163.66035299406099
 11
-182.48016812326
 21
162.967197072555
  0
LINE
  5
2DF
100
AcDbEntity
  8
VERDE
  6
CONTINUOUS
 62
             3
100
AcDbLine
 10
-180.08784505034009
 20
158.523048432872
 11
-181.72175043605009
 21
158.6659966313961
  0
LINE
  5
2DE
100
AcDbEntity
  8
VERDE
  6
CONTINUOUS
 62
             3
100
AcDbLine
 10
-180.3646499289901
 20
160.092886908775
 11
-181.85112759966
 21
159.39973098726691
  0
LINE
  5
2DD
100
AcDbEntity
  8
VERDE
  6
CONTINUOUS
 62
             3
100
AcDbLine
 10
-182.35079095964011
 20
162.23346271668299
 11
-182.48016812326
 21
162.967197072555
  0
LINE
  5
2DC
100
AcDbEntity
  8
VERDE
  6
CONTINUOUS
 62
             3
100
AcDbLine
 10
-181.72175043605009
 20
158.6659966313961
 11
-181.85112759966
 21
159.39973098726691
  0
LINE
  5
2DB
100
AcDbEntity
  8
VERDE
  6
CONTINUOUS
 62
             3
100
AcDbLine
 10
-180.46366938885009
 20
151.53106446082199
 11
-180.59304655246001
 21
152.264798816694
  0
LINE
  5
2DA
100
AcDbEntity
  8
VERDE
  6
CONTINUOUS
 62
             3
100
AcDbLine
 10
-178.8297640031401
 20
151.38811626229901
 11
-180.46366938885009
 21
151.53106446082199
  0
LINE
  5
2D9
100
AcDbEntity
  8
VERDE
  6
CONTINUOUS
 62
             3
100
AcDbLine
 10
-179.10656888180009
 20
152.95795473820101
 11
-180.59304655246001
 21
152.264798816694
  0
LINE
  5
2D8
100
AcDbEntity
  8
VERDE
  6
CONTINUOUS
 62
             3
100
AcDbLine
 10
-179.73560940540011
 20
156.52542082348791
 11
-181.22208707606001
 21
155.83226490198101
  0
LINE
  5
2D7
100
AcDbEntity
  8
VERDE
  6
CONTINUOUS
 62
             3
100
AcDbLine
 10
-179.4588045267401
 20
154.95558234758599
 11
-181.09270991245009
 21
155.098530546109
  0
LINE
  5
2D6
100
AcDbEntity
  8
VERDE
  6
CONTINUOUS
 62
             3
100
AcDbLine
 10
-181.09270991245009
 20
155.098530546109
 11
-181.22208707606001
 21
155.83226490198101
  0
LINE
  5
2D5
100
AcDbEntity
  8
VERDE
  6
CONTINUOUS
 62
             3
100
AcDbLine
 10
-177.84848783460009
 20
145.82302256762691
 11
-179.33496550525999
 21
145.12986664612001
  0
LINE
  5
2D4
100
AcDbEntity
  8
VERDE
  6
CONTINUOUS
 62
             3
100
AcDbLine
 10
-210.88730871293001
 20
154.71091864220901
 11
-210.1312104175299
 21
154.64476861284999
  0
LINE
  5
2D3
100
AcDbEntity
  8
VERDE
  6
CONTINUOUS
 62
             3
100
AcDbLine
 10
-211.2395443578701
 20
156.70854625159299
 11
-210.19525003576001
 21
157.19550869136299
  0
LINE
  5
2D2
100
AcDbEntity
  8
VERDE
  6
CONTINUOUS
 62
             3
100
AcDbLine
 10
-211.86858488147001
 20
160.27601233687989
 11
-210.38210721081009
 21
160.96916825838699
  0
LINE
  5
2D1
100
AcDbEntity
  8
VERDE
  6
CONTINUOUS
 62
             3
100
AcDbLine
 10
-211.51634923653
 20
158.27838472749599
 11
-210.2230137172601
 21
158.1652325314241
  0
LINE
  5
2D0
100
AcDbEntity
  8
VERDE
  6
CONTINUOUS
 62
             3
100
AcDbLine
 10
-204.24951597023011
 20
159.12867369470601
 11
-182.48016812326
 21
162.967197072555
  0
LINE
  5
2CF
100
AcDbEntity
  8
VERDE
  6
CONTINUOUS
 62
             3
100
AcDbLine
 10
-204.22663047657011
 20
158.37616198419991
 11
-182.35079095964011
 21
162.23346271668299
  0
LINE
  5
2CE
100
AcDbEntity
  8
VERDE
  6
CONTINUOUS
 62
             3
100
AcDbLine
 10
-204.14872078934991
 20
155.46806370306399
 11
-181.85112759966
 21
159.39973098726691
  0
LINE
  5
2CD
100
AcDbEntity
  8
VERDE
  6
CONTINUOUS
 62
             3
100
AcDbLine
 10
-204.13126370665009
 20
154.71459481724401
 11
-181.72175043605009
 21
158.6659966313961
  0
LINE
  5
2CC
100
AcDbEntity
  8
VERDE
  6
CONTINUOUS
 62
             3
100
AcDbLine
 10
-204.07435333634001
 20
151.802793789959
 11
-181.22208707606001
 21
155.83226490198101
  0
LINE
  5
2CB
100
AcDbEntity
  8
VERDE
  6
CONTINUOUS
 62
             3
100
AcDbLine
 10
-204.06234268452999
 20
151.04836455142609
 11
-181.09270991245009
 21
155.098530546109
  0
LINE
  5
2CA
100
AcDbEntity
  8
VERDE
  6
CONTINUOUS
 62
             3
100
AcDbLine
 10
-204.02650307839011
 20
148.132848179913
 11
-180.59304655246001
 21
152.264798816694
  0
LINE
  5
2C9
100
AcDbEntity
  8
VERDE
  6
CONTINUOUS
 62
             3
100
AcDbLine
 10
-204.01995784011001
 20
147.37745524151401
 11
-180.46366938885009
 21
151.53106446082199
  0
LINE
  5
2C8
100
AcDbEntity
  8
VERDE
  6
CONTINUOUS
 62
             3
100
AcDbLine
 10
-177.2194473110001
 20
142.25555648234101
 11
-178.70592498166999
 21
141.56240056083399
  0
LINE
  5
2C7
100
AcDbEntity
  8
VERDE
  6
CONTINUOUS
 62
             3
100
AcDbLine
 10
-177.57168295595011
 20
144.25318409172601
 11
-179.2055883416501
 21
144.39613229024911
  0
LINE
  5
2C6
100
AcDbEntity
  8
VERDE
  6
CONTINUOUS
 62
             3
100
AcDbLine
 10
-176.5904067874001
 20
138.688090397054
 11
-178.07688445807
 21
137.99493447554599
  0
LINE
  5
2C5
100
AcDbEntity
  8
VERDE
  6
CONTINUOUS
 62
             3
100
AcDbLine
 10
-176.94264243235011
 20
140.68571800643909
 11
-178.5765478180501
 21
140.82866620496199
  0
LINE
  5
2C4
100
AcDbEntity
  8
VERDE
  6
CONTINUOUS
 62
             3
100
AcDbLine
 10
-178.5765478180501
 20
140.82866620496199
 11
-178.70592498166999
 21
141.56240056083399
  0
LINE
  5
2C3
100
AcDbEntity
  8
VERDE
  6
CONTINUOUS
 62
             3
100
AcDbLine
 10
-204.01518211795999
 20
140.02153152706899
 11
-179.2055883416501
 21
144.39613229024911
  0
LINE
  5
2C2
100
AcDbEntity
  8
VERDE
  6
CONTINUOUS
 62
             3
100
AcDbLine
 10
-179.2055883416501
 20
144.39613229024911
 11
-179.33496550525999
 21
145.12986664612001
  0
LINE
  5
2C1
100
AcDbEntity
  8
VERDE
  6
CONTINUOUS
 62
             3
100
AcDbLine
 10
-204.00526419367
 20
144.45821026677399
 11
-179.96400602886001
 21
148.69733273140699
  0
LINE
  5
2C0
100
AcDbEntity
  8
VERDE
  6
CONTINUOUS
 62
             3
100
AcDbLine
 10
-204.00420433011001
 20
143.70185010881201
 11
-179.8346288652501
 21
147.9635983755351
  0
LINE
  5
2BF
100
AcDbEntity
  8
VERDE
  6
CONTINUOUS
 62
             3
100
AcDbLine
 10
-204.01073565023009
 20
140.77886259980301
 11
-179.33496550525999
 21
145.12986664612001
  0
LINE
  5
2BE
100
AcDbEntity
  8
VERDE
  6
CONTINUOUS
 62
             3
100
AcDbLine
 10
-204.34835721587999
 20
162.0330811773409
 11
-182.9798314832401
 21
165.80092880197
  0
LINE
  5
2BD
100
AcDbEntity
  8
VERDE
  6
CONTINUOUS
 62
             3
100
AcDbLine
 10
-183.50446572676989
 20
177.89966715962399
 11
-184.9909433974301
 21
177.20651123811709
  0
LINE
  5
2BC
100
AcDbEntity
  8
VERDE
  6
CONTINUOUS
 62
             3
100
AcDbLine
 10
-184.23252571021999
 20
172.90531079695799
 11
-184.3619028738301
 21
173.63904515282999
  0
LINE
  5
2BB
100
AcDbEntity
  8
VERDE
  6
CONTINUOUS
 62
             3
100
AcDbLine
 10
-182.59862032450999
 20
172.76236259843509
 11
-184.23252571021999
 21
172.90531079695799
  0
LINE
  5
2BA
100
AcDbEntity
  8
VERDE
  6
CONTINUOUS
 62
             3
100
AcDbLine
 10
-183.22766084810999
 20
176.32982868372201
 11
-184.86156623382001
 21
176.47277688224511
  0
LINE
  5
2B9
100
AcDbEntity
  8
VERDE
  6
CONTINUOUS
 62
             3
100
AcDbLine
 10
-182.8754252031699
 20
174.33220107433701
 11
-184.3619028738301
 21
173.63904515282999
  0
LINE
  5
2B8
100
AcDbEntity
  8
VERDE
  6
CONTINUOUS
 62
             3
100
AcDbLine
 10
-184.86156623382001
 20
176.47277688224511
 11
-184.9909433974301
 21
177.20651123811709
  0
LINE
  5
2B7
100
AcDbEntity
  8
VERDE
  6
CONTINUOUS
 62
             3
100
AcDbLine
 10
-214.02712451070011
 20
172.517698893058
 11
-212.39321912499011
 21
172.37475069453501
  0
LINE
  5
2B6
100
AcDbEntity
  8
VERDE
  6
CONTINUOUS
 62
             3
100
AcDbLine
 10
-215.00840067923991
 20
178.0827925877301
 11
-213.52192300857999
 21
178.775948509236
  0
LINE
  5
2B5
100
AcDbEntity
  8
VERDE
  6
CONTINUOUS
 62
             3
100
AcDbLine
 10
-213.52192300857999
 20
178.775948509236
 11
-213.6513001721901
 21
179.509682865108
  0
LINE
  5
2B4
100
AcDbEntity
  8
VERDE
  6
CONTINUOUS
 62
             3
100
AcDbLine
 10
-214.37936015563989
 20
174.515326502443
 11
-212.89288248497999
 21
175.2084824239499
  0
LINE
  5
2B3
100
AcDbEntity
  8
VERDE
  6
CONTINUOUS
 62
             3
100
AcDbLine
 10
-214.6561650343001
 20
176.08516497834501
 11
-213.02225964859011
 21
175.942216779821
  0
LINE
  5
2B2
100
AcDbEntity
  8
VERDE
  6
CONTINUOUS
 62
             3
100
AcDbLine
 10
-212.89288248497999
 20
175.2084824239499
 11
-213.02225964859011
 21
175.942216779821
  0
LINE
  5
2B1
100
AcDbEntity
  8
VERDE
  6
CONTINUOUS
 62
             3
100
AcDbLine
 10
-212.26384196138
 20
171.64101633866301
 11
-212.39321912499011
 21
172.37475069453501
  0
LINE
  5
2B0
100
AcDbEntity
  8
VERDE
  6
CONTINUOUS
 62
             3
100
AcDbLine
 10
-213.52192300857999
 20
178.775948509236
 11
-211.28730989489009
 21
179.16997109262499
  0
LINE
  5
2AF
100
AcDbEntity
  8
VERDE
  6
CONTINUOUS
 62
             3
100
AcDbLine
 10
-212.89288248497999
 20
175.2084824239499
 11
-211.03970812950999
 21
175.53524706277511
  0
LINE
  5
2AE
100
AcDbEntity
  8
VERDE
  6
CONTINUOUS
 62
             3
100
AcDbLine
 10
-213.02225964859011
 20
175.942216779821
 11
-211.08848523723009
 21
176.2831933831479
  0
LINE
  5
2AD
100
AcDbEntity
  8
VERDE
  6
CONTINUOUS
 62
             3
100
AcDbLine
 10
-212.26384196138
 20
171.64101633866301
 11
-210.81842878279011
 21
171.89588168032091
  0
LINE
  5
2AC
100
AcDbEntity
  8
VERDE
  6
CONTINUOUS
 62
             3
100
AcDbLine
 10
-212.39321912499011
 20
172.37475069453501
 11
-210.86178682169
 21
172.64478352873601
  0
LINE
  5
2AB
100
AcDbEntity
  8
VERDE
  6
CONTINUOUS
 62
             3
100
AcDbLine
 10
-210.5060975542001
 20
161.67235243867401
 11
-210.34022046613001
 21
161.701601044782
  0
LINE
  5
2AA
100
AcDbEntity
  8
VERDE
  6
CONTINUOUS
 62
             3
100
AcDbLine
 10
-211.13513807780009
 20
165.23981852396091
 11
-210.48758267891
 21
165.35400001228899
  0
LINE
  5
2A9
100
AcDbEntity
  8
VERDE
  6
CONTINUOUS
 62
             3
100
AcDbLine
 10
-211.00576091418
 20
164.5060841680889
 11
-210.45510547317011
 21
164.60317957941399
  0
LINE
  5
2A8
100
AcDbEntity
  8
VERDE
  6
CONTINUOUS
 62
             3
100
AcDbLine
 10
-183.60348518661999
 20
169.33784471167101
 11
-183.73286235023011
 21
170.07157906754401
  0
LINE
  5
2A7
100
AcDbEntity
  8
VERDE
  6
CONTINUOUS
 62
             3
100
AcDbLine
 10
-182.97444466301999
 20
165.770378626385
 11
-183.10382182663011
 21
166.504112982257
  0
LINE
  5
2A6
100
AcDbEntity
  8
VERDE
  6
CONTINUOUS
 62
             3
100
AcDbLine
 10
-181.6173441559699
 20
167.19726890376299
 11
-183.10382182663011
 21
166.504112982257
  0
LINE
  5
2A5
100
AcDbEntity
  8
VERDE
  6
CONTINUOUS
 62
             3
100
AcDbLine
 10
-181.96957980091
 20
169.194896513148
 11
-183.60348518661999
 21
169.33784471167101
  0
LINE
  5
2A4
100
AcDbEntity
  8
VERDE
  6
CONTINUOUS
 62
             3
100
AcDbLine
 10
-182.2463846795699
 20
170.76473498905
 11
-183.73286235023011
 21
170.07157906754401
  0
LINE
  5
2A3
100
AcDbEntity
  8
VERDE
  6
CONTINUOUS
 62
             3
100
AcDbLine
 10
-213.39808398710011
 20
168.9502328077709
 11
-211.76417860140009
 21
168.807284609248
  0
LINE
  5
2A2
100
AcDbEntity
  8
VERDE
  6
CONTINUOUS
 62
             3
100
AcDbLine
 10
-213.1212791084499
 20
167.3803943318691
 11
-211.63480143778
 21
168.073550253376
  0
LINE
  5
2A1
100
AcDbEntity
  8
VERDE
  6
CONTINUOUS
 62
             3
100
AcDbLine
 10
-212.76904346350011
 20
165.38276672248401
 11
-211.13513807780009
 21
165.23981852396091
  0
LINE
  5
2A0
100
AcDbEntity
  8
VERDE
  6
CONTINUOUS
 62
             3
100
AcDbLine
 10
-212.4922385848499
 20
163.812928246582
 11
-211.00576091418
 21
164.5060841680889
  0
LINE
  5
29F
100
AcDbEntity
  8
VERDE
  6
CONTINUOUS
 62
             3
100
AcDbLine
 10
-211.00576091418
 20
164.5060841680889
 11
-211.13513807780009
 21
165.23981852396091
  0
LINE
  5
29E
100
AcDbEntity
  8
VERDE
  6
CONTINUOUS
 62
             3
100
AcDbLine
 10
-210.37672039058
 20
160.938618082803
 11
-210.5060975542001
 21
161.67235243867401
  0
LINE
  5
29D
100
AcDbEntity
  8
VERDE
  6
CONTINUOUS
 62
             3
100
AcDbLine
 10
-211.63480143778
 20
168.073550253376
 11
-211.76417860140009
 21
168.807284609248
  0
LINE
  5
29C
100
AcDbEntity
  8
VERDE
  6
CONTINUOUS
 62
             3
100
AcDbLine
 10
-212.14000293990011
 20
161.81530063719799
 11
-210.5060975542001
 21
161.67235243867401
  0
LINE
  5
29B
100
AcDbEntity
  8
VERDE
  6
CONTINUOUS
 62
             3
100
AcDbLine
 10
-211.76417860140009
 20
168.807284609248
 11
-210.66146280868
 21
169.00172315555699
  0
LINE
  5
29A
100
AcDbEntity
  8
VERDE
  6
CONTINUOUS
 62
             3
100
AcDbLine
 10
-211.63480143778
 20
168.073550253376
 11
-210.6235377599001
 21
168.25186332439799
  0
LINE
  5
299
100
AcDbEntity
  8
VERDE
  6
CONTINUOUS
 62
             3
100
AcDbLine
 10
-213.75031963203989
 20
170.94786041715599
 11
-212.26384196138
 21
171.64101633866301
  0
LINE
  5
298
100
AcDbEntity
  8
VERDE
  6
CONTINUOUS
 62
             3
100
AcDbLine
 10
-205.34743360301991
 20
180.21733154495101
 11
-186.11964728101
 21
183.60770905281899
  0
LINE
  5
297
100
AcDbEntity
  8
VERDE
  6
CONTINUOUS
 62
             3
100
AcDbLine
 10
-205.4025176038501
 20
180.964165789905
 11
-186.24902444463009
 21
184.34144340869099
  0
LINE
  5
296
100
AcDbEntity
  8
VERDE
  6
CONTINUOUS
 62
             3
100
AcDbLine
 10
-205.62554898462011
 20
183.84667520098199
 11
-186.74868780461
 21
187.17517513810611
  0
LINE
  5
295
100
AcDbEntity
  8
VERDE
  6
CONTINUOUS
 62
             3
100
AcDbLine
 10
-205.68596116084001
 20
184.592569944855
 11
-186.87806496822009
 21
187.90890949397701
  0
LINE
  5
294
100
AcDbEntity
  8
VERDE
  6
CONTINUOUS
 62
             3
100
AcDbLine
 10
-205.92954913970991
 20
187.47145467305509
 11
-187.37772832821
 21
190.7426412233921
  0
LINE
  5
293
100
AcDbEntity
  8
VERDE
  6
CONTINUOUS
 62
             3
100
AcDbLine
 10
-205.99527869853
 20
188.2164118189111
 11
-187.50710549182011
 21
191.47637557926399
  0
LINE
  5
292
100
AcDbEntity
  8
VERDE
  6
CONTINUOUS
 62
             3
100
AcDbLine
 10
-206.33042025953
 20
191.83570022090501
 11
-188.13614601542011
 21
195.043841664551
  0
LINE
  5
291
100
AcDbEntity
  8
VERDE
  6
CONTINUOUS
 62
             3
100
AcDbLine
 10
-206.2593832529401
 20
191.09167892129199
 11
-188.00676885180999
 21
194.31010730867899
  0
LINE
  5
290
100
AcDbEntity
  8
VERDE
  6
CONTINUOUS
 62
             3
100
AcDbLine
 10
-206.6150046652001
 20
194.70735617294909
 11
-188.63580937540999
 21
197.877573393966
  0
LINE
  5
28F
100
AcDbEntity
  8
VERDE
  6
CONTINUOUS
 62
             3
100
AcDbLine
 10
-206.69134003493991
 20
195.45044322818501
 11
-188.76518653902011
 21
198.61130774983801
  0
LINE
  5
28E
100
AcDbEntity
  8
VERDE
  6
CONTINUOUS
 62
             3
100
AcDbLine
 10
-206.9963708369601
 20
198.31849392889399
 11
-189.26484989900001
 21
201.4450394792519
  0
LINE
  5
28D
100
AcDbEntity
  8
VERDE
  6
CONTINUOUS
 62
             3
100
AcDbLine
 10
-207.07799632825001
 20
199.06064819296901
 11
-189.3942270626201
 21
202.17877383512391
  0
LINE
  5
28C
100
AcDbEntity
  8
VERDE
  6
CONTINUOUS
 62
             3
100
AcDbLine
 10
-207.40344331488001
 20
201.925098969489
 11
-189.89389042260001
 21
205.012505564539
  0
LINE
  5
28B
100
AcDbEntity
  8
VERDE
  6
CONTINUOUS
 62
             3
100
AcDbLine
 10
-207.49035152272
 20
202.66632174810599
 11
-190.0232675862201
 21
205.746239920411
  0
LINE
  5
28A
100
AcDbEntity
  8
VERDE
  6
CONTINUOUS
 62
             3
100
AcDbLine
 10
-207.83618770177009
 20
205.52717735988699
 11
-190.52293094620001
 21
208.57997164982601
  0
LINE
  5
289
100
AcDbEntity
  8
VERDE
  6
CONTINUOUS
 62
             3
100
AcDbLine
 10
-207.92837205197
 20
206.26746981225199
 11
-190.6523081098201
 21
209.31370600569801
  0
LINE
  5
288
100
AcDbEntity
  8
VERDE
  6
CONTINUOUS
 62
             3
100
AcDbLine
 10
-208.29457362977999
 20
209.124734454757
 11
-191.1519714698
 21
212.1474377351129
  0
LINE
  5
287
100
AcDbEntity
  8
VERDE
  6
CONTINUOUS
 62
             3
100
AcDbLine
 10
-189.5180660840899
 20
212.00448953659
 11
-191.1519714698
 21
212.1474377351129
  0
LINE
  5
286
100
AcDbEntity
  8
VERDE
  6
CONTINUOUS
 62
             3
100
AcDbLine
 10
-191.1519714698
 20
212.1474377351129
 11
-191.27596181319001
 21
212.85062191540001
  0
LINE
  5
285
100
AcDbEntity
  8
VERDE
  6
CONTINUOUS
 62
             3
100
AcDbLine
 10
-186.0206278211601
 20
192.169531500771
 11
-187.50710549182011
 21
191.47637557926399
  0
LINE
  5
284
100
AcDbEntity
  8
VERDE
  6
CONTINUOUS
 62
             3
100
AcDbLine
 10
-189.26484989900001
 20
201.4450394792519
 11
-189.3942270626201
 21
202.17877383512391
  0
LINE
  5
283
100
AcDbEntity
  8
VERDE
  6
CONTINUOUS
 62
             3
100
AcDbLine
 10
-187.63094451329991
 20
201.302091280729
 11
-189.26484989900001
 21
201.4450394792519
  0
LINE
  5
282
100
AcDbEntity
  8
VERDE
  6
CONTINUOUS
 62
             3
100
AcDbLine
 10
-187.9077493919601
 20
202.871929756631
 11
-189.3942270626201
 21
202.17877383512391
  0
LINE
  5
281
100
AcDbEntity
  8
VERDE
  6
CONTINUOUS
 62
             3
100
AcDbLine
 10
-187.2787088683601
 20
199.304463671344
 11
-188.76518653902011
 21
198.61130774983801
  0
LINE
  5
280
100
AcDbEntity
  8
VERDE
  6
CONTINUOUS
 62
             3
100
AcDbLine
 10
-187.00190398969991
 20
197.73462519544299
 11
-188.63580937540999
 21
197.877573393966
  0
LINE
  5
27F
100
AcDbEntity
  8
VERDE
  6
CONTINUOUS
 62
             3
100
AcDbLine
 10
-188.63580937540999
 20
197.877573393966
 11
-188.76518653902011
 21
198.61130774983801
  0
LINE
  5
27E
100
AcDbEntity
  8
VERDE
  6
CONTINUOUS
 62
             3
100
AcDbLine
 10
-189.89389042260001
 20
205.012505564539
 11
-190.0232675862201
 21
205.746239920411
  0
LINE
  5
27D
100
AcDbEntity
  8
VERDE
  6
CONTINUOUS
 62
             3
100
AcDbLine
 10
-190.52293094620001
 20
208.57997164982601
 11
-190.6523081098201
 21
209.31370600569801
  0
LINE
  5
27C
100
AcDbEntity
  8
VERDE
  6
CONTINUOUS
 62
             3
100
AcDbLine
 10
-188.53678991555009
 20
206.43939584191801
 11
-190.0232675862201
 21
205.746239920411
  0
LINE
  5
27B
100
AcDbEntity
  8
VERDE
  6
CONTINUOUS
 62
             3
100
AcDbLine
 10
-188.25998503689991
 20
204.86955736601601
 11
-189.89389042260001
 21
205.012505564539
  0
LINE
  5
27A
100
AcDbEntity
  8
VERDE
  6
CONTINUOUS
 62
             3
100
AcDbLine
 10
-189.16583043915011
 20
210.00686192720499
 11
-190.6523081098201
 21
209.31370600569801
  0
LINE
  5
279
100
AcDbEntity
  8
VERDE
  6
CONTINUOUS
 62
             3
100
AcDbLine
 10
-188.8890255604999
 20
208.43702345130291
 11
-190.52293094620001
 21
208.57997164982601
  0
LINE
  5
278
100
AcDbEntity
  8
VERDE
  6
CONTINUOUS
 62
             3
100
AcDbLine
 10
-188.00676885180999
 20
194.31010730867899
 11
-188.13614601542011
 21
195.043841664551
  0
LINE
  5
277
100
AcDbEntity
  8
VERDE
  6
CONTINUOUS
 62
             3
100
AcDbLine
 10
-186.6496683447601
 20
195.73699758605801
 11
-188.13614601542011
 21
195.043841664551
  0
LINE
  5
276
100
AcDbEntity
  8
VERDE
  6
CONTINUOUS
 62
             3
100
AcDbLine
 10
-186.37286346609989
 20
194.16715911015601
 11
-188.00676885180999
 21
194.31010730867899
  0
LINE
  5
275
100
AcDbEntity
  8
VERDE
  6
CONTINUOUS
 62
             3
100
AcDbLine
 10
-217.29616615016991
 20
200.180745020957
 11
-217.42554331378011
 21
200.91447937682901
  0
LINE
  5
274
100
AcDbEntity
  8
VERDE
  6
CONTINUOUS
 62
             3
100
AcDbLine
 10
-216.66712562656991
 20
196.61327893567
 11
-216.79650279018011
 21
197.347013291542
  0
LINE
  5
273
100
AcDbEntity
  8
VERDE
  6
CONTINUOUS
 62
             3
100
AcDbLine
 10
-217.92520667376991
 20
203.74821110624401
 11
-218.05458383738011
 21
204.48194546211599
  0
LINE
  5
272
100
AcDbEntity
  8
VERDE
  6
CONTINUOUS
 62
             3
100
AcDbLine
 10
-218.05458383738011
 20
204.48194546211599
 11
-217.79607180221001
 21
204.52752810875299
  0
LINE
  5
271
100
AcDbEntity
  8
VERDE
  6
CONTINUOUS
 62
             3
100
AcDbLine
 10
-219.6884892230901
 20
204.624893660639
 11
-218.05458383738011
 21
204.48194546211599
  0
LINE
  5
270
100
AcDbEntity
  8
VERDE
  6
CONTINUOUS
 62
             3
100
AcDbLine
 10
-220.04072486803011
 20
206.62252127002401
 11
-218.5542471973699
 21
207.31567719153
  0
LINE
  5
26F
100
AcDbEntity
  8
VERDE
  6
CONTINUOUS
 62
             3
100
AcDbLine
 10
-219.41168434443011
 20
203.05505518473689
 11
-217.92520667376991
 21
203.74821110624401
  0
LINE
  5
26E
100
AcDbEntity
  8
VERDE
  6
CONTINUOUS
 62
             3
100
AcDbLine
 10
-219.0594486994901
 20
201.05742757535199
 11
-217.42554331378011
 21
200.91447937682901
  0
LINE
  5
26D
100
AcDbEntity
  8
VERDE
  6
CONTINUOUS
 62
             3
100
AcDbLine
 10
-218.78264382083009
 20
199.48758909944999
 11
-217.29616615016991
 21
200.180745020957
  0
LINE
  5
26C
100
AcDbEntity
  8
VERDE
  6
CONTINUOUS
 62
             3
100
AcDbLine
 10
-218.43040817589011
 20
197.48996149006501
 11
-216.79650279018011
 21
197.347013291542
  0
LINE
  5
26B
100
AcDbEntity
  8
VERDE
  6
CONTINUOUS
 62
             3
100
AcDbLine
 10
-216.03808510296989
 20
193.04581285038401
 11
-216.16746226659009
 21
193.77954720625499
  0
LINE
  5
26A
100
AcDbEntity
  8
VERDE
  6
CONTINUOUS
 62
             3
100
AcDbLine
 10
-217.5245627736401
 20
192.352656928877
 11
-216.03808510296989
 21
193.04581285038401
  0
LINE
  5
269
100
AcDbEntity
  8
VERDE
  6
CONTINUOUS
 62
             3
100
AcDbLine
 10
-217.80136765229011
 20
193.922495404778
 11
-216.16746226659009
 21
193.77954720625499
  0
LINE
  5
268
100
AcDbEntity
  8
VERDE
  6
CONTINUOUS
 62
             3
100
AcDbLine
 10
-218.15360329723009
 20
195.92012301416401
 11
-216.66712562656991
 21
196.61327893567
  0
LINE
  5
267
100
AcDbEntity
  8
VERDE
  6
CONTINUOUS
 62
             3
100
AcDbLine
 10
-215.40904457937
 20
189.47834676509689
 11
-212.18745714745
 21
190.046399550057
  0
LINE
  5
266
100
AcDbEntity
  8
VERDE
  6
CONTINUOUS
 62
             3
100
AcDbLine
 10
-218.05458383738011
 20
204.48194546211599
 11
-213.84467405533999
 21
205.224266143037
  0
LINE
  5
265
100
AcDbEntity
  8
VERDE
  6
CONTINUOUS
 62
             3
100
AcDbLine
 10
-215.5384217429901
 20
190.212081120969
 11
-212.25778956532011
 21
190.79054508767209
  0
LINE
  5
264
100
AcDbEntity
  8
VERDE
  6
CONTINUOUS
 62
             3
100
AcDbLine
 10
-217.92520667376991
 20
203.74821110624401
 11
-213.75293718671989
 21
204.4838947875979
  0
LINE
  5
263
100
AcDbEntity
  8
VERDE
  6
CONTINUOUS
 62
             3
100
AcDbLine
 10
-217.29616615016991
 20
200.180745020957
 11
-213.32255564553
 21
200.881399763752
  0
LINE
  5
262
100
AcDbEntity
  8
VERDE
  6
CONTINUOUS
 62
             3
100
AcDbLine
 10
-217.42554331378011
 20
200.91447937682901
 11
-213.40895248731999
 21
201.62271271
  0
LINE
  5
261
100
AcDbEntity
  8
VERDE
  6
CONTINUOUS
 62
             3
100
AcDbLine
 10
-216.03808510296989
 20
193.04581285038401
 11
-212.5397778634601
 21
193.6626588035171
  0
LINE
  5
260
100
AcDbEntity
  8
VERDE
  6
CONTINUOUS
 62
             3
100
AcDbLine
 10
-216.16746226659009
 20
193.77954720625499
 11
-212.61547334462011
 21
194.40585868837599
  0
LINE
  5
25F
100
AcDbEntity
  8
VERDE
  6
CONTINUOUS
 62
             3
100
AcDbLine
 10
-216.79650279018011
 20
197.347013291542
 11
-212.9992073180301
 21
198.01657893700499
  0
LINE
  5
25E
100
AcDbEntity
  8
VERDE
  6
CONTINUOUS
 62
             3
100
AcDbLine
 10
-216.66712562656991
 20
196.61327893567
 11
-212.91815731816999
 21
197.274323198263
  0
LINE
  5
25D
100
AcDbEntity
  8
VERDE
  6
CONTINUOUS
 62
             3
100
AcDbLine
 10
-186.74868780461
 20
187.17517513810611
 11
-186.87806496822009
 21
187.90890949397701
  0
LINE
  5
25C
100
AcDbEntity
  8
VERDE
  6
CONTINUOUS
 62
             3
100
AcDbLine
 10
-186.11964728101
 20
183.60770905281899
 11
-186.24902444463009
 21
184.34144340869099
  0
LINE
  5
25B
100
AcDbEntity
  8
VERDE
  6
CONTINUOUS
 62
             3
100
AcDbLine
 10
-185.11478241890001
 20
187.03222693958199
 11
-186.74868780461
 21
187.17517513810611
  0
LINE
  5
25A
100
AcDbEntity
  8
VERDE
  6
CONTINUOUS
 62
             3
100
AcDbLine
 10
-184.48574189531001
 20
183.46476085429501
 11
-186.11964728101
 21
183.60770905281899
  0
LINE
  5
259
100
AcDbEntity
  8
VERDE
  6
CONTINUOUS
 62
             3
100
AcDbLine
 10
-184.76254677395991
 20
185.03459933019701
 11
-186.24902444463009
 21
184.34144340869099
  0
LINE
  5
258
100
AcDbEntity
  8
VERDE
  6
CONTINUOUS
 62
             3
100
AcDbLine
 10
-184.13350625035989
 20
181.46713324491
 11
-185.6199839210301
 21
180.77397732340401
  0
LINE
  5
257
100
AcDbEntity
  8
VERDE
  6
CONTINUOUS
 62
             3
100
AcDbLine
 10
-185.74382294251001
 20
190.599693024869
 11
-187.37772832821
 21
190.7426412233921
  0
LINE
  5
256
100
AcDbEntity
  8
VERDE
  6
CONTINUOUS
 62
             3
100
AcDbLine
 10
-185.39158729755991
 20
188.60206541548391
 11
-186.87806496822009
 21
187.90890949397701
  0
LINE
  5
255
100
AcDbEntity
  8
VERDE
  6
CONTINUOUS
 62
             3
100
AcDbLine
 10
-183.85670137170999
 20
179.89729476900899
 11
-185.49060675741001
 21
180.04024296753201
  0
LINE
  5
254
100
AcDbEntity
  8
VERDE
  6
CONTINUOUS
 62
             3
100
AcDbLine
 10
-185.49060675741001
 20
180.04024296753201
 11
-185.6199839210301
 21
180.77397732340401
  0
LINE
  5
253
100
AcDbEntity
  8
VERDE
  6
CONTINUOUS
 62
             3
100
AcDbLine
 10
-215.40904457937
 20
189.47834676509689
 11
-215.5384217429901
 21
190.212081120969
  0
LINE
  5
252
100
AcDbEntity
  8
VERDE
  6
CONTINUOUS
 62
             3
100
AcDbLine
 10
-214.15096353217999
 20
182.34341459452301
 11
-214.2803406957901
 21
183.07714895039501
  0
LINE
  5
251
100
AcDbEntity
  8
VERDE
  6
CONTINUOUS
 62
             3
100
AcDbLine
 10
-214.78000405577001
 20
185.91088067980999
 11
-214.9093812193901
 21
186.64461503568199
  0
LINE
  5
250
100
AcDbEntity
  8
VERDE
  6
CONTINUOUS
 62
             3
100
AcDbLine
 10
-215.9142460815001
 20
183.22009714891789
 11
-214.2803406957901
 21
183.07714895039501
  0
LINE
  5
24F
100
AcDbEntity
  8
VERDE
  6
CONTINUOUS
 62
             3
100
AcDbLine
 10
-215.63744120283991
 20
181.650258673016
 11
-214.15096353217999
 21
182.34341459452301
  0
LINE
  5
24E
100
AcDbEntity
  8
VERDE
  6
CONTINUOUS
 62
             3
100
AcDbLine
 10
-215.2852055579001
 20
179.65263106363099
 11
-213.6513001721901
 21
179.509682865108
  0
LINE
  5
24D
100
AcDbEntity
  8
VERDE
  6
CONTINUOUS
 62
             3
100
AcDbLine
 10
-216.54328660510009
 20
186.78756323420501
 11
-214.9093812193901
 21
186.64461503568199
  0
LINE
  5
24C
100
AcDbEntity
  8
VERDE
  6
CONTINUOUS
 62
             3
100
AcDbLine
 10
-216.26648172644011
 20
185.21772475830301
 11
-214.78000405577001
 21
185.91088067980999
  0
LINE
  5
24B
100
AcDbEntity
  8
VERDE
  6
CONTINUOUS
 62
             3
100
AcDbLine
 10
-217.17232712869011
 20
190.35502931949199
 11
-215.5384217429901
 21
190.212081120969
  0
LINE
  5
24A
100
AcDbEntity
  8
VERDE
  6
CONTINUOUS
 62
             3
100
AcDbLine
 10
-216.8955222500401
 20
188.7851908435899
 11
-215.40904457937
 21
189.47834676509689
  0
LINE
  5
249
100
AcDbEntity
  8
VERDE
  6
CONTINUOUS
 62
             3
100
AcDbLine
 10
-213.6513001721901
 20
179.509682865108
 11
-211.34149307025999
 21
179.9169641774109
  0
LINE
  5
248
100
AcDbEntity
  8
VERDE
  6
CONTINUOUS
 62
             3
100
AcDbLine
 10
-214.2803406957901
 20
183.07714895039501
 11
-211.6207497780301
 21
183.54610658684291
  0
LINE
  5
247
100
AcDbEntity
  8
VERDE
  6
CONTINUOUS
 62
             3
100
AcDbLine
 10
-214.15096353217999
 20
182.34341459452301
 11
-211.56117262666001
 21
182.80006460556001
  0
LINE
  5
246
100
AcDbEntity
  8
VERDE
  6
CONTINUOUS
 62
             3
100
AcDbLine
 10
-214.78000405577001
 20
185.91088067980999
 11
-211.86123927527001
 21
186.42553766095301
  0
LINE
  5
245
100
AcDbEntity
  8
VERDE
  6
CONTINUOUS
 62
             3
100
AcDbLine
 10
-214.9093812193901
 20
186.64461503568199
 11
-211.9261992106301
 21
187.17063051219
  0
LINE
  5
244
100
AcDbEntity
  8
VERDE
  6
CONTINUOUS
 62
             3
100
AcDbLine
 10
-187.37772832821
 20
190.7426412233921
 11
-187.50710549182011
 21
191.47637557926399
  0
LINE
  5
243
100
AcDbEntity
  8
VERDE
  6
CONTINUOUS
 62
             3
100
AcDbLine
 10
-218.5542471973699
 20
207.31567719153
 11
-214.20927046164999
 21
208.08181382058689
  0
LINE
  5
242
100
AcDbEntity
  8
VERDE
  6
CONTINUOUS
 62
             3
100
AcDbLine
 10
-193.03370622038011
 20
222.8192858153881
 11
-193.16308338398991
 21
223.55302017125999
  0
LINE
  5
241
100
AcDbEntity
  8
VERDE
  6
CONTINUOUS
 62
             3
100
AcDbLine
 10
-190.41852466613
 20
217.11124392219401
 11
-191.90500233679001
 21
216.41808800068699
  0
LINE
  5
240
100
AcDbEntity
  8
VERDE
  6
CONTINUOUS
 62
             3
100
AcDbLine
 10
-191.04756518972999
 20
220.67871000747991
 11
-192.53404286039
 21
219.98555408597301
  0
LINE
  5
23F
100
AcDbEntity
  8
VERDE
  6
CONTINUOUS
 62
             3
100
AcDbLine
 10
-191.39980083467
 20
222.676337616865
 11
-193.03370622038011
 21
222.8192858153881
  0
LINE
  5
23E
100
AcDbEntity
  8
VERDE
  6
CONTINUOUS
 62
             3
100
AcDbLine
 10
-190.77076031107001
 20
219.10887153157799
 11
-192.40466569678011
 21
219.251819730101
  0
LINE
  5
23D
100
AcDbEntity
  8
VERDE
  6
CONTINUOUS
 62
             3
100
AcDbLine
 10
-192.40466569678011
 20
219.251819730101
 11
-192.53404286039
 21
219.98555408597301
  0
LINE
  5
23C
100
AcDbEntity
  8
VERDE
  6
CONTINUOUS
 62
             3
100
AcDbLine
 10
-193.6627467439701
 20
226.38675190067499
 11
-193.79212390758991
 21
227.120486256547
  0
LINE
  5
23B
100
AcDbEntity
  8
VERDE
  6
CONTINUOUS
 62
             3
100
AcDbLine
 10
-192.02884135827
 20
226.24380370215201
 11
-193.6627467439701
 21
226.38675190067499
  0
LINE
  5
23A
100
AcDbEntity
  8
VERDE
  6
CONTINUOUS
 62
             3
100
AcDbLine
 10
-191.67660571332999
 20
224.246176092767
 11
-193.16308338398991
 21
223.55302017125999
  0
LINE
  5
239
100
AcDbEntity
  8
VERDE
  6
CONTINUOUS
 62
             3
100
AcDbLine
 10
-192.30564623692001
 20
227.81364217805401
 11
-193.79212390758991
 21
227.120486256547
  0
LINE
  5
238
100
AcDbEntity
  8
VERDE
  6
CONTINUOUS
 62
             3
100
AcDbLine
 10
-192.93468676052001
 20
231.38110826334091
 11
-194.4211644311799
 21
230.68795234183301
  0
LINE
  5
237
100
AcDbEntity
  8
VERDE
  6
CONTINUOUS
 62
             3
100
AcDbLine
 10
-192.65788188187
 20
229.81126978743899
 11
-194.29178726756999
 21
229.954217985962
  0
LINE
  5
236
100
AcDbEntity
  8
VERDE
  6
CONTINUOUS
 62
             3
100
AcDbLine
 10
-194.29178726756999
 20
229.954217985962
 11
-194.4211644311799
 21
230.68795234183301
  0
LINE
  5
235
100
AcDbEntity
  8
VERDE
  6
CONTINUOUS
 62
             3
100
AcDbLine
 10
-190.14171978747001
 20
215.54140544629101
 11
-191.77562517318009
 21
215.684353644814
  0
LINE
  5
234
100
AcDbEntity
  8
VERDE
  6
CONTINUOUS
 62
             3
100
AcDbLine
 10
-189.78948414253
 20
213.543777836906
 11
-191.27596181319001
 21
212.85062191540001
  0
LINE
  5
233
100
AcDbEntity
  8
VERDE
  6
CONTINUOUS
 62
             3
100
AcDbLine
 10
-191.14658464958009
 20
212.11688755952801
 11
-191.27596181319001
 21
212.85062191540001
  0
LINE
  5
232
100
AcDbEntity
  8
VERDE
  6
CONTINUOUS
 62
             3
100
AcDbLine
 10
-191.77562517318009
 20
215.684353644814
 11
-191.90500233679001
 21
216.41808800068699
  0
LINE
  5
231
100
AcDbEntity
  8
VERDE
  6
CONTINUOUS
 62
             3
100
AcDbLine
 10
-220.43598194794001
 20
217.98752527180599
 11
-216.1478115760801
 21
218.74364540623901
  0
LINE
  5
230
100
AcDbEntity
  8
VERDE
  6
CONTINUOUS
 62
             3
100
AcDbLine
 10
-220.43598194794001
 20
217.98752527180599
 11
-220.5653591115499
 21
218.72125962767799
  0
LINE
  5
22F
100
AcDbEntity
  8
VERDE
  6
CONTINUOUS
 62
             3
100
AcDbLine
 10
-220.5653591115499
 20
218.72125962767799
 11
-216.26281229673009
 21
219.47991471689201
  0
LINE
  5
22E
100
AcDbEntity
  8
VERDE
  6
CONTINUOUS
 62
             3
100
AcDbLine
 10
-221.06502247154
 20
221.55499135709289
 11
-221.19439963514989
 21
222.288725712965
  0
LINE
  5
22D
100
AcDbEntity
  8
VERDE
  6
CONTINUOUS
 62
             3
100
AcDbLine
 10
-222.82830502085989
 20
222.43167391148799
 11
-221.19439963514989
 21
222.288725712965
  0
LINE
  5
22C
100
AcDbEntity
  8
VERDE
  6
CONTINUOUS
 62
             3
100
AcDbLine
 10
-222.55150014220001
 20
220.8618354355859
 11
-221.06502247154
 21
221.55499135709289
  0
LINE
  5
22B
100
AcDbEntity
  8
VERDE
  6
CONTINUOUS
 62
             3
100
AcDbLine
 10
-224.438621713
 20
231.56423369144599
 11
-222.95214404232999
 21
232.25738961295301
  0
LINE
  5
22A
100
AcDbEntity
  8
VERDE
  6
CONTINUOUS
 62
             3
100
AcDbLine
 10
-221.69406299514
 20
225.12245744237899
 11
-221.82344015874989
 21
225.85619179825201
  0
LINE
  5
229
100
AcDbEntity
  8
VERDE
  6
CONTINUOUS
 62
             3
100
AcDbLine
 10
-223.18054066580001
 20
224.429301520873
 11
-221.69406299514
 21
225.12245744237899
  0
LINE
  5
228
100
AcDbEntity
  8
VERDE
  6
CONTINUOUS
 62
             3
100
AcDbLine
 10
-223.45734554445991
 20
225.99913999677489
 11
-221.82344015874989
 21
225.85619179825201
  0
LINE
  5
227
100
AcDbEntity
  8
VERDE
  6
CONTINUOUS
 62
             3
100
AcDbLine
 10
-223.80958118940001
 20
227.99676760616001
 11
-222.32310351874
 21
228.689923527666
  0
LINE
  5
226
100
AcDbEntity
  8
VERDE
  6
CONTINUOUS
 62
             3
100
AcDbLine
 10
-224.0863860680499
 20
229.56660608206101
 11
-222.45248068234989
 21
229.423657883538
  0
LINE
  5
225
100
AcDbEntity
  8
VERDE
  6
CONTINUOUS
 62
             3
100
AcDbLine
 10
-222.95214404232999
 20
232.25738961295301
 11
-223.08152120594991
 21
232.99112396882501
  0
LINE
  5
224
100
AcDbEntity
  8
VERDE
  6
CONTINUOUS
 62
             3
100
AcDbLine
 10
-222.32310351874
 20
228.689923527666
 11
-222.45248068234989
 21
229.423657883538
  0
LINE
  5
223
100
AcDbEntity
  8
VERDE
  6
CONTINUOUS
 62
             3
100
AcDbLine
 10
-221.92245961859999
 20
217.29436935029901
 11
-220.43598194794001
 21
217.98752527180599
  0
LINE
  5
222
100
AcDbEntity
  8
VERDE
  6
CONTINUOUS
 62
             3
100
AcDbLine
 10
-221.19439963514989
 20
222.288725712965
 11
-216.8367992725
 21
223.05708822804499
  0
LINE
  5
221
100
AcDbEntity
  8
VERDE
  6
CONTINUOUS
 62
             3
100
AcDbLine
 10
-221.06502247154
 20
221.55499135709289
 11
-216.71673377446999
 21
222.32171197429599
  0
LINE
  5
220
100
AcDbEntity
  8
VERDE
  6
CONTINUOUS
 62
             3
100
AcDbLine
 10
-222.19926449726
 20
218.86420782620101
 11
-220.5653591115499
 21
218.72125962767799
  0
LINE
  5
21F
100
AcDbEntity
  8
VERDE
  6
CONTINUOUS
 62
             3
100
AcDbLine
 10
-221.82344015874989
 20
225.85619179825201
 11
-217.43540735792001
 21
226.62992037327101
  0
LINE
  5
21E
100
AcDbEntity
  8
VERDE
  6
CONTINUOUS
 62
             3
100
AcDbLine
 10
-221.69406299514
 20
225.12245744237899
 11
-217.31027841301011
 21
225.89543694182311
  0
LINE
  5
21D
100
AcDbEntity
  8
VERDE
  6
CONTINUOUS
 62
             3
100
AcDbLine
 10
-222.32310351874
 20
228.689923527666
 11
-217.92839892091999
 21
229.46482852050499
  0
LINE
  5
21C
100
AcDbEntity
  8
VERDE
  6
CONTINUOUS
 62
             3
100
AcDbLine
 10
-222.45248068234989
 20
229.423657883538
 11
-218.0577760845301
 21
230.198562876377
  0
LINE
  5
21B
100
AcDbEntity
  8
VERDE
  6
CONTINUOUS
 62
             3
100
AcDbLine
 10
-222.95214404232999
 20
232.25738961295301
 11
-218.55743944452001
 21
233.032294605792
  0
LINE
  5
21A
100
AcDbEntity
  8
VERDE
  6
CONTINUOUS
 62
             3
100
AcDbLine
 10
-220.31214292646001
 20
208.16180957034101
 11
-218.67823754075991
 21
208.018861371817
  0
LINE
  5
219
100
AcDbEntity
  8
VERDE
  6
CONTINUOUS
 62
             3
100
AcDbLine
 10
-219.80694142434001
 20
214.42005918651901
 11
-215.60352041013991
 21
215.161235722599
  0
LINE
  5
218
100
AcDbEntity
  8
VERDE
  6
CONTINUOUS
 62
             3
100
AcDbLine
 10
-219.9363185879499
 20
215.15379354239101
 11
-215.7134542983201
 21
215.89839845252399
  0
LINE
  5
217
100
AcDbEntity
  8
VERDE
  6
CONTINUOUS
 62
             3
100
AcDbLine
 10
-219.80694142434001
 20
214.42005918651901
 11
-219.9363185879499
 21
215.15379354239101
  0
LINE
  5
216
100
AcDbEntity
  8
VERDE
  6
CONTINUOUS
 62
             3
100
AcDbLine
 10
-218.54886037715011
 20
207.2851270159459
 11
-218.67823754075991
 21
208.018861371817
  0
LINE
  5
215
100
AcDbEntity
  8
VERDE
  6
CONTINUOUS
 62
             3
100
AcDbLine
 10
-219.17790090074001
 20
210.852593101233
 11
-219.30727806435991
 21
211.586327457105
  0
LINE
  5
214
100
AcDbEntity
  8
VERDE
  6
CONTINUOUS
 62
             3
100
AcDbLine
 10
-218.67823754075991
 20
208.018861371817
 11
-214.68867434084001
 21
208.72232900520501
  0
LINE
  5
213
100
AcDbEntity
  8
VERDE
  6
CONTINUOUS
 62
             3
100
AcDbLine
 10
-219.17790090074001
 20
210.852593101233
 11
-215.08387239607009
 21
211.57448078639609
  0
LINE
  5
212
100
AcDbEntity
  8
VERDE
  6
CONTINUOUS
 62
             3
100
AcDbLine
 10
-219.30727806435991
 20
211.586327457105
 11
-215.18873667063011
 21
212.31253742598301
  0
LINE
  5
211
100
AcDbEntity
  8
VERDE
  6
CONTINUOUS
 62
             3
100
AcDbLine
 10
-220.66437857141
 20
210.1594371797261
 11
-219.17790090074001
 21
210.852593101233
  0
LINE
  5
210
100
AcDbEntity
  8
VERDE
  6
CONTINUOUS
 62
             3
100
AcDbLine
 10
-220.94118345006001
 20
211.72927565562699
 11
-219.30727806435991
 21
211.586327457105
  0
LINE
  5
20F
100
AcDbEntity
  8
VERDE
  6
CONTINUOUS
 62
             3
100
AcDbLine
 10
-221.29341909500999
 20
213.726903265012
 11
-219.80694142434001
 21
214.42005918651901
  0
LINE
  5
20E
100
AcDbEntity
  8
VERDE
  6
CONTINUOUS
 62
             3
100
AcDbLine
 10
-221.57022397366001
 20
215.29674174091389
 11
-219.9363185879499
 21
215.15379354239101
  0
LINE
  5
20D
100
AcDbEntity
  8
VERDE
  6
CONTINUOUS
 62
             3
100
AcDbLine
 10
-211.72411007694001
 20
230.55881203980601
 11
-194.92082779117001
 21
233.5216840712479
  0
LINE
  5
20C
100
AcDbEntity
  8
VERDE
  6
CONTINUOUS
 62
             3
100
AcDbLine
 10
-211.8534872405601
 20
231.29254639567799
 11
-195.0502049547799
 21
234.25541842711991
  0
LINE
  5
20B
100
AcDbEntity
  8
VERDE
  6
CONTINUOUS
 62
             3
100
AcDbLine
 10
-210.05743048134991
 20
220.574090956541
 11
-193.16308338398991
 21
223.55302017125999
  0
LINE
  5
20A
100
AcDbEntity
  8
VERDE
  6
CONTINUOUS
 62
             3
100
AcDbLine
 10
-208.87601618508009
 20
212.66909332875201
 11
-191.77562517318009
 21
215.684353644814
  0
LINE
  5
209
100
AcDbEntity
  8
VERDE
  6
CONTINUOUS
 62
             3
100
AcDbLine
 10
-208.98117144512
 20
213.4070986597491
 11
-191.90500233679001
 21
216.41808800068699
  0
LINE
  5
208
100
AcDbEntity
  8
VERDE
  6
CONTINUOUS
 62
             3
100
AcDbLine
 10
-208.47957774805991
 20
209.817160260337
 11
-191.27596181319001
 21
212.85062191540001
  0
LINE
  5
207
100
AcDbEntity
  8
VERDE
  6
CONTINUOUS
 62
             3
100
AcDbLine
 10
-209.9422592246801
 20
219.83785171599101
 11
-193.03370622038011
 21
222.8192858153881
  0
LINE
  5
206
100
AcDbEntity
  8
VERDE
  6
CONTINUOUS
 62
             3
100
AcDbLine
 10
-209.39696255678999
 20
216.255619329474
 11
-192.40466569678011
 21
219.251819730101
  0
LINE
  5
205
100
AcDbEntity
  8
VERDE
  6
CONTINUOUS
 62
             3
100
AcDbLine
 10
-209.50712715677989
 20
216.99274137868099
 11
-192.53404286039
 21
219.98555408597301
  0
LINE
  5
204
100
AcDbEntity
  8
VERDE
  6
CONTINUOUS
 62
             3
100
AcDbLine
 10
-210.63207042634011
 20
224.15114933160399
 11
-193.79212390758991
 21
227.120486256547
  0
LINE
  5
203
100
AcDbEntity
  8
VERDE
  6
CONTINUOUS
 62
             3
100
AcDbLine
 10
-210.5118944957801
 20
223.41579255008901
 11
-193.6627467439701
 21
226.38675190067499
  0
LINE
  5
202
100
AcDbEntity
  8
VERDE
  6
CONTINUOUS
 62
             3
100
AcDbLine
 10
-211.10586007999001
 20
226.989443293535
 11
-194.29178726756999
 21
229.954217985962
  0
LINE
  5
201
100
AcDbEntity
  8
VERDE
  6
CONTINUOUS
 62
             3
100
AcDbLine
 10
-211.23103940071999
 20
227.723917842368
 11
-194.4211644311799
 21
230.68795234183301
  0
LINE
  5
200
100
AcDbEntity
  8
VERDE
  6
CONTINUOUS
 62
             3
100
AcDbLine
 10
-194.54500345266001
 20
240.51366804329891
 11
-196.17890883837001
 21
240.65661624182201
  0
LINE
  5
1FF
100
AcDbEntity
  8
VERDE
  6
CONTINUOUS
 62
             3
100
AcDbLine
 10
-194.82180833132
 20
242.08350651920099
 11
-196.30828600197989
 21
241.39035059769401
  0
LINE
  5
1FE
100
AcDbEntity
  8
VERDE
  6
CONTINUOUS
 62
             3
100
AcDbLine
 10
-196.17890883837001
 20
240.65661624182201
 11
-196.30828600197989
 21
241.39035059769401
  0
LINE
  5
1FD
100
AcDbEntity
  8
VERDE
  6
CONTINUOUS
 62
             3
100
AcDbLine
 10
-196.43212502346
 20
251.216066299159
 11
-198.06603040915999
 21
251.35901449768201
  0
LINE
  5
1FC
100
AcDbEntity
  8
0
  6
CONTINUOUS
 62
             7
100
AcDbLine
 10
-196.70892990210999
 20
252.785904775061
 11
-198.19540757277991
 21
252.09274885355401
  0
LINE
  5
1FB
100
AcDbEntity
  8
VERDE
  6
CONTINUOUS
 62
             3
100
AcDbLine
 10
-198.06603040915999
 20
251.35901449768201
 11
-198.19540757277991
 21
252.09274885355401
  0
LINE
  5
1FA
100
AcDbEntity
  8
VERDE
  6
CONTINUOUS
 62
             3
100
AcDbLine
 10
-196.80794936197
 20
244.22408232710799
 11
-196.93732652557989
 21
244.95781668298
  0
LINE
  5
1F9
100
AcDbEntity
  8
VERDE
  6
CONTINUOUS
 62
             3
100
AcDbLine
 10
-195.17404397626001
 20
244.081134128586
 11
-196.80794936197
 21
244.22408232710799
  0
LINE
  5
1F8
100
AcDbEntity
  8
VERDE
  6
CONTINUOUS
 62
             3
100
AcDbLine
 10
-195.45084885492
 20
245.65097260448701
 11
-196.93732652557989
 21
244.95781668298
  0
LINE
  5
1F7
100
AcDbEntity
  8
VERDE
  6
CONTINUOUS
 62
             3
100
AcDbLine
 10
-196.07988937850999
 20
249.21843868977399
 11
-197.56636704917989
 21
248.525282768267
  0
LINE
  5
1F6
100
AcDbEntity
  8
VERDE
  6
CONTINUOUS
 62
             3
100
AcDbLine
 10
-195.80308449986001
 20
247.64860021387301
 11
-197.43698988557
 21
247.791548412395
  0
LINE
  5
1F5
100
AcDbEntity
  8
VERDE
  6
CONTINUOUS
 62
             3
100
AcDbLine
 10
-197.43698988557
 20
247.791548412395
 11
-197.56636704917989
 21
248.525282768267
  0
LINE
  5
1F4
100
AcDbEntity
  8
VERDE
  6
CONTINUOUS
 62
             3
100
AcDbLine
 10
-226.32574328378999
 20
242.26663194730699
 11
-224.83926561313001
 21
242.95978786881301
  0
LINE
  5
1F3
100
AcDbEntity
  8
VERDE
  6
CONTINUOUS
 62
             3
100
AcDbLine
 10
-225.9735076388499
 20
240.26900433792201
 11
-224.3396022531401
 21
240.126056139399
  0
LINE
  5
1F2
100
AcDbEntity
  8
VERDE
  6
CONTINUOUS
 62
             3
100
AcDbLine
 10
-225.69670276018999
 20
238.69916586202001
 11
-224.21022508953001
 21
239.392321783527
  0
LINE
  5
1F1
100
AcDbEntity
  8
VERDE
  6
CONTINUOUS
 62
             3
100
AcDbLine
 10
-224.21022508953001
 20
239.392321783527
 11
-224.3396022531401
 21
240.126056139399
  0
LINE
  5
1F0
100
AcDbEntity
  8
VERDE
  6
CONTINUOUS
 62
             3
100
AcDbLine
 10
-224.3396022531401
 20
240.126056139399
 11
-221.75448190149001
 21
240.58188260577401
  0
LINE
  5
1EF
100
AcDbEntity
  8
VERDE
  6
CONTINUOUS
 62
             3
100
AcDbLine
 10
-224.21022508953001
 20
239.392321783527
 11
-221.62510473787009
 21
239.84814824990201
  0
LINE
  5
1EE
100
AcDbEntity
  8
VERDE
  6
CONTINUOUS
 62
             3
100
AcDbLine
 10
-226.60254816244989
 20
243.836470423208
 11
-224.9686427767401
 21
243.69352222468501
  0
LINE
  5
1ED
100
AcDbEntity
  8
VERDE
  6
CONTINUOUS
 62
             3
100
AcDbLine
 10
-226.95478380738999
 20
245.834098032593
 11
-225.46830613673001
 21
246.5272539541001
  0
LINE
  5
1EC
100
AcDbEntity
  8
0
  6
CONTINUOUS
 62
             7
100
AcDbLine
 10
-227.23158868604989
 20
247.40393650849501
 11
-225.59768330034009
 21
247.26098830997211
  0
LINE
  5
1EB
100
AcDbEntity
  8
VERDE
  6
CONTINUOUS
 62
             3
100
AcDbLine
 10
-224.83926561313001
 20
242.95978786881301
 11
-222.25414526147009
 21
243.41561433518891
  0
LINE
  5
1EA
100
AcDbEntity
  8
VERDE
  6
CONTINUOUS
 62
             3
100
AcDbLine
 10
-224.9686427767401
 20
243.69352222468501
 11
-222.38352242509001
 21
244.14934869106091
  0
LINE
  5
1E9
100
AcDbEntity
  8
VERDE
  6
CONTINUOUS
 62
             3
100
AcDbLine
 10
-224.83926561313001
 20
242.95978786881301
 11
-224.9686427767401
 21
243.69352222468501
  0
LINE
  5
1E8
100
AcDbEntity
  8
VERDE
  6
CONTINUOUS
 62
             3
100
AcDbLine
 10
-225.59768330034009
 20
247.26098830997211
 11
-223.18325995933989
 21
247.6867162878419
  0
LINE
  5
1E7
100
AcDbEntity
  8
VERDE
  6
CONTINUOUS
 62
             3
100
AcDbLine
 10
-225.46830613673001
 20
246.5272539541001
 11
-222.88318578507011
 21
246.983080420476
  0
LINE
  5
1E6
100
AcDbEntity
  8
0
  6
CONTINUOUS
 62
             7
100
AcDbLine
 10
-225.46830613673001
 20
246.5272539541001
 11
-225.59768330034009
 21
247.26098830997211
  0
LINE
  5
1E5
100
AcDbEntity
  8
VERDE
  6
CONTINUOUS
 62
             3
100
AcDbLine
 10
-212.43068792518011
 20
245.14775490741599
 11
-197.43698988557
 21
247.791548412395
  0
LINE
  5
1E4
100
AcDbEntity
  8
VERDE
  6
CONTINUOUS
 62
             3
100
AcDbLine
 10
-212.56006508879
 20
245.88148926328799
 11
-197.56636704917989
 21
248.525282768267
  0
LINE
  5
1E3
100
AcDbEntity
  8
VERDE
  6
CONTINUOUS
 62
             3
100
AcDbLine
 10
-211.93102456519
 20
242.31402317800101
 11
-196.93732652557989
 21
244.95781668298
  0
LINE
  5
1E2
100
AcDbEntity
  8
VERDE
  6
CONTINUOUS
 62
             3
100
AcDbLine
 10
-211.80164740158011
 20
241.58028882213
 11
-196.80794936197
 21
244.22408232710799
  0
LINE
  5
1E1
100
AcDbEntity
  8
VERDE
  6
CONTINUOUS
 62
             3
100
AcDbLine
 10
-213.01840860172999
 20
249.47905383707999
 11
-198.19540757277991
 21
252.09274885355401
  0
LINE
  5
1E0
100
AcDbEntity
  8
VERDE
  6
CONTINUOUS
 62
             3
100
AcDbLine
 10
-213.05972844878011
 20
248.71522099270291
 11
-198.06603040915999
 21
251.35901449768201
  0
LINE
  5
1DF
100
AcDbEntity
  8
VERDE
  6
CONTINUOUS
 62
             3
100
AcDbLine
 10
-211.30198404159
 20
238.74655709271499
 11
-196.30828600197989
 21
241.39035059769401
  0
LINE
  5
1DE
100
AcDbEntity
  8
VERDE
  6
CONTINUOUS
 62
             3
100
AcDbLine
 10
-193.56372728412001
 20
234.94857434862701
 11
-195.0502049547799
 21
234.25541842711991
  0
LINE
  5
1DD
100
AcDbEntity
  8
VERDE
  6
CONTINUOUS
 62
             3
100
AcDbLine
 10
-193.91596292905999
 20
236.94620195801201
 11
-195.54986831477001
 21
237.089150156535
  0
LINE
  5
1DC
100
AcDbEntity
  8
VERDE
  6
CONTINUOUS
 62
             3
100
AcDbLine
 10
-195.54986831477001
 20
237.089150156535
 11
-195.6792454783799
 21
237.822884512407
  0
LINE
  5
1DB
100
AcDbEntity
  8
VERDE
  6
CONTINUOUS
 62
             3
100
AcDbLine
 10
-193.28692240545999
 20
233.378735872725
 11
-194.92082779117001
 21
233.5216840712479
  0
LINE
  5
1DA
100
AcDbEntity
  8
VERDE
  6
CONTINUOUS
 62
             3
100
AcDbLine
 10
-194.92082779117001
 20
233.5216840712479
 11
-195.0502049547799
 21
234.25541842711991
  0
LINE
  5
1D9
100
AcDbEntity
  8
VERDE
  6
CONTINUOUS
 62
             3
100
AcDbLine
 10
-225.0676622366
 20
235.13169977673289
 11
-223.58118456592999
 21
235.82485569823999
  0
LINE
  5
1D8
100
AcDbEntity
  8
VERDE
  6
CONTINUOUS
 62
             3
100
AcDbLine
 10
-225.3444671152499
 20
236.701538252635
 11
-223.71056172954991
 21
236.55859005411199
  0
LINE
  5
1D7
100
AcDbEntity
  8
VERDE
  6
CONTINUOUS
 62
             3
100
AcDbLine
 10
-224.7154265916499
 20
233.13407216734799
 11
-223.08152120594991
 21
232.99112396882501
  0
LINE
  5
1D6
100
AcDbEntity
  8
VERDE
  6
CONTINUOUS
 62
             3
100
AcDbLine
 10
-223.58118456592999
 20
235.82485569823999
 11
-223.71056172954991
 21
236.55859005411199
  0
LINE
  5
1D5
100
AcDbEntity
  8
VERDE
  6
CONTINUOUS
 62
             3
100
AcDbLine
 10
-223.71056172954991
 20
236.55859005411199
 11
-221.12544137789001
 21
237.014416520487
  0
LINE
  5
1D4
100
AcDbEntity
  8
VERDE
  6
CONTINUOUS
 62
             3
100
AcDbLine
 10
-223.58118456592999
 20
235.82485569823999
 11
-220.9960642142801
 21
236.280682164616
  0
LINE
  5
1D3
100
AcDbEntity
  8
VERDE
  6
CONTINUOUS
 62
             3
100
AcDbLine
 10
-223.08152120594991
 20
232.99112396882501
 11
-218.6868166081301
 21
233.76602896166401
  0
LINE
  5
1D2
100
AcDbEntity
  8
VERDE
  6
CONTINUOUS
 62
             3
100
AcDbLine
 10
-212.35315060054
 20
234.12627812509299
 11
-195.54986831477001
 21
237.089150156535
  0
LINE
  5
1D1
100
AcDbEntity
  8
VERDE
  6
CONTINUOUS
 62
             3
100
AcDbLine
 10
-212.48252776415009
 20
234.860012480965
 11
-195.6792454783799
 21
237.822884512407
  0
LINE
  5
1D0
100
AcDbEntity
  8
VERDE
  6
CONTINUOUS
 62
             3
100
AcDbLine
 10
-211.17260687798009
 20
238.01282273684299
 11
-196.17890883837001
 21
240.65661624182201
  0
LINE
  5
1CF
100
AcDbEntity
  8
VERDE
  6
CONTINUOUS
 62
             3
100
AcDbLine
 10
-194.19276780772
 20
238.51604043391399
 11
-195.6792454783799
 21
237.822884512407
  0
ENDBLK
  5
5FE
100
AcDbEntity
  8
0
100
AcDbBlockEnd
  0
BLOCK
  5
39
100
AcDbEntity
  8
0
100
AcDbBlockBegin
  2
WANNENK_RPER
 70
             0
 10
-285.26638479091002
 20
0.01222962132181
 30
0.0
  3
WANNENK_RPER
  1

  0
HATCH
  5
62A
100
AcDbEntity
  8
1
  6
CONTINUOUS
 62
             3
100
AcDbHatch
 10
0.0
 20
0.0
 30
0.0
210
0.0
220
0.0
230
1.0
  2
USER
 70
             0
 71
             1
 91
        1
 92
        1
 93
       12
 72
             1
 10
-195.88938319689871
 20
343.17639584888718
 11
-203.08076296338999
 21
383.96073717655003
 72
             2
 10
-217.85287925857011
 20
381.35601451154611
 40
14.999999999997046
 50
10.00000000000185
 51
90.0
 73
             1
 72
             1
 10
-217.85287925857011
 20
396.35601451154611
 11
-275.26638479091002
 21
396.35601451154611
 72
             2
 10
-275.26638479091002
 20
386.35601451154611
 40
10.0
 50
90.0
 51
180.0
 73
             1
 72
             1
 10
-285.26638479091002
 20
386.35601451154611
 11
-285.26638479091002
 21
356.35601451154611
 72
             1
 10
-285.26638479091002
 20
356.35601451154611
 11
-280.76638479091002
 21
356.35601451154611
 72
             1
 10
-280.76638479091002
 20
356.35601451154611
 11
-280.76638479091002
 21
386.35601451154503
 72
             2
 10
-275.26638479091002
 20
386.35601451154611
 40
5.4999999999988063
 50
179.99999999998875
 51
-90.0
 73
             0
 72
             1
 10
-275.26638479091002
 20
391.85601451154491
 11
-216.83745264668011
 21
391.85601451154491
 72
             2
 10
-216.83745264668011
 20
381.35601451154503
 40
10.499999999992065
 50
-90.0
 51
-10.00000000000806
 73
             0
 72
             1
 10
-206.49697124005999
 20
383.17932037704787
 11
-199.33621033244299
 21
342.5686272270525
 72
             1
 10
-199.33621033244299
 20
342.5686272270525
 11
-195.88938319689871
 21
343.17639584888718
 97
       12
330
614
330
619
330
603
330
616
330
600
330
601
330
5FF
330
617
330
602
330
618
330
615
330
605
 75
             1
 76
             0
 52
45.0
 41
5.0
 77
             0
 78
             1
 53
45.0
 43
0.0
 44
0.0
 45
-3.5355339059327373
 46
3.5355339059327378
 79
             0
 98
        1
 10
0.0
 20
0.0
  0
HATCH
  5
629
100
AcDbEntity
  8
1
  6
CONTINUOUS
 62
             3
100
AcDbHatch
 10
0.0
 20
0.0
 30
0.0
210
0.0
220
0.0
230
1.0
  2
USER
 70
             0
 71
             1
 91
        1
 92
        1
 93
       12
 72
             1
 10
-186.85967795821699
 20
291.96639269225261
 11
-190.30650509376181
 21
291.3586240704177
 72
             1
 10
-190.30650509376181
 20
291.3586240704177
 11
-153.40684404428001
 21
82.09024721047399
 72
             2
 10
-57.65140611900005
 20
105.55079468147601
 40
98.587530549767195
 50
-166.23343673372676
 51
-91.56417477276035
 73
             1
 72
             1
 10
-60.342511384629923
 20
6.9999999999989768
 11
-42.625632782549921
 21
6.9999999999989768
 72
             2
 10
-42.625632782549921
 20
4.5
 40
2.4999999999999827
 50
-90.0
 51
-51.37516712690997
 73
             0
 72
             2
 10
-22.65064842711012
 20
29.5
 40
29.50000000000103
 50
-128.6248328730523
 51
-94.56781784343062
 73
             1
 72
             1
 10
-24.999999999999989
 20
4.6106338532509881
 11
-24.999999999999989
 21
0.0936988523390028
 72
             2
 10
-22.65064842711012
 20
29.5
 40
25.000000000001496
 50
-128.01227954435112
 51
-95.39227377827017
 73
             1
 72
             2
 10
-42.973049860009937
 20
3.4999999999989768
 40
7.9999999999982272
 50
51.98772045566147
 51
90.0
 73
             1
 72
             1
 10
-42.973049860009937
 20
11.49999999999898
 11
-61.357937996509911
 21
11.49999999999898
 72
             2
 10
-56.347651801690063
 20
108.441973357287
 40
97.071361204830993
 50
92.9586055395522
 51
164.72704982493914
 73
             0
 72
             1
 10
-149.99063576761
 20
82.871664009975007
 11
-186.85967795821699
 21
291.96639269225261
 97
       12
330
606
330
608
330
61A
330
60A
330
61C
330
627
330
60B
330
626
330
61D
330
609
330
61B
330
604
 75
             1
 76
             0
 52
45.0
 41
5.0
 77
             0
 78
             1
 53
45.0
 43
0.0
 44
0.0
 45
-3.5355339059327373
 46
3.5355339059327378
 79
             0
 98
        1
 10
0.0
 20
0.0
  0
HATCH
  5
628
100
AcDbEntity
  8
1
  6
CONTINUOUS
 62
             3
100
AcDbHatch
 10
0.0
 20
0.0
 30
0.0
210
0.0
220
0.0
230
1.0
  2
USER
 70
             0
 71
             1
 91
        1
 92
        1
 93
        8
 72
             1
 10
133.47546172291999
 20
11.49999999999898
 11
42.973049859999961
 21
11.49999999999898
 72
             2
 10
42.973049859999961
 20
3.4999999999989768
 40
8.0000000000000036
 50
90.0
 51
128.01227954433406
 73
             1
 72
             2
 10
22.65064842709991
 20
29.5
 40
25.000000000000476
 50
51.98772045564703
 51
84.6077262217065
 73
             0
 72
             1
 10
25.000000000000011
 20
4.6106338532509881
 11
25.000000000000011
 21
0.0936988523390028
 72
             2
 10
22.65064842709991
 20
29.5
 40
29.500000000000281
 50
-85.43218215654957
 51
-51.37516712694615
 73
             1
 72
             2
 10
42.625632782529927
 20
4.5
 40
2.4999999999989768
 50
-128.62483287289626
 51
-90.0
 73
             0
 72
             1
 10
42.625632782529927
 20
6.9999999999989768
 11
133.47546172291999
 21
6.9999999999989768
 72
             1
 10
133.47546172291999
 20
6.9999999999989768
 11
133.47546172291999
 21
11.49999999999898
 97
        8
330
60C
330
621
330
623
330
610
330
620
330
622
330
60F
330
60E
 75
             1
 76
             0
 52
45.0
 41
5.0
 77
             0
 78
             1
 53
45.0
 43
0.0
 44
0.0
 45
-3.5355339059327373
 46
3.5355339059327378
 79
             0
 98
        1
 10
0.0
 20
0.0
  0
ARC
  5
627
102
{ACAD_REACTORS
330
629
102
}
100
AcDbEntity
  8
0
  6
CONTINUOUS
 62
             7
100
AcDbCircle
 10
-22.65064842711012
 20
29.5
 40
29.50000000000103
100
AcDbArc
 50
-128.6248328730523
 51
-94.56781784343062
  0
ARC
  5
626
102
{ACAD_REACTORS
330
629
102
}
100
AcDbEntity
  8
0
  6
CONTINUOUS
 62
             7
100
AcDbCircle
 10
-22.65064842711012
 20
29.5
 40
25.0000000000015
100
AcDbArc
 50
-128.01227954435112
 51
-95.39227377827017
  0
ARC
  5
625
100
AcDbEntity
  8
0
  6
CONTINUOUS
 62
             7
100
AcDbCircle
 10
22.65064842709991
 20
29.5
 40
29.5000000000004
100
AcDbArc
 50
-88.18924011615046
 51
-85.43218215654957
  0
ARC
  5
624
100
AcDbEntity
  8
0
  6
CONTINUOUS
 62
             7
100
AcDbCircle
 10
22.65064842709991
 20
29.5
 40
25.0000000000008
100
AcDbArc
 50
-88.05305492014091
 51
-84.6077262217065
  0
ARC
  5
623
102
{ACAD_REACTORS
330
628
102
}
100
AcDbEntity
  8
0
  6
CONTINUOUS
 62
             7
100
AcDbCircle
 10
22.65064842709991
 20
29.5
 40
25.00000000000048
100
AcDbArc
 50
-84.6077262217065
 51
-51.98772045564703
  0
ARC
  5
622
102
{ACAD_REACTORS
330
628
102
}
100
AcDbEntity
  8
0
  6
CONTINUOUS
 62
             7
100
AcDbCircle
 10
42.62563278252993
 20
4.5
 40
2.49999999999898
100
AcDbArc
 50
90.0
 51
128.62483287289626
  0
ARC
  5
621
102
{ACAD_REACTORS
330
628
102
}
100
AcDbEntity
  8
0
  6
CONTINUOUS
 62
             7
100
AcDbCircle
 10
42.97304985999996
 20
3.49999999999898
 40
8.0
100
AcDbArc
 50
90.0
 51
128.01227954433406
  0
ARC
  5
620
102
{ACAD_REACTORS
330
628
102
}
100
AcDbEntity
  8
0
  6
CONTINUOUS
 62
             7
100
AcDbCircle
 10
22.65064842709991
 20
29.5
 40
29.50000000000028
100
AcDbArc
 50
-85.43218215654957
 51
-51.37516712694615
  0
ARC
  5
61F
100
AcDbEntity
  8
0
  6
CONTINUOUS
 62
             7
100
AcDbCircle
 10
-22.65064842711012
 20
29.5
 40
29.49999999999947
100
AcDbArc
 50
-94.56781784343062
 51
-91.6498639448053
  0
ARC
  5
61E
100
AcDbEntity
  8
0
  6
CONTINUOUS
 62
             7
100
AcDbCircle
 10
-22.65064842711012
 20
29.5
 40
24.99999999999952
100
AcDbArc
 50
-95.39227377827017
 51
-91.94694507983569
  0
ARC
  5
61D
102
{ACAD_REACTORS
330
629
102
}
100
AcDbEntity
  8
0
  6
CONTINUOUS
 62
             7
100
AcDbCircle
 10
-42.97304986000994
 20
3.49999999999898
 40
7.99999999999823
100
AcDbArc
 50
51.98772045566147
 51
90.0
  0
ARC
  5
61C
102
{ACAD_REACTORS
330
629
102
}
100
AcDbEntity
  8
0
  6
CONTINUOUS
 62
             7
100
AcDbCircle
 10
-42.62563278254992
 20
4.5
 40
2.49999999999998
100
AcDbArc
 50
51.37516712690997
 51
90.0
  0
ARC
  5
61B
102
{ACAD_REACTORS
330
629
102
}
100
AcDbEntity
  8
0
  6
CONTINUOUS
 62
             7
100
AcDbCircle
 10
-56.34765180169006
 20
108.441973357287
 40
97.07136120483099
100
AcDbArc
 50
-164.72704982493914
 51
-92.9586055395522
  0
ARC
  5
61A
102
{ACAD_REACTORS
330
629
102
}
100
AcDbEntity
  8
0
  6
CONTINUOUS
 62
             7
100
AcDbCircle
 10
-57.65140611900005
 20
105.55079468147601
 40
98.5875305497672
100
AcDbArc
 50
-166.23343673372676
 51
-91.56417477276035
  0
ARC
  5
619
102
{ACAD_REACTORS
330
62A
102
}
100
AcDbEntity
  8
0
  6
CONTINUOUS
 62
             7
100
AcDbCircle
 10
-217.85287925857011
 20
381.35601451154611
 40
14.99999999999705
100
AcDbArc
 50
10.00000000000185
 51
90.0
  0
ARC
  5
618
102
{ACAD_REACTORS
330
62A
102
}
100
AcDbEntity
  8
0
  6
CONTINUOUS
 62
             7
100
AcDbCircle
 10
-216.83745264668011
 20
381.35601451154503
 40
10.49999999999207
100
AcDbArc
 50
10.00000000000806
 51
90.0
  0
ARC
  5
617
102
{ACAD_REACTORS
330
62A
102
}
100
AcDbEntity
  8
0
  6
CONTINUOUS
 62
             7
100
AcDbCircle
 10
-275.26638479091002
 20
386.35601451154611
 40
5.49999999999881
100
AcDbArc
 50
90.0
 51
-179.99999999998875
  0
ARC
  5
616
102
{ACAD_REACTORS
330
62A
102
}
100
AcDbEntity
  8
0
  6
CONTINUOUS
 62
             7
100
AcDbCircle
 10
-275.26638479091002
 20
386.35601451154611
 40
10.0
100
AcDbArc
 50
90.0
 51
180.0
  0
LINE
  5
615
102
{ACAD_REACTORS
330
62A
102
}
100
AcDbEntity
  8
0
  6
CONTINUOUS
 62
             7
100
AcDbLine
 10
-199.33621033244299
 20
342.5686272270525
 11
-206.49697124005999
 21
383.17932037704787
  0
LINE
  5
614
102
{ACAD_REACTORS
330
62A
102
}
100
AcDbEntity
  8
0
  6
CONTINUOUS
 62
             7
100
AcDbLine
 10
-195.88938319689871
 20
343.17639584888718
 11
-203.08076296338999
 21
383.96073717655003
  0
LINE
  5
613
100
AcDbEntity
  8
0
  6
CONTINUOUS
 62
             7
100
AcDbLine
 10
-190.30650509376181
 20
291.3586240704177
 11
-192.1698615165501
 21
301.92624347444303
  0
LINE
  5
612
100
AcDbEntity
  8
0
  6
CONTINUOUS
 62
             7
100
AcDbLine
 10
-186.85967795821699
 20
291.96639269225261
 11
-195.88938319689871
 21
343.17639584888718
  0
LINE
  5
611
100
AcDbEntity
  8
1
  6
CONTINUOUS
 62
             7
100
AcDbLine
 10
-199.33621033243779
 20
342.56862722705341
 11
-193.67369884835011
 21
310.45492879396699
  0
LINE
  5
610
102
{ACAD_REACTORS
330
628
102
}
100
AcDbEntity
  8
0
  6
CONTINUOUS
 62
             7
100
AcDbLine
 10
25.00000000000001
 20
4.61063385325099
 11
25.00000000000001
 21
0.093698852339
  0
LINE
  5
60F
102
{ACAD_REACTORS
330
628
102
}
100
AcDbEntity
  8
0
  6
CONTINUOUS
 62
             7
100
AcDbLine
 10
42.62563278252993
 20
6.99999999999898
 11
133.47546172291999
 21
6.99999999999898
  0
LINE
  5
60E
102
{ACAD_REACTORS
330
628
102
}
100
AcDbEntity
  8
0
  6
CONTINUOUS
 62
             7
100
AcDbLine
 10
133.47546172291999
 20
11.49999999999898
 11
133.47546172291999
 21
6.99999999999898
  0
LINE
  5
60D
100
AcDbEntity
  8
0
  6
CONTINUOUS
 62
             7
100
AcDbLine
 10
133.47546172291999
 20
6.99999999999898
 11
133.47546172291999
 21
6.99999999999898
  0
LINE
  5
60C
102
{ACAD_REACTORS
330
628
102
}
100
AcDbEntity
  8
0
  6
CONTINUOUS
 62
             7
100
AcDbLine
 10
42.97304985999996
 20
11.49999999999898
 11
133.47546172291999
 21
11.49999999999898
  0
LINE
  5
60B
102
{ACAD_REACTORS
330
629
102
}
100
AcDbEntity
  8
0
  6
CONTINUOUS
 62
             7
100
AcDbLine
 10
-24.99999999999999
 20
4.61063385325099
 11
-24.99999999999999
 21
0.093698852339
  0
LINE
  5
60A
102
{ACAD_REACTORS
330
629
102
}
100
AcDbEntity
  8
0
  6
CONTINUOUS
 62
             7
100
AcDbLine
 10
-60.34251138462992
 20
6.99999999999898
 11
-42.62563278254992
 21
6.99999999999898
  0
LINE
  5
609
102
{ACAD_REACTORS
330
629
102
}
100
AcDbEntity
  8
0
  6
CONTINUOUS
 62
             7
100
AcDbLine
 10
-61.35793799650991
 20
11.49999999999898
 11
-42.97304986000994
 21
11.49999999999898
  0
LINE
  5
608
102
{ACAD_REACTORS
330
629
102
}
100
AcDbEntity
  8
0
  6
CONTINUOUS
 62
             7
100
AcDbLine
 10
-153.40684404428001
 20
82.09024721047399
 11
-190.30650509376181
 21
291.3586240704177
  0
LINE
  5
607
100
AcDbEntity
  8
1
  6
CONTINUOUS
 62
             7
100
AcDbLine
 10
-192.1698615165501
 20
301.92624347444303
 11
-188.48319922824999
 21
281.01814266378989
  0
LINE
  5
606
102
{ACAD_REACTORS
330
629
102
}
100
AcDbEntity
  8
0
  6
CONTINUOUS
 62
             7
100
AcDbLine
 10
-186.85967795821699
 20
291.96639269225261
 11
-190.30650509376181
 21
291.3586240704177
  0
LINE
  5
605
102
{ACAD_REACTORS
330
62A
102
}
100
AcDbEntity
  8
0
  6
CONTINUOUS
 62
             7
100
AcDbLine
 10
-195.88938319689871
 20
343.17639584888718
 11
-199.33621033244299
 21
342.5686272270525
  0
LINE
  5
604
102
{ACAD_REACTORS
330
629
102
}
100
AcDbEntity
  8
0
  6
CONTINUOUS
 62
             7
100
AcDbLine
 10
-149.99063576761
 20
82.87166400997501
 11
-186.85967795821699
 21
291.96639269225261
  0
LINE
  5
603
102
{ACAD_REACTORS
330
62A
102
}
100
AcDbEntity
  8
0
  6
CONTINUOUS
 62
             7
100
AcDbLine
 10
-217.85287925857011
 20
396.35601451154611
 11
-275.26638479091002
 21
396.35601451154611
  0
LINE
  5
602
102
{ACAD_REACTORS
330
62A
102
}
100
AcDbEntity
  8
0
  6
CONTINUOUS
 62
             7
100
AcDbLine
 10
-216.83745264668011
 20
391.85601451154491
 11
-275.26638479091002
 21
391.85601451154491
  0
LINE
  5
601
102
{ACAD_REACTORS
330
62A
102
}
100
AcDbEntity
  8
0
  6
CONTINUOUS
 62
             7
100
AcDbLine
 10
-280.76638479091002
 20
356.35601451154611
 11
-285.26638479091002
 21
356.35601451154611
  0
LINE
  5
600
102
{ACAD_REACTORS
330
62A
102
}
100
AcDbEntity
  8
0
  6
CONTINUOUS
 62
             7
100
AcDbLine
 10
-285.26638479091002
 20
386.35601451154611
 11
-285.26638479091002
 21
356.35601451154611
  0
LINE
  5
5FF
102
{ACAD_REACTORS
330
62A
102
}
100
AcDbEntity
  8
0
  6
CONTINUOUS
 62
             7
100
AcDbLine
 10
-280.76638479091002
 20
386.35601451154503
 11
-280.76638479091002
 21
356.35601451154611
  0
ENDBLK
  5
62B
100
AcDbEntity
  8
0
100
AcDbBlockEnd
  0
BLOCK
  5
3B
100
AcDbEntity
  8
0
100
AcDbBlockBegin
  2
01074D_VENTILDICHTUNG
 70
             0
 10
21654.467404743089
 20
32341.61112951846
 30
0.0
  3
01074D_VENTILDICHTUNG
  1

  0
ARC
  5
63C
100
AcDbEntity
  8
1
  6
CONTINUOUS
 62
             7
100
AcDbCircle
 10
22629.21872249998
 20
32326.394860216998
 40
0.5
100
AcDbArc
 50
90.0
 51
180.0
  0
ARC
  5
63B
100
AcDbEntity
  8
1
  6
CONTINUOUS
 62
             7
100
AcDbCircle
 10
22581.218722500009
 20
32326.394860216998
 40
0.5
100
AcDbArc
 50
0.0
 51
90.0
  0
ARC
  5
63A
100
AcDbEntity
  8
0
  6
CONTINUOUS
 62
             7
100
AcDbCircle
 10
22641.724834500012
 20
32316.50611200001
 40
0.99388799999724
100
AcDbArc
 50
0.0
 51
90.0
  0
ARC
  5
639
100
AcDbEntity
  8
0
  6
CONTINUOUS
 62
             7
100
AcDbCircle
 10
22568.712610499999
 20
32316.50611200001
 40
0.99388799998997
100
AcDbArc
 50
90.0
 51
180.0
  0
LINE
  5
638
100
AcDbEntity
  8
1
  6
PHANTOM
 62
             2
100
AcDbLine
 10
22605.218722499991
 20
32317.5
 11
22605.218722499991
 21
32326.394860216998
  0
LINE
  5
637
100
AcDbEntity
  8
0
  6
CONTINUOUS
 62
             7
100
AcDbLine
 10
22642.718722500009
 20
32310.5
 11
22642.718722500009
 21
32316.50611200001
  0
LINE
  5
636
100
AcDbEntity
  8
1
  6
CONTINUOUS
 62
             7
100
AcDbLine
 10
22628.71872249998
 20
32326.394860216998
 11
22628.71872249998
 21
32317.5
  0
LINE
  5
635
100
AcDbEntity
  8
VERDE
  6
CONTINUOUS
 62
             7
100
AcDbLine
 10
22641.724834500012
 20
32317.5
 11
22581.718722500009
 21
32317.5
  0
LINE
  5
634
100
AcDbEntity
  8
VERDE
  6
CONTINUOUS
 62
             7
100
AcDbLine
 10
22642.718722500009
 20
32310.5
 11
22567.718722500009
 21
32310.5
  0
LINE
  5
633
100
AcDbEntity
  8
1
  6
CONTINUOUS
 62
             7
100
AcDbLine
 10
22641.21872249998
 20
32328.394860216998
 11
22569.218722500009
 21
32328.394860216998
  0
LINE
  5
632
100
AcDbEntity
  8
1
  6
CONTINUOUS
 62
             7
100
AcDbLine
 10
22581.218722500009
 20
32326.894860216998
 11
22641.21872249998
 21
32326.894860216998
  0
LINE
  5
631
100
AcDbEntity
  8
1
  6
CONTINUOUS
 62
             7
100
AcDbLine
 10
22641.21872249998
 20
32326.894860216998
 11
22641.21872249998
 21
32328.394860216998
  0
LINE
  5
630
100
AcDbEntity
  8
1
  6
CONTINUOUS
 62
             7
100
AcDbLine
 10
22569.218722500009
 20
32328.394860216998
 11
22569.218722500009
 21
32326.894860216998
  0
LINE
  5
62F
100
AcDbEntity
  8
1
  6
CONTINUOUS
 62
             7
100
AcDbLine
 10
22569.218722500009
 20
32326.894860216998
 11
22581.218722500009
 21
32326.894860216998
  0
LINE
  5
62E
100
AcDbEntity
  8
VERDE
  6
CONTINUOUS
 62
             7
100
AcDbLine
 10
22581.718722500009
 20
32317.5
 11
22568.712610499999
 21
32317.5
  0
LINE
  5
62D
100
AcDbEntity
  8
1
  6
CONTINUOUS
 62
             7
100
AcDbLine
 10
22581.718722500009
 20
32317.5
 11
22581.718722500009
 21
32326.394860216998
  0
LINE
  5
62C
100
AcDbEntity
  8
0
  6
CONTINUOUS
 62
             7
100
AcDbLine
 10
22567.718722500009
 20
32316.50611200001
 11
22567.718722500009
 21
32310.5
  0
ENDBLK
  5
63D
100
AcDbEntity
  8
0
100
AcDbBlockEnd
  0
BLOCK
  5
3D
100
AcDbEntity
  8
0
100
AcDbBlockBegin
  2
01011D__BERLAUFDICHTUNG
 70
             0
 10
-207.73441477018989
 20
278.90462175594303
 30
0.0
  3
01011D__BERLAUFDICHTUNG
  1

  0
ARC
  5
648
100
AcDbEntity
  8
0
  6
CONTINUOUS
 62
             7
100
AcDbCircle
 10
-202.14432395094991
 20
352.73546045601398
 40
0.99999999999747
100
AcDbArc
 50
9.99999999996784
 51
100.00000000018635
  0
ARC
  5
647
100
AcDbEntity
  8
0
  6
CONTINUOUS
 62
             7
100
AcDbCircle
 10
-189.46800698127001
 20
280.84449448612293
 40
1.0000000000013
100
AcDbArc
 50
-79.99999999983932
 51
9.99999999992405
  0
LINE
  5
646
100
AcDbEntity
  8
0
  6
CONTINUOUS
 62
             7
100
AcDbLine
 10
-198.76058872515
 20
316.26903293806703
 11
-199.0210609916501
 21
317.74624456758602
  0
LINE
  5
645
100
AcDbEntity
  8
0
  6
CONTINUOUS
 62
             7
100
AcDbLine
 10
-200.96213584117999
 20
314.35770086438208
 11
-194.5608854466
 21
315.48641401921702
  0
LINE
  5
644
100
AcDbEntity
  8
0
  6
CONTINUOUS
 62
             7
100
AcDbLine
 10
-207.73441477018989
 20
352.76520323185798
 11
-194.71080144517009
 21
278.90462175594303
  0
LINE
  5
643
100
AcDbEntity
  8
0
  6
CONTINUOUS
 62
             7
100
AcDbLine
 10
-201.48308037417999
 20
317.31212412341802
 11
-195.08182997960009
 21
318.44083727825313
  0
LINE
  5
642
100
AcDbEntity
  8
0
  6
CONTINUOUS
 62
             7
100
AcDbLine
 10
-198.76058872515
 20
316.26903293806703
 11
-198.5001164586499
 21
314.791821308549
  0
LINE
  5
641
100
AcDbEntity
  8
GIALLO
  6
CONTINUOUS
 62
             2
100
AcDbLine
 10
-195.54569319961001
 20
315.31276584155
 11
-189.3811828924299
 21
280.35209060961608
  0
LINE
  5
640
100
AcDbEntity
  8
0
  6
CONTINUOUS
 62
             7
100
AcDbLine
 10
-189.29435880360009
 20
279.85968673310992
 11
-194.71080144517009
 21
278.90462175594303
  0
LINE
  5
63F
100
AcDbEntity
  8
GIALLO
  6
CONTINUOUS
 62
             2
100
AcDbLine
 10
-196.06663773260991
 20
318.26718910058611
 11
-202.23114803979001
 21
353.22786433252003
  0
LINE
  5
63E
100
AcDbEntity
  8
0
  6
CONTINUOUS
 62
             7
100
AcDbLine
 10
-202.31797212862011
 20
353.72026820902602
 11
-207.73441477018989
 21
352.76520323185798
  0
ENDBLK
  5
649
100
AcDbEntity
  8
0
100
AcDbBlockEnd
  0
BLOCK
  5
3F
100
AcDbEntity
  8
0
100
AcDbBlockBegin
  2
0555N_1E_DICHTUNGSSET
 70
             0
 10
-207.73441477018989
 20
-7.0
 30
0.0
  3
0555N_1E_DICHTUNGSSET
  1

  0
INSERT
  5
40
100
AcDbEntity
  8
1
100
AcDbBlockReference
  2
01074D_VENTILDICHTUNG
 10
-950.7513177569017
 20
24.11112951846008
  0
INSERT
  5
41
100
AcDbEntity
  8
1
100
AcDbBlockReference
  2
01011D__BERLAUFDICHTUNG
 10
-207.73441477018989
 20
278.90462175594303
  0
ENDBLK
  5
64A
100
AcDbEntity
  8
0
100
AcDbBlockEnd
  0
BLOCK
  5
64D
100
AcDbEntity
  8
0
100
AcDbBlockBegin
  2
*D10
 70
             1
 10
0.0
 20
0.0
 30
0.0
  3
*D10
  1

  0
LINE
  5
64E
100
AcDbEntity
  8
0
  6
CONTINUOUS
 62
             4
100
AcDbLine
 10
-25.99999999999999
 20
30.96019415386365
 11
26.0
 21
30.96019415386365
  0
LINE
  5
64F
100
AcDbEntity
  8
0
  6
CONTINUOUS
 62
             4
100
AcDbLine
 10
26.0
 20
30.96019415386365
 11
75.38051323245669
 21
30.96019415386365
  0
LINE
  5
650
100
AcDbEntity
  8
0
  6
CONTINUOUS
 62
             4
100
AcDbLine
 10
-25.99999999999999
 20
20.96019415386365
 11
-25.99999999999999
 21
32.96019415386365
  0
LINE
  5
651
100
AcDbEntity
  8
0
  6
CONTINUOUS
 62
             4
100
AcDbLine
 10
26.0
 20
20.96019415386365
 11
26.0
 21
32.96019415386365
  0
SOLID
  5
652
100
AcDbEntity
  8
0
 62
             4
100
AcDbTrace
 10
14.0
 20
29.3803641828149
 11
14.0
 21
32.5400241249124
 12
26.0
 22
30.96019415386365
 13
26.0
 23
30.96019415386365
  0
SOLID
  5
653
100
AcDbEntity
  8
0
 62
             4
100
AcDbTrace
 10
-13.99999999999999
 20
32.5400241249124
 11
-13.99999999999999
 21
29.3803641828149
 12
-25.99999999999999
 22
30.96019415386365
 13
-25.99999999999999
 23
30.96019415386365
  0
MTEXT
  5
655
100
AcDbEntity
  8
0
 62
             1
100
AcDbMText
 10
47.5405132324856
 20
32.96017030103054
 30
0.0
 40
12.0
 41
0.0
 71
             7
 72
             1
  1
\C1;Ø\C1;52
  7
CONVERTER_1
 11
0.99999999999706
 21
0.00000242406841
 31
0.0
  0
ENDBLK
  5
656
100
AcDbEntity
  8
0
100
AcDbBlockEnd
  0
BLOCK
  5
65A
100
AcDbEntity
  8
0
100
AcDbBlockBegin
  2
*D11
 70
             1
 10
0.0
 20
0.0
 30
0.0
  3
*D11
  1

  0
LINE
  5
65B
100
AcDbEntity
  8
0
  6
CONTINUOUS
 62
             4
100
AcDbLine
 10
-0.00000000001
 20
425.56432109288102
 11
-205.26638479091
 21
425.56432109288102
  0
LINE
  5
65C
100
AcDbEntity
  8
0
  6
CONTINUOUS
 62
             4
100
AcDbLine
 10
-205.26638479091
 20
415.56432109288102
 11
-205.26638479091
 21
427.56432109288102
  0
LINE
  5
65D
100
AcDbEntity
  8
0
  6
CONTINUOUS
 62
             4
100
AcDbLine
 10
-0.00000000001
 20
27.77363434544503
 11
-0.00000000001
 21
427.56432109288102
  0
SOLID
  5
65E
100
AcDbEntity
  8
0
 62
             4
100
AcDbTrace
 10
-12.00000000001001
 20
423.98449112183226
 11
-12.00000000001
 21
427.14415106392977
 12
-0.00000000001
 22
425.56432109288102
 13
-0.00000000001
 23
425.56432109288102
  0
SOLID
  5
65F
100
AcDbEntity
  8
0
 62
             4
100
AcDbTrace
 10
-193.26638479091
 20
427.14415106392977
 11
-193.26638479091
 21
423.98449112183226
 12
-205.26638479091
 22
425.56432109288102
 13
-205.26638479091
 23
425.56432109288102
  0
MTEXT
  5
660
100
AcDbEntity
  8
0
 62
             1
100
AcDbMText
 10
-147.05189256119436
 20
427.56422568154858
 30
0.0
 40
12.0
 41
0.0
 71
             7
 72
             1
  1
\C1;max.\C1;300
  7
CONVERTER_1
 11
0.99999999999706
 21
0.00000242406841
 31
0.0
  0
ENDBLK
  5
661
100
AcDbEntity
  8
0
100
AcDbBlockEnd
  0
BLOCK
  5
665
100
AcDbEntity
  8
0
100
AcDbBlockBegin
  2
*D12
 70
             1
 10
0.0
 20
0.0
 30
0.0
  3
*D12
  1

  0
LINE
  5
666
100
AcDbEntity
  8
0
  6
CONTINUOUS
 62
             4
100
AcDbLine
 10
-157.53917600544131
 20
349.93857209250024
 11
-148.50947076676115
 21
298.72856893586606
  0
LINE
  5
667
100
AcDbEntity
  8
0
  6
CONTINUOUS
 62
             4
100
AcDbLine
 10
-167.38725353556421
 20
348.20209031583079
 11
-155.56956049941689
 21
350.2858684478341
  0
LINE
  5
668
100
AcDbEntity
  8
0
  6
CONTINUOUS
 62
             4
100
AcDbLine
 10
-158.35754829688329
 20
296.99208715919679
 11
-146.53985526073674
 21
299.07586529119993
  0
SOLID
  5
669
100
AcDbEntity
  8
0
 62
             4
100
AcDbTrace
 10
-153.89956906950823
 20
338.39521365184999
 11
-157.01122667736797
 21
337.8465444608575
 12
-157.53917600544131
 22
349.93857209250024
 13
-157.53917600544131
 23
349.93857209250024
  0
SOLID
  5
66A
100
AcDbEntity
  8
0
 62
             4
100
AcDbTrace
 10
-152.14907770269423
 20
310.27192737651632
 11
-149.03742009483449
 21
310.8205965675088
 12
-148.50947076676115
 22
298.72856893586606
 13
-148.50947076676115
 23
298.72856893586606
  0
MTEXT
  5
66B
100
AcDbEntity
  8
0
 62
             1
100
AcDbMText
 10
-153.1520828728919
 20
336.57567153519028
 30
0.0
 40
12.0
 41
0.0
 71
             7
 72
             1
  1
\C1;Ø\C1;52
  7
CONVERTER_1
 11
0.17364817766693
 21
-0.98480775301221
 31
0.0
  0
ENDBLK
  5
66C
100
AcDbEntity
  8
0
100
AcDbBlockEnd
  0
BLOCK
  5
670
100
AcDbEntity
  8
0
100
AcDbBlockBegin
  2
*D13
 70
             1
 10
0.0
 20
0.0
 30
0.0
  3
*D13
  1

  0
LINE
  5
671
100
AcDbEntity
  8
0
  6
CONTINUOUS
 62
             4
100
AcDbLine
 10
147.79536263130444
 20
-53.44073760700984
 11
151.28159234121077
 21
-13.59294968333976
  0
LINE
  5
672
100
AcDbEntity
  8
0
  6
CONTINUOUS
 62
             4
100
AcDbLine
 10
151.28159234121077
 20
-13.59294968333976
 11
157.27822241200758
 21
54.94884566617996
  0
LINE
  5
673
100
AcDbEntity
  8
0
  6
CONTINUOUS
 62
             4
100
AcDbLine
 10
157.75730961222192
 20
-54.31229503448641
 11
145.80297323512096
 21
-53.26642612151451
  0
LINE
  5
674
100
AcDbEntity
  8
0
  6
CONTINUOUS
 62
             4
100
AcDbLine
 10
171.20548630304603
 20
-15.33606453829295
 11
149.28920294502728
 21
-13.41863819784444
  0
SOLID
  5
675
100
AcDbEntity
  8
0
 62
             4
100
AcDbTrace
 10
151.72155011460521
 20
-23.66963937637535
 11
149.09851971286321
 21
-23.44015395213908
 12
151.28159234121077
 22
-13.59294968333976
 13
151.28159234121077
 23
-13.59294968333976
  0
SOLID
  5
676
100
AcDbEntity
  8
0
 62
             4
100
AcDbTrace
 10
147.35540485790997
 20
-43.36404791397425
 11
149.97843525965197
 21
-43.59353333821051
 12
147.79536263130444
 22
-53.44073760700984
 13
147.79536263130444
 23
-53.44073760700984
  0
MTEXT
  5
677
100
AcDbEntity
  8
0
 62
             1
100
AcDbMText
 10
152.54914269354765
 20
23.84264363159449
 30
0.0
 40
10.0
 41
0.0
 71
             7
 72
             1
  1
\C1;DN\C1;40
  7
CONVERTER_1
 11
0.08715574274766
 21
0.99619469809175
 31
0.0
  0
ENDBLK
  5
678
100
AcDbEntity
  8
0
100
AcDbBlockEnd
  0
BLOCK
  5
67C
100
AcDbEntity
  8
0
100
AcDbBlockBegin
  2
*D14
 70
             1
 10
0.0
 20
0.0
 30
0.0
  3
*D14
  1

  0
LINE
  5
67D
100
AcDbEntity
  8
0
  6
CONTINUOUS
 62
             4
100
AcDbLine
 10
207.19358443837859
 20
-68.67560702416043
 11
211.55137157576144
 21
-18.86587211957314
  0
LINE
  5
67E
100
AcDbEntity
  8
0
  6
CONTINUOUS
 62
             4
100
AcDbLine
 10
211.55137157576144
 20
-18.86587211957314
 11
217.86449100740793
 21
53.29341317772617
  0
LINE
  5
67F
100
AcDbEntity
  8
0
  6
CONTINUOUS
 62
             4
100
AcDbLine
 10
217.15553141929601
 20
-69.54716445163692
 11
205.20119504219511
 21
-68.50129553866512
  0
LINE
  5
680
100
AcDbEntity
  8
0
  6
CONTINUOUS
 62
             4
100
AcDbLine
 10
221.513318556679
 20
-19.73742954704972
 11
209.55898217957795
 21
-18.69156063407783
  0
SOLID
  5
681
100
AcDbEntity
  8
0
 62
             4
100
AcDbTrace
 10
211.99132934915588
 20
-28.94256181260873
 11
209.36829894741388
 21
-28.71307638837246
 12
211.55137157576144
 22
-18.86587211957314
 13
211.55137157576144
 23
-18.86587211957314
  0
SOLID
  5
682
100
AcDbEntity
  8
0
 62
             4
100
AcDbTrace
 10
206.75362666498415
 20
-58.59891733112484
 11
209.37665706672615
 21
-58.8284027553611
 12
207.19358443837859
 22
-68.67560702416043
 13
207.19358443837859
 23
-68.67560702416043
  0
MTEXT
  5
683
100
AcDbEntity
  8
0
 62
             1
100
AcDbMText
 10
213.13541128894803
 20
22.18721114314068
 30
0.0
 40
10.0
 41
0.0
 71
             7
 72
             1
  1
\C1;DN\C1;50
  7
CONVERTER_1
 11
0.08715574274766
 21
0.99619469809175
 31
0.0
  0
ENDBLK
  5
684
100
AcDbEntity
  8
0
100
AcDbBlockEnd
  0
BLOCK
  5
688
100
AcDbEntity
  8
0
100
AcDbBlockBegin
  2
*D15
 70
             1
 10
0.0
 20
0.0
 30
0.0
  3
*D15
  1

  0
LINE
  5
689
100
AcDbEntity
  8
0
  6
CONTINUOUS
 62
             4
100
AcDbLine
 10
-179.40341871369799
 20
-18.746160071051
 11
-179.40341871369799
 21
-77.0
  0
LINE
  5
68A
100
AcDbEntity
  8
0
  6
CONTINUOUS
 62
             4
100
AcDbLine
 10
-179.40341871369799
 20
-77.0
 11
-179.40341871369799
 21
-85.0
  0
LINE
  5
68B
100
AcDbEntity
  8
0
  6
CONTINUOUS
 62
             4
100
AcDbLine
 10
-179.40341871369799
 20
-85.0
 11
-179.40341871369799
 21
-105.0
  0
LINE
  5
68C
100
AcDbEntity
  8
0
  6
CONTINUOUS
 62
             4
100
AcDbLine
 10
-50.0
 20
-77.0
 11
-181.40341871369799
 21
-77.0
  0
LINE
  5
68D
100
AcDbEntity
  8
0
  6
CONTINUOUS
 62
             4
100
AcDbLine
 10
-50.0
 20
-85.0
 11
-181.40341871369799
 21
-85.0
  0
SOLID
  5
68E
100
AcDbEntity
  8
0
 62
             4
100
AcDbTrace
 10
-180.71994368957195
 20
-67.0
 11
-178.08689373782403
 21
-67.0
 12
-179.40341871369799
 22
-77.0
 13
-179.40341871369799
 23
-77.0
  0
SOLID
  5
68F
100
AcDbEntity
  8
0
 62
             4
100
AcDbTrace
 10
-178.08689373782403
 20
-95.0
 11
-180.71994368957195
 21
-95.0
 12
-179.40341871369799
 22
-85.0
 13
-179.40341871369799
 23
-85.0
  0
MTEXT
  5
690
100
AcDbEntity
  8
0
 62
             1
100
AcDbMText
 10
-181.40341871369799
 20
-57.946160071051
 30
0.0
 40
10.0
 41
0.0
 71
             7
 72
             1
  1
\C1;Ø\C1;8\C1;-13
  7
CONVERTER_1
 11
0.0
 21
1.0
 31
0.0
  0
ENDBLK
  5
691
100
AcDbEntity
  8
0
100
AcDbBlockEnd
  0
BLOCK
  5
695
100
AcDbEntity
  8
0
100
AcDbBlockBegin
  2
*D16
 70
             1
 10
0.0
 20
0.0
 30
0.0
  3
*D16
  1

  0
LINE
  5
696
100
AcDbEntity
  8
0
  6
CONTINUOUS
 62
             4
100
AcDbLine
 10
-268.76638479091002
 20
0.0
 11
-268.76638479091002
 21
317.9636256487351
  0
LINE
  5
697
100
AcDbEntity
  8
0
  6
CONTINUOUS
 62
             4
100
AcDbLine
 10
-45.65910488589992
 20
0.0
 11
-270.76638479091002
 21
0.0
  0
LINE
  5
698
100
AcDbEntity
  8
0
  6
CONTINUOUS
 62
             4
100
AcDbLine
 10
-258.76638479091002
 20
317.9636256487351
 11
-270.76638479091002
 21
317.9636256487351
  0
SOLID
  5
699
100
AcDbEntity
  8
0
 62
             4
100
AcDbTrace
 10
-270.08290976678398
 20
10.0
 11
-267.44985981503606
 21
10.0
 12
-268.76638479091002
 22
0.0
 13
-268.76638479091002
 23
0.0
  0
SOLID
  5
69A
100
AcDbEntity
  8
0
 62
             4
100
AcDbTrace
 10
-267.44985981503606
 20
307.9636256487351
 11
-270.08290976678398
 21
307.9636256487351
 12
-268.76638479091002
 22
317.9636256487351
 13
-268.76638479091002
 23
317.9636256487351
  0
MTEXT
  5
69B
100
AcDbEntity
  8
0
 62
             1
100
AcDbMText
 10
-270.76638479091002
 20
118.42128314750799
 30
0.0
 40
10.0
 41
0.0
 71
             7
 72
             1
  1
\C1;max.\C1;400
  7
CONVERTER_1
 11
0.0
 21
1.0
 31
0.0
  0
ENDBLK
  5
69C
100
AcDbEntity
  8
0
100
AcDbBlockEnd
  0
BLOCK
  5
6A0
100
AcDbEntity
  8
0
100
AcDbBlockBegin
  2
*D17
 70
             1
 10
0.0
 20
0.0
 30
0.0
  3
*D17
  1

  0
LINE
  5
6A1
100
AcDbEntity
  8
0
  6
CONTINUOUS
 62
             4
100
AcDbLine
 10
275.03730224083102
 20
-100.0
 11
275.03730224083102
 21
0.0
  0
LINE
  5
6A2
100
AcDbEntity
  8
0
  6
CONTINUOUS
 62
             4
100
AcDbLine
 10
115.50000000000003
 20
-100.0
 11
277.03730224083102
 21
-100.0
  0
LINE
  5
6A3
100
AcDbEntity
  8
0
  6
CONTINUOUS
 62
             4
100
AcDbLine
 10
45.65910488589992
 20
0.0
 11
277.03730224083102
 21
0.0
  0
SOLID
  5
6A4
100
AcDbEntity
  8
0
 62
             4
100
AcDbTrace
 10
276.35382721670499
 20
-10.0
 11
273.72077726495706
 21
-10.0
 12
275.03730224083102
 22
0.0
 13
275.03730224083102
 23
0.0
  0
SOLID
  5
6A5
100
AcDbEntity
  8
0
 62
             4
100
AcDbTrace
 10
273.72077726495706
 20
-90.0
 11
276.35382721670499
 21
-90.0
 12
275.03730224083102
 22
-100.0
 13
275.03730224083102
 23
-100.0
  0
MTEXT
  5
6A6
100
AcDbEntity
  8
0
 62
             1
100
AcDbMText
 10
273.03730224083102
 20
-55.5
 30
0.0
 40
10.0
 41
0.0
 71
             7
 72
             1
  1
100
  7
CONVERTER_1
 11
0.0
 21
1.0
 31
0.0
  0
ENDBLK
  5
6A7
100
AcDbEntity
  8
0
100
AcDbBlockEnd
  0
BLOCK
  5
6AB
100
AcDbEntity
  8
0
100
AcDbBlockBegin
  2
*D18
 70
             1
 10
0.0
 20
0.0
 30
0.0
  3
*D18
  1

  0
LINE
  5
6AC
100
AcDbEntity
  8
0
  6
CONTINUOUS
 62
             4
100
AcDbLine
 10
253.48130786769701
 20
-45.0
 11
253.48130786769701
 21
0.0
  0
LINE
  5
6AD
100
AcDbEntity
  8
0
  6
CONTINUOUS
 62
             4
100
AcDbLine
 10
228.25187503782701
 20
-45.0
 11
255.48130786769701
 21
-45.0
  0
LINE
  5
6AE
100
AcDbEntity
  8
0
  6
CONTINUOUS
 62
             4
100
AcDbLine
 10
45.65910488590001
 20
0.0
 11
255.48130786769701
 21
0.0
  0
SOLID
  5
6AF
100
AcDbEntity
  8
0
 62
             4
100
AcDbTrace
 10
254.79783284357097
 20
-10.0
 11
252.16478289182305
 21
-10.0
 12
253.48130786769701
 22
0.0
 13
253.48130786769701
 23
0.0
  0
SOLID
  5
6B0
100
AcDbEntity
  8
0
 62
             4
100
AcDbTrace
 10
252.16478289182305
 20
-35.0
 11
254.79783284357097
 21
-35.0
 12
253.48130786769701
 22
-45.0
 13
253.48130786769701
 23
-45.0
  0
MTEXT
  5
6B1
100
AcDbEntity
  8
0
 62
             1
100
AcDbMText
 10
251.48130786769701
 20
-31.38184507703033
 30
0.0
 40
10.0
 41
0.0
 71
             7
 72
             1
  1
45
  7
CONVERTER_1
 11
0.0
 21
1.0
 31
0.0
  0
ENDBLK
  5
6B2
100
AcDbEntity
  8
0
100
AcDbBlockEnd
  0
ENDSEC
  0
SECTION
  2
ENTITIES
  0
DIMENSION
  5
6B4
100
AcDbEntity
  8
1
100
AcDbDimension
  2
*D18
 10
253.48130786769701
 20
0.0
 11
246.48130786769701
 21
-23.88184507703033
 31
0.0
 53
90.00000000000003
  1
<>
  3
ME10_DIM_8
100
AcDbAlignedDimension
 13
228.25187503782701
 23
-45.0
 14
45.65910488589999
 24
0.0
 50
90.00000000000003
100
AcDbRotatedDimension
  0
DIMENSION
  5
6A9
100
AcDbEntity
  8
1
100
AcDbDimension
  2
*D17
 10
275.03730224083102
 20
0.0
 11
268.03730224083102
 21
-45.0
 31
0.0
 53
90.00000000000003
  1
<>
  3
ME10_DIM_7
100
AcDbAlignedDimension
 13
115.5
 23
-100.0
 14
45.65910488589999
 24
0.0
 50
90.00000000000003
100
AcDbRotatedDimension
  0
DIMENSION
  5
69E
100
AcDbEntity
  8
1
100
AcDbDimension
  2
*D16
 10
-268.76638479091002
 20
0.0
 11
-275.76638479091002
 21
146.09628314750799
 31
0.0
 53
90.0
  1
max.400
  3
ME10_DIM_6
100
AcDbAlignedDimension
 13
-258.76638479091002
 23
317.9636256487351
 14
-45.65910488589997
 24
0.0
 50
90.0
100
AcDbRotatedDimension
  0
DIMENSION
  5
693
100
AcDbEntity
  8
1
100
AcDbDimension
  2
*D15
 10
-179.40341871369799
 20
-77.0
 11
-186.40341871369799
 21
-40.246160071051
 31
0.0
 53
90.0
  1
<>
  3
ME10_DIM_5
100
AcDbAlignedDimension
 13
-50.0
 23
-85.0
 14
-50.0
 24
-77.0
 50
90.0
100
AcDbRotatedDimension
  0
DIMENSION
  5
686
100
AcDbEntity
  8
1
100
AcDbDimension
  2
*D14
 10
211.55137157576144
 20
-18.86587211957314
 11
209.27874687993409
 21
35.47390146226248
 31
0.0
 53
85.00000000000004
  1
<>
  3
ME10_DIM_4
100
AcDbAlignedDimension
 13
217.15553141929601
 23
-69.54716445163695
 14
221.513318556679
 24
-19.73742954704972
 50
85.00000000000004
100
AcDbRotatedDimension
  0
DIMENSION
  5
67A
100
AcDbEntity
  8
1
100
AcDbDimension
  2
*D13
 10
151.28159234121077
 20
-13.59294968333976
 11
148.69247828453371
 21
37.12933395071629
 31
0.0
 53
85.00000000000004
  1
<>
  3
ME10_DIM_3
100
AcDbAlignedDimension
 13
157.75730961222189
 23
-54.3122950344864
 14
171.205486303046
 24
-15.33606453829293
 50
85.00000000000004
100
AcDbRotatedDimension
  0
DIMENSION
  5
66E
100
AcDbEntity
  8
1
100
AcDbDimension
  2
*D12
 10
-157.53917600544131
 20
349.93857209250024
 11
-145.22197156677561
 21
326.15439835612972
 31
0.0
 53
99.99999999999989
  1
<>
  3
ME10_DIM_2
100
AcDbAlignedDimension
 13
-158.35754829688329
 23
296.99208715919679
 14
-167.38725353556421
 24
348.20209031583079
 50
99.99999999999989
100
AcDbRotatedDimension
  0
DIMENSION
  5
663
100
AcDbEntity
  8
1
100
AcDbDimension
  2
*D11
 10
-0.00000000001
 20
425.56432109288102
 11
-113.84189256131
 21
433.56432109288102
 31
0.0
 53
0.00013888888889
  1
max.300
  3
ME10_DIM_1
100
AcDbAlignedDimension
 13
-205.26638479091
 23
415.56432109288102
 14
-0.00000000001
 24
27.77363434544498
100
AcDbRotatedDimension
  0
DIMENSION
  5
658
100
AcDbEntity
  8
1
100
AcDbDimension
  2
*D10
 10
26.0
 20
30.96019415386365
 11
59.1805132324567
 21
38.96019415386365
 31
0.0
 53
180.0
  1
<>
  3
ME10_DIM_0
100
AcDbAlignedDimension
 13
-25.99999999999999
 23
20.96019415386365
 14
26.00000000000001
 24
20.96019415386365
 50
180.0
100
AcDbRotatedDimension
  0
INSERT
  5
44
100
AcDbEntity
  8
1
100
AcDbBlockReference
  2
HL_555N_AB-_BERLAUFGARITUR
 10
-75.89546153399488
 20
160.03543159341299
  0
INSERT
  5
45
100
AcDbEntity
  8
1
100
AcDbBlockReference
  2
0555_5E_SIFON_DN40_50X6_4
 10
-28.50617634786543
 20
-104.7059688505731
  0
INSERT
  5
46
100
AcDbEntity
  8
1
100
AcDbBlockReference
  2
0555_2E__BERLAUFSCHLAUCH
 10
-228.52276154449009
 20
-54.5
  0
INSERT
  5
47
100
AcDbEntity
  8
1
100
AcDbBlockReference
  2
WANNENK_RPER
 10
-285.26638479091002
 20
0.01222962132181
  0
INSERT
  5
48
100
AcDbEntity
  8
1
100
AcDbBlockReference
  2
0555N_1E_DICHTUNGSSET
 10
-207.73441477018989
 20
-7.0
  0
ENDSEC
  0
SECTION
  2
OBJECTS
  0
DICTIONARY
  5
19
100
AcDbDictionary
  3
ACAD_GROUP
350
1A
  3
ACAD_MLINESTYLE
350
1B
  0
DICTIONARY
  5
1A
102
{ACAD_REACTORS
330
19
102
}
100
AcDbDictionary
  0
DICTIONARY
  5
1B
102
{ACAD_REACTORS
330
19
102
}
100
AcDbDictionary
  3
STANDARD
350
1C
  0
MLINESTYLE
  5
1C
102
{ACAD_REACTORS
330
1B
102
}
100
AcDbMlineStyle
  2
STANDARD
 70
             0
  3

 62
             0
 51
90.0
 52
90.0
 71
             2
 49
0.5
 62
           256
  6
BYLAYER
 49
-0.5
 62
           256
  6
BYLAYER
  0
ENDSEC
  0
EOF
