  0
SECTION
  2
HEADER
  9
$ACADVER
  1
AC1015
  9
$ACADMAINTVER
 70
     6
  9
$DWGCODEPAGE
  3
ANSI_1252
  9
$INSBASE
 10
0.0
 20
0.0
 30
0.0
  9
$EXTMIN
 10
261.365004483542
 20
-51.1771966901784
 30
0.0
  9
$EXTMAX
 10
668.12133781311
 20
284.062183755938
 30
0.0
  9
$LIMMIN
 10
0.0
 20
0.0
  9
$LIMMAX
 10
12.0
 20
9.0
  9
$ORTHOMODE
 70
     0
  9
$REGENMODE
 70
     1
  9
$FILLMODE
 70
     1
  9
$QTEXTMODE
 70
     0
  9
$MIRRTEXT
 70
     1
  9
$LTSCALE
 40
1.0
  9
$ATTMODE
 70
     1
  9
$TEXTSIZE
 40
0.2
  9
$TRACEWID
 40
0.05
  9
$TEXTSTYLE
  7
Standard
  9
$CLAYER
  8
0
  9
$CELTYPE
  6
ByLayer
  9
$CECOLOR
 62
   256
  9
$CELTSCALE
 40
1.0
  9
$DISPSILH
 70
     0
  9
$DIMSCALE
 40
1.0
  9
$DIMASZ
 40
0.18
  9
$DIMEXO
 40
0.0625
  9
$DIMDLI
 40
0.38
  9
$DIMRND
 40
0.0
  9
$DIMDLE
 40
0.0
  9
$DIMEXE
 40
0.18
  9
$DIMTP
 40
0.0
  9
$DIMTM
 40
0.0
  9
$DIMTXT
 40
0.18
  9
$DIMCEN
 40
0.09
  9
$DIMTSZ
 40
0.0
  9
$DIMTOL
 70
     0
  9
$DIMLIM
 70
     0
  9
$DIMTIH
 70
     1
  9
$DIMTOH
 70
     1
  9
$DIMSE1
 70
     0
  9
$DIMSE2
 70
     0
  9
$DIMTAD
 70
     0
  9
$DIMZIN
 70
     0
  9
$DIMBLK
  1

  9
$DIMASO
 70
     1
  9
$DIMSHO
 70
     1
  9
$DIMPOST
  1

  9
$DIMAPOST
  1

  9
$DIMALT
 70
     0
  9
$DIMALTD
 70
     2
  9
$DIMALTF
 40
25.4
  9
$DIMLFAC
 40
1.0
  9
$DIMTOFL
 70
     0
  9
$DIMTVP
 40
0.0
  9
$DIMTIX
 70
     0
  9
$DIMSOXD
 70
     0
  9
$DIMSAH
 70
     0
  9
$DIMBLK1
  1

  9
$DIMBLK2
  1

  9
$DIMSTYLE
  2
Standard
  9
$DIMCLRD
 70
     0
  9
$DIMCLRE
 70
     0
  9
$DIMCLRT
 70
     0
  9
$DIMTFAC
 40
1.0
  9
$DIMGAP
 40
0.09
  9
$DIMJUST
 70
     0
  9
$DIMSD1
 70
     0
  9
$DIMSD2
 70
     0
  9
$DIMTOLJ
 70
     1
  9
$DIMTZIN
 70
     0
  9
$DIMALTZ
 70
     0
  9
$DIMALTTZ
 70
     0
  9
$DIMUPT
 70
     0
  9
$DIMDEC
 70
     4
  9
$DIMTDEC
 70
     4
  9
$DIMALTU
 70
     2
  9
$DIMALTTD
 70
     2
  9
$DIMTXSTY
  7
Standard
  9
$DIMAUNIT
 70
     0
  9
$DIMADEC
 70
     0
  9
$DIMALTRND
 40
0.0
  9
$DIMAZIN
 70
     0
  9
$DIMDSEP
 70
    46
  9
$DIMATFIT
 70
     3
  9
$DIMFRAC
 70
     0
  9
$DIMLDRBLK
  1

  9
$DIMLUNIT
 70
     2
  9
$DIMLWD
 70
    -2
  9
$DIMLWE
 70
    -2
  9
$DIMTMOVE
 70
     0
  9
$LUNITS
 70
     2
  9
$LUPREC
 70
     4
  9
$SKETCHINC
 40
0.1
  9
$FILLETRAD
 40
0.5
  9
$AUNITS
 70
     0
  9
$AUPREC
 70
     0
  9
$MENU
  1
.
  9
$ELEVATION
 40
0.0
  9
$PELEVATION
 40
0.0
  9
$THICKNESS
 40
0.0
  9
$LIMCHECK
 70
     0
  9
$CHAMFERA
 40
0.5
  9
$CHAMFERB
 40
0.5
  9
$CHAMFERC
 40
1.0
  9
$CHAMFERD
 40
0.0
  9
$SKPOLY
 70
     0
  9
$TDCREATE
 40
2455386.301389433
  9
$TDUCREATE
 40
2455386.218056099
  9
$TDUPDATE
 40
2455386.301389445
  9
$TDUUPDATE
 40
2455386.218056111
  9
$TDINDWG
 40
0.0000000116
  9
$TDUSRTIMER
 40
0.0000000116
  9
$USRTIMER
 70
     1
  9
$ANGBASE
 50
0.0
  9
$ANGDIR
 70
     0
  9
$PDMODE
 70
     0
  9
$PDSIZE
 40
0.0
  9
$PLINEWID
 40
0.0
  9
$SPLFRAME
 70
     0
  9
$SPLINETYPE
 70
     6
  9
$SPLINESEGS
 70
     8
  9
$HANDSEED
  5
34A
  9
$SURFTAB1
 70
     6
  9
$SURFTAB2
 70
     6
  9
$SURFTYPE
 70
     6
  9
$SURFU
 70
     6
  9
$SURFV
 70
     6
  9
$UCSBASE
  2

  9
$UCSNAME
  2

  9
$UCSORG
 10
0.0
 20
0.0
 30
0.0
  9
$UCSXDIR
 10
1.0
 20
0.0
 30
0.0
  9
$UCSYDIR
 10
0.0
 20
1.0
 30
0.0
  9
$UCSORTHOREF
  2

  9
$UCSORTHOVIEW
 70
     0
  9
$UCSORGTOP
 10
0.0
 20
0.0
 30
0.0
  9
$UCSORGBOTTOM
 10
0.0
 20
0.0
 30
0.0
  9
$UCSORGLEFT
 10
0.0
 20
0.0
 30
0.0
  9
$UCSORGRIGHT
 10
0.0
 20
0.0
 30
0.0
  9
$UCSORGFRONT
 10
0.0
 20
0.0
 30
0.0
  9
$UCSORGBACK
 10
0.0
 20
0.0
 30
0.0
  9
$PUCSBASE
  2

  9
$PUCSNAME
  2

  9
$PUCSORG
 10
0.0
 20
0.0
 30
0.0
  9
$PUCSXDIR
 10
1.0
 20
0.0
 30
0.0
  9
$PUCSYDIR
 10
0.0
 20
1.0
 30
0.0
  9
$PUCSORTHOREF
  2

  9
$PUCSORTHOVIEW
 70
     0
  9
$PUCSORGTOP
 10
0.0
 20
0.0
 30
0.0
  9
$PUCSORGBOTTOM
 10
0.0
 20
0.0
 30
0.0
  9
$PUCSORGLEFT
 10
0.0
 20
0.0
 30
0.0
  9
$PUCSORGRIGHT
 10
0.0
 20
0.0
 30
0.0
  9
$PUCSORGFRONT
 10
0.0
 20
0.0
 30
0.0
  9
$PUCSORGBACK
 10
0.0
 20
0.0
 30
0.0
  9
$USERI1
 70
     0
  9
$USERI2
 70
     0
  9
$USERI3
 70
     0
  9
$USERI4
 70
     0
  9
$USERI5
 70
     0
  9
$USERR1
 40
16.5
  9
$USERR2
 40
0.0
  9
$USERR3
 40
0.0
  9
$USERR4
 40
0.0
  9
$USERR5
 40
0.0
  9
$WORLDVIEW
 70
     1
  9
$SHADEDGE
 70
     3
  9
$SHADEDIF
 70
    70
  9
$TILEMODE
 70
     1
  9
$MAXACTVP
 70
    64
  9
$PINSBASE
 10
0.0
 20
0.0
 30
0.0
  9
$PLIMCHECK
 70
     0
  9
$PEXTMIN
 10
1.00000000000000E+20
 20
1.00000000000000E+20
 30
1.00000000000000E+20
  9
$PEXTMAX
 10
-1.00000000000000E+20
 20
-1.00000000000000E+20
 30
-1.00000000000000E+20
  9
$PLIMMIN
 10
0.0
 20
0.0
  9
$PLIMMAX
 10
12.0
 20
9.0
  9
$UNITMODE
 70
     0
  9
$VISRETAIN
 70
     1
  9
$PLINEGEN
 70
     0
  9
$PSLTSCALE
 70
     1
  9
$TREEDEPTH
 70
  3020
  9
$CMLSTYLE
  2
Standard
  9
$CMLJUST
 70
     0
  9
$CMLSCALE
 40
1.0
  9
$PROXYGRAPHICS
 70
     1
  9
$MEASUREMENT
 70
     1
  9
$CELWEIGHT
370
    -1
  9
$ENDCAPS
280
     0
  9
$JOINSTYLE
280
     0
  9
$LWDISPLAY
290
     0
  9
$INSUNITS
 70
     1
  9
$HYPERLINKBASE
  1

  9
$STYLESHEET
  1

  9
$XEDIT
290
     1
  9
$CEPSNTYPE
380
     0
  9
$PSTYLEMODE
290
     1
  9
$FINGERPRINTGUID
  2
{7D949AFB-5083-4A86-BC43-339DF6E0CC99}
  9
$VERSIONGUID
  2
{FAEB1C32-E019-11D5-929B-00C0DF256EC4}
  9
$EXTNAMES
290
     1
  9
$PSVPSCALE
 40
0.0
  9
$OLESTARTUP
290
     0
  0
ENDSEC
  0
SECTION
  2
CLASSES
  0
CLASS
  1
ACDBDICTIONARYWDFLT
  2
AcDbDictionaryWithDefault
  3
ObjectDBX Classes
 90
        0
280
     0
281
     0
  0
CLASS
  1
VISUALSTYLE
  2
AcDbVisualStyle
  3
ObjectDBX Classes
 90
     4095
280
     0
281
     0
  0
CLASS
  1
SCALE
  2
AcDbScale
  3
ObjectDBX Classes
 90
     1153
280
     0
281
     0
  0
CLASS
  1

  2
exOdDbPolyline
  3

 90
        0
280
     0
281
     1
  0
CLASS
  1
DICTIONARYVAR
  2
AcDbDictionaryVar
  3
ObjectDBX Classes
 90
        0
280
     0
281
     0
  0
CLASS
  1
ACDBPLACEHOLDER
  2
AcDbPlaceHolder
  3
ObjectDBX Classes
 90
        0
280
     0
281
     0
  0
CLASS
  1
LAYOUT
  2
AcDbLayout
  3
ObjectDBX Classes
 90
        0
280
     0
281
     0
  0
ENDSEC
  0
SECTION
  2
TABLES
  0
TABLE
  2
VPORT
  5
8
330
0
100
AcDbSymbolTable
 70
     1
  0
VPORT
  5
29
330
8
100
AcDbSymbolTableRecord
100
AcDbViewportTableRecord
  2
*Active
 70
     0
 10
0.0
 20
0.0
 11
1.0
 21
1.0
 12
464.743171148326
 22
116.4424935328798
 13
0.0
 23
0.0
 14
0.5
 24
0.5
 15
0.5
 25
0.5
 16
0.0
 26
0.0
 36
1.0
 17
0.0
 27
0.0
 37
0.0
 40
368.7633184907281
 41
1.60267857142857
 42
50.0
 43
0.0
 44
0.0
 50
0.0
 51
0.0
 71
     0
 72
   100
 73
     1
 74
     3
 75
     0
 76
     0
 77
     0
 78
     0
281
     0
 65
     1
110
0.0
120
0.0
130
0.0
111
1.0
121
0.0
131
0.0
112
0.0
122
1.0
132
0.0
 79
     0
146
0.0
  0
ENDTAB
  0
TABLE
  2
LTYPE
  5
5
330
0
100
AcDbSymbolTable
 70
     9
  0
LTYPE
  5
14
330
5
100
AcDbSymbolTableRecord
100
AcDbLinetypeTableRecord
  2
ByBlock
 70
     0
  3

 72
    65
 73
     0
 40
0.0
  0
LTYPE
  5
15
330
5
100
AcDbSymbolTableRecord
100
AcDbLinetypeTableRecord
  2
ByLayer
 70
     0
  3

 72
    65
 73
     0
 40
0.0
  0
LTYPE
  5
16
330
5
100
AcDbSymbolTableRecord
100
AcDbLinetypeTableRecord
  2
Continuous
 70
     0
  3
Solid line
 72
    65
 73
     0
 40
0.0
  0
LTYPE
  5
3B
330
5
100
AcDbSymbolTableRecord
100
AcDbLinetypeTableRecord
  2
DASHED
 70
     0
  3
Dashed
 72
    65
 73
     2
 40
15.0
 49
7.0
 74
     0
 49
-8.0
 74
     0
  0
LTYPE
  5
3C
330
5
100
AcDbSymbolTableRecord
100
AcDbLinetypeTableRecord
  2
DOTTED
 70
     0
  3
Dotted
 72
    65
 73
     2
 40
1.0
 49
0.0
 74
     0
 49
-1.0
 74
     0
  0
LTYPE
  5
3D
330
5
100
AcDbSymbolTableRecord
100
AcDbLinetypeTableRecord
  2
DOT_CENTER
 70
     0
  3
Dot_Center
 72
    65
 73
     4
 40
14.0
 49
12.0
 74
     0
 49
-1.0
 74
     0
 49
0.0
 74
     0
 49
-1.0
 74
     0
  0
LTYPE
  5
3E
330
5
100
AcDbSymbolTableRecord
100
AcDbLinetypeTableRecord
  2
LONG_DASHED
 70
     0
  3
Long_Dashed
 72
    65
 73
     2
 40
15.0
 49
10.0
 74
     0
 49
-5.0
 74
     0
  0
LTYPE
  5
3F
330
5
100
AcDbSymbolTableRecord
100
AcDbLinetypeTableRecord
  2
DASH_CENTER
 70
     0
  3
Dash_Center
 72
    65
 73
     4
 40
14.0
 49
11.0
 74
     0
 49
-1.0
 74
     0
 49
1.0
 74
     0
 49
-1.0
 74
     0
  0
LTYPE
  5
40
330
5
100
AcDbSymbolTableRecord
100
AcDbLinetypeTableRecord
  2
PHANTOM
 70
     0
  3
Phantom
 72
    65
 73
     6
 40
13.0
 49
10.0
 74
     0
 49
-1.0
 74
     0
 49
0.0
 74
     0
 49
-1.0
 74
     0
 49
0.0
 74
     0
 49
-1.0
 74
     0
  0
LTYPE
  5
41
330
5
100
AcDbSymbolTableRecord
100
AcDbLinetypeTableRecord
  2
CENTER_DASH_DASH
 70
     0
  3
Center_Dash_Dash
 72
    65
 73
     6
 40
14.0
 49
9.0
 74
     0
 49
-1.0
 74
     0
 49
1.0
 74
     0
 49
-1.0
 74
     0
 49
1.0
 74
     0
 49
-1.0
 74
     0
  0
LTYPE
  5
42
330
5
100
AcDbSymbolTableRecord
100
AcDbLinetypeTableRecord
  2
CENTERX2
 70
     0
  3
CENTERX2
 72
    65
 73
     4
 40
22.0
 49
13.0
 74
     0
 49
-3.0
 74
     0
 49
3.0
 74
     0
 49
-3.0
 74
     0
  0
ENDTAB
  0
TABLE
  2
LAYER
  5
2
330
0
100
AcDbSymbolTable
 70
     2
  0
LAYER
  5
10
330
2
100
AcDbSymbolTableRecord
100
AcDbLayerTableRecord
  2
0
 70
     0
 62
     7
  6
Continuous
370
    -3
390
F
  0
LAYER
  5
43
330
2
100
AcDbSymbolTableRecord
100
AcDbLayerTableRecord
  2
1
 70
     0
 62
     7
  6
Continuous
370
    -3
390
F
  0
ENDTAB
  0
TABLE
  2
STYLE
  5
3
330
0
100
AcDbSymbolTable
 70
     2
  0
STYLE
  5
11
330
3
100
AcDbSymbolTableRecord
100
AcDbTextStyleTableRecord
  2
Standard
 70
     0
 40
0.0
 41
1.0
 50
0.0
 71
     0
 42
0.2
  3
txt
  4

  0
STYLE
  5
2F6
330
3
100
AcDbSymbolTableRecord
100
AcDbTextStyleTableRecord
  2
CONVERTER_11
 70
     0
 40
0.0
 41
0.9
 50
0.0
 71
     0
 42
0.2
  3
txt.shx
  4

  0
ENDTAB
  0
TABLE
  2
VIEW
  5
6
330
0
100
AcDbSymbolTable
 70
     0
  0
ENDTAB
  0
TABLE
  2
UCS
  5
7
330
0
100
AcDbSymbolTable
 70
     0
  0
ENDTAB
  0
TABLE
  2
APPID
  5
9
330
0
100
AcDbSymbolTable
 70
     1
  0
APPID
  5
12
330
9
100
AcDbSymbolTableRecord
100
AcDbRegAppTableRecord
  2
ACAD
 70
     0
  0
ENDTAB
  0
TABLE
  2
DIMSTYLE
  5
A
330
0
100
AcDbSymbolTable
 70
     7
100
AcDbDimStyleTable
  0
DIMSTYLE
105
27
330
A
100
AcDbSymbolTableRecord
100
AcDbDimStyleTableRecord
  2
Standard
 70
     0
340
11
  0
DIMSTYLE
105
2FA
102
{ACAD_REACTORS
330
2FB
102
}
330
A
100
AcDbSymbolTableRecord
100
AcDbDimStyleTableRecord
  2
ME10_DIM_10
 70
     0
 41
10.0
 42
0.0
 44
2.0
 73
     0
 74
     0
 77
     1
 78
     8
140
10.0
147
2.0
172
     1
173
     1
176
     4
177
     4
178
     1
271
     2
340
2F6
  0
DIMSTYLE
105
305
102
{ACAD_REACTORS
330
306
102
}
330
A
100
AcDbSymbolTableRecord
100
AcDbDimStyleTableRecord
  2
ME10_DIM_11
 70
     0
 41
10.0
 42
0.0
 44
2.0
 73
     0
 74
     0
 77
     1
 78
     8
140
10.0
147
2.0
172
     1
173
     1
176
     4
177
     4
178
     1
271
     1
340
2F6
  0
DIMSTYLE
105
310
102
{ACAD_REACTORS
330
311
102
}
330
A
100
AcDbSymbolTableRecord
100
AcDbDimStyleTableRecord
  2
ME10_DIM_12
 70
     0
  3
Ø<>
 41
10.0
 42
0.0
 44
2.0
 73
     0
 74
     0
 77
     1
 78
     8
140
10.0
147
2.0
172
     1
173
     1
176
     4
177
     4
178
     1
271
     0
340
2F6
  0
DIMSTYLE
105
31B
102
{ACAD_REACTORS
330
31C
102
}
330
A
100
AcDbSymbolTableRecord
100
AcDbDimStyleTableRecord
  2
ME10_DIM_13
 70
     0
  3
DN<>
 41
10.0
 42
0.0
 44
2.0
 73
     0
 74
     0
 77
     1
 78
     8
140
10.0
147
2.0
172
     1
173
     1
176
     4
177
     4
178
     1
271
     2
340
2F6
  0
DIMSTYLE
105
326
102
{ACAD_REACTORS
330
327
102
}
330
A
100
AcDbSymbolTableRecord
100
AcDbDimStyleTableRecord
  2
ME10_DIM_14
 70
     0
  3
x150
 41
10.0
 42
0.0
 44
2.0
 73
     0
 74
     0
 77
     1
 78
     8
140
10.0
147
2.0
172
     1
173
     1
176
     4
177
     4
178
     1
271
     2
340
2F6
  0
DIMSTYLE
105
331
102
{ACAD_REACTORS
330
332
102
}
330
A
100
AcDbSymbolTableRecord
100
AcDbDimStyleTableRecord
  2
ME10_DIM_15
 70
     0
  3
Ø<>
 41
10.0
 42
0.0
 44
2.0
 73
     0
 74
     0
 77
     1
 78
     8
140
10.0
147
2.0
172
     1
173
     1
176
     4
177
     4
178
     1
271
     2
340
2F6
  0
ENDTAB
  0
TABLE
  2
BLOCK_RECORD
  5
1
330
0
100
AcDbSymbolTable
 70
     9
  0
BLOCK_RECORD
  5
1F
330
1
100
AcDbSymbolTableRecord
100
AcDbBlockTableRecord
  2
*Model_Space
340
22
  0
BLOCK_RECORD
  5
1B
330
1
100
AcDbSymbolTableRecord
100
AcDbBlockTableRecord
  2
*Paper_Space
340
1E
  0
BLOCK_RECORD
  5
23
330
1
100
AcDbSymbolTableRecord
100
AcDbBlockTableRecord
  2
*Paper_Space0
340
26
  0
BLOCK_RECORD
  5
44
330
1
100
AcDbSymbolTableRecord
100
AcDbBlockTableRecord
  2
HL62BP_2
340
0
102
{BLKREFS
331
6A
102
}
  0
BLOCK_RECORD
  5
47
330
1
100
AcDbSymbolTableRecord
100
AcDbBlockTableRecord
  2
HL_62BP_2_DN125_Dachablauf
340
0
102
{BLKREFS
331
6D
102
}
  0
BLOCK_RECORD
  5
2F0
330
1
100
AcDbSymbolTableRecord
100
AcDbBlockTableRecord
  2
*D3
340
0
  0
BLOCK_RECORD
  5
2FC
330
1
100
AcDbSymbolTableRecord
100
AcDbBlockTableRecord
  2
*D4
340
0
  0
BLOCK_RECORD
  5
307
330
1
100
AcDbSymbolTableRecord
100
AcDbBlockTableRecord
  2
*D5
340
0
  0
BLOCK_RECORD
  5
312
330
1
100
AcDbSymbolTableRecord
100
AcDbBlockTableRecord
  2
*D6
340
0
  0
BLOCK_RECORD
  5
31D
330
1
100
AcDbSymbolTableRecord
100
AcDbBlockTableRecord
  2
*D7
340
0
  0
BLOCK_RECORD
  5
328
330
1
100
AcDbSymbolTableRecord
100
AcDbBlockTableRecord
  2
*D8
340
0
  0
ENDTAB
  0
ENDSEC
  0
SECTION
  2
BLOCKS
  0
BLOCK
  5
20
330
1F
100
AcDbEntity
  8
0
100
AcDbBlockBegin
  2
*Model_Space
 70
     0
 10
0.0
 20
0.0
 30
0.0
  3
*Model_Space
  1

  0
ENDBLK
  5
21
330
1F
100
AcDbEntity
  8
0
100
AcDbBlockEnd
  0
BLOCK
  5
1C
330
1B
100
AcDbEntity
 67
     1
  8
0
100
AcDbBlockBegin
  2
*Paper_Space
 70
     0
 10
0.0
 20
0.0
 30
0.0
  3
*Paper_Space
  1

  0
ENDBLK
  5
1D
330
1B
100
AcDbEntity
 67
     1
  8
0
100
AcDbBlockEnd
  0
BLOCK
  5
24
330
23
100
AcDbEntity
  8
0
100
AcDbBlockBegin
  2
*Paper_Space0
 70
     0
 10
0.0
 20
0.0
 30
0.0
  3
*Paper_Space0
  1

  0
ENDBLK
  5
25
330
23
100
AcDbEntity
  8
0
100
AcDbBlockEnd
  0
BLOCK
  5
45
330
44
100
AcDbEntity
  8
0
100
AcDbBlockBegin
  2
HL62BP_2
 70
     0
 10
464.743171148326
 20
116.4424935328798
 30
0.0
  3
HL62BP_2
  1

  0
POINT
  5
6E
330
44
100
AcDbEntity
  8
0
 62
     7
100
AcDbPoint
 10
414.04633781311
 20
232.9999198817
 30
0.0
  0
POINT
  5
6F
330
44
100
AcDbEntity
  8
0
 62
     7
100
AcDbPoint
 10
562.04633781311
 20
232.9999198817
 30
0.0
  0
POINT
  5
70
330
44
100
AcDbEntity
  8
0
 62
     7
100
AcDbPoint
 10
408.29634081071
 20
159.9999198817
 30
0.0
  0
POINT
  5
71
330
44
100
AcDbEntity
  8
0
 62
     7
100
AcDbPoint
 10
414.04633781311
 20
232.9999198817
 30
0.0
  0
POINT
  5
72
330
44
100
AcDbEntity
  8
0
 62
     7
100
AcDbPoint
 10
668.04633781311
 20
156.5003407684
 30
0.0
  0
POINT
  5
73
330
44
100
AcDbEntity
  8
0
 62
     7
100
AcDbPoint
 10
308.04633781311
 20
156.5003407684
 30
0.0
  0
POINT
  5
74
330
44
100
AcDbEntity
  8
0
 62
     7
100
AcDbPoint
 10
426.88608377531
 20
-0.00000023159998
 30
0.0
  0
POINT
  5
75
330
44
100
AcDbEntity
  8
0
 62
     7
100
AcDbPoint
 10
326.04633781311
 20
159.9999198817
 30
0.0
  0
POINT
  5
76
330
44
100
AcDbEntity
  8
0
 62
     7
100
AcDbPoint
 10
568.14633781311
 20
74.00000176840001
 30
0.0
  0
POINT
  5
77
330
44
100
AcDbEntity
  8
0
 62
     7
100
AcDbPoint
 10
407.94633781311
 20
74.00000176840001
 30
0.0
  0
POINT
  5
78
330
44
100
AcDbEntity
  8
0
 62
     7
100
AcDbPoint
 10
550.54633781311
 20
4.99999976840002
 30
0.0
  0
POINT
  5
79
330
44
100
AcDbEntity
  8
0
 62
     7
100
AcDbPoint
 10
425.54633781311
 20
4.99999976840002
 30
0.0
  0
LINE
  5
7A
330
44
100
AcDbEntity
  8
0
  6
CENTERX2
 62
     7
100
AcDbLine
 10
488.04633781311
 20
235.3757165851
 30
0.0
 11
488.04633781311
 21
-2.00000023159998
 31
0.0
  0
LWPOLYLINE
  5
7B
330
44
100
AcDbEntity
  8
0
  6
Continuous
 62
     7
100
AcDbPolyline
 90
        2
 70
     0
 43
0.15
 10
409.54633796571
 20
158.9999198913
 10
409.29634118441
 20
158.9999198913
  0
LWPOLYLINE
  5
7C
330
44
100
AcDbEntity
  8
0
  6
Continuous
 62
     7
100
AcDbPolyline
 90
        2
 70
     0
 43
0.15
 10
566.79633626701
 20
158.9999198913
 10
566.54633948571
 20
158.9999198913
  0
LWPOLYLINE
  5
7D
330
44
100
AcDbEntity
  8
0
  6
Continuous
 62
     7
100
AcDbPolyline
 90
        2
 70
     0
 43
0.15
 10
550.54633872571
 20
69.0000017639
 10
563.04633611801
 20
69.0000017639
  0
LWPOLYLINE
  5
7E
330
44
100
AcDbEntity
  8
0
  6
Continuous
 62
     7
100
AcDbPolyline
 90
        2
 70
     0
 43
0.15
 10
413.04633760811
 20
69.0000017639
 10
425.54634058831
 20
69.0000017639
  0
LWPOLYLINE
  5
7F
330
44
100
AcDbEntity
  8
0
  6
Continuous
 62
     7
100
AcDbPolyline
 90
        2
 70
     0
 43
0.15
 10
549.29633805511
 20
229.9999147654
 10
554.04633650541
 20
229.9999147654
  0
LWPOLYLINE
  5
80
330
44
100
AcDbEntity
  8
0
  6
Continuous
 62
     7
100
AcDbPolyline
 90
        2
 70
     0
 43
0.15
 10
533.7963373771099
 20
229.9999147654
 10
538.79633726541
 20
229.9999147654
  0
LWPOLYLINE
  5
81
330
44
100
AcDbEntity
  8
0
  6
Continuous
 62
     7
100
AcDbPolyline
 90
        2
 70
     0
 43
0.15
 10
437.29633832341
 20
229.9999147654
 10
442.29634100561
 20
229.9999147654
  0
LWPOLYLINE
  5
82
330
44
100
AcDbEntity
  8
0
  6
Continuous
 62
     7
100
AcDbPolyline
 90
        2
 70
     0
 43
0.15
 10
422.04634094601
 20
229.9999147654
 10
426.79633939621
 20
229.9999147654
  0
LWPOLYLINE
  5
83
330
44
100
AcDbEntity
  8
0
  6
Continuous
 62
     7
100
AcDbPolyline
 90
        2
 70
     0
 43
0.15
 10
442.29634100561
 20
229.9999147654
 10
442.79633456831
 20
229.9999147654
  0
LWPOLYLINE
  5
84
330
44
100
AcDbEntity
  8
0
  6
Continuous
 62
     7
100
AcDbPolyline
 90
        2
 70
     0
 43
0.15
 10
517.7963377813101
 20
229.9999147654
 10
522.79633790241
 20
229.9999147654
  0
LWPOLYLINE
  5
85
330
44
100
AcDbEntity
  8
0
  6
Continuous
 62
     7
100
AcDbPolyline
 90
        2
 70
     0
 43
0.15
 10
453.29634094601
 20
229.9999147654
 10
458.29633617761
 20
229.9999147654
  0
LWPOLYLINE
  5
86
330
44
100
AcDbEntity
  8
0
  6
Continuous
 62
     7
100
AcDbPolyline
 90
        2
 70
     0
 43
0.15
 10
533.29633822651
 20
229.9999147654
 10
533.7963373771099
 20
229.9999147654
  0
LWPOLYLINE
  5
87
330
44
100
AcDbEntity
  8
0
  6
Continuous
 62
     7
100
AcDbPolyline
 90
        2
 70
     0
 43
0.15
 10
458.29633617761
 20
229.9999147654
 10
458.79633719091
 20
229.9999147654
  0
LWPOLYLINE
  5
88
330
44
100
AcDbEntity
  8
0
  6
Continuous
 62
     7
100
AcDbPolyline
 90
        2
 70
     0
 43
0.15
 10
517.2963376994101
 20
229.9999147654
 10
517.7963377813101
 20
229.9999147654
  0
LWPOLYLINE
  5
89
330
44
100
AcDbEntity
  8
0
  6
Continuous
 62
     7
100
AcDbPolyline
 90
        2
 70
     0
 43
0.15
 10
501.79633865121
 20
229.9999147654
 10
506.79633760811
 20
229.9999147654
  0
LWPOLYLINE
  5
8A
330
44
100
AcDbEntity
  8
0
  6
Continuous
 62
     7
100
AcDbPolyline
 90
        2
 70
     0
 43
0.15
 10
469.29633611801
 20
229.9999147654
 10
474.29633880021
 20
229.9999147654
  0
LWPOLYLINE
  5
8B
330
44
100
AcDbEntity
  8
0
  6
Continuous
 62
     7
100
AcDbPolyline
 90
        2
 70
     0
 43
0.15
 10
474.29633880021
 20
229.9999147654
 10
479.54633826381
 20
229.9999147654
  0
LWPOLYLINE
  5
8C
330
44
100
AcDbEntity
  8
0
  6
Continuous
 62
     7
100
AcDbPolyline
 90
        2
 70
     0
 43
0.15
 10
496.54633732501
 20
229.9999147654
 10
501.79633865121
 20
229.9999147654
  0
LWPOLYLINE
  5
8D
330
44
100
AcDbEntity
  8
0
  6
Continuous
 62
     7
100
AcDbPolyline
 90
        2
 70
     0
 43
0.15
 10
416.04633623721
 20
158.9999198913
 10
414.58746785281
 20
158.9999198913
  0
LWPOLYLINE
  5
8E
330
44
100
AcDbEntity
  8
0
  6
Continuous
 62
     7
100
AcDbPolyline
 90
        2
 70
     0
 43
0.15
 10
561.50520959851
 20
158.9999198913
 10
560.04633748891
 20
158.9999198913
  0
LWPOLYLINE
  5
8F
330
44
100
AcDbEntity
  8
0
  6
Continuous
 62
     7
100
AcDbPolyline
 90
        2
 70
     0
 43
0.15
 10
408.29633915781
 20
159.9999219179
 10
326.04634011151
 20
159.9999219179
  0
LWPOLYLINE
  5
90
330
44
100
AcDbEntity
  8
0
  6
Continuous
 62
     7
100
AcDbPolyline
 90
        2
 70
     0
 43
0.15
 10
324.04633605841
 20
156.500339508
 10
405.79633409141
 20
156.500339508
  0
LWPOLYLINE
  5
91
330
44
100
AcDbEntity
  8
0
  6
Continuous
 62
     7
100
AcDbPolyline
 90
        2
 70
     0
 43
0.15
 10
423.54633653521
 20
116.0000003874
 10
419.64633757231
 20
116.0000003874
  0
LWPOLYLINE
  5
92
330
44
100
AcDbEntity
  8
0
  6
Continuous
 62
     7
100
AcDbPolyline
 90
        2
 70
     0
 43
0.15
 10
417.64634096981
 20
125.2014897764
 10
411.04634100561
 20
125.2014897764
  0
LWPOLYLINE
  5
93
330
44
100
AcDbEntity
  8
0
  6
Continuous
 62
     7
100
AcDbPolyline
 90
        2
 70
     0
 43
0.15
 10
407.94634068371
 20
74.00000188500002
 10
410.79633677361
 20
74.00000188500002
  0
LWPOLYLINE
  5
94
330
44
100
AcDbEntity
  8
0
  6
Continuous
 62
     7
100
AcDbPolyline
 90
        2
 70
     0
 43
0.15
 10
411.44634032611
 20
121.7019408941
 10
415.14633590341
 20
121.7019408941
  0
LWPOLYLINE
  5
95
330
44
100
AcDbEntity
  8
0
  6
Continuous
 62
     7
100
AcDbPolyline
 90
        2
 70
     0
 43
0.15
 10
417.64634096981
 20
112.5000007451
 10
421.04633891941
 20
112.5000007451
  0
LWPOLYLINE
  5
96
330
44
100
AcDbEntity
  8
0
  6
Continuous
 62
     7
100
AcDbPolyline
 90
        2
 70
     0
 43
0.15
 10
421.04633891941
 20
73.00000172109998
 10
423.54633653521
 20
73.00000172109998
  0
LWPOLYLINE
  5
97
330
44
100
AcDbEntity
  8
0
  6
Continuous
 62
     7
100
AcDbPolyline
 90
        2
 70
     0
 43
0.15
 10
426.88608163951
 20
0.0
 10
429.04634023071
 20
0.0
  0
LWPOLYLINE
  5
98
330
44
100
AcDbEntity
  8
0
  6
Continuous
 62
     7
100
AcDbPolyline
 90
        2
 70
     0
 43
0.15
 10
429.04634023071
 20
76.4995501377
 10
424.54633856181
 20
76.4995501377
  0
LWPOLYLINE
  5
99
330
44
100
AcDbEntity
  8
0
  6
Continuous
 62
     7
100
AcDbPolyline
 90
        2
 70
     0
 43
0.15
 10
650.0463410652101
 20
159.9999219179
 10
567.7963345683099
 20
159.9999219179
  0
LWPOLYLINE
  5
9A
330
44
100
AcDbEntity
  8
0
  6
Continuous
 62
     7
100
AcDbPolyline
 90
        2
 70
     0
 43
0.15
 10
570.29633963471
 20
156.500339508
 10
652.04634511831
 20
156.500339508
  0
LWPOLYLINE
  5
9B
330
44
100
AcDbEntity
  8
0
  6
Continuous
 62
     7
100
AcDbPolyline
 90
        2
 70
     0
 43
0.15
 10
556.44633615381
 20
116.0000003874
 10
552.54633719091
 20
116.0000003874
  0
LWPOLYLINE
  5
9C
330
44
100
AcDbEntity
  8
0
  6
Continuous
 62
     7
100
AcDbPolyline
 90
        2
 70
     0
 43
0.15
 10
565.04633644581
 20
125.2014897764
 10
558.4463364816099
 20
125.2014897764
  0
LWPOLYLINE
  5
9D
330
44
100
AcDbEntity
  8
0
  6
Continuous
 62
     7
100
AcDbPolyline
 90
        2
 70
     0
 43
0.15
 10
565.29633695251
 20
74.00000188500002
 10
568.14633676771
 20
74.00000188500002
  0
LWPOLYLINE
  5
9E
330
44
100
AcDbEntity
  8
0
  6
Continuous
 62
     7
100
AcDbPolyline
 90
        2
 70
     0
 43
0.15
 10
560.94633782271
 20
121.7019408941
 10
564.64633712531
 20
121.7019408941
  0
LWPOLYLINE
  5
9F
330
44
100
AcDbEntity
  8
0
  6
Continuous
 62
     7
100
AcDbPolyline
 90
        2
 70
     0
 43
0.15
 10
555.0463385320099
 20
112.5000007451
 10
558.4463364816099
 20
112.5000007451
  0
LWPOLYLINE
  5
A0
330
44
100
AcDbEntity
  8
0
  6
Continuous
 62
     7
100
AcDbPolyline
 90
        2
 70
     0
 43
0.15
 10
552.54633719091
 20
73.00000172109998
 10
555.0463385320099
 20
73.00000172109998
  0
LWPOLYLINE
  5
A1
330
44
100
AcDbEntity
  8
0
  6
Continuous
 62
     7
100
AcDbPolyline
 90
        2
 70
     0
 43
0.15
 10
547.04633722071
 20
0.0
 10
549.20659208661
 20
0.0
  0
LWPOLYLINE
  5
A2
330
44
100
AcDbEntity
  8
0
  6
Continuous
 62
     7
100
AcDbPolyline
 90
        2
 70
     0
 43
0.15
 10
551.5463370270099
 20
76.4995501377
 10
547.04633722071
 20
76.4995501377
  0
LWPOLYLINE
  5
A3
330
44
100
AcDbEntity
  8
0
  6
Continuous
 62
     7
100
AcDbPolyline
 90
        2
 70
     0
 43
0.15
 10
666.04634368781
 20
159.9999219179
 10
658.04634237651
 20
159.9999219179
  0
LWPOLYLINE
  5
A4
330
44
100
AcDbEntity
  8
0
  6
Continuous
 62
     7
100
AcDbPolyline
 90
        2
 70
     0
 43
0.15
 10
656.04633832341
 20
156.500339508
 10
668.04633283971
 20
156.500339508
  0
LWPOLYLINE
  5
A5
330
44
100
AcDbEntity
  8
0
  6
Continuous
 62
     7
100
AcDbPolyline
 90
        2
 70
     0
 43
0.15
 10
423.54633653521
 20
116.0000003874
 10
552.54633719091
 20
116.0000003874
  0
LWPOLYLINE
  5
A6
330
44
100
AcDbEntity
  8
0
  6
Continuous
 62
     7
100
AcDbPolyline
 90
        2
 70
     0
 43
0.15
 10
566.54633948571
 20
159.9999219179
 10
567.7963345683099
 20
159.9999219179
  0
LWPOLYLINE
  5
A7
330
44
100
AcDbEntity
  8
0
  6
Continuous
 62
     7
100
AcDbPolyline
 90
        2
 70
     0
 43
0.15
 10
408.29633915781
 20
159.9999219179
 10
409.54633796571
 20
159.9999219179
  0
LWPOLYLINE
  5
A8
330
44
100
AcDbEntity
  8
0
  6
Continuous
 62
     7
100
AcDbPolyline
 90
        2
 70
     0
 43
0.15
 10
425.54634058831
 20
72.7499998175
 10
425.54634058831
 20
5.00000268220001
  0
LWPOLYLINE
  5
A9
330
44
100
AcDbEntity
  8
0
  6
Continuous
 62
     7
100
AcDbPolyline
 90
        2
 70
     0
 43
0.15
 10
550.54633872571
 20
5.00000268220001
 10
550.54633872571
 20
72.7499998175
  0
LWPOLYLINE
  5
AA
330
44
100
AcDbEntity
  8
0
  6
Continuous
 62
     7
100
AcDbPolyline
 90
        2
 70
     0
 43
0.15
 10
423.54633653521
 20
73.00000172109998
 10
425.54634058831
 20
72.7499998175
  0
LWPOLYLINE
  5
AB
330
44
100
AcDbEntity
  8
0
  6
Continuous
 62
     7
100
AcDbPolyline
 90
        2
 70
     0
 43
0.15
 10
550.54633872571
 20
72.7499998175
 10
552.54633719091
 20
73.00000172109998
  0
LWPOLYLINE
  5
AC
330
44
100
AcDbEntity
  8
0
  6
Continuous
 62
     7
100
AcDbPolyline
 90
        2
 70
     0
 43
0.15
 10
421.04633891941
 20
112.5000007451
 10
421.04633891941
 20
73.00000172109998
  0
LWPOLYLINE
  5
AD
330
44
100
AcDbEntity
  8
0
  6
Continuous
 62
     7
100
AcDbPolyline
 90
        2
 70
     0
 43
0.15
 10
555.0463385320099
 20
73.00000172109998
 10
555.0463385320099
 20
112.5000007451
  0
LWPOLYLINE
  5
AE
330
44
100
AcDbEntity
  8
0
  6
Continuous
 62
     7
100
AcDbPolyline
 90
        2
 70
     0
 43
0.15
 10
415.14633590341
 20
121.7019408941
 10
415.14633590341
 20
114.9999983609
  0
LWPOLYLINE
  5
AF
330
44
100
AcDbEntity
  8
0
  6
Continuous
 62
     7
100
AcDbPolyline
 90
        2
 70
     0
 43
0.15
 10
560.94633782271
 20
114.9999983609
 10
560.94633782271
 20
121.7019408941
  0
LWPOLYLINE
  5
B0
330
44
100
AcDbEntity
  8
0
  6
Continuous
 62
     7
100
AcDbPolyline
 90
        2
 70
     0
 43
0.15
 10
564.64633712531
 20
121.7019408941
 10
565.29633695251
 20
74.00000188500002
  0
LWPOLYLINE
  5
B1
330
44
100
AcDbEntity
  8
0
  6
Continuous
 62
     7
100
AcDbPolyline
 90
        2
 70
     0
 43
0.15
 10
410.79633677361
 20
74.00000188500002
 10
411.44634032611
 20
121.7019408941
  0
LWPOLYLINE
  5
B2
330
44
100
AcDbEntity
  8
0
  6
Continuous
 62
     7
100
AcDbPolyline
 90
        2
 70
     0
 43
0.15
 10
407.94634068371
 20
138.599999249
 10
407.94634068371
 20
74.00000188500002
  0
LWPOLYLINE
  5
B3
330
44
100
AcDbEntity
  8
0
  6
Continuous
 62
     7
100
AcDbPolyline
 90
        2
 70
     0
 43
0.15
 10
568.14633676771
 20
74.00000188500002
 10
568.14633676771
 20
138.599999249
  0
LWPOLYLINE
  5
B4
330
44
100
AcDbEntity
  8
0
  6
Continuous
 62
     7
100
AcDbPolyline
 90
        2
 70
     0
 43
0.15
 10
425.54634058831
 20
5.00000268220001
 10
426.88608163951
 20
0.0
  0
LWPOLYLINE
  5
B5
330
44
100
AcDbEntity
  8
0
  6
Continuous
 62
     7
100
AcDbPolyline
 90
        2
 70
     0
 43
0.15
 10
549.20659208661
 20
0.0
 10
550.54633872571
 20
5.00000268220001
  0
LWPOLYLINE
  5
B6
330
44
100
AcDbEntity
  8
0
  6
Continuous
 62
     7
100
AcDbPolyline
 90
        2
 70
     0
 43
0.15
 10
320.04634285331
 20
156.500339508
 10
324.04633605841
 20
156.500339508
  0
LWPOLYLINE
  5
B7
330
44
100
AcDbEntity
  8
0
  6
Continuous
 62
     7
100
AcDbPolyline
 90
        2
 70
     0
 43
0.15
 10
324.04633605841
 20
156.500339508
 10
324.04633605841
 20
157.9999178648
  0
LWPOLYLINE
  5
B8
330
44
100
AcDbEntity
  8
0
  6
Continuous
 62
     7
100
AcDbPolyline
 90
        2
 70
     0
 43
0.15
 10
318.04633880021
 20
159.9999219179
 10
310.04633748891
 20
159.9999219179
  0
LWPOLYLINE
  5
B9
330
44
100
AcDbEntity
  8
0
  6
Continuous
 62
     7
100
AcDbPolyline
 90
        2
 70
     0
 43
0.15
 10
308.04633343581
 20
156.500339508
 10
320.04634285331
 20
156.500339508
  0
LWPOLYLINE
  5
BA
330
44
100
AcDbEntity
  8
0
  6
Continuous
 62
     7
100
AcDbPolyline
 90
        2
 70
     0
 43
0.15
 10
320.04634285331
 20
157.9999178648
 10
320.04634285331
 20
156.500339508
  0
LWPOLYLINE
  5
BB
330
44
100
AcDbEntity
  8
0
  6
Continuous
 62
     7
100
AcDbPolyline
 90
        2
 70
     0
 43
0.15
 10
418.64633554581
 20
116.9999986887
 10
418.64633554581
 20
124.2014914751
  0
LWPOLYLINE
  5
BC
330
44
100
AcDbEntity
  8
0
  6
Continuous
 62
     7
100
AcDbPolyline
 90
        2
 70
     0
 43
0.15
 10
418.64633554581
 20
116.9999986887
 10
557.44633818031
 20
116.9999986887
  0
LWPOLYLINE
  5
BD
330
44
100
AcDbEntity
  8
0
  6
Continuous
 62
     7
100
AcDbPolyline
 90
        2
 70
     0
 43
0.15
 10
557.44633818031
 20
124.2014914751
 10
557.44633818031
 20
116.9999986887
  0
LWPOLYLINE
  5
BE
330
44
100
AcDbEntity
  8
0
  6
Continuous
 62
     7
100
AcDbPolyline
 90
        2
 70
     0
 43
0.15
 10
557.44633818031
 20
124.2014914751
 10
418.64633554581
 20
124.2014914751
  0
LWPOLYLINE
  5
BF
330
44
100
AcDbEntity
  8
0
  6
Continuous
 62
     7
100
AcDbPolyline
 90
        2
 70
     0
 43
0.15
 10
424.54633856181
 20
76.4995501377
 10
424.54633856181
 20
114.9999983609
  0
LWPOLYLINE
  5
C0
330
44
100
AcDbEntity
  8
0
  6
Continuous
 62
     7
100
AcDbPolyline
 90
        2
 70
     0
 43
0.15
 10
551.5463370270099
 20
114.9999983609
 10
551.5463370270099
 20
76.4995501377
  0
LWPOLYLINE
  5
C1
330
44
100
AcDbEntity
  8
0
  6
Continuous
 62
     7
100
AcDbPolyline
 90
        2
 70
     0
 43
0.15
 10
551.5463370270099
 20
114.9999983609
 10
424.54633856181
 20
114.9999983609
  0
LWPOLYLINE
  5
C2
330
44
100
AcDbEntity
  8
0
  6
Continuous
 62
     7
100
AcDbPolyline
 90
        2
 70
     0
 43
0.15
 10
429.04634023071
 20
0.0
 10
429.04634023071
 20
76.4995501377
  0
LWPOLYLINE
  5
C3
330
44
100
AcDbEntity
  8
0
  6
Continuous
 62
     7
100
AcDbPolyline
 90
        2
 70
     0
 43
0.15
 10
547.04633722071
 20
0.0
 10
429.04634023071
 20
0.0
  0
LWPOLYLINE
  5
C4
330
44
100
AcDbEntity
  8
0
  6
Continuous
 62
     7
100
AcDbPolyline
 90
        2
 70
     0
 43
0.15
 10
547.04633722071
 20
76.4995501377
 10
547.04633722071
 20
0.0
  0
LWPOLYLINE
  5
C5
330
44
100
AcDbEntity
  8
0
  6
Continuous
 62
     7
100
AcDbPolyline
 90
        2
 70
     0
 43
0.15
 10
547.04633722071
 20
76.4995501377
 10
429.04634023071
 20
76.4995501377
  0
LWPOLYLINE
  5
C6
330
44
100
AcDbEntity
  8
0
  6
Continuous
 62
     7
100
AcDbPolyline
 90
        2
 70
     0
 43
0.15
 10
413.29625243311
 20
136.3999992609
 10
409.29638588791
 20
143.3018296957
  0
LWPOLYLINE
  5
C7
330
44
100
AcDbEntity
  8
0
  6
Continuous
 62
     7
100
AcDbPolyline
 90
        2
 70
     0
 43
0.15
 10
566.79628783821
 20
143.3018296957
 10
562.79642501831
 20
136.3999992609
  0
LWPOLYLINE
  5
C8
330
44
100
AcDbEntity
  8
0
  6
Continuous
 62
     7
100
AcDbPolyline
 90
        2
 70
     0
 43
0.15
 10
650.0463410652101
 20
159.9999219179
 10
658.04634237651
 20
159.9999219179
  0
LWPOLYLINE
  5
C9
330
44
100
AcDbEntity
  8
0
  6
Continuous
 62
     7
100
AcDbPolyline
 90
        2
 70
     0
 43
0.15
 10
652.04634511831
 20
157.9999178648
 10
650.0463410652101
 20
159.9999219179
  0
LWPOLYLINE
  5
CA
330
44
100
AcDbEntity
  8
0
  6
Continuous
 62
     7
100
AcDbPolyline
 90
        2
 70
     0
 43
0.15
 10
658.04634237651
 20
159.9999219179
 10
656.04633832341
 20
157.9999178648
  0
LWPOLYLINE
  5
CB
330
44
100
AcDbEntity
  8
0
  6
Continuous
 62
     7
100
AcDbPolyline
 90
        2
 70
     0
 43
0.15
 10
652.04634511831
 20
156.500339508
 10
656.04633832341
 20
156.500339508
  0
LWPOLYLINE
  5
CC
330
44
100
AcDbEntity
  8
0
  6
Continuous
 62
     7
100
AcDbPolyline
 90
        2
 70
     0
 43
0.15
 10
656.04633832341
 20
156.500339508
 10
656.04633832341
 20
157.9999178648
  0
LWPOLYLINE
  5
CD
330
44
100
AcDbEntity
  8
0
  6
Continuous
 62
     7
100
AcDbPolyline
 90
        2
 70
     0
 43
0.15
 10
656.04633832341
 20
157.9999178648
 10
652.04634511831
 20
157.9999178648
  0
LWPOLYLINE
  5
CE
330
44
100
AcDbEntity
  8
0
  6
Continuous
 62
     7
100
AcDbPolyline
 90
        2
 70
     0
 43
0.15
 10
652.04634511831
 20
157.9999178648
 10
652.04634511831
 20
156.500339508
  0
LWPOLYLINE
  5
CF
330
44
100
AcDbEntity
  8
0
  6
Continuous
 62
     7
100
AcDbPolyline
 90
        2
 70
     0
 43
0.15
 10
405.79635644321
 20
142.3999965191
 10
407.94634068371
 20
138.599999249
  0
LWPOLYLINE
  5
D0
330
44
100
AcDbEntity
  8
0
  6
Continuous
 62
     7
100
AcDbPolyline
 90
        2
 70
     0
 43
0.15
 10
568.14633676771
 20
138.599999249
 10
570.29631728291
 20
142.3999965191
  0
LWPOLYLINE
  5
D1
330
44
100
AcDbEntity
  8
0
  6
Continuous
 62
     7
100
AcDbPolyline
 90
        2
 70
     0
 43
0.15
 10
405.79633409141
 20
156.500339508
 10
405.79635644321
 20
142.3999965191
  0
LWPOLYLINE
  5
D2
330
44
100
AcDbEntity
  8
0
  6
Continuous
 62
     7
100
AcDbPolyline
 90
        2
 70
     0
 43
0.15
 10
570.29631728291
 20
142.3999965191
 10
570.29633963471
 20
156.500339508
  0
LWPOLYLINE
  5
D3
330
44
100
AcDbEntity
  8
0
  6
Continuous
 62
     7
100
AcDbPolyline
 90
        2
 70
     0
 43
0.15
 10
308.04633343581
 20
157.9999178648
 10
308.04633343581
 20
156.500339508
  0
LWPOLYLINE
  5
D4
330
44
100
AcDbEntity
  8
0
  6
Continuous
 62
     7
100
AcDbPolyline
 90
        2
 70
     0
 43
0.15
 10
668.04633283971
 20
156.500339508
 10
668.04633283971
 20
157.9999178648
  0
LWPOLYLINE
  5
D5
330
44
100
AcDbEntity
  8
0
  6
Continuous
 62
     7
100
AcDbPolyline
 90
        2
 70
     0
 43
0.15
 10
409.29638588791
 20
143.3018296957
 10
409.29634118441
 20
158.9999198913
  0
LWPOLYLINE
  5
D6
330
44
100
AcDbEntity
  8
0
  6
Continuous
 62
     7
100
AcDbPolyline
 90
        2
 70
     0
 43
0.15
 10
409.54633796571
 20
143.3018296957
 10
409.29638588791
 20
143.3018296957
  0
LWPOLYLINE
  5
D7
330
44
100
AcDbEntity
  8
0
  6
Continuous
 62
     7
100
AcDbPolyline
 90
        2
 70
     0
 43
0.15
 10
566.79628783821
 20
143.3018296957
 10
566.54633948571
 20
143.3018296957
  0
LWPOLYLINE
  5
D8
330
44
100
AcDbEntity
  8
0
  6
Continuous
 62
     7
100
AcDbPolyline
 90
        2
 70
     0
 43
0.15
 10
566.79633626701
 20
158.9999198913
 10
566.79628783821
 20
143.3018296957
  0
LWPOLYLINE
  5
D9
330
44
100
AcDbEntity
  8
0
  6
Continuous
 62
     7
100
AcDbPolyline
 90
        2
 70
     0
 43
0.15
 10
413.29625243311
 20
135.4999989271
 10
413.29625243311
 20
136.3999992609
  0
LWPOLYLINE
  5
DA
330
44
100
AcDbEntity
  8
0
  6
Continuous
 62
     7
100
AcDbPolyline
 90
        2
 70
     0
 43
0.15
 10
562.79642501831
 20
136.3999992609
 10
562.79642501831
 20
135.4999989271
  0
LWPOLYLINE
  5
DB
330
44
100
AcDbEntity
  8
0
  6
Continuous
 62
     7
100
AcDbPolyline
 90
        2
 70
     0
 43
0.15
 10
562.79642501831
 20
136.3999992609
 10
413.29625243311
 20
136.3999992609
  0
LWPOLYLINE
  5
DC
330
44
100
AcDbEntity
  8
0
  6
Continuous
 62
     7
100
AcDbPolyline
 90
        2
 70
     0
 43
0.15
 10
562.79642501831
 20
135.4999989271
 10
563.54633713131
 20
135.0569203496
  0
LWPOLYLINE
  5
DD
330
44
100
AcDbEntity
  8
0
  6
Continuous
 62
     7
100
AcDbPolyline
 90
        2
 70
     0
 43
0.15
 10
562.79642501831
 20
135.4999989271
 10
413.29625243311
 20
135.4999989271
  0
LWPOLYLINE
  5
DE
330
44
100
AcDbEntity
  8
0
  6
Continuous
 62
     7
100
AcDbPolyline
 90
        2
 70
     0
 43
0.15
 10
412.54633659481
 20
135.0569203496
 10
413.29625243311
 20
135.4999989271
  0
LWPOLYLINE
  5
DF
330
44
100
AcDbEntity
  8
0
  6
Continuous
 62
     7
100
AcDbPolyline
 90
        2
 70
     0
 43
0.15
 10
412.54633659481
 20
130.8000013232
 10
412.54633659481
 20
135.0569203496
  0
LWPOLYLINE
  5
E0
330
44
100
AcDbEntity
  8
0
  6
Continuous
 62
     7
100
AcDbPolyline
 90
        2
 70
     0
 43
0.15
 10
563.54633713131
 20
135.0569203496
 10
563.54633713131
 20
130.8000013232
  0
LWPOLYLINE
  5
E1
330
44
100
AcDbEntity
  8
0
  6
Continuous
 62
     7
100
AcDbPolyline
 90
        2
 70
     0
 43
0.15
 10
563.54633713131
 20
135.0569203496
 10
412.54633659481
 20
135.0569203496
  0
LWPOLYLINE
  5
E2
330
44
100
AcDbEntity
  8
0
  6
Continuous
 62
     7
100
AcDbPolyline
 90
        2
 70
     0
 43
0.15
 10
563.54633713131
 20
130.8000013232
 10
565.04633644581
 20
129.7999992967
  0
LWPOLYLINE
  5
E3
330
44
100
AcDbEntity
  8
0
  6
Continuous
 62
     7
100
AcDbPolyline
 90
        2
 70
     0
 43
0.15
 10
563.54633713131
 20
130.8000013232
 10
412.54633659481
 20
130.8000013232
  0
LWPOLYLINE
  5
E4
330
44
100
AcDbEntity
  8
0
  6
Continuous
 62
     7
100
AcDbPolyline
 90
        2
 70
     0
 43
0.15
 10
411.04634100561
 20
129.7999992967
 10
412.54633659481
 20
130.8000013232
  0
LWPOLYLINE
  5
E5
330
44
100
AcDbEntity
  8
0
  6
Continuous
 62
     7
100
AcDbPolyline
 90
        2
 70
     0
 43
0.15
 10
411.04634100561
 20
125.2014897764
 10
411.04634100561
 20
129.7999992967
  0
LWPOLYLINE
  5
E6
330
44
100
AcDbEntity
  8
0
  6
Continuous
 62
     7
100
AcDbPolyline
 90
        2
 70
     0
 43
0.15
 10
565.04633644581
 20
129.7999992967
 10
565.04633644581
 20
125.2014897764
  0
LWPOLYLINE
  5
E7
330
44
100
AcDbEntity
  8
0
  6
Continuous
 62
     7
100
AcDbPolyline
 90
        2
 70
     0
 43
0.15
 10
565.04633644581
 20
129.7999992967
 10
411.04634100561
 20
129.7999992967
  0
LWPOLYLINE
  5
E8
330
44
100
AcDbEntity
  8
0
  6
Continuous
 62
     7
100
AcDbPolyline
 90
        2
 70
     0
 43
0.15
 10
320.04634285331
 20
157.9999178648
 10
318.04633880021
 20
159.9999219179
  0
LWPOLYLINE
  5
E9
330
44
100
AcDbEntity
  8
0
  6
Continuous
 62
     7
100
AcDbPolyline
 90
        2
 70
     0
 43
0.15
 10
324.04633605841
 20
157.9999178648
 10
320.04634285331
 20
157.9999178648
  0
LWPOLYLINE
  5
EA
330
44
100
AcDbEntity
  8
0
  6
Continuous
 62
     7
100
AcDbPolyline
 90
        2
 70
     0
 43
0.15
 10
326.04634011151
 20
159.9999219179
 10
324.04633605841
 20
157.9999178648
  0
LWPOLYLINE
  5
EB
330
44
100
AcDbEntity
  8
0
  6
Continuous
 62
     7
100
AcDbPolyline
 90
        2
 70
     0
 43
0.15
 10
318.04633880021
 20
159.9999219179
 10
326.04634011151
 20
159.9999219179
  0
LWPOLYLINE
  5
EC
330
44
100
AcDbEntity
  8
0
  6
Continuous
 62
     7
100
AcDbPolyline
 90
        2
 70
     0
 43
0.15
 10
418.79633808491
 20
125.2014897764
 10
411.95103520511
 20
125.2014897764
  0
LWPOLYLINE
  5
ED
330
44
100
AcDbEntity
  8
0
  6
Continuous
 62
     7
100
AcDbPolyline
 90
        2
 70
     0
 43
0.15
 10
410.79633677361
 20
129.7014914453
 10
421.29633570081
 20
129.7014914453
  0
LWPOLYLINE
  5
EE
330
44
100
AcDbEntity
  8
0
  6
Continuous
 62
     7
100
AcDbPolyline
 90
        2
 70
     0
 43
0.15
 10
423.29633975391
 20
127.2014901042
 10
420.79633468751
 20
127.2014901042
  0
LWPOLYLINE
  5
EF
330
44
100
AcDbEntity
  8
0
  6
Continuous
 62
     7
100
AcDbPolyline
 90
        2
 70
     0
 43
0.15
 10
423.29633975391
 20
127.2014901042
 10
552.79633769751
 20
127.2014901042
  0
LWPOLYLINE
  5
F0
330
44
100
AcDbEntity
  8
0
  6
Continuous
 62
     7
100
AcDbPolyline
 90
        2
 70
     0
 43
0.15
 10
423.29633975391
 20
127.7014911175
 10
423.29633975391
 20
127.2014901042
  0
LWPOLYLINE
  5
F1
330
44
100
AcDbEntity
  8
0
  6
Continuous
 62
     7
100
AcDbPolyline
 90
        2
 70
     0
 43
0.15
 10
421.29633570081
 20
129.7014914453
 10
554.79633802531
 20
129.7014914453
  0
LWPOLYLINE
  5
F2
330
44
100
AcDbEntity
  8
0
  6
Continuous
 62
     7
100
AcDbPolyline
 90
        2
 70
     0
 43
0.15
 10
423.29633975391
 20
127.7014911175
 10
552.79633769751
 20
127.7014911175
  0
LWPOLYLINE
  5
F3
330
44
100
AcDbEntity
  8
0
  6
Continuous
 62
     7
100
AcDbPolyline
 90
        2
 70
     0
 43
0.15
 10
410.79633677361
 20
127.2014901042
 10
410.79633677361
 20
129.7014914453
  0
LWPOLYLINE
  5
F4
330
44
100
AcDbEntity
  8
0
  6
Continuous
 62
     7
100
AcDbPolyline
 90
        2
 70
     0
 43
0.15
 10
411.95103520511
 20
125.2014897764
 10
410.79633677361
 20
127.2014901042
  0
LWPOLYLINE
  5
F5
330
44
100
AcDbEntity
  8
0
  6
Continuous
 62
     7
100
AcDbPolyline
 90
        2
 70
     0
 43
0.15
 10
418.79633808491
 20
125.2014897764
 10
557.2963393664099
 20
125.2014897764
  0
LWPOLYLINE
  5
F6
330
44
100
AcDbEntity
  8
0
  6
Continuous
 62
     7
100
AcDbPolyline
 90
        2
 70
     0
 43
0.15
 10
555.29633903861
 20
127.2014901042
 10
552.79633769751
 20
127.2014901042
  0
LWPOLYLINE
  5
F7
330
44
100
AcDbEntity
  8
0
  6
Continuous
 62
     7
100
AcDbPolyline
 90
        2
 70
     0
 43
0.15
 10
564.14163852101
 20
125.2014897764
 10
557.2963393664099
 20
125.2014897764
  0
LWPOLYLINE
  5
F8
330
44
100
AcDbEntity
  8
0
  6
Continuous
 62
     7
100
AcDbPolyline
 90
        2
 70
     0
 43
0.15
 10
565.29633695251
 20
127.2014901042
 10
564.14163852101
 20
125.2014897764
  0
LWPOLYLINE
  5
F9
330
44
100
AcDbEntity
  8
0
  6
Continuous
 62
     7
100
AcDbPolyline
 90
        2
 70
     0
 43
0.15
 10
565.29633695251
 20
129.7014914453
 10
565.29633695251
 20
127.2014901042
  0
LWPOLYLINE
  5
FA
330
44
100
AcDbEntity
  8
0
  6
Continuous
 62
     7
100
AcDbPolyline
 90
        2
 70
     0
 43
0.15
 10
554.79633802531
 20
129.7014914453
 10
565.29633695251
 20
129.7014914453
  0
LWPOLYLINE
  5
FB
330
44
100
AcDbEntity
  8
0
  6
Continuous
 62
     7
100
AcDbPolyline
 90
        2
 70
     0
 43
0.15
 10
552.79633769751
 20
127.2014901042
 10
552.79633769751
 20
127.7014911175
  0
LWPOLYLINE
  5
FC
330
44
100
AcDbEntity
  8
0
  6
Continuous
 62
     7
100
AcDbPolyline
 90
        2
 70
     0
 43
0.15
 10
411.04634100561
 20
74.00000188500002
 10
408.04633492591
 20
74.00000188500002
  0
LWPOLYLINE
  5
FD
330
44
100
AcDbEntity
  8
0
  6
Continuous
 62
     7
100
AcDbPolyline
 90
        2
 70
     0
 43
0.15
 10
413.04633760811
 20
80.00000193710002
 10
411.77427763101
 20
80.00000193710002
  0
LWPOLYLINE
  5
FE
330
44
100
AcDbEntity
  8
0
  6
Continuous
 62
     7
100
AcDbPolyline
 90
        2
 70
     0
 43
0.15
 10
425.04633957511
 20
66.50000181979999
 10
415.54633522391
 20
66.50000181979999
  0
LWPOLYLINE
  5
FF
330
44
100
AcDbEntity
  8
0
  6
Continuous
 62
     7
100
AcDbPolyline
 90
        2
 70
     0
 43
0.15
 10
423.89633500931
 20
64.00000164279999
 10
425.04633957511
 20
64.00000164279999
  0
LWPOLYLINE
  5
100
330
44
100
AcDbEntity
  8
0
  6
Continuous
 62
     7
100
AcDbPolyline
 90
        2
 70
     0
 43
0.15
 10
423.89633500931
 20
61.50000169869998
 10
423.89633500931
 20
64.00000164279999
  0
LWPOLYLINE
  5
101
330
44
100
AcDbEntity
  8
0
  6
Continuous
 62
     7
100
AcDbPolyline
 90
        2
 70
     0
 43
0.15
 10
415.39634013531
 20
61.50000169869998
 10
415.39634013531
 20
64.02645166960002
  0
LWPOLYLINE
  5
102
330
44
100
AcDbEntity
  8
0
  6
Continuous
 62
     7
100
AcDbPolyline
 90
        2
 70
     0
 43
0.15
 10
423.89633500931
 20
61.50000169869998
 10
415.39634013531
 20
61.50000169869998
  0
LWPOLYLINE
  5
103
330
44
100
AcDbEntity
  8
0
  6
Continuous
 62
     7
100
AcDbPolyline
 90
        2
 70
     0
 43
0.15
 10
568.0463388002099
 20
74.00000188500002
 10
565.04633644581
 20
74.00000188500002
  0
LWPOLYLINE
  5
104
330
44
100
AcDbEntity
  8
0
  6
Continuous
 62
     7
100
AcDbPolyline
 90
        2
 70
     0
 43
0.15
 10
564.31839609501
 20
80.00000193710002
 10
563.04633611801
 20
80.00000193710002
  0
LWPOLYLINE
  5
105
330
44
100
AcDbEntity
  8
0
  6
Continuous
 62
     7
100
AcDbPolyline
 90
        2
 70
     0
 43
0.15
 10
560.54633850221
 20
66.50000181979999
 10
551.04633787631
 20
66.50000181979999
  0
LWPOLYLINE
  5
106
330
44
100
AcDbEntity
  8
0
  6
Continuous
 62
     7
100
AcDbPolyline
 90
        2
 70
     0
 43
0.15
 10
551.04633787631
 20
64.00000164279999
 10
552.19633871681
 20
64.00000164279999
  0
LWPOLYLINE
  5
107
330
44
100
AcDbEntity
  8
0
  6
Continuous
 62
     7
100
AcDbPolyline
 90
        2
 70
     0
 43
0.15
 10
552.19633871681
 20
64.00000164279999
 10
552.19633871681
 20
61.50000169869998
  0
LWPOLYLINE
  5
108
330
44
100
AcDbEntity
  8
0
  6
Continuous
 62
     7
100
AcDbPolyline
 90
        2
 70
     0
 43
0.15
 10
560.6963373160099
 20
61.50000169869998
 10
552.19633871681
 20
61.50000169869998
  0
LWPOLYLINE
  5
109
330
44
100
AcDbEntity
  8
0
  6
Continuous
 62
     7
100
AcDbPolyline
 90
        2
 70
     0
 43
0.15
 10
560.6963373160099
 20
61.50000169869998
 10
560.6963373160099
 20
64.02645166960002
  0
LWPOLYLINE
  5
10A
330
44
100
AcDbEntity
  8
0
  6
Continuous
 62
     7
100
AcDbPolyline
 90
        2
 70
     0
 43
0.15
 10
550.54633872571
 20
66.50000181979999
 10
551.04633787631
 20
66.50000181979999
  0
LWPOLYLINE
  5
10B
330
44
100
AcDbEntity
  8
0
  6
Continuous
 62
     7
100
AcDbPolyline
 90
        2
 70
     0
 43
0.15
 10
425.04633957511
 20
66.50000181979999
 10
425.54634058831
 20
66.50000181979999
  0
LWPOLYLINE
  5
10C
330
44
100
AcDbEntity
  8
0
  6
Continuous
 62
     7
100
AcDbPolyline
 90
        2
 70
     0
 43
0.15
 10
550.54633872571
 20
64.00000164279999
 10
551.04633787631
 20
64.00000164279999
  0
LWPOLYLINE
  5
10D
330
44
100
AcDbEntity
  8
0
  6
Continuous
 62
     7
100
AcDbPolyline
 90
        2
 70
     0
 43
0.15
 10
425.04633957511
 20
64.00000164279999
 10
425.54634058831
 20
64.00000164279999
  0
LWPOLYLINE
  5
10E
330
44
100
AcDbEntity
  8
0
  6
Continuous
 62
     7
100
AcDbPolyline
 90
        2
 70
     0
 43
0.15
 10
551.04633787631
 20
66.50000181979999
 10
551.04633787631
 20
64.00000164279999
  0
LWPOLYLINE
  5
10F
330
44
100
AcDbEntity
  8
0
  6
Continuous
 62
     7
100
AcDbPolyline
 90
        2
 70
     0
 43
0.15
 10
425.04633957511
 20
64.00000164279999
 10
425.04633957511
 20
66.50000181979999
  0
LWPOLYLINE
  5
110
330
44
100
AcDbEntity
  8
0
  6
Continuous
 62
     7
100
AcDbPolyline
 90
        2
 70
     0
 43
0.15
 10
555.0463385320099
 20
80.00000193710002
 10
563.04633611801
 20
80.00000193710002
  0
LWPOLYLINE
  5
111
330
44
100
AcDbEntity
  8
0
  6
Continuous
 62
     7
100
AcDbPolyline
 90
        2
 70
     0
 43
0.15
 10
413.04633760811
 20
80.00000193710002
 10
421.04633891941
 20
80.00000193710002
  0
LWPOLYLINE
  5
112
330
44
100
AcDbEntity
  8
0
  6
Continuous
 62
     7
100
AcDbPolyline
 90
        2
 70
     0
 43
0.15
 10
563.04633611801
 20
80.00000193710002
 10
563.04633611801
 20
69.0000017639
  0
LWPOLYLINE
  5
113
330
44
100
AcDbEntity
  8
0
  6
Continuous
 62
     7
100
AcDbPolyline
 90
        2
 70
     0
 43
0.15
 10
413.04633760811
 20
69.0000017639
 10
413.04633760811
 20
80.00000193710002
  0
LWPOLYLINE
  5
114
330
44
100
AcDbEntity
  8
0
  6
Continuous
 62
     7
100
AcDbPolyline
 90
        2
 70
     0
 43
0.15
 10
565.04633644581
 20
78.0000016093
 10
564.31839609501
 20
80.00000193710002
  0
LWPOLYLINE
  5
115
330
44
100
AcDbEntity
  8
0
  6
Continuous
 62
     7
100
AcDbPolyline
 90
        2
 70
     0
 43
0.15
 10
411.77427763101
 20
80.00000193710002
 10
411.04634100561
 20
78.0000016093
  0
LWPOLYLINE
  5
116
330
44
100
AcDbEntity
  8
0
  6
Continuous
 62
     7
100
AcDbPolyline
 90
        2
 70
     0
 43
0.15
 10
565.04633644581
 20
74.00000188500002
 10
565.04633644581
 20
78.0000016093
  0
LWPOLYLINE
  5
117
330
44
100
AcDbEntity
  8
0
  6
Continuous
 62
     7
100
AcDbPolyline
 90
        2
 70
     0
 43
0.15
 10
411.04634100561
 20
78.0000016093
 10
411.04634100561
 20
74.00000188500002
  0
LWPOLYLINE
  5
118
330
44
100
AcDbEntity
  8
0
  6
Continuous
 62
     7
100
AcDbPolyline
 90
        2
 70
     0
 43
0.15
 10
568.0463388002099
 20
72.00000179
 10
568.0463388002099
 20
74.00000188500002
  0
LWPOLYLINE
  5
119
330
44
100
AcDbEntity
  8
0
  6
Continuous
 62
     7
100
AcDbPolyline
 90
        2
 70
     0
 43
0.15
 10
408.04633492591
 20
74.00000188500002
 10
408.04633492591
 20
72.00000179
  0
LWPOLYLINE
  5
11A
330
44
100
AcDbEntity
  8
0
  6
Continuous
 62
     7
100
AcDbPolyline
 90
        2
 70
     0
 43
0.15
 10
431.04633683321
 20
227.4999171495
 10
423.04633552191
 20
227.4999171495
  0
LWPOLYLINE
  5
11B
330
44
100
AcDbEntity
  8
0
  6
Continuous
 62
     7
100
AcDbPolyline
 90
        2
 70
     0
 43
0.15
 10
458.54633668421
 20
227.4999171495
 10
434.54633647561
 20
227.4999171495
  0
LWPOLYLINE
  5
11C
330
44
100
AcDbEntity
  8
0
  6
Continuous
 62
     7
100
AcDbPolyline
 90
        2
 70
     0
 43
0.15
 10
514.04633786511
 20
227.4999171495
 10
462.04633632661
 20
227.4999171495
  0
LWPOLYLINE
  5
11D
330
44
100
AcDbEntity
  8
0
  6
Continuous
 62
     7
100
AcDbPolyline
 90
        2
 70
     0
 43
0.15
 10
541.54633725051
 20
227.4999171495
 10
517.54633774041
 20
227.4999171495
  0
LWPOLYLINE
  5
11E
330
44
100
AcDbEntity
  8
0
  6
Continuous
 62
     7
100
AcDbPolyline
 90
        2
 70
     0
 43
0.15
 10
553.04633820421
 20
227.4999171495
 10
545.04633689281
 20
227.4999171495
  0
LWPOLYLINE
  5
11F
330
44
100
AcDbEntity
  8
0
  6
Continuous
 62
     7
100
AcDbPolyline
 90
        2
 70
     0
 43
0.15
 10
554.04633650541
 20
229.9999147654
 10
554.04633650541
 20
227.4999171495
  0
LWPOLYLINE
  5
120
330
44
100
AcDbEntity
  8
0
  6
Continuous
 62
     7
100
AcDbPolyline
 90
        2
 70
     0
 43
0.15
 10
554.04633650541
 20
230.9999167919
 10
554.04633650541
 20
229.9999147654
  0
LWPOLYLINE
  5
121
330
44
100
AcDbEntity
  8
0
  6
Continuous
 62
     7
100
AcDbPolyline
 90
        2
 70
     0
 43
0.15
 10
554.04633650541
 20
229.9999147654
 10
555.54633954531
 20
229.9999147654
  0
LWPOLYLINE
  5
122
330
44
100
AcDbEntity
  8
0
  6
Continuous
 62
     7
100
AcDbPolyline
 90
        2
 70
     0
 43
0.15
 10
422.04634094601
 20
230.9999167919
 10
422.04634094601
 20
229.9999147654
  0
LWPOLYLINE
  5
123
330
44
100
AcDbEntity
  8
0
  6
Continuous
 62
     7
100
AcDbPolyline
 90
        2
 70
     0
 43
0.15
 10
422.04634094601
 20
227.4999171495
 10
422.04634094601
 20
229.9999147654
  0
LWPOLYLINE
  5
124
330
44
100
AcDbEntity
  8
0
  6
Continuous
 62
     7
100
AcDbPolyline
 90
        2
 70
     0
 43
0.15
 10
420.54633790611
 20
229.9999147654
 10
422.04634094601
 20
229.9999147654
  0
LWPOLYLINE
  5
125
330
44
100
AcDbEntity
  8
0
  6
Continuous
 62
     7
100
AcDbPolyline
 90
        2
 70
     0
 43
0.15
 10
442.29634100561
 20
228.4999191761
 10
442.79633456831
 20
228.4999191761
  0
LWPOLYLINE
  5
126
330
44
100
AcDbEntity
  8
0
  6
Continuous
 62
     7
100
AcDbPolyline
 90
        2
 70
     0
 43
0.15
 10
517.7963377813101
 20
228.4999191761
 10
522.79633790241
 20
228.4999191761
  0
LWPOLYLINE
  5
127
330
44
100
AcDbEntity
  8
0
  6
Continuous
 62
     7
100
AcDbPolyline
 90
        2
 70
     0
 43
0.15
 10
453.29634094601
 20
228.4999191761
 10
458.29633617761
 20
228.4999191761
  0
LWPOLYLINE
  5
128
330
44
100
AcDbEntity
  8
0
  6
Continuous
 62
     7
100
AcDbPolyline
 90
        2
 70
     0
 43
0.15
 10
533.29633822651
 20
228.4999191761
 10
533.7963373771099
 20
228.4999191761
  0
LWPOLYLINE
  5
129
330
44
100
AcDbEntity
  8
0
  6
Continuous
 62
     7
100
AcDbPolyline
 90
        2
 70
     0
 43
0.15
 10
425.79633736971
 20
232.4999272823
 10
438.29634034991
 20
232.4999272823
  0
LWPOLYLINE
  5
12A
330
44
100
AcDbEntity
  8
0
  6
Continuous
 62
     7
100
AcDbPolyline
 90
        2
 70
     0
 43
0.15
 10
435.79633528351
 20
228.4999191761
 10
428.29633498551
 20
228.4999191761
  0
LWPOLYLINE
  5
12B
330
44
100
AcDbEntity
  8
0
  6
Continuous
 62
     7
100
AcDbPolyline
 90
        2
 70
     0
 43
0.15
 10
435.79633528351
 20
229.9999147654
 10
428.29633498551
 20
229.9999147654
  0
LWPOLYLINE
  5
12C
330
44
100
AcDbEntity
  8
0
  6
Continuous
 62
     7
100
AcDbPolyline
 90
        2
 70
     0
 43
0.15
 10
547.79633874061
 20
228.4999191761
 10
540.29633844261
 20
228.4999191761
  0
LWPOLYLINE
  5
12D
330
44
100
AcDbEntity
  8
0
  6
Continuous
 62
     7
100
AcDbPolyline
 90
        2
 70
     0
 43
0.15
 10
537.7963371015101
 20
232.4999272823
 10
550.29633821911
 20
232.4999272823
  0
LWPOLYLINE
  5
12E
330
44
100
AcDbEntity
  8
0
  6
Continuous
 62
     7
100
AcDbPolyline
 90
        2
 70
     0
 43
0.15
 10
547.79633874061
 20
229.9999147654
 10
540.29633844261
 20
229.9999147654
  0
LWPOLYLINE
  5
12F
330
44
100
AcDbEntity
  8
0
  6
Continuous
 62
     7
100
AcDbPolyline
 90
        2
 70
     0
 43
0.15
 10
458.29633617761
 20
228.4999191761
 10
458.79633719091
 20
228.4999191761
  0
LWPOLYLINE
  5
130
330
44
100
AcDbEntity
  8
0
  6
Continuous
 62
     7
100
AcDbPolyline
 90
        2
 70
     0
 43
0.15
 10
517.2963376994101
 20
228.4999191761
 10
517.7963377813101
 20
228.4999191761
  0
LWPOLYLINE
  5
131
330
44
100
AcDbEntity
  8
0
  6
Continuous
 62
     7
100
AcDbPolyline
 90
        2
 70
     0
 43
0.15
 10
501.79633865121
 20
228.4999191761
 10
506.79633760811
 20
228.4999191761
  0
LWPOLYLINE
  5
132
330
44
100
AcDbEntity
  8
0
  6
Continuous
 62
     7
100
AcDbPolyline
 90
        2
 70
     0
 43
0.15
 10
469.29633611801
 20
228.4999191761
 10
474.29633880021
 20
228.4999191761
  0
LWPOLYLINE
  5
133
330
44
100
AcDbEntity
  8
0
  6
Continuous
 62
     7
100
AcDbPolyline
 90
        2
 70
     0
 43
0.15
 10
441.79633999231
 20
232.4999272823
 10
454.29633552191
 20
232.4999272823
  0
LWPOLYLINE
  5
134
330
44
100
AcDbEntity
  8
0
  6
Continuous
 62
     7
100
AcDbPolyline
 90
        2
 70
     0
 43
0.15
 10
451.79633790611
 20
228.4999191761
 10
444.29633760811
 20
228.4999191761
  0
LWPOLYLINE
  5
135
330
44
100
AcDbEntity
  8
0
  6
Continuous
 62
     7
100
AcDbPolyline
 90
        2
 70
     0
 43
0.15
 10
451.79633790611
 20
229.9999147654
 10
444.29633760811
 20
229.9999147654
  0
LWPOLYLINE
  5
136
330
44
100
AcDbEntity
  8
0
  6
Continuous
 62
     7
100
AcDbPolyline
 90
        2
 70
     0
 43
0.15
 10
531.7963379806099
 20
228.4999191761
 10
524.29633791541
 20
228.4999191761
  0
LWPOLYLINE
  5
137
330
44
100
AcDbEntity
  8
0
  6
Continuous
 62
     7
100
AcDbPolyline
 90
        2
 70
     0
 43
0.15
 10
521.79633785491
 20
232.4999272823
 10
534.29633745911
 20
232.4999272823
  0
LWPOLYLINE
  5
138
330
44
100
AcDbEntity
  8
0
  6
Continuous
 62
     7
100
AcDbPolyline
 90
        2
 70
     0
 43
0.15
 10
531.7963379806099
 20
229.9999147654
 10
524.29633791541
 20
229.9999147654
  0
LWPOLYLINE
  5
139
330
44
100
AcDbEntity
  8
0
  6
Continuous
 62
     7
100
AcDbPolyline
 90
        2
 70
     0
 43
0.15
 10
474.29633880021
 20
228.4999191761
 10
479.54633826381
 20
228.4999191761
  0
LWPOLYLINE
  5
13A
330
44
100
AcDbEntity
  8
0
  6
Continuous
 62
     7
100
AcDbPolyline
 90
        2
 70
     0
 43
0.15
 10
479.54633826381
 20
228.4999191761
 10
496.54633732501
 20
228.4999191761
  0
LWPOLYLINE
  5
13B
330
44
100
AcDbEntity
  8
0
  6
Continuous
 62
     7
100
AcDbPolyline
 90
        2
 70
     0
 43
0.15
 10
479.54633826381
 20
228.4999191761
 10
479.54633826381
 20
229.9999147654
  0
LWPOLYLINE
  5
13C
330
44
100
AcDbEntity
  8
0
  6
Continuous
 62
     7
100
AcDbPolyline
 90
        2
 70
     0
 43
0.15
 10
496.54633732501
 20
228.4999191761
 10
501.79633865121
 20
228.4999191761
  0
LWPOLYLINE
  5
13D
330
44
100
AcDbEntity
  8
0
  6
Continuous
 62
     7
100
AcDbPolyline
 90
        2
 70
     0
 43
0.15
 10
496.54633732501
 20
228.4999191761
 10
496.54633732501
 20
229.9999147654
  0
LWPOLYLINE
  5
13E
330
44
100
AcDbEntity
  8
0
  6
Continuous
 62
     7
100
AcDbPolyline
 90
        2
 70
     0
 43
0.15
 10
479.54633826381
 20
229.9999147654
 10
479.54633826381
 20
230.9999167919
  0
LWPOLYLINE
  5
13F
330
44
100
AcDbEntity
  8
0
  6
Continuous
 62
     7
100
AcDbPolyline
 90
        2
 70
     0
 43
0.15
 10
479.54633826381
 20
229.9999147654
 10
496.54633732501
 20
229.9999147654
  0
LWPOLYLINE
  5
140
330
44
100
AcDbEntity
  8
0
  6
Continuous
 62
     7
100
AcDbPolyline
 90
        2
 70
     0
 43
0.15
 10
496.54633732501
 20
230.9999167919
 10
496.54633732501
 20
229.9999147654
  0
LWPOLYLINE
  5
141
330
44
100
AcDbEntity
  8
0
  6
Continuous
 62
     7
100
AcDbPolyline
 90
        2
 70
     0
 43
0.15
 10
457.79633516431
 20
232.4999272823
 10
470.29633814451
 20
232.4999272823
  0
LWPOLYLINE
  5
142
330
44
100
AcDbEntity
  8
0
  6
Continuous
 62
     7
100
AcDbPolyline
 90
        2
 70
     0
 43
0.15
 10
467.79633680341
 20
228.4999191761
 10
460.29633650541
 20
228.4999191761
  0
LWPOLYLINE
  5
143
330
44
100
AcDbEntity
  8
0
  6
Continuous
 62
     7
100
AcDbPolyline
 90
        2
 70
     0
 43
0.15
 10
467.79633680341
 20
229.9999147654
 10
460.29633650541
 20
229.9999147654
  0
LWPOLYLINE
  5
144
330
44
100
AcDbEntity
  8
0
  6
Continuous
 62
     7
100
AcDbPolyline
 90
        2
 70
     0
 43
0.15
 10
515.7963376863099
 20
228.4999191761
 10
508.29633785401
 20
228.4999191761
  0
LWPOLYLINE
  5
145
330
44
100
AcDbEntity
  8
0
  6
Continuous
 62
     7
100
AcDbPolyline
 90
        2
 70
     0
 43
0.15
 10
505.79633744421
 20
232.4999272823
 10
518.29633786331
 20
232.4999272823
  0
LWPOLYLINE
  5
146
330
44
100
AcDbEntity
  8
0
  6
Continuous
 62
     7
100
AcDbPolyline
 90
        2
 70
     0
 43
0.15
 10
515.7963376863099
 20
229.9999147654
 10
508.29633785401
 20
229.9999147654
  0
LWPOLYLINE
  5
147
330
44
100
AcDbEntity
  8
0
  6
Continuous
 62
     7
100
AcDbPolyline
 90
        2
 70
     0
 43
0.15
 10
492.01295519231
 20
232.4999272823
 10
490.02774240431
 20
232.4999272823
  0
LWPOLYLINE
  5
148
330
44
100
AcDbEntity
  8
0
  6
Continuous
 62
     7
100
AcDbPolyline
 90
        2
 70
     0
 43
0.15
 10
493.64461371661
 20
232.4999272823
 10
492.01295519231
 20
232.4999272823
  0
LWPOLYLINE
  5
149
330
44
100
AcDbEntity
  8
0
  6
Continuous
 62
     7
100
AcDbPolyline
 90
        2
 70
     0
 43
0.15
 10
492.01295519231
 20
232.3999255896
 10
492.01295519231
 20
232.4999272823
  0
LWPOLYLINE
  5
14A
330
44
100
AcDbEntity
  8
0
  6
Continuous
 62
     7
100
AcDbPolyline
 90
        2
 70
     0
 43
0.15
 10
554.5463375187101
 20
232.4999272823
 10
550.29633821911
 20
232.4999272823
  0
LWPOLYLINE
  5
14B
330
44
100
AcDbEntity
  8
0
  6
Continuous
 62
     7
100
AcDbPolyline
 90
        2
 70
     0
 43
0.15
 10
557.04633885981
 20
227.4999171495
 10
555.54633954531
 20
227.4999171495
  0
LWPOLYLINE
  5
14C
330
44
100
AcDbEntity
  8
0
  6
Continuous
 62
     7
100
AcDbPolyline
 90
        2
 70
     0
 43
0.15
 10
554.5463375187101
 20
230.9999167919
 10
550.29633821911
 20
230.9999167919
  0
LWPOLYLINE
  5
14D
330
44
100
AcDbEntity
  8
0
  6
Continuous
 62
     7
100
AcDbPolyline
 90
        2
 70
     0
 43
0.15
 10
547.79633874061
 20
228.4999191761
 10
547.79633874061
 20
229.9999147654
  0
LWPOLYLINE
  5
14E
330
44
100
AcDbEntity
  8
0
  6
Continuous
 62
     7
100
AcDbPolyline
 90
        2
 70
     0
 43
0.15
 10
557.04633885981
 20
227.4999171495
 10
557.04633885981
 20
229.9999147654
  0
LWPOLYLINE
  5
14F
330
44
100
AcDbEntity
  8
0
  6
Continuous
 62
     7
100
AcDbPolyline
 90
        2
 70
     0
 43
0.15
 10
555.54633954531
 20
227.4999171495
 10
555.54633954531
 20
229.9999147654
  0
LWPOLYLINE
  5
150
330
44
100
AcDbEntity
  8
0
  6
Continuous
 62
     7
100
AcDbPolyline
 90
        2
 70
     0
 43
0.15
 10
549.29633805511
 20
228.4999191761
 10
549.29633805511
 20
229.9999147654
  0
LWPOLYLINE
  5
151
330
44
100
AcDbEntity
  8
0
  6
Continuous
 62
     7
100
AcDbPolyline
 90
        2
 70
     0
 43
0.15
 10
547.79633874061
 20
228.4999191761
 10
549.29633805511
 20
228.4999191761
  0
LWPOLYLINE
  5
152
330
44
100
AcDbEntity
  8
0
  6
Continuous
 62
     7
100
AcDbPolyline
 90
        2
 70
     0
 43
0.15
 10
487.90642241001
 20
232.4999272823
 10
485.78510427831
 20
232.4999272823
  0
LWPOLYLINE
  5
153
330
44
100
AcDbEntity
  8
0
  6
Continuous
 62
     7
100
AcDbPolyline
 90
        2
 70
     0
 43
0.15
 10
457.79633516431
 20
232.4999272823
 10
454.29633552191
 20
232.4999272823
  0
LWPOLYLINE
  5
154
330
44
100
AcDbEntity
  8
0
  6
Continuous
 62
     7
100
AcDbPolyline
 90
        2
 70
     0
 43
0.15
 10
457.79633516431
 20
230.9999167919
 10
454.29633552191
 20
230.9999167919
  0
LWPOLYLINE
  5
155
330
44
100
AcDbEntity
  8
0
  6
Continuous
 62
     7
100
AcDbPolyline
 90
        2
 70
     0
 43
0.15
 10
451.79633790611
 20
228.4999191761
 10
451.79633790611
 20
229.9999147654
  0
LWPOLYLINE
  5
156
330
44
100
AcDbEntity
  8
0
  6
Continuous
 62
     7
100
AcDbPolyline
 90
        2
 70
     0
 43
0.15
 10
451.79633790611
 20
228.4999191761
 10
453.29634094601
 20
228.4999191761
  0
LWPOLYLINE
  5
157
330
44
100
AcDbEntity
  8
0
  6
Continuous
 62
     7
100
AcDbPolyline
 90
        2
 70
     0
 43
0.15
 10
453.29634094601
 20
228.4999191761
 10
453.29634094601
 20
229.9999147654
  0
LWPOLYLINE
  5
158
330
44
100
AcDbEntity
  8
0
  6
Continuous
 62
     7
100
AcDbPolyline
 90
        2
 70
     0
 43
0.15
 10
458.79633719091
 20
228.4999191761
 10
460.29633650541
 20
228.4999191761
  0
LWPOLYLINE
  5
159
330
44
100
AcDbEntity
  8
0
  6
Continuous
 62
     7
100
AcDbPolyline
 90
        2
 70
     0
 43
0.15
 10
458.79633719091
 20
229.9999147654
 10
458.79633719091
 20
228.4999191761
  0
LWPOLYLINE
  5
15A
330
44
100
AcDbEntity
  8
0
  6
Continuous
 62
     7
100
AcDbPolyline
 90
        2
 70
     0
 43
0.15
 10
460.29633650541
 20
229.9999147654
 10
460.29633650541
 20
228.4999191761
  0
LWPOLYLINE
  5
15B
330
44
100
AcDbEntity
  8
0
  6
Continuous
 62
     7
100
AcDbPolyline
 90
        2
 70
     0
 43
0.15
 10
441.79633999231
 20
232.4999272823
 10
438.29634034991
 20
232.4999272823
  0
LWPOLYLINE
  5
15C
330
44
100
AcDbEntity
  8
0
  6
Continuous
 62
     7
100
AcDbPolyline
 90
        2
 70
     0
 43
0.15
 10
442.79633456831
 20
229.9999147654
 10
442.79633456831
 20
228.4999191761
  0
LWPOLYLINE
  5
15D
330
44
100
AcDbEntity
  8
0
  6
Continuous
 62
     7
100
AcDbPolyline
 90
        2
 70
     0
 43
0.15
 10
441.79633999231
 20
230.9999167919
 10
438.29634034991
 20
230.9999167919
  0
LWPOLYLINE
  5
15E
330
44
100
AcDbEntity
  8
0
  6
Continuous
 62
     7
100
AcDbPolyline
 90
        2
 70
     0
 43
0.15
 10
435.79633528351
 20
228.4999191761
 10
435.79633528351
 20
229.9999147654
  0
LWPOLYLINE
  5
15F
330
44
100
AcDbEntity
  8
0
  6
Continuous
 62
     7
100
AcDbPolyline
 90
        2
 70
     0
 43
0.15
 10
435.79633528351
 20
228.4999191761
 10
437.29633832341
 20
228.4999191761
  0
LWPOLYLINE
  5
160
330
44
100
AcDbEntity
  8
0
  6
Continuous
 62
     7
100
AcDbPolyline
 90
        2
 70
     0
 43
0.15
 10
437.29633832341
 20
228.4999191761
 10
437.29633832341
 20
229.9999147654
  0
LWPOLYLINE
  5
161
330
44
100
AcDbEntity
  8
0
  6
Continuous
 62
     7
100
AcDbPolyline
 90
        2
 70
     0
 43
0.15
 10
442.79633456831
 20
228.4999191761
 10
444.29633760811
 20
228.4999191761
  0
LWPOLYLINE
  5
162
330
44
100
AcDbEntity
  8
0
  6
Continuous
 62
     7
100
AcDbPolyline
 90
        2
 70
     0
 43
0.15
 10
444.29633760811
 20
229.9999147654
 10
444.29633760811
 20
228.4999191761
  0
LWPOLYLINE
  5
163
330
44
100
AcDbEntity
  8
0
  6
Continuous
 62
     7
100
AcDbPolyline
 90
        2
 70
     0
 43
0.15
 10
537.7963371015101
 20
232.4999272823
 10
534.29633745911
 20
232.4999272823
  0
LWPOLYLINE
  5
164
330
44
100
AcDbEntity
  8
0
  6
Continuous
 62
     7
100
AcDbPolyline
 90
        2
 70
     0
 43
0.15
 10
531.7963379806099
 20
228.4999191761
 10
531.7963379806099
 20
229.9999147654
  0
LWPOLYLINE
  5
165
330
44
100
AcDbEntity
  8
0
  6
Continuous
 62
     7
100
AcDbPolyline
 90
        2
 70
     0
 43
0.15
 10
537.7963371015101
 20
230.9999167919
 10
534.29633745911
 20
230.9999167919
  0
LWPOLYLINE
  5
166
330
44
100
AcDbEntity
  8
0
  6
Continuous
 62
     7
100
AcDbPolyline
 90
        2
 70
     0
 43
0.15
 10
540.29633844261
 20
229.9999147654
 10
540.29633844261
 20
228.4999191761
  0
LWPOLYLINE
  5
167
330
44
100
AcDbEntity
  8
0
  6
Continuous
 62
     7
100
AcDbPolyline
 90
        2
 70
     0
 43
0.15
 10
538.79633726541
 20
229.9999147654
 10
538.79633726541
 20
228.4999191761
  0
LWPOLYLINE
  5
168
330
44
100
AcDbEntity
  8
0
  6
Continuous
 62
     7
100
AcDbPolyline
 90
        2
 70
     0
 43
0.15
 10
538.79633726541
 20
228.4999191761
 10
540.29633844261
 20
228.4999191761
  0
LWPOLYLINE
  5
169
330
44
100
AcDbEntity
  8
0
  6
Continuous
 62
     7
100
AcDbPolyline
 90
        2
 70
     0
 43
0.15
 10
531.7963379806099
 20
228.4999191761
 10
533.29633822651
 20
228.4999191761
  0
LWPOLYLINE
  5
16A
330
44
100
AcDbEntity
  8
0
  6
Continuous
 62
     7
100
AcDbPolyline
 90
        2
 70
     0
 43
0.15
 10
533.29633822651
 20
228.4999191761
 10
533.29633822651
 20
229.9999147654
  0
LWPOLYLINE
  5
16B
330
44
100
AcDbEntity
  8
0
  6
Continuous
 62
     7
100
AcDbPolyline
 90
        2
 70
     0
 43
0.15
 10
521.79633785491
 20
232.4999272823
 10
518.29633786331
 20
232.4999272823
  0
LWPOLYLINE
  5
16C
330
44
100
AcDbEntity
  8
0
  6
Continuous
 62
     7
100
AcDbPolyline
 90
        2
 70
     0
 43
0.15
 10
521.79633785491
 20
230.9999167919
 10
518.29633786331
 20
230.9999167919
  0
LWPOLYLINE
  5
16D
330
44
100
AcDbEntity
  8
0
  6
Continuous
 62
     7
100
AcDbPolyline
 90
        2
 70
     0
 43
0.15
 10
524.29633791541
 20
229.9999147654
 10
524.29633791541
 20
228.4999191761
  0
LWPOLYLINE
  5
16E
330
44
100
AcDbEntity
  8
0
  6
Continuous
 62
     7
100
AcDbPolyline
 90
        2
 70
     0
 43
0.15
 10
515.7963376863099
 20
228.4999191761
 10
515.7963376863099
 20
229.9999147654
  0
LWPOLYLINE
  5
16F
330
44
100
AcDbEntity
  8
0
  6
Continuous
 62
     7
100
AcDbPolyline
 90
        2
 70
     0
 43
0.15
 10
522.79633790241
 20
229.9999147654
 10
522.79633790241
 20
228.4999191761
  0
LWPOLYLINE
  5
170
330
44
100
AcDbEntity
  8
0
  6
Continuous
 62
     7
100
AcDbPolyline
 90
        2
 70
     0
 43
0.15
 10
522.79633790241
 20
228.4999191761
 10
524.29633791541
 20
228.4999191761
  0
LWPOLYLINE
  5
171
330
44
100
AcDbEntity
  8
0
  6
Continuous
 62
     7
100
AcDbPolyline
 90
        2
 70
     0
 43
0.15
 10
515.7963376863099
 20
228.4999191761
 10
517.2963376994101
 20
228.4999191761
  0
LWPOLYLINE
  5
172
330
44
100
AcDbEntity
  8
0
  6
Continuous
 62
     7
100
AcDbPolyline
 90
        2
 70
     0
 43
0.15
 10
517.2963376994101
 20
228.4999191761
 10
517.2963376994101
 20
229.9999147654
  0
LWPOLYLINE
  5
173
330
44
100
AcDbEntity
  8
0
  6
Continuous
 62
     7
100
AcDbPolyline
 90
        2
 70
     0
 43
0.15
 10
425.79633736971
 20
232.4999272823
 10
421.54633993271
 20
232.4999272823
  0
LWPOLYLINE
  5
174
330
44
100
AcDbEntity
  8
0
  6
Continuous
 62
     7
100
AcDbPolyline
 90
        2
 70
     0
 43
0.15
 10
420.54633790611
 20
227.4999171495
 10
419.04633486631
 20
227.4999171495
  0
LWPOLYLINE
  5
175
330
44
100
AcDbEntity
  8
0
  6
Continuous
 62
     7
100
AcDbPolyline
 90
        2
 70
     0
 43
0.15
 10
425.79633736971
 20
230.9999167919
 10
421.54633993271
 20
230.9999167919
  0
LWPOLYLINE
  5
176
330
44
100
AcDbEntity
  8
0
  6
Continuous
 62
     7
100
AcDbPolyline
 90
        2
 70
     0
 43
0.15
 10
419.04633486631
 20
229.9999147654
 10
419.04633486631
 20
227.4999171495
  0
LWPOLYLINE
  5
177
330
44
100
AcDbEntity
  8
0
  6
Continuous
 62
     7
100
AcDbPolyline
 90
        2
 70
     0
 43
0.15
 10
420.54633790611
 20
229.9999147654
 10
420.54633790611
 20
227.4999171495
  0
LWPOLYLINE
  5
178
330
44
100
AcDbEntity
  8
0
  6
Continuous
 62
     7
100
AcDbPolyline
 90
        2
 70
     0
 43
0.15
 10
426.79633939621
 20
229.9999147654
 10
426.79633939621
 20
228.4999191761
  0
LWPOLYLINE
  5
179
330
44
100
AcDbEntity
  8
0
  6
Continuous
 62
     7
100
AcDbPolyline
 90
        2
 70
     0
 43
0.15
 10
426.79633939621
 20
228.4999191761
 10
428.29633498551
 20
228.4999191761
  0
LWPOLYLINE
  5
17A
330
44
100
AcDbEntity
  8
0
  6
Continuous
 62
     7
100
AcDbPolyline
 90
        2
 70
     0
 43
0.15
 10
428.29633498551
 20
229.9999147654
 10
428.29633498551
 20
228.4999191761
  0
LWPOLYLINE
  5
17B
330
44
100
AcDbEntity
  8
0
  6
Continuous
 62
     7
100
AcDbPolyline
 90
        2
 70
     0
 43
0.15
 10
506.79633760811
 20
229.9999147654
 10
506.79633760811
 20
228.4999191761
  0
LWPOLYLINE
  5
17C
330
44
100
AcDbEntity
  8
0
  6
Continuous
 62
     7
100
AcDbPolyline
 90
        2
 70
     0
 43
0.15
 10
506.79633760811
 20
228.4999191761
 10
508.29633785401
 20
228.4999191761
  0
LWPOLYLINE
  5
17D
330
44
100
AcDbEntity
  8
0
  6
Continuous
 62
     7
100
AcDbPolyline
 90
        2
 70
     0
 43
0.15
 10
508.29633785401
 20
229.9999147654
 10
508.29633785401
 20
228.4999191761
  0
LWPOLYLINE
  5
17E
330
44
100
AcDbEntity
  8
0
  6
Continuous
 62
     7
100
AcDbPolyline
 90
        2
 70
     0
 43
0.15
 10
505.79633744421
 20
232.4999272823
 10
493.64461371661
 20
232.4999272823
  0
LWPOLYLINE
  5
17F
330
44
100
AcDbEntity
  8
0
  6
Continuous
 62
     7
100
AcDbPolyline
 90
        2
 70
     0
 43
0.15
 10
493.64461371661
 20
232.3999255896
 10
493.64461371661
 20
232.4999272823
  0
LWPOLYLINE
  5
180
330
44
100
AcDbEntity
  8
0
  6
Continuous
 62
     7
100
AcDbPolyline
 90
        2
 70
     0
 43
0.15
 10
493.64461371661
 20
232.3999255896
 10
490.02774240431
 20
232.3999255896
  0
LWPOLYLINE
  5
181
330
44
100
AcDbEntity
  8
0
  6
Continuous
 62
     7
100
AcDbPolyline
 90
        2
 70
     0
 43
0.15
 10
490.02774240431
 20
232.4999272823
 10
490.02774240431
 20
232.3999255896
  0
LWPOLYLINE
  5
182
330
44
100
AcDbEntity
  8
0
  6
Continuous
 62
     7
100
AcDbPolyline
 90
        2
 70
     0
 43
0.15
 10
490.02774240431
 20
232.4999272823
 10
487.90642241001
 20
232.4999272823
  0
LWPOLYLINE
  5
183
330
44
100
AcDbEntity
  8
0
  6
Continuous
 62
     7
100
AcDbPolyline
 90
        2
 70
     0
 43
0.15
 10
487.90642241001
 20
232.3999255896
 10
487.90642241001
 20
232.4999272823
  0
LWPOLYLINE
  5
184
330
44
100
AcDbEntity
  8
0
  6
Continuous
 62
     7
100
AcDbPolyline
 90
        2
 70
     0
 43
0.15
 10
487.90642241001
 20
232.3999255896
 10
485.78510427831
 20
232.3999255896
  0
LWPOLYLINE
  5
185
330
44
100
AcDbEntity
  8
0
  6
Continuous
 62
     7
100
AcDbPolyline
 90
        2
 70
     0
 43
0.15
 10
485.78510427831
 20
232.4999272823
 10
485.78510427831
 20
232.3999255896
  0
LWPOLYLINE
  5
186
330
44
100
AcDbEntity
  8
0
  6
Continuous
 62
     7
100
AcDbPolyline
 90
        2
 70
     0
 43
0.15
 10
485.78510427831
 20
232.4999272823
 10
470.29633814451
 20
232.4999272823
  0
LWPOLYLINE
  5
187
330
44
100
AcDbEntity
  8
0
  6
Continuous
 62
     7
100
AcDbPolyline
 90
        2
 70
     0
 43
0.15
 10
467.79633680341
 20
228.4999191761
 10
467.79633680341
 20
229.9999147654
  0
LWPOLYLINE
  5
188
330
44
100
AcDbEntity
  8
0
  6
Continuous
 62
     7
100
AcDbPolyline
 90
        2
 70
     0
 43
0.15
 10
467.79633680341
 20
228.4999191761
 10
469.29633611801
 20
228.4999191761
  0
LWPOLYLINE
  5
189
330
44
100
AcDbEntity
  8
0
  6
Continuous
 62
     7
100
AcDbPolyline
 90
        2
 70
     0
 43
0.15
 10
469.29633611801
 20
228.4999191761
 10
469.29633611801
 20
229.9999147654
  0
LWPOLYLINE
  5
18A
330
44
100
AcDbEntity
  8
0
  6
Continuous
 62
     7
100
AcDbPolyline
 90
        2
 70
     0
 43
0.15
 10
505.79633744421
 20
230.9999167919
 10
470.29633814451
 20
230.9999167919
  0
LWPOLYLINE
  5
18B
330
44
100
AcDbEntity
  8
0
  6
Continuous
 62
     7
100
AcDbPolyline
 90
        2
 70
     0
 43
0.15
 10
480.54633656501
 20
139.9999186397
 10
479.43300375701
 20
139.9999186397
  0
LWPOLYLINE
  5
18C
330
44
100
AcDbEntity
  8
0
  6
Continuous
 62
     7
100
AcDbPolyline
 90
        2
 70
     0
 43
0.15
 10
496.65967183171
 20
139.9999186397
 10
495.54633716111
 20
139.9999186397
  0
LWPOLYLINE
  5
18D
330
44
100
AcDbEntity
  8
0
  6
Continuous
 62
     7
100
AcDbPolyline
 90
        2
 70
     0
 43
0.15
 10
481.99079180121
 20
142.4999162555
 10
483.04633790611
 20
142.4999162555
  0
LWPOLYLINE
  5
18E
330
44
100
AcDbEntity
  8
0
  6
Continuous
 62
     7
100
AcDbPolyline
 90
        2
 70
     0
 43
0.15
 10
480.54633656501
 20
139.9999186397
 10
483.04633790611
 20
139.9999186397
  0
LWPOLYLINE
  5
18F
330
44
100
AcDbEntity
  8
0
  6
Continuous
 62
     7
100
AcDbPolyline
 90
        2
 70
     0
 43
0.15
 10
480.54633656501
 20
142.4999162555
 10
480.54633656501
 20
139.9999186397
  0
LWPOLYLINE
  5
190
330
44
100
AcDbEntity
  8
0
  6
Continuous
 62
     7
100
AcDbPolyline
 90
        2
 70
     0
 43
0.15
 10
483.04633790611
 20
142.4999162555
 10
493.04633768261
 20
142.4999162555
  0
LWPOLYLINE
  5
191
330
44
100
AcDbEntity
  8
0
  6
Continuous
 62
     7
100
AcDbPolyline
 90
        2
 70
     0
 43
0.15
 10
483.04633790611
 20
139.9999186397
 10
493.04633768261
 20
139.9999186397
  0
LWPOLYLINE
  5
192
330
44
100
AcDbEntity
  8
0
  6
Continuous
 62
     7
100
AcDbPolyline
 90
        2
 70
     0
 43
0.15
 10
483.04633790611
 20
142.4999162555
 10
483.04633790611
 20
139.9999186397
  0
LWPOLYLINE
  5
193
330
44
100
AcDbEntity
  8
0
  6
Continuous
 62
     7
100
AcDbPolyline
 90
        2
 70
     0
 43
0.15
 10
493.04633768261
 20
142.4999162555
 10
494.10188378751
 20
142.4999162555
  0
LWPOLYLINE
  5
194
330
44
100
AcDbEntity
  8
0
  6
Continuous
 62
     7
100
AcDbPolyline
 90
        2
 70
     0
 43
0.15
 10
493.04633768261
 20
139.9999186397
 10
495.54633716111
 20
139.9999186397
  0
LWPOLYLINE
  5
195
330
44
100
AcDbEntity
  8
0
  6
Continuous
 62
     7
100
AcDbPolyline
 90
        2
 70
     0
 43
0.15
 10
495.54633716111
 20
142.4999162555
 10
495.54633716111
 20
139.9999186397
  0
LWPOLYLINE
  5
196
330
44
100
AcDbEntity
  8
0
  6
Continuous
 62
     7
100
AcDbPolyline
 90
        2
 70
     0
 43
0.15
 10
493.04633768261
 20
142.4999162555
 10
493.04633768261
 20
139.9999186397
  0
LWPOLYLINE
  5
197
330
44
100
AcDbEntity
  8
0
  6
Continuous
 62
     7
100
AcDbPolyline
 90
        2
 70
     0
 43
0.15
 10
479.43300375701
 20
139.9999186397
 10
479.43300375701
 20
142.4999162555
  0
LWPOLYLINE
  5
198
330
44
100
AcDbEntity
  8
0
  6
Continuous
 62
     7
100
AcDbPolyline
 90
        2
 70
     0
 43
0.15
 10
496.65967183171
 20
142.4999162555
 10
496.65967183171
 20
139.9999186397
  0
LWPOLYLINE
  5
199
330
44
100
AcDbEntity
  8
0
  6
Continuous
 62
     7
100
AcDbPolyline
 90
        2
 70
     0
 43
0.15
 10
458.12646666531
 20
139.9999186397
 10
459.37646547321
 20
139.9999186397
  0
LWPOLYLINE
  5
19A
330
44
100
AcDbEntity
  8
0
  6
Continuous
 62
     7
100
AcDbPolyline
 90
        2
 70
     0
 43
0.15
 10
458.12646666531
 20
142.4999162555
 10
458.92371231681
 20
142.4999162555
  0
LWPOLYLINE
  5
19B
330
44
100
AcDbEntity
  8
0
  6
Continuous
 62
     7
100
AcDbPolyline
 90
        2
 70
     0
 43
0.15
 10
516.71621081401
 20
139.9999186397
 10
517.96621078611
 20
139.9999186397
  0
LWPOLYLINE
  5
19C
330
44
100
AcDbEntity
  8
0
  6
Continuous
 62
     7
100
AcDbPolyline
 90
        2
 70
     0
 43
0.15
 10
517.16896373761
 20
142.4999162555
 10
517.96621078611
 20
142.4999162555
  0
LWPOLYLINE
  5
19D
330
44
100
AcDbEntity
  8
0
  6
Continuous
 62
     7
100
AcDbPolyline
 90
        2
 70
     0
 43
0.15
 10
444.29276132941
 20
139.9999186397
 10
442.83180678251
 20
139.9999186397
  0
LWPOLYLINE
  5
19E
330
44
100
AcDbEntity
  8
0
  6
Continuous
 62
     7
100
AcDbPolyline
 90
        2
 70
     0
 43
0.15
 10
533.2608697376099
 20
139.9999186397
 10
531.79991705331
 20
139.9999186397
  0
LWPOLYLINE
  5
19F
330
44
100
AcDbEntity
  8
0
  6
Continuous
 62
     7
100
AcDbPolyline
 90
        2
 70
     0
 43
0.15
 10
444.29276132941
 20
139.9999186397
 10
446.05115050441
 20
139.9999186397
  0
LWPOLYLINE
  5
1A0
330
44
100
AcDbEntity
  8
0
  6
Continuous
 62
     7
100
AcDbPolyline
 90
        2
 70
     0
 43
0.15
 10
444.29276132941
 20
142.4999162555
 10
444.29276132941
 20
139.9999186397
  0
LWPOLYLINE
  5
1A1
330
44
100
AcDbEntity
  8
0
  6
Continuous
 62
     7
100
AcDbPolyline
 90
        2
 70
     0
 43
0.15
 10
530.04152787831
 20
139.9999186397
 10
531.79991705331
 20
139.9999186397
  0
LWPOLYLINE
  5
1A2
330
44
100
AcDbEntity
  8
0
  6
Continuous
 62
     7
100
AcDbPolyline
 90
        2
 70
     0
 43
0.15
 10
531.79991705331
 20
139.9999186397
 10
531.79991705331
 20
142.4999162555
  0
LWPOLYLINE
  5
1A3
330
44
100
AcDbEntity
  8
0
  6
Continuous
 62
     7
100
AcDbPolyline
 90
        2
 70
     0
 43
0.15
 10
449.46621352791
 20
139.9999186397
 10
458.12646666531
 20
139.9999186397
  0
LWPOLYLINE
  5
1A4
330
44
100
AcDbEntity
  8
0
  6
Continuous
 62
     7
100
AcDbPolyline
 90
        2
 70
     0
 43
0.15
 10
449.46621352791
 20
142.4999162555
 10
458.12646666531
 20
142.4999162555
  0
LWPOLYLINE
  5
1A5
330
44
100
AcDbEntity
  8
0
  6
Continuous
 62
     7
100
AcDbPolyline
 90
        2
 70
     0
 43
0.15
 10
458.12646666531
 20
142.4999162555
 10
458.12646666531
 20
139.9999186397
  0
LWPOLYLINE
  5
1A6
330
44
100
AcDbEntity
  8
0
  6
Continuous
 62
     7
100
AcDbPolyline
 90
        2
 70
     0
 43
0.15
 10
517.96621078611
 20
139.9999186397
 10
526.6264648548099
 20
139.9999186397
  0
LWPOLYLINE
  5
1A7
330
44
100
AcDbEntity
  8
0
  6
Continuous
 62
     7
100
AcDbPolyline
 90
        2
 70
     0
 43
0.15
 10
517.96621078611
 20
142.4999162555
 10
526.6264648548099
 20
142.4999162555
  0
LWPOLYLINE
  5
1A8
330
44
100
AcDbEntity
  8
0
  6
Continuous
 62
     7
100
AcDbPolyline
 90
        2
 70
     0
 43
0.15
 10
517.96621078611
 20
142.4999162555
 10
517.96621078611
 20
139.9999186397
  0
LWPOLYLINE
  5
1A9
330
44
100
AcDbEntity
  8
0
  6
Continuous
 62
     7
100
AcDbPolyline
 90
        2
 70
     0
 43
0.15
 10
446.05115050441
 20
139.9999186397
 10
449.46621352791
 20
139.9999186397
  0
LWPOLYLINE
  5
1AA
330
44
100
AcDbEntity
  8
0
  6
Continuous
 62
     7
100
AcDbPolyline
 90
        2
 70
     0
 43
0.15
 10
448.42212641601
 20
142.4999162555
 10
449.46621352791
 20
142.4999162555
  0
LWPOLYLINE
  5
1AB
330
44
100
AcDbEntity
  8
0
  6
Continuous
 62
     7
100
AcDbPolyline
 90
        2
 70
     0
 43
0.15
 10
449.46621352791
 20
142.4999162555
 10
449.46621352791
 20
139.9999186397
  0
LWPOLYLINE
  5
1AC
330
44
100
AcDbEntity
  8
0
  6
Continuous
 62
     7
100
AcDbPolyline
 90
        2
 70
     0
 43
0.15
 10
446.05115050441
 20
142.4999162555
 10
446.05115050441
 20
139.9999186397
  0
LWPOLYLINE
  5
1AD
330
44
100
AcDbEntity
  8
0
  6
Continuous
 62
     7
100
AcDbPolyline
 90
        2
 70
     0
 43
0.15
 10
526.6264648548099
 20
139.9999186397
 10
530.04152787831
 20
139.9999186397
  0
LWPOLYLINE
  5
1AE
330
44
100
AcDbEntity
  8
0
  6
Continuous
 62
     7
100
AcDbPolyline
 90
        2
 70
     0
 43
0.15
 10
530.04152787831
 20
142.4999162555
 10
530.04152787831
 20
139.9999186397
  0
LWPOLYLINE
  5
1AF
330
44
100
AcDbEntity
  8
0
  6
Continuous
 62
     7
100
AcDbPolyline
 90
        2
 70
     0
 43
0.15
 10
526.6264648548099
 20
142.4999162555
 10
527.67054591311
 20
142.4999162555
  0
LWPOLYLINE
  5
1B0
330
44
100
AcDbEntity
  8
0
  6
Continuous
 62
     7
100
AcDbPolyline
 90
        2
 70
     0
 43
0.15
 10
526.6264648548099
 20
142.4999162555
 10
526.6264648548099
 20
139.9999186397
  0
LWPOLYLINE
  5
1B1
330
44
100
AcDbEntity
  8
0
  6
Continuous
 62
     7
100
AcDbPolyline
 90
        2
 70
     0
 43
0.15
 10
442.83180678251
 20
139.9999186397
 10
442.83180678251
 20
142.4999162555
  0
LWPOLYLINE
  5
1B2
330
44
100
AcDbEntity
  8
0
  6
Continuous
 62
     7
100
AcDbPolyline
 90
        2
 70
     0
 43
0.15
 10
533.2608697376099
 20
142.4999162555
 10
533.2608697376099
 20
139.9999186397
  0
LWPOLYLINE
  5
1B3
330
44
100
AcDbEntity
  8
0
  6
Continuous
 62
     7
100
AcDbPolyline
 90
        2
 70
     0
 43
0.15
 10
431.22360104681
 20
139.9999186397
 10
431.55853444701
 20
139.9999186397
  0
LWPOLYLINE
  5
1B4
330
44
100
AcDbEntity
  8
0
  6
Continuous
 62
     7
100
AcDbPolyline
 90
        2
 70
     0
 43
0.15
 10
431.22360104681
 20
142.4999162555
 10
431.54892319801
 20
142.4999162555
  0
LWPOLYLINE
  5
1B5
330
44
100
AcDbEntity
  8
0
  6
Continuous
 62
     7
100
AcDbPolyline
 90
        2
 70
     0
 43
0.15
 10
544.54375052811
 20
142.4999162555
 10
544.8690782672099
 20
142.4999162555
  0
LWPOLYLINE
  5
1B6
330
44
100
AcDbEntity
  8
0
  6
Continuous
 62
     7
100
AcDbPolyline
 90
        2
 70
     0
 43
0.15
 10
544.53414114181
 20
139.9999186397
 10
544.8690782672099
 20
139.9999186397
  0
LWPOLYLINE
  5
1B7
330
44
100
AcDbEntity
  8
0
  6
Continuous
 62
     7
100
AcDbPolyline
 90
        2
 70
     0
 43
0.15
 10
419.76291680691
 20
139.9999186397
 10
419.54633587961
 20
139.9999186397
  0
LWPOLYLINE
  5
1B8
330
44
100
AcDbEntity
  8
0
  6
Continuous
 62
     7
100
AcDbPolyline
 90
        2
 70
     0
 43
0.15
 10
556.5463378465099
 20
139.9999186397
 10
556.32976064441
 20
139.9999186397
  0
LWPOLYLINE
  5
1B9
330
44
100
AcDbEntity
  8
0
  6
Continuous
 62
     7
100
AcDbPolyline
 90
        2
 70
     0
 43
0.15
 10
426.22359836461
 20
139.9999186397
 10
431.22360104681
 20
139.9999186397
  0
LWPOLYLINE
  5
1BA
330
44
100
AcDbEntity
  8
0
  6
Continuous
 62
     7
100
AcDbPolyline
 90
        2
 70
     0
 43
0.15
 10
426.22359836461
 20
142.4999162555
 10
431.22360104681
 20
142.4999162555
  0
LWPOLYLINE
  5
1BB
330
44
100
AcDbEntity
  8
0
  6
Continuous
 62
     7
100
AcDbPolyline
 90
        2
 70
     0
 43
0.15
 10
431.22360104681
 20
142.4999162555
 10
431.22360104681
 20
139.9999186397
  0
LWPOLYLINE
  5
1BC
330
44
100
AcDbEntity
  8
0
  6
Continuous
 62
     7
100
AcDbPolyline
 90
        2
 70
     0
 43
0.15
 10
544.8690782672099
 20
142.4999162555
 10
549.86907722411
 20
142.4999162555
  0
LWPOLYLINE
  5
1BD
330
44
100
AcDbEntity
  8
0
  6
Continuous
 62
     7
100
AcDbPolyline
 90
        2
 70
     0
 43
0.15
 10
544.8690782672099
 20
139.9999186397
 10
549.86907722411
 20
139.9999186397
  0
LWPOLYLINE
  5
1BE
330
44
100
AcDbEntity
  8
0
  6
Continuous
 62
     7
100
AcDbPolyline
 90
        2
 70
     0
 43
0.15
 10
544.8690782672099
 20
142.4999162555
 10
544.8690782672099
 20
139.9999186397
  0
LWPOLYLINE
  5
1BF
330
44
100
AcDbEntity
  8
0
  6
Continuous
 62
     7
100
AcDbPolyline
 90
        2
 70
     0
 43
0.15
 10
419.76291680691
 20
139.9999186397
 10
422.80853534101
 20
139.9999186397
  0
LWPOLYLINE
  5
1C0
330
44
100
AcDbEntity
  8
0
  6
Continuous
 62
     7
100
AcDbPolyline
 90
        2
 70
     0
 43
0.15
 10
419.76291680691
 20
142.4999162555
 10
419.76291680691
 20
139.9999186397
  0
LWPOLYLINE
  5
1C1
330
44
100
AcDbEntity
  8
0
  6
Continuous
 62
     7
100
AcDbPolyline
 90
        2
 70
     0
 43
0.15
 10
553.28414211041
 20
139.9999186397
 10
556.32976064441
 20
139.9999186397
  0
LWPOLYLINE
  5
1C2
330
44
100
AcDbEntity
  8
0
  6
Continuous
 62
     7
100
AcDbPolyline
 90
        2
 70
     0
 43
0.15
 10
556.32976064441
 20
139.9999186397
 10
556.32976064441
 20
142.4999162555
  0
LWPOLYLINE
  5
1C3
330
44
100
AcDbEntity
  8
0
  6
Continuous
 62
     7
100
AcDbPolyline
 90
        2
 70
     0
 43
0.15
 10
422.80853534101
 20
139.9999186397
 10
426.22359836461
 20
139.9999186397
  0
LWPOLYLINE
  5
1C4
330
44
100
AcDbEntity
  8
0
  6
Continuous
 62
     7
100
AcDbPolyline
 90
        2
 70
     0
 43
0.15
 10
425.49338186151
 20
142.4999162555
 10
426.22359836461
 20
142.4999162555
  0
LWPOLYLINE
  5
1C5
330
44
100
AcDbEntity
  8
0
  6
Continuous
 62
     7
100
AcDbPolyline
 90
        2
 70
     0
 43
0.15
 10
426.22359836461
 20
142.4999162555
 10
426.22359836461
 20
139.9999186397
  0
LWPOLYLINE
  5
1C6
330
44
100
AcDbEntity
  8
0
  6
Continuous
 62
     7
100
AcDbPolyline
 90
        2
 70
     0
 43
0.15
 10
422.80853534101
 20
142.4999162555
 10
422.80853534101
 20
139.9999186397
  0
LWPOLYLINE
  5
1C7
330
44
100
AcDbEntity
  8
0
  6
Continuous
 62
     7
100
AcDbPolyline
 90
        2
 70
     0
 43
0.15
 10
549.86907722411
 20
142.4999162555
 10
550.59929745261
 20
142.4999162555
  0
LWPOLYLINE
  5
1C8
330
44
100
AcDbEntity
  8
0
  6
Continuous
 62
     7
100
AcDbPolyline
 90
        2
 70
     0
 43
0.15
 10
549.86907722411
 20
139.9999186397
 10
553.28414211041
 20
139.9999186397
  0
LWPOLYLINE
  5
1C9
330
44
100
AcDbEntity
  8
0
  6
Continuous
 62
     7
100
AcDbPolyline
 90
        2
 70
     0
 43
0.15
 10
553.28414211041
 20
142.4999162555
 10
553.28414211041
 20
139.9999186397
  0
LWPOLYLINE
  5
1CA
330
44
100
AcDbEntity
  8
0
  6
Continuous
 62
     7
100
AcDbPolyline
 90
        2
 70
     0
 43
0.15
 10
549.86907722411
 20
142.4999162555
 10
549.86907722411
 20
139.9999186397
  0
LWPOLYLINE
  5
1CB
330
44
100
AcDbEntity
  8
0
  6
Continuous
 62
     7
100
AcDbPolyline
 90
        2
 70
     0
 43
0.15
 10
415.58746987941
 20
157.9999178648
 10
415.58746987941
 20
142.4999162555
  0
LWPOLYLINE
  5
1CC
330
44
100
AcDbEntity
  8
0
  6
Continuous
 62
     7
100
AcDbPolyline
 90
        2
 70
     0
 43
0.15
 10
414.58746785281
 20
158.9999198913
 10
412.04633558151
 20
158.9999198913
  0
LWPOLYLINE
  5
1CD
330
44
100
AcDbEntity
  8
0
  6
Continuous
 62
     7
100
AcDbPolyline
 90
        2
 70
     0
 43
0.15
 10
419.54633587961
 20
142.4999162555
 10
415.58746987941
 20
142.4999162555
  0
LWPOLYLINE
  5
1CE
330
44
100
AcDbEntity
  8
0
  6
Continuous
 62
     7
100
AcDbPolyline
 90
        2
 70
     0
 43
0.15
 10
411.04634100561
 20
159.9999219179
 10
409.54633796571
 20
159.9999219179
  0
LWPOLYLINE
  5
1CF
330
44
100
AcDbEntity
  8
0
  6
Continuous
 62
     7
100
AcDbPolyline
 90
        2
 70
     0
 43
0.15
 10
419.54633587961
 20
142.4999162555
 10
419.54633587961
 20
139.9999186397
  0
LWPOLYLINE
  5
1D0
330
44
100
AcDbEntity
  8
0
  6
Continuous
 62
     7
100
AcDbPolyline
 90
        2
 70
     0
 43
0.15
 10
419.54633587961
 20
139.9999186397
 10
412.04633558151
 20
139.9999186397
  0
LWPOLYLINE
  5
1D1
330
44
100
AcDbEntity
  8
0
  6
Continuous
 62
     7
100
AcDbPolyline
 90
        2
 70
     0
 43
0.15
 10
560.50520757201
 20
142.4999162555
 10
560.50520757201
 20
157.9999178648
  0
LWPOLYLINE
  5
1D2
330
44
100
AcDbEntity
  8
0
  6
Continuous
 62
     7
100
AcDbPolyline
 90
        2
 70
     0
 43
0.15
 10
564.04633814451
 20
158.9999198913
 10
561.50520959851
 20
158.9999198913
  0
LWPOLYLINE
  5
1D3
330
44
100
AcDbEntity
  8
0
  6
Continuous
 62
     7
100
AcDbPolyline
 90
        2
 70
     0
 43
0.15
 10
560.50520757201
 20
142.4999162555
 10
556.5463378465099
 20
142.4999162555
  0
LWPOLYLINE
  5
1D4
330
44
100
AcDbEntity
  8
0
  6
Continuous
 62
     7
100
AcDbPolyline
 90
        2
 70
     0
 43
0.15
 10
566.54633948571
 20
159.9999219179
 10
565.04633644581
 20
159.9999219179
  0
LWPOLYLINE
  5
1D5
330
44
100
AcDbEntity
  8
0
  6
Continuous
 62
     7
100
AcDbPolyline
 90
        2
 70
     0
 43
0.15
 10
556.5463378465099
 20
139.9999186397
 10
556.5463378465099
 20
142.4999162555
  0
LWPOLYLINE
  5
1D6
330
44
100
AcDbEntity
  8
0
  6
Continuous
 62
     7
100
AcDbPolyline
 90
        2
 70
     0
 43
0.15
 10
564.04633814451
 20
139.9999186397
 10
556.5463378465099
 20
139.9999186397
  0
LWPOLYLINE
  5
1D7
330
44
100
AcDbEntity
  8
0
  6
Continuous
 62
     7
100
AcDbPolyline
 90
        2
 70
     0
 43
0.15
 10
558.82159242391
 20
159.9999219179
 10
565.04633644581
 20
159.9999219179
  0
LWPOLYLINE
  5
1D8
330
44
100
AcDbEntity
  8
0
  6
Continuous
 62
     7
100
AcDbPolyline
 90
        2
 70
     0
 43
0.15
 10
411.04634100561
 20
159.9999219179
 10
417.27108502751
 20
159.9999219179
  0
LWPOLYLINE
  5
1D9
330
44
100
AcDbEntity
  8
0
  6
Continuous
 62
     7
100
AcDbPolyline
 90
        2
 70
     0
 43
0.15
 10
409.54633796571
 20
142.4999162555
 10
412.04633558151
 20
139.9999186397
  0
LWPOLYLINE
  5
1DA
330
44
100
AcDbEntity
  8
0
  6
Continuous
 62
     7
100
AcDbPolyline
 90
        2
 70
     0
 43
0.15
 10
564.04633814451
 20
139.9999186397
 10
566.54633948571
 20
142.4999162555
  0
LWPOLYLINE
  5
1DB
330
44
100
AcDbEntity
  8
0
  6
Continuous
 62
     7
100
AcDbPolyline
 90
        2
 70
     0
 43
0.15
 10
533.2608697376099
 20
139.9999186397
 10
544.53414114181
 20
139.9999186397
  0
LWPOLYLINE
  5
1DC
330
44
100
AcDbEntity
  8
0
  6
Continuous
 62
     7
100
AcDbPolyline
 90
        2
 70
     0
 43
0.15
 10
496.65967183171
 20
139.9999186397
 10
516.71621081401
 20
139.9999186397
  0
LWPOLYLINE
  5
1DD
330
44
100
AcDbEntity
  8
0
  6
Continuous
 62
     7
100
AcDbPolyline
 90
        2
 70
     0
 43
0.15
 10
459.37646547321
 20
139.9999186397
 10
479.43300375701
 20
139.9999186397
  0
LWPOLYLINE
  5
1DE
330
44
100
AcDbEntity
  8
0
  6
Continuous
 62
     7
100
AcDbPolyline
 90
        2
 70
     0
 43
0.15
 10
431.55853444701
 20
139.9999186397
 10
442.83180678251
 20
139.9999186397
  0
LWPOLYLINE
  5
1DF
330
44
100
AcDbEntity
  8
0
  6
Continuous
 62
     7
100
AcDbPolyline
 90
        2
 70
     0
 43
0.15
 10
566.54633948571
 20
142.4999162555
 10
566.54633948571
 20
159.9999219179
  0
LWPOLYLINE
  5
1E0
330
44
100
AcDbEntity
  8
0
  6
Continuous
 62
     7
100
AcDbPolyline
 90
        2
 70
     0
 43
0.15
 10
409.54633796571
 20
159.9999219179
 10
409.54633796571
 20
142.4999162555
  0
LWPOLYLINE
  5
1E1
330
44
100
AcDbEntity
  8
0
  6
Continuous
 62
     7
100
AcDbPolyline
 90
        2
 70
     0
 43
0.15
 10
558.0463371611099
 20
232.999920845
 10
418.04634029031
 20
232.999920845
  0
LWPOLYLINE
  5
1E2
330
44
100
AcDbEntity
  8
0
  6
Continuous
 62
     7
100
AcDbPolyline
 90
        2
 70
     0
 43
0.15
 10
474.04633829361
 20
227.4999171495
 10
474.04633829361
 20
221.999913454
  0
LWPOLYLINE
  5
1E3
330
44
100
AcDbEntity
  8
0
  6
Continuous
 62
     7
100
AcDbPolyline
 90
        2
 70
     0
 43
0.15
 10
502.04633729521
 20
227.4999171495
 10
502.04633729521
 20
221.999913454
  0
LWPOLYLINE
  5
1E4
330
44
100
AcDbEntity
  8
0
  6
Continuous
 62
     7
100
AcDbPolyline
 90
        2
 70
     0
 43
0.15
 10
458.54633668421
 20
227.4999171495
 10
462.04633632661
 20
227.4999171495
  0
LWPOLYLINE
  5
1E5
330
44
100
AcDbEntity
  8
0
  6
Continuous
 62
     7
100
AcDbPolyline
 90
        2
 70
     0
 43
0.15
 10
462.04633632661
 20
227.4999171495
 10
462.04633632661
 20
221.999913454
  0
LWPOLYLINE
  5
1E6
330
44
100
AcDbEntity
  8
0
  6
Continuous
 62
     7
100
AcDbPolyline
 90
        2
 70
     0
 43
0.15
 10
458.54633668421
 20
227.4999171495
 10
458.54633668421
 20
221.999913454
  0
LWPOLYLINE
  5
1E7
330
44
100
AcDbEntity
  8
0
  6
Continuous
 62
     7
100
AcDbPolyline
 90
        2
 70
     0
 43
0.15
 10
431.04633683321
 20
227.4999171495
 10
434.54633647561
 20
227.4999171495
  0
LWPOLYLINE
  5
1E8
330
44
100
AcDbEntity
  8
0
  6
Continuous
 62
     7
100
AcDbPolyline
 90
        2
 70
     0
 43
0.15
 10
431.04633683321
 20
227.4999171495
 10
431.04633683321
 20
221.999913454
  0
LWPOLYLINE
  5
1E9
330
44
100
AcDbEntity
  8
0
  6
Continuous
 62
     7
100
AcDbPolyline
 90
        2
 70
     0
 43
0.15
 10
434.54633647561
 20
227.4999171495
 10
434.54633647561
 20
221.999913454
  0
LWPOLYLINE
  5
1EA
330
44
100
AcDbEntity
  8
0
  6
Continuous
 62
     7
100
AcDbPolyline
 90
        2
 70
     0
 43
0.15
 10
514.04633786511
 20
227.4999171495
 10
517.54633774041
 20
227.4999171495
  0
LWPOLYLINE
  5
1EB
330
44
100
AcDbEntity
  8
0
  6
Continuous
 62
     7
100
AcDbPolyline
 90
        2
 70
     0
 43
0.15
 10
514.04633786511
 20
227.4999171495
 10
514.04633786511
 20
221.999913454
  0
LWPOLYLINE
  5
1EC
330
44
100
AcDbEntity
  8
0
  6
Continuous
 62
     7
100
AcDbPolyline
 90
        2
 70
     0
 43
0.15
 10
517.54633774041
 20
227.4999171495
 10
517.54633774041
 20
221.999913454
  0
LWPOLYLINE
  5
1ED
330
44
100
AcDbEntity
  8
0
  6
Continuous
 62
     7
100
AcDbPolyline
 90
        2
 70
     0
 43
0.15
 10
541.54633725051
 20
227.4999171495
 10
545.04633689281
 20
227.4999171495
  0
LWPOLYLINE
  5
1EE
330
44
100
AcDbEntity
  8
0
  6
Continuous
 62
     7
100
AcDbPolyline
 90
        2
 70
     0
 43
0.15
 10
545.04633689281
 20
227.4999171495
 10
545.04633689281
 20
221.999913454
  0
LWPOLYLINE
  5
1EF
330
44
100
AcDbEntity
  8
0
  6
Continuous
 62
     7
100
AcDbPolyline
 90
        2
 70
     0
 43
0.15
 10
541.54633725051
 20
227.4999171495
 10
541.54633725051
 20
221.999913454
  0
LWPOLYLINE
  5
1F0
330
44
100
AcDbEntity
  8
0
  6
Continuous
 62
     7
100
AcDbPolyline
 90
        2
 70
     0
 43
0.15
 10
455.79730713731
 20
221.999913454
 10
427.62804025771
 20
221.999913454
  0
LWPOLYLINE
  5
1F1
330
44
100
AcDbEntity
  8
0
  6
Continuous
 62
     7
100
AcDbPolyline
 90
        2
 70
     0
 43
0.15
 10
548.46463346841
 20
221.999913454
 10
520.29536880071
 20
221.999913454
  0
LWPOLYLINE
  5
1F2
330
44
100
AcDbEntity
  8
0
  6
Continuous
 62
     7
100
AcDbPolyline
 90
        2
 70
     0
 43
0.15
 10
427.62804025771
 20
221.999913454
 10
427.04633617761
 20
221.999913454
  0
LWPOLYLINE
  5
1F3
330
44
100
AcDbEntity
  8
0
  6
Continuous
 62
     7
100
AcDbPolyline
 90
        2
 70
     0
 43
0.15
 10
549.04633754851
 20
221.999913454
 10
548.46463346841
 20
221.999913454
  0
LWPOLYLINE
  5
1F4
330
44
100
AcDbEntity
  8
0
  6
Continuous
 62
     7
100
AcDbPolyline
 90
        2
 70
     0
 43
0.15
 10
453.78912979721
 20
217.432230711
 10
455.79730713731
 20
215.6960368156
  0
LWPOLYLINE
  5
1F5
330
44
100
AcDbEntity
  8
0
  6
Continuous
 62
     7
100
AcDbPolyline
 90
        2
 70
     0
 43
0.15
 10
427.04633617761
 20
217.432230711
 10
453.78912979721
 20
217.432230711
  0
LWPOLYLINE
  5
1F6
330
44
100
AcDbEntity
  8
0
  6
Continuous
 62
     7
100
AcDbPolyline
 90
        2
 70
     0
 43
0.15
 10
522.3035464900099
 20
217.432230711
 10
549.04633754851
 20
217.432230711
  0
LWPOLYLINE
  5
1F7
330
44
100
AcDbEntity
  8
0
  6
Continuous
 62
     7
100
AcDbPolyline
 90
        2
 70
     0
 43
0.15
 10
520.29536880071
 20
215.6960368156
 10
522.3035464900099
 20
217.432230711
  0
LWPOLYLINE
  5
1F8
330
44
100
AcDbEntity
  8
0
  6
Continuous
 62
     7
100
AcDbPolyline
 90
        2
 70
     0
 43
0.15
 10
420.54633790611
 20
227.4999171495
 10
423.04633552191
 20
227.4999171495
  0
LWPOLYLINE
  5
1F9
330
44
100
AcDbEntity
  8
0
  6
Continuous
 62
     7
100
AcDbPolyline
 90
        2
 70
     0
 43
0.15
 10
423.04633552191
 20
227.4999171495
 10
423.04633552191
 20
221.999913454
  0
LWPOLYLINE
  5
1FA
330
44
100
AcDbEntity
  8
0
  6
Continuous
 62
     7
100
AcDbPolyline
 90
        2
 70
     0
 43
0.15
 10
553.04633820421
 20
227.4999171495
 10
555.54633954531
 20
227.4999171495
  0
LWPOLYLINE
  5
1FB
330
44
100
AcDbEntity
  8
0
  6
Continuous
 62
     7
100
AcDbPolyline
 90
        2
 70
     0
 43
0.15
 10
553.04633820421
 20
227.4999171495
 10
553.04633820421
 20
221.999913454
  0
LWPOLYLINE
  5
1FC
330
44
100
AcDbEntity
  8
0
  6
Continuous
 62
     7
100
AcDbPolyline
 90
        2
 70
     0
 43
0.15
 10
418.04634029031
 20
227.4999171495
 10
419.04633486631
 20
227.4999171495
  0
LWPOLYLINE
  5
1FD
330
44
100
AcDbEntity
  8
0
  6
Continuous
 62
     7
100
AcDbPolyline
 90
        2
 70
     0
 43
0.15
 10
419.54633587961
 20
227.4999171495
 10
419.54633587961
 20
221.999913454
  0
LWPOLYLINE
  5
1FE
330
44
100
AcDbEntity
  8
0
  6
Continuous
 62
     7
100
AcDbPolyline
 90
        2
 70
     0
 43
0.15
 10
557.04633885981
 20
227.4999171495
 10
558.0463371611099
 20
227.4999171495
  0
LWPOLYLINE
  5
1FF
330
44
100
AcDbEntity
  8
0
  6
Continuous
 62
     7
100
AcDbPolyline
 90
        2
 70
     0
 43
0.15
 10
556.5463378465099
 20
227.4999171495
 10
556.5463378465099
 20
221.999913454
  0
LWPOLYLINE
  5
200
330
44
100
AcDbEntity
  8
0
  6
Continuous
 62
     7
100
AcDbPolyline
 90
        2
 70
     0
 43
0.15
 10
562.04633781671
 20
232.999920845
 10
558.0463371611099
 20
232.999920845
  0
LWPOLYLINE
  5
201
330
44
100
AcDbEntity
  8
0
  6
Continuous
 62
     7
100
AcDbPolyline
 90
        2
 70
     0
 43
0.15
 10
562.04633781671
 20
232.999920845
 10
562.04633781671
 20
218.9999222755
  0
LWPOLYLINE
  5
202
330
44
100
AcDbEntity
  8
0
  6
Continuous
 62
     7
100
AcDbPolyline
 90
        2
 70
     0
 43
0.15
 10
562.04633781671
 20
218.9999222755
 10
560.54633850221
 20
218.9999222755
  0
LWPOLYLINE
  5
203
330
44
100
AcDbEntity
  8
0
  6
Continuous
 62
     7
100
AcDbPolyline
 90
        2
 70
     0
 43
0.15
 10
558.0463371611099
 20
221.999913454
 10
558.0463371611099
 20
232.999920845
  0
LWPOLYLINE
  5
204
330
44
100
AcDbEntity
  8
0
  6
Continuous
 62
     7
100
AcDbPolyline
 90
        2
 70
     0
 43
0.15
 10
558.0463371611099
 20
221.999913454
 10
557.04633885981
 20
221.999913454
  0
LWPOLYLINE
  5
205
330
44
100
AcDbEntity
  8
0
  6
Continuous
 62
     7
100
AcDbPolyline
 90
        2
 70
     0
 43
0.15
 10
560.54633850221
 20
213.9999270439
 10
561.04633951551
 20
213.9999270439
  0
LWPOLYLINE
  5
206
330
44
100
AcDbEntity
  8
0
  6
Continuous
 62
     7
100
AcDbPolyline
 90
        2
 70
     0
 43
0.15
 10
561.04633951551
 20
215.9999161959
 10
561.04633951551
 20
213.9999270439
  0
LWPOLYLINE
  5
207
330
44
100
AcDbEntity
  8
0
  6
Continuous
 62
     7
100
AcDbPolyline
 90
        2
 70
     0
 43
0.15
 10
561.04633951551
 20
215.9999161959
 10
560.54633850221
 20
215.9999161959
  0
LWPOLYLINE
  5
208
330
44
100
AcDbEntity
  8
0
  6
Continuous
 62
     7
100
AcDbPolyline
 90
        2
 70
     0
 43
0.15
 10
557.04633885981
 20
142.4999162555
 10
560.04633748891
 20
142.4999162555
  0
LWPOLYLINE
  5
209
330
44
100
AcDbEntity
  8
0
  6
Continuous
 62
     7
100
AcDbPolyline
 90
        2
 70
     0
 43
0.15
 10
560.54633850221
 20
152.9999226332
 10
560.54633850221
 20
153.9999172091
  0
LWPOLYLINE
  5
20A
330
44
100
AcDbEntity
  8
0
  6
Continuous
 62
     7
100
AcDbPolyline
 90
        2
 70
     0
 43
0.15
 10
560.54633850221
 20
161.9999185204
 10
560.54633850221
 20
162.999920547
  0
LWPOLYLINE
  5
20B
330
44
100
AcDbEntity
  8
0
  6
Continuous
 62
     7
100
AcDbPolyline
 90
        2
 70
     0
 43
0.15
 10
560.54633850221
 20
218.9999222755
 10
560.54633850221
 20
215.9999161959
  0
LWPOLYLINE
  5
20C
330
44
100
AcDbEntity
  8
0
  6
Continuous
 62
     7
100
AcDbPolyline
 90
        2
 70
     0
 43
0.15
 10
560.54633850221
 20
213.9999270439
 10
560.54633850221
 20
206.999912858
  0
LWPOLYLINE
  5
20D
330
44
100
AcDbEntity
  8
0
  6
Continuous
 62
     7
100
AcDbPolyline
 90
        2
 70
     0
 43
0.15
 10
425.49338186151
 20
142.4999162555
 10
419.54633587961
 20
142.4999162555
  0
LWPOLYLINE
  5
20E
330
44
100
AcDbEntity
  8
0
  6
Continuous
 62
     7
100
AcDbPolyline
 90
        2
 70
     0
 43
0.15
 10
448.42212641601
 20
142.4999162555
 10
431.55853444701
 20
142.4999162555
  0
LWPOLYLINE
  5
20F
330
44
100
AcDbEntity
  8
0
  6
Continuous
 62
     7
100
AcDbPolyline
 90
        2
 70
     0
 43
0.15
 10
481.99079180121
 20
142.4999162555
 10
458.92371231681
 20
142.4999162555
  0
LWPOLYLINE
  5
210
330
44
100
AcDbEntity
  8
0
  6
Continuous
 62
     7
100
AcDbPolyline
 90
        2
 70
     0
 43
0.15
 10
517.16896373761
 20
142.4999162555
 10
494.10188378751
 20
142.4999162555
  0
LWPOLYLINE
  5
211
330
44
100
AcDbEntity
  8
0
  6
Continuous
 62
     7
100
AcDbPolyline
 90
        2
 70
     0
 43
0.15
 10
544.53414114181
 20
142.4999162555
 10
527.67054591311
 20
142.4999162555
  0
LWPOLYLINE
  5
212
330
44
100
AcDbEntity
  8
0
  6
Continuous
 62
     7
100
AcDbPolyline
 90
        2
 70
     0
 43
0.15
 10
556.5463378465099
 20
142.4999162555
 10
550.59929745261
 20
142.4999162555
  0
LWPOLYLINE
  5
213
330
44
100
AcDbEntity
  8
0
  6
Continuous
 62
     7
100
AcDbPolyline
 90
        2
 70
     0
 43
0.15
 10
557.04633885981
 20
142.4999162555
 10
557.04633885981
 20
221.999913454
  0
LWPOLYLINE
  5
214
330
44
100
AcDbEntity
  8
0
  6
Continuous
 62
     7
100
AcDbPolyline
 90
        2
 70
     0
 43
0.15
 10
557.04633885981
 20
221.999913454
 10
549.04633754851
 20
221.999913454
  0
LWPOLYLINE
  5
215
330
44
100
AcDbEntity
  8
0
  6
Continuous
 62
     7
100
AcDbPolyline
 90
        2
 70
     0
 43
0.15
 10
549.04633754851
 20
221.999913454
 10
549.04633754851
 20
215.6960368156
  0
LWPOLYLINE
  5
216
330
44
100
AcDbEntity
  8
0
  6
Continuous
 62
     7
100
AcDbPolyline
 90
        2
 70
     0
 43
0.15
 10
549.04633754851
 20
215.6960368156
 10
520.29536880071
 20
215.6960368156
  0
LWPOLYLINE
  5
217
330
44
100
AcDbEntity
  8
0
  6
Continuous
 62
     7
100
AcDbPolyline
 90
        2
 70
     0
 43
0.15
 10
520.29536880071
 20
215.6960368156
 10
520.29536880071
 20
221.999913454
  0
LWPOLYLINE
  5
218
330
44
100
AcDbEntity
  8
0
  6
Continuous
 62
     7
100
AcDbPolyline
 90
        2
 70
     0
 43
0.15
 10
520.29536880071
 20
221.999913454
 10
455.79730713731
 20
221.999913454
  0
LWPOLYLINE
  5
219
330
44
100
AcDbEntity
  8
0
  6
Continuous
 62
     7
100
AcDbPolyline
 90
        2
 70
     0
 43
0.15
 10
455.79730713731
 20
221.999913454
 10
455.79730713731
 20
215.6960368156
  0
LWPOLYLINE
  5
21A
330
44
100
AcDbEntity
  8
0
  6
Continuous
 62
     7
100
AcDbPolyline
 90
        2
 70
     0
 43
0.15
 10
455.79730713731
 20
215.6960368156
 10
427.04633617761
 20
215.6960368156
  0
LWPOLYLINE
  5
21B
330
44
100
AcDbEntity
  8
0
  6
Continuous
 62
     7
100
AcDbPolyline
 90
        2
 70
     0
 43
0.15
 10
427.04633617761
 20
215.6960368156
 10
427.04633617761
 20
221.999913454
  0
LWPOLYLINE
  5
21C
330
44
100
AcDbEntity
  8
0
  6
Continuous
 62
     7
100
AcDbPolyline
 90
        2
 70
     0
 43
0.15
 10
427.04633617761
 20
221.999913454
 10
419.04633486631
 20
221.999913454
  0
LWPOLYLINE
  5
21D
330
44
100
AcDbEntity
  8
0
  6
Continuous
 62
     7
100
AcDbPolyline
 90
        2
 70
     0
 43
0.15
 10
560.54633850221
 20
202.4999260902
 10
560.54633850221
 20
203.4999132156
  0
LWPOLYLINE
  5
21E
330
44
100
AcDbEntity
  8
0
  6
Continuous
 62
     7
100
AcDbPolyline
 90
        2
 70
     0
 43
0.15
 10
560.54633850221
 20
197.9999244213
 10
560.54633850221
 20
198.9999264479
  0
LWPOLYLINE
  5
21F
330
44
100
AcDbEntity
  8
0
  6
Continuous
 62
     7
100
AcDbPolyline
 90
        2
 70
     0
 43
0.15
 10
560.54633850221
 20
193.4999227524
 10
560.54633850221
 20
194.4999173284
  0
LWPOLYLINE
  5
220
330
44
100
AcDbEntity
  8
0
  6
Continuous
 62
     7
100
AcDbPolyline
 90
        2
 70
     0
 43
0.15
 10
560.54633850221
 20
188.9999210834
 10
560.54633850221
 20
189.99992311
  0
LWPOLYLINE
  5
221
330
44
100
AcDbEntity
  8
0
  6
Continuous
 62
     7
100
AcDbPolyline
 90
        2
 70
     0
 43
0.15
 10
560.54633850221
 20
184.4999194145
 10
560.54633850221
 20
185.4999214411
  0
LWPOLYLINE
  5
222
330
44
100
AcDbEntity
  8
0
  6
Continuous
 62
     7
100
AcDbPolyline
 90
        2
 70
     0
 43
0.15
 10
560.54633850221
 20
179.9999177456
 10
560.54633850221
 20
180.9999197721
  0
LWPOLYLINE
  5
223
330
44
100
AcDbEntity
  8
0
  6
Continuous
 62
     7
100
AcDbPolyline
 90
        2
 70
     0
 43
0.15
 10
560.54633850221
 20
175.4999235272
 10
560.54633850221
 20
176.4999181032
  0
LWPOLYLINE
  5
224
330
44
100
AcDbEntity
  8
0
  6
Continuous
 62
     7
100
AcDbPolyline
 90
        2
 70
     0
 43
0.15
 10
560.54633850221
 20
170.9999218583
 10
560.54633850221
 20
171.9999164343
  0
LWPOLYLINE
  5
225
330
44
100
AcDbEntity
  8
0
  6
Continuous
 62
     7
100
AcDbPolyline
 90
        2
 70
     0
 43
0.15
 10
560.54633850221
 20
166.4999201894
 10
560.54633850221
 20
167.4999222159
  0
LWPOLYLINE
  5
226
330
44
100
AcDbEntity
  8
0
  6
Continuous
 62
     7
100
AcDbPolyline
 90
        2
 70
     0
 43
0.15
 10
560.54633850221
 20
157.4999168515
 10
560.54633850221
 20
158.4999188781
  0
LWPOLYLINE
  5
227
330
44
100
AcDbEntity
  8
0
  6
Continuous
 62
     7
100
AcDbPolyline
 90
        2
 70
     0
 43
0.15
 10
560.54633850221
 20
148.4999209642
 10
560.54633850221
 20
149.4999229908
  0
LWPOLYLINE
  5
228
330
44
100
AcDbEntity
  8
0
  6
Continuous
 62
     7
100
AcDbPolyline
 90
        2
 70
     0
 43
0.15
 10
560.54633850221
 20
142.9999172687
 10
560.54633850221
 20
144.9999213219
  0
LWPOLYLINE
  5
229
330
44
100
AcDbEntity
  8
0
  6
Continuous
 62
     7
100
AcDbPolyline
 90
        2
 70
     0
 43
0.15
 10
415.54633522391
 20
203.4999132156
 10
415.54633522391
 20
202.4999260902
  0
LWPOLYLINE
  5
22A
330
44
100
AcDbEntity
  8
0
  6
Continuous
 62
     7
100
AcDbPolyline
 90
        2
 70
     0
 43
0.15
 10
415.54633522391
 20
198.9999264479
 10
415.54633522391
 20
197.9999244213
  0
LWPOLYLINE
  5
22B
330
44
100
AcDbEntity
  8
0
  6
Continuous
 62
     7
100
AcDbPolyline
 90
        2
 70
     0
 43
0.15
 10
415.54633522391
 20
194.4999173284
 10
415.54633522391
 20
193.4999227524
  0
LWPOLYLINE
  5
22C
330
44
100
AcDbEntity
  8
0
  6
Continuous
 62
     7
100
AcDbPolyline
 90
        2
 70
     0
 43
0.15
 10
415.54633522391
 20
189.99992311
 10
415.54633522391
 20
188.9999210834
  0
LWPOLYLINE
  5
22D
330
44
100
AcDbEntity
  8
0
  6
Continuous
 62
     7
100
AcDbPolyline
 90
        2
 70
     0
 43
0.15
 10
415.54633522391
 20
185.4999214411
 10
415.54633522391
 20
184.4999194145
  0
LWPOLYLINE
  5
22E
330
44
100
AcDbEntity
  8
0
  6
Continuous
 62
     7
100
AcDbPolyline
 90
        2
 70
     0
 43
0.15
 10
415.54633522391
 20
180.9999197721
 10
415.54633522391
 20
179.9999177456
  0
LWPOLYLINE
  5
22F
330
44
100
AcDbEntity
  8
0
  6
Continuous
 62
     7
100
AcDbPolyline
 90
        2
 70
     0
 43
0.15
 10
415.54633522391
 20
176.4999181032
 10
415.54633522391
 20
175.4999235272
  0
LWPOLYLINE
  5
230
330
44
100
AcDbEntity
  8
0
  6
Continuous
 62
     7
100
AcDbPolyline
 90
        2
 70
     0
 43
0.15
 10
415.54633522391
 20
171.9999164343
 10
415.54633522391
 20
170.9999218583
  0
LWPOLYLINE
  5
231
330
44
100
AcDbEntity
  8
0
  6
Continuous
 62
     7
100
AcDbPolyline
 90
        2
 70
     0
 43
0.15
 10
415.54633522391
 20
167.4999222159
 10
415.54633522391
 20
166.4999201894
  0
LWPOLYLINE
  5
232
330
44
100
AcDbEntity
  8
0
  6
Continuous
 62
     7
100
AcDbPolyline
 90
        2
 70
     0
 43
0.15
 10
415.54633522391
 20
162.999920547
 10
415.54633522391
 20
161.9999185204
  0
LWPOLYLINE
  5
233
330
44
100
AcDbEntity
  8
0
  6
Continuous
 62
     7
100
AcDbPolyline
 90
        2
 70
     0
 43
0.15
 10
415.54633522391
 20
158.4999188781
 10
415.54633522391
 20
157.4999168515
  0
LWPOLYLINE
  5
234
330
44
100
AcDbEntity
  8
0
  6
Continuous
 62
     7
100
AcDbPolyline
 90
        2
 70
     0
 43
0.15
 10
415.54633522391
 20
153.9999172091
 10
415.54633522391
 20
152.9999226332
  0
LWPOLYLINE
  5
235
330
44
100
AcDbEntity
  8
0
  6
Continuous
 62
     7
100
AcDbPolyline
 90
        2
 70
     0
 43
0.15
 10
415.54633522391
 20
149.4999229908
 10
415.54633522391
 20
148.4999209642
  0
LWPOLYLINE
  5
236
330
44
100
AcDbEntity
  8
0
  6
Continuous
 62
     7
100
AcDbPolyline
 90
        2
 70
     0
 43
0.15
 10
415.54633522391
 20
144.9999213219
 10
415.54633522391
 20
142.9999172687
  0
LWPOLYLINE
  5
237
330
44
100
AcDbEntity
  8
0
  6
Continuous
 62
     7
100
AcDbPolyline
 90
        2
 70
     0
 43
0.15
 10
416.04633623721
 20
142.4999162555
 10
419.04633486631
 20
142.4999162555
  0
LWPOLYLINE
  5
238
330
44
100
AcDbEntity
  8
0
  6
Continuous
 62
     7
100
AcDbPolyline
 90
        2
 70
     0
 43
0.15
 10
419.04633486631
 20
221.999913454
 10
419.04633486631
 20
142.4999162555
  0
LWPOLYLINE
  5
239
330
44
100
AcDbEntity
  8
0
  6
Continuous
 62
     7
100
AcDbPolyline
 90
        2
 70
     0
 43
0.15
 10
419.04633486631
 20
221.999913454
 10
418.04634029031
 20
221.999913454
  0
LWPOLYLINE
  5
23A
330
44
100
AcDbEntity
  8
0
  6
Continuous
 62
     7
100
AcDbPolyline
 90
        2
 70
     0
 43
0.15
 10
418.04634029031
 20
232.999920845
 10
418.04634029031
 20
221.999913454
  0
LWPOLYLINE
  5
23B
330
44
100
AcDbEntity
  8
0
  6
Continuous
 62
     7
100
AcDbPolyline
 90
        2
 70
     0
 43
0.15
 10
418.04634029031
 20
232.999920845
 10
414.04633963471
 20
232.999920845
  0
LWPOLYLINE
  5
23C
330
44
100
AcDbEntity
  8
0
  6
Continuous
 62
     7
100
AcDbPolyline
 90
        2
 70
     0
 43
0.15
 10
414.04633963471
 20
218.9999222755
 10
414.04633963471
 20
232.999920845
  0
LWPOLYLINE
  5
23D
330
44
100
AcDbEntity
  8
0
  6
Continuous
 62
     7
100
AcDbPolyline
 90
        2
 70
     0
 43
0.15
 10
415.54633522391
 20
218.9999222755
 10
414.04633963471
 20
218.9999222755
  0
LWPOLYLINE
  5
23E
330
44
100
AcDbEntity
  8
0
  6
Continuous
 62
     7
100
AcDbPolyline
 90
        2
 70
     0
 43
0.15
 10
415.54633522391
 20
215.9999161959
 10
415.54633522391
 20
218.9999222755
  0
LWPOLYLINE
  5
23F
330
44
100
AcDbEntity
  8
0
  6
Continuous
 62
     7
100
AcDbPolyline
 90
        2
 70
     0
 43
0.15
 10
415.54633522391
 20
215.9999161959
 10
415.04633421061
 20
215.9999161959
  0
LWPOLYLINE
  5
240
330
44
100
AcDbEntity
  8
0
  6
Continuous
 62
     7
100
AcDbPolyline
 90
        2
 70
     0
 43
0.15
 10
415.04633421061
 20
213.9999270439
 10
415.04633421061
 20
215.9999161959
  0
LWPOLYLINE
  5
241
330
44
100
AcDbEntity
  8
0
  6
Continuous
 62
     7
100
AcDbPolyline
 90
        2
 70
     0
 43
0.15
 10
415.04633421061
 20
213.9999270439
 10
415.54633522391
 20
213.9999270439
  0
LWPOLYLINE
  5
242
330
44
100
AcDbEntity
  8
0
  6
Continuous
 62
     7
100
AcDbPolyline
 90
        2
 70
     0
 43
0.15
 10
415.54633522391
 20
206.999912858
 10
415.54633522391
 20
213.9999270439
  0
LWPOLYLINE
  5
243
330
44
100
AcDbEntity
  8
0
  6
Continuous
 62
     7
100
AcDbPolyline
 90
        2
 70
     0
 43
0.15
 10
442.29634100561
 20
229.9999147654
 10
442.29634100561
 20
228.4999191761
  0
LWPOLYLINE
  5
244
330
44
100
AcDbEntity
  8
0
  6
Continuous
 62
     7
100
AcDbPolyline
 90
        2
 70
     0
 43
0.15
 10
533.7963373771099
 20
228.4999191761
 10
533.7963373771099
 20
229.9999147654
  0
LWPOLYLINE
  5
245
330
44
100
AcDbEntity
  8
0
  6
Continuous
 62
     7
100
AcDbPolyline
 90
        2
 70
     0
 43
0.15
 10
458.29633617761
 20
229.9999147654
 10
458.29633617761
 20
228.4999191761
  0
LWPOLYLINE
  5
246
330
44
100
AcDbEntity
  8
0
  6
Continuous
 62
     7
100
AcDbPolyline
 90
        2
 70
     0
 43
0.15
 10
517.7963377813101
 20
228.4999191761
 10
517.7963377813101
 20
229.9999147654
  0
LWPOLYLINE
  5
247
330
44
100
AcDbEntity
  8
0
  6
Continuous
 62
     7
100
AcDbPolyline
 90
        2
 70
     0
 43
0.15
 10
474.29633880021
 20
229.9999147654
 10
474.29633880021
 20
228.4999191761
  0
LWPOLYLINE
  5
248
330
44
100
AcDbEntity
  8
0
  6
Continuous
 62
     7
100
AcDbPolyline
 90
        2
 70
     0
 43
0.15
 10
501.79633865121
 20
228.4999191761
 10
501.79633865121
 20
229.9999147654
  0
LWPOLYLINE
  5
249
330
44
100
AcDbEntity
  8
0
  6
Continuous
 62
     7
100
AcDbPolyline
 90
        2
 70
     0
 43
0.15
 10
459.37646547321
 20
139.9999186397
 10
459.37646547321
 20
142.4999162555
  0
LWPOLYLINE
  5
24A
330
44
100
AcDbEntity
  8
0
  6
Continuous
 62
     7
100
AcDbPolyline
 90
        2
 70
     0
 43
0.15
 10
516.71621081401
 20
142.4999162555
 10
516.71621081401
 20
139.9999186397
  0
LWPOLYLINE
  5
24B
330
44
100
AcDbEntity
  8
0
  6
Continuous
 62
     7
100
AcDbPolyline
 90
        2
 70
     0
 43
0.15
 10
431.55853444701
 20
139.9999186397
 10
431.55853444701
 20
142.4999162555
  0
LWPOLYLINE
  5
24C
330
44
100
AcDbEntity
  8
0
  6
Continuous
 62
     7
100
AcDbPolyline
 90
        2
 70
     0
 43
0.15
 10
544.53414114181
 20
142.4999162555
 10
544.53414114181
 20
139.9999186397
  0
LWPOLYLINE
  5
24D
330
44
100
AcDbEntity
  8
0
  6
Continuous
 62
     7
100
AcDbPolyline
 90
        2
 70
     0
 43
0.15
 10
558.44633781311
 20
112.4999997684
 42
0.4142135623731
 10
560.94633781311
 20
114.9999997684
 42
0.4142135623731
  0
LWPOLYLINE
  5
24E
330
44
100
AcDbEntity
  8
0
  6
Continuous
 62
     7
100
AcDbPolyline
 90
        2
 70
     0
 43
0.15
 10
415.14633781311
 20
114.9999997684
 42
0.4142135623731
 10
417.64633781311
 20
112.4999997684
 42
0.4142135623731
  0
LWPOLYLINE
  5
24F
330
44
100
AcDbEntity
  8
0
  6
Continuous
 62
     7
100
AcDbPolyline
 90
        2
 70
     0
 43
0.15
 10
424.54633781311
 20
114.9999997684
 42
0.4142135623731
 10
423.54633781311
 20
115.9999997684
 42
0.4142135623731
  0
LWPOLYLINE
  5
250
330
44
100
AcDbEntity
  8
0
  6
Continuous
 62
     7
100
AcDbPolyline
 90
        2
 70
     0
 43
0.15
 10
552.54633781311
 20
115.9999997684
 42
0.4142135623731
 10
551.54633781311
 20
114.9999997684
 42
0.4142135623731
  0
LWPOLYLINE
  5
251
330
44
100
AcDbEntity
  8
0
  6
Continuous
 62
     7
100
AcDbPolyline
 90
        2
 70
     0
 43
0.15
 10
418.64633781311
 20
116.9999997684
 42
0.4142135623731
 10
419.64633781311
 20
115.9999997684
 42
0.4142135623731
  0
LWPOLYLINE
  5
252
330
44
100
AcDbEntity
  8
0
  6
Continuous
 62
     7
100
AcDbPolyline
 90
        2
 70
     0
 43
0.15
 10
556.44633781311
 20
115.9999997684
 42
0.4142135623731
 10
557.44633781311
 20
116.9999997684
 42
0.4142135623731
  0
LWPOLYLINE
  5
253
330
44
100
AcDbEntity
  8
0
  6
Continuous
 62
     7
100
AcDbPolyline
 90
        2
 70
     0
 43
0.15
 10
418.64633781311
 20
124.2014906401
 42
0.4142135623731
 10
417.64633781311
 20
125.2014906401
 42
0.4142135623731
  0
LWPOLYLINE
  5
254
330
44
100
AcDbEntity
  8
0
  6
Continuous
 62
     7
100
AcDbPolyline
 90
        2
 70
     0
 43
0.15
 10
558.44633781311
 20
125.2014906401
 42
0.4142135623731
 10
557.44633781311
 20
124.2014906401
 42
0.4142135623731
  0
LWPOLYLINE
  5
255
330
44
100
AcDbEntity
  8
0
  6
Continuous
 62
     7
100
AcDbPolyline
 90
        2
 70
     0
 43
0.15
 10
409.296340810706
 20
158.999922879355
 42
0.41421268438055
 10
408.29634081071
 20
159.9999198817
 42
0.41421268438055
  0
LWPOLYLINE
  5
256
330
44
100
AcDbEntity
  8
0
  6
Continuous
 62
     7
100
AcDbPolyline
 90
        2
 70
     0
 43
0.15
 10
567.7963348155099
 20
159.9999198817
 42
0.41421268438055
 10
566.796334815514
 20
158.999922879355
 42
0.41421268438055
  0
LWPOLYLINE
  5
257
330
44
100
AcDbEntity
  8
0
  6
Continuous
 62
     7
100
AcDbPolyline
 90
        2
 70
     0
 43
0.15
 10
668.04633781311
 20
157.9999198817
 42
0.4142135623731
 10
666.04633781311
 20
159.9999198817
 42
0.4142135623731
  0
LWPOLYLINE
  5
258
330
44
100
AcDbEntity
  8
0
  6
Continuous
 62
     7
100
AcDbPolyline
 90
        2
 70
     0
 43
0.15
 10
310.04633781311
 20
159.9999198817
 42
0.4142135623731
 10
308.04633781311
 20
157.9999198817
 42
0.4142135623731
  0
LWPOLYLINE
  5
259
330
44
100
AcDbEntity
  8
0
  6
Continuous
 62
     7
100
AcDbPolyline
 90
        2
 70
     0
 43
0.15
 10
423.29633781311
 20
127.7014906401
 42
0.4142135623731
 10
421.29633781311
 20
129.7014906401
 42
0.4142135623731
  0
LWPOLYLINE
  5
25A
330
44
100
AcDbEntity
  8
0
  6
Continuous
 62
     7
100
AcDbPolyline
 90
        2
 70
     0
 43
0.15
 10
420.79633781311
 20
127.2014906401
 42
0.4142135623731
 10
418.79633781311
 20
125.2014906401
 42
0.4142135623731
  0
LWPOLYLINE
  5
25B
330
44
100
AcDbEntity
  8
0
  6
Continuous
 62
     7
100
AcDbPolyline
 90
        2
 70
     0
 43
0.15
 10
557.29633781311
 20
125.2014906401
 42
0.4142135623731
 10
555.29633781311
 20
127.2014906401
 42
0.4142135623731
  0
LWPOLYLINE
  5
25C
330
44
100
AcDbEntity
  8
0
  6
Continuous
 62
     7
100
AcDbPolyline
 90
        2
 70
     0
 43
0.15
 10
554.79633781311
 20
129.7014906401
 42
0.4142135623731
 10
552.79633781311
 20
127.7014906401
 42
0.4142135623731
  0
LWPOLYLINE
  5
25D
330
44
100
AcDbEntity
  8
0
  6
Continuous
 62
     7
100
AcDbPolyline
 90
        2
 70
     0
 43
0.15
 10
560.54633781311
 20
66.50000176840001
 42
0.4142135623731
 10
563.04633781311
 20
69.00000176840001
 42
0.4142135623731
  0
LWPOLYLINE
  5
25E
330
44
100
AcDbEntity
  8
0
  6
Continuous
 62
     7
100
AcDbPolyline
 90
        2
 70
     0
 43
0.15
 10
413.04633781311
 20
69.00000176840001
 42
0.4142135623731
 10
415.54633781311
 20
66.50000176840001
 42
0.4142135623731
  0
LWPOLYLINE
  5
25F
330
44
100
AcDbEntity
  8
0
  6
Continuous
 62
     7
100
AcDbPolyline
 90
        2
 70
     0
 43
0.15
 10
560.696337813108
 20
64.02645174347401
 42
0.39058548904151
 10
568.04633781311
 20
72.00000176840001
 42
0.39058548904151
  0
LWPOLYLINE
  5
260
330
44
100
AcDbEntity
  8
0
  6
Continuous
 62
     7
100
AcDbPolyline
 90
        2
 70
     0
 43
0.15
 10
408.04633781311
 20
72.00000176840001
 42
0.39058548904151
 10
415.396337813112
 20
64.02645174347401
 42
0.39058548904151
  0
LWPOLYLINE
  5
261
330
44
100
AcDbEntity
  8
0
  6
Continuous
 62
     7
100
AcDbPolyline
 90
        2
 70
     0
 43
0.15
 10
550.29633781311
 20
230.9999198817
 42
0.4142135623731
 10
549.29633781311
 20
229.9999198817
 42
0.4142135623731
  0
LWPOLYLINE
  5
262
330
44
100
AcDbEntity
  8
0
  6
Continuous
 62
     7
100
AcDbPolyline
 90
        2
 70
     0
 43
0.15
 10
555.54633781311
 20
229.9999198817
 42
0.4142135623731
 10
554.54633781311
 20
230.9999198817
 42
0.4142135623731
  0
LWPOLYLINE
  5
263
330
44
100
AcDbEntity
  8
0
  6
Continuous
 62
     7
100
AcDbPolyline
 90
        2
 70
     0
 43
0.15
 10
557.04633781311
 20
229.9999198817
 42
0.4142135623731
 10
554.54633781311
 20
232.4999198817
 42
0.4142135623731
  0
LWPOLYLINE
  5
264
330
44
100
AcDbEntity
  8
0
  6
Continuous
 62
     7
100
AcDbPolyline
 90
        2
 70
     0
 43
0.15
 10
550.29633781311
 20
232.4999198817
 42
0.4142135623731
 10
547.79633781311
 20
229.9999198817
 42
0.4142135623731
  0
LWPOLYLINE
  5
265
330
44
100
AcDbEntity
  8
0
  6
Continuous
 62
     7
100
AcDbPolyline
 90
        2
 70
     0
 43
0.15
 10
454.29633781311
 20
230.9999198817
 42
0.4142135623731
 10
453.29633781311
 20
229.9999198817
 42
0.4142135623731
  0
LWPOLYLINE
  5
266
330
44
100
AcDbEntity
  8
0
  6
Continuous
 62
     7
100
AcDbPolyline
 90
        2
 70
     0
 43
0.15
 10
458.79633781311
 20
229.9999198817
 42
0.4142135623731
 10
457.79633781311
 20
230.9999198817
 42
0.4142135623731
  0
LWPOLYLINE
  5
267
330
44
100
AcDbEntity
  8
0
  6
Continuous
 62
     7
100
AcDbPolyline
 90
        2
 70
     0
 43
0.15
 10
460.29633781311
 20
229.9999198817
 42
0.4142135623731
 10
457.79633781311
 20
232.4999198817
 42
0.4142135623731
  0
LWPOLYLINE
  5
268
330
44
100
AcDbEntity
  8
0
  6
Continuous
 62
     7
100
AcDbPolyline
 90
        2
 70
     0
 43
0.15
 10
454.29633781311
 20
232.4999198817
 42
0.4142135623731
 10
451.79633781311
 20
229.9999198817
 42
0.4142135623731
  0
LWPOLYLINE
  5
269
330
44
100
AcDbEntity
  8
0
  6
Continuous
 62
     7
100
AcDbPolyline
 90
        2
 70
     0
 43
0.15
 10
438.29633781311
 20
230.9999198817
 42
0.4142135623731
 10
437.29633781311
 20
229.9999198817
 42
0.4142135623731
  0
LWPOLYLINE
  5
26A
330
44
100
AcDbEntity
  8
0
  6
Continuous
 62
     7
100
AcDbPolyline
 90
        2
 70
     0
 43
0.15
 10
442.79633781311
 20
229.9999198817
 42
0.4142135623731
 10
441.79633781311
 20
230.9999198817
 42
0.4142135623731
  0
LWPOLYLINE
  5
26B
330
44
100
AcDbEntity
  8
0
  6
Continuous
 62
     7
100
AcDbPolyline
 90
        2
 70
     0
 43
0.15
 10
444.29633781311
 20
229.9999198817
 42
0.4142135623731
 10
441.79633781311
 20
232.4999198817
 42
0.4142135623731
  0
LWPOLYLINE
  5
26C
330
44
100
AcDbEntity
  8
0
  6
Continuous
 62
     7
100
AcDbPolyline
 90
        2
 70
     0
 43
0.15
 10
438.29633781311
 20
232.4999198817
 42
0.4142135623731
 10
435.79633781311
 20
229.9999198817
 42
0.4142135623731
  0
LWPOLYLINE
  5
26D
330
44
100
AcDbEntity
  8
0
  6
Continuous
 62
     7
100
AcDbPolyline
 90
        2
 70
     0
 43
0.15
 10
538.79633781311
 20
229.9999198817
 42
0.4142135623731
 10
537.79633781311
 20
230.9999198817
 42
0.4142135623731
  0
LWPOLYLINE
  5
26E
330
44
100
AcDbEntity
  8
0
  6
Continuous
 62
     7
100
AcDbPolyline
 90
        2
 70
     0
 43
0.15
 10
540.29633781311
 20
229.9999198817
 42
0.4142135623731
 10
537.79633781311
 20
232.4999198817
 42
0.4142135623731
  0
LWPOLYLINE
  5
26F
330
44
100
AcDbEntity
  8
0
  6
Continuous
 62
     7
100
AcDbPolyline
 90
        2
 70
     0
 43
0.15
 10
534.29633781311
 20
232.4999198817
 42
0.4142135623731
 10
531.79633781311
 20
229.9999198817
 42
0.4142135623731
  0
LWPOLYLINE
  5
270
330
44
100
AcDbEntity
  8
0
  6
Continuous
 62
     7
100
AcDbPolyline
 90
        2
 70
     0
 43
0.15
 10
534.29633781311
 20
230.9999198817
 42
0.4142135623731
 10
533.29633781311
 20
229.9999198817
 42
0.4142135623731
  0
LWPOLYLINE
  5
271
330
44
100
AcDbEntity
  8
0
  6
Continuous
 62
     7
100
AcDbPolyline
 90
        2
 70
     0
 43
0.15
 10
524.29633781311
 20
229.9999198817
 42
0.4142135623731
 10
521.79633781311
 20
232.4999198817
 42
0.4142135623731
  0
LWPOLYLINE
  5
272
330
44
100
AcDbEntity
  8
0
  6
Continuous
 62
     7
100
AcDbPolyline
 90
        2
 70
     0
 43
0.15
 10
518.29633781311
 20
232.4999198817
 42
0.4142135623731
 10
515.79633781311
 20
229.9999198817
 42
0.4142135623731
  0
LWPOLYLINE
  5
273
330
44
100
AcDbEntity
  8
0
  6
Continuous
 62
     7
100
AcDbPolyline
 90
        2
 70
     0
 43
0.15
 10
518.29633781311
 20
230.9999198817
 42
0.4142135623731
 10
517.29633781311
 20
229.9999198817
 42
0.4142135623731
  0
LWPOLYLINE
  5
274
330
44
100
AcDbEntity
  8
0
  6
Continuous
 62
     7
100
AcDbPolyline
 90
        2
 70
     0
 43
0.15
 10
522.79633781311
 20
229.9999198817
 42
0.4142135623731
 10
521.79633781311
 20
230.9999198817
 42
0.4142135623731
  0
LWPOLYLINE
  5
275
330
44
100
AcDbEntity
  8
0
  6
Continuous
 62
     7
100
AcDbPolyline
 90
        2
 70
     0
 43
0.15
 10
421.54633781311
 20
232.4999198817
 42
0.4142135623731
 10
419.04633781311
 20
229.9999198817
 42
0.4142135623731
  0
LWPOLYLINE
  5
276
330
44
100
AcDbEntity
  8
0
  6
Continuous
 62
     7
100
AcDbPolyline
 90
        2
 70
     0
 43
0.15
 10
421.54633781311
 20
230.9999198817
 42
0.4142135623731
 10
420.54633781311
 20
229.9999198817
 42
0.4142135623731
  0
LWPOLYLINE
  5
277
330
44
100
AcDbEntity
  8
0
  6
Continuous
 62
     7
100
AcDbPolyline
 90
        2
 70
     0
 43
0.15
 10
426.79633781311
 20
229.9999198817
 42
0.4142135623731
 10
425.79633781311
 20
230.9999198817
 42
0.4142135623731
  0
LWPOLYLINE
  5
278
330
44
100
AcDbEntity
  8
0
  6
Continuous
 62
     7
100
AcDbPolyline
 90
        2
 70
     0
 43
0.15
 10
428.29633781311
 20
229.9999198817
 42
0.4142135623731
 10
425.79633781311
 20
232.4999198817
 42
0.4142135623731
  0
LWPOLYLINE
  5
279
330
44
100
AcDbEntity
  8
0
  6
Continuous
 62
     7
100
AcDbPolyline
 90
        2
 70
     0
 43
0.15
 10
506.79633781311
 20
229.9999198817
 42
0.4142135623731
 10
505.79633781311
 20
230.9999198817
 42
0.4142135623731
  0
LWPOLYLINE
  5
27A
330
44
100
AcDbEntity
  8
0
  6
Continuous
 62
     7
100
AcDbPolyline
 90
        2
 70
     0
 43
0.15
 10
508.29633781311
 20
229.9999198817
 42
0.4142135623731
 10
505.79633781311
 20
232.4999198817
 42
0.4142135623731
  0
LWPOLYLINE
  5
27B
330
44
100
AcDbEntity
  8
0
  6
Continuous
 62
     7
100
AcDbPolyline
 90
        2
 70
     0
 43
0.15
 10
470.29633781311
 20
232.4999198817
 42
0.4142135623731
 10
467.79633781311
 20
229.9999198817
 42
0.4142135623731
  0
LWPOLYLINE
  5
27C
330
44
100
AcDbEntity
  8
0
  6
Continuous
 62
     7
100
AcDbPolyline
 90
        2
 70
     0
 43
0.15
 10
470.29633781311
 20
230.9999198817
 42
0.4142135623731
 10
469.29633781311
 20
229.9999198817
 42
0.4142135623731
  0
LWPOLYLINE
  5
27D
330
44
100
AcDbEntity
  8
0
  6
Continuous
 62
     7
100
AcDbPolyline
 90
        2
 70
     0
 43
0.15
 10
415.58746736341
 20
157.9999198817
 42
0.4142135623731
 10
414.58746736341
 20
158.9999198817
 42
0.4142135623731
  0
LWPOLYLINE
  5
27E
330
44
100
AcDbEntity
  8
0
  6
Continuous
 62
     7
100
AcDbPolyline
 90
        2
 70
     0
 43
0.15
 10
561.50520826281
 20
158.9999198817
 42
0.4142135623731
 10
560.50520826281
 20
157.9999198817
 42
0.4142135623731
  0
LWPOLYLINE
  5
27F
330
44
100
AcDbEntity
  8
0
  6
Continuous
 62
     7
100
AcDbPolyline
 90
        2
 70
     0
 43
0.15
 10
412.04633781311
 20
158.9999198817
 42
0.4142135623731
 10
411.04633781311
 20
159.9999198817
 42
0.4142135623731
  0
LWPOLYLINE
  5
280
330
44
100
AcDbEntity
  8
0
  6
Continuous
 62
     7
100
AcDbPolyline
 90
        2
 70
     0
 43
0.15
 10
565.04633781311
 20
159.9999198817
 42
0.4142135623731
 10
564.04633781311
 20
158.9999198817
 42
0.4142135623731
  0
LWPOLYLINE
  5
281
330
44
100
AcDbEntity
  8
0
  6
Continuous
 62
     7
100
AcDbPolyline
 90
        2
 70
     0
 43
0.15
 10
560.04633781311
 20
142.4999198817
 42
0.4142135623731
 10
560.54633781311
 20
142.9999198817
 42
0.4142135623731
  0
LWPOLYLINE
  5
282
330
44
100
AcDbEntity
  8
0
  6
Continuous
 62
     7
100
AcDbPolyline
 90
        2
 70
     0
 43
0.15
 10
560.54633781311
 20
144.9999198817
 42
0.4142135623731
 10
560.04633781311
 20
145.4999198817
 42
0.4142135623731
  0
LWPOLYLINE
  5
283
330
44
100
AcDbEntity
  8
0
  6
Continuous
 62
     7
100
AcDbPolyline
 90
        2
 70
     0
 43
0.15
 10
560.04633781311
 20
147.9999198817
 42
1.0
 10
560.04633781311
 20
145.4999198817
 42
1.0
  0
LWPOLYLINE
  5
284
330
44
100
AcDbEntity
  8
0
  6
Continuous
 62
     7
100
AcDbPolyline
 90
        2
 70
     0
 43
0.15
 10
560.04633781311
 20
147.9999198817
 42
0.4142135623731
 10
560.54633781311
 20
148.4999198817
 42
0.4142135623731
  0
LWPOLYLINE
  5
285
330
44
100
AcDbEntity
  8
0
  6
Continuous
 62
     7
100
AcDbPolyline
 90
        2
 70
     0
 43
0.15
 10
560.04633781311
 20
156.9999198817
 42
0.4142135623731
 10
560.54633781311
 20
157.4999198817
 42
0.4142135623731
  0
LWPOLYLINE
  5
286
330
44
100
AcDbEntity
  8
0
  6
Continuous
 62
     7
100
AcDbPolyline
 90
        2
 70
     0
 43
0.15
 10
560.54633781311
 20
158.4999198817
 42
0.4142135623731
 10
560.04633781311
 20
158.9999198817
 42
0.4142135623731
  0
LWPOLYLINE
  5
287
330
44
100
AcDbEntity
  8
0
  6
Continuous
 62
     7
100
AcDbPolyline
 90
        2
 70
     0
 43
0.15
 10
560.04633781311
 20
161.4999198817
 42
1.0
 10
560.04633781311
 20
158.9999198817
 42
1.0
  0
LWPOLYLINE
  5
288
330
44
100
AcDbEntity
  8
0
  6
Continuous
 62
     7
100
AcDbPolyline
 90
        2
 70
     0
 43
0.15
 10
560.04633781311
 20
161.4999198817
 42
0.4142135623731
 10
560.54633781311
 20
161.9999198817
 42
0.4142135623731
  0
LWPOLYLINE
  5
289
330
44
100
AcDbEntity
  8
0
  6
Continuous
 62
     7
100
AcDbPolyline
 90
        2
 70
     0
 43
0.15
 10
560.04633781311
 20
170.4999198817
 42
0.4142135623731
 10
560.54633781311
 20
170.9999198817
 42
0.4142135623731
  0
LWPOLYLINE
  5
28A
330
44
100
AcDbEntity
  8
0
  6
Continuous
 62
     7
100
AcDbPolyline
 90
        2
 70
     0
 43
0.15
 10
560.54633781311
 20
198.9999198817
 42
0.4142135623731
 10
560.04633781311
 20
199.4999198817
 42
0.4142135623731
  0
LWPOLYLINE
  5
28B
330
44
100
AcDbEntity
  8
0
  6
Continuous
 62
     7
100
AcDbPolyline
 90
        2
 70
     0
 43
0.15
 10
560.04633781311
 20
206.4999198817
 42
0.4142135623731
 10
560.54633781311
 20
206.9999198817
 42
0.4142135623731
  0
LWPOLYLINE
  5
28C
330
44
100
AcDbEntity
  8
0
  6
Continuous
 62
     7
100
AcDbPolyline
 90
        2
 70
     0
 43
0.15
 10
560.04633781311
 20
206.4999198817
 42
1.0
 10
560.04633781311
 20
203.9999198817
 42
1.0
  0
LWPOLYLINE
  5
28D
330
44
100
AcDbEntity
  8
0
  6
Continuous
 62
     7
100
AcDbPolyline
 90
        2
 70
     0
 43
0.15
 10
560.54633781311
 20
203.4999198817
 42
0.4142135623731
 10
560.04633781311
 20
203.9999198817
 42
0.4142135623731
  0
LWPOLYLINE
  5
28E
330
44
100
AcDbEntity
  8
0
  6
Continuous
 62
     7
100
AcDbPolyline
 90
        2
 70
     0
 43
0.15
 10
560.04633781311
 20
201.9999198817
 42
0.4142135623731
 10
560.54633781311
 20
202.4999198817
 42
0.4142135623731
  0
LWPOLYLINE
  5
28F
330
44
100
AcDbEntity
  8
0
  6
Continuous
 62
     7
100
AcDbPolyline
 90
        2
 70
     0
 43
0.15
 10
560.04633781311
 20
201.9999198817
 42
1.0
 10
560.04633781311
 20
199.4999198817
 42
1.0
  0
LWPOLYLINE
  5
290
330
44
100
AcDbEntity
  8
0
  6
Continuous
 62
     7
100
AcDbPolyline
 90
        2
 70
     0
 43
0.15
 10
560.04633781311
 20
197.4999198817
 42
0.4142135623731
 10
560.54633781311
 20
197.9999198817
 42
0.4142135623731
  0
LWPOLYLINE
  5
291
330
44
100
AcDbEntity
  8
0
  6
Continuous
 62
     7
100
AcDbPolyline
 90
        2
 70
     0
 43
0.15
 10
560.04633781311
 20
197.4999198817
 42
1.0
 10
560.04633781311
 20
194.9999198817
 42
1.0
  0
LWPOLYLINE
  5
292
330
44
100
AcDbEntity
  8
0
  6
Continuous
 62
     7
100
AcDbPolyline
 90
        2
 70
     0
 43
0.15
 10
560.54633781311
 20
194.4999198817
 42
0.4142135623731
 10
560.04633781311
 20
194.9999198817
 42
0.4142135623731
  0
LWPOLYLINE
  5
293
330
44
100
AcDbEntity
  8
0
  6
Continuous
 62
     7
100
AcDbPolyline
 90
        2
 70
     0
 43
0.15
 10
560.04633781311
 20
192.9999198817
 42
0.4142135623731
 10
560.54633781311
 20
193.4999198817
 42
0.4142135623731
  0
LWPOLYLINE
  5
294
330
44
100
AcDbEntity
  8
0
  6
Continuous
 62
     7
100
AcDbPolyline
 90
        2
 70
     0
 43
0.15
 10
560.04633781311
 20
192.9999198817
 42
1.0
 10
560.04633781311
 20
190.4999198817
 42
1.0
  0
LWPOLYLINE
  5
295
330
44
100
AcDbEntity
  8
0
  6
Continuous
 62
     7
100
AcDbPolyline
 90
        2
 70
     0
 43
0.15
 10
560.54633781311
 20
189.9999198817
 42
0.4142135623731
 10
560.04633781311
 20
190.4999198817
 42
0.4142135623731
  0
LWPOLYLINE
  5
296
330
44
100
AcDbEntity
  8
0
  6
Continuous
 62
     7
100
AcDbPolyline
 90
        2
 70
     0
 43
0.15
 10
560.04633781311
 20
188.4999198817
 42
0.4142135623731
 10
560.54633781311
 20
188.9999198817
 42
0.4142135623731
  0
LWPOLYLINE
  5
297
330
44
100
AcDbEntity
  8
0
  6
Continuous
 62
     7
100
AcDbPolyline
 90
        2
 70
     0
 43
0.15
 10
560.04633781311
 20
188.4999198817
 42
1.0
 10
560.04633781311
 20
185.9999198817
 42
1.0
  0
LWPOLYLINE
  5
298
330
44
100
AcDbEntity
  8
0
  6
Continuous
 62
     7
100
AcDbPolyline
 90
        2
 70
     0
 43
0.15
 10
560.54633781311
 20
185.4999198817
 42
0.4142135623731
 10
560.04633781311
 20
185.9999198817
 42
0.4142135623731
  0
LWPOLYLINE
  5
299
330
44
100
AcDbEntity
  8
0
  6
Continuous
 62
     7
100
AcDbPolyline
 90
        2
 70
     0
 43
0.15
 10
560.04633781311
 20
183.9999198817
 42
0.4142135623731
 10
560.54633781311
 20
184.4999198817
 42
0.4142135623731
  0
LWPOLYLINE
  5
29A
330
44
100
AcDbEntity
  8
0
  6
Continuous
 62
     7
100
AcDbPolyline
 90
        2
 70
     0
 43
0.15
 10
560.04633781311
 20
183.9999198817
 42
1.0
 10
560.04633781311
 20
181.4999198817
 42
1.0
  0
LWPOLYLINE
  5
29B
330
44
100
AcDbEntity
  8
0
  6
Continuous
 62
     7
100
AcDbPolyline
 90
        2
 70
     0
 43
0.15
 10
560.54633781311
 20
180.9999198817
 42
0.4142135623731
 10
560.04633781311
 20
181.4999198817
 42
0.4142135623731
  0
LWPOLYLINE
  5
29C
330
44
100
AcDbEntity
  8
0
  6
Continuous
 62
     7
100
AcDbPolyline
 90
        2
 70
     0
 43
0.15
 10
560.04633781311
 20
179.4999198817
 42
0.4142135623731
 10
560.54633781311
 20
179.9999198817
 42
0.4142135623731
  0
LWPOLYLINE
  5
29D
330
44
100
AcDbEntity
  8
0
  6
Continuous
 62
     7
100
AcDbPolyline
 90
        2
 70
     0
 43
0.15
 10
560.04633781311
 20
179.4999198817
 42
1.0
 10
560.04633781311
 20
176.9999198817
 42
1.0
  0
LWPOLYLINE
  5
29E
330
44
100
AcDbEntity
  8
0
  6
Continuous
 62
     7
100
AcDbPolyline
 90
        2
 70
     0
 43
0.15
 10
560.54633781311
 20
176.4999198817
 42
0.4142135623731
 10
560.04633781311
 20
176.9999198817
 42
0.4142135623731
  0
LWPOLYLINE
  5
29F
330
44
100
AcDbEntity
  8
0
  6
Continuous
 62
     7
100
AcDbPolyline
 90
        2
 70
     0
 43
0.15
 10
560.04633781311
 20
174.9999198817
 42
0.4142135623731
 10
560.54633781311
 20
175.4999198817
 42
0.4142135623731
  0
LWPOLYLINE
  5
2A0
330
44
100
AcDbEntity
  8
0
  6
Continuous
 62
     7
100
AcDbPolyline
 90
        2
 70
     0
 43
0.15
 10
560.04633781311
 20
174.9999198817
 42
1.0
 10
560.04633781311
 20
172.4999198817
 42
1.0
  0
LWPOLYLINE
  5
2A1
330
44
100
AcDbEntity
  8
0
  6
Continuous
 62
     7
100
AcDbPolyline
 90
        2
 70
     0
 43
0.15
 10
560.54633781311
 20
171.9999198817
 42
0.4142135623731
 10
560.04633781311
 20
172.4999198817
 42
0.4142135623731
  0
LWPOLYLINE
  5
2A2
330
44
100
AcDbEntity
  8
0
  6
Continuous
 62
     7
100
AcDbPolyline
 90
        2
 70
     0
 43
0.15
 10
560.04633781311
 20
170.4999198817
 42
1.0
 10
560.04633781311
 20
167.9999198817
 42
1.0
  0
LWPOLYLINE
  5
2A3
330
44
100
AcDbEntity
  8
0
  6
Continuous
 62
     7
100
AcDbPolyline
 90
        2
 70
     0
 43
0.15
 10
560.54633781311
 20
167.4999198817
 42
0.4142135623731
 10
560.04633781311
 20
167.9999198817
 42
0.4142135623731
  0
LWPOLYLINE
  5
2A4
330
44
100
AcDbEntity
  8
0
  6
Continuous
 62
     7
100
AcDbPolyline
 90
        2
 70
     0
 43
0.15
 10
560.04633781311
 20
165.9999198817
 42
0.4142135623731
 10
560.54633781311
 20
166.4999198817
 42
0.4142135623731
  0
LWPOLYLINE
  5
2A5
330
44
100
AcDbEntity
  8
0
  6
Continuous
 62
     7
100
AcDbPolyline
 90
        2
 70
     0
 43
0.15
 10
560.04633781311
 20
165.9999198817
 42
1.0
 10
560.04633781311
 20
163.4999198817
 42
1.0
  0
LWPOLYLINE
  5
2A6
330
44
100
AcDbEntity
  8
0
  6
Continuous
 62
     7
100
AcDbPolyline
 90
        2
 70
     0
 43
0.15
 10
560.54633781311
 20
162.9999198817
 42
0.4142135623731
 10
560.04633781311
 20
163.4999198817
 42
0.4142135623731
  0
LWPOLYLINE
  5
2A7
330
44
100
AcDbEntity
  8
0
  6
Continuous
 62
     7
100
AcDbPolyline
 90
        2
 70
     0
 43
0.15
 10
560.04633781311
 20
156.9999198817
 42
1.0
 10
560.04633781311
 20
154.4999198817
 42
1.0
  0
LWPOLYLINE
  5
2A8
330
44
100
AcDbEntity
  8
0
  6
Continuous
 62
     7
100
AcDbPolyline
 90
        2
 70
     0
 43
0.15
 10
560.54633781311
 20
153.9999198817
 42
0.4142135623731
 10
560.04633781311
 20
154.4999198817
 42
0.4142135623731
  0
LWPOLYLINE
  5
2A9
330
44
100
AcDbEntity
  8
0
  6
Continuous
 62
     7
100
AcDbPolyline
 90
        2
 70
     0
 43
0.15
 10
560.04633781311
 20
152.4999198817
 42
0.4142135623731
 10
560.54633781311
 20
152.9999198817
 42
0.4142135623731
  0
LWPOLYLINE
  5
2AA
330
44
100
AcDbEntity
  8
0
  6
Continuous
 62
     7
100
AcDbPolyline
 90
        2
 70
     0
 43
0.15
 10
560.04633781311
 20
152.4999198817
 42
1.0
 10
560.04633781311
 20
149.9999198817
 42
1.0
  0
LWPOLYLINE
  5
2AB
330
44
100
AcDbEntity
  8
0
  6
Continuous
 62
     7
100
AcDbPolyline
 90
        2
 70
     0
 43
0.15
 10
560.54633781311
 20
149.4999198817
 42
0.4142135623731
 10
560.04633781311
 20
149.9999198817
 42
0.4142135623731
  0
LWPOLYLINE
  5
2AC
330
44
100
AcDbEntity
  8
0
  6
Continuous
 62
     7
100
AcDbPolyline
 90
        2
 70
     0
 43
0.15
 10
415.54633781311
 20
202.4999198817
 42
0.4142135623731
 10
416.04633781311
 20
201.9999198817
 42
0.4142135623731
  0
LWPOLYLINE
  5
2AD
330
44
100
AcDbEntity
  8
0
  6
Continuous
 62
     7
100
AcDbPolyline
 90
        2
 70
     0
 43
0.15
 10
416.04633781311
 20
199.4999198817
 42
1.0
 10
416.04633781311
 20
201.9999198817
 42
1.0
  0
LWPOLYLINE
  5
2AE
330
44
100
AcDbEntity
  8
0
  6
Continuous
 62
     7
100
AcDbPolyline
 90
        2
 70
     0
 43
0.15
 10
416.04633781311
 20
199.4999198817
 42
0.4142135623731
 10
415.54633781311
 20
198.9999198817
 42
0.4142135623731
  0
LWPOLYLINE
  5
2AF
330
44
100
AcDbEntity
  8
0
  6
Continuous
 62
     7
100
AcDbPolyline
 90
        2
 70
     0
 43
0.15
 10
415.54633781311
 20
197.9999198817
 42
0.4142135623731
 10
416.04633781311
 20
197.4999198817
 42
0.4142135623731
  0
LWPOLYLINE
  5
2B0
330
44
100
AcDbEntity
  8
0
  6
Continuous
 62
     7
100
AcDbPolyline
 90
        2
 70
     0
 43
0.15
 10
416.04633781311
 20
194.9999198817
 42
1.0
 10
416.04633781311
 20
197.4999198817
 42
1.0
  0
LWPOLYLINE
  5
2B1
330
44
100
AcDbEntity
  8
0
  6
Continuous
 62
     7
100
AcDbPolyline
 90
        2
 70
     0
 43
0.15
 10
416.04633781311
 20
194.9999198817
 42
0.4142135623731
 10
415.54633781311
 20
194.4999198817
 42
0.4142135623731
  0
LWPOLYLINE
  5
2B2
330
44
100
AcDbEntity
  8
0
  6
Continuous
 62
     7
100
AcDbPolyline
 90
        2
 70
     0
 43
0.15
 10
415.54633781311
 20
193.4999198817
 42
0.4142135623731
 10
416.04633781311
 20
192.9999198817
 42
0.4142135623731
  0
LWPOLYLINE
  5
2B3
330
44
100
AcDbEntity
  8
0
  6
Continuous
 62
     7
100
AcDbPolyline
 90
        2
 70
     0
 43
0.15
 10
416.04633781311
 20
190.4999198817
 42
1.0
 10
416.04633781311
 20
192.9999198817
 42
1.0
  0
LWPOLYLINE
  5
2B4
330
44
100
AcDbEntity
  8
0
  6
Continuous
 62
     7
100
AcDbPolyline
 90
        2
 70
     0
 43
0.15
 10
416.04633781311
 20
190.4999198817
 42
0.4142135623731
 10
415.54633781311
 20
189.9999198817
 42
0.4142135623731
  0
LWPOLYLINE
  5
2B5
330
44
100
AcDbEntity
  8
0
  6
Continuous
 62
     7
100
AcDbPolyline
 90
        2
 70
     0
 43
0.15
 10
415.54633781311
 20
188.9999198817
 42
0.4142135623731
 10
416.04633781311
 20
188.4999198817
 42
0.4142135623731
  0
LWPOLYLINE
  5
2B6
330
44
100
AcDbEntity
  8
0
  6
Continuous
 62
     7
100
AcDbPolyline
 90
        2
 70
     0
 43
0.15
 10
416.04633781311
 20
185.9999198817
 42
1.0
 10
416.04633781311
 20
188.4999198817
 42
1.0
  0
LWPOLYLINE
  5
2B7
330
44
100
AcDbEntity
  8
0
  6
Continuous
 62
     7
100
AcDbPolyline
 90
        2
 70
     0
 43
0.15
 10
416.04633781311
 20
185.9999198817
 42
0.4142135623731
 10
415.54633781311
 20
185.4999198817
 42
0.4142135623731
  0
LWPOLYLINE
  5
2B8
330
44
100
AcDbEntity
  8
0
  6
Continuous
 62
     7
100
AcDbPolyline
 90
        2
 70
     0
 43
0.15
 10
415.54633781311
 20
184.4999198817
 42
0.4142135623731
 10
416.04633781311
 20
183.9999198817
 42
0.4142135623731
  0
LWPOLYLINE
  5
2B9
330
44
100
AcDbEntity
  8
0
  6
Continuous
 62
     7
100
AcDbPolyline
 90
        2
 70
     0
 43
0.15
 10
416.04633781311
 20
181.4999198817
 42
1.0
 10
416.04633781311
 20
183.9999198817
 42
1.0
  0
LWPOLYLINE
  5
2BA
330
44
100
AcDbEntity
  8
0
  6
Continuous
 62
     7
100
AcDbPolyline
 90
        2
 70
     0
 43
0.15
 10
416.04633781311
 20
181.4999198817
 42
0.4142135623731
 10
415.54633781311
 20
180.9999198817
 42
0.4142135623731
  0
LWPOLYLINE
  5
2BB
330
44
100
AcDbEntity
  8
0
  6
Continuous
 62
     7
100
AcDbPolyline
 90
        2
 70
     0
 43
0.15
 10
415.54633781311
 20
179.9999198817
 42
0.4142135623731
 10
416.04633781311
 20
179.4999198817
 42
0.4142135623731
  0
LWPOLYLINE
  5
2BC
330
44
100
AcDbEntity
  8
0
  6
Continuous
 62
     7
100
AcDbPolyline
 90
        2
 70
     0
 43
0.15
 10
416.04633781311
 20
176.9999198817
 42
1.0
 10
416.04633781311
 20
179.4999198817
 42
1.0
  0
LWPOLYLINE
  5
2BD
330
44
100
AcDbEntity
  8
0
  6
Continuous
 62
     7
100
AcDbPolyline
 90
        2
 70
     0
 43
0.15
 10
416.04633781311
 20
176.9999198817
 42
0.4142135623731
 10
415.54633781311
 20
176.4999198817
 42
0.4142135623731
  0
LWPOLYLINE
  5
2BE
330
44
100
AcDbEntity
  8
0
  6
Continuous
 62
     7
100
AcDbPolyline
 90
        2
 70
     0
 43
0.15
 10
415.54633781311
 20
175.4999198817
 42
0.4142135623731
 10
416.04633781311
 20
174.9999198817
 42
0.4142135623731
  0
LWPOLYLINE
  5
2BF
330
44
100
AcDbEntity
  8
0
  6
Continuous
 62
     7
100
AcDbPolyline
 90
        2
 70
     0
 43
0.15
 10
416.04633781311
 20
172.4999198817
 42
1.0
 10
416.04633781311
 20
174.9999198817
 42
1.0
  0
LWPOLYLINE
  5
2C0
330
44
100
AcDbEntity
  8
0
  6
Continuous
 62
     7
100
AcDbPolyline
 90
        2
 70
     0
 43
0.15
 10
416.04633781311
 20
172.4999198817
 42
0.4142135623731
 10
415.54633781311
 20
171.9999198817
 42
0.4142135623731
  0
LWPOLYLINE
  5
2C1
330
44
100
AcDbEntity
  8
0
  6
Continuous
 62
     7
100
AcDbPolyline
 90
        2
 70
     0
 43
0.15
 10
415.54633781311
 20
170.9999198817
 42
0.4142135623731
 10
416.04633781311
 20
170.4999198817
 42
0.4142135623731
  0
LWPOLYLINE
  5
2C2
330
44
100
AcDbEntity
  8
0
  6
Continuous
 62
     7
100
AcDbPolyline
 90
        2
 70
     0
 43
0.15
 10
416.04633781311
 20
167.9999198817
 42
1.0
 10
416.04633781311
 20
170.4999198817
 42
1.0
  0
LWPOLYLINE
  5
2C3
330
44
100
AcDbEntity
  8
0
  6
Continuous
 62
     7
100
AcDbPolyline
 90
        2
 70
     0
 43
0.15
 10
416.04633781311
 20
167.9999198817
 42
0.4142135623731
 10
415.54633781311
 20
167.4999198817
 42
0.4142135623731
  0
LWPOLYLINE
  5
2C4
330
44
100
AcDbEntity
  8
0
  6
Continuous
 62
     7
100
AcDbPolyline
 90
        2
 70
     0
 43
0.15
 10
415.54633781311
 20
166.4999198817
 42
0.4142135623731
 10
416.04633781311
 20
165.9999198817
 42
0.4142135623731
  0
LWPOLYLINE
  5
2C5
330
44
100
AcDbEntity
  8
0
  6
Continuous
 62
     7
100
AcDbPolyline
 90
        2
 70
     0
 43
0.15
 10
416.04633781311
 20
163.4999198817
 42
1.0
 10
416.04633781311
 20
165.9999198817
 42
1.0
  0
LWPOLYLINE
  5
2C6
330
44
100
AcDbEntity
  8
0
  6
Continuous
 62
     7
100
AcDbPolyline
 90
        2
 70
     0
 43
0.15
 10
416.04633781311
 20
163.4999198817
 42
0.4142135623731
 10
415.54633781311
 20
162.9999198817
 42
0.4142135623731
  0
LWPOLYLINE
  5
2C7
330
44
100
AcDbEntity
  8
0
  6
Continuous
 62
     7
100
AcDbPolyline
 90
        2
 70
     0
 43
0.15
 10
415.54633781311
 20
161.9999198817
 42
0.4142135623731
 10
416.04633781311
 20
161.4999198817
 42
0.4142135623731
  0
LWPOLYLINE
  5
2C8
330
44
100
AcDbEntity
  8
0
  6
Continuous
 62
     7
100
AcDbPolyline
 90
        2
 70
     0
 43
0.15
 10
416.04633781311
 20
158.9999198817
 42
1.0
 10
416.04633781311
 20
161.4999198817
 42
1.0
  0
LWPOLYLINE
  5
2C9
330
44
100
AcDbEntity
  8
0
  6
Continuous
 62
     7
100
AcDbPolyline
 90
        2
 70
     0
 43
0.15
 10
416.04633781311
 20
158.9999198817
 42
0.4142135623731
 10
415.54633781311
 20
158.4999198817
 42
0.4142135623731
  0
LWPOLYLINE
  5
2CA
330
44
100
AcDbEntity
  8
0
  6
Continuous
 62
     7
100
AcDbPolyline
 90
        2
 70
     0
 43
0.15
 10
415.54633781311
 20
157.4999198817
 42
0.4142135623731
 10
416.04633781311
 20
156.9999198817
 42
0.4142135623731
  0
LWPOLYLINE
  5
2CB
330
44
100
AcDbEntity
  8
0
  6
Continuous
 62
     7
100
AcDbPolyline
 90
        2
 70
     0
 43
0.15
 10
416.04633781311
 20
154.4999198817
 42
1.0
 10
416.04633781311
 20
156.9999198817
 42
1.0
  0
LWPOLYLINE
  5
2CC
330
44
100
AcDbEntity
  8
0
  6
Continuous
 62
     7
100
AcDbPolyline
 90
        2
 70
     0
 43
0.15
 10
416.04633781311
 20
154.4999198817
 42
0.4142135623731
 10
415.54633781311
 20
153.9999198817
 42
0.4142135623731
  0
LWPOLYLINE
  5
2CD
330
44
100
AcDbEntity
  8
0
  6
Continuous
 62
     7
100
AcDbPolyline
 90
        2
 70
     0
 43
0.15
 10
415.54633781311
 20
152.9999198817
 42
0.4142135623731
 10
416.04633781311
 20
152.4999198817
 42
0.4142135623731
  0
LWPOLYLINE
  5
2CE
330
44
100
AcDbEntity
  8
0
  6
Continuous
 62
     7
100
AcDbPolyline
 90
        2
 70
     0
 43
0.15
 10
416.04633781311
 20
149.9999198817
 42
1.0
 10
416.04633781311
 20
152.4999198817
 42
1.0
  0
LWPOLYLINE
  5
2CF
330
44
100
AcDbEntity
  8
0
  6
Continuous
 62
     7
100
AcDbPolyline
 90
        2
 70
     0
 43
0.15
 10
416.04633781311
 20
149.9999198817
 42
0.4142135623731
 10
415.54633781311
 20
149.4999198817
 42
0.4142135623731
  0
LWPOLYLINE
  5
2D0
330
44
100
AcDbEntity
  8
0
  6
Continuous
 62
     7
100
AcDbPolyline
 90
        2
 70
     0
 43
0.15
 10
415.54633781311
 20
148.4999198817
 42
0.4142135623731
 10
416.04633781311
 20
147.9999198817
 42
0.4142135623731
  0
LWPOLYLINE
  5
2D1
330
44
100
AcDbEntity
  8
0
  6
Continuous
 62
     7
100
AcDbPolyline
 90
        2
 70
     0
 43
0.15
 10
416.04633781311
 20
145.4999198817
 42
1.0
 10
416.04633781311
 20
147.9999198817
 42
1.0
  0
LWPOLYLINE
  5
2D2
330
44
100
AcDbEntity
  8
0
  6
Continuous
 62
     7
100
AcDbPolyline
 90
        2
 70
     0
 43
0.15
 10
416.04633781311
 20
145.4999198817
 42
0.4142135623731
 10
415.54633781311
 20
144.9999198817
 42
0.4142135623731
  0
LWPOLYLINE
  5
2D3
330
44
100
AcDbEntity
  8
0
  6
Continuous
 62
     7
100
AcDbPolyline
 90
        2
 70
     0
 43
0.15
 10
415.54633781311
 20
142.9999198817
 42
0.4142135623731
 10
416.04633781311
 20
142.4999198817
 42
0.4142135623731
  0
LWPOLYLINE
  5
2D4
330
44
100
AcDbEntity
  8
0
  6
Continuous
 62
     7
100
AcDbPolyline
 90
        2
 70
     0
 43
0.15
 10
415.54633781311
 20
206.9999198817
 42
0.4142135623731
 10
416.04633781311
 20
206.4999198817
 42
0.4142135623731
  0
LWPOLYLINE
  5
2D5
330
44
100
AcDbEntity
  8
0
  6
Continuous
 62
     7
100
AcDbPolyline
 90
        2
 70
     0
 43
0.15
 10
416.04633781311
 20
203.9999198817
 42
1.0
 10
416.04633781311
 20
206.4999198817
 42
1.0
  0
LWPOLYLINE
  5
2D6
330
44
100
AcDbEntity
  8
0
  6
Continuous
 62
     7
100
AcDbPolyline
 90
        2
 70
     0
 43
0.15
 10
416.04633781311
 20
203.9999198817
 42
0.4142135623731
 10
415.54633781311
 20
203.4999198817
 42
0.4142135623731
  0
LWPOLYLINE
  5
2D7
330
44
100
AcDbEntity
  8
0
  6
Continuous
 62
     7
100
AcDbPolyline
 90
        2
 70
     0
 43
0.15
 10
442.29633781311
 20
229.9999198817
 42
0.4142135623731
 10
441.29633781311
 20
230.9999198817
 42
0.4142135623731
  0
LWPOLYLINE
  5
2D8
330
44
100
AcDbEntity
  8
0
  6
Continuous
 62
     7
100
AcDbPolyline
 90
        2
 70
     0
 43
0.15
 10
534.79633781311
 20
230.9999198817
 42
0.4142135623731
 10
533.79633781311
 20
229.9999198817
 42
0.4142135623731
  0
LWPOLYLINE
  5
2D9
330
44
100
AcDbEntity
  8
0
  6
Continuous
 62
     7
100
AcDbPolyline
 90
        2
 70
     0
 43
0.15
 10
458.29633781311
 20
229.9999198817
 42
0.4142135623731
 10
457.29633781311
 20
230.9999198817
 42
0.4142135623731
  0
LWPOLYLINE
  5
2DA
330
44
100
AcDbEntity
  8
0
  6
Continuous
 62
     7
100
AcDbPolyline
 90
        2
 70
     0
 43
0.15
 10
518.79633781311
 20
230.9999198817
 42
0.4142135623731
 10
517.79633781311
 20
229.9999198817
 42
0.4142135623731
  0
LWPOLYLINE
  5
2DB
330
44
100
AcDbEntity
  8
0
  6
Continuous
 62
     7
100
AcDbPolyline
 90
        2
 70
     0
 43
0.15
 10
474.29633781311
 20
229.9999198817
 42
0.4142135623731
 10
473.29633781311
 20
230.9999198817
 42
0.4142135623731
  0
LWPOLYLINE
  5
2DC
330
44
100
AcDbEntity
  8
0
  6
Continuous
 62
     7
100
AcDbPolyline
 90
        2
 70
     0
 43
0.15
 10
502.79633781311
 20
230.9999198817
 42
0.4142135623731
 10
501.79633781311
 20
229.9999198817
 42
0.4142135623731
  0
DIMENSION
  5
2FB
330
44
100
AcDbEntity
  8
1
100
AcDbDimension
  2
*D3
 10
273.365004483542
 20
159.9999219179
 30
0.0
 11
266.365004483542
 21
77.5134337361868
 31
0.0
 70
    32
  1
<>
 71
     5
 42
-1.0
 53
90.0
  3
ME10_DIM_10
100
AcDbAlignedDimension
 13
429.04634023071
 23
0.0
 33
0.0
 14
310.04633748891
 24
159.9999219179
 34
0.0
 50
90.0
100
AcDbRotatedDimension
  0
DIMENSION
  5
306
330
44
100
AcDbEntity
  8
1
100
AcDbDimension
  2
*D4
 10
295.336307252775
 20
159.9999219179
 30
0.0
 11
288.336307252775
 21
113.401534911028
 31
0.0
 70
    32
  1
<>
 71
     5
 42
-1.0
 53
90.0
  3
ME10_DIM_11
100
AcDbAlignedDimension
 13
415.39634013531
 23
64.02645166960002
 33
0.0
 14
310.04633748891
 24
159.9999219179
 34
0.0
 50
90.0
100
AcDbRotatedDimension
  0
DIMENSION
  5
311
330
44
100
AcDbEntity
  8
1
100
AcDbDimension
  2
*D5
 10
407.94634068371
 20
-49.1771966901784
 30
0.0
 11
488.972224061051
 21
-42.1771966901784
 31
0.0
 70
    33
  1
<>
 71
     5
 42
-1.0
 53
0.00013888888889
  3
ME10_DIM_12
100
AcDbAlignedDimension
 13
568.14633676771
 23
74.00000188500002
 33
0.0
 14
407.94634068371
 24
74.00000188500002
 34
0.0
  0
DIMENSION
  5
31C
330
44
100
AcDbEntity
  8
1
100
AcDbDimension
  2
*D6
 10
425.54634058831
 20
-27.6131868587159
 30
0.0
 11
488.738315134581
 21
-20.6131868587159
 31
0.0
 70
    33
  1
<>
 71
     5
 42
-1.0
 53
0.00013888888889
  3
ME10_DIM_13
100
AcDbAlignedDimension
 13
550.54633872571
 23
5.00000268220001
 33
0.0
 14
425.54634058831
 24
5.00000268220001
 34
0.0
  0
DIMENSION
  5
327
330
44
100
AcDbEntity
  8
1
100
AcDbDimension
  2
*D7
 10
414.04633963471
 20
247.153973994072
 30
0.0
 11
487.013979669116
 21
254.153973994072
 31
0.0
 70
    33
  1
150
 71
     5
 42
-1.0
 53
0.00013888888889
  3
ME10_DIM_14
100
AcDbAlignedDimension
 13
562.04633781671
 23
232.999920845
 33
0.0
 14
414.04633963471
 24
232.999920845
 34
0.0
  0
DIMENSION
  5
332
330
44
100
AcDbEntity
  8
1
100
AcDbDimension
  2
*D8
 10
308.04633781311
 20
272.062183755938
 30
0.0
 11
486.79398180855
 21
279.062183755938
 31
0.0
 70
    33
  1
<>
 71
     5
 42
-1.0
 53
0.00013888888889
  3
ME10_DIM_15
100
AcDbAlignedDimension
 13
668.04633781311
 23
157.9999198817
 33
0.0
 14
308.04633781311
 24
157.9999198817
 34
0.0
  0
HATCH
  5
333
330
44
100
AcDbEntity
  8
0
  6
Continuous
 62
     7
100
AcDbHatch
 10
0.0
 20
0.0
 30
0.0
210
0.0
220
0.0
230
1.0
  2
CUSTOM0
 70
     0
 71
     0
 91
        1
 92
        1
 93
      482
 72
     1
 10
560.04633781311
 20
199.4999198817
 11
559.798001149617
 21
199.52483665942
 72
     1
 10
559.798001149617
 20
199.52483665942
 11
559.559564885225
 21
199.598593639217
 72
     1
 10
559.559564885225
 20
199.598593639217
 11
559.340534721367
 21
199.718250363084
 72
     1
 10
559.340534721367
 20
199.718250363084
 11
559.149642699487
 21
199.879036495037
 72
     1
 10
559.149642699487
 20
199.879036495037
 11
558.994499082101
 21
200.074541999386
 72
     1
 10
558.994499082101
 20
200.074541999386
 11
558.881288955652
 21
200.296972688625
 72
     1
 10
558.881288955652
 20
200.296972688625
 11
558.8145256506259
 21
200.537460953096
 72
     1
 10
558.8145256506259
 20
200.537460953096
 11
558.796870809309
 21
200.786419284598
 72
     1
 10
558.796870809309
 20
200.786419284598
 11
558.829028274514
 21
201.033922500087
 72
     1
 10
558.829028274514
 20
201.033922500087
 11
558.9097160295789
 21
201.270103427405
 72
     1
 10
558.9097160295789
 20
201.270103427405
 11
559.035717308337
 21
201.48554627829
 72
     1
 10
559.035717308337
 20
201.48554627829
 11
559.202008837422
 21
201.671662026148
 72
     1
 10
559.202008837422
 20
201.671662026148
 11
559.4019610983339
 21
201.821030823432
 72
     1
 10
559.4019610983339
 20
201.821030823432
 11
559.627602625416
 21
201.927697807557
 72
     1
 10
559.627602625416
 20
201.927697807557
 11
559.869937803036
 21
201.987410502472
 72
     1
 10
559.869937803036
 20
201.987410502472
 11
560.04633781311
 21
201.9999198817
 72
     1
 10
560.04633781311
 20
201.9999198817
 11
560.1456724785089
 21
202.009886592801
 72
     1
 10
560.1456724785089
 20
202.009886592801
 11
560.241046984266
 21
202.03938938472
 72
     1
 10
560.241046984266
 20
202.03938938472
 11
560.328659049809
 21
202.087252074266
 72
     1
 10
560.328659049809
 20
202.087252074266
 11
560.405015858561
 21
202.151566527048
 72
     1
 10
560.405015858561
 20
202.151566527048
 11
560.467073305515
 21
202.229768728787
 72
     1
 10
560.467073305515
 20
202.229768728787
 11
560.512357356095
 21
202.318741004483
 72
     1
 10
560.512357356095
 20
202.318741004483
 11
560.539062678106
 21
202.414936310271
 72
     1
 10
560.539062678106
 20
202.414936310271
 11
560.54633781311
 21
202.4999198817
 72
     1
 10
560.54633781311
 20
202.4999198817
 11
560.54633781311
 21
203.4999198817
 72
     1
 10
560.54633781311
 20
203.4999198817
 11
560.536371102032
 21
203.599254547119
 72
     1
 10
560.536371102032
 20
203.599254547119
 11
560.506868310113
 21
203.694629052875
 72
     1
 10
560.506868310113
 20
203.694629052875
 11
560.459005620566
 21
203.782241118419
 72
     1
 10
560.459005620566
 20
203.782241118419
 11
560.3946911677849
 21
203.858597927171
 72
     1
 10
560.3946911677849
 20
203.858597927171
 11
560.316488966045
 21
203.920655374125
 72
     1
 10
560.316488966045
 20
203.920655374125
 11
560.2275166903501
 21
203.965939424705
 72
     1
 10
560.2275166903501
 20
203.965939424705
 11
560.131321384561
 21
203.992644746715
 72
     1
 10
560.131321384561
 20
203.992644746715
 11
560.04633781311
 21
203.9999198817
 72
     1
 10
560.04633781311
 20
203.9999198817
 11
559.798001149617
 21
204.02483665942
 72
     1
 10
559.798001149617
 20
204.02483665942
 11
559.559564885225
 21
204.098593639217
 72
     1
 10
559.559564885225
 20
204.098593639217
 11
559.340534721367
 21
204.218250363084
 72
     1
 10
559.340534721367
 20
204.218250363084
 11
559.149642699487
 21
204.379036495037
 72
     1
 10
559.149642699487
 20
204.379036495037
 11
558.994499082101
 21
204.574541999386
 72
     1
 10
558.994499082101
 20
204.574541999386
 11
558.881288955652
 21
204.796972688625
 72
     1
 10
558.881288955652
 20
204.796972688625
 11
558.8145256506259
 21
205.037460953096
 72
     1
 10
558.8145256506259
 20
205.037460953096
 11
558.796870809309
 21
205.286419284598
 72
     1
 10
558.796870809309
 20
205.286419284598
 11
558.829028274514
 21
205.533922500087
 72
     1
 10
558.829028274514
 20
205.533922500087
 11
558.9097160295789
 21
205.770103427405
 72
     1
 10
558.9097160295789
 20
205.770103427405
 11
559.035717308337
 21
205.98554627829
 72
     1
 10
559.035717308337
 20
205.98554627829
 11
559.202008837422
 21
206.171662026148
 72
     1
 10
559.202008837422
 20
206.171662026148
 11
559.4019610983339
 21
206.321030823432
 72
     1
 10
559.4019610983339
 20
206.321030823432
 11
559.627602625416
 21
206.427697807557
 72
     1
 10
559.627602625416
 20
206.427697807557
 11
559.869937803036
 21
206.487410502472
 72
     1
 10
559.869937803036
 20
206.487410502472
 11
560.04633781311
 21
206.4999198817
 72
     1
 10
560.04633781311
 20
206.4999198817
 11
560.1456724785089
 21
206.5098865928
 72
     1
 10
560.1456724785089
 20
206.5098865928
 11
560.241046984266
 21
206.53938938472
 72
     1
 10
560.241046984266
 20
206.53938938472
 11
560.328659049809
 21
206.587252074266
 72
     1
 10
560.328659049809
 20
206.587252074266
 11
560.405015858561
 21
206.651566527048
 72
     1
 10
560.405015858561
 20
206.651566527048
 11
560.467073305515
 21
206.729768728787
 72
     1
 10
560.467073305515
 20
206.729768728787
 11
560.512357356095
 21
206.818741004483
 72
     1
 10
560.512357356095
 20
206.818741004483
 11
560.539062678106
 21
206.914936310271
 72
     1
 10
560.539062678106
 20
206.914936310271
 11
560.54633781311
 21
206.9999198817
 72
     1
 10
560.54633781311
 20
206.9999198817
 11
560.546337813111
 21
213.999919881721
 72
     1
 10
560.546337813111
 20
213.999919881721
 11
561.046337813111
 21
213.999919881721
 72
     1
 10
561.046337813111
 20
213.999919881721
 11
561.046337813111
 21
215.999919881721
 72
     1
 10
561.046337813111
 20
215.999919881721
 11
560.546337813111
 21
215.999919881721
 72
     1
 10
560.546337813111
 20
215.999919881721
 11
560.546337813111
 21
218.999919881721
 72
     1
 10
560.546337813111
 20
218.999919881721
 11
562.046337813111
 21
218.999919881721
 72
     1
 10
562.046337813111
 20
218.999919881721
 11
562.04633781311
 21
232.9999198817
 72
     1
 10
562.04633781311
 20
232.9999198817
 11
558.046337813111
 21
232.999919881721
 72
     1
 10
558.046337813111
 20
232.999919881721
 11
558.046337813111
 21
221.999919881721
 72
     1
 10
558.046337813111
 20
221.999919881721
 11
557.046337813111
 21
221.999919881721
 72
     1
 10
557.046337813111
 20
221.999919881721
 11
557.046337813112
 21
142.499919881721
 72
     1
 10
557.046337813112
 20
142.499919881721
 11
560.04633781311
 21
142.4999198817
 72
     1
 10
560.04633781311
 20
142.4999198817
 11
560.1456724785089
 21
142.5098865928
 72
     1
 10
560.1456724785089
 20
142.5098865928
 11
560.241046984266
 21
142.53938938472
 72
     1
 10
560.241046984266
 20
142.53938938472
 11
560.328659049809
 21
142.587252074266
 72
     1
 10
560.328659049809
 20
142.587252074266
 11
560.405015858561
 21
142.651566527047
 72
     1
 10
560.405015858561
 20
142.651566527047
 11
560.467073305516
 21
142.729768728787
 72
     1
 10
560.467073305516
 20
142.729768728787
 11
560.512357356095
 21
142.818741004483
 72
     1
 10
560.512357356095
 20
142.818741004483
 11
560.539062678106
 21
142.914936310271
 72
     1
 10
560.539062678106
 20
142.914936310271
 11
560.54633781311
 21
142.9999198817
 72
     1
 10
560.54633781311
 20
142.9999198817
 11
560.54633781311
 21
144.9999198817
 72
     1
 10
560.54633781311
 20
144.9999198817
 11
560.536371102032
 21
145.099254547119
 72
     1
 10
560.536371102032
 20
145.099254547119
 11
560.506868310113
 21
145.194629052875
 72
     1
 10
560.506868310113
 20
145.194629052875
 11
560.459005620566
 21
145.282241118419
 72
     1
 10
560.459005620566
 20
145.282241118419
 11
560.3946911677849
 21
145.358597927171
 72
     1
 10
560.3946911677849
 20
145.358597927171
 11
560.316488966046
 21
145.420655374125
 72
     1
 10
560.316488966046
 20
145.420655374125
 11
560.2275166903501
 21
145.465939424705
 72
     1
 10
560.2275166903501
 20
145.465939424705
 11
560.1313213845619
 21
145.492644746715
 72
     1
 10
560.1313213845619
 20
145.492644746715
 11
560.04633781311
 21
145.4999198817
 72
     1
 10
560.04633781311
 20
145.4999198817
 11
559.798001149618
 21
145.52483665942
 72
     1
 10
559.798001149618
 20
145.52483665942
 11
559.559564885226
 21
145.598593639217
 72
     1
 10
559.559564885226
 20
145.598593639217
 11
559.3405347213679
 21
145.718250363084
 72
     1
 10
559.3405347213679
 20
145.718250363084
 11
559.149642699487
 21
145.879036495037
 72
     1
 10
559.149642699487
 20
145.879036495037
 11
558.994499082102
 21
146.074541999386
 72
     1
 10
558.994499082102
 20
146.074541999386
 11
558.881288955653
 21
146.296972688625
 72
     1
 10
558.881288955653
 20
146.296972688625
 11
558.8145256506259
 21
146.537460953096
 72
     1
 10
558.8145256506259
 20
146.537460953096
 11
558.79687080931
 21
146.786419284598
 72
     1
 10
558.79687080931
 20
146.786419284598
 11
558.829028274514
 21
147.033922500087
 72
     1
 10
558.829028274514
 20
147.033922500087
 11
558.9097160295801
 21
147.270103427405
 72
     1
 10
558.9097160295801
 20
147.270103427405
 11
559.035717308337
 21
147.48554627829
 72
     1
 10
559.035717308337
 20
147.48554627829
 11
559.2020088374229
 21
147.671662026148
 72
     1
 10
559.2020088374229
 20
147.671662026148
 11
559.401961098335
 21
147.821030823432
 72
     1
 10
559.401961098335
 20
147.821030823432
 11
559.627602625417
 21
147.927697807557
 72
     1
 10
559.627602625417
 20
147.927697807557
 11
559.8699378030369
 21
147.987410502472
 72
     1
 10
559.8699378030369
 20
147.987410502472
 11
560.04633781311
 21
147.9999198817
 72
     1
 10
560.04633781311
 20
147.9999198817
 11
560.1456724785089
 21
148.0098865928
 72
     1
 10
560.1456724785089
 20
148.0098865928
 11
560.241046984266
 21
148.03938938472
 72
     1
 10
560.241046984266
 20
148.03938938472
 11
560.328659049809
 21
148.087252074266
 72
     1
 10
560.328659049809
 20
148.087252074266
 11
560.405015858561
 21
148.151566527047
 72
     1
 10
560.405015858561
 20
148.151566527047
 11
560.467073305515
 21
148.229768728787
 72
     1
 10
560.467073305515
 20
148.229768728787
 11
560.512357356095
 21
148.318741004483
 72
     1
 10
560.512357356095
 20
148.318741004483
 11
560.539062678106
 21
148.414936310271
 72
     1
 10
560.539062678106
 20
148.414936310271
 11
560.54633781311
 21
148.4999198817
 72
     1
 10
560.54633781311
 20
148.4999198817
 11
560.54633781311
 21
149.4999198817
 72
     1
 10
560.54633781311
 20
149.4999198817
 11
560.536371102032
 21
149.599254547119
 72
     1
 10
560.536371102032
 20
149.599254547119
 11
560.506868310113
 21
149.694629052875
 72
     1
 10
560.506868310113
 20
149.694629052875
 11
560.459005620566
 21
149.782241118418
 72
     1
 10
560.459005620566
 20
149.782241118418
 11
560.3946911677849
 21
149.858597927171
 72
     1
 10
560.3946911677849
 20
149.858597927171
 11
560.316488966046
 21
149.920655374125
 72
     1
 10
560.316488966046
 20
149.920655374125
 11
560.2275166903501
 21
149.965939424705
 72
     1
 10
560.2275166903501
 20
149.965939424705
 11
560.1313213845619
 21
149.992644746715
 72
     1
 10
560.1313213845619
 20
149.992644746715
 11
560.04633781311
 21
149.9999198817
 72
     1
 10
560.04633781311
 20
149.9999198817
 11
559.798001149618
 21
150.02483665942
 72
     1
 10
559.798001149618
 20
150.02483665942
 11
559.559564885226
 21
150.098593639218
 72
     1
 10
559.559564885226
 20
150.098593639218
 11
559.3405347213679
 21
150.218250363084
 72
     1
 10
559.3405347213679
 20
150.218250363084
 11
559.149642699487
 21
150.379036495037
 72
     1
 10
559.149642699487
 20
150.379036495037
 11
558.994499082102
 21
150.574541999386
 72
     1
 10
558.994499082102
 20
150.574541999386
 11
558.881288955653
 21
150.796972688625
 72
     1
 10
558.881288955653
 20
150.796972688625
 11
558.8145256506259
 21
151.037460953096
 72
     1
 10
558.8145256506259
 20
151.037460953096
 11
558.79687080931
 21
151.286419284598
 72
     1
 10
558.79687080931
 20
151.286419284598
 11
558.829028274514
 21
151.533922500088
 72
     1
 10
558.829028274514
 20
151.533922500088
 11
558.9097160295801
 21
151.770103427405
 72
     1
 10
558.9097160295801
 20
151.770103427405
 11
559.035717308337
 21
151.98554627829
 72
     1
 10
559.035717308337
 20
151.98554627829
 11
559.2020088374229
 21
152.171662026148
 72
     1
 10
559.2020088374229
 20
152.171662026148
 11
559.401961098335
 21
152.321030823432
 72
     1
 10
559.401961098335
 20
152.321030823432
 11
559.627602625417
 21
152.427697807557
 72
     1
 10
559.627602625417
 20
152.427697807557
 11
559.8699378030369
 21
152.487410502472
 72
     1
 10
559.8699378030369
 20
152.487410502472
 11
560.04633781311
 21
152.4999198817
 72
     1
 10
560.04633781311
 20
152.4999198817
 11
560.1456724785089
 21
152.5098865928
 72
     1
 10
560.1456724785089
 20
152.5098865928
 11
560.241046984266
 21
152.53938938472
 72
     1
 10
560.241046984266
 20
152.53938938472
 11
560.328659049809
 21
152.587252074266
 72
     1
 10
560.328659049809
 20
152.587252074266
 11
560.405015858561
 21
152.651566527047
 72
     1
 10
560.405015858561
 20
152.651566527047
 11
560.467073305515
 21
152.729768728787
 72
     1
 10
560.467073305515
 20
152.729768728787
 11
560.512357356095
 21
152.818741004483
 72
     1
 10
560.512357356095
 20
152.818741004483
 11
560.539062678106
 21
152.914936310271
 72
     1
 10
560.539062678106
 20
152.914936310271
 11
560.54633781311
 21
152.9999198817
 72
     1
 10
560.54633781311
 20
152.9999198817
 11
560.54633781311
 21
153.9999198817
 72
     1
 10
560.54633781311
 20
153.9999198817
 11
560.536371102032
 21
154.099254547119
 72
     1
 10
560.536371102032
 20
154.099254547119
 11
560.506868310113
 21
154.194629052875
 72
     1
 10
560.506868310113
 20
154.194629052875
 11
560.459005620566
 21
154.282241118418
 72
     1
 10
560.459005620566
 20
154.282241118418
 11
560.3946911677849
 21
154.358597927171
 72
     1
 10
560.3946911677849
 20
154.358597927171
 11
560.316488966046
 21
154.420655374125
 72
     1
 10
560.316488966046
 20
154.420655374125
 11
560.2275166903501
 21
154.465939424705
 72
     1
 10
560.2275166903501
 20
154.465939424705
 11
560.1313213845619
 21
154.492644746715
 72
     1
 10
560.1313213845619
 20
154.492644746715
 11
560.04633781311
 21
154.4999198817
 72
     1
 10
560.04633781311
 20
154.4999198817
 11
559.798001149618
 21
154.52483665942
 72
     1
 10
559.798001149618
 20
154.52483665942
 11
559.559564885226
 21
154.598593639217
 72
     1
 10
559.559564885226
 20
154.598593639217
 11
559.3405347213679
 21
154.718250363084
 72
     1
 10
559.3405347213679
 20
154.718250363084
 11
559.149642699487
 21
154.879036495037
 72
     1
 10
559.149642699487
 20
154.879036495037
 11
558.994499082102
 21
155.074541999386
 72
     1
 10
558.994499082102
 20
155.074541999386
 11
558.881288955653
 21
155.296972688625
 72
     1
 10
558.881288955653
 20
155.296972688625
 11
558.8145256506259
 21
155.537460953096
 72
     1
 10
558.8145256506259
 20
155.537460953096
 11
558.79687080931
 21
155.786419284598
 72
     1
 10
558.79687080931
 20
155.786419284598
 11
558.829028274514
 21
156.033922500087
 72
     1
 10
558.829028274514
 20
156.033922500087
 11
558.9097160295789
 21
156.270103427405
 72
     1
 10
558.9097160295789
 20
156.270103427405
 11
559.035717308337
 21
156.48554627829
 72
     1
 10
559.035717308337
 20
156.48554627829
 11
559.2020088374229
 21
156.671662026148
 72
     1
 10
559.2020088374229
 20
156.671662026148
 11
559.401961098335
 21
156.821030823432
 72
     1
 10
559.401961098335
 20
156.821030823432
 11
559.627602625417
 21
156.927697807557
 72
     1
 10
559.627602625417
 20
156.927697807557
 11
559.8699378030369
 21
156.987410502472
 72
     1
 10
559.8699378030369
 20
156.987410502472
 11
560.04633781311
 21
156.9999198817
 72
     1
 10
560.04633781311
 20
156.9999198817
 11
560.1456724785089
 21
157.0098865928
 72
     1
 10
560.1456724785089
 20
157.0098865928
 11
560.241046984266
 21
157.03938938472
 72
     1
 10
560.241046984266
 20
157.03938938472
 11
560.328659049809
 21
157.087252074266
 72
     1
 10
560.328659049809
 20
157.087252074266
 11
560.405015858561
 21
157.151566527047
 72
     1
 10
560.405015858561
 20
157.151566527047
 11
560.467073305515
 21
157.229768728787
 72
     1
 10
560.467073305515
 20
157.229768728787
 11
560.512357356095
 21
157.318741004483
 72
     1
 10
560.512357356095
 20
157.318741004483
 11
560.539062678106
 21
157.414936310271
 72
     1
 10
560.539062678106
 20
157.414936310271
 11
560.54633781311
 21
157.4999198817
 72
     1
 10
560.54633781311
 20
157.4999198817
 11
560.54633781311
 21
158.4999198817
 72
     1
 10
560.54633781311
 20
158.4999198817
 11
560.536371102032
 21
158.599254547119
 72
     1
 10
560.536371102032
 20
158.599254547119
 11
560.506868310113
 21
158.694629052875
 72
     1
 10
560.506868310113
 20
158.694629052875
 11
560.459005620566
 21
158.782241118418
 72
     1
 10
560.459005620566
 20
158.782241118418
 11
560.3946911677849
 21
158.858597927171
 72
     1
 10
560.3946911677849
 20
158.858597927171
 11
560.316488966046
 21
158.920655374125
 72
     1
 10
560.316488966046
 20
158.920655374125
 11
560.2275166903501
 21
158.965939424705
 72
     1
 10
560.2275166903501
 20
158.965939424705
 11
560.1313213845619
 21
158.992644746715
 72
     1
 10
560.1313213845619
 20
158.992644746715
 11
560.04633781311
 21
158.9999198817
 72
     1
 10
560.04633781311
 20
158.9999198817
 11
559.798001149618
 21
159.02483665942
 72
     1
 10
559.798001149618
 20
159.02483665942
 11
559.559564885226
 21
159.098593639217
 72
     1
 10
559.559564885226
 20
159.098593639217
 11
559.3405347213679
 21
159.218250363084
 72
     1
 10
559.3405347213679
 20
159.218250363084
 11
559.149642699487
 21
159.379036495037
 72
     1
 10
559.149642699487
 20
159.379036495037
 11
558.994499082102
 21
159.574541999386
 72
     1
 10
558.994499082102
 20
159.574541999386
 11
558.881288955652
 21
159.796972688625
 72
     1
 10
558.881288955652
 20
159.796972688625
 11
558.8145256506259
 21
160.037460953096
 72
     1
 10
558.8145256506259
 20
160.037460953096
 11
558.79687080931
 21
160.286419284598
 72
     1
 10
558.79687080931
 20
160.286419284598
 11
558.829028274514
 21
160.533922500087
 72
     1
 10
558.829028274514
 20
160.533922500087
 11
558.9097160295789
 21
160.770103427405
 72
     1
 10
558.9097160295789
 20
160.770103427405
 11
559.035717308337
 21
160.98554627829
 72
     1
 10
559.035717308337
 20
160.98554627829
 11
559.2020088374229
 21
161.171662026148
 72
     1
 10
559.2020088374229
 20
161.171662026148
 11
559.401961098335
 21
161.321030823432
 72
     1
 10
559.401961098335
 20
161.321030823432
 11
559.627602625417
 21
161.427697807557
 72
     1
 10
559.627602625417
 20
161.427697807557
 11
559.8699378030369
 21
161.487410502472
 72
     1
 10
559.8699378030369
 20
161.487410502472
 11
560.04633781311
 21
161.4999198817
 72
     1
 10
560.04633781311
 20
161.4999198817
 11
560.1456724785089
 21
161.5098865928
 72
     1
 10
560.1456724785089
 20
161.5098865928
 11
560.241046984266
 21
161.53938938472
 72
     1
 10
560.241046984266
 20
161.53938938472
 11
560.328659049809
 21
161.587252074266
 72
     1
 10
560.328659049809
 20
161.587252074266
 11
560.405015858561
 21
161.651566527048
 72
     1
 10
560.405015858561
 20
161.651566527048
 11
560.467073305515
 21
161.729768728787
 72
     1
 10
560.467073305515
 20
161.729768728787
 11
560.512357356095
 21
161.818741004483
 72
     1
 10
560.512357356095
 20
161.818741004483
 11
560.539062678106
 21
161.914936310271
 72
     1
 10
560.539062678106
 20
161.914936310271
 11
560.54633781311
 21
161.9999198817
 72
     1
 10
560.54633781311
 20
161.9999198817
 11
560.54633781311
 21
162.9999198817
 72
     1
 10
560.54633781311
 20
162.9999198817
 11
560.536371102032
 21
163.099254547119
 72
     1
 10
560.536371102032
 20
163.099254547119
 11
560.506868310113
 21
163.194629052875
 72
     1
 10
560.506868310113
 20
163.194629052875
 11
560.459005620566
 21
163.282241118419
 72
     1
 10
560.459005620566
 20
163.282241118419
 11
560.3946911677849
 21
163.358597927171
 72
     1
 10
560.3946911677849
 20
163.358597927171
 11
560.316488966046
 21
163.420655374125
 72
     1
 10
560.316488966046
 20
163.420655374125
 11
560.2275166903501
 21
163.465939424705
 72
     1
 10
560.2275166903501
 20
163.465939424705
 11
560.1313213845619
 21
163.492644746715
 72
     1
 10
560.1313213845619
 20
163.492644746715
 11
560.04633781311
 21
163.4999198817
 72
     1
 10
560.04633781311
 20
163.4999198817
 11
559.798001149618
 21
163.52483665942
 72
     1
 10
559.798001149618
 20
163.52483665942
 11
559.559564885226
 21
163.598593639218
 72
     1
 10
559.559564885226
 20
163.598593639218
 11
559.3405347213679
 21
163.718250363084
 72
     1
 10
559.3405347213679
 20
163.718250363084
 11
559.149642699487
 21
163.879036495037
 72
     1
 10
559.149642699487
 20
163.879036495037
 11
558.994499082102
 21
164.074541999386
 72
     1
 10
558.994499082102
 20
164.074541999386
 11
558.881288955653
 21
164.296972688625
 72
     1
 10
558.881288955653
 20
164.296972688625
 11
558.8145256506259
 21
164.537460953096
 72
     1
 10
558.8145256506259
 20
164.537460953096
 11
558.79687080931
 21
164.786419284598
 72
     1
 10
558.79687080931
 20
164.786419284598
 11
558.829028274514
 21
165.033922500088
 72
     1
 10
558.829028274514
 20
165.033922500088
 11
558.9097160295789
 21
165.270103427405
 72
     1
 10
558.9097160295789
 20
165.270103427405
 11
559.035717308337
 21
165.48554627829
 72
     1
 10
559.035717308337
 20
165.48554627829
 11
559.2020088374229
 21
165.671662026148
 72
     1
 10
559.2020088374229
 20
165.671662026148
 11
559.401961098335
 21
165.821030823432
 72
     1
 10
559.401961098335
 20
165.821030823432
 11
559.627602625417
 21
165.927697807557
 72
     1
 10
559.627602625417
 20
165.927697807557
 11
559.8699378030369
 21
165.987410502472
 72
     1
 10
559.8699378030369
 20
165.987410502472
 11
560.04633781311
 21
165.9999198817
 72
     1
 10
560.04633781311
 20
165.9999198817
 11
560.1456724785089
 21
166.009886592801
 72
     1
 10
560.1456724785089
 20
166.009886592801
 11
560.241046984266
 21
166.03938938472
 72
     1
 10
560.241046984266
 20
166.03938938472
 11
560.328659049809
 21
166.087252074266
 72
     1
 10
560.328659049809
 20
166.087252074266
 11
560.405015858561
 21
166.151566527048
 72
     1
 10
560.405015858561
 20
166.151566527048
 11
560.467073305515
 21
166.229768728787
 72
     1
 10
560.467073305515
 20
166.229768728787
 11
560.512357356095
 21
166.318741004483
 72
     1
 10
560.512357356095
 20
166.318741004483
 11
560.539062678106
 21
166.414936310271
 72
     1
 10
560.539062678106
 20
166.414936310271
 11
560.54633781311
 21
166.4999198817
 72
     1
 10
560.54633781311
 20
166.4999198817
 11
560.54633781311
 21
167.4999198817
 72
     1
 10
560.54633781311
 20
167.4999198817
 11
560.536371102032
 21
167.599254547119
 72
     1
 10
560.536371102032
 20
167.599254547119
 11
560.506868310113
 21
167.694629052875
 72
     1
 10
560.506868310113
 20
167.694629052875
 11
560.459005620566
 21
167.782241118419
 72
     1
 10
560.459005620566
 20
167.782241118419
 11
560.3946911677849
 21
167.858597927171
 72
     1
 10
560.3946911677849
 20
167.858597927171
 11
560.316488966046
 21
167.920655374125
 72
     1
 10
560.316488966046
 20
167.920655374125
 11
560.2275166903501
 21
167.965939424705
 72
     1
 10
560.2275166903501
 20
167.965939424705
 11
560.1313213845619
 21
167.992644746715
 72
     1
 10
560.1313213845619
 20
167.992644746715
 11
560.04633781311
 21
167.9999198817
 72
     1
 10
560.04633781311
 20
167.9999198817
 11
559.798001149618
 21
168.02483665942
 72
     1
 10
559.798001149618
 20
168.02483665942
 11
559.559564885226
 21
168.098593639217
 72
     1
 10
559.559564885226
 20
168.098593639217
 11
559.3405347213679
 21
168.218250363084
 72
     1
 10
559.3405347213679
 20
168.218250363084
 11
559.149642699487
 21
168.379036495037
 72
     1
 10
559.149642699487
 20
168.379036495037
 11
558.994499082102
 21
168.574541999386
 72
     1
 10
558.994499082102
 20
168.574541999386
 11
558.881288955652
 21
168.796972688625
 72
     1
 10
558.881288955652
 20
168.796972688625
 11
558.8145256506259
 21
169.037460953096
 72
     1
 10
558.8145256506259
 20
169.037460953096
 11
558.79687080931
 21
169.286419284598
 72
     1
 10
558.79687080931
 20
169.286419284598
 11
558.829028274514
 21
169.533922500087
 72
     1
 10
558.829028274514
 20
169.533922500087
 11
558.9097160295789
 21
169.770103427405
 72
     1
 10
558.9097160295789
 20
169.770103427405
 11
559.035717308337
 21
169.98554627829
 72
     1
 10
559.035717308337
 20
169.98554627829
 11
559.2020088374229
 21
170.171662026148
 72
     1
 10
559.2020088374229
 20
170.171662026148
 11
559.401961098335
 21
170.321030823432
 72
     1
 10
559.401961098335
 20
170.321030823432
 11
559.627602625417
 21
170.427697807557
 72
     1
 10
559.627602625417
 20
170.427697807557
 11
559.8699378030369
 21
170.487410502472
 72
     1
 10
559.8699378030369
 20
170.487410502472
 11
560.04633781311
 21
170.4999198817
 72
     1
 10
560.04633781311
 20
170.4999198817
 11
560.1456724785089
 21
170.5098865928
 72
     1
 10
560.1456724785089
 20
170.5098865928
 11
560.241046984266
 21
170.53938938472
 72
     1
 10
560.241046984266
 20
170.53938938472
 11
560.328659049809
 21
170.587252074266
 72
     1
 10
560.328659049809
 20
170.587252074266
 11
560.405015858561
 21
170.651566527048
 72
     1
 10
560.405015858561
 20
170.651566527048
 11
560.467073305515
 21
170.729768728787
 72
     1
 10
560.467073305515
 20
170.729768728787
 11
560.512357356095
 21
170.818741004483
 72
     1
 10
560.512357356095
 20
170.818741004483
 11
560.539062678106
 21
170.914936310271
 72
     1
 10
560.539062678106
 20
170.914936310271
 11
560.54633781311
 21
170.9999198817
 72
     1
 10
560.54633781311
 20
170.9999198817
 11
560.54633781311
 21
171.9999198817
 72
     1
 10
560.54633781311
 20
171.9999198817
 11
560.536371102032
 21
172.099254547119
 72
     1
 10
560.536371102032
 20
172.099254547119
 11
560.506868310113
 21
172.194629052875
 72
     1
 10
560.506868310113
 20
172.194629052875
 11
560.459005620566
 21
172.282241118418
 72
     1
 10
560.459005620566
 20
172.282241118418
 11
560.3946911677849
 21
172.358597927171
 72
     1
 10
560.3946911677849
 20
172.358597927171
 11
560.316488966046
 21
172.420655374125
 72
     1
 10
560.316488966046
 20
172.420655374125
 11
560.2275166903501
 21
172.465939424705
 72
     1
 10
560.2275166903501
 20
172.465939424705
 11
560.1313213845619
 21
172.492644746715
 72
     1
 10
560.1313213845619
 20
172.492644746715
 11
560.04633781311
 21
172.4999198817
 72
     1
 10
560.04633781311
 20
172.4999198817
 11
559.798001149618
 21
172.52483665942
 72
     1
 10
559.798001149618
 20
172.52483665942
 11
559.559564885226
 21
172.598593639217
 72
     1
 10
559.559564885226
 20
172.598593639217
 11
559.3405347213679
 21
172.718250363084
 72
     1
 10
559.3405347213679
 20
172.718250363084
 11
559.149642699487
 21
172.879036495037
 72
     1
 10
559.149642699487
 20
172.879036495037
 11
558.994499082102
 21
173.074541999386
 72
     1
 10
558.994499082102
 20
173.074541999386
 11
558.881288955652
 21
173.296972688625
 72
     1
 10
558.881288955652
 20
173.296972688625
 11
558.8145256506259
 21
173.537460953096
 72
     1
 10
558.8145256506259
 20
173.537460953096
 11
558.79687080931
 21
173.786419284598
 72
     1
 10
558.79687080931
 20
173.786419284598
 11
558.829028274514
 21
174.033922500087
 72
     1
 10
558.829028274514
 20
174.033922500087
 11
558.9097160295789
 21
174.270103427405
 72
     1
 10
558.9097160295789
 20
174.270103427405
 11
559.035717308337
 21
174.48554627829
 72
     1
 10
559.035717308337
 20
174.48554627829
 11
559.2020088374229
 21
174.671662026148
 72
     1
 10
559.2020088374229
 20
174.671662026148
 11
559.401961098335
 21
174.821030823432
 72
     1
 10
559.401961098335
 20
174.821030823432
 11
559.627602625417
 21
174.927697807557
 72
     1
 10
559.627602625417
 20
174.927697807557
 11
559.8699378030369
 21
174.987410502472
 72
     1
 10
559.8699378030369
 20
174.987410502472
 11
560.04633781311
 21
174.9999198817
 72
     1
 10
560.04633781311
 20
174.9999198817
 11
560.1456724785089
 21
175.0098865928
 72
     1
 10
560.1456724785089
 20
175.0098865928
 11
560.241046984266
 21
175.03938938472
 72
     1
 10
560.241046984266
 20
175.03938938472
 11
560.328659049809
 21
175.087252074266
 72
     1
 10
560.328659049809
 20
175.087252074266
 11
560.405015858561
 21
175.151566527048
 72
     1
 10
560.405015858561
 20
175.151566527048
 11
560.467073305515
 21
175.229768728787
 72
     1
 10
560.467073305515
 20
175.229768728787
 11
560.512357356095
 21
175.318741004483
 72
     1
 10
560.512357356095
 20
175.318741004483
 11
560.539062678106
 21
175.414936310271
 72
     1
 10
560.539062678106
 20
175.414936310271
 11
560.54633781311
 21
175.4999198817
 72
     1
 10
560.54633781311
 20
175.4999198817
 11
560.54633781311
 21
176.4999198817
 72
     1
 10
560.54633781311
 20
176.4999198817
 11
560.536371102032
 21
176.599254547119
 72
     1
 10
560.536371102032
 20
176.599254547119
 11
560.506868310113
 21
176.694629052875
 72
     1
 10
560.506868310113
 20
176.694629052875
 11
560.459005620566
 21
176.782241118419
 72
     1
 10
560.459005620566
 20
176.782241118419
 11
560.3946911677849
 21
176.858597927171
 72
     1
 10
560.3946911677849
 20
176.858597927171
 11
560.316488966046
 21
176.920655374125
 72
     1
 10
560.316488966046
 20
176.920655374125
 11
560.2275166903501
 21
176.965939424705
 72
     1
 10
560.2275166903501
 20
176.965939424705
 11
560.1313213845619
 21
176.992644746715
 72
     1
 10
560.1313213845619
 20
176.992644746715
 11
560.04633781311
 21
176.9999198817
 72
     1
 10
560.04633781311
 20
176.9999198817
 11
559.798001149618
 21
177.02483665942
 72
     1
 10
559.798001149618
 20
177.02483665942
 11
559.559564885226
 21
177.098593639217
 72
     1
 10
559.559564885226
 20
177.098593639217
 11
559.3405347213679
 21
177.218250363084
 72
     1
 10
559.3405347213679
 20
177.218250363084
 11
559.149642699487
 21
177.379036495037
 72
     1
 10
559.149642699487
 20
177.379036495037
 11
558.994499082102
 21
177.574541999386
 72
     1
 10
558.994499082102
 20
177.574541999386
 11
558.881288955652
 21
177.796972688625
 72
     1
 10
558.881288955652
 20
177.796972688625
 11
558.8145256506259
 21
178.037460953096
 72
     1
 10
558.8145256506259
 20
178.037460953096
 11
558.79687080931
 21
178.286419284598
 72
     1
 10
558.79687080931
 20
178.286419284598
 11
558.829028274514
 21
178.533922500087
 72
     1
 10
558.829028274514
 20
178.533922500087
 11
558.9097160295789
 21
178.770103427405
 72
     1
 10
558.9097160295789
 20
178.770103427405
 11
559.035717308337
 21
178.98554627829
 72
     1
 10
559.035717308337
 20
178.98554627829
 11
559.2020088374229
 21
179.171662026148
 72
     1
 10
559.2020088374229
 20
179.171662026148
 11
559.401961098335
 21
179.321030823432
 72
     1
 10
559.401961098335
 20
179.321030823432
 11
559.627602625417
 21
179.427697807557
 72
     1
 10
559.627602625417
 20
179.427697807557
 11
559.8699378030369
 21
179.487410502472
 72
     1
 10
559.8699378030369
 20
179.487410502472
 11
560.04633781311
 21
179.4999198817
 72
     1
 10
560.04633781311
 20
179.4999198817
 11
560.1456724785089
 21
179.5098865928
 72
     1
 10
560.1456724785089
 20
179.5098865928
 11
560.241046984266
 21
179.53938938472
 72
     1
 10
560.241046984266
 20
179.53938938472
 11
560.328659049809
 21
179.587252074266
 72
     1
 10
560.328659049809
 20
179.587252074266
 11
560.405015858561
 21
179.651566527048
 72
     1
 10
560.405015858561
 20
179.651566527048
 11
560.467073305515
 21
179.729768728787
 72
     1
 10
560.467073305515
 20
179.729768728787
 11
560.512357356095
 21
179.818741004483
 72
     1
 10
560.512357356095
 20
179.818741004483
 11
560.539062678106
 21
179.914936310271
 72
     1
 10
560.539062678106
 20
179.914936310271
 11
560.54633781311
 21
179.9999198817
 72
     1
 10
560.54633781311
 20
179.9999198817
 11
560.54633781311
 21
180.9999198817
 72
     1
 10
560.54633781311
 20
180.9999198817
 11
560.536371102032
 21
181.099254547119
 72
     1
 10
560.536371102032
 20
181.099254547119
 11
560.506868310113
 21
181.194629052875
 72
     1
 10
560.506868310113
 20
181.194629052875
 11
560.459005620566
 21
181.282241118419
 72
     1
 10
560.459005620566
 20
181.282241118419
 11
560.3946911677849
 21
181.358597927171
 72
     1
 10
560.3946911677849
 20
181.358597927171
 11
560.316488966046
 21
181.420655374125
 72
     1
 10
560.316488966046
 20
181.420655374125
 11
560.2275166903501
 21
181.465939424705
 72
     1
 10
560.2275166903501
 20
181.465939424705
 11
560.1313213845619
 21
181.492644746715
 72
     1
 10
560.1313213845619
 20
181.492644746715
 11
560.04633781311
 21
181.4999198817
 72
     1
 10
560.04633781311
 20
181.4999198817
 11
559.798001149618
 21
181.524836659419
 72
     1
 10
559.798001149618
 20
181.524836659419
 11
559.559564885226
 21
181.598593639217
 72
     1
 10
559.559564885226
 20
181.598593639217
 11
559.3405347213679
 21
181.718250363084
 72
     1
 10
559.3405347213679
 20
181.718250363084
 11
559.149642699487
 21
181.879036495037
 72
     1
 10
559.149642699487
 20
181.879036495037
 11
558.994499082102
 21
182.074541999386
 72
     1
 10
558.994499082102
 20
182.074541999386
 11
558.881288955652
 21
182.296972688625
 72
     1
 10
558.881288955652
 20
182.296972688625
 11
558.8145256506259
 21
182.537460953096
 72
     1
 10
558.8145256506259
 20
182.537460953096
 11
558.79687080931
 21
182.786419284598
 72
     1
 10
558.79687080931
 20
182.786419284598
 11
558.829028274514
 21
183.033922500087
 72
     1
 10
558.829028274514
 20
183.033922500087
 11
558.9097160295789
 21
183.270103427405
 72
     1
 10
558.9097160295789
 20
183.270103427405
 11
559.035717308337
 21
183.48554627829
 72
     1
 10
559.035717308337
 20
183.48554627829
 11
559.202008837422
 21
183.671662026147
 72
     1
 10
559.202008837422
 20
183.671662026147
 11
559.401961098335
 21
183.821030823432
 72
     1
 10
559.401961098335
 20
183.821030823432
 11
559.627602625416
 21
183.927697807557
 72
     1
 10
559.627602625416
 20
183.927697807557
 11
559.8699378030369
 21
183.987410502472
 72
     1
 10
559.8699378030369
 20
183.987410502472
 11
560.04633781311
 21
183.9999198817
 72
     1
 10
560.04633781311
 20
183.9999198817
 11
560.1456724785089
 21
184.009886592801
 72
     1
 10
560.1456724785089
 20
184.009886592801
 11
560.241046984266
 21
184.03938938472
 72
     1
 10
560.241046984266
 20
184.03938938472
 11
560.328659049809
 21
184.087252074266
 72
     1
 10
560.328659049809
 20
184.087252074266
 11
560.405015858561
 21
184.151566527048
 72
     1
 10
560.405015858561
 20
184.151566527048
 11
560.467073305515
 21
184.229768728787
 72
     1
 10
560.467073305515
 20
184.229768728787
 11
560.512357356095
 21
184.318741004483
 72
     1
 10
560.512357356095
 20
184.318741004483
 11
560.539062678106
 21
184.414936310271
 72
     1
 10
560.539062678106
 20
184.414936310271
 11
560.54633781311
 21
184.4999198817
 72
     1
 10
560.54633781311
 20
184.4999198817
 11
560.54633781311
 21
185.4999198817
 72
     1
 10
560.54633781311
 20
185.4999198817
 11
560.536371102032
 21
185.599254547119
 72
     1
 10
560.536371102032
 20
185.599254547119
 11
560.506868310113
 21
185.694629052875
 72
     1
 10
560.506868310113
 20
185.694629052875
 11
560.459005620566
 21
185.782241118419
 72
     1
 10
560.459005620566
 20
185.782241118419
 11
560.3946911677849
 21
185.858597927171
 72
     1
 10
560.3946911677849
 20
185.858597927171
 11
560.316488966045
 21
185.920655374125
 72
     1
 10
560.316488966045
 20
185.920655374125
 11
560.2275166903501
 21
185.965939424705
 72
     1
 10
560.2275166903501
 20
185.965939424705
 11
560.1313213845619
 21
185.992644746715
 72
     1
 10
560.1313213845619
 20
185.992644746715
 11
560.04633781311
 21
185.9999198817
 72
     1
 10
560.04633781311
 20
185.9999198817
 11
559.798001149618
 21
186.024836659419
 72
     1
 10
559.798001149618
 20
186.024836659419
 11
559.559564885226
 21
186.098593639217
 72
     1
 10
559.559564885226
 20
186.098593639217
 11
559.3405347213679
 21
186.218250363084
 72
     1
 10
559.3405347213679
 20
186.218250363084
 11
559.149642699487
 21
186.379036495037
 72
     1
 10
559.149642699487
 20
186.379036495037
 11
558.994499082102
 21
186.574541999386
 72
     1
 10
558.994499082102
 20
186.574541999386
 11
558.881288955652
 21
186.796972688625
 72
     1
 10
558.881288955652
 20
186.796972688625
 11
558.8145256506259
 21
187.037460953096
 72
     1
 10
558.8145256506259
 20
187.037460953096
 11
558.79687080931
 21
187.286419284598
 72
     1
 10
558.79687080931
 20
187.286419284598
 11
558.829028274514
 21
187.533922500087
 72
     1
 10
558.829028274514
 20
187.533922500087
 11
558.9097160295789
 21
187.770103427405
 72
     1
 10
558.9097160295789
 20
187.770103427405
 11
559.035717308337
 21
187.98554627829
 72
     1
 10
559.035717308337
 20
187.98554627829
 11
559.202008837422
 21
188.171662026148
 72
     1
 10
559.202008837422
 20
188.171662026148
 11
559.401961098335
 21
188.321030823432
 72
     1
 10
559.401961098335
 20
188.321030823432
 11
559.627602625417
 21
188.427697807557
 72
     1
 10
559.627602625417
 20
188.427697807557
 11
559.8699378030369
 21
188.487410502472
 72
     1
 10
559.8699378030369
 20
188.487410502472
 11
560.04633781311
 21
188.4999198817
 72
     1
 10
560.04633781311
 20
188.4999198817
 11
560.1456724785089
 21
188.509886592801
 72
     1
 10
560.1456724785089
 20
188.509886592801
 11
560.241046984266
 21
188.53938938472
 72
     1
 10
560.241046984266
 20
188.53938938472
 11
560.328659049809
 21
188.587252074266
 72
     1
 10
560.328659049809
 20
188.587252074266
 11
560.405015858561
 21
188.651566527048
 72
     1
 10
560.405015858561
 20
188.651566527048
 11
560.467073305515
 21
188.729768728787
 72
     1
 10
560.467073305515
 20
188.729768728787
 11
560.512357356095
 21
188.818741004483
 72
     1
 10
560.512357356095
 20
188.818741004483
 11
560.539062678106
 21
188.914936310271
 72
     1
 10
560.539062678106
 20
188.914936310271
 11
560.54633781311
 21
188.9999198817
 72
     1
 10
560.54633781311
 20
188.9999198817
 11
560.54633781311
 21
189.9999198817
 72
     1
 10
560.54633781311
 20
189.9999198817
 11
560.536371102032
 21
190.099254547119
 72
     1
 10
560.536371102032
 20
190.099254547119
 11
560.506868310113
 21
190.194629052875
 72
     1
 10
560.506868310113
 20
190.194629052875
 11
560.459005620566
 21
190.282241118419
 72
     1
 10
560.459005620566
 20
190.282241118419
 11
560.3946911677849
 21
190.358597927171
 72
     1
 10
560.3946911677849
 20
190.358597927171
 11
560.316488966045
 21
190.420655374125
 72
     1
 10
560.316488966045
 20
190.420655374125
 11
560.2275166903501
 21
190.465939424705
 72
     1
 10
560.2275166903501
 20
190.465939424705
 11
560.1313213845619
 21
190.492644746715
 72
     1
 10
560.1313213845619
 20
190.492644746715
 11
560.04633781311
 21
190.4999198817
 72
     1
 10
560.04633781311
 20
190.4999198817
 11
559.798001149618
 21
190.524836659419
 72
     1
 10
559.798001149618
 20
190.524836659419
 11
559.559564885226
 21
190.598593639217
 72
     1
 10
559.559564885226
 20
190.598593639217
 11
559.3405347213679
 21
190.718250363084
 72
     1
 10
559.3405347213679
 20
190.718250363084
 11
559.149642699487
 21
190.879036495037
 72
     1
 10
559.149642699487
 20
190.879036495037
 11
558.994499082102
 21
191.074541999386
 72
     1
 10
558.994499082102
 20
191.074541999386
 11
558.881288955652
 21
191.296972688625
 72
     1
 10
558.881288955652
 20
191.296972688625
 11
558.8145256506259
 21
191.537460953096
 72
     1
 10
558.8145256506259
 20
191.537460953096
 11
558.79687080931
 21
191.786419284598
 72
     1
 10
558.79687080931
 20
191.786419284598
 11
558.829028274514
 21
192.033922500087
 72
     1
 10
558.829028274514
 20
192.033922500087
 11
558.9097160295789
 21
192.270103427405
 72
     1
 10
558.9097160295789
 20
192.270103427405
 11
559.035717308337
 21
192.48554627829
 72
     1
 10
559.035717308337
 20
192.48554627829
 11
559.202008837422
 21
192.671662026148
 72
     1
 10
559.202008837422
 20
192.671662026148
 11
559.401961098335
 21
192.821030823432
 72
     1
 10
559.401961098335
 20
192.821030823432
 11
559.627602625417
 21
192.927697807557
 72
     1
 10
559.627602625417
 20
192.927697807557
 11
559.8699378030369
 21
192.987410502472
 72
     1
 10
559.8699378030369
 20
192.987410502472
 11
560.04633781311
 21
192.9999198817
 72
     1
 10
560.04633781311
 20
192.9999198817
 11
560.1456724785089
 21
193.0098865928
 72
     1
 10
560.1456724785089
 20
193.0098865928
 11
560.241046984266
 21
193.03938938472
 72
     1
 10
560.241046984266
 20
193.03938938472
 11
560.328659049809
 21
193.087252074266
 72
     1
 10
560.328659049809
 20
193.087252074266
 11
560.405015858561
 21
193.151566527048
 72
     1
 10
560.405015858561
 20
193.151566527048
 11
560.467073305515
 21
193.229768728787
 72
     1
 10
560.467073305515
 20
193.229768728787
 11
560.512357356095
 21
193.318741004483
 72
     1
 10
560.512357356095
 20
193.318741004483
 11
560.539062678106
 21
193.414936310271
 72
     1
 10
560.539062678106
 20
193.414936310271
 11
560.54633781311
 21
193.4999198817
 72
     1
 10
560.54633781311
 20
193.4999198817
 11
560.54633781311
 21
194.4999198817
 72
     1
 10
560.54633781311
 20
194.4999198817
 11
560.536371102032
 21
194.599254547119
 72
     1
 10
560.536371102032
 20
194.599254547119
 11
560.506868310113
 21
194.694629052875
 72
     1
 10
560.506868310113
 20
194.694629052875
 11
560.459005620566
 21
194.782241118419
 72
     1
 10
560.459005620566
 20
194.782241118419
 11
560.3946911677849
 21
194.858597927171
 72
     1
 10
560.3946911677849
 20
194.858597927171
 11
560.316488966045
 21
194.920655374125
 72
     1
 10
560.316488966045
 20
194.920655374125
 11
560.2275166903501
 21
194.965939424705
 72
     1
 10
560.2275166903501
 20
194.965939424705
 11
560.1313213845619
 21
194.992644746715
 72
     1
 10
560.1313213845619
 20
194.992644746715
 11
560.04633781311
 21
194.9999198817
 72
     1
 10
560.04633781311
 20
194.9999198817
 11
559.798001149618
 21
195.02483665942
 72
     1
 10
559.798001149618
 20
195.02483665942
 11
559.559564885226
 21
195.098593639217
 72
     1
 10
559.559564885226
 20
195.098593639217
 11
559.3405347213679
 21
195.218250363084
 72
     1
 10
559.3405347213679
 20
195.218250363084
 11
559.149642699487
 21
195.379036495037
 72
     1
 10
559.149642699487
 20
195.379036495037
 11
558.994499082101
 21
195.574541999386
 72
     1
 10
558.994499082101
 20
195.574541999386
 11
558.881288955652
 21
195.796972688625
 72
     1
 10
558.881288955652
 20
195.796972688625
 11
558.8145256506259
 21
196.037460953096
 72
     1
 10
558.8145256506259
 20
196.037460953096
 11
558.79687080931
 21
196.286419284598
 72
     1
 10
558.79687080931
 20
196.286419284598
 11
558.829028274514
 21
196.533922500088
 72
     1
 10
558.829028274514
 20
196.533922500088
 11
558.9097160295789
 21
196.770103427405
 72
     1
 10
558.9097160295789
 20
196.770103427405
 11
559.035717308337
 21
196.98554627829
 72
     1
 10
559.035717308337
 20
196.98554627829
 11
559.2020088374229
 21
197.171662026148
 72
     1
 10
559.2020088374229
 20
197.171662026148
 11
559.401961098335
 21
197.321030823432
 72
     1
 10
559.401961098335
 20
197.321030823432
 11
559.627602625417
 21
197.427697807557
 72
     1
 10
559.627602625417
 20
197.427697807557
 11
559.8699378030369
 21
197.487410502472
 72
     1
 10
559.8699378030369
 20
197.487410502472
 11
560.04633781311
 21
197.4999198817
 72
     1
 10
560.04633781311
 20
197.4999198817
 11
560.1456724785089
 21
197.509886592801
 72
     1
 10
560.1456724785089
 20
197.509886592801
 11
560.241046984266
 21
197.53938938472
 72
     1
 10
560.241046984266
 20
197.53938938472
 11
560.328659049809
 21
197.587252074266
 72
     1
 10
560.328659049809
 20
197.587252074266
 11
560.405015858561
 21
197.651566527048
 72
     1
 10
560.405015858561
 20
197.651566527048
 11
560.467073305515
 21
197.729768728787
 72
     1
 10
560.467073305515
 20
197.729768728787
 11
560.512357356095
 21
197.818741004483
 72
     1
 10
560.512357356095
 20
197.818741004483
 11
560.539062678106
 21
197.914936310271
 72
     1
 10
560.539062678106
 20
197.914936310271
 11
560.54633781311
 21
197.9999198817
 72
     1
 10
560.54633781311
 20
197.9999198817
 11
560.54633781311
 21
198.9999198817
 72
     1
 10
560.54633781311
 20
198.9999198817
 11
560.536371102032
 21
199.099254547119
 72
     1
 10
560.536371102032
 20
199.099254547119
 11
560.506868310113
 21
199.194629052875
 72
     1
 10
560.506868310113
 20
199.194629052875
 11
560.459005620566
 21
199.282241118419
 72
     1
 10
560.459005620566
 20
199.282241118419
 11
560.3946911677849
 21
199.358597927171
 72
     1
 10
560.3946911677849
 20
199.358597927171
 11
560.316488966045
 21
199.420655374125
 72
     1
 10
560.316488966045
 20
199.420655374125
 11
560.2275166903501
 21
199.465939424705
 72
     1
 10
560.2275166903501
 20
199.465939424705
 11
560.1313213845619
 21
199.492644746715
 72
     1
 10
560.1313213845619
 20
199.492644746715
 11
560.04633781311
 21
199.4999198817
 97
        0
 75
     1
 76
     2
 52
0.0
 41
1.0
 77
     0
 78
     1
 53
44.99999999999998
 43
0.0
 44
0.0
 45
-4.490128060534577
 46
0.0000000000000018
 79
     0
 98
        1
 10
0.0
 20
0.0
  0
HATCH
  5
334
330
44
100
AcDbEntity
  8
0
  6
Continuous
 62
     7
100
AcDbHatch
 10
0.0
 20
0.0
 30
0.0
210
0.0
220
0.0
230
1.0
  2
CUSTOM1
 70
     0
 71
     0
 91
        1
 92
        1
 93
      482
 72
     1
 10
415.54633781311
 20
203.4999198817
 11
415.54633781311
 21
202.4999198817
 72
     1
 10
415.54633781311
 20
202.4999198817
 11
415.556304524191
 21
202.400585216324
 72
     1
 10
415.556304524191
 20
202.400585216324
 11
415.58580731611
 21
202.305210710567
 72
     1
 10
415.58580731611
 20
202.305210710567
 11
415.633670005656
 21
202.217598645024
 72
     1
 10
415.633670005656
 20
202.217598645024
 11
415.697984458438
 21
202.141241836271
 72
     1
 10
415.697984458438
 20
202.141241836271
 11
415.776186660177
 21
202.079184389317
 72
     1
 10
415.776186660177
 20
202.079184389317
 11
415.865158935873
 21
202.033900338738
 72
     1
 10
415.865158935873
 20
202.033900338738
 11
415.961354241661
 21
202.007195016727
 72
     1
 10
415.961354241661
 20
202.007195016727
 11
416.04633781311
 21
201.9999198817
 72
     1
 10
416.04633781311
 20
201.9999198817
 11
416.294674476605
 21
201.975003104023
 72
     1
 10
416.294674476605
 20
201.975003104023
 11
416.533110740997
 21
201.901246124225
 72
     1
 10
416.533110740997
 20
201.901246124225
 11
416.752140904855
 21
201.781589400358
 72
     1
 10
416.752140904855
 20
201.781589400358
 11
416.943032926736
 21
201.620803268405
 72
     1
 10
416.943032926736
 20
201.620803268405
 11
417.098176544121
 21
201.425297764056
 72
     1
 10
417.098176544121
 20
201.425297764056
 11
417.21138667057
 21
201.202867074817
 72
     1
 10
417.21138667057
 20
201.202867074817
 11
417.278149975597
 21
200.962378810346
 72
     1
 10
417.278149975597
 20
200.962378810346
 11
417.295804816913
 21
200.713420478845
 72
     1
 10
417.295804816913
 20
200.713420478845
 11
417.263647351709
 21
200.465917263355
 72
     1
 10
417.263647351709
 20
200.465917263355
 11
417.182959596643
 21
200.229736336037
 72
     1
 10
417.182959596643
 20
200.229736336037
 11
417.056958317886
 21
200.014293485152
 72
     1
 10
417.056958317886
 20
200.014293485152
 11
416.8906667888
 21
199.828177737295
 72
     1
 10
416.8906667888
 20
199.828177737295
 11
416.690714527888
 21
199.67880894001
 72
     1
 10
416.690714527888
 20
199.67880894001
 11
416.465073000806
 21
199.572141955885
 72
     1
 10
416.465073000806
 20
199.572141955885
 11
416.222737823186
 21
199.512429260971
 72
     1
 10
416.222737823186
 20
199.512429260971
 11
416.04633781311
 21
199.4999198817
 72
     1
 10
416.04633781311
 20
199.4999198817
 11
415.947003147714
 21
199.489953170642
 72
     1
 10
415.947003147714
 20
199.489953170642
 11
415.851628641957
 21
199.460450378723
 72
     1
 10
415.851628641957
 20
199.460450378723
 11
415.764016576414
 21
199.412587689176
 72
     1
 10
415.764016576414
 20
199.412587689176
 11
415.687659767661
 21
199.348273236395
 72
     1
 10
415.687659767661
 20
199.348273236395
 11
415.625602320707
 21
199.270071034655
 72
     1
 10
415.625602320707
 20
199.270071034655
 11
415.580318270127
 21
199.181098758959
 72
     1
 10
415.580318270127
 20
199.181098758959
 11
415.553612948117
 21
199.084903453171
 72
     1
 10
415.553612948117
 20
199.084903453171
 11
415.54633781311
 21
198.9999198817
 72
     1
 10
415.54633781311
 20
198.9999198817
 11
415.54633781311
 21
197.9999198817
 72
     1
 10
415.54633781311
 20
197.9999198817
 11
415.556304524191
 21
197.900585216324
 72
     1
 10
415.556304524191
 20
197.900585216324
 11
415.58580731611
 21
197.805210710567
 72
     1
 10
415.58580731611
 20
197.805210710567
 11
415.633670005656
 21
197.717598645024
 72
     1
 10
415.633670005656
 20
197.717598645024
 11
415.697984458438
 21
197.641241836271
 72
     1
 10
415.697984458438
 20
197.641241836271
 11
415.776186660177
 21
197.579184389317
 72
     1
 10
415.776186660177
 20
197.579184389317
 11
415.865158935873
 21
197.533900338738
 72
     1
 10
415.865158935873
 20
197.533900338738
 11
415.961354241661
 21
197.507195016727
 72
     1
 10
415.961354241661
 20
197.507195016727
 11
416.04633781311
 21
197.4999198817
 72
     1
 10
416.04633781311
 20
197.4999198817
 11
416.294674476605
 21
197.475003104023
 72
     1
 10
416.294674476605
 20
197.475003104023
 11
416.533110740997
 21
197.401246124225
 72
     1
 10
416.533110740997
 20
197.401246124225
 11
416.752140904855
 21
197.281589400358
 72
     1
 10
416.752140904855
 20
197.281589400358
 11
416.943032926736
 21
197.120803268405
 72
     1
 10
416.943032926736
 20
197.120803268405
 11
417.098176544121
 21
196.925297764056
 72
     1
 10
417.098176544121
 20
196.925297764056
 11
417.21138667057
 21
196.702867074817
 72
     1
 10
417.21138667057
 20
196.702867074817
 11
417.278149975597
 21
196.462378810346
 72
     1
 10
417.278149975597
 20
196.462378810346
 11
417.295804816913
 21
196.213420478844
 72
     1
 10
417.295804816913
 20
196.213420478844
 11
417.263647351709
 21
195.965917263355
 72
     1
 10
417.263647351709
 20
195.965917263355
 11
417.182959596643
 21
195.729736336037
 72
     1
 10
417.182959596643
 20
195.729736336037
 11
417.056958317886
 21
195.514293485152
 72
     1
 10
417.056958317886
 20
195.514293485152
 11
416.8906667888
 21
195.328177737294
 72
     1
 10
416.8906667888
 20
195.328177737294
 11
416.690714527888
 21
195.17880894001
 72
     1
 10
416.690714527888
 20
195.17880894001
 11
416.465073000806
 21
195.072141955885
 72
     1
 10
416.465073000806
 20
195.072141955885
 11
416.222737823186
 21
195.012429260971
 72
     1
 10
416.222737823186
 20
195.012429260971
 11
416.04633781311
 21
194.9999198817
 72
     1
 10
416.04633781311
 20
194.9999198817
 11
415.947003147714
 21
194.989953170642
 72
     1
 10
415.947003147714
 20
194.989953170642
 11
415.851628641957
 21
194.960450378723
 72
     1
 10
415.851628641957
 20
194.960450378723
 11
415.764016576414
 21
194.912587689176
 72
     1
 10
415.764016576414
 20
194.912587689176
 11
415.687659767661
 21
194.848273236395
 72
     1
 10
415.687659767661
 20
194.848273236395
 11
415.625602320707
 21
194.770071034655
 72
     1
 10
415.625602320707
 20
194.770071034655
 11
415.580318270127
 21
194.681098758959
 72
     1
 10
415.580318270127
 20
194.681098758959
 11
415.553612948117
 21
194.584903453171
 72
     1
 10
415.553612948117
 20
194.584903453171
 11
415.54633781311
 21
194.4999198817
 72
     1
 10
415.54633781311
 20
194.4999198817
 11
415.54633781311
 21
193.4999198817
 72
     1
 10
415.54633781311
 20
193.4999198817
 11
415.55630452419
 21
193.400585216324
 72
     1
 10
415.55630452419
 20
193.400585216324
 11
415.58580731611
 21
193.305210710567
 72
     1
 10
415.58580731611
 20
193.305210710567
 11
415.633670005656
 21
193.217598645024
 72
     1
 10
415.633670005656
 20
193.217598645024
 11
415.697984458438
 21
193.141241836271
 72
     1
 10
415.697984458438
 20
193.141241836271
 11
415.776186660177
 21
193.079184389317
 72
     1
 10
415.776186660177
 20
193.079184389317
 11
415.865158935873
 21
193.033900338737
 72
     1
 10
415.865158935873
 20
193.033900338737
 11
415.961354241661
 21
193.007195016727
 72
     1
 10
415.961354241661
 20
193.007195016727
 11
416.04633781311
 21
192.9999198817
 72
     1
 10
416.04633781311
 20
192.9999198817
 11
416.294674476605
 21
192.975003104023
 72
     1
 10
416.294674476605
 20
192.975003104023
 11
416.533110740997
 21
192.901246124225
 72
     1
 10
416.533110740997
 20
192.901246124225
 11
416.752140904855
 21
192.781589400358
 72
     1
 10
416.752140904855
 20
192.781589400358
 11
416.943032926736
 21
192.620803268405
 72
     1
 10
416.943032926736
 20
192.620803268405
 11
417.098176544121
 21
192.425297764056
 72
     1
 10
417.098176544121
 20
192.425297764056
 11
417.21138667057
 21
192.202867074817
 72
     1
 10
417.21138667057
 20
192.202867074817
 11
417.278149975597
 21
191.962378810346
 72
     1
 10
417.278149975597
 20
191.962378810346
 11
417.295804816913
 21
191.713420478844
 72
     1
 10
417.295804816913
 20
191.713420478844
 11
417.263647351709
 21
191.465917263355
 72
     1
 10
417.263647351709
 20
191.465917263355
 11
417.182959596643
 21
191.229736336037
 72
     1
 10
417.182959596643
 20
191.229736336037
 11
417.056958317886
 21
191.014293485152
 72
     1
 10
417.056958317886
 20
191.014293485152
 11
416.8906667888
 21
190.828177737294
 72
     1
 10
416.8906667888
 20
190.828177737294
 11
416.690714527888
 21
190.67880894001
 72
     1
 10
416.690714527888
 20
190.67880894001
 11
416.465073000806
 21
190.572141955885
 72
     1
 10
416.465073000806
 20
190.572141955885
 11
416.222737823186
 21
190.51242926097
 72
     1
 10
416.222737823186
 20
190.51242926097
 11
416.04633781311
 21
190.4999198817
 72
     1
 10
416.04633781311
 20
190.4999198817
 11
415.947003147714
 21
190.489953170642
 72
     1
 10
415.947003147714
 20
190.489953170642
 11
415.851628641957
 21
190.460450378723
 72
     1
 10
415.851628641957
 20
190.460450378723
 11
415.764016576414
 21
190.412587689176
 72
     1
 10
415.764016576414
 20
190.412587689176
 11
415.687659767661
 21
190.348273236395
 72
     1
 10
415.687659767661
 20
190.348273236395
 11
415.625602320707
 21
190.270071034655
 72
     1
 10
415.625602320707
 20
190.270071034655
 11
415.580318270128
 21
190.181098758959
 72
     1
 10
415.580318270128
 20
190.181098758959
 11
415.553612948117
 21
190.084903453171
 72
     1
 10
415.553612948117
 20
190.084903453171
 11
415.54633781311
 21
189.9999198817
 72
     1
 10
415.54633781311
 20
189.9999198817
 11
415.54633781311
 21
188.9999198817
 72
     1
 10
415.54633781311
 20
188.9999198817
 11
415.55630452419
 21
188.900585216324
 72
     1
 10
415.55630452419
 20
188.900585216324
 11
415.58580731611
 21
188.805210710567
 72
     1
 10
415.58580731611
 20
188.805210710567
 11
415.633670005656
 21
188.717598645024
 72
     1
 10
415.633670005656
 20
188.717598645024
 11
415.697984458438
 21
188.641241836271
 72
     1
 10
415.697984458438
 20
188.641241836271
 11
415.776186660177
 21
188.579184389317
 72
     1
 10
415.776186660177
 20
188.579184389317
 11
415.865158935873
 21
188.533900338738
 72
     1
 10
415.865158935873
 20
188.533900338738
 11
415.961354241661
 21
188.507195016727
 72
     1
 10
415.961354241661
 20
188.507195016727
 11
416.04633781311
 21
188.4999198817
 72
     1
 10
416.04633781311
 20
188.4999198817
 11
416.294674476605
 21
188.475003104023
 72
     1
 10
416.294674476605
 20
188.475003104023
 11
416.533110740997
 21
188.401246124225
 72
     1
 10
416.533110740997
 20
188.401246124225
 11
416.752140904855
 21
188.281589400358
 72
     1
 10
416.752140904855
 20
188.281589400358
 11
416.943032926736
 21
188.120803268405
 72
     1
 10
416.943032926736
 20
188.120803268405
 11
417.098176544121
 21
187.925297764056
 72
     1
 10
417.098176544121
 20
187.925297764056
 11
417.21138667057
 21
187.702867074817
 72
     1
 10
417.21138667057
 20
187.702867074817
 11
417.278149975597
 21
187.462378810346
 72
     1
 10
417.278149975597
 20
187.462378810346
 11
417.295804816913
 21
187.213420478844
 72
     1
 10
417.295804816913
 20
187.213420478844
 11
417.263647351709
 21
186.965917263355
 72
     1
 10
417.263647351709
 20
186.965917263355
 11
417.182959596643
 21
186.729736336037
 72
     1
 10
417.182959596643
 20
186.729736336037
 11
417.056958317886
 21
186.514293485152
 72
     1
 10
417.056958317886
 20
186.514293485152
 11
416.8906667888
 21
186.328177737294
 72
     1
 10
416.8906667888
 20
186.328177737294
 11
416.690714527888
 21
186.17880894001
 72
     1
 10
416.690714527888
 20
186.17880894001
 11
416.465073000806
 21
186.072141955885
 72
     1
 10
416.465073000806
 20
186.072141955885
 11
416.222737823186
 21
186.01242926097
 72
     1
 10
416.222737823186
 20
186.01242926097
 11
416.04633781311
 21
185.9999198817
 72
     1
 10
416.04633781311
 20
185.9999198817
 11
415.947003147714
 21
185.989953170642
 72
     1
 10
415.947003147714
 20
185.989953170642
 11
415.851628641957
 21
185.960450378723
 72
     1
 10
415.851628641957
 20
185.960450378723
 11
415.764016576414
 21
185.912587689176
 72
     1
 10
415.764016576414
 20
185.912587689176
 11
415.687659767661
 21
185.848273236395
 72
     1
 10
415.687659767661
 20
185.848273236395
 11
415.625602320707
 21
185.770071034655
 72
     1
 10
415.625602320707
 20
185.770071034655
 11
415.580318270127
 21
185.681098758959
 72
     1
 10
415.580318270127
 20
185.681098758959
 11
415.553612948117
 21
185.584903453171
 72
     1
 10
415.553612948117
 20
185.584903453171
 11
415.54633781311
 21
185.4999198817
 72
     1
 10
415.54633781311
 20
185.4999198817
 11
415.54633781311
 21
184.4999198817
 72
     1
 10
415.54633781311
 20
184.4999198817
 11
415.55630452419
 21
184.400585216324
 72
     1
 10
415.55630452419
 20
184.400585216324
 11
415.58580731611
 21
184.305210710567
 72
     1
 10
415.58580731611
 20
184.305210710567
 11
415.633670005656
 21
184.217598645024
 72
     1
 10
415.633670005656
 20
184.217598645024
 11
415.697984458438
 21
184.141241836271
 72
     1
 10
415.697984458438
 20
184.141241836271
 11
415.776186660177
 21
184.079184389317
 72
     1
 10
415.776186660177
 20
184.079184389317
 11
415.865158935873
 21
184.033900338738
 72
     1
 10
415.865158935873
 20
184.033900338738
 11
415.961354241661
 21
184.007195016727
 72
     1
 10
415.961354241661
 20
184.007195016727
 11
416.04633781311
 21
183.9999198817
 72
     1
 10
416.04633781311
 20
183.9999198817
 11
416.294674476605
 21
183.975003104023
 72
     1
 10
416.294674476605
 20
183.975003104023
 11
416.533110740997
 21
183.901246124225
 72
     1
 10
416.533110740997
 20
183.901246124225
 11
416.752140904855
 21
183.781589400358
 72
     1
 10
416.752140904855
 20
183.781589400358
 11
416.943032926736
 21
183.620803268405
 72
     1
 10
416.943032926736
 20
183.620803268405
 11
417.098176544121
 21
183.425297764056
 72
     1
 10
417.098176544121
 20
183.425297764056
 11
417.21138667057
 21
183.202867074817
 72
     1
 10
417.21138667057
 20
183.202867074817
 11
417.278149975597
 21
182.962378810346
 72
     1
 10
417.278149975597
 20
182.962378810346
 11
417.295804816913
 21
182.713420478844
 72
     1
 10
417.295804816913
 20
182.713420478844
 11
417.263647351709
 21
182.465917263355
 72
     1
 10
417.263647351709
 20
182.465917263355
 11
417.182959596643
 21
182.229736336037
 72
     1
 10
417.182959596643
 20
182.229736336037
 11
417.056958317886
 21
182.014293485152
 72
     1
 10
417.056958317886
 20
182.014293485152
 11
416.8906667888
 21
181.828177737294
 72
     1
 10
416.8906667888
 20
181.828177737294
 11
416.690714527888
 21
181.67880894001
 72
     1
 10
416.690714527888
 20
181.67880894001
 11
416.465073000806
 21
181.572141955885
 72
     1
 10
416.465073000806
 20
181.572141955885
 11
416.222737823186
 21
181.51242926097
 72
     1
 10
416.222737823186
 20
181.51242926097
 11
416.04633781311
 21
181.4999198817
 72
     1
 10
416.04633781311
 20
181.4999198817
 11
415.947003147714
 21
181.489953170642
 72
     1
 10
415.947003147714
 20
181.489953170642
 11
415.851628641957
 21
181.460450378723
 72
     1
 10
415.851628641957
 20
181.460450378723
 11
415.764016576414
 21
181.412587689176
 72
     1
 10
415.764016576414
 20
181.412587689176
 11
415.687659767661
 21
181.348273236395
 72
     1
 10
415.687659767661
 20
181.348273236395
 11
415.625602320707
 21
181.270071034655
 72
     1
 10
415.625602320707
 20
181.270071034655
 11
415.580318270127
 21
181.181098758959
 72
     1
 10
415.580318270127
 20
181.181098758959
 11
415.553612948117
 21
181.084903453171
 72
     1
 10
415.553612948117
 20
181.084903453171
 11
415.54633781311
 21
180.9999198817
 72
     1
 10
415.54633781311
 20
180.9999198817
 11
415.54633781311
 21
179.9999198817
 72
     1
 10
415.54633781311
 20
179.9999198817
 11
415.55630452419
 21
179.900585216324
 72
     1
 10
415.55630452419
 20
179.900585216324
 11
415.58580731611
 21
179.805210710567
 72
     1
 10
415.58580731611
 20
179.805210710567
 11
415.633670005656
 21
179.717598645024
 72
     1
 10
415.633670005656
 20
179.717598645024
 11
415.697984458438
 21
179.641241836271
 72
     1
 10
415.697984458438
 20
179.641241836271
 11
415.776186660177
 21
179.579184389317
 72
     1
 10
415.776186660177
 20
179.579184389317
 11
415.865158935873
 21
179.533900338738
 72
     1
 10
415.865158935873
 20
179.533900338738
 11
415.961354241661
 21
179.507195016727
 72
     1
 10
415.961354241661
 20
179.507195016727
 11
416.04633781311
 21
179.4999198817
 72
     1
 10
416.04633781311
 20
179.4999198817
 11
416.294674476605
 21
179.475003104023
 72
     1
 10
416.294674476605
 20
179.475003104023
 11
416.533110740997
 21
179.401246124225
 72
     1
 10
416.533110740997
 20
179.401246124225
 11
416.752140904855
 21
179.281589400358
 72
     1
 10
416.752140904855
 20
179.281589400358
 11
416.943032926736
 21
179.120803268405
 72
     1
 10
416.943032926736
 20
179.120803268405
 11
417.098176544121
 21
178.925297764056
 72
     1
 10
417.098176544121
 20
178.925297764056
 11
417.21138667057
 21
178.702867074817
 72
     1
 10
417.21138667057
 20
178.702867074817
 11
417.278149975597
 21
178.462378810346
 72
     1
 10
417.278149975597
 20
178.462378810346
 11
417.295804816913
 21
178.213420478844
 72
     1
 10
417.295804816913
 20
178.213420478844
 11
417.263647351709
 21
177.965917263355
 72
     1
 10
417.263647351709
 20
177.965917263355
 11
417.182959596643
 21
177.729736336037
 72
     1
 10
417.182959596643
 20
177.729736336037
 11
417.056958317886
 21
177.514293485152
 72
     1
 10
417.056958317886
 20
177.514293485152
 11
416.8906667888
 21
177.328177737295
 72
     1
 10
416.8906667888
 20
177.328177737295
 11
416.690714527888
 21
177.17880894001
 72
     1
 10
416.690714527888
 20
177.17880894001
 11
416.465073000806
 21
177.072141955885
 72
     1
 10
416.465073000806
 20
177.072141955885
 11
416.222737823186
 21
177.012429260971
 72
     1
 10
416.222737823186
 20
177.012429260971
 11
416.04633781311
 21
176.9999198817
 72
     1
 10
416.04633781311
 20
176.9999198817
 11
415.947003147714
 21
176.989953170642
 72
     1
 10
415.947003147714
 20
176.989953170642
 11
415.851628641957
 21
176.960450378723
 72
     1
 10
415.851628641957
 20
176.960450378723
 11
415.764016576414
 21
176.912587689176
 72
     1
 10
415.764016576414
 20
176.912587689176
 11
415.687659767661
 21
176.848273236395
 72
     1
 10
415.687659767661
 20
176.848273236395
 11
415.625602320707
 21
176.770071034655
 72
     1
 10
415.625602320707
 20
176.770071034655
 11
415.580318270127
 21
176.681098758959
 72
     1
 10
415.580318270127
 20
176.681098758959
 11
415.553612948117
 21
176.584903453171
 72
     1
 10
415.553612948117
 20
176.584903453171
 11
415.54633781311
 21
176.4999198817
 72
     1
 10
415.54633781311
 20
176.4999198817
 11
415.54633781311
 21
175.4999198817
 72
     1
 10
415.54633781311
 20
175.4999198817
 11
415.55630452419
 21
175.400585216324
 72
     1
 10
415.55630452419
 20
175.400585216324
 11
415.58580731611
 21
175.305210710567
 72
     1
 10
415.58580731611
 20
175.305210710567
 11
415.633670005656
 21
175.217598645024
 72
     1
 10
415.633670005656
 20
175.217598645024
 11
415.697984458438
 21
175.141241836271
 72
     1
 10
415.697984458438
 20
175.141241836271
 11
415.776186660177
 21
175.079184389317
 72
     1
 10
415.776186660177
 20
175.079184389317
 11
415.865158935873
 21
175.033900338737
 72
     1
 10
415.865158935873
 20
175.033900338737
 11
415.961354241661
 21
175.007195016727
 72
     1
 10
415.961354241661
 20
175.007195016727
 11
416.04633781311
 21
174.9999198817
 72
     1
 10
416.04633781311
 20
174.9999198817
 11
416.294674476605
 21
174.975003104023
 72
     1
 10
416.294674476605
 20
174.975003104023
 11
416.533110740997
 21
174.901246124225
 72
     1
 10
416.533110740997
 20
174.901246124225
 11
416.752140904855
 21
174.781589400358
 72
     1
 10
416.752140904855
 20
174.781589400358
 11
416.943032926736
 21
174.620803268405
 72
     1
 10
416.943032926736
 20
174.620803268405
 11
417.098176544121
 21
174.425297764056
 72
     1
 10
417.098176544121
 20
174.425297764056
 11
417.21138667057
 21
174.202867074817
 72
     1
 10
417.21138667057
 20
174.202867074817
 11
417.278149975597
 21
173.962378810346
 72
     1
 10
417.278149975597
 20
173.962378810346
 11
417.295804816913
 21
173.713420478844
 72
     1
 10
417.295804816913
 20
173.713420478844
 11
417.263647351709
 21
173.465917263355
 72
     1
 10
417.263647351709
 20
173.465917263355
 11
417.182959596643
 21
173.229736336037
 72
     1
 10
417.182959596643
 20
173.229736336037
 11
417.056958317886
 21
173.014293485152
 72
     1
 10
417.056958317886
 20
173.014293485152
 11
416.8906667888
 21
172.828177737295
 72
     1
 10
416.8906667888
 20
172.828177737295
 11
416.690714527888
 21
172.67880894001
 72
     1
 10
416.690714527888
 20
172.67880894001
 11
416.465073000806
 21
172.572141955885
 72
     1
 10
416.465073000806
 20
172.572141955885
 11
416.222737823186
 21
172.512429260971
 72
     1
 10
416.222737823186
 20
172.512429260971
 11
416.04633781311
 21
172.4999198817
 72
     1
 10
416.04633781311
 20
172.4999198817
 11
415.947003147714
 21
172.489953170642
 72
     1
 10
415.947003147714
 20
172.489953170642
 11
415.851628641957
 21
172.460450378722
 72
     1
 10
415.851628641957
 20
172.460450378722
 11
415.764016576414
 21
172.412587689176
 72
     1
 10
415.764016576414
 20
172.412587689176
 11
415.687659767661
 21
172.348273236395
 72
     1
 10
415.687659767661
 20
172.348273236395
 11
415.625602320707
 21
172.270071034655
 72
     1
 10
415.625602320707
 20
172.270071034655
 11
415.580318270127
 21
172.181098758959
 72
     1
 10
415.580318270127
 20
172.181098758959
 11
415.553612948117
 21
172.084903453171
 72
     1
 10
415.553612948117
 20
172.084903453171
 11
415.54633781311
 21
171.9999198817
 72
     1
 10
415.54633781311
 20
171.9999198817
 11
415.54633781311
 21
170.9999198817
 72
     1
 10
415.54633781311
 20
170.9999198817
 11
415.55630452419
 21
170.900585216324
 72
     1
 10
415.55630452419
 20
170.900585216324
 11
415.58580731611
 21
170.805210710567
 72
     1
 10
415.58580731611
 20
170.805210710567
 11
415.633670005656
 21
170.717598645024
 72
     1
 10
415.633670005656
 20
170.717598645024
 11
415.697984458438
 21
170.641241836271
 72
     1
 10
415.697984458438
 20
170.641241836271
 11
415.776186660177
 21
170.579184389317
 72
     1
 10
415.776186660177
 20
170.579184389317
 11
415.865158935873
 21
170.533900338738
 72
     1
 10
415.865158935873
 20
170.533900338738
 11
415.961354241661
 21
170.507195016727
 72
     1
 10
415.961354241661
 20
170.507195016727
 11
416.04633781311
 21
170.4999198817
 72
     1
 10
416.04633781311
 20
170.4999198817
 11
416.294674476605
 21
170.475003104023
 72
     1
 10
416.294674476605
 20
170.475003104023
 11
416.533110740997
 21
170.401246124225
 72
     1
 10
416.533110740997
 20
170.401246124225
 11
416.752140904855
 21
170.281589400358
 72
     1
 10
416.752140904855
 20
170.281589400358
 11
416.943032926735
 21
170.120803268405
 72
     1
 10
416.943032926735
 20
170.120803268405
 11
417.098176544121
 21
169.925297764056
 72
     1
 10
417.098176544121
 20
169.925297764056
 11
417.21138667057
 21
169.702867074817
 72
     1
 10
417.21138667057
 20
169.702867074817
 11
417.278149975597
 21
169.462378810346
 72
     1
 10
417.278149975597
 20
169.462378810346
 11
417.295804816913
 21
169.213420478844
 72
     1
 10
417.295804816913
 20
169.213420478844
 11
417.263647351709
 21
168.965917263355
 72
     1
 10
417.263647351709
 20
168.965917263355
 11
417.182959596643
 21
168.729736336037
 72
     1
 10
417.182959596643
 20
168.729736336037
 11
417.056958317885
 21
168.514293485152
 72
     1
 10
417.056958317885
 20
168.514293485152
 11
416.8906667888
 21
168.328177737294
 72
     1
 10
416.8906667888
 20
168.328177737294
 11
416.690714527888
 21
168.17880894001
 72
     1
 10
416.690714527888
 20
168.17880894001
 11
416.465073000806
 21
168.072141955885
 72
     1
 10
416.465073000806
 20
168.072141955885
 11
416.222737823186
 21
168.012429260971
 72
     1
 10
416.222737823186
 20
168.012429260971
 11
416.04633781311
 21
167.9999198817
 72
     1
 10
416.04633781311
 20
167.9999198817
 11
415.947003147714
 21
167.989953170642
 72
     1
 10
415.947003147714
 20
167.989953170642
 11
415.851628641957
 21
167.960450378723
 72
     1
 10
415.851628641957
 20
167.960450378723
 11
415.764016576414
 21
167.912587689176
 72
     1
 10
415.764016576414
 20
167.912587689176
 11
415.687659767661
 21
167.848273236395
 72
     1
 10
415.687659767661
 20
167.848273236395
 11
415.625602320707
 21
167.770071034655
 72
     1
 10
415.625602320707
 20
167.770071034655
 11
415.580318270127
 21
167.681098758959
 72
     1
 10
415.580318270127
 20
167.681098758959
 11
415.553612948117
 21
167.584903453171
 72
     1
 10
415.553612948117
 20
167.584903453171
 11
415.54633781311
 21
167.4999198817
 72
     1
 10
415.54633781311
 20
167.4999198817
 11
415.54633781311
 21
166.4999198817
 72
     1
 10
415.54633781311
 20
166.4999198817
 11
415.55630452419
 21
166.400585216324
 72
     1
 10
415.55630452419
 20
166.400585216324
 11
415.58580731611
 21
166.305210710567
 72
     1
 10
415.58580731611
 20
166.305210710567
 11
415.633670005656
 21
166.217598645024
 72
     1
 10
415.633670005656
 20
166.217598645024
 11
415.697984458437
 21
166.141241836271
 72
     1
 10
415.697984458437
 20
166.141241836271
 11
415.776186660177
 21
166.079184389317
 72
     1
 10
415.776186660177
 20
166.079184389317
 11
415.865158935873
 21
166.033900338738
 72
     1
 10
415.865158935873
 20
166.033900338738
 11
415.961354241661
 21
166.007195016727
 72
     1
 10
415.961354241661
 20
166.007195016727
 11
416.04633781311
 21
165.9999198817
 72
     1
 10
416.04633781311
 20
165.9999198817
 11
416.294674476605
 21
165.975003104023
 72
     1
 10
416.294674476605
 20
165.975003104023
 11
416.533110740997
 21
165.901246124225
 72
     1
 10
416.533110740997
 20
165.901246124225
 11
416.752140904855
 21
165.781589400358
 72
     1
 10
416.752140904855
 20
165.781589400358
 11
416.943032926735
 21
165.620803268405
 72
     1
 10
416.943032926735
 20
165.620803268405
 11
417.098176544121
 21
165.425297764056
 72
     1
 10
417.098176544121
 20
165.425297764056
 11
417.21138667057
 21
165.202867074817
 72
     1
 10
417.21138667057
 20
165.202867074817
 11
417.278149975597
 21
164.962378810347
 72
     1
 10
417.278149975597
 20
164.962378810347
 11
417.295804816913
 21
164.713420478845
 72
     1
 10
417.295804816913
 20
164.713420478845
 11
417.263647351709
 21
164.465917263355
 72
     1
 10
417.263647351709
 20
164.465917263355
 11
417.182959596643
 21
164.229736336037
 72
     1
 10
417.182959596643
 20
164.229736336037
 11
417.056958317886
 21
164.014293485152
 72
     1
 10
417.056958317886
 20
164.014293485152
 11
416.8906667888
 21
163.828177737295
 72
     1
 10
416.8906667888
 20
163.828177737295
 11
416.690714527888
 21
163.67880894001
 72
     1
 10
416.690714527888
 20
163.67880894001
 11
416.465073000806
 21
163.572141955885
 72
     1
 10
416.465073000806
 20
163.572141955885
 11
416.222737823186
 21
163.512429260971
 72
     1
 10
416.222737823186
 20
163.512429260971
 11
416.04633781311
 21
163.4999198817
 72
     1
 10
416.04633781311
 20
163.4999198817
 11
415.947003147713
 21
163.489953170642
 72
     1
 10
415.947003147713
 20
163.489953170642
 11
415.851628641957
 21
163.460450378723
 72
     1
 10
415.851628641957
 20
163.460450378723
 11
415.764016576413
 21
163.412587689176
 72
     1
 10
415.764016576413
 20
163.412587689176
 11
415.687659767661
 21
163.348273236395
 72
     1
 10
415.687659767661
 20
163.348273236395
 11
415.625602320707
 21
163.270071034655
 72
     1
 10
415.625602320707
 20
163.270071034655
 11
415.580318270127
 21
163.181098758959
 72
     1
 10
415.580318270127
 20
163.181098758959
 11
415.553612948117
 21
163.084903453171
 72
     1
 10
415.553612948117
 20
163.084903453171
 11
415.54633781311
 21
162.9999198817
 72
     1
 10
415.54633781311
 20
162.9999198817
 11
415.54633781311
 21
161.9999198817
 72
     1
 10
415.54633781311
 20
161.9999198817
 11
415.55630452419
 21
161.900585216324
 72
     1
 10
415.55630452419
 20
161.900585216324
 11
415.58580731611
 21
161.805210710567
 72
     1
 10
415.58580731611
 20
161.805210710567
 11
415.633670005656
 21
161.717598645024
 72
     1
 10
415.633670005656
 20
161.717598645024
 11
415.697984458437
 21
161.641241836271
 72
     1
 10
415.697984458437
 20
161.641241836271
 11
415.776186660177
 21
161.579184389317
 72
     1
 10
415.776186660177
 20
161.579184389317
 11
415.865158935873
 21
161.533900338737
 72
     1
 10
415.865158935873
 20
161.533900338737
 11
415.961354241661
 21
161.507195016727
 72
     1
 10
415.961354241661
 20
161.507195016727
 11
416.04633781311
 21
161.4999198817
 72
     1
 10
416.04633781311
 20
161.4999198817
 11
416.294674476605
 21
161.475003104023
 72
     1
 10
416.294674476605
 20
161.475003104023
 11
416.533110740997
 21
161.401246124225
 72
     1
 10
416.533110740997
 20
161.401246124225
 11
416.752140904855
 21
161.281589400358
 72
     1
 10
416.752140904855
 20
161.281589400358
 11
416.943032926735
 21
161.120803268405
 72
     1
 10
416.943032926735
 20
161.120803268405
 11
417.098176544121
 21
160.925297764056
 72
     1
 10
417.098176544121
 20
160.925297764056
 11
417.21138667057
 21
160.702867074817
 72
     1
 10
417.21138667057
 20
160.702867074817
 11
417.278149975597
 21
160.462378810346
 72
     1
 10
417.278149975597
 20
160.462378810346
 11
417.295804816913
 21
160.213420478844
 72
     1
 10
417.295804816913
 20
160.213420478844
 11
417.263647351709
 21
159.965917263355
 72
     1
 10
417.263647351709
 20
159.965917263355
 11
417.182959596643
 21
159.729736336037
 72
     1
 10
417.182959596643
 20
159.729736336037
 11
417.056958317885
 21
159.514293485152
 72
     1
 10
417.056958317885
 20
159.514293485152
 11
416.8906667888
 21
159.328177737295
 72
     1
 10
416.8906667888
 20
159.328177737295
 11
416.690714527888
 21
159.17880894001
 72
     1
 10
416.690714527888
 20
159.17880894001
 11
416.465073000806
 21
159.072141955885
 72
     1
 10
416.465073000806
 20
159.072141955885
 11
416.222737823186
 21
159.012429260971
 72
     1
 10
416.222737823186
 20
159.012429260971
 11
416.04633781311
 21
158.9999198817
 72
     1
 10
416.04633781311
 20
158.9999198817
 11
415.947003147714
 21
158.989953170642
 72
     1
 10
415.947003147714
 20
158.989953170642
 11
415.851628641957
 21
158.960450378722
 72
     1
 10
415.851628641957
 20
158.960450378722
 11
415.764016576414
 21
158.912587689176
 72
     1
 10
415.764016576414
 20
158.912587689176
 11
415.687659767661
 21
158.848273236395
 72
     1
 10
415.687659767661
 20
158.848273236395
 11
415.625602320707
 21
158.770071034655
 72
     1
 10
415.625602320707
 20
158.770071034655
 11
415.580318270127
 21
158.681098758959
 72
     1
 10
415.580318270127
 20
158.681098758959
 11
415.553612948117
 21
158.584903453171
 72
     1
 10
415.553612948117
 20
158.584903453171
 11
415.54633781311
 21
158.4999198817
 72
     1
 10
415.54633781311
 20
158.4999198817
 11
415.54633781311
 21
157.4999198817
 72
     1
 10
415.54633781311
 20
157.4999198817
 11
415.55630452419
 21
157.400585216323
 72
     1
 10
415.55630452419
 20
157.400585216323
 11
415.58580731611
 21
157.305210710567
 72
     1
 10
415.58580731611
 20
157.305210710567
 11
415.633670005656
 21
157.217598645023
 72
     1
 10
415.633670005656
 20
157.217598645023
 11
415.697984458437
 21
157.141241836271
 72
     1
 10
415.697984458437
 20
157.141241836271
 11
415.776186660177
 21
157.079184389317
 72
     1
 10
415.776186660177
 20
157.079184389317
 11
415.865158935873
 21
157.033900338737
 72
     1
 10
415.865158935873
 20
157.033900338737
 11
415.961354241661
 21
157.007195016727
 72
     1
 10
415.961354241661
 20
157.007195016727
 11
416.04633781311
 21
156.9999198817
 72
     1
 10
416.04633781311
 20
156.9999198817
 11
416.294674476605
 21
156.975003104023
 72
     1
 10
416.294674476605
 20
156.975003104023
 11
416.533110740997
 21
156.901246124225
 72
     1
 10
416.533110740997
 20
156.901246124225
 11
416.752140904855
 21
156.781589400358
 72
     1
 10
416.752140904855
 20
156.781589400358
 11
416.943032926735
 21
156.620803268405
 72
     1
 10
416.943032926735
 20
156.620803268405
 11
417.098176544121
 21
156.425297764056
 72
     1
 10
417.098176544121
 20
156.425297764056
 11
417.21138667057
 21
156.202867074817
 72
     1
 10
417.21138667057
 20
156.202867074817
 11
417.278149975597
 21
155.962378810346
 72
     1
 10
417.278149975597
 20
155.962378810346
 11
417.295804816913
 21
155.713420478844
 72
     1
 10
417.295804816913
 20
155.713420478844
 11
417.263647351709
 21
155.465917263355
 72
     1
 10
417.263647351709
 20
155.465917263355
 11
417.182959596643
 21
155.229736336037
 72
     1
 10
417.182959596643
 20
155.229736336037
 11
417.056958317885
 21
155.014293485152
 72
     1
 10
417.056958317885
 20
155.014293485152
 11
416.8906667888
 21
154.828177737295
 72
     1
 10
416.8906667888
 20
154.828177737295
 11
416.690714527888
 21
154.67880894001
 72
     1
 10
416.690714527888
 20
154.67880894001
 11
416.465073000806
 21
154.572141955885
 72
     1
 10
416.465073000806
 20
154.572141955885
 11
416.222737823186
 21
154.512429260971
 72
     1
 10
416.222737823186
 20
154.512429260971
 11
416.04633781311
 21
154.4999198817
 72
     1
 10
416.04633781311
 20
154.4999198817
 11
415.947003147713
 21
154.489953170642
 72
     1
 10
415.947003147713
 20
154.489953170642
 11
415.851628641957
 21
154.460450378722
 72
     1
 10
415.851628641957
 20
154.460450378722
 11
415.764016576413
 21
154.412587689176
 72
     1
 10
415.764016576413
 20
154.412587689176
 11
415.687659767661
 21
154.348273236395
 72
     1
 10
415.687659767661
 20
154.348273236395
 11
415.625602320707
 21
154.270071034655
 72
     1
 10
415.625602320707
 20
154.270071034655
 11
415.580318270127
 21
154.181098758959
 72
     1
 10
415.580318270127
 20
154.181098758959
 11
415.553612948117
 21
154.084903453171
 72
     1
 10
415.553612948117
 20
154.084903453171
 11
415.54633781311
 21
153.9999198817
 72
     1
 10
415.54633781311
 20
153.9999198817
 11
415.54633781311
 21
152.9999198817
 72
     1
 10
415.54633781311
 20
152.9999198817
 11
415.55630452419
 21
152.900585216324
 72
     1
 10
415.55630452419
 20
152.900585216324
 11
415.58580731611
 21
152.805210710567
 72
     1
 10
415.58580731611
 20
152.805210710567
 11
415.633670005656
 21
152.717598645024
 72
     1
 10
415.633670005656
 20
152.717598645024
 11
415.697984458437
 21
152.641241836271
 72
     1
 10
415.697984458437
 20
152.641241836271
 11
415.776186660177
 21
152.579184389317
 72
     1
 10
415.776186660177
 20
152.579184389317
 11
415.865158935873
 21
152.533900338737
 72
     1
 10
415.865158935873
 20
152.533900338737
 11
415.961354241661
 21
152.507195016727
 72
     1
 10
415.961354241661
 20
152.507195016727
 11
416.04633781311
 21
152.4999198817
 72
     1
 10
416.04633781311
 20
152.4999198817
 11
416.294674476605
 21
152.475003104023
 72
     1
 10
416.294674476605
 20
152.475003104023
 11
416.533110740997
 21
152.401246124225
 72
     1
 10
416.533110740997
 20
152.401246124225
 11
416.752140904855
 21
152.281589400358
 72
     1
 10
416.752140904855
 20
152.281589400358
 11
416.943032926735
 21
152.120803268405
 72
     1
 10
416.943032926735
 20
152.120803268405
 11
417.098176544121
 21
151.925297764056
 72
     1
 10
417.098176544121
 20
151.925297764056
 11
417.21138667057
 21
151.702867074817
 72
     1
 10
417.21138667057
 20
151.702867074817
 11
417.278149975597
 21
151.462378810346
 72
     1
 10
417.278149975597
 20
151.462378810346
 11
417.295804816913
 21
151.213420478844
 72
     1
 10
417.295804816913
 20
151.213420478844
 11
417.263647351709
 21
150.965917263355
 72
     1
 10
417.263647351709
 20
150.965917263355
 11
417.182959596643
 21
150.729736336037
 72
     1
 10
417.182959596643
 20
150.729736336037
 11
417.056958317885
 21
150.514293485152
 72
     1
 10
417.056958317885
 20
150.514293485152
 11
416.8906667888
 21
150.328177737295
 72
     1
 10
416.8906667888
 20
150.328177737295
 11
416.690714527888
 21
150.17880894001
 72
     1
 10
416.690714527888
 20
150.17880894001
 11
416.465073000806
 21
150.072141955885
 72
     1
 10
416.465073000806
 20
150.072141955885
 11
416.222737823186
 21
150.012429260971
 72
     1
 10
416.222737823186
 20
150.012429260971
 11
416.04633781311
 21
149.9999198817
 72
     1
 10
416.04633781311
 20
149.9999198817
 11
415.947003147713
 21
149.989953170642
 72
     1
 10
415.947003147713
 20
149.989953170642
 11
415.851628641957
 21
149.960450378722
 72
     1
 10
415.851628641957
 20
149.960450378722
 11
415.764016576413
 21
149.912587689176
 72
     1
 10
415.764016576413
 20
149.912587689176
 11
415.687659767661
 21
149.848273236395
 72
     1
 10
415.687659767661
 20
149.848273236395
 11
415.625602320707
 21
149.770071034655
 72
     1
 10
415.625602320707
 20
149.770071034655
 11
415.580318270127
 21
149.681098758959
 72
     1
 10
415.580318270127
 20
149.681098758959
 11
415.553612948117
 21
149.584903453171
 72
     1
 10
415.553612948117
 20
149.584903453171
 11
415.54633781311
 21
149.4999198817
 72
     1
 10
415.54633781311
 20
149.4999198817
 11
415.54633781311
 21
148.4999198817
 72
     1
 10
415.54633781311
 20
148.4999198817
 11
415.55630452419
 21
148.400585216323
 72
     1
 10
415.55630452419
 20
148.400585216323
 11
415.58580731611
 21
148.305210710567
 72
     1
 10
415.58580731611
 20
148.305210710567
 11
415.633670005656
 21
148.217598645023
 72
     1
 10
415.633670005656
 20
148.217598645023
 11
415.697984458437
 21
148.141241836271
 72
     1
 10
415.697984458437
 20
148.141241836271
 11
415.776186660177
 21
148.079184389317
 72
     1
 10
415.776186660177
 20
148.079184389317
 11
415.865158935873
 21
148.033900338737
 72
     1
 10
415.865158935873
 20
148.033900338737
 11
415.961354241661
 21
148.007195016727
 72
     1
 10
415.961354241661
 20
148.007195016727
 11
416.04633781311
 21
147.9999198817
 72
     1
 10
416.04633781311
 20
147.9999198817
 11
416.294674476605
 21
147.975003104023
 72
     1
 10
416.294674476605
 20
147.975003104023
 11
416.533110740997
 21
147.901246124225
 72
     1
 10
416.533110740997
 20
147.901246124225
 11
416.752140904855
 21
147.781589400358
 72
     1
 10
416.752140904855
 20
147.781589400358
 11
416.943032926735
 21
147.620803268405
 72
     1
 10
416.943032926735
 20
147.620803268405
 11
417.098176544121
 21
147.425297764056
 72
     1
 10
417.098176544121
 20
147.425297764056
 11
417.21138667057
 21
147.202867074817
 72
     1
 10
417.21138667057
 20
147.202867074817
 11
417.278149975597
 21
146.962378810346
 72
     1
 10
417.278149975597
 20
146.962378810346
 11
417.295804816913
 21
146.713420478844
 72
     1
 10
417.295804816913
 20
146.713420478844
 11
417.263647351709
 21
146.465917263355
 72
     1
 10
417.263647351709
 20
146.465917263355
 11
417.182959596643
 21
146.229736336037
 72
     1
 10
417.182959596643
 20
146.229736336037
 11
417.056958317885
 21
146.014293485152
 72
     1
 10
417.056958317885
 20
146.014293485152
 11
416.8906667888
 21
145.828177737294
 72
     1
 10
416.8906667888
 20
145.828177737294
 11
416.690714527888
 21
145.67880894001
 72
     1
 10
416.690714527888
 20
145.67880894001
 11
416.465073000806
 21
145.572141955885
 72
     1
 10
416.465073000806
 20
145.572141955885
 11
416.222737823186
 21
145.512429260971
 72
     1
 10
416.222737823186
 20
145.512429260971
 11
416.04633781311
 21
145.4999198817
 72
     1
 10
416.04633781311
 20
145.4999198817
 11
415.947003147713
 21
145.489953170642
 72
     1
 10
415.947003147713
 20
145.489953170642
 11
415.851628641957
 21
145.460450378723
 72
     1
 10
415.851628641957
 20
145.460450378723
 11
415.764016576413
 21
145.412587689176
 72
     1
 10
415.764016576413
 20
145.412587689176
 11
415.687659767661
 21
145.348273236395
 72
     1
 10
415.687659767661
 20
145.348273236395
 11
415.625602320707
 21
145.270071034655
 72
     1
 10
415.625602320707
 20
145.270071034655
 11
415.580318270127
 21
145.181098758959
 72
     1
 10
415.580318270127
 20
145.181098758959
 11
415.553612948117
 21
145.084903453171
 72
     1
 10
415.553612948117
 20
145.084903453171
 11
415.54633781311
 21
144.9999198817
 72
     1
 10
415.54633781311
 20
144.9999198817
 11
415.54633781311
 21
142.9999198817
 72
     1
 10
415.54633781311
 20
142.9999198817
 11
415.55630452419
 21
142.900585216324
 72
     1
 10
415.55630452419
 20
142.900585216324
 11
415.58580731611
 21
142.805210710567
 72
     1
 10
415.58580731611
 20
142.805210710567
 11
415.633670005656
 21
142.717598645024
 72
     1
 10
415.633670005656
 20
142.717598645024
 11
415.697984458437
 21
142.641241836271
 72
     1
 10
415.697984458437
 20
142.641241836271
 11
415.776186660177
 21
142.579184389317
 72
     1
 10
415.776186660177
 20
142.579184389317
 11
415.865158935873
 21
142.533900338738
 72
     1
 10
415.865158935873
 20
142.533900338738
 11
415.961354241661
 21
142.507195016727
 72
     1
 10
415.961354241661
 20
142.507195016727
 11
416.04633781311
 21
142.4999198817
 72
     1
 10
416.04633781311
 20
142.4999198817
 11
419.046337813111
 21
142.499919881721
 72
     1
 10
419.046337813111
 20
142.499919881721
 11
419.046337813111
 21
221.999919881721
 72
     1
 10
419.046337813111
 20
221.999919881721
 11
418.046337813111
 21
221.999919881721
 72
     1
 10
418.046337813111
 20
221.999919881721
 11
418.046337813111
 21
232.999919881721
 72
     1
 10
418.046337813111
 20
232.999919881721
 11
414.04633781311
 21
232.9999198817
 72
     1
 10
414.04633781311
 20
232.9999198817
 11
414.046337813111
 21
218.999919881721
 72
     1
 10
414.046337813111
 20
218.999919881721
 11
415.546337813111
 21
218.999919881721
 72
     1
 10
415.546337813111
 20
218.999919881721
 11
415.546337813111
 21
215.999919881721
 72
     1
 10
415.546337813111
 20
215.999919881721
 11
415.046337813111
 21
215.999919881721
 72
     1
 10
415.046337813111
 20
215.999919881721
 11
415.046337813111
 21
213.999919881721
 72
     1
 10
415.046337813111
 20
213.999919881721
 11
415.546337813111
 21
213.999919881721
 72
     1
 10
415.546337813111
 20
213.999919881721
 11
415.54633781311
 21
206.9999198817
 72
     1
 10
415.54633781311
 20
206.9999198817
 11
415.556304524191
 21
206.900585216324
 72
     1
 10
415.556304524191
 20
206.900585216324
 11
415.58580731611
 21
206.805210710567
 72
     1
 10
415.58580731611
 20
206.805210710567
 11
415.633670005656
 21
206.717598645024
 72
     1
 10
415.633670005656
 20
206.717598645024
 11
415.697984458438
 21
206.641241836271
 72
     1
 10
415.697984458438
 20
206.641241836271
 11
415.776186660177
 21
206.579184389317
 72
     1
 10
415.776186660177
 20
206.579184389317
 11
415.865158935873
 21
206.533900338738
 72
     1
 10
415.865158935873
 20
206.533900338738
 11
415.961354241661
 21
206.507195016727
 72
     1
 10
415.961354241661
 20
206.507195016727
 11
416.04633781311
 21
206.4999198817
 72
     1
 10
416.04633781311
 20
206.4999198817
 11
416.294674476605
 21
206.475003104023
 72
     1
 10
416.294674476605
 20
206.475003104023
 11
416.533110740997
 21
206.401246124225
 72
     1
 10
416.533110740997
 20
206.401246124225
 11
416.752140904855
 21
206.281589400358
 72
     1
 10
416.752140904855
 20
206.281589400358
 11
416.943032926736
 21
206.120803268405
 72
     1
 10
416.943032926736
 20
206.120803268405
 11
417.098176544121
 21
205.925297764056
 72
     1
 10
417.098176544121
 20
205.925297764056
 11
417.21138667057
 21
205.702867074817
 72
     1
 10
417.21138667057
 20
205.702867074817
 11
417.278149975597
 21
205.462378810346
 72
     1
 10
417.278149975597
 20
205.462378810346
 11
417.295804816913
 21
205.213420478845
 72
     1
 10
417.295804816913
 20
205.213420478845
 11
417.263647351709
 21
204.965917263355
 72
     1
 10
417.263647351709
 20
204.965917263355
 11
417.182959596643
 21
204.729736336037
 72
     1
 10
417.182959596643
 20
204.729736336037
 11
417.056958317886
 21
204.514293485152
 72
     1
 10
417.056958317886
 20
204.514293485152
 11
416.8906667888
 21
204.328177737295
 72
     1
 10
416.8906667888
 20
204.328177737295
 11
416.690714527888
 21
204.17880894001
 72
     1
 10
416.690714527888
 20
204.17880894001
 11
416.465073000806
 21
204.072141955885
 72
     1
 10
416.465073000806
 20
204.072141955885
 11
416.222737823186
 21
204.012429260971
 72
     1
 10
416.222737823186
 20
204.012429260971
 11
416.04633781311
 21
203.9999198817
 72
     1
 10
416.04633781311
 20
203.9999198817
 11
415.947003147714
 21
203.989953170642
 72
     1
 10
415.947003147714
 20
203.989953170642
 11
415.851628641957
 21
203.960450378723
 72
     1
 10
415.851628641957
 20
203.960450378723
 11
415.764016576414
 21
203.912587689176
 72
     1
 10
415.764016576414
 20
203.912587689176
 11
415.687659767661
 21
203.848273236395
 72
     1
 10
415.687659767661
 20
203.848273236395
 11
415.625602320707
 21
203.770071034655
 72
     1
 10
415.625602320707
 20
203.770071034655
 11
415.580318270128
 21
203.681098758959
 72
     1
 10
415.580318270128
 20
203.681098758959
 11
415.553612948117
 21
203.584903453171
 72
     1
 10
415.553612948117
 20
203.584903453171
 11
415.54633781311
 21
203.4999198817
 97
        0
 75
     1
 76
     2
 52
0.0
 41
1.0
 77
     0
 78
     1
 53
44.99999999999998
 43
0.0
 44
0.0
 45
-4.490128060534577
 46
0.0000000000000018
 79
     0
 98
        1
 10
0.0
 20
0.0
  0
HATCH
  5
335
330
44
100
AcDbEntity
  8
0
  6
Continuous
 62
     7
100
AcDbHatch
 10
0.0
 20
0.0
 30
0.0
210
0.0
220
0.0
230
1.0
  2
CUSTOM2
 70
     0
 71
     0
 91
        1
 92
        1
 93
       24
 72
     1
 10
412.046337813111
 20
139.999919881721
 11
419.546337813111
 21
139.999919881721
 72
     1
 10
419.546337813111
 20
139.999919881721
 11
419.546337813111
 21
142.499919881721
 72
     1
 10
419.546337813111
 20
142.499919881721
 11
415.587467363374
 21
142.499919881721
 72
     1
 10
415.587467363374
 20
142.499919881721
 11
415.58746736341
 21
157.9999198817
 72
     1
 10
415.58746736341
 20
157.9999198817
 11
415.567533941215
 21
158.198589212516
 72
     1
 10
415.567533941215
 20
158.198589212516
 11
415.508528357377
 21
158.38933822403
 72
     1
 10
415.508528357377
 20
158.38933822403
 11
415.412802978283
 21
158.564562355116
 72
     1
 10
415.412802978283
 20
158.564562355116
 11
415.284174072721
 21
158.71727597262
 72
     1
 10
415.284174072721
 20
158.71727597262
 11
415.127769669242
 21
158.841390866529
 72
     1
 10
415.127769669242
 20
158.841390866529
 11
414.94982511785
 21
158.931958967688
 72
     1
 10
414.94982511785
 20
158.931958967688
 11
414.757434506274
 21
158.985369611709
 72
     1
 10
414.757434506274
 20
158.985369611709
 11
414.58746736341
 21
158.9999198817
 72
     1
 10
414.58746736341
 20
158.9999198817
 11
412.04633781311
 21
158.9999198817
 72
     1
 10
412.04633781311
 20
158.9999198817
 11
412.026404390953
 21
159.198589212516
 72
     1
 10
412.026404390953
 20
159.198589212516
 11
411.967398807114
 21
159.38933822403
 72
     1
 10
411.967398807114
 20
159.38933822403
 11
411.871673428021
 21
159.564562355116
 72
     1
 10
411.871673428021
 20
159.564562355116
 11
411.743044522458
 21
159.71727597262
 72
     1
 10
411.743044522458
 20
159.71727597262
 11
411.586640118979
 21
159.841390866529
 72
     1
 10
411.586640118979
 20
159.841390866529
 11
411.408695567588
 21
159.931958967688
 72
     1
 10
411.408695567588
 20
159.931958967688
 11
411.216304956012
 21
159.985369611709
 72
     1
 10
411.216304956012
 20
159.985369611709
 11
411.04633781311
 21
159.9999198817
 72
     1
 10
411.04633781311
 20
159.9999198817
 11
409.546337813111
 21
159.999919881721
 72
     1
 10
409.546337813111
 20
159.999919881721
 11
409.546337813111
 21
142.499919881721
 72
     1
 10
409.546337813111
 20
142.499919881721
 11
412.046337813111
 21
139.999919881721
 97
        0
 75
     1
 76
     2
 52
0.0
 41
1.0
 77
     0
 78
     1
 53
44.99999999999998
 43
0.0
 44
0.0
 45
-4.490128060534577
 46
0.0000000000000018
 79
     0
 98
        1
 10
0.0
 20
0.0
  0
HATCH
  5
336
330
44
100
AcDbEntity
  8
0
  6
Continuous
 62
     7
100
AcDbHatch
 10
0.0
 20
0.0
 30
0.0
210
0.0
220
0.0
230
1.0
  2
CUSTOM3
 70
     0
 71
     0
 91
        1
 92
        1
 93
       24
 72
     1
 10
556.546337813111
 20
139.999919881721
 11
564.046337813111
 21
139.999919881721
 72
     1
 10
564.046337813111
 20
139.999919881721
 11
566.546337813111
 21
142.499919881721
 72
     1
 10
566.546337813111
 20
142.499919881721
 11
566.546337813111
 21
159.999919881721
 72
     1
 10
566.546337813111
 20
159.999919881721
 11
565.04633781311
 21
159.9999198817
 72
     1
 10
565.04633781311
 20
159.9999198817
 11
564.8476684823161
 21
159.979986459562
 72
     1
 10
564.8476684823161
 20
159.979986459562
 11
564.656919470803
 21
159.920980875724
 72
     1
 10
564.656919470803
 20
159.920980875724
 11
564.481695339716
 21
159.825255496631
 72
     1
 10
564.481695339716
 20
159.825255496631
 11
564.328981722212
 21
159.696626591068
 72
     1
 10
564.328981722212
 20
159.696626591068
 11
564.204866828303
 21
159.540222187589
 72
     1
 10
564.204866828303
 20
159.540222187589
 11
564.1142987271439
 21
159.362277636198
 72
     1
 10
564.1142987271439
 20
159.362277636198
 11
564.060888083123
 21
159.169887024621
 72
     1
 10
564.060888083123
 20
159.169887024621
 11
564.04633781311
 21
158.9999198817
 72
     1
 10
564.04633781311
 20
158.9999198817
 11
561.50520826281
 21
158.9999198817
 72
     1
 10
561.50520826281
 20
158.9999198817
 11
561.306538932054
 21
158.979986459562
 72
     1
 10
561.306538932054
 20
158.979986459562
 11
561.11578992054
 21
158.920980875724
 72
     1
 10
561.11578992054
 20
158.920980875724
 11
560.940565789454
 21
158.825255496631
 72
     1
 10
560.940565789454
 20
158.825255496631
 11
560.787852171949
 21
158.696626591068
 72
     1
 10
560.787852171949
 20
158.696626591068
 11
560.663737278041
 21
158.540222187589
 72
     1
 10
560.663737278041
 20
158.540222187589
 11
560.573169176881
 21
158.362277636198
 72
     1
 10
560.573169176881
 20
158.362277636198
 11
560.51975853286
 21
158.169887024621
 72
     1
 10
560.51975853286
 20
158.169887024621
 11
560.50520826281
 21
157.9999198817
 72
     1
 10
560.50520826281
 20
157.9999198817
 11
560.505208262849
 21
142.499919881721
 72
     1
 10
560.505208262849
 20
142.499919881721
 11
556.546337813111
 21
142.499919881721
 72
     1
 10
556.546337813111
 20
142.499919881721
 11
556.546337813111
 21
139.999919881721
 97
        0
 75
     1
 76
     2
 52
0.0
 41
1.0
 77
     0
 78
     1
 53
44.99999999999998
 43
0.0
 44
0.0
 45
-4.490128060534577
 46
0.0000000000000018
 79
     0
 98
        1
 10
0.0
 20
0.0
  0
HATCH
  5
337
330
44
100
AcDbEntity
  8
0
  6
Continuous
 62
     7
100
AcDbHatch
 10
0.0
 20
0.0
 30
0.0
210
0.0
220
0.0
230
1.0
  2
CUSTOM4
 70
     0
 71
     0
 91
        1
 92
        1
 93
       48
 72
     1
 10
505.79633781311
 20
230.9999198817
 11
505.995007143906
 21
230.979986459562
 72
     1
 10
505.995007143906
 20
230.979986459562
 11
506.18575615542
 21
230.920980875724
 72
     1
 10
506.18575615542
 20
230.920980875724
 11
506.360980286506
 21
230.825255496631
 72
     1
 10
506.360980286506
 20
230.825255496631
 11
506.513693904011
 21
230.696626591068
 72
     1
 10
506.513693904011
 20
230.696626591068
 11
506.637808797919
 21
230.540222187589
 72
     1
 10
506.637808797919
 20
230.540222187589
 11
506.728376899078
 21
230.362277636198
 72
     1
 10
506.728376899078
 20
230.362277636198
 11
506.7817875431
 21
230.169887024621
 72
     1
 10
506.7817875431
 20
230.169887024621
 11
506.79633781311
 21
229.9999198817
 72
     1
 10
506.79633781311
 20
229.9999198817
 11
506.796337813111
 21
228.499919881721
 72
     1
 10
506.796337813111
 20
228.499919881721
 11
508.296337813111
 21
228.499919881721
 72
     1
 10
508.296337813111
 20
228.499919881721
 11
508.29633781311
 21
229.9999198817
 72
     1
 10
508.29633781311
 20
229.9999198817
 11
508.246504257714
 21
230.496593208709
 72
     1
 10
508.246504257714
 20
230.496593208709
 11
508.098990298118
 21
230.973465737493
 72
     1
 10
508.098990298118
 20
230.973465737493
 11
507.859676850385
 21
231.411526065209
 72
     1
 10
507.859676850385
 20
231.411526065209
 11
507.538104586479
 21
231.79331010897
 72
     1
 10
507.538104586479
 20
231.79331010897
 11
507.147093577782
 21
232.103597343741
 72
     1
 10
507.147093577782
 20
232.103597343741
 11
506.702232199303
 21
232.330017596639
 72
     1
 10
506.702232199303
 20
232.330017596639
 11
506.221255670362
 21
232.463544206692
 72
     1
 10
506.221255670362
 20
232.463544206692
 11
505.79633781311
 21
232.4999198817
 72
     1
 10
505.79633781311
 20
232.4999198817
 11
493.644612973233
 21
232.499919881721
 72
     1
 10
493.644612973233
 20
232.499919881721
 11
493.644612973233
 21
232.399919881721
 72
     1
 10
493.644612973233
 20
232.399919881721
 11
490.027742307402
 21
232.399919881721
 72
     1
 10
490.027742307402
 20
232.399919881721
 11
490.027742307402
 21
232.499919881721
 72
     1
 10
490.027742307402
 20
232.499919881721
 11
487.906422650961
 21
232.499919881721
 72
     1
 10
487.906422650961
 20
232.499919881721
 11
487.906422650961
 21
232.399919881721
 72
     1
 10
487.906422650961
 20
232.399919881721
 11
485.785102650961
 21
232.399919881721
 72
     1
 10
485.785102650961
 20
232.399919881721
 11
485.785102650961
 21
232.499919881721
 72
     1
 10
485.785102650961
 20
232.499919881721
 11
470.29633781311
 21
232.4999198817
 72
     1
 10
470.29633781311
 20
232.4999198817
 11
469.799664486124
 21
232.450086326324
 72
     1
 10
469.799664486124
 20
232.450086326324
 11
469.32279195734
 21
232.302572366728
 72
     1
 10
469.32279195734
 20
232.302572366728
 11
468.884731629624
 21
232.063258918995
 72
     1
 10
468.884731629624
 20
232.063258918995
 11
468.502947585862
 21
231.741686655089
 72
     1
 10
468.502947585862
 20
231.741686655089
 11
468.192660351092
 21
231.350675646391
 72
     1
 10
468.192660351092
 20
231.350675646391
 11
467.966240098193
 21
230.905814267913
 72
     1
 10
467.966240098193
 20
230.905814267913
 11
467.83271348814
 21
230.424837738972
 72
     1
 10
467.83271348814
 20
230.424837738972
 11
467.79633781311
 21
229.9999198817
 72
     1
 10
467.79633781311
 20
229.9999198817
 11
467.796337813111
 21
228.499919881721
 72
     1
 10
467.796337813111
 20
228.499919881721
 11
469.296337813111
 21
228.499919881721
 72
     1
 10
469.296337813111
 20
228.499919881721
 11
469.29633781311
 21
229.9999198817
 72
     1
 10
469.29633781311
 20
229.9999198817
 11
469.31627123527
 21
230.198589212516
 72
     1
 10
469.31627123527
 20
230.198589212516
 11
469.375276819108
 21
230.38933822403
 72
     1
 10
469.375276819108
 20
230.38933822403
 11
469.471002198202
 21
230.564562355116
 72
     1
 10
469.471002198202
 20
230.564562355116
 11
469.599631103764
 21
230.717275972621
 72
     1
 10
469.599631103764
 20
230.717275972621
 11
469.756035507243
 21
230.841390866529
 72
     1
 10
469.756035507243
 20
230.841390866529
 11
469.933980058635
 21
230.931958967688
 72
     1
 10
469.933980058635
 20
230.931958967688
 11
470.126370670211
 21
230.98536961171
 72
     1
 10
470.126370670211
 20
230.98536961171
 11
470.29633781311
 21
230.9999198817
 72
     1
 10
470.29633781311
 20
230.9999198817
 11
505.79633781311
 21
230.9999198817
 97
        0
 75
     1
 76
     2
 52
0.0
 41
1.0
 77
     0
 78
     1
 53
44.99999999999998
 43
0.0
 44
0.0
 45
-4.490128060534577
 46
0.0000000000000018
 79
     0
 98
        1
 10
0.0
 20
0.0
  0
HATCH
  5
338
330
44
100
AcDbEntity
  8
0
  6
Continuous
 62
     7
100
AcDbHatch
 10
0.0
 20
0.0
 30
0.0
210
0.0
220
0.0
230
1.0
  2
CUSTOM5
 70
     0
 71
     0
 91
        1
 92
        1
 93
       40
 72
     1
 10
538.79633781311
 20
229.9999198817
 11
538.796337813111
 21
228.499919881721
 72
     1
 10
538.796337813111
 20
228.499919881721
 11
540.296337813111
 21
228.499919881721
 72
     1
 10
540.296337813111
 20
228.499919881721
 11
540.29633781311
 21
229.9999198817
 72
     1
 10
540.29633781311
 20
229.9999198817
 11
540.2465042577139
 21
230.496593208709
 72
     1
 10
540.2465042577139
 20
230.496593208709
 11
540.0989902981189
 21
230.973465737493
 72
     1
 10
540.0989902981189
 20
230.973465737493
 11
539.859676850385
 21
231.411526065209
 72
     1
 10
539.859676850385
 20
231.411526065209
 11
539.538104586479
 21
231.79331010897
 72
     1
 10
539.538104586479
 20
231.79331010897
 11
539.147093577782
 21
232.103597343741
 72
     1
 10
539.147093577782
 20
232.103597343741
 11
538.702232199303
 21
232.330017596639
 72
     1
 10
538.702232199303
 20
232.330017596639
 11
538.221255670362
 21
232.463544206692
 72
     1
 10
538.221255670362
 20
232.463544206692
 11
537.79633781311
 21
232.4999198817
 72
     1
 10
537.79633781311
 20
232.4999198817
 11
534.29633781311
 21
232.4999198817
 72
     1
 10
534.29633781311
 20
232.4999198817
 11
533.799664486124
 21
232.450086326324
 72
     1
 10
533.799664486124
 20
232.450086326324
 11
533.32279195734
 21
232.302572366728
 72
     1
 10
533.32279195734
 20
232.302572366728
 11
532.884731629624
 21
232.063258918995
 72
     1
 10
532.884731629624
 20
232.063258918995
 11
532.502947585862
 21
231.741686655089
 72
     1
 10
532.502947585862
 20
231.741686655089
 11
532.192660351091
 21
231.350675646391
 72
     1
 10
532.192660351091
 20
231.350675646391
 11
531.966240098193
 21
230.905814267913
 72
     1
 10
531.966240098193
 20
230.905814267913
 11
531.8327134881399
 21
230.424837738972
 72
     1
 10
531.8327134881399
 20
230.424837738972
 11
531.79633781311
 21
229.9999198817
 72
     1
 10
531.79633781311
 20
229.9999198817
 11
531.796337813111
 21
228.499919881721
 72
     1
 10
531.796337813111
 20
228.499919881721
 11
533.296337813111
 21
228.499919881721
 72
     1
 10
533.296337813111
 20
228.499919881721
 11
533.29633781311
 21
229.9999198817
 72
     1
 10
533.29633781311
 20
229.9999198817
 11
533.31627123527
 21
230.198589212516
 72
     1
 10
533.31627123527
 20
230.198589212516
 11
533.375276819108
 21
230.38933822403
 72
     1
 10
533.375276819108
 20
230.38933822403
 11
533.471002198201
 21
230.564562355116
 72
     1
 10
533.471002198201
 20
230.564562355116
 11
533.5996311037641
 21
230.717275972621
 72
     1
 10
533.5996311037641
 20
230.717275972621
 11
533.756035507243
 21
230.841390866529
 72
     1
 10
533.756035507243
 20
230.841390866529
 11
533.9339800586349
 21
230.931958967688
 72
     1
 10
533.9339800586349
 20
230.931958967688
 11
534.1263706702109
 21
230.98536961171
 72
     1
 10
534.1263706702109
 20
230.98536961171
 11
534.29633781311
 21
230.9999198817
 72
     1
 10
534.29633781311
 20
230.9999198817
 11
537.79633781311
 21
230.9999198817
 72
     1
 10
537.79633781311
 20
230.9999198817
 11
537.9950071439059
 21
230.979986459562
 72
     1
 10
537.9950071439059
 20
230.979986459562
 11
538.18575615542
 21
230.920980875724
 72
     1
 10
538.18575615542
 20
230.920980875724
 11
538.360980286506
 21
230.825255496631
 72
     1
 10
538.360980286506
 20
230.825255496631
 11
538.513693904011
 21
230.696626591068
 72
     1
 10
538.513693904011
 20
230.696626591068
 11
538.637808797919
 21
230.540222187589
 72
     1
 10
538.637808797919
 20
230.540222187589
 11
538.7283768990781
 21
230.362277636198
 72
     1
 10
538.7283768990781
 20
230.362277636198
 11
538.7817875431
 21
230.169887024622
 72
     1
 10
538.7817875431
 20
230.169887024622
 11
538.79633781311
 21
229.9999198817
 97
        0
 75
     1
 76
     2
 52
0.0
 41
1.0
 77
     0
 78
     1
 53
44.99999999999998
 43
0.0
 44
0.0
 45
-4.490128060534577
 46
0.0000000000000018
 79
     0
 98
        1
 10
0.0
 20
0.0
  0
HATCH
  5
339
330
44
100
AcDbEntity
  8
0
  6
Continuous
 62
     7
100
AcDbHatch
 10
0.0
 20
0.0
 30
0.0
210
0.0
220
0.0
230
1.0
  2
CUSTOM6
 70
     0
 71
     0
 91
        1
 92
        1
 93
       40
 72
     1
 10
522.79633781311
 20
229.9999198817
 11
522.796337813111
 21
228.499919881721
 72
     1
 10
522.796337813111
 20
228.499919881721
 11
524.296337813111
 21
228.499919881721
 72
     1
 10
524.296337813111
 20
228.499919881721
 11
524.29633781311
 21
229.9999198817
 72
     1
 10
524.29633781311
 20
229.9999198817
 11
524.2465042577139
 21
230.496593208709
 72
     1
 10
524.2465042577139
 20
230.496593208709
 11
524.0989902981189
 21
230.973465737493
 72
     1
 10
524.0989902981189
 20
230.973465737493
 11
523.859676850385
 21
231.411526065209
 72
     1
 10
523.859676850385
 20
231.411526065209
 11
523.538104586479
 21
231.79331010897
 72
     1
 10
523.538104586479
 20
231.79331010897
 11
523.147093577782
 21
232.103597343741
 72
     1
 10
523.147093577782
 20
232.103597343741
 11
522.702232199303
 21
232.330017596639
 72
     1
 10
522.702232199303
 20
232.330017596639
 11
522.221255670362
 21
232.463544206692
 72
     1
 10
522.221255670362
 20
232.463544206692
 11
521.79633781311
 21
232.4999198817
 72
     1
 10
521.79633781311
 20
232.4999198817
 11
518.29633781311
 21
232.4999198817
 72
     1
 10
518.29633781311
 20
232.4999198817
 11
517.799664486124
 21
232.450086326324
 72
     1
 10
517.799664486124
 20
232.450086326324
 11
517.32279195734
 21
232.302572366728
 72
     1
 10
517.32279195734
 20
232.302572366728
 11
516.884731629624
 21
232.063258918995
 72
     1
 10
516.884731629624
 20
232.063258918995
 11
516.502947585862
 21
231.741686655089
 72
     1
 10
516.502947585862
 20
231.741686655089
 11
516.192660351092
 21
231.350675646391
 72
     1
 10
516.192660351092
 20
231.350675646391
 11
515.966240098193
 21
230.905814267913
 72
     1
 10
515.966240098193
 20
230.905814267913
 11
515.83271348814
 21
230.424837738972
 72
     1
 10
515.83271348814
 20
230.424837738972
 11
515.79633781311
 21
229.9999198817
 72
     1
 10
515.79633781311
 20
229.9999198817
 11
515.796337813111
 21
228.499919881721
 72
     1
 10
515.796337813111
 20
228.499919881721
 11
517.296337813111
 21
228.499919881721
 72
     1
 10
517.296337813111
 20
228.499919881721
 11
517.29633781311
 21
229.9999198817
 72
     1
 10
517.29633781311
 20
229.9999198817
 11
517.31627123527
 21
230.198589212516
 72
     1
 10
517.31627123527
 20
230.198589212516
 11
517.375276819108
 21
230.38933822403
 72
     1
 10
517.375276819108
 20
230.38933822403
 11
517.471002198202
 21
230.564562355116
 72
     1
 10
517.471002198202
 20
230.564562355116
 11
517.599631103764
 21
230.717275972621
 72
     1
 10
517.599631103764
 20
230.717275972621
 11
517.756035507243
 21
230.841390866529
 72
     1
 10
517.756035507243
 20
230.841390866529
 11
517.933980058635
 21
230.931958967688
 72
     1
 10
517.933980058635
 20
230.931958967688
 11
518.126370670211
 21
230.98536961171
 72
     1
 10
518.126370670211
 20
230.98536961171
 11
518.29633781311
 21
230.9999198817
 72
     1
 10
518.29633781311
 20
230.9999198817
 11
521.79633781311
 21
230.9999198817
 72
     1
 10
521.79633781311
 20
230.9999198817
 11
521.9950071439059
 21
230.979986459562
 72
     1
 10
521.9950071439059
 20
230.979986459562
 11
522.18575615542
 21
230.920980875724
 72
     1
 10
522.18575615542
 20
230.920980875724
 11
522.360980286506
 21
230.825255496631
 72
     1
 10
522.360980286506
 20
230.825255496631
 11
522.513693904011
 21
230.696626591068
 72
     1
 10
522.513693904011
 20
230.696626591068
 11
522.637808797919
 21
230.540222187589
 72
     1
 10
522.637808797919
 20
230.540222187589
 11
522.7283768990781
 21
230.362277636198
 72
     1
 10
522.7283768990781
 20
230.362277636198
 11
522.7817875431
 21
230.169887024622
 72
     1
 10
522.7817875431
 20
230.169887024622
 11
522.79633781311
 21
229.9999198817
 97
        0
 75
     1
 76
     2
 52
0.0
 41
1.0
 77
     0
 78
     1
 53
44.99999999999998
 43
0.0
 44
0.0
 45
-4.490128060534577
 46
0.0000000000000018
 79
     0
 98
        1
 10
0.0
 20
0.0
  0
HATCH
  5
33A
330
44
100
AcDbEntity
  8
0
  6
Continuous
 62
     7
100
AcDbHatch
 10
0.0
 20
0.0
 30
0.0
210
0.0
220
0.0
230
1.0
  2
CUSTOM7
 70
     0
 71
     0
 91
        1
 92
        1
 93
       40
 72
     1
 10
421.54633781311
 20
232.4999198817
 11
421.049664486124
 21
232.450086326324
 72
     1
 10
421.049664486124
 20
232.450086326324
 11
420.57279195734
 21
232.302572366728
 72
     1
 10
420.57279195734
 20
232.302572366728
 11
420.134731629624
 21
232.063258918995
 72
     1
 10
420.134731629624
 20
232.063258918995
 11
419.752947585862
 21
231.741686655089
 72
     1
 10
419.752947585862
 20
231.741686655089
 11
419.442660351092
 21
231.350675646391
 72
     1
 10
419.442660351092
 20
231.350675646391
 11
419.216240098193
 21
230.905814267913
 72
     1
 10
419.216240098193
 20
230.905814267913
 11
419.08271348814
 21
230.424837738972
 72
     1
 10
419.08271348814
 20
230.424837738972
 11
419.04633781311
 21
229.9999198817
 72
     1
 10
419.04633781311
 20
229.9999198817
 11
419.046337813111
 21
227.499919881721
 72
     1
 10
419.046337813111
 20
227.499919881721
 11
420.546337813111
 21
227.499919881721
 72
     1
 10
420.546337813111
 20
227.499919881721
 11
420.54633781311
 21
229.9999198817
 72
     1
 10
420.54633781311
 20
229.9999198817
 11
420.56627123527
 21
230.198589212516
 72
     1
 10
420.56627123527
 20
230.198589212516
 11
420.625276819108
 21
230.38933822403
 72
     1
 10
420.625276819108
 20
230.38933822403
 11
420.721002198202
 21
230.564562355116
 72
     1
 10
420.721002198202
 20
230.564562355116
 11
420.849631103764
 21
230.717275972621
 72
     1
 10
420.849631103764
 20
230.717275972621
 11
421.006035507243
 21
230.841390866529
 72
     1
 10
421.006035507243
 20
230.841390866529
 11
421.183980058635
 21
230.931958967688
 72
     1
 10
421.183980058635
 20
230.931958967688
 11
421.376370670211
 21
230.98536961171
 72
     1
 10
421.376370670211
 20
230.98536961171
 11
421.54633781311
 21
230.9999198817
 72
     1
 10
421.54633781311
 20
230.9999198817
 11
425.79633781311
 21
230.9999198817
 72
     1
 10
425.79633781311
 20
230.9999198817
 11
425.995007143906
 21
230.979986459562
 72
     1
 10
425.995007143906
 20
230.979986459562
 11
426.18575615542
 21
230.920980875724
 72
     1
 10
426.18575615542
 20
230.920980875724
 11
426.360980286506
 21
230.825255496631
 72
     1
 10
426.360980286506
 20
230.825255496631
 11
426.513693904011
 21
230.696626591068
 72
     1
 10
426.513693904011
 20
230.696626591068
 11
426.637808797919
 21
230.540222187589
 72
     1
 10
426.637808797919
 20
230.540222187589
 11
426.728376899079
 21
230.362277636198
 72
     1
 10
426.728376899079
 20
230.362277636198
 11
426.7817875431
 21
230.169887024621
 72
     1
 10
426.7817875431
 20
230.169887024621
 11
426.79633781311
 21
229.9999198817
 72
     1
 10
426.79633781311
 20
229.9999198817
 11
426.796337813111
 21
228.499919881721
 72
     1
 10
426.796337813111
 20
228.499919881721
 11
428.296337813111
 21
228.499919881721
 72
     1
 10
428.296337813111
 20
228.499919881721
 11
428.29633781311
 21
229.9999198817
 72
     1
 10
428.29633781311
 20
229.9999198817
 11
428.246504257714
 21
230.496593208709
 72
     1
 10
428.246504257714
 20
230.496593208709
 11
428.098990298118
 21
230.973465737493
 72
     1
 10
428.098990298118
 20
230.973465737493
 11
427.859676850385
 21
231.411526065209
 72
     1
 10
427.859676850385
 20
231.411526065209
 11
427.538104586479
 21
231.79331010897
 72
     1
 10
427.538104586479
 20
231.79331010897
 11
427.147093577782
 21
232.103597343741
 72
     1
 10
427.147093577782
 20
232.103597343741
 11
426.702232199303
 21
232.330017596639
 72
     1
 10
426.702232199303
 20
232.330017596639
 11
426.221255670362
 21
232.463544206692
 72
     1
 10
426.221255670362
 20
232.463544206692
 11
425.79633781311
 21
232.4999198817
 72
     1
 10
425.79633781311
 20
232.4999198817
 11
421.54633781311
 21
232.4999198817
 97
        0
 75
     1
 76
     2
 52
0.0
 41
1.0
 77
     0
 78
     1
 53
44.99999999999998
 43
0.0
 44
0.0
 45
-4.490128060534577
 46
0.0000000000000018
 79
     0
 98
        1
 10
0.0
 20
0.0
  0
HATCH
  5
33B
330
44
100
AcDbEntity
  8
0
  6
Continuous
 62
     7
100
AcDbHatch
 10
0.0
 20
0.0
 30
0.0
210
0.0
220
0.0
230
1.0
  2
CUSTOM8
 70
     0
 71
     0
 91
        1
 92
        1
 93
       40
 72
     1
 10
435.79633781311
 20
229.9999198817
 11
435.796337813111
 21
228.499919881721
 72
     1
 10
435.796337813111
 20
228.499919881721
 11
437.296337813111
 21
228.499919881721
 72
     1
 10
437.296337813111
 20
228.499919881721
 11
437.29633781311
 21
229.9999198817
 72
     1
 10
437.29633781311
 20
229.9999198817
 11
437.31627123527
 21
230.198589212516
 72
     1
 10
437.31627123527
 20
230.198589212516
 11
437.375276819108
 21
230.38933822403
 72
     1
 10
437.375276819108
 20
230.38933822403
 11
437.471002198202
 21
230.564562355116
 72
     1
 10
437.471002198202
 20
230.564562355116
 11
437.599631103764
 21
230.717275972621
 72
     1
 10
437.599631103764
 20
230.717275972621
 11
437.756035507243
 21
230.841390866529
 72
     1
 10
437.756035507243
 20
230.841390866529
 11
437.933980058635
 21
230.931958967688
 72
     1
 10
437.933980058635
 20
230.931958967688
 11
438.126370670211
 21
230.98536961171
 72
     1
 10
438.126370670211
 20
230.98536961171
 11
438.29633781311
 21
230.9999198817
 72
     1
 10
438.29633781311
 20
230.9999198817
 11
441.79633781311
 21
230.9999198817
 72
     1
 10
441.79633781311
 20
230.9999198817
 11
441.995007143906
 21
230.979986459562
 72
     1
 10
441.995007143906
 20
230.979986459562
 11
442.18575615542
 21
230.920980875724
 72
     1
 10
442.18575615542
 20
230.920980875724
 11
442.360980286506
 21
230.825255496631
 72
     1
 10
442.360980286506
 20
230.825255496631
 11
442.513693904011
 21
230.696626591068
 72
     1
 10
442.513693904011
 20
230.696626591068
 11
442.637808797919
 21
230.540222187589
 72
     1
 10
442.637808797919
 20
230.540222187589
 11
442.728376899079
 21
230.362277636198
 72
     1
 10
442.728376899079
 20
230.362277636198
 11
442.7817875431
 21
230.169887024621
 72
     1
 10
442.7817875431
 20
230.169887024621
 11
442.79633781311
 21
229.9999198817
 72
     1
 10
442.79633781311
 20
229.9999198817
 11
442.796337813111
 21
228.499919881721
 72
     1
 10
442.796337813111
 20
228.499919881721
 11
444.296337813111
 21
228.499919881721
 72
     1
 10
444.296337813111
 20
228.499919881721
 11
444.29633781311
 21
229.9999198817
 72
     1
 10
444.29633781311
 20
229.9999198817
 11
444.246504257714
 21
230.496593208709
 72
     1
 10
444.246504257714
 20
230.496593208709
 11
444.098990298118
 21
230.973465737493
 72
     1
 10
444.098990298118
 20
230.973465737493
 11
443.859676850385
 21
231.411526065209
 72
     1
 10
443.859676850385
 20
231.411526065209
 11
443.538104586479
 21
231.79331010897
 72
     1
 10
443.538104586479
 20
231.79331010897
 11
443.147093577782
 21
232.103597343741
 72
     1
 10
443.147093577782
 20
232.103597343741
 11
442.702232199303
 21
232.330017596639
 72
     1
 10
442.702232199303
 20
232.330017596639
 11
442.221255670362
 21
232.463544206692
 72
     1
 10
442.221255670362
 20
232.463544206692
 11
441.79633781311
 21
232.4999198817
 72
     1
 10
441.79633781311
 20
232.4999198817
 11
438.29633781311
 21
232.4999198817
 72
     1
 10
438.29633781311
 20
232.4999198817
 11
437.799664486124
 21
232.450086326324
 72
     1
 10
437.799664486124
 20
232.450086326324
 11
437.32279195734
 21
232.302572366728
 72
     1
 10
437.32279195734
 20
232.302572366728
 11
436.884731629624
 21
232.063258918995
 72
     1
 10
436.884731629624
 20
232.063258918995
 11
436.502947585862
 21
231.741686655089
 72
     1
 10
436.502947585862
 20
231.741686655089
 11
436.192660351091
 21
231.350675646391
 72
     1
 10
436.192660351091
 20
231.350675646391
 11
435.966240098193
 21
230.905814267913
 72
     1
 10
435.966240098193
 20
230.905814267913
 11
435.83271348814
 21
230.424837738972
 72
     1
 10
435.83271348814
 20
230.424837738972
 11
435.79633781311
 21
229.9999198817
 97
        0
 75
     1
 76
     2
 52
0.0
 41
1.0
 77
     0
 78
     1
 53
44.99999999999998
 43
0.0
 44
0.0
 45
-4.490128060534577
 46
0.0000000000000018
 79
     0
 98
        1
 10
0.0
 20
0.0
  0
HATCH
  5
33C
330
44
100
AcDbEntity
  8
0
  6
Continuous
 62
     7
100
AcDbHatch
 10
0.0
 20
0.0
 30
0.0
210
0.0
220
0.0
230
1.0
  2
CUSTOM9
 70
     0
 71
     0
 91
        1
 92
        1
 93
       40
 72
     1
 10
451.79633781311
 20
229.9999198817
 11
451.796337813111
 21
228.499919881721
 72
     1
 10
451.796337813111
 20
228.499919881721
 11
453.296337813111
 21
228.499919881721
 72
     1
 10
453.296337813111
 20
228.499919881721
 11
453.29633781311
 21
229.9999198817
 72
     1
 10
453.29633781311
 20
229.9999198817
 11
453.31627123527
 21
230.198589212516
 72
     1
 10
453.31627123527
 20
230.198589212516
 11
453.375276819108
 21
230.38933822403
 72
     1
 10
453.375276819108
 20
230.38933822403
 11
453.471002198202
 21
230.564562355116
 72
     1
 10
453.471002198202
 20
230.564562355116
 11
453.599631103764
 21
230.717275972621
 72
     1
 10
453.599631103764
 20
230.717275972621
 11
453.756035507243
 21
230.841390866529
 72
     1
 10
453.756035507243
 20
230.841390866529
 11
453.933980058635
 21
230.931958967688
 72
     1
 10
453.933980058635
 20
230.931958967688
 11
454.126370670211
 21
230.98536961171
 72
     1
 10
454.126370670211
 20
230.98536961171
 11
454.29633781311
 21
230.9999198817
 72
     1
 10
454.29633781311
 20
230.9999198817
 11
457.79633781311
 21
230.9999198817
 72
     1
 10
457.79633781311
 20
230.9999198817
 11
457.995007143906
 21
230.979986459562
 72
     1
 10
457.995007143906
 20
230.979986459562
 11
458.18575615542
 21
230.920980875724
 72
     1
 10
458.18575615542
 20
230.920980875724
 11
458.360980286506
 21
230.825255496631
 72
     1
 10
458.360980286506
 20
230.825255496631
 11
458.513693904011
 21
230.696626591068
 72
     1
 10
458.513693904011
 20
230.696626591068
 11
458.637808797919
 21
230.540222187589
 72
     1
 10
458.637808797919
 20
230.540222187589
 11
458.728376899079
 21
230.362277636198
 72
     1
 10
458.728376899079
 20
230.362277636198
 11
458.7817875431
 21
230.169887024621
 72
     1
 10
458.7817875431
 20
230.169887024621
 11
458.79633781311
 21
229.9999198817
 72
     1
 10
458.79633781311
 20
229.9999198817
 11
458.796337813111
 21
228.499919881721
 72
     1
 10
458.796337813111
 20
228.499919881721
 11
460.296337813111
 21
228.499919881721
 72
     1
 10
460.296337813111
 20
228.499919881721
 11
460.29633781311
 21
229.9999198817
 72
     1
 10
460.29633781311
 20
229.9999198817
 11
460.246504257714
 21
230.496593208709
 72
     1
 10
460.246504257714
 20
230.496593208709
 11
460.098990298118
 21
230.973465737493
 72
     1
 10
460.098990298118
 20
230.973465737493
 11
459.859676850385
 21
231.411526065209
 72
     1
 10
459.859676850385
 20
231.411526065209
 11
459.538104586479
 21
231.79331010897
 72
     1
 10
459.538104586479
 20
231.79331010897
 11
459.147093577782
 21
232.103597343741
 72
     1
 10
459.147093577782
 20
232.103597343741
 11
458.702232199303
 21
232.330017596639
 72
     1
 10
458.702232199303
 20
232.330017596639
 11
458.221255670362
 21
232.463544206692
 72
     1
 10
458.221255670362
 20
232.463544206692
 11
457.79633781311
 21
232.4999198817
 72
     1
 10
457.79633781311
 20
232.4999198817
 11
454.29633781311
 21
232.4999198817
 72
     1
 10
454.29633781311
 20
232.4999198817
 11
453.799664486124
 21
232.450086326324
 72
     1
 10
453.799664486124
 20
232.450086326324
 11
453.32279195734
 21
232.302572366728
 72
     1
 10
453.32279195734
 20
232.302572366728
 11
452.884731629624
 21
232.063258918995
 72
     1
 10
452.884731629624
 20
232.063258918995
 11
452.502947585862
 21
231.741686655089
 72
     1
 10
452.502947585862
 20
231.741686655089
 11
452.192660351091
 21
231.350675646391
 72
     1
 10
452.192660351091
 20
231.350675646391
 11
451.966240098193
 21
230.905814267913
 72
     1
 10
451.966240098193
 20
230.905814267913
 11
451.83271348814
 21
230.424837738972
 72
     1
 10
451.83271348814
 20
230.424837738972
 11
451.79633781311
 21
229.9999198817
 97
        0
 75
     1
 76
     2
 52
0.0
 41
1.0
 77
     0
 78
     1
 53
44.99999999999998
 43
0.0
 44
0.0
 45
-4.490128060534577
 46
0.0000000000000018
 79
     0
 98
        1
 10
0.0
 20
0.0
  0
HATCH
  5
33D
330
44
100
AcDbEntity
  8
0
  6
Continuous
 62
     7
100
AcDbHatch
 10
0.0
 20
0.0
 30
0.0
210
0.0
220
0.0
230
1.0
  2
CUSTOM10
 70
     0
 71
     0
 91
        1
 92
        1
 93
       40
 72
     1
 10
555.546337813111
 20
227.499919881721
 11
557.046337813111
 21
227.499919881721
 72
     1
 10
557.046337813111
 20
227.499919881721
 11
557.04633781311
 21
229.9999198817
 72
     1
 10
557.04633781311
 20
229.9999198817
 11
556.9965042577139
 21
230.496593208709
 72
     1
 10
556.9965042577139
 20
230.496593208709
 11
556.8489902981189
 21
230.973465737493
 72
     1
 10
556.8489902981189
 20
230.973465737493
 11
556.609676850385
 21
231.411526065209
 72
     1
 10
556.609676850385
 20
231.411526065209
 11
556.288104586479
 21
231.79331010897
 72
     1
 10
556.288104586479
 20
231.79331010897
 11
555.897093577782
 21
232.103597343741
 72
     1
 10
555.897093577782
 20
232.103597343741
 11
555.452232199303
 21
232.330017596639
 72
     1
 10
555.452232199303
 20
232.330017596639
 11
554.971255670362
 21
232.463544206692
 72
     1
 10
554.971255670362
 20
232.463544206692
 11
554.54633781311
 21
232.4999198817
 72
     1
 10
554.54633781311
 20
232.4999198817
 11
550.29633781311
 21
232.4999198817
 72
     1
 10
550.29633781311
 20
232.4999198817
 11
549.799664486124
 21
232.450086326324
 72
     1
 10
549.799664486124
 20
232.450086326324
 11
549.32279195734
 21
232.302572366728
 72
     1
 10
549.32279195734
 20
232.302572366728
 11
548.884731629624
 21
232.063258918995
 72
     1
 10
548.884731629624
 20
232.063258918995
 11
548.502947585862
 21
231.741686655089
 72
     1
 10
548.502947585862
 20
231.741686655089
 11
548.192660351091
 21
231.350675646391
 72
     1
 10
548.192660351091
 20
231.350675646391
 11
547.966240098193
 21
230.905814267913
 72
     1
 10
547.966240098193
 20
230.905814267913
 11
547.8327134881399
 21
230.424837738972
 72
     1
 10
547.8327134881399
 20
230.424837738972
 11
547.79633781311
 21
229.9999198817
 72
     1
 10
547.79633781311
 20
229.9999198817
 11
547.796337813111
 21
228.499919881721
 72
     1
 10
547.796337813111
 20
228.499919881721
 11
549.296337813111
 21
228.499919881721
 72
     1
 10
549.296337813111
 20
228.499919881721
 11
549.29633781311
 21
229.9999198817
 72
     1
 10
549.29633781311
 20
229.9999198817
 11
549.31627123527
 21
230.198589212516
 72
     1
 10
549.31627123527
 20
230.198589212516
 11
549.375276819108
 21
230.38933822403
 72
     1
 10
549.375276819108
 20
230.38933822403
 11
549.471002198201
 21
230.564562355116
 72
     1
 10
549.471002198201
 20
230.564562355116
 11
549.5996311037641
 21
230.717275972621
 72
     1
 10
549.5996311037641
 20
230.717275972621
 11
549.756035507243
 21
230.841390866529
 72
     1
 10
549.756035507243
 20
230.841390866529
 11
549.9339800586349
 21
230.931958967688
 72
     1
 10
549.9339800586349
 20
230.931958967688
 11
550.1263706702109
 21
230.98536961171
 72
     1
 10
550.1263706702109
 20
230.98536961171
 11
550.29633781311
 21
230.9999198817
 72
     1
 10
550.29633781311
 20
230.9999198817
 11
554.54633781311
 21
230.9999198817
 72
     1
 10
554.54633781311
 20
230.9999198817
 11
554.7450071439059
 21
230.979986459562
 72
     1
 10
554.7450071439059
 20
230.979986459562
 11
554.93575615542
 21
230.920980875724
 72
     1
 10
554.93575615542
 20
230.920980875724
 11
555.110980286506
 21
230.825255496631
 72
     1
 10
555.110980286506
 20
230.825255496631
 11
555.263693904011
 21
230.696626591068
 72
     1
 10
555.263693904011
 20
230.696626591068
 11
555.387808797919
 21
230.540222187589
 72
     1
 10
555.387808797919
 20
230.540222187589
 11
555.478376899079
 21
230.362277636198
 72
     1
 10
555.478376899079
 20
230.362277636198
 11
555.5317875431
 21
230.169887024621
 72
     1
 10
555.5317875431
 20
230.169887024621
 11
555.54633781311
 21
229.9999198817
 72
     1
 10
555.54633781311
 20
229.9999198817
 11
555.546337813111
 21
227.499919881721
 97
        0
 75
     1
 76
     2
 52
0.0
 41
1.0
 77
     0
 78
     1
 53
44.99999999999998
 43
0.0
 44
0.0
 45
-4.490128060534577
 46
0.0000000000000018
 79
     0
 98
        1
 10
0.0
 20
0.0
  0
HATCH
  5
33E
330
44
100
AcDbEntity
  8
0
  6
Continuous
 62
     7
100
AcDbHatch
 10
0.0
 20
0.0
 30
0.0
210
0.0
220
0.0
230
1.0
  2
CUSTOM11
 70
     0
 71
     0
 91
        1
 92
        1
 93
       28
 72
     1
 10
551.046337813111
 20
66.50000176840803
 11
551.046337813111
 21
64.00000176840803
 72
     1
 10
551.046337813111
 20
64.00000176840803
 11
552.196337813111
 21
64.00000176840803
 72
     1
 10
552.196337813111
 20
64.00000176840803
 11
552.196337813111
 21
61.50000176840803
 72
     1
 10
552.196337813111
 20
61.50000176840803
 11
560.696337813111
 21
61.50000176840803
 72
     1
 10
560.696337813111
 20
61.50000176840803
 11
560.696337813108
 21
64.02645174347401
 72
     1
 10
560.696337813108
 20
64.02645174347401
 11
562.267480936221
 21
64.31452694724999
 72
     1
 10
562.267480936221
 20
64.31452694724999
 11
563.750074092235
 21
64.90899777921902
 72
     1
 10
563.750074092235
 20
64.90899777921902
 11
565.0850109706159
 21
65.78616456328001
 72
     1
 10
565.0850109706159
 20
65.78616456328001
 11
566.2190718506599
 21
66.91105742781201
 72
     1
 10
566.2190718506599
 20
66.91105742781201
 11
567.107045303815
 21
68.23883044411099
 72
     1
 10
567.107045303815
 20
68.23883044411099
 11
567.713530630667
 21
69.71654949204702
 72
     1
 10
567.713530630667
 20
69.71654949204702
 11
568.0143491751089
 21
71.28530257639198
 72
     1
 10
568.0143491751089
 20
71.28530257639198
 11
568.04633781311
 21
72.00000176840001
 72
     1
 10
568.04633781311
 20
72.00000176840001
 11
568.046337813111
 21
74.00000176840803
 72
     1
 10
568.046337813111
 20
74.00000176840803
 11
565.046337813111
 21
74.00000176840803
 72
     1
 10
565.046337813111
 20
74.00000176840803
 11
565.046337813111
 21
78.00000176840803
 72
     1
 10
565.046337813111
 20
78.00000176840803
 11
564.318397344579
 21
80.00000176840803
 72
     1
 10
564.318397344579
 20
80.00000176840803
 11
563.046337813111
 21
80.00000176840803
 72
     1
 10
563.046337813111
 20
80.00000176840803
 11
563.04633781311
 21
69.00000176840001
 72
     1
 10
563.04633781311
 20
69.00000176840001
 11
562.9965042577139
 21
68.50332844142099
 72
     1
 10
562.9965042577139
 20
68.50332844142099
 11
562.8489902981189
 21
68.026455912637
 72
     1
 10
562.8489902981189
 20
68.026455912637
 11
562.609676850385
 21
67.58839558492099
 72
     1
 10
562.609676850385
 20
67.58839558492099
 11
562.288104586479
 21
67.20661154115902
 72
     1
 10
562.288104586479
 20
67.20661154115902
 11
561.897093577782
 21
66.89632430638898
 72
     1
 10
561.897093577782
 20
66.89632430638898
 11
561.452232199303
 21
66.66990405349003
 72
     1
 10
561.452232199303
 20
66.66990405349003
 11
560.971255670362
 21
66.536377443437
 72
     1
 10
560.971255670362
 20
66.536377443437
 11
560.54633781311
 21
66.50000176840001
 72
     1
 10
560.54633781311
 20
66.50000176840001
 11
551.046337813111
 21
66.50000176840803
 97
        0
 75
     1
 76
     2
 52
0.0
 41
1.0
 77
     0
 78
     1
 53
44.99999999999998
 43
0.0
 44
0.0
 45
-4.490128060534577
 46
0.0000000000000018
 79
     0
 98
        1
 10
0.0
 20
0.0
  0
HATCH
  5
33F
330
44
100
AcDbEntity
  8
0
  6
Continuous
 62
     7
100
AcDbHatch
 10
0.0
 20
0.0
 30
0.0
210
0.0
220
0.0
230
1.0
  2
CUSTOM12
 70
     0
 71
     0
 91
        1
 92
        1
 93
       28
 72
     1
 10
423.896337813111
 20
61.50000176840803
 11
423.896337813111
 21
64.00000176840803
 72
     1
 10
423.896337813111
 20
64.00000176840803
 11
425.046337813111
 21
64.00000176840803
 72
     1
 10
425.046337813111
 20
64.00000176840803
 11
425.046337813111
 21
66.50000176840803
 72
     1
 10
425.046337813111
 20
66.50000176840803
 11
415.54633781311
 21
66.50000176840001
 72
     1
 10
415.54633781311
 20
66.50000176840001
 11
415.049664486124
 21
66.54983532380498
 72
     1
 10
415.049664486124
 20
66.54983532380498
 11
414.57279195734
 21
66.69734928340102
 72
     1
 10
414.57279195734
 20
66.69734928340102
 11
414.134731629624
 21
66.93666273113399
 72
     1
 10
414.134731629624
 20
66.93666273113399
 11
413.752947585862
 21
67.25823499504003
 72
     1
 10
413.752947585862
 20
67.25823499504003
 11
413.442660351092
 21
67.64924600373803
 72
     1
 10
413.442660351092
 20
67.64924600373803
 11
413.216240098193
 21
68.09410738221698
 72
     1
 10
413.216240098193
 20
68.09410738221698
 11
413.08271348814
 21
68.575083911158
 72
     1
 10
413.08271348814
 20
68.575083911158
 11
413.04633781311
 21
69.00000176840001
 72
     1
 10
413.04633781311
 20
69.00000176840001
 11
413.046337813111
 21
80.00000176840803
 72
     1
 10
413.046337813111
 20
80.00000176840803
 11
411.774278281644
 21
80.00000176840803
 72
     1
 10
411.774278281644
 20
80.00000176840803
 11
411.046337813111
 21
78.00000176840803
 72
     1
 10
411.046337813111
 20
78.00000176840803
 11
411.046337813111
 21
74.00000176840803
 72
     1
 10
411.046337813111
 20
74.00000176840803
 11
408.046337813111
 21
74.00000176840803
 72
     1
 10
408.046337813111
 20
74.00000176840803
 11
408.04633781311
 21
72.00000176840001
 72
     1
 10
408.04633781311
 20
72.00000176840001
 11
408.205805190381
 21
70.41064712204798
 72
     1
 10
408.205805190381
 20
70.41064712204798
 11
408.677849861088
 21
68.88465502993898
 72
     1
 10
408.677849861088
 20
68.88465502993898
 11
409.443652893834
 21
67.48286198124799
 72
     1
 10
409.443652893834
 20
67.48286198124799
 11
410.472684138334
 21
66.26115304121203
 72
     1
 10
410.472684138334
 20
66.26115304121203
 11
411.723919366166
 21
65.26823388994501
 72
     1
 10
411.723919366166
 20
65.26823388994501
 11
413.147475777298
 21
64.54368908067102
 72
     1
 10
413.147475777298
 20
64.54368908067102
 11
414.686600669909
 21
64.11640392850103
 72
     1
 10
414.686600669909
 20
64.11640392850103
 11
415.396337813112
 21
64.02645174347401
 72
     1
 10
415.396337813112
 20
64.02645174347401
 11
415.396337813111
 21
61.50000176840803
 72
     1
 10
415.396337813111
 20
61.50000176840803
 11
423.896337813111
 21
61.50000176840803
 97
        0
 75
     1
 76
     2
 52
0.0
 41
1.0
 77
     0
 78
     1
 53
44.99999999999998
 43
0.0
 44
0.0
 45
-4.490128060534577
 46
0.0000000000000018
 79
     0
 98
        1
 10
0.0
 20
0.0
  0
HATCH
  5
340
330
44
100
AcDbEntity
  8
0
  6
Continuous
 62
     7
100
AcDbHatch
 10
0.0
 20
0.0
 30
0.0
210
0.0
220
0.0
230
1.0
  2
CUSTOM13
 70
     0
 71
     0
 91
        1
 92
        1
 93
       22
 72
     1
 10
420.79633781311
 20
127.2014906401
 11
423.296337813111
 21
127.201490640066
 72
     1
 10
423.296337813111
 20
127.201490640066
 11
423.29633781311
 21
127.7014906401
 72
     1
 10
423.29633781311
 20
127.7014906401
 11
423.256470968794
 21
128.098829301656
 72
     1
 10
423.256470968794
 20
128.098829301656
 11
423.138459801117
 21
128.480327324683
 72
     1
 10
423.138459801117
 20
128.480327324683
 11
422.947009042931
 21
128.830775586856
 72
     1
 10
422.947009042931
 20
128.830775586856
 11
422.689751231806
 21
129.136202821865
 72
     1
 10
422.689751231806
 20
129.136202821865
 11
422.376942424848
 21
129.384432609682
 72
     1
 10
422.376942424848
 20
129.384432609682
 11
422.021053322065
 21
129.565568812001
 72
     1
 10
422.021053322065
 20
129.565568812001
 11
421.636272098912
 21
129.672390100043
 72
     1
 10
421.636272098912
 20
129.672390100043
 11
421.29633781311
 21
129.7014906401
 72
     1
 10
421.29633781311
 20
129.7014906401
 11
410.796337813111
 21
129.701490640066
 72
     1
 10
410.796337813111
 20
129.701490640066
 11
410.796337813111
 21
127.201490640066
 72
     1
 10
410.796337813111
 20
127.201490640066
 11
411.951037813111
 21
125.201490640066
 72
     1
 10
411.951037813111
 20
125.201490640066
 11
418.79633781311
 21
125.2014906401
 72
     1
 10
418.79633781311
 20
125.2014906401
 11
418.836204657429
 21
125.598829301656
 72
     1
 10
418.836204657429
 20
125.598829301656
 11
418.954215825106
 21
125.980327324683
 72
     1
 10
418.954215825106
 20
125.980327324683
 11
419.145666583292
 21
126.330775586856
 72
     1
 10
419.145666583292
 20
126.330775586856
 11
419.402924394417
 21
126.636202821865
 72
     1
 10
419.402924394417
 20
126.636202821865
 11
419.715733201375
 21
126.884432609682
 72
     1
 10
419.715733201375
 20
126.884432609682
 11
420.071622304158
 21
127.065568812001
 72
     1
 10
420.071622304158
 20
127.065568812001
 11
420.456403527311
 21
127.172390100043
 72
     1
 10
420.456403527311
 20
127.172390100043
 11
420.79633781311
 21
127.2014906401
 97
        0
 75
     1
 76
     2
 52
0.0
 41
1.0
 77
     0
 78
     1
 53
44.99999999999998
 43
0.0
 44
0.0
 45
-4.490128060534577
 46
0.0000000000000018
 79
     0
 98
        1
 10
0.0
 20
0.0
  0
HATCH
  5
341
330
44
100
AcDbEntity
  8
0
  6
Continuous
 62
     7
100
AcDbHatch
 10
0.0
 20
0.0
 30
0.0
210
0.0
220
0.0
230
1.0
  2
CUSTOM14
 70
     0
 71
     0
 91
        1
 92
        1
 93
       22
 72
     1
 10
552.796337813111
 20
127.201490640066
 11
555.29633781311
 21
127.2014906401
 72
     1
 10
555.29633781311
 20
127.2014906401
 11
555.693676474701
 21
127.161623795749
 72
     1
 10
555.693676474701
 20
127.161623795749
 11
556.075174497729
 21
127.043612628072
 72
     1
 10
556.075174497729
 20
127.043612628072
 11
556.425622759901
 21
126.852161869885
 72
     1
 10
556.425622759901
 20
126.852161869885
 11
556.73104999491
 21
126.59490405876
 72
     1
 10
556.73104999491
 20
126.59490405876
 11
556.979279782727
 21
126.282095251802
 72
     1
 10
556.979279782727
 20
126.282095251802
 11
557.160415985046
 21
125.926206149019
 72
     1
 10
557.160415985046
 20
125.926206149019
 11
557.267237273088
 21
125.541424925867
 72
     1
 10
557.267237273088
 20
125.541424925867
 11
557.29633781311
 21
125.2014906401
 72
     1
 10
557.29633781311
 20
125.2014906401
 11
564.141637813111
 21
125.201490640066
 72
     1
 10
564.141637813111
 20
125.201490640066
 11
565.296337813111
 21
127.201490640066
 72
     1
 10
565.296337813111
 20
127.201490640066
 11
565.296337813111
 21
129.701490640066
 72
     1
 10
565.296337813111
 20
129.701490640066
 11
554.79633781311
 21
129.7014906401
 72
     1
 10
554.79633781311
 20
129.7014906401
 11
554.3989991515209
 21
129.661623795749
 72
     1
 10
554.3989991515209
 20
129.661623795749
 11
554.017501128494
 21
129.543612628072
 72
     1
 10
554.017501128494
 20
129.543612628072
 11
553.667052866321
 21
129.352161869885
 72
     1
 10
553.667052866321
 20
129.352161869885
 11
553.361625631312
 21
129.09490405876
 72
     1
 10
553.361625631312
 20
129.09490405876
 11
553.113395843495
 21
128.782095251802
 72
     1
 10
553.113395843495
 20
128.782095251802
 11
552.932259641177
 21
128.426206149019
 72
     1
 10
552.932259641177
 20
128.426206149019
 11
552.825438353134
 21
128.041424925867
 72
     1
 10
552.825438353134
 20
128.041424925867
 11
552.79633781311
 21
127.7014906401
 72
     1
 10
552.79633781311
 20
127.7014906401
 11
552.796337813111
 21
127.201490640066
 97
        0
 75
     1
 76
     2
 52
0.0
 41
1.0
 77
     0
 78
     1
 53
44.99999999999998
 43
0.0
 44
0.0
 45
-4.490128060534577
 46
0.0000000000000018
 79
     0
 98
        1
 10
0.0
 20
0.0
  0
HATCH
  5
342
330
44
100
AcDbEntity
  8
0
  6
Continuous
 62
     7
100
AcDbHatch
 10
0.0
 20
0.0
 30
0.0
210
0.0
220
0.0
230
1.0
  2
CUSTOM15
 70
     0
 71
     0
 91
        1
 92
        1
 93
       13
 72
     1
 10
318.0463378131113
 20
159.999919881721
 11
310.04633781311
 21
159.9999198817
 72
     1
 10
310.04633781311
 20
159.9999198817
 11
309.6489991515211
 21
159.960053037403
 72
     1
 10
309.6489991515211
 20
159.960053037403
 11
309.267501128494
 21
159.842041869727
 72
     1
 10
309.267501128494
 20
159.842041869727
 11
308.9170528663212
 21
159.65059111154
 72
     1
 10
308.9170528663212
 20
159.65059111154
 11
308.6116256313122
 21
159.393333300415
 72
     1
 10
308.6116256313122
 20
159.393333300415
 11
308.3633958434955
 21
159.080524493457
 72
     1
 10
308.3633958434955
 20
159.080524493457
 11
308.1822596411768
 21
158.724635390674
 72
     1
 10
308.1822596411768
 20
158.724635390674
 11
308.0754383531343
 21
158.339854167521
 72
     1
 10
308.0754383531343
 20
158.339854167521
 11
308.04633781311
 21
157.9999198817
 72
     1
 10
308.04633781311
 20
157.9999198817
 11
308.04633781311
 21
156.5003407684
 72
     1
 10
308.04633781311
 20
156.5003407684
 11
320.0463378131113
 21
156.500340768408
 72
     1
 10
320.0463378131113
 20
156.500340768408
 11
320.0463378131113
 21
157.999919881721
 72
     1
 10
320.0463378131113
 20
157.999919881721
 11
318.0463378131113
 21
159.999919881721
 97
        0
 75
     1
 76
     2
 52
0.0
 41
1.0
 77
     0
 78
     1
 53
44.99999999999998
 43
0.0
 44
0.0
 45
-4.490128060534577
 46
0.0000000000000018
 79
     0
 98
        1
 10
0.0
 20
0.0
  0
HATCH
  5
343
330
44
100
AcDbEntity
  8
0
  6
Continuous
 62
     7
100
AcDbHatch
 10
0.0
 20
0.0
 30
0.0
210
0.0
220
0.0
230
1.0
  2
CUSTOM16
 70
     0
 71
     0
 91
        1
 92
        1
 93
       71
 72
     1
 10
415.146337813111
 20
121.701941768408
 11
415.14633781311
 21
114.9999997684
 72
     1
 10
415.14633781311
 20
114.9999997684
 11
415.196171368508
 21
114.503326441421
 72
     1
 10
415.196171368508
 20
114.503326441421
 11
415.343685328104
 21
114.026453912637
 72
     1
 10
415.343685328104
 20
114.026453912637
 11
415.582998775837
 21
113.588393584921
 72
     1
 10
415.582998775837
 20
113.588393584921
 11
415.904571039743
 21
113.206609541159
 72
     1
 10
415.904571039743
 20
113.206609541159
 11
416.295582048441
 21
112.896322306389
 72
     1
 10
416.295582048441
 20
112.896322306389
 11
416.74044342692
 21
112.66990205349
 72
     1
 10
416.74044342692
 20
112.66990205349
 11
417.221419955861
 21
112.536375443437
 72
     1
 10
417.221419955861
 20
112.536375443437
 11
417.64633781311
 21
112.4999997684
 72
     1
 10
417.64633781311
 20
112.4999997684
 11
421.046337813111
 21
112.499999768408
 72
     1
 10
421.046337813111
 20
112.499999768408
 11
421.046337813111
 21
73.00000176840803
 72
     1
 10
421.046337813111
 20
73.00000176840803
 11
423.546337813111
 21
73.00000176840803
 72
     1
 10
423.546337813111
 20
73.00000176840803
 11
425.546337813111
 21
72.74999976840797
 72
     1
 10
425.546337813111
 20
72.74999976840797
 11
425.54633781311
 21
4.999999768400016
 72
     1
 10
425.54633781311
 20
4.999999768400016
 11
426.88608377531
 21
-0.0000002315999836
 72
     1
 10
426.88608377531
 20
-0.0000002315999836
 11
429.046337813111
 21
-0.0000002315919971
 72
     1
 10
429.046337813111
 20
-0.0000002315919971
 11
429.046337813111
 21
76.49955021085498
 72
     1
 10
429.046337813111
 20
76.49955021085498
 11
424.546337813111
 21
76.49955021085498
 72
     1
 10
424.546337813111
 20
76.49955021085498
 11
424.54633781311
 21
114.9999997684
 72
     1
 10
424.54633781311
 20
114.9999997684
 11
424.526404390953
 21
115.198669099203
 72
     1
 10
424.526404390953
 20
115.198669099203
 11
424.467398807114
 21
115.389418110717
 72
     1
 10
424.467398807114
 20
115.389418110717
 11
424.371673428021
 21
115.564642241803
 72
     1
 10
424.371673428021
 20
115.564642241803
 11
424.243044522458
 21
115.717355859308
 72
     1
 10
424.243044522458
 20
115.717355859308
 11
424.086640118979
 21
115.841470753216
 72
     1
 10
424.086640118979
 20
115.841470753216
 11
423.908695567588
 21
115.932038854376
 72
     1
 10
423.908695567588
 20
115.932038854376
 11
423.716304956012
 21
115.985449498397
 72
     1
 10
423.716304956012
 20
115.985449498397
 11
423.54633781311
 21
115.9999997684
 72
     1
 10
423.54633781311
 20
115.9999997684
 11
419.64633781311
 21
115.9999997684
 72
     1
 10
419.64633781311
 20
115.9999997684
 11
419.447668482316
 21
116.019933190567
 72
     1
 10
419.447668482316
 20
116.019933190567
 11
419.256919470803
 21
116.078938774405
 72
     1
 10
419.256919470803
 20
116.078938774405
 11
419.081695339716
 21
116.174664153499
 72
     1
 10
419.081695339716
 20
116.174664153499
 11
418.928981722212
 21
116.303293059061
 72
     1
 10
418.928981722212
 20
116.303293059061
 11
418.804866828303
 21
116.45969746254
 72
     1
 10
418.804866828303
 20
116.45969746254
 11
418.714298727144
 21
116.637642013932
 72
     1
 10
418.714298727144
 20
116.637642013932
 11
418.660888083123
 21
116.830032625508
 72
     1
 10
418.660888083123
 20
116.830032625508
 11
418.64633781311
 21
116.9999997684
 72
     1
 10
418.64633781311
 20
116.9999997684
 11
418.64633781311
 21
124.2014906401
 72
     1
 10
418.64633781311
 20
124.2014906401
 11
418.626404390953
 21
124.400159970861
 72
     1
 10
418.626404390953
 20
124.400159970861
 11
418.567398807114
 21
124.590908982375
 72
     1
 10
418.567398807114
 20
124.590908982375
 11
418.471673428021
 21
124.766133113461
 72
     1
 10
418.471673428021
 20
124.766133113461
 11
418.343044522458
 21
124.918846730966
 72
     1
 10
418.343044522458
 20
124.918846730966
 11
418.186640118979
 21
125.042961624874
 72
     1
 10
418.186640118979
 20
125.042961624874
 11
418.008695567588
 21
125.133529726033
 72
     1
 10
418.008695567588
 20
125.133529726033
 11
417.816304956012
 21
125.186940370055
 72
     1
 10
417.816304956012
 20
125.186940370055
 11
417.64633781311
 21
125.2014906401
 72
     1
 10
417.64633781311
 20
125.2014906401
 11
411.046337813111
 21
125.201490640066
 72
     1
 10
411.046337813111
 20
125.201490640066
 11
411.046337813111
 21
129.799999768408
 72
     1
 10
411.046337813111
 20
129.799999768408
 11
412.546337813111
 21
130.799999768408
 72
     1
 10
412.546337813111
 20
130.799999768408
 11
412.546337813111
 21
135.056918640066
 72
     1
 10
412.546337813111
 20
135.056918640066
 11
413.296249449257
 21
135.499999768408
 72
     1
 10
413.296249449257
 20
135.499999768408
 11
413.296249449257
 21
136.399999768408
 72
     1
 10
413.296249449257
 20
136.399999768408
 11
409.296387867032
 21
143.301832201683
 72
     1
 10
409.296387867032
 20
143.301832201683
 11
409.296340810706
 21
158.999922879355
 72
     1
 10
409.296340810706
 20
158.999922879355
 11
409.276406792985
 21
159.198592150417
 72
     1
 10
409.276406792985
 20
159.198592150417
 11
409.217400637347
 21
159.389340985052
 72
     1
 10
409.217400637347
 20
159.389340985052
 11
409.121674732993
 21
159.564564829186
 72
     1
 10
409.121674732993
 20
159.564564829186
 11
408.993045369648
 21
159.717278061104
 72
     1
 10
408.993045369648
 20
159.717278061104
 11
408.836640594116
 21
159.841392486165
 72
     1
 10
408.836640594116
 20
159.841392486165
 11
408.658695771233
 21
159.931960053908
 72
     1
 10
408.658695771233
 20
159.931960053908
 11
408.466304999551
 21
159.985370121208
 72
     1
 10
408.466304999551
 20
159.985370121208
 11
408.29634081071
 21
159.9999198817
 72
     1
 10
408.29634081071
 20
159.9999198817
 11
326.04633781311
 21
159.9999198817
 72
     1
 10
326.04633781311
 20
159.9999198817
 11
324.0463378131113
 21
157.999919881721
 72
     1
 10
324.0463378131113
 20
157.999919881721
 11
324.0463378131113
 21
156.500340768408
 72
     1
 10
324.0463378131113
 20
156.500340768408
 11
405.796337813111
 21
156.500340768408
 72
     1
 10
405.796337813111
 20
156.500340768408
 11
405.796356813111
 21
142.399999768408
 72
     1
 10
405.796356813111
 20
142.399999768408
 11
407.946337813111
 21
138.599999768408
 72
     1
 10
407.946337813111
 20
138.599999768408
 11
407.94633781311
 21
74.00000176840001
 72
     1
 10
407.94633781311
 20
74.00000176840001
 11
410.796337813111
 21
74.00000176840803
 72
     1
 10
410.796337813111
 20
74.00000176840803
 11
411.446337813111
 21
121.701941768408
 72
     1
 10
411.446337813111
 20
121.701941768408
 11
415.146337813111
 21
121.701941768408
 97
        0
 75
     1
 76
     2
 52
0.0
 41
1.0
 77
     0
 78
     1
 53
44.99999999999998
 43
0.0
 44
0.0
 45
-4.490128060534577
 46
0.0000000000000018
 79
     0
 98
        1
 10
0.0
 20
0.0
  0
HATCH
  5
344
330
44
100
AcDbEntity
  8
0
  6
Continuous
 62
     7
100
AcDbHatch
 10
0.0
 20
0.0
 30
0.0
210
0.0
220
0.0
230
1.0
  2
CUSTOM17
 70
     0
 71
     0
 91
        1
 92
        1
 93
       71
 72
     1
 10
555.046337813111
 20
112.499999768408
 11
558.44633781311
 21
112.4999997684
 72
     1
 10
558.44633781311
 20
112.4999997684
 11
558.943011140099
 21
112.549833323805
 72
     1
 10
558.943011140099
 20
112.549833323805
 11
559.419883668883
 21
112.697347283401
 72
     1
 10
559.419883668883
 20
112.697347283401
 11
559.857943996599
 21
112.936660731134
 72
     1
 10
559.857943996599
 20
112.936660731134
 11
560.23972804036
 21
113.25823299504
 72
     1
 10
560.23972804036
 20
113.25823299504
 11
560.550015275131
 21
113.649244003738
 72
     1
 10
560.550015275131
 20
113.649244003738
 11
560.776435528029
 21
114.094105382217
 72
     1
 10
560.776435528029
 20
114.094105382217
 11
560.9099621380819
 21
114.575081911158
 72
     1
 10
560.9099621380819
 20
114.575081911158
 11
560.94633781311
 21
114.9999997684
 72
     1
 10
560.94633781311
 20
114.9999997684
 11
560.946337813111
 21
121.701941768408
 72
     1
 10
560.946337813111
 20
121.701941768408
 11
564.646337813111
 21
121.701941768408
 72
     1
 10
564.646337813111
 20
121.701941768408
 11
565.296337813111
 21
74.00000176840803
 72
     1
 10
565.296337813111
 20
74.00000176840803
 11
568.14633781311
 21
74.00000176840001
 72
     1
 10
568.14633781311
 20
74.00000176840001
 11
568.146337813111
 21
138.599999768408
 72
     1
 10
568.146337813111
 20
138.599999768408
 11
570.2963188131109
 21
142.399999768408
 72
     1
 10
570.2963188131109
 20
142.399999768408
 11
570.296337813111
 21
156.500340768408
 72
     1
 10
570.296337813111
 20
156.500340768408
 11
652.046337813111
 21
156.500340768408
 72
     1
 10
652.046337813111
 20
156.500340768408
 11
652.046337813111
 21
157.999919881721
 72
     1
 10
652.046337813111
 20
157.999919881721
 11
650.046337813111
 21
159.999919881721
 72
     1
 10
650.046337813111
 20
159.999919881721
 11
567.7963348155099
 21
159.9999198817
 72
     1
 10
567.7963348155099
 20
159.9999198817
 11
567.597665484737
 21
159.979986459562
 72
     1
 10
567.597665484737
 20
159.979986459562
 11
567.406916473223
 21
159.920980875724
 72
     1
 10
567.406916473223
 20
159.920980875724
 11
567.231692342137
 21
159.825255496631
 72
     1
 10
567.231692342137
 20
159.825255496631
 11
567.078978724632
 21
159.696626591068
 72
     1
 10
567.078978724632
 20
159.696626591068
 11
566.954863830724
 21
159.540222187589
 72
     1
 10
566.954863830724
 20
159.540222187589
 11
566.864295729564
 21
159.362277636198
 72
     1
 10
566.864295729564
 20
159.362277636198
 11
566.810885085543
 21
159.169887024621
 72
     1
 10
566.810885085543
 20
159.169887024621
 11
566.796334815514
 21
158.999922879355
 72
     1
 10
566.796334815514
 20
158.999922879355
 11
566.796287759191
 21
143.301832201683
 72
     1
 10
566.796287759191
 20
143.301832201683
 11
562.796426176965
 21
136.399999768408
 72
     1
 10
562.796426176965
 20
136.399999768408
 11
562.796426176965
 21
135.499999768408
 72
     1
 10
562.796426176965
 20
135.499999768408
 11
563.546337813111
 21
135.056918640066
 72
     1
 10
563.546337813111
 20
135.056918640066
 11
563.546337813111
 21
130.799999768408
 72
     1
 10
563.546337813111
 20
130.799999768408
 11
565.046337813111
 21
129.799999768408
 72
     1
 10
565.046337813111
 20
129.799999768408
 11
565.046337813111
 21
125.201490640066
 72
     1
 10
565.046337813111
 20
125.201490640066
 11
558.44633781311
 21
125.2014906401
 72
     1
 10
558.44633781311
 20
125.2014906401
 11
558.2476684823159
 21
125.181557217907
 72
     1
 10
558.2476684823159
 20
125.181557217907
 11
558.056919470803
 21
125.122551634069
 72
     1
 10
558.056919470803
 20
125.122551634069
 11
557.881695339716
 21
125.026826254976
 72
     1
 10
557.881695339716
 20
125.026826254976
 11
557.728981722212
 21
124.898197349413
 72
     1
 10
557.728981722212
 20
124.898197349413
 11
557.604866828303
 21
124.741792945934
 72
     1
 10
557.604866828303
 20
124.741792945934
 11
557.514298727144
 21
124.563848394543
 72
     1
 10
557.514298727144
 20
124.563848394543
 11
557.460888083123
 21
124.371457782966
 72
     1
 10
557.460888083123
 20
124.371457782966
 11
557.44633781311
 21
124.2014906401
 72
     1
 10
557.44633781311
 20
124.2014906401
 11
557.44633781311
 21
116.9999997684
 72
     1
 10
557.44633781311
 20
116.9999997684
 11
557.4264043909529
 21
116.801330437613
 72
     1
 10
557.4264043909529
 20
116.801330437613
 11
557.367398807114
 21
116.6105814261
 72
     1
 10
557.367398807114
 20
116.6105814261
 11
557.271673428021
 21
116.435357295013
 72
     1
 10
557.271673428021
 20
116.435357295013
 11
557.143044522458
 21
116.282643677509
 72
     1
 10
557.143044522458
 20
116.282643677509
 11
556.986640118979
 21
116.1585287836
 72
     1
 10
556.986640118979
 20
116.1585287836
 11
556.8086955675881
 21
116.067960682441
 72
     1
 10
556.8086955675881
 20
116.067960682441
 11
556.6163049560121
 21
116.01455003842
 72
     1
 10
556.6163049560121
 20
116.01455003842
 11
556.44633781311
 21
115.9999997684
 72
     1
 10
556.44633781311
 20
115.9999997684
 11
552.54633781311
 21
115.9999997684
 72
     1
 10
552.54633781311
 20
115.9999997684
 11
552.3476684823161
 21
115.98006634625
 72
     1
 10
552.3476684823161
 20
115.98006634625
 11
552.156919470803
 21
115.921060762411
 72
     1
 10
552.156919470803
 20
115.921060762411
 11
551.981695339716
 21
115.825335383318
 72
     1
 10
551.981695339716
 20
115.825335383318
 11
551.828981722212
 21
115.696706477755
 72
     1
 10
551.828981722212
 20
115.696706477755
 11
551.704866828303
 21
115.540302074276
 72
     1
 10
551.704866828303
 20
115.540302074276
 11
551.6142987271439
 21
115.362357522885
 72
     1
 10
551.6142987271439
 20
115.362357522885
 11
551.560888083123
 21
115.169966911309
 72
     1
 10
551.560888083123
 20
115.169966911309
 11
551.54633781311
 21
114.9999997684
 72
     1
 10
551.54633781311
 20
114.9999997684
 11
551.546337813111
 21
76.49955021085498
 72
     1
 10
551.546337813111
 20
76.49955021085498
 11
547.046337813111
 21
76.49955021085498
 72
     1
 10
547.046337813111
 20
76.49955021085498
 11
547.046337813111
 21
-0.0000002315919971
 72
     1
 10
547.046337813111
 20
-0.0000002315919971
 11
549.206591850955
 21
-0.0000002315919971
 72
     1
 10
549.206591850955
 20
-0.0000002315919971
 11
550.54633781311
 21
4.999999768400016
 72
     1
 10
550.54633781311
 20
4.999999768400016
 11
550.546337813111
 21
72.74999976840797
 72
     1
 10
550.546337813111
 20
72.74999976840797
 11
552.546337813111
 21
73.00000176840803
 72
     1
 10
552.546337813111
 20
73.00000176840803
 11
555.046337813111
 21
73.00000176840803
 72
     1
 10
555.046337813111
 20
73.00000176840803
 11
555.046337813111
 21
112.499999768408
 97
        0
 75
     1
 76
     2
 52
0.0
 41
1.0
 77
     0
 78
     1
 53
44.99999999999998
 43
0.0
 44
0.0
 45
-4.490128060534577
 46
0.0000000000000018
 79
     0
 98
        1
 10
0.0
 20
0.0
  0
HATCH
  5
345
330
44
100
AcDbEntity
  8
0
  6
Continuous
 62
     7
100
AcDbHatch
 10
0.0
 20
0.0
 30
0.0
210
0.0
220
0.0
230
1.0
  2
CUSTOM18
 70
     0
 71
     0
 91
        1
 92
        1
 93
       13
 72
     1
 10
668.04633781311
 20
156.5003407684
 11
668.04633781311
 21
157.9999198817
 72
     1
 10
668.04633781311
 20
157.9999198817
 11
668.006470968794
 21
158.397258543311
 72
     1
 10
668.006470968794
 20
158.397258543311
 11
667.888459801117
 21
158.778756566338
 72
     1
 10
667.888459801117
 20
158.778756566338
 11
667.697009042931
 21
159.129204828511
 72
     1
 10
667.697009042931
 20
159.129204828511
 11
667.4397512318051
 21
159.43463206352
 72
     1
 10
667.4397512318051
 20
159.43463206352
 11
667.126942424847
 21
159.682861851337
 72
     1
 10
667.126942424847
 20
159.682861851337
 11
666.771053322065
 21
159.863998053655
 72
     1
 10
666.771053322065
 20
159.863998053655
 11
666.3862720989121
 21
159.970819341698
 72
     1
 10
666.3862720989121
 20
159.970819341698
 11
666.04633781311
 21
159.9999198817
 72
     1
 10
666.04633781311
 20
159.9999198817
 11
658.046337813111
 21
159.999919881721
 72
     1
 10
658.046337813111
 20
159.999919881721
 11
656.046337813111
 21
157.999919881721
 72
     1
 10
656.046337813111
 20
157.999919881721
 11
656.046337813111
 21
156.500340768408
 72
     1
 10
656.046337813111
 20
156.500340768408
 11
668.04633781311
 21
156.5003407684
 97
        0
 75
     1
 76
     2
 52
0.0
 41
1.0
 77
     0
 78
     1
 53
44.99999999999998
 43
0.0
 44
0.0
 45
-4.490128060534577
 46
0.0000000000000018
 79
     0
 98
        1
 10
0.0
 20
0.0
  0
ENDBLK
  5
46
330
44
100
AcDbEntity
  8
0
100
AcDbBlockEnd
  0
BLOCK
  5
6B
330
47
100
AcDbEntity
  8
0
100
AcDbBlockBegin
  2
HL_62BP_2_DN125_Dachablauf
 70
     0
 10
464.743171148326
 20
116.4424935328798
 30
0.0
  3
HL_62BP_2_DN125_Dachablauf
  1

  0
INSERT
  5
6A
330
47
100
AcDbEntity
  8
0
100
AcDbBlockReference
  2
HL62BP_2
 10
464.743171148326
 20
116.4424935328798
 30
0.0
  0
ENDBLK
  5
6C
330
47
100
AcDbEntity
  8
0
100
AcDbBlockEnd
  0
BLOCK
  5
2F8
330
2F0
100
AcDbEntity
  8
0
100
AcDbBlockBegin
  2
*D3
 70
     1
 10
0.0
 20
0.0
 30
0.0
  3
*D3
  1

  0
LINE
  5
2F1
330
2F0
100
AcDbEntity
  8
1
  6
Continuous
 62
     4
100
AcDbLine
 10
273.365004483542
 20
159.9999219179
 30
0.0
 11
273.365004483542
 21
0.0
 31
0.0
  0
LINE
  5
2F2
330
2F0
100
AcDbEntity
  8
1
  6
Continuous
 62
     4
100
AcDbLine
 10
429.04634023071
 20
0.0
 30
0.0
 11
271.365004483542
 21
0.0
 31
0.0
  0
LINE
  5
2F3
330
2F0
100
AcDbEntity
  8
1
  6
Continuous
 62
     4
100
AcDbLine
 10
310.04633748891
 20
159.9999219179
 30
0.0
 11
271.365004483542
 21
159.9999219179
 31
0.0
  0
SOLID
  5
2F4
330
2F0
100
AcDbEntity
  8
1
 62
     4
100
AcDbTrace
 10
274.681529459416
 20
149.9999219179
 30
0.0
 11
272.048479507668
 21
149.9999219179
 31
0.0
 12
273.365004483542
 22
159.9999219179
 32
0.0
 13
273.365004483542
 23
159.9999219179
 33
0.0
  0
SOLID
  5
2F5
330
2F0
100
AcDbEntity
  8
1
 62
     4
100
AcDbTrace
 10
272.048479507668
 20
10.0
 30
0.0
 11
274.681529459416
 21
10.0
 31
0.0
 12
273.365004483542
 22
0.0
 32
0.0
 13
273.365004483542
 23
0.0
 33
0.0
  0
MTEXT
  5
2F7
330
2F0
100
AcDbEntity
  8
1
 62
     1
100
AcDbMText
 10
271.365004483542
 20
67.0134337361868
 30
0.0
 40
10.0
 41
0.0
 71
     7
 72
     1
  1
160
  7
CONVERTER_11
 11
0.0
 21
1.0
 31
0.0
 73
     1
 44
0.60024009603842
  0
ENDBLK
  5
2F9
330
2F0
100
AcDbEntity
  8
0
100
AcDbBlockEnd
  0
BLOCK
  5
303
330
2FC
100
AcDbEntity
  8
0
100
AcDbBlockBegin
  2
*D4
 70
     1
 10
0.0
 20
0.0
 30
0.0
  3
*D4
  1

  0
LINE
  5
2FD
330
2FC
100
AcDbEntity
  8
1
  6
Continuous
 62
     4
100
AcDbLine
 10
295.336307252775
 20
159.9999219179
 30
0.0
 11
295.336307252775
 21
64.02645166960002
 31
0.0
  0
LINE
  5
2FE
330
2FC
100
AcDbEntity
  8
1
  6
Continuous
 62
     4
100
AcDbLine
 10
415.39634013531
 20
64.02645166960002
 30
0.0
 11
293.336307252775
 21
64.02645166960002
 31
0.0
  0
LINE
  5
2FF
330
2FC
100
AcDbEntity
  8
1
  6
Continuous
 62
     4
100
AcDbLine
 10
310.04633748891
 20
159.9999219179
 30
0.0
 11
293.336307252775
 21
159.9999219179
 31
0.0
  0
SOLID
  5
300
330
2FC
100
AcDbEntity
  8
1
 62
     4
100
AcDbTrace
 10
296.6528322286489
 20
149.9999219179
 30
0.0
 11
294.019782276901
 21
149.9999219179
 31
0.0
 12
295.336307252775
 22
159.9999219179
 32
0.0
 13
295.336307252775
 23
159.9999219179
 33
0.0
  0
SOLID
  5
301
330
2FC
100
AcDbEntity
  8
1
 62
     4
100
AcDbTrace
 10
294.019782276901
 20
74.02645166960002
 30
0.0
 11
296.6528322286489
 21
74.02645166960002
 31
0.0
 12
295.336307252775
 22
64.02645166960002
 32
0.0
 13
295.336307252775
 23
64.02645166960002
 33
0.0
  0
MTEXT
  5
302
330
2FC
100
AcDbEntity
  8
1
 62
     1
100
AcDbMText
 10
293.336307252775
 20
105.901534911028
 30
0.0
 40
10.0
 41
0.0
 71
     7
 72
     1
  1
96
  7
CONVERTER_11
 11
0.0
 21
1.0
 31
0.0
 73
     1
 44
0.60024009603842
  0
ENDBLK
  5
304
330
2FC
100
AcDbEntity
  8
0
100
AcDbBlockEnd
  0
BLOCK
  5
30E
330
307
100
AcDbEntity
  8
0
100
AcDbBlockBegin
  2
*D5
 70
     1
 10
0.0
 20
0.0
 30
0.0
  3
*D5
  1

  0
LINE
  5
308
330
307
100
AcDbEntity
  8
1
  6
Continuous
 62
     4
100
AcDbLine
 10
407.94634068371
 20
-49.1771966901784
 30
0.0
 11
568.14633676771
 21
-49.1771966901784
 31
0.0
  0
LINE
  5
309
330
307
100
AcDbEntity
  8
1
  6
Continuous
 62
     4
100
AcDbLine
 10
568.14633676771
 20
74.00000188499999
 30
0.0
 11
568.14633676771
 21
-51.1771966901784
 31
0.0
  0
LINE
  5
30A
330
307
100
AcDbEntity
  8
1
  6
Continuous
 62
     4
100
AcDbLine
 10
407.94634068371
 20
74.00000188499999
 30
0.0
 11
407.94634068371
 21
-51.1771966901784
 31
0.0
  0
SOLID
  5
30B
330
307
100
AcDbEntity
  8
1
 62
     4
100
AcDbTrace
 10
417.94634068371
 20
-47.86067171430444
 30
0.0
 11
417.94634068371
 21
-50.49372166605236
 31
0.0
 12
407.94634068371
 22
-49.1771966901784
 32
0.0
 13
407.94634068371
 23
-49.1771966901784
 33
0.0
  0
SOLID
  5
30C
330
307
100
AcDbEntity
  8
1
 62
     4
100
AcDbTrace
 10
558.14633676771
 20
-50.49372166605235
 30
0.0
 11
558.14633676771
 21
-47.86067171430444
 31
0.0
 12
568.14633676771
 22
-49.1771966901784
 32
0.0
 13
568.14633676771
 23
-49.1771966901784
 33
0.0
  0
MTEXT
  5
30D
330
307
100
AcDbEntity
  8
1
 62
     1
100
AcDbMText
 10
468.0722240610992
 20
-47.17723644490025
 30
0.0
 40
10.0
 41
0.0
 71
     7
 72
     1
  1
\C1;%%c\C1;160
  7
CONVERTER_11
 11
0.9999999999970619
 21
2.424068405545306E-6
 31
0.0
 73
     1
 44
0.60024009603842
  0
ENDBLK
  5
30F
330
307
100
AcDbEntity
  8
0
100
AcDbBlockEnd
  0
BLOCK
  5
319
330
312
100
AcDbEntity
  8
0
100
AcDbBlockBegin
  2
*D6
 70
     1
 10
0.0
 20
0.0
 30
0.0
  3
*D6
  1

  0
LINE
  5
313
330
312
100
AcDbEntity
  8
1
  6
Continuous
 62
     4
100
AcDbLine
 10
425.54634058831
 20
-27.6131868587159
 30
0.0
 11
550.54633872571
 21
-27.6131868587159
 31
0.0
  0
LINE
  5
314
330
312
100
AcDbEntity
  8
1
  6
Continuous
 62
     4
100
AcDbLine
 10
550.54633872571
 20
5.0000026822
 30
0.0
 11
550.54633872571
 21
-29.6131868587159
 31
0.0
  0
LINE
  5
315
330
312
100
AcDbEntity
  8
1
  6
Continuous
 62
     4
100
AcDbLine
 10
425.54634058831
 20
5.0000026822
 30
0.0
 11
425.54634058831
 21
-29.6131868587159
 31
0.0
  0
SOLID
  5
316
330
312
100
AcDbEntity
  8
1
 62
     4
100
AcDbTrace
 10
435.54634058831
 20
-26.29666188284194
 30
0.0
 11
435.54634058831
 21
-28.92971183458986
 31
0.0
 12
425.54634058831
 22
-27.6131868587159
 32
0.0
 13
425.54634058831
 23
-27.6131868587159
 33
0.0
  0
SOLID
  5
317
330
312
100
AcDbEntity
  8
1
 62
     4
100
AcDbTrace
 10
540.54633872571
 20
-28.92971183458986
 30
0.0
 11
540.54633872571
 21
-26.29666188284194
 31
0.0
 12
550.54633872571
 22
-27.6131868587159
 32
0.0
 13
550.54633872571
 23
-27.6131868587159
 33
0.0
  0
MTEXT
  5
318
330
312
100
AcDbEntity
  8
1
 62
     1
100
AcDbMText
 10
472.8383151346292
 20
-25.61322661343775
 30
0.0
 40
10.0
 41
0.0
 71
     7
 72
     1
  1
\C1;DN\C1;125
  7
CONVERTER_11
 11
0.9999999999970619
 21
2.424068405545306E-6
 31
0.0
 73
     1
 44
0.60024009603842
  0
ENDBLK
  5
31A
330
312
100
AcDbEntity
  8
0
100
AcDbBlockEnd
  0
BLOCK
  5
324
330
31D
100
AcDbEntity
  8
0
100
AcDbBlockBegin
  2
*D7
 70
     1
 10
0.0
 20
0.0
 30
0.0
  3
*D7
  1

  0
LINE
  5
31E
330
31D
100
AcDbEntity
  8
1
  6
Continuous
 62
     4
100
AcDbLine
 10
414.04633963471
 20
247.153973994072
 30
0.0
 11
562.04633781671
 21
247.153973994072
 31
0.0
  0
LINE
  5
31F
330
31D
100
AcDbEntity
  8
1
  6
Continuous
 62
     4
100
AcDbLine
 10
562.04633781671
 20
232.999920845
 30
0.0
 11
562.04633781671
 21
249.153973994072
 31
0.0
  0
LINE
  5
320
330
31D
100
AcDbEntity
  8
1
  6
Continuous
 62
     4
100
AcDbLine
 10
414.04633963471
 20
232.999920845
 30
0.0
 11
414.04633963471
 21
249.153973994072
 31
0.0
  0
SOLID
  5
321
330
31D
100
AcDbEntity
  8
1
 62
     4
100
AcDbTrace
 10
424.04633963471
 20
248.470498969946
 30
0.0
 11
424.04633963471
 21
245.837449018198
 31
0.0
 12
414.04633963471
 22
247.153973994072
 32
0.0
 13
414.04633963471
 23
247.153973994072
 33
0.0
  0
SOLID
  5
322
330
31D
100
AcDbEntity
  8
1
 62
     4
100
AcDbTrace
 10
552.04633781671
 20
245.837449018198
 30
0.0
 11
552.04633781671
 21
248.470498969946
 31
0.0
 12
562.04633781671
 22
247.153973994072
 32
0.0
 13
562.04633781671
 23
247.153973994072
 33
0.0
  0
MTEXT
  5
323
330
31D
100
AcDbEntity
  8
1
 62
     1
100
AcDbMText
 10
459.013979669116
 20
249.153973994072
 30
0.0
 40
10.0
 41
0.0
 71
     7
 72
     1
  1
\C1;150\C1;x150
  7
CONVERTER_11
 11
0.9999999999970619
 21
2.424068405545306E-6
 31
0.0
 73
     1
 44
0.60024009603842
  0
ENDBLK
  5
325
330
31D
100
AcDbEntity
  8
0
100
AcDbBlockEnd
  0
BLOCK
  5
32F
330
328
100
AcDbEntity
  8
0
100
AcDbBlockBegin
  2
*D8
 70
     1
 10
0.0
 20
0.0
 30
0.0
  3
*D8
  1

  0
LINE
  5
329
330
328
100
AcDbEntity
  8
1
  6
Continuous
 62
     4
100
AcDbLine
 10
308.04633781311
 20
272.062183755938
 30
0.0
 11
668.04633781311
 21
272.062183755938
 31
0.0
  0
LINE
  5
32A
330
328
100
AcDbEntity
  8
1
  6
Continuous
 62
     4
100
AcDbLine
 10
668.04633781311
 20
157.9999198817
 30
0.0
 11
668.04633781311
 21
274.062183755938
 31
0.0
  0
LINE
  5
32B
330
328
100
AcDbEntity
  8
1
  6
Continuous
 62
     4
100
AcDbLine
 10
308.04633781311
 20
157.9999198817
 30
0.0
 11
308.04633781311
 21
274.062183755938
 31
0.0
  0
SOLID
  5
32C
330
328
100
AcDbEntity
  8
1
 62
     4
100
AcDbTrace
 10
318.04633781311
 20
273.378708731812
 30
0.0
 11
318.04633781311
 21
270.745658780064
 31
0.0
 12
308.04633781311
 22
272.062183755938
 32
0.0
 13
308.04633781311
 23
272.062183755938
 33
0.0
  0
SOLID
  5
32D
330
328
100
AcDbEntity
  8
1
 62
     4
100
AcDbTrace
 10
658.04633781311
 20
270.745658780064
 30
0.0
 11
658.04633781311
 21
273.378708731812
 31
0.0
 12
668.04633781311
 22
272.062183755938
 32
0.0
 13
668.04633781311
 23
272.062183755938
 33
0.0
  0
MTEXT
  5
32E
330
328
100
AcDbEntity
  8
1
 62
     1
100
AcDbMText
 10
464.3939818085981
 20
274.0621440012162
 30
0.0
 40
10.0
 41
0.0
 71
     7
 72
     1
  1
\C1;%%c\C1;360
  7
CONVERTER_11
 11
0.9999999999970619
 21
2.424068405545306E-6
 31
0.0
 73
     1
 44
0.60024009603842
  0
ENDBLK
  5
330
330
328
100
AcDbEntity
  8
0
100
AcDbBlockEnd
  0
ENDSEC
  0
SECTION
  2
ENTITIES
  0
INSERT
  5
6D
330
1F
100
AcDbEntity
  8
0
100
AcDbBlockReference
  2
HL_62BP_2_DN125_Dachablauf
 10
464.743171148326
 20
116.4424935328798
 30
0.0
  0
ENDSEC
  0
SECTION
  2
OBJECTS
  0
DICTIONARY
  5
C
330
0
100
AcDbDictionary
281
     1
  3
ACAD_GROUP
350
D
  3
ACAD_LAYOUT
350
1A
  3
ACAD_MLEADERSTYLE
350
348
  3
ACAD_MLINESTYLE
350
17
  3
ACAD_PLOTSETTINGS
350
19
  3
ACAD_PLOTSTYLENAME
350
E
  3
ACAD_SCALELIST
350
48
  3
ACAD_VISUALSTYLE
350
2A
  3
AcDbVariableDictionary
350
346
  0
DICTIONARY
  5
D
102
{ACAD_REACTORS
330
C
102
}
330
C
100
AcDbDictionary
281
     1
  0
DICTIONARY
  5
1A
102
{ACAD_REACTORS
330
C
102
}
330
C
100
AcDbDictionary
281
     1
  3
Layout1
350
1E
  3
Layout2
350
26
  3
Model
350
22
  0
DICTIONARY
  5
348
102
{ACAD_REACTORS
330
C
102
}
330
C
100
AcDbDictionary
281
     1
  0
DICTIONARY
  5
17
102
{ACAD_REACTORS
330
C
102
}
330
C
100
AcDbDictionary
281
     1
  3
Standard
350
18
  0
DICTIONARY
  5
19
102
{ACAD_REACTORS
330
C
102
}
330
C
100
AcDbDictionary
281
     1
  0
ACDBDICTIONARYWDFLT
  5
E
102
{ACAD_REACTORS
330
C
102
}
330
C
100
AcDbDictionary
281
     1
  3
Normal
350
F
100
AcDbDictionaryWithDefault
340
F
  0
DICTIONARY
  5
48
102
{ACAD_REACTORS
330
C
102
}
330
C
100
AcDbDictionary
281
     1
  3
A0
350
49
  3
A1
350
4A
  3
A2
350
4B
  3
A3
350
4C
  3
A4
350
4D
  3
A5
350
4E
  3
A6
350
4F
  3
A7
350
50
  3
A8
350
51
  3
A9
350
52
  3
B0
350
53
  3
B1
350
54
  3
B2
350
55
  3
B3
350
56
  3
B4
350
57
  3
B5
350
58
  3
B6
350
59
  3
B7
350
5A
  3
B8
350
5B
  3
B9
350
5C
  3
C0
350
5D
  3
C1
350
5E
  3
C2
350
5F
  3
C3
350
60
  3
C4
350
61
  3
C5
350
62
  3
C6
350
63
  3
C7
350
64
  3
C8
350
65
  3
C9
350
66
  3
D0
350
67
  3
D1
350
68
  3
D2
350
69
  0
DICTIONARY
  5
2A
102
{ACAD_REACTORS
330
C
102
}
330
C
100
AcDbDictionary
281
     1
  3
2dWireframe
350
2F
  3
3D Hidden
350
31
  3
3dWireframe
350
30
  3
Basic
350
32
  3
Brighten
350
36
  3
ColorChange
350
3A
  3
Conceptual
350
34
  3
Dim
350
35
  3
Facepattern
350
39
  3
Flat
350
2B
  3
FlatWithEdges
350
2C
  3
Gouraud
350
2D
  3
GouraudWithEdges
350
2E
  3
Linepattern
350
38
  3
Realistic
350
33
  3
Thicken
350
37
  0
DICTIONARY
  5
346
102
{ACAD_REACTORS
330
C
102
}
330
C
100
AcDbDictionary
281
     1
  3
CANNOSCALE
350
349
  0
LAYOUT
  5
1E
102
{ACAD_REACTORS
330
1A
102
}
330
1A
100
AcDbPlotSettings
  1

  2
none_device
  4

  6

 40
0.0
 41
0.0
 42
0.0
 43
0.0
 44
0.0
 45
0.0
 46
0.0
 47
0.0
 48
0.0
 49
0.0
140
0.0
141
0.0
142
1.0
143
1.0
 70
   688
 72
     0
 73
     0
 74
     5
  7

 75
    16
147
1.0
148
0.0
149
0.0
100
AcDbLayout
  1
Layout1
 70
     1
 71
     1
 10
0.0
 20
0.0
 11
12.0
 21
9.0
 12
0.0
 22
0.0
 32
0.0
 14
1.00000000000000E+20
 24
1.00000000000000E+20
 34
1.00000000000000E+20
 15
-1.00000000000000E+20
 25
-1.00000000000000E+20
 35
-1.00000000000000E+20
146
0.0
 13
0.0
 23
0.0
 33
0.0
 16
1.0
 26
0.0
 36
0.0
 17
0.0
 27
1.0
 37
0.0
 76
     0
330
1B
  0
LAYOUT
  5
26
102
{ACAD_REACTORS
330
1A
102
}
330
1A
100
AcDbPlotSettings
  1

  2
none_device
  4

  6

 40
0.0
 41
0.0
 42
0.0
 43
0.0
 44
0.0
 45
0.0
 46
0.0
 47
0.0
 48
0.0
 49
0.0
140
0.0
141
0.0
142
1.0
143
1.0
 70
   688
 72
     0
 73
     0
 74
     5
  7

 75
    16
147
1.0
148
0.0
149
0.0
100
AcDbLayout
  1
Layout2
 70
     1
 71
     2
 10
0.0
 20
0.0
 11
0.0
 21
0.0
 12
0.0
 22
0.0
 32
0.0
 14
0.0
 24
0.0
 34
0.0
 15
0.0
 25
0.0
 35
0.0
146
0.0
 13
0.0
 23
0.0
 33
0.0
 16
1.0
 26
0.0
 36
0.0
 17
0.0
 27
1.0
 37
0.0
 76
     0
330
23
  0
LAYOUT
  5
22
102
{ACAD_REACTORS
330
1A
102
}
330
1A
100
AcDbPlotSettings
  1

  2
none_device
  4

  6

 40
0.0
 41
0.0
 42
0.0
 43
0.0
 44
0.0
 45
0.0
 46
0.0
 47
0.0
 48
0.0
 49
0.0
140
0.0
141
0.0
142
1.0
143
1.0
 70
  1712
 72
     0
 73
     0
 74
     0
  7

 75
     0
147
1.0
148
0.0
149
0.0
100
AcDbLayout
  1
Model
 70
     1
 71
     0
 10
0.0
 20
0.0
 11
12.0
 21
9.0
 12
0.0
 22
0.0
 32
0.0
 14
261.365004483542
 24
-51.1771966901784
 34
0.0
 15
668.12133781311
 25
284.062183755938
 35
0.0
146
0.0
 13
0.0
 23
0.0
 33
0.0
 16
1.0
 26
0.0
 36
0.0
 17
0.0
 27
1.0
 37
0.0
 76
     0
330
1F
331
29
  0
MLINESTYLE
  5
18
102
{ACAD_REACTORS
330
17
102
}
330
17
100
AcDbMlineStyle
  2
Standard
 70
     0
  3

 62
   256
 51
90.0
 52
90.0
 71
     2
 49
0.5
 62
   256
  6
BYLAYER
 49
-0.5
 62
   256
  6
BYLAYER
  0
ACDBPLACEHOLDER
  5
F
102
{ACAD_REACTORS
330
E
102
}
330
E
  0
SCALE
  5
49
102
{ACAD_REACTORS
330
48
102
}
330
48
100
AcDbScale
 70
     0
300
1:1
140
1.0
141
1.0
290
     1
  0
SCALE
  5
4A
102
{ACAD_REACTORS
330
48
102
}
330
48
100
AcDbScale
 70
     0
300
1:2
140
1.0
141
2.0
290
     0
  0
SCALE
  5
4B
102
{ACAD_REACTORS
330
48
102
}
330
48
100
AcDbScale
 70
     0
300
1:4
140
1.0
141
4.0
290
     0
  0
SCALE
  5
4C
102
{ACAD_REACTORS
330
48
102
}
330
48
100
AcDbScale
 70
     0
300
1:5
140
1.0
141
5.0
290
     0
  0
SCALE
  5
4D
102
{ACAD_REACTORS
330
48
102
}
330
48
100
AcDbScale
 70
     0
300
1:8
140
1.0
141
8.0
290
     0
  0
SCALE
  5
4E
102
{ACAD_REACTORS
330
48
102
}
330
48
100
AcDbScale
 70
     0
300
1:10
140
1.0
141
10.0
290
     0
  0
SCALE
  5
4F
102
{ACAD_REACTORS
330
48
102
}
330
48
100
AcDbScale
 70
     0
300
1:16
140
1.0
141
16.0
290
     0
  0
SCALE
  5
50
102
{ACAD_REACTORS
330
48
102
}
330
48
100
AcDbScale
 70
     0
300
1:20
140
1.0
141
20.0
290
     0
  0
SCALE
  5
51
102
{ACAD_REACTORS
330
48
102
}
330
48
100
AcDbScale
 70
     0
300
1:30
140
1.0
141
30.0
290
     0
  0
SCALE
  5
52
102
{ACAD_REACTORS
330
48
102
}
330
48
100
AcDbScale
 70
     0
300
1:40
140
1.0
141
40.0
290
     0
  0
SCALE
  5
53
102
{ACAD_REACTORS
330
48
102
}
330
48
100
AcDbScale
 70
     0
300
1:50
140
1.0
141
50.0
290
     0
  0
SCALE
  5
54
102
{ACAD_REACTORS
330
48
102
}
330
48
100
AcDbScale
 70
     0
300
1:100
140
1.0
141
100.0
290
     0
  0
SCALE
  5
55
102
{ACAD_REACTORS
330
48
102
}
330
48
100
AcDbScale
 70
     0
300
2:1
140
2.0
141
1.0
290
     0
  0
SCALE
  5
56
102
{ACAD_REACTORS
330
48
102
}
330
48
100
AcDbScale
 70
     0
300
4:1
140
4.0
141
1.0
290
     0
  0
SCALE
  5
57
102
{ACAD_REACTORS
330
48
102
}
330
48
100
AcDbScale
 70
     0
300
8:1
140
8.0
141
1.0
290
     0
  0
SCALE
  5
58
102
{ACAD_REACTORS
330
48
102
}
330
48
100
AcDbScale
 70
     0
300
10:1
140
10.0
141
1.0
290
     0
  0
SCALE
  5
59
102
{ACAD_REACTORS
330
48
102
}
330
48
100
AcDbScale
 70
     0
300
100:1
140
100.0
141
1.0
290
     0
  0
SCALE
  5
5A
102
{ACAD_REACTORS
330
48
102
}
330
48
100
AcDbScale
 70
     0
300
1/128" = 1'-0"
140
0.0078125
141
12.0
290
     0
  0
SCALE
  5
5B
102
{ACAD_REACTORS
330
48
102
}
330
48
100
AcDbScale
 70
     0
300
1/64" = 1'-0"
140
0.015625
141
12.0
290
     0
  0
SCALE
  5
5C
102
{ACAD_REACTORS
330
48
102
}
330
48
100
AcDbScale
 70
     0
300
1/32" = 1'-0"
140
0.03125
141
12.0
290
     0
  0
SCALE
  5
5D
102
{ACAD_REACTORS
330
48
102
}
330
48
100
AcDbScale
 70
     0
300
1/16" = 1'-0"
140
0.0625
141
12.0
290
     0
  0
SCALE
  5
5E
102
{ACAD_REACTORS
330
48
102
}
330
48
100
AcDbScale
 70
     0
300
3/32" = 1'-0"
140
0.09375
141
12.0
290
     0
  0
SCALE
  5
5F
102
{ACAD_REACTORS
330
48
102
}
330
48
100
AcDbScale
 70
     0
300
1/8" = 1'-0"
140
0.125
141
12.0
290
     0
  0
SCALE
  5
60
102
{ACAD_REACTORS
330
48
102
}
330
48
100
AcDbScale
 70
     0
300
3/16" = 1'-0"
140
0.1875
141
12.0
290
     0
  0
SCALE
  5
61
102
{ACAD_REACTORS
330
48
102
}
330
48
100
AcDbScale
 70
     0
300
1/4" = 1'-0"
140
0.25
141
12.0
290
     0
  0
SCALE
  5
62
102
{ACAD_REACTORS
330
48
102
}
330
48
100
AcDbScale
 70
     0
300
3/8" = 1'-0"
140
0.375
141
12.0
290
     0
  0
SCALE
  5
63
102
{ACAD_REACTORS
330
48
102
}
330
48
100
AcDbScale
 70
     0
300
1/2" = 1'-0"
140
0.5
141
12.0
290
     0
  0
SCALE
  5
64
102
{ACAD_REACTORS
330
48
102
}
330
48
100
AcDbScale
 70
     0
300
3/4" = 1'-0"
140
0.75
141
12.0
290
     0
  0
SCALE
  5
65
102
{ACAD_REACTORS
330
48
102
}
330
48
100
AcDbScale
 70
     0
300
1" = 1'-0"
140
1.0
141
12.0
290
     0
  0
SCALE
  5
66
102
{ACAD_REACTORS
330
48
102
}
330
48
100
AcDbScale
 70
     0
300
1-1/2" = 1'-0"
140
1.5
141
12.0
290
     0
  0
SCALE
  5
67
102
{ACAD_REACTORS
330
48
102
}
330
48
100
AcDbScale
 70
     0
300
3" = 1'-0"
140
3.0
141
12.0
290
     0
  0
SCALE
  5
68
102
{ACAD_REACTORS
330
48
102
}
330
48
100
AcDbScale
 70
     0
300
6" = 1'-0"
140
6.0
141
12.0
290
     0
  0
SCALE
  5
69
102
{ACAD_REACTORS
330
48
102
}
330
48
100
AcDbScale
 70
     0
300
1'-0" = 1'-0"
140
12.0
141
12.0
290
     0
  0
VISUALSTYLE
  5
2F
102
{ACAD_REACTORS
330
2A
102
}
330
2A
100
AcDbVisualStyle
  2
2dWireframe
 70
     4
 71
     0
 72
     2
 73
     0
 90
        0
 40
-0.6
 41
-30.0
 62
     5
 63
     7
 74
     1
 91
        4
 64
     7
 65
   257
 75
     1
175
     1
 42
1.0
 92
        0
 66
   257
 43
1.0
 76
     1
 77
     6
 78
     2
 67
     7
 79
     5
170
     0
171
     0
290
     0
174
     0
 93
        1
 44
0.0
173
     0
291
     0
 45
0.0
1001
ACAD
1000
AcDbSavedByObjectVersion
1070
     0
  0
VISUALSTYLE
  5
31
102
{ACAD_REACTORS
330
2A
102
}
330
2A
100
AcDbVisualStyle
  2
3D Hidden
 70
     6
 71
     1
 72
     2
 73
     2
 90
        0
 40
-0.6
 41
-30.0
 62
     5
 63
     7
 74
     2
 91
        2
 64
     7
 65
   257
 75
     2
175
     1
 42
40.0
 92
        0
 66
   257
 43
1.0
 76
     1
 77
     6
 78
     2
 67
     7
 79
     3
170
     0
171
     0
290
     0
174
     0
 93
        1
 44
0.0
173
     0
291
     0
 45
0.0
1001
ACAD
1000
AcDbSavedByObjectVersion
1070
     0
  0
VISUALSTYLE
  5
30
102
{ACAD_REACTORS
330
2A
102
}
330
2A
100
AcDbVisualStyle
  2
3dWireframe
 70
     5
 71
     0
 72
     2
 73
     0
 90
        0
 40
-0.6
 41
-30.0
 62
     5
 63
     7
 74
     1
 91
        4
 64
     7
 65
   257
 75
     1
175
     1
 42
1.0
 92
        0
 66
   257
 43
1.0
 76
     1
 77
     6
 78
     2
 67
     7
 79
     5
170
     0
171
     0
290
     0
174
     0
 93
        1
 44
0.0
173
     0
291
     0
 45
0.0
1001
ACAD
1000
AcDbSavedByObjectVersion
1070
     0
  0
VISUALSTYLE
  5
32
102
{ACAD_REACTORS
330
2A
102
}
330
2A
100
AcDbVisualStyle
  2
Basic
 70
     7
 71
     1
 72
     0
 73
     1
 90
        0
 40
-0.6
 41
-30.0
 62
     5
 63
     7
 74
     0
 91
        4
 64
     7
 65
   257
 75
     1
175
     1
 42
1.0
 92
        8
 66
     7
 43
1.0
 76
     1
 77
     6
 78
     2
 67
     7
 79
     5
170
     0
171
     0
290
     0
174
     0
 93
        1
 44
0.0
173
     0
291
     1
 45
0.0
1001
ACAD
1000
AcDbSavedByObjectVersion
1070
     0
  0
VISUALSTYLE
  5
36
102
{ACAD_REACTORS
330
2A
102
}
330
2A
100
AcDbVisualStyle
  2
Brighten
 70
    12
 71
     2
 72
     2
 73
     0
 90
        0
 40
-0.6
 41
-30.0
 62
     5
 63
     7
 74
     1
 91
        4
 64
     7
 65
   257
 75
     1
175
     1
 42
1.0
 92
        8
 66
     7
 43
1.0
 76
     1
 77
     6
 78
     2
 67
     7
 79
     5
170
     0
171
     0
290
     0
174
     0
 93
        1
 44
50.0
173
     0
291
     1
 45
0.0
1001
ACAD
1000
AcDbSavedByObjectVersion
1070
     0
  0
VISUALSTYLE
  5
3A
102
{ACAD_REACTORS
330
2A
102
}
330
2A
100
AcDbVisualStyle
  2
ColorChange
 70
    16
 71
     2
 72
     2
 73
     3
 90
        0
 40
-0.6
 41
-30.0
 62
     5
 63
     8
 74
     1
 91
        4
 64
     7
 65
   257
 75
     1
175
     1
 42
1.0
 92
        8
 66
     8
 43
1.0
 76
     1
 77
     6
 78
     2
 67
     7
 79
     5
170
     0
171
     0
290
     0
174
     0
 93
        1
 44
0.0
173
     0
291
     1
 45
0.0
1001
ACAD
1000
AcDbSavedByObjectVersion
1070
     0
  0
VISUALSTYLE
  5
34
102
{ACAD_REACTORS
330
2A
102
}
330
2A
100
AcDbVisualStyle
  2
Conceptual
 70
     9
 71
     3
 72
     2
 73
     0
 90
        0
 40
-0.6
 41
-30.0
 62
     5
 63
     7
 74
     2
 91
        2
 64
     7
 65
   257
 75
     1
175
     1
 42
40.0
 92
        8
 66
     7
 43
1.0
 76
     1
 77
     6
 78
     2
 67
     7
 79
     3
170
     0
171
     0
290
     0
174
     0
 93
        1
 44
0.0
173
     0
291
     0
 45
0.0
1001
ACAD
1000
AcDbSavedByObjectVersion
1070
     0
  0
VISUALSTYLE
  5
35
102
{ACAD_REACTORS
330
2A
102
}
330
2A
100
AcDbVisualStyle
  2
Dim
 70
    11
 71
     2
 72
     2
 73
     0
 90
        0
 40
-0.6
 41
-30.0
 62
     5
 63
     7
 74
     1
 91
        4
 64
     7
 65
   257
 75
     1
175
     1
 42
1.0
 92
        8
 66
     7
 43
1.0
 76
     1
 77
     6
 78
     2
 67
     7
 79
     5
170
     0
171
     0
290
     0
174
     0
 93
        1
 44
-50.0
173
     0
291
     1
 45
0.0
1001
ACAD
1000
AcDbSavedByObjectVersion
1070
     0
  0
VISUALSTYLE
  5
39
102
{ACAD_REACTORS
330
2A
102
}
330
2A
100
AcDbVisualStyle
  2
Facepattern
 70
    15
 71
     2
 72
     2
 73
     0
 90
        0
 40
-0.6
 41
-30.0
 62
     5
 63
     7
 74
     1
 91
        4
 64
     7
 65
   257
 75
     1
175
     1
 42
1.0
 92
        8
 66
     7
 43
1.0
 76
     1
 77
     6
 78
     2
 67
     7
 79
     5
170
     0
171
     0
290
     0
174
     0
 93
        1
 44
0.0
173
     0
291
     1
 45
0.0
1001
ACAD
1000
AcDbSavedByObjectVersion
1070
     0
  0
VISUALSTYLE
  5
2B
102
{ACAD_REACTORS
330
2A
102
}
330
2A
100
AcDbVisualStyle
  2
Flat
 70
     0
 71
     2
 72
     1
 73
     1
 90
        2
 40
-0.6
 41
30.0
 62
     5
 63
     7
 74
     0
 91
        4
 64
     7
 65
   257
 75
     1
175
     1
 42
1.0
 92
        8
 66
     7
 43
1.0
 76
     1
 77
     6
 78
     2
 67
     7
 79
     5
170
     0
171
     0
290
     0
174
     0
 93
       13
 44
0.0
173
     0
291
     1
 45
0.0
1001
ACAD
1000
AcDbSavedByObjectVersion
1070
     0
  0
VISUALSTYLE
  5
2C
102
{ACAD_REACTORS
330
2A
102
}
330
2A
100
AcDbVisualStyle
  2
FlatWithEdges
 70
     1
 71
     2
 72
     1
 73
     1
 90
        2
 40
-0.6
 41
30.0
 62
     5
 63
     7
 74
     1
 91
        4
 64
     7
 65
   257
 75
     1
175
     1
 42
1.0
 92
        0
 66
   257
 43
1.0
 76
     1
 77
     6
 78
     2
 67
     7
 79
     5
170
     0
171
     0
290
     0
174
     0
 93
       13
 44
0.0
173
     0
291
     1
 45
0.0
1001
ACAD
1000
AcDbSavedByObjectVersion
1070
     0
  0
VISUALSTYLE
  5
2D
102
{ACAD_REACTORS
330
2A
102
}
330
2A
100
AcDbVisualStyle
  2
Gouraud
 70
     2
 71
     2
 72
     2
 73
     1
 90
        2
 40
-0.6
 41
30.0
 62
     5
 63
     7
 74
     0
 91
        4
 64
     7
 65
   257
 75
     1
175
     1
 42
1.0
 92
        0
 66
     7
 43
1.0
 76
     1
 77
     6
 78
     2
 67
     7
 79
     5
170
     0
171
     0
290
     0
174
     0
 93
       13
 44
0.0
173
     0
291
     1
 45
0.0
1001
ACAD
1000
AcDbSavedByObjectVersion
1070
     0
  0
VISUALSTYLE
  5
2E
102
{ACAD_REACTORS
330
2A
102
}
330
2A
100
AcDbVisualStyle
  2
GouraudWithEdges
 70
     3
 71
     2
 72
     2
 73
     1
 90
        2
 40
-0.6
 41
30.0
 62
     5
 63
     7
 74
     1
 91
        4
 64
     7
 65
   257
 75
     1
175
     1
 42
1.0
 92
        0
 66
   257
 43
1.0
 76
     1
 77
     6
 78
     2
 67
     7
 79
     5
170
     0
171
     0
290
     0
174
     0
 93
       13
 44
0.0
173
     0
291
     1
 45
0.0
1001
ACAD
1000
AcDbSavedByObjectVersion
1070
     0
  0
VISUALSTYLE
  5
38
102
{ACAD_REACTORS
330
2A
102
}
330
2A
100
AcDbVisualStyle
  2
Linepattern
 70
    14
 71
     2
 72
     2
 73
     0
 90
        0
 40
-0.6
 41
-30.0
 62
     5
 63
     7
 74
     1
 91
        4
 64
     7
 65
   257
 75
     7
175
     7
 42
1.0
 92
        8
 66
     7
 43
1.0
 76
     1
 77
     6
 78
     2
 67
     7
 79
     5
170
     0
171
     0
290
     0
174
     0
 93
        1
 44
0.0
173
     0
291
     1
 45
0.0
1001
ACAD
1000
AcDbSavedByObjectVersion
1070
     0
  0
VISUALSTYLE
  5
33
102
{ACAD_REACTORS
330
2A
102
}
330
2A
100
AcDbVisualStyle
  2
Realistic
 70
     8
 71
     2
 72
     2
 73
     0
 90
        0
 40
-0.6
 41
-30.0
 62
     5
 63
     7
 74
     1
 91
        0
 64
     7
 65
   257
 75
     1
175
     1
 42
1.0
 92
        8
 66
     8
 43
1.0
 76
     1
 77
     6
 78
     2
 67
     7
 79
     5
170
     0
171
     0
290
     0
174
     0
 93
       13
 44
0.0
173
     0
291
     0
 45
0.0
1001
ACAD
1000
AcDbSavedByObjectVersion
1070
     0
  0
VISUALSTYLE
  5
37
102
{ACAD_REACTORS
330
2A
102
}
330
2A
100
AcDbVisualStyle
  2
Thicken
 70
    13
 71
     2
 72
     2
 73
     0
 90
        0
 40
-0.6
 41
-30.0
 62
     5
 63
     7
 74
     1
 91
        4
 64
     7
 65
   257
 75
     1
175
     1
 42
1.0
 92
       12
 66
     7
 43
1.0
 76
     1
 77
     6
 78
     2
 67
     7
 79
     5
170
     0
171
     0
290
     0
174
     0
 93
        1
 44
0.0
173
     0
291
     1
 45
0.0
1001
ACAD
1000
AcDbSavedByObjectVersion
1070
     0
  0
DICTIONARYVAR
  5
349
102
{ACAD_REACTORS
330
346
102
}
330
346
100
DictionaryVariables
280
     0
  1
1:1
  0
ENDSEC
  0
EOF
