  0
SECTION
  2
HEADER
  9
$ACADVER
  1
AC1015
  9
$ACADMAINTVER
 70
     6
  9
$DWGCODEPAGE
  3
ANSI_1252
  9
$INSBASE
 10
0.0
 20
0.0
 30
0.0
  9
$EXTMIN
 10
-274.9999405861538
 20
-827.158524924082
 30
0.0
  9
$EXTMAX
 10
275.0000594138462
 20
125.6916554142186
 30
0.0
  9
$LIMMIN
 10
0.0
 20
0.0
  9
$LIMMAX
 10
12.0
 20
9.0
  9
$ORTHOMODE
 70
     0
  9
$REGENMODE
 70
     1
  9
$FILLMODE
 70
     1
  9
$QTEXTMODE
 70
     0
  9
$MIRRTEXT
 70
     1
  9
$LTSCALE
 40
1.0
  9
$ATTMODE
 70
     1
  9
$TEXTSIZE
 40
0.2
  9
$TRACEWID
 40
0.05
  9
$TEXTSTYLE
  7
Standard
  9
$CLAYER
  8
0
  9
$CELTYPE
  6
ByLayer
  9
$CECOLOR
 62
   256
  9
$CELTSCALE
 40
1.0
  9
$DISPSILH
 70
     0
  9
$DIMSCALE
 40
1.0
  9
$DIMASZ
 40
0.18
  9
$DIMEXO
 40
0.0625
  9
$DIMDLI
 40
0.38
  9
$DIMRND
 40
0.0
  9
$DIMDLE
 40
0.0
  9
$DIMEXE
 40
0.18
  9
$DIMTP
 40
0.0
  9
$DIMTM
 40
0.0
  9
$DIMTXT
 40
0.18
  9
$DIMCEN
 40
0.09
  9
$DIMTSZ
 40
0.0
  9
$DIMTOL
 70
     0
  9
$DIMLIM
 70
     0
  9
$DIMTIH
 70
     1
  9
$DIMTOH
 70
     1
  9
$DIMSE1
 70
     0
  9
$DIMSE2
 70
     0
  9
$DIMTAD
 70
     0
  9
$DIMZIN
 70
     0
  9
$DIMBLK
  1

  9
$DIMASO
 70
     1
  9
$DIMSHO
 70
     1
  9
$DIMPOST
  1

  9
$DIMAPOST
  1

  9
$DIMALT
 70
     0
  9
$DIMALTD
 70
     2
  9
$DIMALTF
 40
25.4
  9
$DIMLFAC
 40
1.0
  9
$DIMTOFL
 70
     0
  9
$DIMTVP
 40
0.0
  9
$DIMTIX
 70
     0
  9
$DIMSOXD
 70
     0
  9
$DIMSAH
 70
     0
  9
$DIMBLK1
  1

  9
$DIMBLK2
  1

  9
$DIMSTYLE
  2
Standard
  9
$DIMCLRD
 70
     0
  9
$DIMCLRE
 70
     0
  9
$DIMCLRT
 70
     0
  9
$DIMTFAC
 40
1.0
  9
$DIMGAP
 40
0.09
  9
$DIMJUST
 70
     0
  9
$DIMSD1
 70
     0
  9
$DIMSD2
 70
     0
  9
$DIMTOLJ
 70
     1
  9
$DIMTZIN
 70
     0
  9
$DIMALTZ
 70
     0
  9
$DIMALTTZ
 70
     0
  9
$DIMUPT
 70
     0
  9
$DIMDEC
 70
     4
  9
$DIMTDEC
 70
     4
  9
$DIMALTU
 70
     2
  9
$DIMALTTD
 70
     2
  9
$DIMTXSTY
  7
Standard
  9
$DIMAUNIT
 70
     0
  9
$DIMADEC
 70
     0
  9
$DIMALTRND
 40
0.0
  9
$DIMAZIN
 70
     0
  9
$DIMDSEP
 70
    46
  9
$DIMATFIT
 70
     3
  9
$DIMFRAC
 70
     0
  9
$DIMLDRBLK
  1

  9
$DIMLUNIT
 70
     2
  9
$DIMLWD
 70
    -2
  9
$DIMLWE
 70
    -2
  9
$DIMTMOVE
 70
     0
  9
$LUNITS
 70
     2
  9
$LUPREC
 70
     4
  9
$SKETCHINC
 40
0.1
  9
$FILLETRAD
 40
0.5
  9
$AUNITS
 70
     0
  9
$AUPREC
 70
     0
  9
$MENU
  1
.
  9
$ELEVATION
 40
0.0
  9
$PELEVATION
 40
0.0
  9
$THICKNESS
 40
0.0
  9
$LIMCHECK
 70
     0
  9
$CHAMFERA
 40
0.5
  9
$CHAMFERB
 40
0.5
  9
$CHAMFERC
 40
1.0
  9
$CHAMFERD
 40
0.0
  9
$SKPOLY
 70
     0
  9
$TDCREATE
 40
2454701.397443947
  9
$TDUCREATE
 40
2454701.314110613
  9
$TDUPDATE
 40
2454701.397443959
  9
$TDUUPDATE
 40
2454701.314110625
  9
$TDINDWG
 40
0.0000000116
  9
$TDUSRTIMER
 40
0.0000000116
  9
$USRTIMER
 70
     1
  9
$ANGBASE
 50
0.0
  9
$ANGDIR
 70
     0
  9
$PDMODE
 70
     0
  9
$PDSIZE
 40
0.0
  9
$PLINEWID
 40
0.0
  9
$SPLFRAME
 70
     0
  9
$SPLINETYPE
 70
     6
  9
$SPLINESEGS
 70
     8
  9
$HANDSEED
  5
379
  9
$SURFTAB1
 70
     6
  9
$SURFTAB2
 70
     6
  9
$SURFTYPE
 70
     6
  9
$SURFU
 70
     6
  9
$SURFV
 70
     6
  9
$UCSBASE
  2

  9
$UCSNAME
  2

  9
$UCSORG
 10
0.0
 20
0.0
 30
0.0
  9
$UCSXDIR
 10
1.0
 20
0.0
 30
0.0
  9
$UCSYDIR
 10
0.0
 20
1.0
 30
0.0
  9
$UCSORTHOREF
  2

  9
$UCSORTHOVIEW
 70
     0
  9
$UCSORGTOP
 10
0.0
 20
0.0
 30
0.0
  9
$UCSORGBOTTOM
 10
0.0
 20
0.0
 30
0.0
  9
$UCSORGLEFT
 10
0.0
 20
0.0
 30
0.0
  9
$UCSORGRIGHT
 10
0.0
 20
0.0
 30
0.0
  9
$UCSORGFRONT
 10
0.0
 20
0.0
 30
0.0
  9
$UCSORGBACK
 10
0.0
 20
0.0
 30
0.0
  9
$PUCSBASE
  2

  9
$PUCSNAME
  2

  9
$PUCSORG
 10
0.0
 20
0.0
 30
0.0
  9
$PUCSXDIR
 10
1.0
 20
0.0
 30
0.0
  9
$PUCSYDIR
 10
0.0
 20
1.0
 30
0.0
  9
$PUCSORTHOREF
  2

  9
$PUCSORTHOVIEW
 70
     0
  9
$PUCSORGTOP
 10
0.0
 20
0.0
 30
0.0
  9
$PUCSORGBOTTOM
 10
0.0
 20
0.0
 30
0.0
  9
$PUCSORGLEFT
 10
0.0
 20
0.0
 30
0.0
  9
$PUCSORGRIGHT
 10
0.0
 20
0.0
 30
0.0
  9
$PUCSORGFRONT
 10
0.0
 20
0.0
 30
0.0
  9
$PUCSORGBACK
 10
0.0
 20
0.0
 30
0.0
  9
$USERI1
 70
     0
  9
$USERI2
 70
     0
  9
$USERI3
 70
     0
  9
$USERI4
 70
     0
  9
$USERI5
 70
     0
  9
$USERR1
 40
15.5
  9
$USERR2
 40
0.0
  9
$USERR3
 40
0.0
  9
$USERR4
 40
0.0
  9
$USERR5
 40
0.0
  9
$WORLDVIEW
 70
     1
  9
$SHADEDGE
 70
     3
  9
$SHADEDIF
 70
    70
  9
$TILEMODE
 70
     1
  9
$MAXACTVP
 70
    64
  9
$PINSBASE
 10
0.0
 20
0.0
 30
0.0
  9
$PLIMCHECK
 70
     0
  9
$PEXTMIN
 10
1.00000000000000E+20
 20
1.00000000000000E+20
 30
1.00000000000000E+20
  9
$PEXTMAX
 10
-1.00000000000000E+20
 20
-1.00000000000000E+20
 30
-1.00000000000000E+20
  9
$PLIMMIN
 10
0.0
 20
0.0
  9
$PLIMMAX
 10
12.0
 20
9.0
  9
$UNITMODE
 70
     0
  9
$VISRETAIN
 70
     1
  9
$PLINEGEN
 70
     0
  9
$PSLTSCALE
 70
     1
  9
$TREEDEPTH
 70
  3020
  9
$CMLSTYLE
  2
Standard
  9
$CMLJUST
 70
     0
  9
$CMLSCALE
 40
1.0
  9
$PROXYGRAPHICS
 70
     1
  9
$MEASUREMENT
 70
     1
  9
$CELWEIGHT
370
    -1
  9
$ENDCAPS
280
     0
  9
$JOINSTYLE
280
     0
  9
$LWDISPLAY
290
     0
  9
$INSUNITS
 70
     1
  9
$HYPERLINKBASE
  1

  9
$STYLESHEET
  1

  9
$XEDIT
290
     1
  9
$CEPSNTYPE
380
     0
  9
$PSTYLEMODE
290
     1
  9
$FINGERPRINTGUID
  2
{45592423-BF87-4339-99BA-9AAC9AE3E55C}
  9
$VERSIONGUID
  2
{FAEB1C32-E019-11D5-929B-00C0DF256EC4}
  9
$EXTNAMES
290
     1
  9
$PSVPSCALE
 40
0.0
  9
$OLESTARTUP
290
     0
  0
ENDSEC
  0
SECTION
  2
CLASSES
  0
CLASS
  1
ACDBDICTIONARYWDFLT
  2
AcDbDictionaryWithDefault
  3
ObjectDBX Classes
 90
        0
280
     0
281
     0
  0
CLASS
  1
VISUALSTYLE
  2
AcDbVisualStyle
  3
ObjectDBX Classes
 90
     4095
280
     0
281
     0
  0
CLASS
  1

  2
exOdDbCircle
  3

 90
        0
280
     0
281
     1
  0
CLASS
  1
ACDBPLACEHOLDER
  2
AcDbPlaceHolder
  3
ObjectDBX Classes
 90
        0
280
     0
281
     0
  0
CLASS
  1
LAYOUT
  2
AcDbLayout
  3
ObjectDBX Classes
 90
        0
280
     0
281
     0
  0
ENDSEC
  0
SECTION
  2
TABLES
  0
TABLE
  2
VPORT
  5
8
330
0
100
AcDbSymbolTable
 70
     1
  0
VPORT
  5
29
330
8
100
AcDbSymbolTableRecord
100
AcDbViewportTableRecord
  2
*Active
 70
     0
 10
0.0
 20
0.0
 11
1.0
 21
1.0
 12
0.0000594138462
 22
-350.7334347549317
 13
0.0
 23
0.0
 14
0.5
 24
0.5
 15
0.5
 25
0.5
 16
0.0
 26
0.0
 36
1.0
 17
0.0
 27
0.0
 37
0.0
 40
1048.135198372131
 41
1.60267857142857
 42
50.0
 43
0.0
 44
0.0
 50
0.0
 51
0.0
 71
     0
 72
   100
 73
     1
 74
     3
 75
     0
 76
     0
 77
     0
 78
     0
281
     0
 65
     1
110
0.0
120
0.0
130
0.0
111
1.0
121
0.0
131
0.0
112
0.0
122
1.0
132
0.0
 79
     0
146
0.0
  0
ENDTAB
  0
TABLE
  2
LTYPE
  5
5
330
0
100
AcDbSymbolTable
 70
     9
  0
LTYPE
  5
14
330
5
100
AcDbSymbolTableRecord
100
AcDbLinetypeTableRecord
  2
ByBlock
 70
     0
  3

 72
    65
 73
     0
 40
0.0
  0
LTYPE
  5
15
330
5
100
AcDbSymbolTableRecord
100
AcDbLinetypeTableRecord
  2
ByLayer
 70
     0
  3

 72
    65
 73
     0
 40
0.0
  0
LTYPE
  5
16
330
5
100
AcDbSymbolTableRecord
100
AcDbLinetypeTableRecord
  2
Continuous
 70
     0
  3
Solid line
 72
    65
 73
     0
 40
0.0
  0
LTYPE
  5
3B
330
5
100
AcDbSymbolTableRecord
100
AcDbLinetypeTableRecord
  2
DASHED
 70
     0
  3
Dashed
 72
    65
 73
     2
 40
15.0
 49
7.0
 74
     0
 49
-8.0
 74
     0
  0
LTYPE
  5
3C
330
5
100
AcDbSymbolTableRecord
100
AcDbLinetypeTableRecord
  2
DOTTED
 70
     0
  3
Dotted
 72
    65
 73
     2
 40
1.0
 49
0.0
 74
     0
 49
-1.0
 74
     0
  0
LTYPE
  5
3D
330
5
100
AcDbSymbolTableRecord
100
AcDbLinetypeTableRecord
  2
DOT_CENTER
 70
     0
  3
Dot_Center
 72
    65
 73
     4
 40
14.0
 49
12.0
 74
     0
 49
-1.0
 74
     0
 49
0.0
 74
     0
 49
-1.0
 74
     0
  0
LTYPE
  5
3E
330
5
100
AcDbSymbolTableRecord
100
AcDbLinetypeTableRecord
  2
LONG_DASHED
 70
     0
  3
Long_Dashed
 72
    65
 73
     2
 40
15.0
 49
10.0
 74
     0
 49
-5.0
 74
     0
  0
LTYPE
  5
3F
330
5
100
AcDbSymbolTableRecord
100
AcDbLinetypeTableRecord
  2
DASH_CENTER
 70
     0
  3
Dash_Center
 72
    65
 73
     4
 40
14.0
 49
11.0
 74
     0
 49
-1.0
 74
     0
 49
1.0
 74
     0
 49
-1.0
 74
     0
  0
LTYPE
  5
40
330
5
100
AcDbSymbolTableRecord
100
AcDbLinetypeTableRecord
  2
PHANTOM
 70
     0
  3
Phantom
 72
    65
 73
     6
 40
13.0
 49
10.0
 74
     0
 49
-1.0
 74
     0
 49
0.0
 74
     0
 49
-1.0
 74
     0
 49
0.0
 74
     0
 49
-1.0
 74
     0
  0
LTYPE
  5
41
330
5
100
AcDbSymbolTableRecord
100
AcDbLinetypeTableRecord
  2
CENTER_DASH_DASH
 70
     0
  3
Center_Dash_Dash
 72
    65
 73
     6
 40
14.0
 49
9.0
 74
     0
 49
-1.0
 74
     0
 49
1.0
 74
     0
 49
-1.0
 74
     0
 49
1.0
 74
     0
 49
-1.0
 74
     0
  0
LTYPE
  5
42
330
5
100
AcDbSymbolTableRecord
100
AcDbLinetypeTableRecord
  2
DASHDOT
 70
     0
  3
DASHDOT
 72
    65
 73
     4
 40
16.0
 49
10.0
 74
     0
 49
-3.0
 74
     0
 49
0.0
 74
     0
 49
-3.0
 74
     0
  0
ENDTAB
  0
TABLE
  2
LAYER
  5
2
330
0
100
AcDbSymbolTable
 70
    11
  0
LAYER
  5
10
330
2
100
AcDbSymbolTableRecord
100
AcDbLayerTableRecord
  2
0
 70
     0
 62
     7
  6
Continuous
370
    -3
390
F
  0
LAYER
  5
43
330
2
100
AcDbSymbolTableRecord
100
AcDbLayerTableRecord
  2
1
 70
     0
 62
     7
  6
Continuous
370
    -3
390
F
  0
LAYER
  5
44
330
2
100
AcDbSymbolTableRecord
100
AcDbLayerTableRecord
  2
LC-001-002-----0
 70
     0
 62
     7
  6
Continuous
370
    -3
390
F
  0
LAYER
  5
45
330
2
100
AcDbSymbolTableRecord
100
AcDbLayerTableRecord
  2
LC-002-002-----0
 70
     0
 62
     7
  6
Continuous
370
    -3
390
F
  0
LAYER
  5
46
330
2
100
AcDbSymbolTableRecord
100
AcDbLayerTableRecord
  2
LC-002-002-RND-0
 70
     0
 62
     7
  6
Continuous
370
    -3
390
F
  0
LAYER
  5
47
330
2
100
AcDbSymbolTableRecord
100
AcDbLayerTableRecord
  2
LC-003-001-----0
 70
     0
 62
     7
  6
Continuous
370
    -3
390
F
  0
LAYER
  5
48
330
2
100
AcDbSymbolTableRecord
100
AcDbLayerTableRecord
  2
LC-003-002-----0
 70
     0
 62
     7
  6
Continuous
370
    -3
390
F
  0
LAYER
  5
49
330
2
100
AcDbSymbolTableRecord
100
AcDbLayerTableRecord
  2
LC-004-001-RND-0
 70
     0
 62
     7
  6
Continuous
370
    -3
390
F
  0
LAYER
  5
4A
330
2
100
AcDbSymbolTableRecord
100
AcDbLayerTableRecord
  2
LC-005-002-RND-0
 70
     0
 62
     7
  6
Continuous
370
    -3
390
F
  0
LAYER
  5
4B
330
2
100
AcDbSymbolTableRecord
100
AcDbLayerTableRecord
  2
LC-008-003-----0
 70
     0
 62
     7
  6
Continuous
370
    -3
390
F
  0
LAYER
  5
4C
330
2
100
AcDbSymbolTableRecord
100
AcDbLayerTableRecord
  2
LC-009-002-RND-0
 70
     0
 62
     7
  6
Continuous
370
    -3
390
F
  0
ENDTAB
  0
TABLE
  2
STYLE
  5
3
330
0
100
AcDbSymbolTable
 70
     2
  0
STYLE
  5
11
330
3
100
AcDbSymbolTableRecord
100
AcDbTextStyleTableRecord
  2
Standard
 70
     0
 40
0.0
 41
1.0
 50
0.0
 71
     0
 42
0.2
  3
txt
  4

  0
STYLE
  5
33B
330
3
100
AcDbSymbolTableRecord
100
AcDbTextStyleTableRecord
  2
CONVERTER_11
 70
     0
 40
0.0
 41
0.9
 50
0.0
 71
     0
 42
0.2
  3
txt.shx
  4

  0
ENDTAB
  0
TABLE
  2
VIEW
  5
6
330
0
100
AcDbSymbolTable
 70
     0
  0
ENDTAB
  0
TABLE
  2
UCS
  5
7
330
0
100
AcDbSymbolTable
 70
     0
  0
ENDTAB
  0
TABLE
  2
APPID
  5
9
330
0
100
AcDbSymbolTable
 70
     1
  0
APPID
  5
12
330
9
100
AcDbSymbolTableRecord
100
AcDbRegAppTableRecord
  2
ACAD
 70
     0
  0
ENDTAB
  0
TABLE
  2
DIMSTYLE
  5
A
330
0
100
AcDbSymbolTable
 70
     7
100
AcDbDimStyleTable
  0
DIMSTYLE
105
27
330
A
100
AcDbSymbolTableRecord
100
AcDbDimStyleTableRecord
  2
Standard
 70
     0
340
11
  0
DIMSTYLE
105
33F
102
{ACAD_REACTORS
330
340
102
}
330
A
100
AcDbSymbolTableRecord
100
AcDbDimStyleTableRecord
  2
ME10_DIM_10
 70
     0
 41
10.0
 42
0.0
 44
2.0
 73
     0
 74
     0
 77
     1
 78
     8
140
10.0
147
2.0
172
     1
173
     1
176
     4
177
     4
178
     1
271
     2
340
33B
  0
DIMSTYLE
105
34A
102
{ACAD_REACTORS
330
34B
102
}
330
A
100
AcDbSymbolTableRecord
100
AcDbDimStyleTableRecord
  2
ME10_DIM_11
 70
     0
  3
Ø<>
 41
10.0
 42
0.0
 44
2.0
 73
     0
 74
     0
 77
     1
 78
     8
140
10.0
147
2.0
172
     1
173
     1
176
     4
177
     4
178
     1
271
     2
340
33B
  0
DIMSTYLE
105
355
102
{ACAD_REACTORS
330
356
102
}
330
A
100
AcDbSymbolTableRecord
100
AcDbDimStyleTableRecord
  2
ME10_DIM_12
 70
     0
  3
Ø<>
 41
10.0
 42
0.0
 44
2.0
 73
     0
 74
     0
 77
     1
 78
     8
140
10.0
147
2.0
172
     1
173
     1
176
     4
177
     4
178
     1
271
     2
340
33B
  0
DIMSTYLE
105
360
102
{ACAD_REACTORS
330
361
102
}
330
A
100
AcDbSymbolTableRecord
100
AcDbDimStyleTableRecord
  2
ME10_DIM_13
 70
     0
 41
10.0
 42
0.0
 44
2.0
 73
     0
 74
     0
 77
     1
 78
     8
140
10.0
147
2.0
172
     1
173
     1
176
     4
177
     4
178
     1
271
     2
340
33B
  0
DIMSTYLE
105
36B
102
{ACAD_REACTORS
330
36C
102
}
330
A
100
AcDbSymbolTableRecord
100
AcDbDimStyleTableRecord
  2
ME10_DIM_14
 70
     0
  3
DN<>
 41
10.0
 42
0.0
 44
2.0
 73
     0
 74
     0
 77
     1
 78
     8
140
10.0
147
2.0
172
     1
173
     1
176
     4
177
     4
178
     1
271
     2
340
33B
  0
DIMSTYLE
105
376
102
{ACAD_REACTORS
330
377
102
}
330
A
100
AcDbSymbolTableRecord
100
AcDbDimStyleTableRecord
  2
ME10_DIM_15
 70
     0
  3
Ø<>
 41
10.0
 42
0.0
 44
2.0
 73
     0
 74
     0
 77
     1
 78
     8
140
10.0
147
2.0
172
     1
173
     1
176
     4
177
     4
178
     1
271
     2
340
33B
  0
ENDTAB
  0
TABLE
  2
BLOCK_RECORD
  5
1
330
0
100
AcDbSymbolTable
 70
    20
  0
BLOCK_RECORD
  5
1F
330
1
100
AcDbSymbolTableRecord
100
AcDbBlockTableRecord
  2
*Model_Space
340
22
  0
BLOCK_RECORD
  5
1B
330
1
100
AcDbSymbolTableRecord
100
AcDbBlockTableRecord
  2
*Paper_Space
340
1E
  0
BLOCK_RECORD
  5
23
330
1
100
AcDbSymbolTableRecord
100
AcDbBlockTableRecord
  2
*Paper_Space0
340
26
  0
BLOCK_RECORD
  5
4D
330
1
100
AcDbSymbolTableRecord
100
AcDbBlockTableRecord
  2
HL062B_3E_Tragring
340
0
102
{BLKREFS
331
6D
102
}
  0
BLOCK_RECORD
  5
50
330
1
100
AcDbSymbolTableRecord
100
AcDbBlockTableRecord
  2
Dichtring
340
0
102
{BLKREFS
331
6E
102
}
  0
BLOCK_RECORD
  5
53
330
1
100
AcDbSymbolTableRecord
100
AcDbBlockTableRecord
  2
Bitumenmanschette
340
0
102
{BLKREFS
331
60
102
}
  0
BLOCK_RECORD
  5
56
330
1
100
AcDbSymbolTableRecord
100
AcDbBlockTableRecord
  2
62_1H_Koerper
340
0
102
{BLKREFS
331
61
102
}
  0
BLOCK_RECORD
  5
59
330
1
100
AcDbSymbolTableRecord
100
AcDbBlockTableRecord
  2
Dichtung_unten
340
0
102
{BLKREFS
331
62
102
}
  0
BLOCK_RECORD
  5
5C
330
1
100
AcDbSymbolTableRecord
100
AcDbBlockTableRecord
  2
Metallring
340
0
102
{BLKREFS
331
63
102
}
  0
BLOCK_RECORD
  5
5F
330
1
100
AcDbSymbolTableRecord
100
AcDbBlockTableRecord
  2
HL62_1H_koerper
340
0
102
{BLKREFS
331
6F
102
}
  0
BLOCK_RECORD
  5
66
330
1
100
AcDbSymbolTableRecord
100
AcDbBlockTableRecord
  2
HL062B_2E_Aufsatzrahmen
340
0
102
{BLKREFS
331
70
102
}
  0
BLOCK_RECORD
  5
69
330
1
100
AcDbSymbolTableRecord
100
AcDbBlockTableRecord
  2
HL0317_1E_Einlaufrost
340
0
102
{BLKREFS
331
71
102
}
  0
BLOCK_RECORD
  5
6C
330
1
100
AcDbSymbolTableRecord
100
AcDbBlockTableRecord
  2
HL62B
340
0
102
{BLKREFS
331
7E
102
}
  0
BLOCK_RECORD
  5
74
330
1
100
AcDbSymbolTableRecord
100
AcDbBlockTableRecord
  2
Körper
340
0
102
{BLKREFS
331
7F
102
}
  0
BLOCK_RECORD
  5
77
330
1
100
AcDbSymbolTableRecord
100
AcDbBlockTableRecord
  2
062B_2E_Aufsatzrahmen
340
0
102
{BLKREFS
331
7B
102
}
  0
BLOCK_RECORD
  5
7A
330
1
100
AcDbSymbolTableRecord
100
AcDbBlockTableRecord
  2
HL_66_0_Aufsatzrahmen
340
0
102
{BLKREFS
331
80
102
}
  0
BLOCK_RECORD
  5
335
330
1
100
AcDbSymbolTableRecord
100
AcDbBlockTableRecord
  2
*D14
340
0
  0
BLOCK_RECORD
  5
341
330
1
100
AcDbSymbolTableRecord
100
AcDbBlockTableRecord
  2
*D15
340
0
  0
BLOCK_RECORD
  5
34C
330
1
100
AcDbSymbolTableRecord
100
AcDbBlockTableRecord
  2
*D16
340
0
  0
BLOCK_RECORD
  5
357
330
1
100
AcDbSymbolTableRecord
100
AcDbBlockTableRecord
  2
*D17
340
0
  0
BLOCK_RECORD
  5
362
330
1
100
AcDbSymbolTableRecord
100
AcDbBlockTableRecord
  2
*D18
340
0
  0
BLOCK_RECORD
  5
36D
330
1
100
AcDbSymbolTableRecord
100
AcDbBlockTableRecord
  2
*D19
340
0
  0
ENDTAB
  0
ENDSEC
  0
SECTION
  2
BLOCKS
  0
BLOCK
  5
20
330
1F
100
AcDbEntity
  8
0
100
AcDbBlockBegin
  2
*Model_Space
 70
     0
 71
     0
 10
0.0
 20
0.0
 30
0.0
  3
*Model_Space
  1

  0
ENDBLK
  5
21
330
1F
100
AcDbEntity
  8
0
100
AcDbBlockEnd
  0
BLOCK
  5
1C
330
1B
100
AcDbEntity
 67
     1
  8
0
100
AcDbBlockBegin
  2
*Paper_Space
 70
     0
 71
     0
 10
0.0
 20
0.0
 30
0.0
  3
*Paper_Space
  1

  0
ENDBLK
  5
1D
330
1B
100
AcDbEntity
 67
     1
  8
0
100
AcDbBlockEnd
  0
BLOCK
  5
24
330
23
100
AcDbEntity
  8
0
100
AcDbBlockBegin
  2
*Paper_Space0
 70
     0
 71
     0
 10
0.0
 20
0.0
 30
0.0
  3
*Paper_Space0
  1

  0
ENDBLK
  5
25
330
23
100
AcDbEntity
  8
0
100
AcDbBlockEnd
  0
BLOCK
  5
4E
330
4D
100
AcDbEntity
  8
0
100
AcDbBlockBegin
  2
HL062B_3E_Tragring
 70
     0
 71
     0
 10
-76.99994058615425
 20
-629.1585249240816
 30
0.0
  3
HL062B_3E_Tragring
  1

  0
LINE
  5
81
330
4D
100
AcDbEntity
  8
0
  6
Continuous
 62
     7
100
AcDbLine
 10
8.26962309490814
 20
-477.6560798868558
 30
0.0
 11
8.19681699237228
 21
-478.158524924082
 31
0.0
  0
LINE
  5
82
330
4D
100
AcDbEntity
  8
0
  6
Continuous
 62
     7
100
AcDbLine
 10
3.25028277982358
 20
-477.429172939261
 30
0.0
 11
3.14459704017577
 21
-478.158524924082
 31
0.0
  0
LINE
  5
83
330
4D
100
AcDbEntity
  8
0
  6
Continuous
 62
     7
100
AcDbLine
 10
38.24678370449551
 20
-495.5568231054926
 30
0.0
 11
42.5450054332472
 21
-498.9446571197068
 31
0.0
  0
LINE
  5
84
330
4D
100
AcDbEntity
  8
0
  6
Continuous
 62
     7
100
AcDbLine
 10
-56.60164240474326
 20
-513.9118006334322
 30
0.0
 11
-53.20402446500306
 21
-509.6011658168156
 31
0.0
  0
LINE
  5
85
330
4D
100
AcDbEntity
  8
0
  6
Continuous
 62
     7
100
AcDbLine
 10
-74.72929257097465
 20
-548.908301558103
 30
0.0
 11
-73.99994058615385
 21
-549.0139872977506
 31
0.0
  0
LINE
  5
86
330
4D
100
AcDbEntity
  8
0
  6
Continuous
 62
     7
100
AcDbLine
 10
-74.50238562338006
 20
-543.8889612430196
 30
0.0
 11
-73.99994058615377
 21
-543.9617673455555
 31
0.0
  0
LINE
  5
87
330
4D
100
AcDbEntity
  8
0
  6
Continuous
 62
     7
100
AcDbLine
 10
74.72941139866711
 20
-555.4087482900595
 30
0.0
 11
74.0000594138462
 21
-555.3030625504116
 31
0.0
  0
LINE
  5
88
330
4D
100
AcDbEntity
  8
0
  6
Continuous
 62
     7
100
AcDbLine
 10
74.50250445107159
 20
-560.4280886051442
 30
0.0
 11
74.00005941384619
 21
-560.3552825026084
 31
0.0
  0
LINE
  5
89
330
4D
100
AcDbEntity
  8
0
  6
Continuous
 62
     7
100
AcDbLine
 10
56.60176123243461
 20
-590.4052492147316
 30
0.0
 11
53.14564084637252
 21
-594.7901074097397
 31
0.0
  0
LINE
  5
8A
330
4D
100
AcDbEntity
  8
0
  6
Continuous
 62
     7
100
AcDbLine
 10
-3.25016395213285
 20
-626.8878769089029
 30
0.0
 11
-3.14447821248506
 21
-626.158524924082
 31
0.0
  0
LINE
  5
8B
330
4D
100
AcDbEntity
  8
0
  6
Continuous
 62
     7
100
AcDbLine
 10
-8.26950426721706
 20
-626.6609699613073
 30
0.0
 11
-8.19669816468115
 21
-626.158524924082
 31
0.0
  0
LINE
  5
8C
330
4D
100
AcDbEntity
  8
0
  6
Continuous
 62
     7
100
AcDbLine
 10
-38.24666487680436
 20
-608.7602267426703
 30
0.0
 11
-42.64500357808487
 21
-605.2934810979407
 31
0.0
  0
ARC
  5
8D
330
4D
100
AcDbEntity
  8
0
  6
Continuous
 62
     3
100
AcDbCircle
 10
0.0000594138462
 20
-552.158524924082
 30
0.0
 40
77.00000000000026
100
AcDbArc
 50
73.95376591949817
 51
106.0462340805024
  0
ARC
  5
8E
330
4D
100
AcDbEntity
  8
0
  6
Continuous
 62
     7
100
AcDbCircle
 10
0.00005941388626
 20
-552.1585249240777
 30
0.0
 40
76.00000000000014
100
AcDbArc
 50
96.23037614072136
 51
96.26137646257325
  0
ARC
  5
8F
330
4D
100
AcDbEntity
  8
0
  6
Continuous
 62
     7
100
AcDbCircle
 10
0.0000594138462
 20
-552.158524924082
 30
0.0
 40
76.00000000000004
100
AcDbArc
 50
96.26137646254288
 51
103.1735511072589
  0
ARC
  5
90
330
4D
100
AcDbEntity
  8
0
  6
Continuous
 62
     7
100
AcDbCircle
 10
0.00005941383908
 20
-552.1585249240804
 30
0.0
 40
76.00000000000013
100
AcDbArc
 50
76.82644889273558
 51
79.08024705858678
  0
ARC
  5
91
330
4D
100
AcDbEntity
  8
0
  6
Continuous
 62
     7
100
AcDbCircle
 10
0.0000594138462
 20
-552.158524924082
 30
0.0
 40
76.00000000000024
100
AcDbArc
 50
79.08024705859226
 51
84.4297960340631
  0
ARC
  5
92
330
4D
100
AcDbEntity
  8
0
  6
Continuous
 62
     7
100
AcDbCircle
 10
14.20760684934827
 20
-478.5165152022664
 30
0.0
 40
1.000000000000067
100
AcDbArc
 50
79.08024705859091
 51
159.0231766809956
  0
ARC
  5
93
330
4D
100
AcDbEntity
  8
0
  6
Continuous
 62
     7
100
AcDbCircle
 10
7.2799591358348
 20
-477.5126740009541
 30
0.0
 40
0.9999999999999845
100
AcDbArc
 50
-8.24497845367022
 51
84.42979603406235
  0
ARC
  5
94
330
4D
100
AcDbEntity
  8
0
  6
Continuous
 62
     7
100
AcDbCircle
 10
0.00005941384758
 20
-552.158524924082
 30
0.0
 40
76.00000000000021
100
AcDbArc
 50
84.42979603406414
 51
96.230376140692
  0
ARC
  5
95
330
4D
100
AcDbEntity
  8
0
  6
Continuous
 62
     7
100
AcDbCircle
 10
39.79434650394502
 20
-493.5933951384513
 30
0.0
 40
2.500000000000046
100
AcDbArc
 50
-167.2455950891472
 51
-128.2449784536733
  0
ARC
  5
96
330
4D
100
AcDbEntity
  8
0
  6
Continuous
 62
     7
100
AcDbCircle
 10
-58.56507037178457
 20
-512.3642378339825
 30
0.0
 40
2.500000000000147
100
AcDbArc
 50
-77.2455950891362
 51
-38.2449784536762
  0
ARC
  5
97
330
4D
100
AcDbEntity
  8
0
  6
Continuous
 62
     7
100
AcDbCircle
 10
0.0000594138439
 20
-552.1585249240927
 30
0.0
 40
76.00000000000027
100
AcDbArc
 50
166.8264488927328
 51
169.0802470585836
  0
ARC
  5
98
330
4D
100
AcDbEntity
  8
0
  6
Continuous
 62
     3
100
AcDbCircle
 10
0.0000594138462
 20
-552.158524924082
 30
0.0
 40
77.00000000000054
100
AcDbArc
 50
163.9537659194974
 51
-163.9537659194979
  0
ARC
  5
99
330
4D
100
AcDbEntity
  8
0
  6
Continuous
 62
     7
100
AcDbCircle
 10
0.00005941384667
 20
-552.1585249240861
 30
0.0
 40
76.00000000000004
100
AcDbArc
 50
-173.769623859312
 51
-173.7386235374602
  0
ARC
  5
9A
330
4D
100
AcDbEntity
  8
0
  6
Continuous
 62
     7
100
AcDbCircle
 10
0.00005941384619
 20
-552.1585249240802
 30
0.0
 40
76.00000000000027
100
AcDbArc
 50
174.429796034064
 51
-173.7696238593075
  0
ARC
  5
9B
330
4D
100
AcDbEntity
  8
0
  6
Continuous
 62
     7
100
AcDbCircle
 10
0.0000594138462
 20
-552.158524924082
 30
0.0
 40
76.00000000000007
100
AcDbArc
 50
-173.7386235374571
 51
-166.8264488927412
  0
ARC
  5
9C
330
4D
100
AcDbEntity
  8
0
  6
Continuous
 62
     7
100
AcDbCircle
 10
0.0000594138462
 20
-552.158524924082
 30
0.0
 40
76.0000000000005
100
AcDbArc
 50
169.0802470585919
 51
174.4297960340626
  0
ARC
  5
9D
330
4D
100
AcDbEntity
  8
0
  6
Continuous
 62
     7
100
AcDbCircle
 10
-73.64195030796967
 20
-537.9509774885794
 30
0.0
 40
0.9999999999999606
100
AcDbArc
 50
169.0802470585882
 51
-110.9768233189834
  0
ARC
  5
9E
330
4D
100
AcDbEntity
  8
0
  6
Continuous
 62
     7
100
AcDbCircle
 10
-74.64579150928185
 20
-544.8786252020927
 30
0.0
 40
0.9999999999997998
100
AcDbArc
 50
81.75502154632332
 51
174.4297960340635
  0
ARC
  5
9F
330
4D
100
AcDbEntity
  8
0
  6
Continuous
 62
     7
100
AcDbCircle
 10
70.6160931291839
 20
-557.3388235767836
 30
0.0
 40
2.499999999999971
100
AcDbArc
 50
132.7544049108365
 51
133.2026488315379
  0
ARC
  5
A0
330
4D
100
AcDbEntity
  8
0
  6
Continuous
 62
     7
100
AcDbCircle
 10
0.00005941383847
 20
-552.1585249240113
 30
0.0
 40
76.00000000000001
100
AcDbArc
 50
6.23037614063718
 51
6.26137646248911
  0
ARC
  5
A1
330
4D
100
AcDbEntity
  8
0
  6
Continuous
 62
     7
100
AcDbCircle
 10
0.00005941384619
 20
-552.1585249240802
 30
0.0
 40
75.99999999999976
100
AcDbArc
 50
-5.57020396593848
 51
6.23037614068945
  0
ARC
  5
A2
330
4D
100
AcDbEntity
  8
0
  6
Continuous
 62
     7
100
AcDbCircle
 10
0.0000594138462
 20
-552.158524924082
 30
0.0
 40
76.00000000000004
100
AcDbArc
 50
6.26137646254273
 51
13.17355110725899
  0
ARC
  5
A3
330
4D
100
AcDbEntity
  8
0
  6
Continuous
 62
     7
100
AcDbCircle
 10
74.64591033697332
 20
-559.4384246460709
 30
0.0
 40
1.000000000000017
100
AcDbArc
 50
-98.24497845367159
 51
-5.57020396593603
  0
ARC
  5
A4
330
4D
100
AcDbEntity
  8
0
  6
Continuous
 62
     7
100
AcDbCircle
 10
58.56518919947595
 20
-591.9528120141811
 30
0.0
 40
2.500000000000072
100
AcDbArc
 50
102.7544049108326
 51
141.7550215463283
  0
ARC
  5
A5
330
4D
100
AcDbEntity
  8
0
  6
Continuous
 62
     3
100
AcDbCircle
 10
0.0000594138462
 20
-552.158524924082
 30
0.0
 40
76.99999999999953
100
AcDbArc
 50
-16.04623408050016
 51
16.04623408050065
  0
ARC
  5
A6
330
4D
100
AcDbEntity
  8
0
  6
Continuous
 62
     7
100
AcDbCircle
 10
0.0000594138462
 20
-552.158524924082
 30
0.0
 40
75.99999999999953
100
AcDbArc
 50
-10.91975294140795
 51
-5.57020396593711
  0
ARC
  5
A7
330
4D
100
AcDbEntity
  8
0
  6
Continuous
 62
     7
100
AcDbCircle
 10
73.6420691356611
 20
-566.3660723595842
 30
0.0
 40
1.00000000000003
100
AcDbArc
 50
-10.91975294141104
 51
69.02317668095476
  0
ARC
  5
A8
330
4D
100
AcDbEntity
  8
0
  6
Continuous
 62
     7
100
AcDbCircle
 10
0.0000594138439
 20
-552.1585249240927
 30
0.0
 40
75.9999999999998
100
AcDbArc
 50
-13.17355110725074
 51
-10.91975294139971
  0
ARC
  5
A9
330
4D
100
AcDbEntity
  8
0
  6
Continuous
 62
     7
100
AcDbCircle
 10
0.00005941388413
 20
-552.1585249240779
 30
0.0
 40
76.00000000000004
100
AcDbArc
 50
-83.76962385933822
 51
-83.7386235374863
  0
ARC
  5
AA
330
4D
100
AcDbEntity
  8
0
  6
Continuous
 62
     7
100
AcDbCircle
 10
0.0000594138462
 20
-552.158524924082
 30
0.0
 40
75.99999999999991
100
AcDbArc
 50
-83.73862353745756
 51
-76.82644889274113
  0
ARC
  5
AB
330
4D
100
AcDbEntity
  8
0
  6
Continuous
 62
     7
100
AcDbCircle
 10
0.00005941384758
 20
-552.158524924082
 30
0.0
 40
75.99999999999982
100
AcDbArc
 50
-95.57020396593899
 51
-83.7696238593105
  0
ARC
  5
AC
330
4D
100
AcDbEntity
  8
0
  6
Continuous
 62
     3
100
AcDbCircle
 10
0.0000594138462
 20
-552.158524924082
 30
0.0
 40
76.99999999999982
100
AcDbArc
 50
-106.0462340805009
 51
-73.95376591949976
  0
ARC
  5
AD
330
4D
100
AcDbEntity
  8
0
  6
Continuous
 62
     7
100
AcDbCircle
 10
-7.27984030814366
 20
-626.804375847209
 30
0.0
 40
1.000000000000049
100
AcDbArc
 50
171.755021546327
 51
-95.57020396594025
  0
ARC
  5
AE
330
4D
100
AcDbEntity
  8
0
  6
Continuous
 62
     7
100
AcDbCircle
 10
-39.79422767625377
 20
-610.7236547097116
 30
0.0
 40
2.4999999999999
100
AcDbArc
 50
12.75440491084689
 51
51.75502154632846
  0
ARC
  5
AF
330
4D
100
AcDbEntity
  8
0
  6
Continuous
 62
     7
100
AcDbCircle
 10
0.0000594138462
 20
-552.158524924082
 30
0.0
 40
75.9999999999997
100
AcDbArc
 50
-100.9197529414088
 51
-95.57020396593795
  0
ARC
  5
B0
330
4D
100
AcDbEntity
  8
0
  6
Continuous
 62
     7
100
AcDbCircle
 10
-14.20748802165718
 20
-625.8005346458967
 30
0.0
 40
1.000000000000165
100
AcDbArc
 50
-100.9197529414039
 51
-20.9768233190558
  0
ARC
  5
B1
330
4D
100
AcDbEntity
  8
0
  6
Continuous
 62
     7
100
AcDbCircle
 10
0.00005941383908
 20
-552.1585249240804
 30
0.0
 40
75.99999999999993
100
AcDbArc
 50
-103.1735511072534
 51
-100.9197529414033
  0
ENDBLK
  5
4F
330
4D
100
AcDbEntity
  8
0
100
AcDbBlockEnd
  0
BLOCK
  5
51
330
50
100
AcDbEntity
  8
0
100
AcDbBlockBegin
  2
Dichtring
 70
     0
 71
     0
 10
-59.55135888589726
 20
-611.6145249241256
 30
0.0
  3
Dichtring
  1

  0
ARC
  5
B2
330
50
100
AcDbEntity
  8
0
  6
Continuous
 62
     7
100
AcDbCircle
 10
0.0000594138462
 20
-552.158524924082
 30
0.0
 40
64.75000000015318
100
AcDbArc
 50
54.17522563116204
 51
66.76854349467726
  0
ARC
  5
B3
330
50
100
AcDbEntity
  8
0
  6
Continuous
 62
     7
100
AcDbCircle
 10
0.0000594138462
 20
-552.158524924082
 30
0.0
 40
65.75000000000006
100
AcDbArc
 50
52.98511035927675
 51
64.815602604687
  0
ARC
  5
B4
330
50
100
AcDbEntity
  8
0
  6
Continuous
 62
     7
100
AcDbCircle
 10
0.0000594138462
 20
-552.158524924082
 30
0.0
 40
64.75000000015315
100
AcDbArc
 50
113.2314565053227
 51
125.8247743688379
  0
ARC
  5
B5
330
50
100
AcDbEntity
  8
0
  6
Continuous
 62
     7
100
AcDbCircle
 10
0.0000594138462
 20
-552.158524924082
 30
0.0
 40
65.75000000000006
100
AcDbArc
 50
115.184397395313
 51
127.0148896407232
  0
ARC
  5
B6
330
50
100
AcDbEntity
  8
0
  6
Continuous
 62
     7
100
AcDbCircle
 10
0.0000594138462
 20
-552.158524924082
 30
0.0
 40
64.75000000015314
100
AcDbArc
 50
-156.8841639900006
 51
-144.2530337112078
  0
ARC
  5
B7
330
50
100
AcDbEntity
  8
0
  6
Continuous
 62
     7
100
AcDbCircle
 10
0.0000594138462
 20
-552.158524924082
 30
0.0
 40
65.75
100
AcDbArc
 50
-154.9211051330976
 51
-143.0596018319108
  0
ARC
  5
B8
330
50
100
AcDbEntity
  8
0
  6
Continuous
 62
     7
100
AcDbCircle
 10
0.0000594138462
 20
-552.158524924082
 30
0.0
 40
65.74999999999999
100
AcDbArc
 50
143.0596018319108
 51
154.9211051330976
  0
ARC
  5
B9
330
50
100
AcDbEntity
  8
0
  6
Continuous
 62
     7
100
AcDbCircle
 10
0.0000594138462
 20
-552.158524924082
 30
0.0
 40
64.75000000015312
100
AcDbArc
 50
144.2530337112076
 51
156.8841639900006
  0
ARC
  5
BA
330
50
100
AcDbEntity
  8
0
  6
Continuous
 62
     7
100
AcDbCircle
 10
0.0000594138462
 20
-552.158524924082
 30
0.0
 40
64.75000000015314
100
AcDbArc
 50
23.4445890315676
 51
35.96877848821933
  0
ARC
  5
BB
330
50
100
AcDbEntity
  8
0
  6
Continuous
 62
     7
100
AcDbCircle
 10
0.0000594138462
 20
-552.158524924082
 30
0.0
 40
65.75
100
AcDbArc
 50
-37.15278625376588
 51
-25.37909467669247
  0
ARC
  5
BC
330
50
100
AcDbEntity
  8
0
  6
Continuous
 62
     7
100
AcDbCircle
 10
0.0000594138462
 20
-552.158524924082
 30
0.0
 40
64.75000000015307
100
AcDbArc
 50
-35.96877848821915
 51
-23.4445890315674
  0
ARC
  5
BD
330
50
100
AcDbEntity
  8
0
  6
Continuous
 62
     7
100
AcDbCircle
 10
0.0000594138462
 20
-552.158524924082
 30
0.0
 40
65.75
100
AcDbArc
 50
25.37909467669247
 51
37.1527862537659
  0
ARC
  5
BE
330
50
100
AcDbEntity
  8
0
  6
Continuous
 62
     7
100
AcDbCircle
 10
0.0000594138462
 20
-552.158524924082
 30
0.0
 40
65.74999999999987
100
AcDbArc
 50
-64.72564824662977
 51
-52.92146787990391
  0
ARC
  5
BF
330
50
100
AcDbEntity
  8
0
  6
Continuous
 62
     7
100
AcDbCircle
 10
0.0000594138462
 20
-552.158524924082
 30
0.0
 40
64.75000000015298
100
AcDbArc
 50
-66.67003384348999
 51
-54.10875923655171
  0
ARC
  5
C0
330
50
100
AcDbEntity
  8
0
  6
Continuous
 62
     7
100
AcDbCircle
 10
0.0000594138462
 20
-552.158524924082
 30
0.0
 40
64.75000000015297
100
AcDbArc
 50
-125.8912407634483
 51
-113.32996615651
  0
ARC
  5
C1
330
50
100
AcDbEntity
  8
0
  6
Continuous
 62
     7
100
AcDbCircle
 10
0.0000594138462
 20
-552.158524924082
 30
0.0
 40
65.7499999999998
100
AcDbArc
 50
-127.078532120096
 51
-115.2743517533702
  0
ENDBLK
  5
52
330
50
100
AcDbEntity
  8
0
100
AcDbBlockEnd
  0
BLOCK
  5
54
330
53
100
AcDbEntity
  8
0
100
AcDbBlockBegin
  2
Bitumenmanschette
 70
     0
 71
     0
 10
-249.9999405861538
 20
-802.158524924082
 30
0.0
  3
Bitumenmanschette
  1

  0
LINE
  5
C2
330
53
100
AcDbEntity
  8
1
  6
DOT_CENTER
 62
     2
100
AcDbLine
 10
275.0000594138462
 20
-552.158524924082
 30
0.0
 11
-274.9999405861538
 21
-552.158524924082
 31
0.0
  0
LINE
  5
C3
330
53
100
AcDbEntity
  8
1
  6
DOT_CENTER
 62
     2
100
AcDbLine
 10
0.00005941384617
 20
-277.158524924082
 30
0.0
 11
0.00005941384617
 21
-827.158524924082
 31
0.0
  0
CIRCLE
  5
C4
330
53
100
AcDbEntity
  8
0
  6
Continuous
 62
     7
100
AcDbCircle
 10
0.00005941384617
 20
-552.158524924082
 30
0.0
 40
250.0000000000001
  0
CIRCLE
  5
C5
330
53
100
AcDbEntity
  8
0
  6
Continuous
 62
     7
100
AcDbCircle
 10
0.00005941384617
 20
-552.158524924082
 30
0.0
 40
150.708983721384
  0
CIRCLE
  5
C6
330
53
100
AcDbEntity
  8
0
  6
Continuous
 62
     3
100
AcDbCircle
 10
0.00005941384617
 20
-552.158524924082
 30
0.0
 40
110.6643171948392
  0
ENDBLK
  5
55
330
53
100
AcDbEntity
  8
0
100
AcDbBlockEnd
  0
BLOCK
  5
57
330
56
100
AcDbEntity
  8
0
100
AcDbBlockBegin
  2
62_1H_Koerper
 70
     0
 71
     0
 10
-59.55135888589726
 20
-611.6145249241256
 30
0.0
  3
62_1H_Koerper
  1

  0
ARC
  5
C7
330
56
100
AcDbEntity
  8
0
  6
Continuous
 62
     3
100
AcDbCircle
 10
0.00005941384619
 20
-552.158524924082
 30
0.0
 40
64.11022768434266
100
AcDbArc
 50
54.9750401647776
 51
68.1388648298715
  0
ARC
  5
C8
330
56
100
AcDbEntity
  8
0
  6
Continuous
 62
     7
100
AcDbCircle
 10
0.00005941384619
 20
-552.158524924082
 30
0.0
 40
64.54929299999972
100
AcDbArc
 50
54.42275763732363
 51
67.18714266663478
  0
ARC
  5
C9
330
56
100
AcDbEntity
  8
0
  6
Continuous
 62
     3
100
AcDbCircle
 10
0.00005941384619
 20
-552.158524924082
 30
0.0
 40
64.11022768434266
100
AcDbArc
 50
111.8611351701285
 51
121.4489942589844
  0
ARC
  5
CA
330
56
100
AcDbEntity
  8
0
  6
Continuous
 62
     7
100
AcDbCircle
 10
0.00005941384619
 20
-552.158524924082
 30
0.0
 40
64.54929299999972
100
AcDbArc
 50
112.8128573333652
 51
125.5772423626763
  0
ARC
  5
CB
330
56
100
AcDbEntity
  8
0
  6
Continuous
 62
     3
100
AcDbCircle
 10
0.00005941384619
 20
-552.158524924082
 30
0.0
 40
64.11022768434265
100
AcDbArc
 50
-158.262608440261
 51
-145.0551868215548
  0
ARC
  5
CC
330
56
100
AcDbEntity
  8
0
  6
Continuous
 62
     7
100
AcDbCircle
 10
0.00005941384619
 20
-552.158524924082
 30
0.0
 40
64.54929299999971
100
AcDbArc
 50
-157.3051455872422
 51
-144.5012796680004
  0
ARC
  5
CD
330
56
100
AcDbEntity
  8
0
  6
Continuous
 62
     7
100
AcDbCircle
 10
0.00005941384619
 20
-552.158524924082
 30
0.0
 40
64.54929299999971
100
AcDbArc
 50
144.5012796680004
 51
157.3051455872422
  0
ARC
  5
CE
330
56
100
AcDbEntity
  8
0
  6
Continuous
 62
     3
100
AcDbCircle
 10
0.00005941384619
 20
-552.158524924082
 30
0.0
 40
64.11022768434265
100
AcDbArc
 50
145.0551868215548
 51
158.262608440261
  0
ARC
  5
CF
330
56
100
AcDbEntity
  8
0
  6
Continuous
 62
     3
100
AcDbCircle
 10
0.00005941384619
 20
-552.158524924082
 30
0.0
 40
64.11022768434262
100
AcDbArc
 50
22.08902224447127
 51
35.17326792912198
  0
ARC
  5
D0
330
56
100
AcDbEntity
  8
0
  6
Continuous
 62
     3
100
AcDbCircle
 10
0.00005941384619
 20
-552.158524924082
 30
0.0
 40
64.11022768434258
100
AcDbArc
 50
-35.17326792912198
 51
-22.08902224447127
  0
ARC
  5
D1
330
56
100
AcDbEntity
  8
0
  6
Continuous
 62
     7
100
AcDbCircle
 10
0.00005941384619
 20
-552.158524924082
 30
0.0
 40
64.54929299999968
100
AcDbArc
 50
23.03032160538341
 51
35.72256067707621
  0
ARC
  5
D2
330
56
100
AcDbEntity
  8
0
  6
Continuous
 62
     7
100
AcDbCircle
 10
0.00005941384619
 20
-552.158524924082
 30
0.0
 40
64.54929299999965
100
AcDbArc
 50
-35.72256067707621
 51
-23.03032160538323
  0
ARC
  5
D3
330
56
100
AcDbEntity
  8
0
  6
Continuous
 62
     3
100
AcDbCircle
 10
0.00005941384619
 20
-552.158524924082
 30
0.0
 40
64.11022768434248
100
AcDbArc
 50
-68.03350064708837
 51
-54.90658334899312
  0
ARC
  5
D4
330
56
100
AcDbEntity
  8
0
  6
Continuous
 62
     7
100
AcDbCircle
 10
0.00005941384619
 20
-552.158524924082
 30
0.0
 40
64.54929299999952
100
AcDbArc
 50
-67.08662131492235
 51
-58.5510057410155
  0
ARC
  5
D5
330
56
100
AcDbEntity
  8
0
  6
Continuous
 62
     3
100
AcDbCircle
 10
0.00005941384619
 20
-552.158524924082
 30
0.0
 40
64.11022768434246
100
AcDbArc
 50
-125.0934166510069
 51
-111.9664993529116
  0
ARC
  5
D6
330
56
100
AcDbEntity
  8
0
  6
Continuous
 62
     3
100
AcDbCircle
 10
0.00005941384619
 20
-552.158524924082
 30
0.0
 40
64.11022768434268
100
AcDbArc
 50
121.4489942589844
 51
125.0249598352224
  0
ARC
  5
D7
330
56
100
AcDbEntity
  8
0
  6
Continuous
 62
     7
100
AcDbCircle
 10
0.00005941384619
 20
-552.158524924082
 30
0.0
 40
64.54929299999954
100
AcDbArc
 50
-125.6443164856864
 51
-112.9133786850777
  0
ARC
  5
D8
330
56
100
AcDbEntity
  8
0
  6
Continuous
 62
     7
100
AcDbCircle
 10
0.00005941384619
 20
-552.158524924082
 30
0.0
 40
64.54929299999954
100
AcDbArc
 50
-58.5510057410155
 51
-54.35568351431365
  0
ENDBLK
  5
58
330
56
100
AcDbEntity
  8
0
100
AcDbBlockEnd
  0
BLOCK
  5
5A
330
59
100
AcDbEntity
  8
0
100
AcDbBlockBegin
  2
Dichtung_unten
 70
     0
 71
     0
 10
-59.55135888589726
 20
-611.6145249241256
 30
0.0
  3
Dichtung_unten
  1

  0
ARC
  5
D9
330
59
100
AcDbEntity
  8
0
  6
Continuous
 62
     7
100
AcDbCircle
 10
0.0000594138462
 20
-552.158524924082
 30
0.0
 40
64.75000000015318
100
AcDbArc
 50
54.17522563116204
 51
66.76854349467726
  0
ARC
  5
DA
330
59
100
AcDbEntity
  8
0
  6
Continuous
 62
     7
100
AcDbCircle
 10
0.0000594138462
 20
-552.158524924082
 30
0.0
 40
65.75000000000006
100
AcDbArc
 50
52.98511035927675
 51
64.815602604687
  0
ARC
  5
DB
330
59
100
AcDbEntity
  8
0
  6
Continuous
 62
     7
100
AcDbCircle
 10
0.0000594138462
 20
-552.158524924082
 30
0.0
 40
64.75000000015315
100
AcDbArc
 50
113.2314565053227
 51
125.8247743688379
  0
ARC
  5
DC
330
59
100
AcDbEntity
  8
0
  6
Continuous
 62
     7
100
AcDbCircle
 10
0.0000594138462
 20
-552.158524924082
 30
0.0
 40
65.75000000000006
100
AcDbArc
 50
115.184397395313
 51
127.0148896407232
  0
ARC
  5
DD
330
59
100
AcDbEntity
  8
0
  6
Continuous
 62
     7
100
AcDbCircle
 10
0.0000594138462
 20
-552.158524924082
 30
0.0
 40
64.75000000015314
100
AcDbArc
 50
-156.8841639900006
 51
-144.2530337112078
  0
ARC
  5
DE
330
59
100
AcDbEntity
  8
0
  6
Continuous
 62
     7
100
AcDbCircle
 10
0.0000594138462
 20
-552.158524924082
 30
0.0
 40
65.75
100
AcDbArc
 50
-154.9211051330976
 51
-143.0596018319108
  0
ARC
  5
DF
330
59
100
AcDbEntity
  8
0
  6
Continuous
 62
     7
100
AcDbCircle
 10
0.0000594138462
 20
-552.158524924082
 30
0.0
 40
65.74999999999999
100
AcDbArc
 50
143.0596018319108
 51
154.9211051330976
  0
ARC
  5
E0
330
59
100
AcDbEntity
  8
0
  6
Continuous
 62
     7
100
AcDbCircle
 10
0.0000594138462
 20
-552.158524924082
 30
0.0
 40
64.75000000015312
100
AcDbArc
 50
144.2530337112076
 51
156.8841639900006
  0
ARC
  5
E1
330
59
100
AcDbEntity
  8
0
  6
Continuous
 62
     7
100
AcDbCircle
 10
0.0000594138462
 20
-552.158524924082
 30
0.0
 40
64.75000000015314
100
AcDbArc
 50
23.4445890315676
 51
35.96877848821933
  0
ARC
  5
E2
330
59
100
AcDbEntity
  8
0
  6
Continuous
 62
     7
100
AcDbCircle
 10
0.0000594138462
 20
-552.158524924082
 30
0.0
 40
65.75
100
AcDbArc
 50
-37.15278625376588
 51
-25.37909467669247
  0
ARC
  5
E3
330
59
100
AcDbEntity
  8
0
  6
Continuous
 62
     7
100
AcDbCircle
 10
0.0000594138462
 20
-552.158524924082
 30
0.0
 40
64.75000000015307
100
AcDbArc
 50
-35.96877848821915
 51
-23.4445890315674
  0
ARC
  5
E4
330
59
100
AcDbEntity
  8
0
  6
Continuous
 62
     7
100
AcDbCircle
 10
0.0000594138462
 20
-552.158524924082
 30
0.0
 40
65.75
100
AcDbArc
 50
25.37909467669247
 51
37.1527862537659
  0
ARC
  5
E5
330
59
100
AcDbEntity
  8
0
  6
Continuous
 62
     7
100
AcDbCircle
 10
0.0000594138462
 20
-552.158524924082
 30
0.0
 40
65.74999999999987
100
AcDbArc
 50
-64.72564824662977
 51
-52.92146787990391
  0
ARC
  5
E6
330
59
100
AcDbEntity
  8
0
  6
Continuous
 62
     7
100
AcDbCircle
 10
0.0000594138462
 20
-552.158524924082
 30
0.0
 40
64.75000000015298
100
AcDbArc
 50
-66.67003384348999
 51
-54.10875923655171
  0
ARC
  5
E7
330
59
100
AcDbEntity
  8
0
  6
Continuous
 62
     7
100
AcDbCircle
 10
0.0000594138462
 20
-552.158524924082
 30
0.0
 40
64.75000000015297
100
AcDbArc
 50
-125.8912407634483
 51
-113.32996615651
  0
ARC
  5
E8
330
59
100
AcDbEntity
  8
0
  6
Continuous
 62
     7
100
AcDbCircle
 10
0.0000594138462
 20
-552.158524924082
 30
0.0
 40
65.7499999999998
100
AcDbArc
 50
-127.078532120096
 51
-115.2743517533702
  0
ENDBLK
  5
5B
330
59
100
AcDbEntity
  8
0
100
AcDbBlockEnd
  0
BLOCK
  5
5D
330
5C
100
AcDbEntity
  8
0
100
AcDbBlockBegin
  2
Metallring
 70
     0
 71
     0
 10
-109.9989404861339
 20
-662.157524824062
 30
0.0
  3
Metallring
  1

  0
ARC
  5
E9
330
5C
100
AcDbEntity
  8
0
  6
Continuous
 62
     3
100
AcDbCircle
 10
0.00005941384619
 20
-552.158524924082
 30
0.0
 40
85.37783315493915
100
AcDbArc
 50
60.08147285557546
 51
119.9185271444246
  0
ARC
  5
EA
330
5C
100
AcDbEntity
  8
0
  6
Continuous
 62
     7
100
AcDbCircle
 10
0.00005941388626
 20
-552.1585249240777
 30
0.0
 40
76.00000000000014
100
AcDbArc
 50
96.23037614072136
 51
96.26137646257325
  0
ARC
  5
EB
330
5C
100
AcDbEntity
  8
0
  6
Continuous
 62
     7
100
AcDbCircle
 10
0.00005941384619
 20
-552.158524924082
 30
0.0
 40
76.00000000000004
100
AcDbArc
 50
96.26137646254287
 51
103.1735511072589
  0
ARC
  5
EC
330
5C
100
AcDbEntity
  8
0
  6
Continuous
 62
     7
100
AcDbCircle
 10
0.00005941383908
 20
-552.1585249240804
 30
0.0
 40
76.00000000000013
100
AcDbArc
 50
76.82644889273558
 51
79.08024705858678
  0
ARC
  5
ED
330
5C
100
AcDbEntity
  8
0
  6
Continuous
 62
     7
100
AcDbCircle
 10
0.00005941384619
 20
-552.158524924082
 30
0.0
 40
76.00000000000024
100
AcDbArc
 50
79.08024705859225
 51
84.4297960340631
  0
ARC
  5
EE
330
5C
100
AcDbEntity
  8
0
  6
Continuous
 62
     7
100
AcDbCircle
 10
0.00005941384758
 20
-552.158524924082
 30
0.0
 40
76.00000000000021
100
AcDbArc
 50
84.42979603406414
 51
96.230376140692
  0
ARC
  5
EF
330
5C
100
AcDbEntity
  8
0
  6
Continuous
 62
     7
100
AcDbCircle
 10
0.00005941384619
 20
-552.158524924082
 30
0.0
 40
74.79999999999998
100
AcDbArc
 50
83.67034414070964
 51
98.38725134133472
  0
ARC
  5
F0
330
5C
100
AcDbEntity
  8
0
  6
Continuous
 62
     7
100
AcDbCircle
 10
0.00005941384387
 20
-552.1585249240927
 30
0.0
 40
76.00000000000024
100
AcDbArc
 50
166.8264488927328
 51
169.0802470585836
  0
ARC
  5
F1
330
5C
100
AcDbEntity
  8
0
  6
Continuous
 62
     7
100
AcDbCircle
 10
0.00005941384666
 20
-552.1585249240861
 30
0.0
 40
76.00000000000003
100
AcDbArc
 50
-173.769623859312
 51
-173.7386235374602
  0
ARC
  5
F2
330
5C
100
AcDbEntity
  8
0
  6
Continuous
 62
     7
100
AcDbCircle
 10
0.00005941384619
 20
-552.1585249240802
 30
0.0
 40
76.00000000000027
100
AcDbArc
 50
174.429796034064
 51
-173.7696238593075
  0
ARC
  5
F3
330
5C
100
AcDbEntity
  8
0
  6
Continuous
 62
     7
100
AcDbCircle
 10
0.00005941384619
 20
-552.158524924082
 30
0.0
 40
76.00000000000006
100
AcDbArc
 50
-173.7386235374571
 51
-166.8264488927412
  0
ARC
  5
F4
330
5C
100
AcDbEntity
  8
0
  6
Continuous
 62
     7
100
AcDbCircle
 10
0.00005941384619
 20
-552.158524924082
 30
0.0
 40
76.00000000000048
100
AcDbArc
 50
169.0802470585919
 51
174.4297960340626
  0
ARC
  5
F5
330
5C
100
AcDbEntity
  8
0
  6
Continuous
 62
     3
100
AcDbCircle
 10
0.00005941384619
 20
-552.158524924082
 30
0.0
 40
85.37783315493913
100
AcDbArc
 50
150.0814728555755
 51
-150.0814728555754
  0
ARC
  5
F6
330
5C
100
AcDbEntity
  8
0
  6
Continuous
 62
     7
100
AcDbCircle
 10
0.00005941383847
 20
-552.1585249240113
 30
0.0
 40
76.00000000000001
100
AcDbArc
 50
6.23037614063718
 51
6.26137646248911
  0
ARC
  5
F7
330
5C
100
AcDbEntity
  8
0
  6
Continuous
 62
     7
100
AcDbCircle
 10
0.00005941384619
 20
-552.1585249240802
 30
0.0
 40
75.99999999999976
100
AcDbArc
 50
-5.57020396593848
 51
6.23037614068945
  0
ARC
  5
F8
330
5C
100
AcDbEntity
  8
0
  6
Continuous
 62
     7
100
AcDbCircle
 10
0.00005941384619
 20
-552.158524924082
 30
0.0
 40
76.00000000000006
100
AcDbArc
 50
6.26137646254273
 51
13.17355110725898
  0
ARC
  5
F9
330
5C
100
AcDbEntity
  8
0
  6
Continuous
 62
     3
100
AcDbCircle
 10
0.00005941384619
 20
-552.158524924082
 30
0.0
 40
85.37783315493913
100
AcDbArc
 50
-29.91852714442458
 51
29.91852714442455
  0
ARC
  5
FA
330
5C
100
AcDbEntity
  8
0
  6
Continuous
 62
     7
100
AcDbCircle
 10
0.00005941384619
 20
-552.158524924082
 30
0.0
 40
75.99999999999955
100
AcDbArc
 50
-10.91975294140795
 51
-5.57020396593711
  0
ARC
  5
FB
330
5C
100
AcDbEntity
  8
0
  6
Continuous
 62
     7
100
AcDbCircle
 10
0.00005941384387
 20
-552.1585249240927
 30
0.0
 40
75.99999999999983
100
AcDbArc
 50
-13.17355110725074
 51
-10.91975294139971
  0
ARC
  5
FC
330
5C
100
AcDbEntity
  8
0
  6
Continuous
 62
     7
100
AcDbCircle
 10
0.00005941388413
 20
-552.1585249240779
 30
0.0
 40
76.00000000000004
100
AcDbArc
 50
-83.76962385933822
 51
-83.7386235374863
  0
ARC
  5
FD
330
5C
100
AcDbEntity
  8
0
  6
Continuous
 62
     7
100
AcDbCircle
 10
0.00005941384619
 20
-552.158524924082
 30
0.0
 40
75.99999999999993
100
AcDbArc
 50
-83.73862353745754
 51
-76.82644889274111
  0
ARC
  5
FE
330
5C
100
AcDbEntity
  8
0
  6
Continuous
 62
     7
100
AcDbCircle
 10
0.00005941384619
 20
-552.158524924082
 30
0.0
 40
74.80000000000001
100
AcDbArc
 50
-6.32965585929043
 51
8.38725134133479
  0
ARC
  5
FF
330
5C
100
AcDbEntity
  8
0
  6
Continuous
 62
     7
100
AcDbCircle
 10
0.00005941384758
 20
-552.158524924082
 30
0.0
 40
75.99999999999982
100
AcDbArc
 50
-95.57020396593899
 51
-83.7696238593105
  0
ARC
  5
100
330
5C
100
AcDbEntity
  8
0
  6
Continuous
 62
     7
100
AcDbCircle
 10
0.00005941384619
 20
-552.158524924082
 30
0.0
 40
75.9999999999997
100
AcDbArc
 50
-100.9197529414088
 51
-95.57020396593794
  0
ARC
  5
101
330
5C
100
AcDbEntity
  8
0
  6
Continuous
 62
     7
100
AcDbCircle
 10
0.00005941383908
 20
-552.1585249240804
 30
0.0
 40
75.99999999999993
100
AcDbArc
 50
-103.1735511072534
 51
-100.9197529414033
  0
ARC
  5
102
330
5C
100
AcDbEntity
  8
0
  6
Continuous
 62
     7
100
AcDbCircle
 10
0.00005941384619
 20
-552.158524924082
 30
0.0
 40
74.80000000000008
100
AcDbArc
 50
173.6703441407092
 51
-171.6127486586656
  0
ARC
  5
103
330
5C
100
AcDbEntity
  8
0
  6
Continuous
 62
     7
100
AcDbCircle
 10
0.00005941384619
 20
-552.158524924082
 30
0.0
 40
74.80000000000001
100
AcDbArc
 50
-96.32965585929131
 51
-81.6127486586655
  0
ARC
  5
104
330
5C
100
AcDbEntity
  8
0
  6
Continuous
 62
     3
100
AcDbCircle
 10
0.00005941384619
 20
-552.158524924082
 30
0.0
 40
85.37783315493915
100
AcDbArc
 50
-119.9185271444246
 51
-60.08147285557541
  0
CIRCLE
  5
105
330
5C
100
AcDbEntity
  8
0
  6
Continuous
 62
     7
100
AcDbCircle
 10
0.00005941384619
 20
-552.158524924082
 30
0.0
 40
109.9989998999799
  0
CIRCLE
  5
106
330
5C
100
AcDbEntity
  8
0
  6
Continuous
 62
     7
100
AcDbCircle
 10
0.00005941384619
 20
-552.158524924082
 30
0.0
 40
108.9597979746447
  0
CIRCLE
  5
107
330
5C
100
AcDbEntity
  8
0
  6
Continuous
 62
     7
100
AcDbCircle
 10
0.00005941384619
 20
-552.158524924082
 30
0.0
 40
105.5262389627585
  0
ENDBLK
  5
5E
330
5C
100
AcDbEntity
  8
0
100
AcDbBlockEnd
  0
BLOCK
  5
64
330
5F
100
AcDbEntity
  8
0
100
AcDbBlockBegin
  2
HL62_1H_koerper
 70
     0
 71
     0
 10
-249.9999405861538
 20
-802.158524924082
 30
0.0
  3
HL62_1H_koerper
  1

  0
INSERT
  5
60
330
5F
100
AcDbEntity
  8
0
100
AcDbBlockReference
  2
Bitumenmanschette
 10
-249.9999405861538
 20
-802.158524924082
 30
0.0
  0
INSERT
  5
61
330
5F
100
AcDbEntity
  8
0
100
AcDbBlockReference
  2
62_1H_Koerper
 10
-59.55135888589726
 20
-611.6145249241256
 30
0.0
  0
INSERT
  5
62
330
5F
100
AcDbEntity
  8
0
100
AcDbBlockReference
  2
Dichtung_unten
 10
-59.55135888589726
 20
-611.6145249241256
 30
0.0
  0
INSERT
  5
63
330
5F
100
AcDbEntity
  8
0
100
AcDbBlockReference
  2
Metallring
 10
-109.9989404861339
 20
-662.157524824062
 30
0.0
  0
ENDBLK
  5
65
330
5F
100
AcDbEntity
  8
0
100
AcDbBlockEnd
  0
BLOCK
  5
67
330
66
100
AcDbEntity
  8
0
100
AcDbBlockBegin
  2
HL062B_2E_Aufsatzrahmen
 70
     0
 71
     0
 10
-73.99994058615385
 20
-626.158524924082
 30
0.0
  3
HL062B_2E_Aufsatzrahmen
  1

  0
LINE
  5
108
330
66
100
AcDbEntity
  8
0
  6
Continuous
 62
     7
100
AcDbLine
 10
-68.49994058615417
 20
-620.6585249240816
 30
0.0
 11
-68.49994058615405
 21
-619.2932017819257
 31
0.0
  0
LINE
  5
109
330
66
100
AcDbEntity
  8
0
  6
Continuous
 62
     7
100
AcDbLine
 10
-67.06373065662487
 20
-620.6585249240816
 30
0.0
 11
-68.49994058615417
 21
-620.6585249240816
 31
0.0
  0
LINE
  5
10A
330
66
100
AcDbEntity
  8
0
  6
Continuous
 62
     7
100
AcDbLine
 10
68.50005941384616
 20
-619.0283567631798
 30
0.0
 11
68.50005941384617
 21
-620.658524924082
 31
0.0
  0
LINE
  5
10B
330
66
100
AcDbEntity
  8
0
  6
Continuous
 62
     7
100
AcDbLine
 10
68.50005941384617
 20
-620.658524924082
 30
0.0
 11
66.91701288487708
 21
-620.658524924082
 31
0.0
  0
LINE
  5
10C
330
66
100
AcDbEntity
  8
0
  6
Continuous
 62
     7
100
AcDbLine
 10
-73.99994058615385
 20
-626.158524924082
 30
0.0
 11
74.00005941384619
 21
-626.158524924082
 31
0.0
  0
LINE
  5
10D
330
66
100
AcDbEntity
  8
0
  6
Continuous
 62
     7
100
AcDbLine
 10
68.50005941384688
 20
-483.6585249240827
 30
0.0
 11
68.50005941384677
 21
-485.2446930849865
 31
0.0
  0
LINE
  5
10E
330
66
100
AcDbEntity
  8
0
  6
Continuous
 62
     7
100
AcDbLine
 10
-68.49994058615337
 20
-483.6585249240815
 30
0.0
 11
-67.14284765809606
 21
-483.6585249240816
 31
0.0
  0
LINE
  5
10F
330
66
100
AcDbEntity
  8
0
  6
Continuous
 62
     7
100
AcDbLine
 10
74.00005941384616
 20
-478.158524924082
 30
0.0
 11
-73.99994058615385
 21
-478.158524924082
 31
0.0
  0
LINE
  5
110
330
66
100
AcDbEntity
  8
0
  6
Continuous
 62
     7
100
AcDbLine
 10
14.00005941384688
 20
-482.1585249240822
 30
0.0
 11
14.00005941384686
 21
-483.1585249240819
 31
0.0
  0
LINE
  5
111
330
66
100
AcDbEntity
  8
0
  6
Continuous
 62
     7
100
AcDbLine
 10
-13.99994058615337
 20
-483.158524924082
 30
0.0
 11
-13.99994058615337
 21
-482.158524924082
 31
0.0
  0
LINE
  5
112
330
66
100
AcDbEntity
  8
0
  6
Continuous
 62
     7
100
AcDbLine
 10
14.00005941384688
 20
-482.1585249240822
 30
0.0
 11
-13.99994058615337
 21
-482.158524924082
 31
0.0
  0
LINE
  5
113
330
66
100
AcDbEntity
  8
0
  6
Continuous
 62
     7
100
AcDbLine
 10
70.00005941384616
 20
-482.158524924082
 30
0.0
 11
14.00005941384688
 21
-482.1585249240822
 31
0.0
  0
LINE
  5
114
330
66
100
AcDbEntity
  8
0
  6
Continuous
 62
     7
100
AcDbLine
 10
-69.99994058615385
 20
-566.1585249240818
 30
0.0
 11
-69.99994058615385
 21
-622.158524924082
 31
0.0
  0
LINE
  5
115
330
66
100
AcDbEntity
  8
0
  6
Continuous
 62
     7
100
AcDbLine
 10
-69.99994058615385
 20
-482.158524924082
 30
0.0
 11
-69.99994058615377
 21
-538.1585249240816
 31
0.0
  0
LINE
  5
116
330
66
100
AcDbEntity
  8
0
  6
Continuous
 62
     7
100
AcDbLine
 10
-68.49994058615337
 20
-484.9798480662379
 30
0.0
 11
-68.49994058615337
 21
-483.6585249240815
 31
0.0
  0
LINE
  5
117
330
66
100
AcDbEntity
  8
0
  6
Continuous
 62
     7
100
AcDbLine
 10
-69.99994058615377
 20
-538.1585249240816
 30
0.0
 11
-69.05135888587387
 21
-538.1585249240816
 31
0.0
  0
LINE
  5
118
330
66
100
AcDbEntity
  8
0
  6
Continuous
 62
     7
100
AcDbLine
 10
-69.99994058615377
 20
-538.1585249240816
 30
0.0
 11
-69.99994058615385
 21
-566.1585249240818
 31
0.0
  0
LINE
  5
119
330
66
100
AcDbEntity
  8
0
  6
Continuous
 62
     7
100
AcDbLine
 10
-69.05135888587387
 20
-566.1585249240818
 30
0.0
 11
-69.99994058615385
 21
-566.1585249240818
 31
0.0
  0
LINE
  5
11A
330
66
100
AcDbEntity
  8
0
  6
Continuous
 62
     7
100
AcDbLine
 10
-73.99994058615385
 20
-478.158524924082
 30
0.0
 11
-73.99994058615385
 21
-626.158524924082
 31
0.0
  0
LINE
  5
11B
330
66
100
AcDbEntity
  8
0
  6
Continuous
 62
     7
100
AcDbLine
 10
74.00005941384619
 20
-626.158524924082
 30
0.0
 11
74.00005941384616
 21
-478.158524924082
 31
0.0
  0
LINE
  5
11C
330
66
100
AcDbEntity
  8
0
  6
Continuous
 62
     7
100
AcDbLine
 10
70.00005941384616
 20
-566.158524924082
 30
0.0
 11
68.90464111412633
 21
-566.158524924082
 31
0.0
  0
LINE
  5
11D
330
66
100
AcDbEntity
  8
0
  6
Continuous
 62
     7
100
AcDbLine
 10
70.00005941384616
 20
-566.158524924082
 30
0.0
 11
70.00005941384617
 21
-538.1585249240827
 31
0.0
  0
LINE
  5
11E
330
66
100
AcDbEntity
  8
0
  6
Continuous
 62
     7
100
AcDbLine
 10
70.00005941384616
 20
-622.158524924082
 30
0.0
 11
70.00005941384616
 21
-566.158524924082
 31
0.0
  0
LINE
  5
11F
330
66
100
AcDbEntity
  8
0
  6
Continuous
 62
     7
100
AcDbLine
 10
70.00005941384617
 20
-538.1585249240827
 30
0.0
 11
70.00005941384616
 21
-482.158524924082
 31
0.0
  0
LINE
  5
120
330
66
100
AcDbEntity
  8
0
  6
Continuous
 62
     7
100
AcDbLine
 10
14.00005941384617
 20
-621.1145249240817
 30
0.0
 11
14.00005941384617
 21
-622.158524924082
 31
0.0
  0
LINE
  5
121
330
66
100
AcDbEntity
  8
0
  6
Continuous
 62
     7
100
AcDbLine
 10
14.00005941384617
 20
-622.158524924082
 30
0.0
 11
70.00005941384616
 21
-622.158524924082
 31
0.0
  0
LINE
  5
122
330
66
100
AcDbEntity
  8
0
  6
Continuous
 62
     7
100
AcDbLine
 10
-13.99994058615408
 20
-622.158524924082
 30
0.0
 11
14.00005941384617
 21
-622.158524924082
 31
0.0
  0
LINE
  5
123
330
66
100
AcDbEntity
  8
0
  6
Continuous
 62
     7
100
AcDbLine
 10
-13.99994058615408
 20
-622.158524924082
 30
0.0
 11
-13.99994058615408
 21
-621.1145249240817
 31
0.0
  0
LINE
  5
124
330
66
100
AcDbEntity
  8
0
  6
Continuous
 62
     7
100
AcDbLine
 10
68.90464111412633
 20
-538.1585249240827
 30
0.0
 11
70.00005941384617
 21
-538.1585249240827
 31
0.0
  0
LINE
  5
125
330
66
100
AcDbEntity
  8
0
  6
Continuous
 62
     7
100
AcDbLine
 10
66.9961298863504
 20
-483.6585249240827
 30
0.0
 11
68.50005941384688
 21
-483.6585249240827
 31
0.0
  0
LINE
  5
126
330
66
100
AcDbEntity
  8
0
  6
Continuous
 62
     7
100
AcDbLine
 10
-13.99994058615337
 20
-482.158524924082
 30
0.0
 11
-69.99994058615385
 21
-482.158524924082
 31
0.0
  0
LINE
  5
127
330
66
100
AcDbEntity
  8
0
  6
Continuous
 62
     7
100
AcDbLine
 10
-69.99994058615385
 20
-622.158524924082
 30
0.0
 11
-13.99994058615408
 21
-622.158524924082
 31
0.0
  0
ARC
  5
128
330
66
100
AcDbEntity
  8
0
  6
Continuous
 62
     7
100
AcDbCircle
 10
0.00005941384617
 20
-552.158524924082
 30
0.0
 40
69.00000000000006
100
AcDbArc
 50
120.4220522795564
 51
128.824879715338
  0
ARC
  5
129
330
66
100
AcDbEntity
  8
0
  6
Continuous
 62
     7
100
AcDbCircle
 10
0.00005941384617
 20
-552.158524924082
 30
0.0
 40
68.99999999999991
100
AcDbArc
 50
-38.81275626475976
 51
-30.57816384699131
  0
ARC
  5
12A
330
66
100
AcDbEntity
  8
0
  6
Continuous
 62
     7
100
AcDbCircle
 10
0.00005941384617
 20
-552.158524924082
 30
0.0
 40
69.00000000000001
100
AcDbArc
 50
-3.01355402898573
 51
3.01355402898592
  0
ARC
  5
12B
330
66
100
AcDbEntity
  8
0
  6
Continuous
 62
     7
100
AcDbCircle
 10
0.00005941384617
 20
-552.158524924082
 30
0.0
 40
69.00000000000001
100
AcDbArc
 50
30.57816384699131
 51
38.84158379952694
  0
ARC
  5
12C
330
66
100
AcDbEntity
  8
0
  6
Continuous
 62
     7
100
AcDbCircle
 10
0.00005941384617
 20
-552.158524924082
 30
0.0
 40
69.00000000000004
100
AcDbArc
 50
141.2352800978036
 51
149.6623729724114
  0
ARC
  5
12D
330
66
100
AcDbEntity
  8
0
  6
Continuous
 62
     7
100
AcDbCircle
 10
0.00005941384617
 20
-552.158524924082
 30
0.0
 40
69.0
100
AcDbArc
 50
-90.00000000000003
 51
-87.953732039782
  0
ARC
  5
12E
330
66
100
AcDbEntity
  8
0
  6
Continuous
 62
     7
100
AcDbCircle
 10
0.00005941384617
 20
-552.158524924082
 30
0.0
 40
69.0
100
AcDbArc
 50
51.26969904569735
 51
59.57794772044358
  0
ARC
  5
12F
330
66
100
AcDbEntity
  8
0
  6
Continuous
 62
     7
100
AcDbCircle
 10
0.00005941384617
 20
-552.158524924082
 30
0.0
 40
68.99999999999989
100
AcDbArc
 50
-59.50587065220025
 51
-51.24715311878796
  0
ARC
  5
130
330
66
100
AcDbEntity
  8
0
  6
Continuous
 62
     7
100
AcDbCircle
 10
0.00005941384617
 20
-552.158524924082
 30
0.0
 40
68.99999999999984
100
AcDbArc
 50
-92.04626796021803
 51
-90.00000000000003
  0
ARC
  5
131
330
66
100
AcDbEntity
  8
0
  6
Continuous
 62
     7
100
AcDbCircle
 10
0.00005941384617
 20
-552.158524924082
 30
0.0
 40
69.0
100
AcDbArc
 50
-128.8481741382289
 51
-120.4941293477998
  0
ARC
  5
132
330
66
100
AcDbEntity
  8
0
  6
Continuous
 62
     7
100
AcDbCircle
 10
0.00005941384617
 20
-552.158524924082
 30
0.0
 40
68.99999999999996
100
AcDbArc
 50
-149.6623729724116
 51
-141.2633590903177
  0
ENDBLK
  5
68
330
66
100
AcDbEntity
  8
0
100
AcDbBlockEnd
  0
BLOCK
  5
6A
330
69
100
AcDbEntity
  8
0
100
AcDbBlockBegin
  2
HL0317_1E_Einlaufrost
 70
     0
 71
     0
 10
-69.05135888587387
 20
-621.1145249240819
 30
0.0
  3
HL0317_1E_Einlaufrost
  1

  0
LINE
  5
133
330
69
100
AcDbEntity
  8
0
  6
Continuous
 62
     3
100
AcDbLine
 10
-69.05135888587355
 20
-617.324524924082
 30
0.0
 11
-66.55135888587387
 21
-617.324524924082
 31
0.0
  0
LINE
  5
134
330
69
100
AcDbEntity
  8
0
  6
Continuous
 62
     3
100
AcDbLine
 10
-65.26135888587388
 20
-618.6145249240819
 30
0.0
 11
-65.26135888587388
 21
-621.1145249240817
 31
0.0
  0
LINE
  5
135
330
69
100
AcDbEntity
  8
0
  6
Continuous
 62
     3
100
AcDbLine
 10
-66.17352663360447
 20
-618.2366926718125
 30
0.0
 11
-67.94129358657037
 21
-620.0044596247785
 31
0.0
  0
LINE
  5
136
330
69
100
AcDbEntity
  8
0
  6
Continuous
 62
     3
100
AcDbLine
 10
66.40464111412632
 20
-617.324524924082
 30
0.0
 11
68.90464111412633
 21
-617.324524924082
 31
0.0
  0
LINE
  5
137
330
69
100
AcDbEntity
  8
0
  6
Continuous
 62
     3
100
AcDbLine
 10
66.02680886185695
 20
-618.2366926718125
 30
0.0
 11
67.79457581482359
 21
-620.004459624779
 31
0.0
  0
LINE
  5
138
330
69
100
AcDbEntity
  8
0
  6
Continuous
 62
     3
100
AcDbLine
 10
65.11464111412637
 20
-621.1145249240819
 30
0.0
 11
65.11464111412637
 21
-618.6145249240819
 31
0.0
  0
LINE
  5
139
330
69
100
AcDbEntity
  8
0
  6
Continuous
 62
     7
100
AcDbLine
 10
59.40464111415385
 20
-592.6365249241092
 30
0.0
 11
59.40464111414814
 21
-511.6365249241092
 31
0.0
  0
LINE
  5
13A
330
69
100
AcDbEntity
  8
0
  6
Continuous
 62
     7
100
AcDbLine
 10
52.40464111415247
 20
-511.6365249241092
 30
0.0
 11
52.40464111414815
 21
-592.6365249241092
 31
0.0
  0
LINE
  5
13B
330
69
100
AcDbEntity
  8
0
  6
Continuous
 62
     3
100
AcDbLine
 10
65.11464111412636
 20
-483.158524924082
 30
0.0
 11
65.11464111412634
 21
-485.6585249240818
 31
0.0
  0
LINE
  5
13C
330
69
100
AcDbEntity
  8
0
  6
Continuous
 62
     3
100
AcDbLine
 10
68.90464111412632
 20
-486.9485249240818
 30
0.0
 11
66.4046411141263
 21
-486.9485249240818
 31
0.0
  0
LINE
  5
13D
330
69
100
AcDbEntity
  8
0
  6
Continuous
 62
     3
100
AcDbLine
 10
66.02680886185692
 20
-486.0363571763512
 30
0.0
 11
67.79457581482336
 21
-484.2685902233848
 31
0.0
  0
LINE
  5
13E
330
69
100
AcDbEntity
  8
0
  6
Continuous
 62
     3
100
AcDbLine
 10
-66.55135888587387
 20
-486.9485249240818
 30
0.0
 11
-69.05135888587387
 21
-486.9485249240818
 31
0.0
  0
LINE
  5
13F
330
69
100
AcDbEntity
  8
0
  6
Continuous
 62
     3
100
AcDbLine
 10
-65.26135888587388
 20
-483.1585249240821
 30
0.0
 11
-65.26135888587388
 21
-485.6585249240818
 31
0.0
  0
LINE
  5
140
330
69
100
AcDbEntity
  8
0
  6
Continuous
 62
     3
100
AcDbLine
 10
-66.17352663360447
 20
-486.0363571763512
 30
0.0
 11
-67.94129358657037
 21
-484.2685902233854
 31
0.0
  0
LINE
  5
141
330
69
100
AcDbEntity
  8
0
  6
Continuous
 62
     7
100
AcDbLine
 10
-65.26135888587388
 20
-483.1585249240821
 30
0.0
 11
65.11464111412636
 21
-483.158524924082
 31
0.0
  0
LINE
  5
142
330
69
100
AcDbEntity
  8
0
  6
Continuous
 62
     3
100
AcDbLine
 10
-40.57335888586826
 20
-490.1585249240818
 30
0.0
 11
40.42664111413173
 21
-490.1585249240818
 31
0.0
  0
LINE
  5
143
330
69
100
AcDbEntity
  8
0
  6
Continuous
 62
     7
100
AcDbLine
 10
-40.57335888586826
 20
-499.6585249240818
 30
0.0
 11
40.42664111413173
 21
-499.6585249240818
 31
0.0
  0
LINE
  5
144
330
69
100
AcDbEntity
  8
0
  6
Continuous
 62
     7
100
AcDbLine
 10
40.42664111413173
 20
-492.6585249240818
 30
0.0
 11
-40.57335888586826
 21
-492.658524924082
 31
0.0
  0
LINE
  5
145
330
69
100
AcDbEntity
  8
0
  6
Continuous
 62
     3
100
AcDbLine
 10
24.4266411141299
 20
-506.1585249240818
 30
0.0
 11
24.4266411141299
 21
-508.6585249240761
 31
0.0
  0
LINE
  5
146
330
69
100
AcDbEntity
  8
0
  6
Continuous
 62
     3
100
AcDbLine
 10
40.42664111413173
 20
-490.1585249240818
 30
0.0
 11
40.42664111413173
 21
-492.6585249240818
 31
0.0
  0
LINE
  5
147
330
69
100
AcDbEntity
  8
0
  6
Continuous
 62
     3
100
AcDbLine
 10
14.42664111412854
 20
-528.1585249240818
 30
0.0
 11
11.92664111412921
 21
-528.1585249240818
 31
0.0
  0
LINE
  5
148
330
69
100
AcDbEntity
  8
0
  6
Continuous
 62
     3
100
AcDbLine
 10
8.42664111412854
 20
-522.1585249240818
 30
0.0
 11
8.42664111412854
 21
-524.6585249240766
 31
0.0
  0
LINE
  5
149
330
69
100
AcDbEntity
  8
0
  6
Continuous
 62
     3
100
AcDbLine
 10
-40.57335888586826
 20
-490.1585249240818
 30
0.0
 11
-40.57335888586826
 21
-492.658524924082
 31
0.0
  0
LINE
  5
14A
330
69
100
AcDbEntity
  8
0
  6
Continuous
 62
     7
100
AcDbLine
 10
24.4266411141299
 20
-508.6585249240761
 30
0.0
 11
-24.57335888587011
 21
-508.658524924082
 31
0.0
  0
LINE
  5
14B
330
69
100
AcDbEntity
  8
0
  6
Continuous
 62
     7
100
AcDbLine
 10
8.42664111412854
 20
-524.6585249240766
 30
0.0
 11
-8.57335888587102
 21
-524.658524924082
 31
0.0
  0
LINE
  5
14C
330
69
100
AcDbEntity
  8
0
  6
Continuous
 62
     3
100
AcDbLine
 10
8.42664111412854
 20
-531.6585249240818
 30
0.0
 11
8.42664111412854
 21
-534.1585249240818
 31
0.0
  0
LINE
  5
14D
330
69
100
AcDbEntity
  8
0
  6
Continuous
 62
     3
100
AcDbLine
 10
-8.57335888587102
 20
-524.658524924082
 30
0.0
 11
-8.57335888587102
 21
-522.1585249240818
 31
0.0
  0
LINE
  5
14E
330
69
100
AcDbEntity
  8
0
  6
Continuous
 62
     3
100
AcDbLine
 10
30.4266411141299
 20
-512.1585249240818
 30
0.0
 11
27.92664111413036
 21
-512.1585249240818
 31
0.0
  0
LINE
  5
14F
330
69
100
AcDbEntity
  8
0
  6
Continuous
 62
     3
100
AcDbLine
 10
24.42664111412989
 20
-515.658524924082
 30
0.0
 11
24.4266411141299
 21
-518.1585249240818
 31
0.0
  0
LINE
  5
150
330
69
100
AcDbEntity
  8
0
  6
Continuous
 62
     3
100
AcDbLine
 10
-24.57335888587011
 20
-506.1585249240818
 30
0.0
 11
24.4266411141299
 21
-506.1585249240818
 31
0.0
  0
LINE
  5
151
330
69
100
AcDbEntity
  8
0
  6
Continuous
 62
     3
100
AcDbLine
 10
-8.57335888587102
 20
-522.1585249240818
 30
0.0
 11
8.42664111412854
 21
-522.1585249240818
 31
0.0
  0
LINE
  5
152
330
69
100
AcDbEntity
  8
0
  6
Continuous
 62
     3
100
AcDbLine
 10
-24.57335888587011
 20
-508.658524924082
 30
0.0
 11
-24.57335888587011
 21
-506.1585249240818
 31
0.0
  0
LINE
  5
153
330
69
100
AcDbEntity
  8
0
  6
Continuous
 62
     3
100
AcDbLine
 10
-46.57335888586826
 20
-496.1585249240818
 30
0.0
 11
-44.07335888586826
 21
-496.1585249240818
 31
0.0
  0
LINE
  5
154
330
69
100
AcDbEntity
  8
0
  6
Continuous
 62
     3
100
AcDbLine
 10
46.42664111413173
 20
-496.1585249240818
 30
0.0
 11
43.92664111413173
 21
-496.1585249240818
 31
0.0
  0
LINE
  5
155
330
69
100
AcDbEntity
  8
0
  6
Continuous
 62
     3
100
AcDbLine
 10
40.42664111413173
 20
-502.1585249240818
 30
0.0
 11
40.42664111413173
 21
-499.6585249240818
 31
0.0
  0
LINE
  5
156
330
69
100
AcDbEntity
  8
0
  6
Continuous
 62
     3
100
AcDbLine
 10
40.42664111413173
 20
-502.1585249240818
 30
0.0
 11
-40.57335888586826
 21
-502.1585249240818
 31
0.0
  0
LINE
  5
157
330
69
100
AcDbEntity
  8
0
  6
Continuous
 62
     3
100
AcDbLine
 10
-40.57335888586826
 20
-499.6585249240818
 30
0.0
 11
-40.57335888586826
 21
-502.1585249240818
 31
0.0
  0
LINE
  5
158
330
69
100
AcDbEntity
  8
0
  6
Continuous
 62
     7
100
AcDbLine
 10
-24.57335888587011
 20
-515.658524924082
 30
0.0
 11
24.42664111412989
 21
-515.658524924082
 31
0.0
  0
LINE
  5
159
330
69
100
AcDbEntity
  8
0
  6
Continuous
 62
     3
100
AcDbLine
 10
-30.57335888587006
 20
-512.1585249240818
 30
0.0
 11
-28.07335888587011
 21
-512.1585249240818
 31
0.0
  0
LINE
  5
15A
330
69
100
AcDbEntity
  8
0
  6
Continuous
 62
     3
100
AcDbLine
 10
17.90464111414816
 20
-543.6365249241064
 30
0.0
 11
20.40464111414679
 21
-543.6365249241064
 31
0.0
  0
LINE
  5
15B
330
69
100
AcDbEntity
  8
0
  6
Continuous
 62
     3
100
AcDbLine
 10
23.90464111414816
 20
-537.6365249241064
 30
0.0
 11
23.90464111414816
 21
-540.1365249241064
 31
0.0
  0
LINE
  5
15C
330
69
100
AcDbEntity
  8
0
  6
Continuous
 62
     3
100
AcDbLine
 10
-66.55135888587387
 20
-486.9485249240818
 30
0.0
 11
-66.55135888587387
 21
-617.324524924082
 31
0.0
  0
LINE
  5
15D
330
69
100
AcDbEntity
  8
0
  6
Continuous
 62
     7
100
AcDbLine
 10
-69.05135888587355
 20
-617.324524924082
 30
0.0
 11
-69.05135888587387
 21
-486.9485249240818
 31
0.0
  0
LINE
  5
15E
330
69
100
AcDbEntity
  8
0
  6
Continuous
 62
     3
100
AcDbLine
 10
-50.05135888589587
 20
-592.6365249240982
 30
0.0
 11
-52.55135888589607
 21
-592.6365249240982
 31
0.0
  0
LINE
  5
15F
330
69
100
AcDbEntity
  8
0
  6
Continuous
 62
     3
100
AcDbLine
 10
-62.05135888589587
 20
-592.6365249240982
 30
0.0
 11
-59.55135888589587
 21
-592.6365249240982
 31
0.0
  0
LINE
  5
160
330
69
100
AcDbEntity
  8
0
  6
Continuous
 62
     3
100
AcDbLine
 10
-56.05135888589587
 20
-598.6365249240982
 30
0.0
 11
-56.05135888589587
 21
-596.1365249240982
 31
0.0
  0
LINE
  5
161
330
69
100
AcDbEntity
  8
0
  6
Continuous
 62
     3
100
AcDbLine
 10
-24.05135888589564
 20
-566.636524924101
 30
0.0
 11
-24.05135888589564
 21
-564.136524924101
 31
0.0
  0
LINE
  5
162
330
69
100
AcDbEntity
  8
0
  6
Continuous
 62
     3
100
AcDbLine
 10
-62.05135888589587
 20
-511.6365249240982
 30
0.0
 11
-59.55135888589726
 21
-511.6365249240982
 31
0.0
  0
LINE
  5
163
330
69
100
AcDbEntity
  8
0
  6
Continuous
 62
     3
100
AcDbLine
 10
-52.55135888589607
 20
-511.6365249240982
 30
0.0
 11
-50.05135888589587
 21
-511.6365249240982
 31
0.0
  0
LINE
  5
164
330
69
100
AcDbEntity
  8
0
  6
Continuous
 62
     3
100
AcDbLine
 10
-56.05135888589587
 20
-505.6365249240985
 30
0.0
 11
-56.05135888589587
 21
-508.1365249240985
 31
0.0
  0
LINE
  5
165
330
69
100
AcDbEntity
  8
0
  6
Continuous
 62
     3
100
AcDbLine
 10
-50.05135888589587
 20
-511.6365249240982
 30
0.0
 11
-50.05135888589587
 21
-592.6365249240982
 31
0.0
  0
LINE
  5
166
330
69
100
AcDbEntity
  8
0
  6
Continuous
 62
     7
100
AcDbLine
 10
-59.55135888589726
 20
-511.6365249240982
 30
0.0
 11
-59.55135888589587
 21
-592.6365249240982
 31
0.0
  0
LINE
  5
167
330
69
100
AcDbEntity
  8
0
  6
Continuous
 62
     3
100
AcDbLine
 10
-62.05135888589587
 20
-592.6365249240982
 30
0.0
 11
-62.05135888589587
 21
-511.6365249240982
 31
0.0
  0
LINE
  5
168
330
69
100
AcDbEntity
  8
0
  6
Continuous
 62
     3
100
AcDbLine
 10
-40.05135888589567
 20
-521.6365249241001
 30
0.0
 11
-40.05135888589567
 21
-524.1365249241001
 31
0.0
  0
LINE
  5
169
330
69
100
AcDbEntity
  8
0
  6
Continuous
 62
     3
100
AcDbLine
 10
-46.05135888589587
 20
-576.6365249241001
 30
0.0
 11
-46.05135888589567
 21
-527.6365249241001
 31
0.0
  0
LINE
  5
16A
330
69
100
AcDbEntity
  8
0
  6
Continuous
 62
     3
100
AcDbLine
 10
-34.05135888589567
 20
-527.6365249241001
 30
0.0
 11
-36.55135888589547
 21
-527.6365249241001
 31
0.0
  0
LINE
  5
16B
330
69
100
AcDbEntity
  8
0
  6
Continuous
 62
     3
100
AcDbLine
 10
-30.05135888589567
 20
-543.636524924101
 30
0.0
 11
-27.5513588858945
 21
-543.636524924101
 31
0.0
  0
LINE
  5
16C
330
69
100
AcDbEntity
  8
0
  6
Continuous
 62
     3
100
AcDbLine
 10
-24.05135888589564
 20
-537.636524924101
 30
0.0
 11
-24.05135888589564
 21
-540.136524924101
 31
0.0
  0
LINE
  5
16D
330
69
100
AcDbEntity
  8
0
  6
Continuous
 62
     7
100
AcDbLine
 10
-43.55135888589926
 20
-527.6365249241001
 30
0.0
 11
-43.55135888589567
 21
-576.6365249241001
 31
0.0
  0
LINE
  5
16E
330
69
100
AcDbEntity
  8
0
  6
Continuous
 62
     3
100
AcDbLine
 10
-30.05135888589567
 20
-560.636524924101
 30
0.0
 11
-30.05135888589567
 21
-543.636524924101
 31
0.0
  0
LINE
  5
16F
330
69
100
AcDbEntity
  8
0
  6
Continuous
 62
     3
100
AcDbLine
 10
-18.05135888589564
 20
-543.636524924101
 30
0.0
 11
-20.55135888589655
 21
-543.636524924101
 31
0.0
  0
LINE
  5
170
330
69
100
AcDbEntity
  8
0
  6
Continuous
 62
     3
100
AcDbLine
 10
-46.05135888589587
 20
-576.6365249241001
 30
0.0
 11
-43.55135888589567
 21
-576.6365249241001
 31
0.0
  0
LINE
  5
171
330
69
100
AcDbEntity
  8
0
  6
Continuous
 62
     3
100
AcDbLine
 10
-46.05135888589567
 20
-527.6365249241001
 30
0.0
 11
-43.55135888589926
 21
-527.6365249241001
 31
0.0
  0
LINE
  5
172
330
69
100
AcDbEntity
  8
0
  6
Continuous
 62
     7
100
AcDbLine
 10
-52.55135888589607
 20
-592.6365249240982
 30
0.0
 11
-52.55135888589607
 21
-511.6365249240982
 31
0.0
  0
LINE
  5
173
330
69
100
AcDbEntity
  8
0
  6
Continuous
 62
     3
100
AcDbLine
 10
-30.05135888589567
 20
-560.636524924101
 30
0.0
 11
-27.55135888589541
 21
-560.636524924101
 31
0.0
  0
LINE
  5
174
330
69
100
AcDbEntity
  8
0
  6
Continuous
 62
     7
100
AcDbLine
 10
-27.5513588858945
 20
-543.636524924101
 30
0.0
 11
-27.55135888589541
 21
-560.636524924101
 31
0.0
  0
LINE
  5
175
330
69
100
AcDbEntity
  8
0
  6
Continuous
 62
     3
100
AcDbLine
 10
-40.05135888589567
 20
-582.6365249241003
 30
0.0
 11
-40.05135888589567
 21
-580.1365249241005
 31
0.0
  0
LINE
  5
176
330
69
100
AcDbEntity
  8
0
  6
Continuous
 62
     7
100
AcDbLine
 10
-36.55135888589996
 20
-576.6365249241001
 30
0.0
 11
-36.55135888589547
 21
-527.6365249241001
 31
0.0
  0
LINE
  5
177
330
69
100
AcDbEntity
  8
0
  6
Continuous
 62
     3
100
AcDbLine
 10
-34.05135888589567
 20
-527.6365249241001
 30
0.0
 11
-34.05135888589547
 21
-576.6365249241001
 31
0.0
  0
LINE
  5
178
330
69
100
AcDbEntity
  8
0
  6
Continuous
 62
     3
100
AcDbLine
 10
-34.05135888589547
 20
-576.6365249241001
 30
0.0
 11
-36.55135888589996
 21
-576.6365249241001
 31
0.0
  0
LINE
  5
179
330
69
100
AcDbEntity
  8
0
  6
Continuous
 62
     3
100
AcDbLine
 10
-14.57335888587102
 20
-528.1585249240818
 30
0.0
 11
-12.07335888587102
 21
-528.1585249240818
 31
0.0
  0
LINE
  5
17A
330
69
100
AcDbEntity
  8
0
  6
Continuous
 62
     3
100
AcDbLine
 10
-8.57335888587102
 20
-534.1585249240818
 30
0.0
 11
-8.57335888587102
 21
-531.6585249240804
 31
0.0
  0
LINE
  5
17B
330
69
100
AcDbEntity
  8
0
  6
Continuous
 62
     7
100
AcDbLine
 10
-20.55135888589655
 20
-560.636524924101
 30
0.0
 11
-20.55135888589655
 21
-543.636524924101
 31
0.0
  0
LINE
  5
17C
330
69
100
AcDbEntity
  8
0
  6
Continuous
 62
     3
100
AcDbLine
 10
-18.05135888589564
 20
-543.636524924101
 30
0.0
 11
-18.05135888589564
 21
-560.636524924101
 31
0.0
  0
LINE
  5
17D
330
69
100
AcDbEntity
  8
0
  6
Continuous
 62
     3
100
AcDbLine
 10
-18.05135888589564
 20
-560.636524924101
 30
0.0
 11
-20.55135888589655
 21
-560.636524924101
 31
0.0
  0
LINE
  5
17E
330
69
100
AcDbEntity
  8
0
  6
Continuous
 62
     3
100
AcDbLine
 10
-24.57335888587011
 20
-518.1585249240818
 30
0.0
 11
-24.57335888587011
 21
-515.658524924082
 31
0.0
  0
LINE
  5
17F
330
69
100
AcDbEntity
  8
0
  6
Continuous
 62
     7
100
AcDbLine
 10
68.90464111412632
 20
-486.9485249240818
 30
0.0
 11
68.90464111412633
 21
-617.324524924082
 31
0.0
  0
LINE
  5
180
330
69
100
AcDbEntity
  8
0
  6
Continuous
 62
     3
100
AcDbLine
 10
49.90464111414815
 20
-592.6365249241092
 30
0.0
 11
49.90464111414815
 21
-511.6365249241092
 31
0.0
  0
LINE
  5
181
330
69
100
AcDbEntity
  8
0
  6
Continuous
 62
     7
100
AcDbLine
 10
36.40464111414315
 20
-527.6365249241073
 30
0.0
 11
36.40464111414816
 21
-576.6365249241073
 31
0.0
  0
LINE
  5
182
330
69
100
AcDbEntity
  8
0
  6
Continuous
 62
     3
100
AcDbLine
 10
33.90464111414816
 20
-576.6365249241073
 30
0.0
 11
33.90464111414816
 21
-527.6365249241073
 31
0.0
  0
LINE
  5
183
330
69
100
AcDbEntity
  8
0
  6
Continuous
 62
     3
100
AcDbLine
 10
23.90464111414816
 20
-566.6365249241064
 30
0.0
 11
23.90464111414816
 21
-564.136524924106
 31
0.0
  0
LINE
  5
184
330
69
100
AcDbEntity
  8
0
  6
Continuous
 62
     3
100
AcDbLine
 10
17.90464111414816
 20
-560.6365249241064
 30
0.0
 11
20.40464111414816
 21
-560.6365249241064
 31
0.0
  0
LINE
  5
185
330
69
100
AcDbEntity
  8
0
  6
Continuous
 62
     7
100
AcDbLine
 10
27.40464111414679
 20
-560.6365249241064
 30
0.0
 11
27.40464111414794
 21
-543.6365249241064
 31
0.0
  0
LINE
  5
186
330
69
100
AcDbEntity
  8
0
  6
Continuous
 62
     3
100
AcDbLine
 10
29.90464111414816
 20
-543.6365249241064
 30
0.0
 11
27.40464111414794
 21
-543.6365249241064
 31
0.0
  0
LINE
  5
187
330
69
100
AcDbEntity
  8
0
  6
Continuous
 62
     3
100
AcDbLine
 10
29.90464111414816
 20
-560.6365249241064
 30
0.0
 11
27.40464111414679
 21
-560.6365249241064
 31
0.0
  0
LINE
  5
188
330
69
100
AcDbEntity
  8
0
  6
Continuous
 62
     3
100
AcDbLine
 10
39.90464111414815
 20
-521.6365249241073
 30
0.0
 11
39.90464111414815
 21
-524.1365249241073
 31
0.0
  0
LINE
  5
189
330
69
100
AcDbEntity
  8
0
  6
Continuous
 62
     3
100
AcDbLine
 10
61.90464111414814
 20
-511.6365249241092
 30
0.0
 11
61.90464111414816
 21
-592.6365249241092
 31
0.0
  0
LINE
  5
18A
330
69
100
AcDbEntity
  8
0
  6
Continuous
 62
     3
100
AcDbLine
 10
61.90464111414816
 20
-592.6365249241092
 30
0.0
 11
59.40464111415385
 21
-592.6365249241092
 31
0.0
  0
LINE
  5
18B
330
69
100
AcDbEntity
  8
0
  6
Continuous
 62
     3
100
AcDbLine
 10
45.90464111414816
 20
-576.6365249241073
 30
0.0
 11
43.40464111414815
 21
-576.6365249241073
 31
0.0
  0
LINE
  5
18C
330
69
100
AcDbEntity
  8
0
  6
Continuous
 62
     7
100
AcDbLine
 10
43.40464111414815
 20
-576.6365249241073
 30
0.0
 11
43.40464111414838
 21
-527.6365249241073
 31
0.0
  0
LINE
  5
18D
330
69
100
AcDbEntity
  8
0
  6
Continuous
 62
     3
100
AcDbLine
 10
45.90464111414815
 20
-527.6365249241073
 30
0.0
 11
45.90464111414816
 21
-576.6365249241073
 31
0.0
  0
LINE
  5
18E
330
69
100
AcDbEntity
  8
0
  6
Continuous
 62
     3
100
AcDbLine
 10
43.40464111414838
 20
-527.6365249241073
 30
0.0
 11
45.90464111414815
 21
-527.6365249241073
 31
0.0
  0
LINE
  5
18F
330
69
100
AcDbEntity
  8
0
  6
Continuous
 62
     3
100
AcDbLine
 10
29.90464111414816
 20
-543.6365249241064
 30
0.0
 11
29.90464111414816
 21
-560.6365249241064
 31
0.0
  0
LINE
  5
190
330
69
100
AcDbEntity
  8
0
  6
Continuous
 62
     3
100
AcDbLine
 10
59.40464111414814
 20
-511.6365249241092
 30
0.0
 11
61.90464111414814
 21
-511.6365249241092
 31
0.0
  0
LINE
  5
191
330
69
100
AcDbEntity
  8
0
  6
Continuous
 62
     3
100
AcDbLine
 10
39.90464111414816
 20
-582.6365249241073
 30
0.0
 11
39.90464111414815
 21
-580.1365249241076
 31
0.0
  0
LINE
  5
192
330
69
100
AcDbEntity
  8
0
  6
Continuous
 62
     3
100
AcDbLine
 10
33.90464111414816
 20
-576.6365249241073
 30
0.0
 11
36.40464111414816
 21
-576.6365249241073
 31
0.0
  0
LINE
  5
193
330
69
100
AcDbEntity
  8
0
  6
Continuous
 62
     3
100
AcDbLine
 10
49.90464111414815
 20
-592.6365249241092
 30
0.0
 11
52.40464111414815
 21
-592.6365249241092
 31
0.0
  0
LINE
  5
194
330
69
100
AcDbEntity
  8
0
  6
Continuous
 62
     3
100
AcDbLine
 10
55.90464111414818
 20
-598.6365249241092
 30
0.0
 11
55.90464111414816
 21
-596.1365249241094
 31
0.0
  0
LINE
  5
195
330
69
100
AcDbEntity
  8
0
  6
Continuous
 62
     3
100
AcDbLine
 10
8.42664111412353
 20
-570.1145249241256
 30
0.0
 11
8.42664111412353
 21
-572.6145249241254
 31
0.0
  0
LINE
  5
196
330
69
100
AcDbEntity
  8
0
  6
Continuous
 62
     3
100
AcDbLine
 10
14.42664111412353
 20
-576.1145249241256
 30
0.0
 11
11.92664111412353
 21
-576.1145249241256
 31
0.0
  0
LINE
  5
197
330
69
100
AcDbEntity
  8
0
  6
Continuous
 62
     3
100
AcDbLine
 10
66.40464111412632
 20
-617.324524924082
 30
0.0
 11
66.4046411141263
 21
-486.9485249240818
 31
0.0
  0
LINE
  5
198
330
69
100
AcDbEntity
  8
0
  6
Continuous
 62
     3
100
AcDbLine
 10
55.90464111414816
 20
-505.6365249241092
 30
0.0
 11
55.90464111414816
 21
-508.1365249241092
 31
0.0
  0
LINE
  5
199
330
69
100
AcDbEntity
  8
0
  6
Continuous
 62
     3
100
AcDbLine
 10
49.90464111414815
 20
-511.6365249241092
 30
0.0
 11
52.40464111415247
 21
-511.6365249241092
 31
0.0
  0
LINE
  5
19A
330
69
100
AcDbEntity
  8
0
  6
Continuous
 62
     3
100
AcDbLine
 10
33.90464111414816
 20
-527.6365249241073
 30
0.0
 11
36.40464111414315
 21
-527.6365249241073
 31
0.0
  0
LINE
  5
19B
330
69
100
AcDbEntity
  8
0
  6
Continuous
 62
     3
100
AcDbLine
 10
-40.57335888587916
 20
-602.1145249241256
 30
0.0
 11
40.42664111412083
 21
-602.1145249241256
 31
0.0
  0
LINE
  5
19C
330
69
100
AcDbEntity
  8
0
  6
Continuous
 62
     3
100
AcDbLine
 10
40.42664111412083
 20
-614.1145249241256
 30
0.0
 11
-40.57335888587916
 21
-614.1145249241256
 31
0.0
  0
LINE
  5
19D
330
69
100
AcDbEntity
  8
0
  6
Continuous
 62
     7
100
AcDbLine
 10
24.42664111412218
 20
-588.6145249241313
 30
0.0
 11
-24.57335888587784
 21
-588.6145249241258
 31
0.0
  0
LINE
  5
19E
330
69
100
AcDbEntity
  8
0
  6
Continuous
 62
     7
100
AcDbLine
 10
-24.57335888587784
 20
-595.6145249241108
 30
0.0
 11
24.42664111412218
 21
-595.6145249241258
 31
0.0
  0
LINE
  5
19F
330
69
100
AcDbEntity
  8
0
  6
Continuous
 62
     3
100
AcDbLine
 10
24.42664111412218
 20
-598.1145249241256
 30
0.0
 11
-24.57335888587784
 21
-598.1145249241256
 31
0.0
  0
LINE
  5
1A0
330
69
100
AcDbEntity
  8
0
  6
Continuous
 62
     3
100
AcDbLine
 10
-24.57335888587784
 20
-586.1145249241256
 30
0.0
 11
24.42664111412218
 21
-586.1145249241256
 31
0.0
  0
LINE
  5
1A1
330
69
100
AcDbEntity
  8
0
  6
Continuous
 62
     7
100
AcDbLine
 10
-8.57335888587647
 20
-579.6145249241256
 30
0.0
 11
8.42664111412353
 21
-579.6145249241256
 31
0.0
  0
LINE
  5
1A2
330
69
100
AcDbEntity
  8
0
  6
Continuous
 62
     3
100
AcDbLine
 10
8.42664111412353
 20
-582.1145249241256
 30
0.0
 11
-8.57335888587647
 21
-582.1145249241256
 31
0.0
  0
LINE
  5
1A3
330
69
100
AcDbEntity
  8
0
  6
Continuous
 62
     3
100
AcDbLine
 10
8.42664111412353
 20
-579.6145249241256
 30
0.0
 11
8.42664111412353
 21
-582.1145249241256
 31
0.0
  0
LINE
  5
1A4
330
69
100
AcDbEntity
  8
0
  6
Continuous
 62
     3
100
AcDbLine
 10
-8.57335888587647
 20
-579.6145249241256
 30
0.0
 11
-8.57335888587647
 21
-582.1145249241256
 31
0.0
  0
LINE
  5
1A5
330
69
100
AcDbEntity
  8
0
  6
Continuous
 62
     3
100
AcDbLine
 10
-14.57335888587647
 20
-576.1145249241256
 30
0.0
 11
-12.07335888587647
 21
-576.1145249241256
 31
0.0
  0
LINE
  5
1A6
330
69
100
AcDbEntity
  8
0
  6
Continuous
 62
     7
100
AcDbLine
 10
8.42664111412353
 20
-572.6145249241254
 30
0.0
 11
-8.57335888587647
 21
-572.6145249241256
 31
0.0
  0
LINE
  5
1A7
330
69
100
AcDbEntity
  8
0
  6
Continuous
 62
     3
100
AcDbLine
 10
-8.57335888587647
 20
-570.1145249241256
 30
0.0
 11
8.42664111412353
 21
-570.1145249241256
 31
0.0
  0
LINE
  5
1A8
330
69
100
AcDbEntity
  8
0
  6
Continuous
 62
     3
100
AcDbLine
 10
-8.57335888587647
 20
-572.6145249241256
 30
0.0
 11
-8.57335888587647
 21
-570.1145249241256
 31
0.0
  0
LINE
  5
1A9
330
69
100
AcDbEntity
  8
0
  6
Continuous
 62
     3
100
AcDbLine
 10
-24.57335888587784
 20
-588.6145249241258
 30
0.0
 11
-24.57335888587784
 21
-586.1145249241256
 31
0.0
  0
LINE
  5
1AA
330
69
100
AcDbEntity
  8
0
  6
Continuous
 62
     3
100
AcDbLine
 10
-30.57335888587787
 20
-592.1145249241256
 30
0.0
 11
-28.07335888587693
 21
-592.1145249241256
 31
0.0
  0
LINE
  5
1AB
330
69
100
AcDbEntity
  8
0
  6
Continuous
 62
     3
100
AcDbLine
 10
24.42664111412218
 20
-586.1145249241256
 30
0.0
 11
24.42664111412218
 21
-588.6145249241313
 31
0.0
  0
LINE
  5
1AC
330
69
100
AcDbEntity
  8
0
  6
Continuous
 62
     3
100
AcDbLine
 10
30.42664111412218
 20
-592.1145249241256
 30
0.0
 11
27.92664111412218
 21
-592.1145249241256
 31
0.0
  0
LINE
  5
1AD
330
69
100
AcDbEntity
  8
0
  6
Continuous
 62
     3
100
AcDbLine
 10
24.42664111412218
 20
-595.6145249241258
 30
0.0
 11
24.42664111412218
 21
-598.1145249241256
 31
0.0
  0
LINE
  5
1AE
330
69
100
AcDbEntity
  8
0
  6
Continuous
 62
     3
100
AcDbLine
 10
-24.57335888587784
 20
-598.1145249241256
 30
0.0
 11
-24.57335888587784
 21
-595.6145249241108
 31
0.0
  0
LINE
  5
1AF
330
69
100
AcDbEntity
  8
0
  6
Continuous
 62
     3
100
AcDbLine
 10
24.4266411141299
 20
-518.1585249240818
 30
0.0
 11
-24.57335888587011
 21
-518.1585249240818
 31
0.0
  0
LINE
  5
1B0
330
69
100
AcDbEntity
  8
0
  6
Continuous
 62
     3
100
AcDbLine
 10
8.42664111412854
 20
-534.1585249240818
 30
0.0
 11
-8.57335888587102
 21
-534.1585249240818
 31
0.0
  0
LINE
  5
1B1
330
69
100
AcDbEntity
  8
0
  6
Continuous
 62
     7
100
AcDbLine
 10
-8.57335888587102
 20
-531.6585249240804
 30
0.0
 11
8.42664111412854
 21
-531.6585249240818
 31
0.0
  0
LINE
  5
1B2
330
69
100
AcDbEntity
  8
0
  6
Continuous
 62
     7
100
AcDbLine
 10
20.40464111414679
 20
-543.6365249241064
 30
0.0
 11
20.40464111414816
 21
-560.6365249241064
 31
0.0
  0
LINE
  5
1B3
330
69
100
AcDbEntity
  8
0
  6
Continuous
 62
     3
100
AcDbLine
 10
17.90464111414816
 20
-560.6365249241064
 30
0.0
 11
17.90464111414816
 21
-543.6365249241064
 31
0.0
  0
LINE
  5
1B4
330
69
100
AcDbEntity
  8
0
  6
Continuous
 62
     3
100
AcDbLine
 10
46.42664111412081
 20
-608.1145249241256
 30
0.0
 11
43.92664111412081
 21
-608.1145249241256
 31
0.0
  0
LINE
  5
1B5
330
69
100
AcDbEntity
  8
0
  6
Continuous
 62
     3
100
AcDbLine
 10
40.42664111412083
 20
-602.1145249241256
 30
0.0
 11
40.42664111412083
 21
-604.614524924116
 31
0.0
  0
LINE
  5
1B6
330
69
100
AcDbEntity
  8
0
  6
Continuous
 62
     3
100
AcDbLine
 10
40.42664111412083
 20
-611.6145249241258
 30
0.0
 11
40.42664111412083
 21
-614.1145249241256
 31
0.0
  0
LINE
  5
1B7
330
69
100
AcDbEntity
  8
0
  6
Continuous
 62
     7
100
AcDbLine
 10
40.42664111412083
 20
-604.614524924116
 30
0.0
 11
-40.57335888587916
 21
-604.6145249241256
 31
0.0
  0
LINE
  5
1B8
330
69
100
AcDbEntity
  8
0
  6
Continuous
 62
     7
100
AcDbLine
 10
-40.57335888587916
 20
-611.6145249241256
 30
0.0
 11
40.42664111412083
 21
-611.6145249241258
 31
0.0
  0
LINE
  5
1B9
330
69
100
AcDbEntity
  8
0
  6
Continuous
 62
     3
100
AcDbLine
 10
-40.57335888587916
 20
-604.6145249241256
 30
0.0
 11
-40.57335888587916
 21
-602.1145249241256
 31
0.0
  0
LINE
  5
1BA
330
69
100
AcDbEntity
  8
0
  6
Continuous
 62
     3
100
AcDbLine
 10
-46.57335888587916
 20
-608.1145249241256
 30
0.0
 11
-44.07335888587966
 21
-608.1145249241256
 31
0.0
  0
LINE
  5
1BB
330
69
100
AcDbEntity
  8
0
  6
Continuous
 62
     3
100
AcDbLine
 10
-40.57335888587916
 20
-614.1145249241256
 30
0.0
 11
-40.57335888587916
 21
-611.6145249241256
 31
0.0
  0
LINE
  5
1BC
330
69
100
AcDbEntity
  8
0
  6
Continuous
 62
     3
100
AcDbLine
 10
65.11464111412634
 20
-485.6585249240818
 30
0.0
 11
-65.26135888587388
 21
-485.6585249240818
 31
0.0
  0
LINE
  5
1BD
330
69
100
AcDbEntity
  8
0
  6
Continuous
 62
     7
100
AcDbLine
 10
65.11464111412637
 20
-621.1145249240819
 30
0.0
 11
-65.26135888587388
 21
-621.1145249240817
 31
0.0
  0
LINE
  5
1BE
330
69
100
AcDbEntity
  8
0
  6
Continuous
 62
     3
100
AcDbLine
 10
-65.26135888587388
 20
-618.6145249240819
 30
0.0
 11
65.11464111412637
 21
-618.6145249240819
 31
0.0
  0
ARC
  5
1BF
330
69
100
AcDbEntity
  8
0
  6
Continuous
 62
     3
100
AcDbCircle
 10
-65.26135888587316
 20
-617.324524924082
 30
0.0
 40
1.290000000000703
100
AcDbArc
 50
180.0
 51
-135.0000000000232
  0
ARC
  5
1C0
330
69
100
AcDbEntity
  8
0
  6
Continuous
 62
     3
100
AcDbCircle
 10
-65.26135888587316
 20
-617.324524924082
 30
0.0
 40
1.290000000000406
100
AcDbArc
 50
-135.0000000000232
 51
-90.00000000003156
  0
ARC
  5
1C1
330
69
100
AcDbEntity
  8
0
  6
Continuous
 62
     7
100
AcDbCircle
 10
-65.26135888587316
 20
-617.324524924082
 30
0.0
 40
3.789999999999803
100
AcDbArc
 50
-135.000000000007
 51
-90.00000000001074
  0
ARC
  5
1C2
330
69
100
AcDbEntity
  8
0
  6
Continuous
 62
     7
100
AcDbCircle
 10
-65.26135888587316
 20
-617.324524924082
 30
0.0
 40
3.79000000000039
100
AcDbArc
 50
180.0
 51
-135.000000000007
  0
ARC
  5
1C3
330
69
100
AcDbEntity
  8
0
  6
Continuous
 62
     7
100
AcDbCircle
 10
65.11464111412613
 20
-617.3245249240813
 30
0.0
 40
3.790000000000788
100
AcDbArc
 50
-45.00000000000243
 51
-0.00000000001031
  0
ARC
  5
1C4
330
69
100
AcDbEntity
  8
0
  6
Continuous
 62
     3
100
AcDbCircle
 10
65.11464111412613
 20
-617.3245249240813
 30
0.0
 40
1.290000000000547
100
AcDbArc
 50
-45.00000000001339
 51
-0.0000000000303
  0
ARC
  5
1C5
330
69
100
AcDbEntity
  8
0
  6
Continuous
 62
     3
100
AcDbCircle
 10
65.11464111412613
 20
-617.3245249240813
 30
0.0
 40
1.290000000000646
100
AcDbArc
 50
-89.99999999998927
 51
-45.00000000001339
  0
ARC
  5
1C6
330
69
100
AcDbEntity
  8
0
  6
Continuous
 62
     7
100
AcDbCircle
 10
65.11464111412613
 20
-617.3245249240813
 30
0.0
 40
3.790000000000646
100
AcDbArc
 50
-89.99999999999635
 51
-45.00000000000243
  0
ARC
  5
1C7
330
69
100
AcDbEntity
  8
0
  6
Continuous
 62
     7
100
AcDbCircle
 10
65.11464111412538
 20
-486.9485249240825
 30
0.0
 40
3.79000000000116
100
AcDbArc
 50
44.99999999999681
 51
89.99999999998518
  0
ARC
  5
1C8
330
69
100
AcDbEntity
  8
0
  6
Continuous
 62
     3
100
AcDbCircle
 10
65.11464111412538
 20
-486.9485249240825
 30
0.0
 40
1.290000000001099
100
AcDbArc
 50
44.99999999999242
 51
89.99999999995708
  0
ARC
  5
1C9
330
69
100
AcDbEntity
  8
0
  6
Continuous
 62
     7
100
AcDbCircle
 10
65.11464111412538
 20
-486.9485249240825
 30
0.0
 40
3.790000000000944
100
AcDbArc
 50
0.00000000001031
 51
44.99999999999681
  0
ARC
  5
1CA
330
69
100
AcDbEntity
  8
0
  6
Continuous
 62
     3
100
AcDbCircle
 10
65.11464111412538
 20
-486.9485249240825
 30
0.0
 40
1.29000000000093
100
AcDbArc
 50
0.0000000000303
 51
44.99999999999242
  0
ARC
  5
1CB
330
69
100
AcDbEntity
  8
0
  6
Continuous
 62
     7
100
AcDbCircle
 10
-65.26135888587407
 20
-486.9485249240822
 30
0.0
 40
3.789999999999361
100
AcDbArc
 50
134.9999999999942
 51
179.999999999994
  0
ARC
  5
1CC
330
69
100
AcDbEntity
  8
0
  6
Continuous
 62
     3
100
AcDbCircle
 10
-65.26135888587407
 20
-486.9485249240822
 30
0.0
 40
1.290000000000418
100
AcDbArc
 50
89.99999999999118
 51
134.9999999999804
  0
ARC
  5
1CD
330
69
100
AcDbEntity
  8
0
  6
Continuous
 62
     3
100
AcDbCircle
 10
-65.26135888587407
 20
-486.9485249240822
 30
0.0
 40
1.290000000000084
100
AcDbArc
 50
134.9999999999804
 51
179.9999999999824
  0
ARC
  5
1CE
330
69
100
AcDbEntity
  8
0
  6
Continuous
 62
     7
100
AcDbCircle
 10
-65.26135888587305
 20
-486.948524924082
 30
0.0
 40
3.789999999999907
100
AcDbArc
 50
90.00000000001246
 51
135.0000000000076
  0
ARC
  5
1CF
330
69
100
AcDbEntity
  8
0
  6
Continuous
 62
     3
100
AcDbCircle
 10
-24.57335888587011
 20
-512.1585249240818
 30
0.0
 40
6.0
100
AcDbArc
 50
90.0
 51
180.0
  0
ARC
  5
1D0
330
69
100
AcDbEntity
  8
0
  6
Continuous
 62
     3
100
AcDbCircle
 10
23.90464111414838
 20
-543.6365249241064
 30
0.0
 40
6.0
100
AcDbArc
 50
90.00000000000212
 51
180.0
  0
ARC
  5
1D1
330
69
100
AcDbEntity
  8
0
  6
Continuous
 62
     3
100
AcDbCircle
 10
-40.57335888586806
 20
-496.1585249240818
 30
0.0
 40
6.000000000000199
100
AcDbArc
 50
180.0
 51
-90.0000000000019
  0
ARC
  5
1D2
330
69
100
AcDbEntity
  8
0
  6
Continuous
 62
     3
100
AcDbCircle
 10
8.42664111412854
 20
-528.1585249240818
 30
0.0
 40
5.999999999999996
100
AcDbArc
 50
0.0
 51
90.00000000000007
  0
ARC
  5
1D3
330
69
100
AcDbEntity
  8
0
  6
Continuous
 62
     7
100
AcDbCircle
 10
8.42664111412628
 20
-528.1585249240795
 30
0.0
 40
3.500000000002933
100
AcDbArc
 50
-0.00000000003722
 51
89.99999999996301
  0
ARC
  5
1D4
330
69
100
AcDbEntity
  8
0
  6
Continuous
 62
     7
100
AcDbCircle
 10
-40.57335888586806
 20
-496.1585249240818
 30
0.0
 40
3.499999999999829
100
AcDbArc
 50
90.00000000000325
 51
180.0
  0
ARC
  5
1D5
330
69
100
AcDbEntity
  8
0
  6
Continuous
 62
     7
100
AcDbCircle
 10
8.42664111412854
 20
-528.1585249240818
 30
0.0
 40
3.5
100
AcDbArc
 50
-90.00000000000011
 51
0.0
  0
ARC
  5
1D6
330
69
100
AcDbEntity
  8
0
  6
Continuous
 62
     3
100
AcDbCircle
 10
8.42664111412854
 20
-528.1585249240818
 30
0.0
 40
6.0
100
AcDbArc
 50
-90.0
 51
0.0
  0
ARC
  5
1D7
330
69
100
AcDbEntity
  8
0
  6
Continuous
 62
     7
100
AcDbCircle
 10
24.42664111412722
 20
-512.1585249240793
 30
0.0
 40
3.500000000003137
100
AcDbArc
 50
-0.00000000004094
 51
89.99999999995615
  0
ARC
  5
1D8
330
69
100
AcDbEntity
  8
0
  6
Continuous
 62
     7
100
AcDbCircle
 10
24.4266411141299
 20
-512.1585249240818
 30
0.0
 40
3.500000000000227
100
AcDbArc
 50
-90.00000000000018
 51
0.0
  0
ARC
  5
1D9
330
69
100
AcDbEntity
  8
0
  6
Continuous
 62
     3
100
AcDbCircle
 10
24.4266411141299
 20
-512.1585249240818
 30
0.0
 40
6.0
100
AcDbArc
 50
0.0
 51
90.0
  0
ARC
  5
1DA
330
69
100
AcDbEntity
  8
0
  6
Continuous
 62
     7
100
AcDbCircle
 10
40.42664111413171
 20
-496.1585249240818
 30
0.0
 40
3.500000000000021
100
AcDbArc
 50
0.0
 51
89.99999999999966
  0
ARC
  5
1DB
330
69
100
AcDbEntity
  8
0
  6
Continuous
 62
     3
100
AcDbCircle
 10
24.4266411141299
 20
-512.1585249240818
 30
0.0
 40
6.0
100
AcDbArc
 50
-90.0
 51
0.0
  0
ARC
  5
1DC
330
69
100
AcDbEntity
  8
0
  6
Continuous
 62
     3
100
AcDbCircle
 10
-40.57335888586806
 20
-496.1585249240818
 30
0.0
 40
6.0
100
AcDbArc
 50
90.0000000000019
 51
180.0
  0
ARC
  5
1DD
330
69
100
AcDbEntity
  8
0
  6
Continuous
 62
     7
100
AcDbCircle
 10
40.42664111413171
 20
-496.1585249240818
 30
0.0
 40
3.5
100
AcDbArc
 50
-89.99999999999966
 51
0.0
  0
ARC
  5
1DE
330
69
100
AcDbEntity
  8
0
  6
Continuous
 62
     7
100
AcDbCircle
 10
-40.57335888586806
 20
-496.1585249240818
 30
0.0
 40
3.500000000000199
100
AcDbArc
 50
180.0
 51
-90.00000000000325
  0
ARC
  5
1DF
330
69
100
AcDbEntity
  8
0
  6
Continuous
 62
     3
100
AcDbCircle
 10
40.42664111413171
 20
-496.1585249240818
 30
0.0
 40
6.000000000000021
100
AcDbArc
 50
0.0
 51
89.9999999999998
  0
ARC
  5
1E0
330
69
100
AcDbEntity
  8
0
  6
Continuous
 62
     3
100
AcDbCircle
 10
40.42664111413171
 20
-496.1585249240818
 30
0.0
 40
6.0
100
AcDbArc
 50
-89.9999999999998
 51
0.0
  0
ARC
  5
1E1
330
69
100
AcDbEntity
  8
0
  6
Continuous
 62
     7
100
AcDbCircle
 10
-24.57335888587011
 20
-512.1585249240818
 30
0.0
 40
3.5
100
AcDbArc
 50
180.0
 51
-90.0
  0
ARC
  5
1E2
330
69
100
AcDbEntity
  8
0
  6
Continuous
 62
     7
100
AcDbCircle
 10
-24.57335888587011
 20
-512.1585249240818
 30
0.0
 40
3.499999999999829
100
AcDbArc
 50
90.0
 51
180.0
  0
ARC
  5
1E3
330
69
100
AcDbEntity
  8
0
  6
Continuous
 62
     7
100
AcDbCircle
 10
23.90464111414838
 20
-543.6365249241064
 30
0.0
 40
3.5
100
AcDbArc
 50
90.00000000000361
 51
180.0
  0
ARC
  5
1E4
330
69
100
AcDbEntity
  8
0
  6
Continuous
 62
     3
100
AcDbCircle
 10
-40.57335888587916
 20
-608.1145249241258
 30
0.0
 40
6.000000000000227
100
AcDbArc
 50
90.0
 51
179.9999999999978
  0
ARC
  5
1E5
330
69
100
AcDbEntity
  8
0
  6
Continuous
 62
     3
100
AcDbCircle
 10
-40.05135888589517
 20
-576.6365249241003
 30
0.0
 40
6.0
100
AcDbArc
 50
-90.00000000000476
 51
0.00000000000217
  0
ARC
  5
1E6
330
69
100
AcDbEntity
  8
0
  6
Continuous
 62
     3
100
AcDbCircle
 10
-56.05135888589567
 20
-592.6365249240982
 30
0.0
 40
6.0
100
AcDbArc
 50
-90.00000000000198
 51
0.0
  0
ARC
  5
1E7
330
69
100
AcDbEntity
  8
0
  6
Continuous
 62
     3
100
AcDbCircle
 10
-56.05135888589567
 20
-592.6365249240982
 30
0.0
 40
6.000000000000206
100
AcDbArc
 50
180.0
 51
-90.00000000000198
  0
ARC
  5
1E8
330
69
100
AcDbEntity
  8
0
  6
Continuous
 62
     7
100
AcDbCircle
 10
-56.05135888589567
 20
-592.6365249240982
 30
0.0
 40
3.5
100
AcDbArc
 50
-90.00000000000337
 51
0.0
  0
ARC
  5
1E9
330
69
100
AcDbEntity
  8
0
  6
Continuous
 62
     7
100
AcDbCircle
 10
-56.05135888589567
 20
-592.6365249240982
 30
0.0
 40
3.500000000000206
100
AcDbArc
 50
180.0
 51
-90.00000000000337
  0
ARC
  5
1EA
330
69
100
AcDbEntity
  8
0
  6
Continuous
 62
     3
100
AcDbCircle
 10
-24.05135888589587
 20
-560.6365249241007
 30
0.0
 40
5.999999999999801
100
AcDbArc
 50
-179.9999999999978
 51
-89.99999999999784
  0
ARC
  5
1EB
330
69
100
AcDbEntity
  8
0
  6
Continuous
 62
     3
100
AcDbCircle
 10
-24.05135888589587
 20
-560.6365249241007
 30
0.0
 40
6.000000000000227
100
AcDbArc
 50
-89.99999999999784
 51
-0.00000000000217
  0
ARC
  5
1EC
330
69
100
AcDbEntity
  8
0
  6
Continuous
 62
     7
100
AcDbCircle
 10
-24.05135888589587
 20
-560.6365249241007
 30
0.0
 40
3.500000000000227
100
AcDbArc
 50
-89.99999999999629
 51
-0.00000000000372
  0
ARC
  5
1ED
330
69
100
AcDbEntity
  8
0
  6
Continuous
 62
     7
100
AcDbCircle
 10
-24.05135888589587
 20
-560.6365249241007
 30
0.0
 40
3.499999999999542
100
AcDbArc
 50
-179.9999999999963
 51
-89.99999999999629
  0
ARC
  5
1EE
330
69
100
AcDbEntity
  8
0
  6
Continuous
 62
     7
100
AcDbCircle
 10
-56.05135888589587
 20
-511.6365249240985
 30
0.0
 40
3.5
100
AcDbArc
 50
90.0
 51
179.9999999999944
  0
ARC
  5
1EF
330
69
100
AcDbEntity
  8
0
  6
Continuous
 62
     3
100
AcDbCircle
 10
-56.05135888589587
 20
-511.6365249240985
 30
0.0
 40
6.0
100
AcDbArc
 50
90.0
 51
179.9999999999967
  0
ARC
  5
1F0
330
69
100
AcDbEntity
  8
0
  6
Continuous
 62
     3
100
AcDbCircle
 10
-56.05135888589587
 20
-511.6365249240985
 30
0.0
 40
6.0
100
AcDbArc
 50
0.00000000000326
 51
90.0
  0
ARC
  5
1F1
330
69
100
AcDbEntity
  8
0
  6
Continuous
 62
     7
100
AcDbCircle
 10
-56.05135888589587
 20
-511.6365249240985
 30
0.0
 40
3.499999999999801
100
AcDbArc
 50
0.00000000000558
 51
90.0
  0
ARC
  5
1F2
330
69
100
AcDbEntity
  8
0
  6
Continuous
 62
     3
100
AcDbCircle
 10
-40.05135888589517
 20
-527.6365249241001
 30
0.0
 40
5.999999999999503
100
AcDbArc
 50
0.0
 51
90.00000000000476
  0
ARC
  5
1F3
330
69
100
AcDbEntity
  8
0
  6
Continuous
 62
     3
100
AcDbCircle
 10
-40.05135888589517
 20
-527.6365249241001
 30
0.0
 40
6.0
100
AcDbArc
 50
90.00000000000476
 51
180.0
  0
ARC
  5
1F4
330
69
100
AcDbEntity
  8
0
  6
Continuous
 62
     7
100
AcDbCircle
 10
-40.05135888589736
 20
-527.6365249241021
 30
0.0
 40
3.500000000002046
100
AcDbArc
 50
89.99999999997232
 51
179.9999999999665
  0
ARC
  5
1F5
330
69
100
AcDbEntity
  8
0
  6
Continuous
 62
     7
100
AcDbCircle
 10
-40.05135888589517
 20
-527.6365249241001
 30
0.0
 40
3.499999999999702
100
AcDbArc
 50
0.0
 51
90.00000000000814
  0
ARC
  5
1F6
330
69
100
AcDbEntity
  8
0
  6
Continuous
 62
     7
100
AcDbCircle
 10
-24.05135888589564
 20
-543.636524924101
 30
0.0
 40
3.5
100
AcDbArc
 50
90.0
 51
180.0
  0
ARC
  5
1F7
330
69
100
AcDbEntity
  8
0
  6
Continuous
 62
     7
100
AcDbCircle
 10
-24.05135888589564
 20
-543.636524924101
 30
0.0
 40
3.499999999999091
100
AcDbArc
 50
0.0
 51
90.0
  0
ARC
  5
1F8
330
69
100
AcDbEntity
  8
0
  6
Continuous
 62
     3
100
AcDbCircle
 10
-24.05135888589564
 20
-543.636524924101
 30
0.0
 40
6.0
100
AcDbArc
 50
0.0
 51
90.0
  0
ARC
  5
1F9
330
69
100
AcDbEntity
  8
0
  6
Continuous
 62
     3
100
AcDbCircle
 10
-24.05135888589564
 20
-543.636524924101
 30
0.0
 40
6.0
100
AcDbArc
 50
90.0
 51
180.0
  0
ARC
  5
1FA
330
69
100
AcDbEntity
  8
0
  6
Continuous
 62
     3
100
AcDbCircle
 10
-40.05135888589517
 20
-576.6365249241003
 30
0.0
 40
6.000000000000703
100
AcDbArc
 50
179.9999999999978
 51
-90.00000000000476
  0
ARC
  5
1FB
330
69
100
AcDbEntity
  8
0
  6
Continuous
 62
     7
100
AcDbCircle
 10
-40.05135888589517
 20
-576.6365249241003
 30
0.0
 40
3.500000000000497
100
AcDbArc
 50
179.9999999999963
 51
-90.00000000000814
  0
ARC
  5
1FC
330
69
100
AcDbEntity
  8
0
  6
Continuous
 62
     7
100
AcDbCircle
 10
-40.05135888589767
 20
-576.6365249241028
 30
0.0
 40
3.499999999997726
100
AcDbArc
 50
-89.9999999999672
 51
0.00000000004467
  0
ARC
  5
1FD
330
69
100
AcDbEntity
  8
0
  6
Continuous
 62
     3
100
AcDbCircle
 10
-24.57335888587011
 20
-512.1585249240818
 30
0.0
 40
5.99999999999995
100
AcDbArc
 50
180.0
 51
-90.0
  0
ARC
  5
1FE
330
69
100
AcDbEntity
  8
0
  6
Continuous
 62
     3
100
AcDbCircle
 10
-8.57335888587147
 20
-528.158524924082
 30
0.0
 40
5.999999999999549
100
AcDbArc
 50
179.9999999999978
 51
-89.99999999999567
  0
ARC
  5
1FF
330
69
100
AcDbEntity
  8
0
  6
Continuous
 62
     7
100
AcDbCircle
 10
-8.57335888587147
 20
-528.158524924082
 30
0.0
 40
3.499999999999549
100
AcDbArc
 50
179.9999999999963
 51
-89.99999999999255
  0
ARC
  5
200
330
69
100
AcDbEntity
  8
0
  6
Continuous
 62
     3
100
AcDbCircle
 10
39.90464111414815
 20
-527.6365249241073
 30
0.0
 40
6.0
100
AcDbArc
 50
0.0
 51
90.0
  0
ARC
  5
201
330
69
100
AcDbEntity
  8
0
  6
Continuous
 62
     7
100
AcDbCircle
 10
39.90464111414815
 20
-527.6365249241073
 30
0.0
 40
3.500000000000234
100
AcDbArc
 50
0.0
 51
90.0
  0
ARC
  5
202
330
69
100
AcDbEntity
  8
0
  6
Continuous
 62
     7
100
AcDbCircle
 10
23.90464111414816
 20
-560.6365249241064
 30
0.0
 40
3.5
100
AcDbArc
 50
180.0
 51
-90.0
  0
ARC
  5
203
330
69
100
AcDbEntity
  8
0
  6
Continuous
 62
     7
100
AcDbCircle
 10
23.90464111414816
 20
-560.6365249241064
 30
0.0
 40
3.499999999999545
100
AcDbArc
 50
-90.0
 51
0.0
  0
ARC
  5
204
330
69
100
AcDbEntity
  8
0
  6
Continuous
 62
     7
100
AcDbCircle
 10
39.90464111414566
 20
-527.6365249241098
 30
0.0
 40
3.500000000002501
100
AcDbArc
 50
89.99999999995929
 51
179.9999999999591
  0
ARC
  5
205
330
69
100
AcDbEntity
  8
0
  6
Continuous
 62
     3
100
AcDbCircle
 10
39.90464111414816
 20
-576.6365249241073
 30
0.0
 40
6.0
100
AcDbArc
 50
180.0
 51
-90.0
  0
ARC
  5
206
330
69
100
AcDbEntity
  8
0
  6
Continuous
 62
     3
100
AcDbCircle
 10
55.90464111414822
 20
-592.6365249241092
 30
0.0
 40
6.0
100
AcDbArc
 50
-90.00000000000041
 51
0.0
  0
ARC
  5
207
330
69
100
AcDbEntity
  8
0
  6
Continuous
 62
     7
100
AcDbCircle
 10
55.90464111415098
 20
-592.6365249241064
 30
0.0
 40
3.500000000002956
100
AcDbArc
 50
-90.00000000004607
 51
-0.00000000004467
  0
ARC
  5
208
330
69
100
AcDbEntity
  8
0
  6
Continuous
 62
     3
100
AcDbCircle
 10
23.90464111414816
 20
-560.6365249241064
 30
0.0
 40
6.0
100
AcDbArc
 50
-90.0
 51
0.0
  0
ARC
  5
209
330
69
100
AcDbEntity
  8
0
  6
Continuous
 62
     7
100
AcDbCircle
 10
39.90464111414816
 20
-576.6365249241073
 30
0.0
 40
3.500000000000227
100
AcDbArc
 50
-90.00000000000024
 51
0.0
  0
ARC
  5
20A
330
69
100
AcDbEntity
  8
0
  6
Continuous
 62
     3
100
AcDbCircle
 10
23.90464111414816
 20
-560.6365249241064
 30
0.0
 40
6.0
100
AcDbArc
 50
180.0
 51
-90.0
  0
ARC
  5
20B
330
69
100
AcDbEntity
  8
0
  6
Continuous
 62
     7
100
AcDbCircle
 10
39.90464111414816
 20
-576.6365249241073
 30
0.0
 40
3.5
100
AcDbArc
 50
180.0
 51
-90.00000000000024
  0
ARC
  5
20C
330
69
100
AcDbEntity
  8
0
  6
Continuous
 62
     3
100
AcDbCircle
 10
39.90464111414816
 20
-576.6365249241073
 30
0.0
 40
6.0
100
AcDbArc
 50
-90.0
 51
0.0
  0
ARC
  5
20D
330
69
100
AcDbEntity
  8
0
  6
Continuous
 62
     7
100
AcDbCircle
 10
55.90464111414818
 20
-511.6365249241092
 30
0.0
 40
3.499999999999964
100
AcDbArc
 50
0.0
 51
90.00000000000024
  0
ARC
  5
20E
330
69
100
AcDbEntity
  8
0
  6
Continuous
 62
     7
100
AcDbCircle
 10
55.90464111414822
 20
-592.6365249241092
 30
0.0
 40
3.500000000000071
100
AcDbArc
 50
180.0
 51
-90.00000000000092
  0
ARC
  5
20F
330
69
100
AcDbEntity
  8
0
  6
Continuous
 62
     3
100
AcDbCircle
 10
55.90464111414822
 20
-592.6365249241092
 30
0.0
 40
6.000000000000071
100
AcDbArc
 50
180.0
 51
-90.00000000000041
  0
ARC
  5
210
330
69
100
AcDbEntity
  8
0
  6
Continuous
 62
     7
100
AcDbCircle
 10
55.90464111415034
 20
-511.6365249241071
 30
0.0
 40
3.499999999997897
100
AcDbArc
 50
90.0000000000356
 51
-179.9999999999656
  0
ARC
  5
211
330
69
100
AcDbEntity
  8
0
  6
Continuous
 62
     3
100
AcDbCircle
 10
8.42664111412353
 20
-576.1145249241256
 30
0.0
 40
5.999999999999996
100
AcDbArc
 50
0.0
 51
90.0
  0
ARC
  5
212
330
69
100
AcDbEntity
  8
0
  6
Continuous
 62
     7
100
AcDbCircle
 10
8.42664111412353
 20
-576.1145249241256
 30
0.0
 40
3.499999999999996
100
AcDbArc
 50
0.0
 51
90.0
  0
ARC
  5
213
330
69
100
AcDbEntity
  8
0
  6
Continuous
 62
     3
100
AcDbCircle
 10
55.90464111414818
 20
-511.6365249241092
 30
0.0
 40
5.999999999999964
100
AcDbArc
 50
0.0
 51
90.00000000000014
  0
ARC
  5
214
330
69
100
AcDbEntity
  8
0
  6
Continuous
 62
     3
100
AcDbCircle
 10
55.90464111414818
 20
-511.6365249241092
 30
0.0
 40
6.0
100
AcDbArc
 50
90.00000000000014
 51
180.0
  0
ARC
  5
215
330
69
100
AcDbEntity
  8
0
  6
Continuous
 62
     3
100
AcDbCircle
 10
39.90464111414815
 20
-527.6365249241073
 30
0.0
 40
6.0
100
AcDbArc
 50
90.0
 51
180.0
  0
ARC
  5
216
330
69
100
AcDbEntity
  8
0
  6
Continuous
 62
     3
100
AcDbCircle
 10
-8.57335888587625
 20
-576.1145249241256
 30
0.0
 40
6.000000000000224
100
AcDbArc
 50
180.0
 51
-90.00000000000217
  0
ARC
  5
217
330
69
100
AcDbEntity
  8
0
  6
Continuous
 62
     7
100
AcDbCircle
 10
8.42664111412353
 20
-576.1145249241256
 30
0.0
 40
3.5
100
AcDbArc
 50
-90.0
 51
0.0
  0
ARC
  5
218
330
69
100
AcDbEntity
  8
0
  6
Continuous
 62
     3
100
AcDbCircle
 10
8.42664111412353
 20
-576.1145249241256
 30
0.0
 40
6.0
100
AcDbArc
 50
-90.0
 51
0.0
  0
ARC
  5
219
330
69
100
AcDbEntity
  8
0
  6
Continuous
 62
     7
100
AcDbCircle
 10
-8.57335888587625
 20
-576.1145249241256
 30
0.0
 40
3.5
100
AcDbArc
 50
90.00000000000372
 51
180.0
  0
ARC
  5
21A
330
69
100
AcDbEntity
  8
0
  6
Continuous
 62
     3
100
AcDbCircle
 10
-8.57335888587625
 20
-576.1145249241256
 30
0.0
 40
6.0
100
AcDbArc
 50
90.00000000000217
 51
180.0
  0
ARC
  5
21B
330
69
100
AcDbEntity
  8
0
  6
Continuous
 62
     7
100
AcDbCircle
 10
-8.57335888587625
 20
-576.1145249241256
 30
0.0
 40
3.500000000000224
100
AcDbArc
 50
180.0
 51
-90.00000000000372
  0
ARC
  5
21C
330
69
100
AcDbEntity
  8
0
  6
Continuous
 62
     7
100
AcDbCircle
 10
-24.57335888588483
 20
-592.1145249241185
 30
0.0
 40
3.499999999992102
100
AcDbArc
 50
-179.9999999998846
 51
-89.9999999998856
  0
ARC
  5
21D
330
69
100
AcDbEntity
  8
0
  6
Continuous
 62
     7
100
AcDbCircle
 10
-24.57335888587784
 20
-592.1145249241256
 30
0.0
 40
3.499999999999773
100
AcDbArc
 50
90.0
 51
180.0
  0
ARC
  5
21E
330
69
100
AcDbEntity
  8
0
  6
Continuous
 62
     3
100
AcDbCircle
 10
-24.57335888587784
 20
-592.1145249241256
 30
0.0
 40
6.0
100
AcDbArc
 50
90.0
 51
180.0
  0
ARC
  5
21F
330
69
100
AcDbEntity
  8
0
  6
Continuous
 62
     3
100
AcDbCircle
 10
24.42664111412218
 20
-592.1145249241256
 30
0.0
 40
6.0
100
AcDbArc
 50
-90.0
 51
0.0
  0
ARC
  5
220
330
69
100
AcDbEntity
  8
0
  6
Continuous
 62
     3
100
AcDbCircle
 10
24.42664111412218
 20
-592.1145249241256
 30
0.0
 40
6.0
100
AcDbArc
 50
0.0
 51
90.0
  0
ARC
  5
221
330
69
100
AcDbEntity
  8
0
  6
Continuous
 62
     7
100
AcDbCircle
 10
24.42664111412504
 20
-592.1145249241283
 30
0.0
 40
3.49999999999714
100
AcDbArc
 50
0.00000000004467
 51
90.00000000004681
  0
ARC
  5
222
330
69
100
AcDbEntity
  8
0
  6
Continuous
 62
     7
100
AcDbCircle
 10
24.42664111412218
 20
-592.1145249241256
 30
0.0
 40
3.500000000000227
100
AcDbArc
 50
-90.0
 51
0.0
  0
ARC
  5
223
330
69
100
AcDbEntity
  8
0
  6
Continuous
 62
     3
100
AcDbCircle
 10
-8.57335888587147
 20
-528.158524924082
 30
0.0
 40
6.000000000000227
100
AcDbArc
 50
89.99999999999567
 51
179.9999999999978
  0
ARC
  5
224
330
69
100
AcDbEntity
  8
0
  6
Continuous
 62
     7
100
AcDbCircle
 10
-8.57335888587147
 20
-528.158524924082
 30
0.0
 40
3.5
100
AcDbArc
 50
89.99999999999255
 51
179.9999999999963
  0
ARC
  5
225
330
69
100
AcDbEntity
  8
0
  6
Continuous
 62
     3
100
AcDbCircle
 10
23.90464111414838
 20
-543.6365249241064
 30
0.0
 40
5.99999999999978
100
AcDbArc
 50
0.0
 51
90.00000000000212
  0
ARC
  5
226
330
69
100
AcDbEntity
  8
0
  6
Continuous
 62
     7
100
AcDbCircle
 10
23.90464111414838
 20
-543.6365249241064
 30
0.0
 40
3.499999999999559
100
AcDbArc
 50
0.0
 51
90.00000000000361
  0
ARC
  5
227
330
69
100
AcDbEntity
  8
0
  6
Continuous
 62
     3
100
AcDbCircle
 10
-24.57335888587784
 20
-592.1145249241256
 30
0.0
 40
6.000000000000028
100
AcDbArc
 50
180.0
 51
-90.0
  0
ARC
  5
228
330
69
100
AcDbEntity
  8
0
  6
Continuous
 62
     3
100
AcDbCircle
 10
40.42664111412077
 20
-608.1145249241256
 30
0.0
 40
6.0
100
AcDbArc
 50
-89.99999999999946
 51
0.0
  0
ARC
  5
229
330
69
100
AcDbEntity
  8
0
  6
Continuous
 62
     7
100
AcDbCircle
 10
40.42664111412077
 20
-608.1145249241256
 30
0.0
 40
3.500000000000227
100
AcDbArc
 50
-89.99999999999908
 51
0.0
  0
ARC
  5
22A
330
69
100
AcDbEntity
  8
0
  6
Continuous
 62
     7
100
AcDbCircle
 10
40.42664111411604
 20
-608.1145249241208
 30
0.0
 40
3.500000000004775
100
AcDbArc
 50
-0.00000000007817
 51
89.9999999999216
  0
ARC
  5
22B
330
69
100
AcDbEntity
  8
0
  6
Continuous
 62
     3
100
AcDbCircle
 10
40.42664111412077
 20
-608.1145249241256
 30
0.0
 40
6.000000000000043
100
AcDbArc
 50
0.0
 51
89.99999999999946
  0
ARC
  5
22C
330
69
100
AcDbEntity
  8
0
  6
Continuous
 62
     7
100
AcDbCircle
 10
-40.57335888587916
 20
-608.1145249241258
 30
0.0
 40
3.500000000000227
100
AcDbArc
 50
90.0
 51
179.9999999999963
  0
ARC
  5
22D
330
69
100
AcDbEntity
  8
0
  6
Continuous
 62
     7
100
AcDbCircle
 10
-40.57335888587916
 20
-608.1145249241258
 30
0.0
 40
3.500000000000497
100
AcDbArc
 50
179.9999999999963
 51
-90.0
  0
ARC
  5
22E
330
69
100
AcDbEntity
  8
0
  6
Continuous
 62
     3
100
AcDbCircle
 10
-40.57335888587916
 20
-608.1145249241258
 30
0.0
 40
6.0
100
AcDbArc
 50
179.9999999999978
 51
-90.0
  0
ENDBLK
  5
6B
330
69
100
AcDbEntity
  8
0
100
AcDbBlockEnd
  0
BLOCK
  5
72
330
6C
100
AcDbEntity
  8
0
100
AcDbBlockBegin
  2
HL62B
 70
     0
 71
     0
 10
-249.9999405861538
 20
-802.158524924082
 30
0.0
  3
HL62B
  1

  0
INSERT
  5
6D
330
6C
100
AcDbEntity
  8
0
100
AcDbBlockReference
  2
HL062B_3E_Tragring
 10
-76.99994058615425
 20
-629.1585249240816
 30
0.0
  0
INSERT
  5
6E
330
6C
100
AcDbEntity
  8
0
100
AcDbBlockReference
  2
Dichtring
 10
-59.55135888589726
 20
-611.6145249241256
 30
0.0
  0
INSERT
  5
6F
330
6C
100
AcDbEntity
  8
0
100
AcDbBlockReference
  2
HL62_1H_koerper
 10
-249.9999405861538
 20
-802.158524924082
 30
0.0
  0
INSERT
  5
70
330
6C
100
AcDbEntity
  8
0
100
AcDbBlockReference
  2
HL062B_2E_Aufsatzrahmen
 10
-73.99994058615385
 20
-626.158524924082
 30
0.0
  0
INSERT
  5
71
330
6C
100
AcDbEntity
  8
0
100
AcDbBlockReference
  2
HL0317_1E_Einlaufrost
 10
-69.05135888587387
 20
-621.1145249240819
 30
0.0
  0
ENDBLK
  5
73
330
6C
100
AcDbEntity
  8
0
100
AcDbBlockEnd
  0
BLOCK
  5
75
330
74
100
AcDbEntity
  8
0
100
AcDbBlockBegin
  2
Körper
 70
     0
 71
     0
 10
-380.005557640756
 20
-870.491944403875
 30
0.0
  3
Körper
  1

  0
POINT
  5
22F
330
74
100
AcDbEntity
  8
LC-008-003-----0
 62
     7
100
AcDbPoint
 10
-249.797051
 20
4.69999999999999
 30
0.0
  0
POINT
  5
230
330
74
100
AcDbEntity
  8
LC-008-003-----0
 62
     7
100
AcDbPoint
 10
249.7971399999999
 20
4.69999999999999
 30
0.0
  0
POINT
  5
231
330
74
100
AcDbEntity
  8
LC-008-003-----0
 62
     7
100
AcDbPoint
 10
-150.751659
 20
-3.00045699999998
 30
0.0
  0
POINT
  5
232
330
74
100
AcDbEntity
  8
LC-008-003-----0
 62
     7
100
AcDbPoint
 10
150.7518269999998
 20
-3.00045699999998
 30
0.0
  0
POINT
  5
233
330
74
100
AcDbEntity
  8
LC-008-003-----0
 62
     7
100
AcDbPoint
 10
-94.771301
 20
-12.35769199999999
 30
0.0
  0
POINT
  5
234
330
74
100
AcDbEntity
  8
LC-008-003-----0
 62
     7
100
AcDbPoint
 10
94.77146999999991
 20
-12.35769199999999
 30
0.0
  0
POINT
  5
235
330
74
100
AcDbEntity
  8
LC-008-003-----0
 62
     7
100
AcDbPoint
 10
-150.751659
 20
-3.00045699999998
 30
0.0
  0
POINT
  5
236
330
74
100
AcDbEntity
  8
LC-008-003-----0
 62
     7
100
AcDbPoint
 10
-80.24985639872348
 20
-97.0266037984278
 30
0.0
  0
POINT
  5
237
330
74
100
AcDbEntity
  8
LC-008-003-----0
 62
     7
100
AcDbPoint
 10
80.25014360127653
 20
-97.0266037984278
 30
0.0
  0
POINT
  5
238
330
74
100
AcDbEntity
  8
LC-008-003-----0
 62
     7
100
AcDbPoint
 10
-72.50016039872348
 20
-107.0266037984278
 30
0.0
  0
POINT
  5
239
330
74
100
AcDbEntity
  8
LC-008-003-----0
 62
     7
100
AcDbPoint
 10
-54.99985739872349
 20
-158.5266037984278
 30
0.0
  0
POINT
  5
23A
330
74
100
AcDbEntity
  8
LC-008-003-----0
 62
     7
100
AcDbPoint
 10
55.00014260127651
 20
-158.5266037984278
 30
0.0
  0
POINT
  5
23B
330
74
100
AcDbEntity
  8
LC-008-003-----0
 62
     7
100
AcDbPoint
 10
-72.50016039872348
 20
-107.0266037984278
 30
0.0
  0
POINT
  5
23C
330
74
100
AcDbEntity
  8
LC-008-003-----0
 62
     7
100
AcDbPoint
 10
-53.79408639872348
 20
-163.0266037984278
 30
0.0
  0
LINE
  5
23D
330
74
100
AcDbEntity
  8
LC-001-002-----0
  6
Continuous
 62
     7
100
AcDbLine
 10
-68.19907839872349
 20
-107.0266037984278
 30
0.0
 11
70.74273660127653
 21
-107.0266037984278
 31
0.0
  0
LINE
  5
23E
330
74
100
AcDbEntity
  8
1
  6
Continuous
 62
     7
100
AcDbLine
 10
-68.19907839872349
 20
-109.0266037984278
 30
0.0
 11
-68.19907839872349
 21
-107.0266037984278
 31
0.0
  0
LINE
  5
23F
330
74
100
AcDbEntity
  8
LC-002-002-----0
  6
Continuous
 62
     7
100
AcDbLine
 10
-150.751659
 20
-3.00045699999998
 30
0.0
 11
-111.1963450000001
 21
-3.690898
 31
0.0
  0
LINE
  5
240
330
74
100
AcDbEntity
  8
LC-002-002-----0
  6
Continuous
 62
     7
100
AcDbLine
 10
-111.1963450000001
 20
-3.690898
 30
0.0
 11
-109.48972
 21
-5.39752299999998
 31
0.0
  0
LINE
  5
241
330
74
100
AcDbEntity
  8
LC-003-001-----0
  6
Continuous
 62
     7
100
AcDbLine
 10
-109.48972
 20
-5.39752299999998
 30
0.0
 11
-96.38082800000007
 21
-6.31418500000001
 31
0.0
  0
LINE
  5
242
330
74
100
AcDbEntity
  8
LC-002-002-----0
  6
Continuous
 62
     7
100
AcDbLine
 10
-95.0136500000001
 20
-7.73339699999997
 30
0.0
 11
-94.771301
 21
-12.35769199999999
 31
0.0
  0
LINE
  5
243
330
74
100
AcDbEntity
  8
LC-002-002-----0
  6
Continuous
 62
     7
100
AcDbLine
 10
-150.751659
 20
0.0
 30
0.0
 11
-150.751659
 21
-3.00045699999998
 31
0.0
  0
LINE
  5
244
330
74
100
AcDbEntity
  8
LC-002-002-----0
  6
Continuous
 62
     7
100
AcDbLine
 10
-91.77541300000007
 20
-15.20068399999997
 30
0.0
 11
-91.49920900000006
 21
-15.20068399999997
 31
0.0
  0
LINE
  5
245
330
74
100
AcDbEntity
  8
LC-002-002-----0
  6
Continuous
 62
     7
100
AcDbLine
 10
150.7518269999998
 20
-3.00045699999998
 30
0.0
 11
111.196514
 21
-3.690898
 31
0.0
  0
LINE
  5
246
330
74
100
AcDbEntity
  8
LC-002-002-----0
  6
Continuous
 62
     7
100
AcDbLine
 10
111.196514
 20
-3.690898
 30
0.0
 11
109.489889
 21
-5.39752299999998
 31
0.0
  0
LINE
  5
247
330
74
100
AcDbEntity
  8
LC-003-001-----0
  6
Continuous
 62
     7
100
AcDbLine
 10
109.489889
 20
-5.39752299999998
 30
0.0
 11
96.3809960000001
 21
-6.31418500000001
 31
0.0
  0
LINE
  5
248
330
74
100
AcDbEntity
  8
LC-002-002-----0
  6
Continuous
 62
     7
100
AcDbLine
 10
95.01381900000001
 20
-7.73339699999997
 30
0.0
 11
94.77146999999991
 21
-12.35769199999999
 31
0.0
  0
LINE
  5
249
330
74
100
AcDbEntity
  8
LC-002-002-----0
  6
Continuous
 62
     7
100
AcDbLine
 10
150.7518269999998
 20
0.0
 30
0.0
 11
150.7518269999998
 21
-3.00045699999998
 31
0.0
  0
LINE
  5
24A
330
74
100
AcDbEntity
  8
LC-002-002-----0
  6
Continuous
 62
     7
100
AcDbLine
 10
91.7755810000001
 20
-15.20068399999997
 30
0.0
 11
91.49937699999987
 21
-15.20068399999997
 31
0.0
  0
LINE
  5
24B
330
74
100
AcDbEntity
  8
LC-002-002-----0
  6
Continuous
 62
     7
100
AcDbLine
 10
89.49937699999987
 20
-25.10821800000002
 30
0.0
 11
89.49937699999987
 21
-17.20068399999997
 31
0.0
  0
LINE
  5
24C
330
74
100
AcDbEntity
  8
LC-002-002-----0
  6
Continuous
 62
     7
100
AcDbLine
 10
0.0
 20
4.69999999999999
 30
0.0
 11
-249.797051
 21
4.69999999999999
 31
0.0
  0
LINE
  5
24D
330
74
100
AcDbEntity
  8
LC-002-002-----0
  6
Continuous
 62
     7
100
AcDbLine
 10
-150.669672
 20
0.0
 30
0.0
 11
-249.797051
 21
0.0
 31
0.0
  0
LINE
  5
24E
330
74
100
AcDbEntity
  8
LC-002-002-----0
  6
Continuous
 62
     7
100
AcDbLine
 10
-249.797051
 20
4.69999999999999
 30
0.0
 11
-249.797051
 21
0.0
 31
0.0
  0
LINE
  5
24F
330
74
100
AcDbEntity
  8
LC-002-002-----0
  6
Continuous
 62
     7
100
AcDbLine
 10
0.0
 20
4.69999999999999
 30
0.0
 11
249.7971399999999
 21
4.69999999999999
 31
0.0
  0
LINE
  5
250
330
74
100
AcDbEntity
  8
LC-002-002-----0
  6
Continuous
 62
     7
100
AcDbLine
 10
249.7971399999999
 20
4.69999999999999
 30
0.0
 11
249.7971399999999
 21
0.0
 31
0.0
  0
LINE
  5
251
330
74
100
AcDbEntity
  8
LC-002-002-----0
  6
Continuous
 62
     7
100
AcDbLine
 10
-150.669672
 20
0.0
 30
0.0
 11
249.7971399999999
 21
0.0
 31
0.0
  0
LINE
  5
252
330
74
100
AcDbEntity
  8
LC-002-002-----0
  6
Continuous
 62
     7
100
AcDbLine
 10
85.04231200000004
 20
4.69999999999999
 30
0.0
 11
85.58556500000009
 21
5.01043200000004
 31
0.0
  0
LINE
  5
253
330
74
100
AcDbEntity
  8
LC-002-002-----0
  6
Continuous
 62
     7
100
AcDbLine
 10
-85.04272100000003
 20
4.69999999999999
 30
0.0
 11
-85.58556700000008
 21
5.01019700000001
 31
0.0
  0
LINE
  5
254
330
74
100
AcDbEntity
  8
LC-002-002-----0
  6
DASHDOT
 62
     2
100
AcDbLine
 10
-0.00010100000009
 20
78.18593900000002
 30
0.0
 11
0.00022799999988
 21
-161.6006839999999
 31
0.0
  0
LINE
  5
255
330
74
100
AcDbEntity
  8
LC-002-002-----0
  6
Continuous
 62
     7
100
AcDbLine
 10
150.7518269999998
 20
-3.00045699999998
 30
0.0
 11
-150.751659
 21
-3.00087099999996
 31
0.0
  0
LINE
  5
256
330
74
100
AcDbEntity
  8
LC-002-002-----0
  6
Continuous
 62
     7
100
AcDbLine
 10
111.196514
 20
-3.690898
 30
0.0
 11
-111.1963450000001
 21
-3.69120299999997
 31
0.0
  0
LINE
  5
257
330
74
100
AcDbEntity
  8
LC-002-002-----0
  6
Continuous
 62
     7
100
AcDbLine
 10
109.489889
 20
-5.39752299999998
 30
0.0
 11
-109.48972
 21
-5.39782299999996
 31
0.0
  0
LINE
  5
258
330
74
100
AcDbEntity
  8
LC-002-002-----0
  6
Continuous
 62
     7
100
AcDbLine
 10
96.3809960000001
 20
-6.31418500000001
 30
0.0
 11
-96.38082800000007
 21
-6.31444999999997
 31
0.0
  0
LINE
  5
259
330
74
100
AcDbEntity
  8
LC-002-002-----0
  6
Continuous
 62
     7
100
AcDbLine
 10
91.49937699999987
 20
-15.20068399999997
 30
0.0
 11
-91.49920900000006
 21
-15.20093499999996
 31
0.0
  0
LINE
  5
25A
330
74
100
AcDbEntity
  8
LC-002-002-----0
  6
Continuous
 62
     7
100
AcDbLine
 10
89.49937699999987
 20
-25.10821800000002
 30
0.0
 11
-89.49920900000006
 21
-25.10846299999997
 31
0.0
  0
LINE
  5
25B
330
74
100
AcDbEntity
  8
LC-001-002-----0
  6
Continuous
 62
     7
100
AcDbLine
 10
-82.63780039872348
 20
-38.28694179842785
 30
0.0
 11
-81.28401739872349
 21
-38.72924179842778
 31
0.0
  0
LINE
  5
25C
330
74
100
AcDbEntity
  8
LC-001-002-----0
  6
Continuous
 62
     7
100
AcDbLine
 10
-88.99311939872348
 20
-28.72599279842791
 30
0.0
 11
-85.57897439872349
 21
-35.72602779842794
 31
0.0
  0
LINE
  5
25D
330
74
100
AcDbEntity
  8
LC-008-003-----0
  6
Continuous
 62
     7
100
AcDbLine
 10
89.4994366012765
 20
-27.68847879842787
 30
0.0
 11
88.99340760127649
 21
-28.72599279842791
 31
0.0
  0
LINE
  5
25E
330
74
100
AcDbEntity
  8
LC-001-002-----0
  6
Continuous
 62
     7
100
AcDbLine
 10
82.63808860127654
 20
-38.28694179842785
 30
0.0
 11
81.28430460127652
 21
-38.72924179842778
 31
0.0
  0
LINE
  5
25F
330
74
100
AcDbEntity
  8
LC-001-002-----0
  6
Continuous
 62
     7
100
AcDbLine
 10
88.99340760127649
 20
-28.72599279842791
 30
0.0
 11
85.57926260127653
 21
-35.72602779842794
 31
0.0
  0
LINE
  5
260
330
74
100
AcDbEntity
  8
LC-001-002-----0
  6
Continuous
 62
     7
100
AcDbLine
 10
-81.28401739872349
 20
-38.72924179842778
 30
0.0
 11
81.28430460127652
 21
-38.72924179842778
 31
0.0
  0
LINE
  5
261
330
74
100
AcDbEntity
  8
LC-001-002-----0
  6
DASHDOT
 62
     2
100
AcDbLine
 10
-0.0000013987235
 20
76.76001920157216
 30
0.0
 11
0.00032760127652
 21
-163.0266037984278
 31
0.0
  0
LINE
  5
262
330
74
100
AcDbEntity
  8
LC-001-002-----0
  6
Continuous
 62
     7
100
AcDbLine
 10
-80.24985639872348
 20
-97.0266037984278
 30
0.0
 11
-77.50016039872348
 21
-97.0266037984278
 31
0.0
  0
LINE
  5
263
330
74
100
AcDbEntity
  8
LC-001-002-----0
  6
Continuous
 62
     7
100
AcDbLine
 10
-80.24985639872348
 20
-40.1550727984278
 30
0.0
 11
-80.24985639872348
 21
-97.0266037984278
 31
0.0
  0
LINE
  5
264
330
74
100
AcDbEntity
  8
LC-001-002-----0
  6
Continuous
 62
     7
100
AcDbLine
 10
80.25014360127653
 20
-97.0266037984278
 30
0.0
 11
77.4998396012765
 21
-97.0266037984278
 31
0.0
  0
LINE
  5
265
330
74
100
AcDbEntity
  8
LC-001-002-----0
  6
Continuous
 62
     7
100
AcDbLine
 10
80.25014360127653
 20
-40.1550727984278
 30
0.0
 11
80.25014360127653
 21
-97.0266037984278
 31
0.0
  0
LINE
  5
266
330
74
100
AcDbEntity
  8
LC-001-002-----0
  6
Continuous
 62
     7
100
AcDbLine
 10
-54.99985739872349
 20
-109.0266037984278
 30
0.0
 11
-54.99985739872349
 21
-158.5266037984278
 31
0.0
  0
LINE
  5
267
330
74
100
AcDbEntity
  8
LC-001-002-----0
  6
Continuous
 62
     7
100
AcDbLine
 10
-54.99985739872349
 20
-158.5266037984278
 30
0.0
 11
-53.79408639872348
 21
-163.0266037984278
 31
0.0
  0
LINE
  5
268
330
74
100
AcDbEntity
  8
LC-001-002-----0
  6
Continuous
 62
     7
100
AcDbLine
 10
-51.99985739872349
 20
-163.0266037984278
 30
0.0
 11
-53.79408639872348
 21
-163.0266037984278
 31
0.0
  0
LINE
  5
269
330
74
100
AcDbEntity
  8
LC-001-002-----0
  6
Continuous
 62
     7
100
AcDbLine
 10
53.79437060127651
 20
-163.0266037984278
 30
0.0
 11
-51.99985739872349
 21
-163.0266037984278
 31
0.0
  0
LINE
  5
26A
330
74
100
AcDbEntity
  8
LC-001-002-----0
  6
Continuous
 62
     7
100
AcDbLine
 10
55.00014260127651
 20
-158.5266037984278
 30
0.0
 11
53.79437060127651
 21
-163.0266037984278
 31
0.0
  0
LINE
  5
26B
330
74
100
AcDbEntity
  8
LC-001-002-----0
  6
Continuous
 62
     7
100
AcDbLine
 10
55.00014260127651
 20
-109.0266037984278
 30
0.0
 11
55.00014260127651
 21
-158.5266037984278
 31
0.0
  0
LINE
  5
26C
330
74
100
AcDbEntity
  8
LC-001-002-----0
  6
Continuous
 62
     7
100
AcDbLine
 10
80.25014360127653
 20
-97.0266037984278
 30
0.0
 11
0.00023660127652
 21
-97.0266037984278
 31
0.0
  0
LINE
  5
26D
330
74
100
AcDbEntity
  8
LC-001-002-----0
  6
Continuous
 62
     7
100
AcDbLine
 10
80.25014360127653
 20
-99.0266037984278
 30
0.0
 11
80.25014360127653
 21
-97.0266037984278
 31
0.0
  0
LINE
  5
26E
330
74
100
AcDbEntity
  8
LC-001-002-----0
  6
Continuous
 62
     7
100
AcDbLine
 10
-80.24985639872348
 20
-99.0266037984278
 30
0.0
 11
-80.24985639872348
 21
-97.0266037984278
 31
0.0
  0
LINE
  5
26F
330
74
100
AcDbEntity
  8
LC-001-002-----0
  6
Continuous
 62
     7
100
AcDbLine
 10
-80.24985639872348
 20
-97.0266037984278
 30
0.0
 11
0.00023660127652
 21
-97.0266037984278
 31
0.0
  0
LINE
  5
270
330
74
100
AcDbEntity
  8
LC-001-002-----0
  6
Continuous
 62
     7
100
AcDbLine
 10
72.25014360127653
 20
-107.0266037984278
 30
0.0
 11
70.74273660127653
 21
-107.0266037984278
 31
0.0
  0
LINE
  5
271
330
74
100
AcDbEntity
  8
LC-001-002-----0
  6
Continuous
 62
     7
100
AcDbLine
 10
70.74273660127653
 20
-107.0266037984278
 30
0.0
 11
70.74273660127653
 21
-109.0266037984278
 31
0.0
  0
LINE
  5
272
330
74
100
AcDbEntity
  8
LC-001-002-----0
  6
Continuous
 62
     7
100
AcDbLine
 10
70.74273660127653
 20
-109.0266037984278
 30
0.0
 11
0.00025260127651
 21
-109.0266037984278
 31
0.0
  0
LINE
  5
273
330
74
100
AcDbEntity
  8
LC-001-002-----0
  6
Continuous
 62
     7
100
AcDbLine
 10
0.00025260127651
 20
-109.0266037984278
 30
0.0
 11
-68.19907839872349
 21
-109.0266037984278
 31
0.0
  0
LINE
  5
274
330
74
100
AcDbEntity
  8
LC-001-002-----0
  6
Continuous
 62
     7
100
AcDbLine
 10
-72.24985639872348
 20
-107.0266037984278
 30
0.0
 11
-68.19907839872349
 21
-107.0266037984278
 31
0.0
  0
LINE
  5
275
330
74
100
AcDbEntity
  8
LC-001-002-----0
  6
Continuous
 62
     7
100
AcDbLine
 10
-54.99985739872349
 20
-158.5266037984278
 30
0.0
 11
55.00014260127651
 21
-158.5266037984278
 31
0.0
  0
LINE
  5
276
330
74
100
AcDbEntity
  8
1
  6
Continuous
 62
     7
100
AcDbLine
 10
-89.49920900000006
 20
-17.20068399999997
 30
0.0
 11
-89.49920900000006
 21
-26.53413779842788
 31
0.0
  0
LINE
  5
277
330
74
100
AcDbEntity
  8
1
  6
Continuous
 62
     7
100
AcDbLine
 10
89.4994366012765
 20
-27.68847879842787
 30
0.0
 11
-89.36407456317534
 21
-27.68847879842787
 31
0.0
  0
LINE
  5
278
330
74
100
AcDbEntity
  8
1
  6
Continuous
 62
     7
100
AcDbLine
 10
89.4994366012765
 20
-27.68847879842787
 30
0.0
 11
89.4994366012765
 21
-25.10821799991845
 31
0.0
  0
ARC
  5
279
330
74
100
AcDbEntity
  8
LC-004-001-RND-0
  6
Continuous
 62
     7
100
AcDbCircle
 10
-96.48546299999998
 20
-7.81053099999997
 30
0.0
 40
1.500000000000058
100
AcDbArc
 50
2.99999999998374
 51
86.00000299998644
  0
ARC
  5
27A
330
74
100
AcDbEntity
  8
LC-005-002-RND-0
  6
Continuous
 62
     7
100
AcDbCircle
 10
-91.77541300000007
 20
-12.20068399999997
 30
0.0
 40
3.00000000000017
100
AcDbArc
 50
-176.9999999999968
 51
-90.0
  0
ARC
  5
27B
330
74
100
AcDbEntity
  8
LC-005-002-RND-0
  6
Continuous
 62
     7
100
AcDbCircle
 10
-91.49920900000006
 20
-17.20068399999997
 30
0.0
 40
2.0
100
AcDbArc
 50
0.0
 51
90.0
  0
ARC
  5
27C
330
74
100
AcDbEntity
  8
LC-004-001-RND-0
  6
Continuous
 62
     7
100
AcDbCircle
 10
96.48563100000001
 20
-7.81053099999997
 30
0.0
 40
1.499999999999594
100
AcDbArc
 50
93.99999700001356
 51
177.0000000000165
  0
ARC
  5
27D
330
74
100
AcDbEntity
  8
LC-005-002-RND-0
  6
Continuous
 62
     7
100
AcDbCircle
 10
91.7755810000001
 20
-12.20068399999997
 30
0.0
 40
3.0
100
AcDbArc
 50
-90.0
 51
-3.00000000000322
  0
ARC
  5
27E
330
74
100
AcDbEntity
  8
LC-005-002-RND-0
  6
Continuous
 62
     7
100
AcDbCircle
 10
91.49937699999987
 20
-17.20068399999997
 30
0.0
 40
2.0
100
AcDbArc
 50
90.0
 51
180.0
  0
ARC
  5
27F
330
74
100
AcDbEntity
  8
LC-002-002-RND-0
  6
Continuous
 62
     7
100
AcDbCircle
 10
-81.08500439872348
 20
-33.53417179842779
 30
0.0
 40
5.000000000000025
100
AcDbArc
 50
-154.0000000000039
 51
-108.0929359999983
  0
ARC
  5
280
330
74
100
AcDbEntity
  8
LC-002-002-RND-0
  6
Continuous
 62
     7
100
AcDbCircle
 10
-81.74985639872348
 20
-40.1550727984278
 30
0.0
 40
1.5
100
AcDbArc
 50
0.0
 51
71.90706399998737
  0
ARC
  5
281
330
74
100
AcDbEntity
  8
LC-002-002-RND-0
  6
Continuous
 62
     7
100
AcDbCircle
 10
-84.49914939872349
 20
-26.53413779842788
 30
0.0
 40
4.999999999999781
100
AcDbArc
 50
-166.6518083118187
 51
-154.0000000000041
  0
ARC
  5
282
330
74
100
AcDbEntity
  8
LC-002-002-RND-0
  6
Continuous
 62
     7
100
AcDbCircle
 10
81.08529260127654
 20
-33.53417179842779
 30
0.0
 40
5.000000000000559
100
AcDbArc
 50
-71.90706400000221
 51
-25.99999999999607
  0
ARC
  5
283
330
74
100
AcDbEntity
  8
LC-002-002-RND-0
  6
Continuous
 62
     7
100
AcDbCircle
 10
81.75014360127653
 20
-40.1550727984278
 30
0.0
 40
1.499999999999976
100
AcDbArc
 50
108.0929360000137
 51
180.0
  0
ARC
  5
284
330
74
100
AcDbEntity
  8
LC-002-002-RND-0
  6
Continuous
 62
     7
100
AcDbCircle
 10
72.25014360127653
 20
-99.0266037984278
 30
0.0
 40
8.0
100
AcDbArc
 50
-90.0
 51
0.0
  0
ARC
  5
285
330
74
100
AcDbEntity
  8
LC-002-002-RND-0
  6
Continuous
 62
     7
100
AcDbCircle
 10
-72.24985639872348
 20
-99.0266037984278
 30
0.0
 40
8.0
100
AcDbArc
 50
180.0
 51
-90.0
  0
ARC
  5
286
330
74
100
AcDbEntity
  8
LC-002-002-RND-0
  6
Continuous
 62
     7
100
AcDbCircle
 10
-84.49914939872349
 20
-26.53413779842788
 30
0.0
 40
5.0
100
AcDbArc
 50
180.0
 51
-166.6518083118187
  0
ENDBLK
  5
76
330
74
100
AcDbEntity
  8
0
100
AcDbBlockEnd
  0
BLOCK
  5
78
330
77
100
AcDbEntity
  8
0
100
AcDbBlockBegin
  2
062B_2E_Aufsatzrahmen
 70
     0
 71
     0
 10
-69.62906273015423
 20
-1383.377514897322
 30
0.0
  3
062B_2E_Aufsatzrahmen
  1

  0
POINT
  5
287
330
77
100
AcDbEntity
  8
0
 62
     7
100
AcDbPoint
 10
-73.49991006829755
 20
69.70000000000005
 30
0.0
  0
POINT
  5
288
330
77
100
AcDbEntity
  8
0
 62
     7
100
AcDbPoint
 10
73.50008993170243
 20
69.70000000000005
 30
0.0
  0
POINT
  5
289
330
77
100
AcDbEntity
  8
0
 62
     7
100
AcDbPoint
 10
73.50008993170243
 20
69.70000000000005
 30
0.0
  0
LINE
  5
28A
330
77
100
AcDbEntity
  8
1
  6
PHANTOM
 62
     2
100
AcDbLine
 10
0.00008993170243
 20
72.35862692968414
 30
0.0
 11
0.00008993170243
 21
-23.53482445343974
 31
0.0
  0
LINE
  5
28B
330
77
100
AcDbEntity
  8
1
  6
Continuous
 62
     7
100
AcDbLine
 10
-71.99991006829755
 20
5.19999999999999
 30
0.0
 11
72.00008993170243
 21
5.19999999999999
 31
0.0
  0
LINE
  5
28C
330
77
100
AcDbEntity
  8
LC-003-002-----0
  6
Continuous
 62
     7
100
AcDbLine
 10
72.00008993170243
 20
5.19999999999999
 30
0.0
 11
72.00008993170243
 21
5.19999999999999
 31
0.0
  0
LINE
  5
28D
330
77
100
AcDbEntity
  8
LC-003-002-----0
  6
Continuous
 62
     7
100
AcDbLine
 10
-71.99991006829755
 20
5.19999999999999
 30
0.0
 11
-71.99991006829755
 21
5.19999999999999
 31
0.0
  0
LINE
  5
28E
330
77
100
AcDbEntity
  8
1
  6
Continuous
 62
     7
100
AcDbLine
 10
-71.99991006829755
 20
7.69999999999999
 30
0.0
 11
72.00008993170243
 21
7.69999999999999
 31
0.0
  0
LINE
  5
28F
330
77
100
AcDbEntity
  8
1
  6
Continuous
 62
     7
100
AcDbLine
 10
-71.99991006829755
 20
9.69999999999999
 30
0.0
 11
72.00008993170243
 21
9.69999999999999
 31
0.0
  0
LINE
  5
290
330
77
100
AcDbEntity
  8
1
  6
Continuous
 62
     7
100
AcDbLine
 10
-71.99991006829755
 20
12.20000000000005
 30
0.0
 11
72.00008993170243
 21
12.20000000000005
 31
0.0
  0
LINE
  5
291
330
77
100
AcDbEntity
  8
1
  6
Continuous
 62
     7
100
AcDbLine
 10
-71.99991006829755
 20
14.20000000000005
 30
0.0
 11
72.00008993170243
 21
14.20000000000005
 31
0.0
  0
LINE
  5
292
330
77
100
AcDbEntity
  8
1
  6
Continuous
 62
     7
100
AcDbLine
 10
-71.99991006829755
 20
16.70000000000005
 30
0.0
 11
72.00008993170243
 21
16.70000000000005
 31
0.0
  0
LINE
  5
293
330
77
100
AcDbEntity
  8
1
  6
Continuous
 62
     7
100
AcDbLine
 10
-71.99991006829755
 20
18.70000000000005
 30
0.0
 11
72.00008993170243
 21
18.70000000000005
 31
0.0
  0
LINE
  5
294
330
77
100
AcDbEntity
  8
1
  6
Continuous
 62
     7
100
AcDbLine
 10
-71.99991006829755
 20
21.20000000000005
 30
0.0
 11
72.00008993170243
 21
21.20000000000005
 31
0.0
  0
LINE
  5
295
330
77
100
AcDbEntity
  8
1
  6
Continuous
 62
     7
100
AcDbLine
 10
-71.99991006829755
 20
23.20000000000005
 30
0.0
 11
72.00008993170243
 21
23.20000000000005
 31
0.0
  0
LINE
  5
296
330
77
100
AcDbEntity
  8
1
  6
Continuous
 62
     7
100
AcDbLine
 10
-71.99991006829755
 20
25.70000000000005
 30
0.0
 11
72.00008993170243
 21
25.70000000000005
 31
0.0
  0
LINE
  5
297
330
77
100
AcDbEntity
  8
1
  6
Continuous
 62
     7
100
AcDbLine
 10
-71.99991006829755
 20
27.70000000000005
 30
0.0
 11
72.00008993170243
 21
27.70000000000005
 31
0.0
  0
LINE
  5
298
330
77
100
AcDbEntity
  8
1
  6
Continuous
 62
     7
100
AcDbLine
 10
-71.99991006829755
 20
30.20000000000005
 30
0.0
 11
72.00008993170243
 21
30.20000000000005
 31
0.0
  0
LINE
  5
299
330
77
100
AcDbEntity
  8
1
  6
Continuous
 62
     7
100
AcDbLine
 10
-71.99991006829755
 20
32.20000000000005
 30
0.0
 11
72.00008993170243
 21
32.20000000000005
 31
0.0
  0
LINE
  5
29A
330
77
100
AcDbEntity
  8
1
  6
Continuous
 62
     7
100
AcDbLine
 10
-71.99991006829755
 20
34.70000000000005
 30
0.0
 11
72.00008993170243
 21
34.70000000000005
 31
0.0
  0
LINE
  5
29B
330
77
100
AcDbEntity
  8
1
  6
Continuous
 62
     7
100
AcDbLine
 10
-71.99991006829755
 20
36.70000000000005
 30
0.0
 11
72.00008993170243
 21
36.70000000000005
 31
0.0
  0
LINE
  5
29C
330
77
100
AcDbEntity
  8
1
  6
Continuous
 62
     7
100
AcDbLine
 10
-71.99991006829755
 20
39.20000000000005
 30
0.0
 11
72.00008993170243
 21
39.20000000000005
 31
0.0
  0
LINE
  5
29D
330
77
100
AcDbEntity
  8
1
  6
Continuous
 62
     7
100
AcDbLine
 10
-71.99991006829755
 20
41.20000000000005
 30
0.0
 11
72.00008993170243
 21
41.20000000000005
 31
0.0
  0
LINE
  5
29E
330
77
100
AcDbEntity
  8
1
  6
Continuous
 62
     7
100
AcDbLine
 10
-71.99991006829755
 20
43.70000000000005
 30
0.0
 11
72.00008993170243
 21
43.70000000000005
 31
0.0
  0
LINE
  5
29F
330
77
100
AcDbEntity
  8
1
  6
Continuous
 62
     7
100
AcDbLine
 10
-71.99991006829755
 20
45.70000000000005
 30
0.0
 11
72.00008993170243
 21
45.70000000000005
 31
0.0
  0
LINE
  5
2A0
330
77
100
AcDbEntity
  8
1
  6
Continuous
 62
     7
100
AcDbLine
 10
72.00008993170243
 20
48.20000000000005
 30
0.0
 11
-71.99991006829755
 21
48.20000000000005
 31
0.0
  0
LINE
  5
2A1
330
77
100
AcDbEntity
  8
1
  6
Continuous
 62
     7
100
AcDbLine
 10
-72.49991006829755
 20
51.20000000000005
 30
0.0
 11
-34.99991006829756
 21
51.20000000000005
 31
0.0
  0
LINE
  5
2A2
330
77
100
AcDbEntity
  8
1
  6
Continuous
 62
     7
100
AcDbLine
 10
-72.49991006829755
 20
53.20000000000005
 30
0.0
 11
-63.49991006829755
 21
53.20000000000005
 31
0.0
  0
LINE
  5
2A3
330
77
100
AcDbEntity
  8
1
  6
Continuous
 62
     7
100
AcDbLine
 10
-72.49991006829755
 20
55.70000000000005
 30
0.0
 11
63.50008993170244
 21
55.70000000000005
 31
0.0
  0
LINE
  5
2A4
330
77
100
AcDbEntity
  8
LC-003-002-----0
  6
Continuous
 62
     7
100
AcDbLine
 10
-73.49991006829755
 20
69.70000000000005
 30
0.0
 11
-73.49991006829755
 21
55.70000000000005
 31
0.0
  0
LINE
  5
2A5
330
77
100
AcDbEntity
  8
LC-003-002-----0
  6
Continuous
 62
     7
100
AcDbLine
 10
-72.99991006829755
 20
53.20000000000005
 30
0.0
 11
-72.49991006829755
 21
53.20000000000005
 31
0.0
  0
LINE
  5
2A6
330
77
100
AcDbEntity
  8
LC-003-002-----0
  6
Continuous
 62
     7
100
AcDbLine
 10
-72.49991006829755
 20
55.70000000000005
 30
0.0
 11
-73.49991006829755
 21
55.70000000000005
 31
0.0
  0
LINE
  5
2A7
330
77
100
AcDbEntity
  8
LC-003-002-----0
  6
Continuous
 62
     7
100
AcDbLine
 10
-72.99991006829755
 20
51.20000000000005
 30
0.0
 11
-72.49991006829755
 21
51.20000000000005
 31
0.0
  0
LINE
  5
2A8
330
77
100
AcDbEntity
  8
LC-003-002-----0
  6
Continuous
 62
     7
100
AcDbLine
 10
-72.99991006829755
 20
53.20000000000005
 30
0.0
 11
-72.99991006829755
 21
51.20000000000005
 31
0.0
  0
LINE
  5
2A9
330
77
100
AcDbEntity
  8
LC-003-002-----0
  6
Continuous
 62
     7
100
AcDbLine
 10
-72.49991006829755
 20
51.20000000000005
 30
0.0
 11
-72.49991006829755
 21
48.70000000000005
 31
0.0
  0
LINE
  5
2AA
330
77
100
AcDbEntity
  8
LC-003-002-----0
  6
Continuous
 62
     7
100
AcDbLine
 10
-71.99991006829755
 20
7.69999999999999
 30
0.0
 11
-71.99991006829755
 21
7.69999999999999
 31
0.0
  0
LINE
  5
2AB
330
77
100
AcDbEntity
  8
LC-003-002-----0
  6
Continuous
 62
     7
100
AcDbLine
 10
-71.99991006829755
 20
12.20000000000005
 30
0.0
 11
-71.99991006829755
 21
12.20000000000005
 31
0.0
  0
LINE
  5
2AC
330
77
100
AcDbEntity
  8
LC-003-002-----0
  6
Continuous
 62
     7
100
AcDbLine
 10
-71.99991006829755
 20
16.70000000000005
 30
0.0
 11
-71.99991006829755
 21
16.70000000000005
 31
0.0
  0
LINE
  5
2AD
330
77
100
AcDbEntity
  8
LC-003-002-----0
  6
Continuous
 62
     7
100
AcDbLine
 10
-71.99991006829755
 20
21.20000000000005
 30
0.0
 11
-71.99991006829755
 21
21.20000000000005
 31
0.0
  0
LINE
  5
2AE
330
77
100
AcDbEntity
  8
LC-003-002-----0
  6
Continuous
 62
     7
100
AcDbLine
 10
-71.99991006829755
 20
25.70000000000005
 30
0.0
 11
-71.99991006829755
 21
25.70000000000005
 31
0.0
  0
LINE
  5
2AF
330
77
100
AcDbEntity
  8
LC-003-002-----0
  6
Continuous
 62
     7
100
AcDbLine
 10
-71.99991006829755
 20
30.20000000000005
 30
0.0
 11
-71.99991006829755
 21
30.20000000000005
 31
0.0
  0
LINE
  5
2B0
330
77
100
AcDbEntity
  8
LC-003-002-----0
  6
Continuous
 62
     7
100
AcDbLine
 10
-71.99991006829755
 20
34.70000000000005
 30
0.0
 11
-71.99991006829755
 21
34.70000000000005
 31
0.0
  0
LINE
  5
2B1
330
77
100
AcDbEntity
  8
LC-003-002-----0
  6
Continuous
 62
     7
100
AcDbLine
 10
-71.99991006829755
 20
39.20000000000005
 30
0.0
 11
-71.99991006829755
 21
39.20000000000005
 31
0.0
  0
LINE
  5
2B2
330
77
100
AcDbEntity
  8
LC-003-002-----0
  6
Continuous
 62
     7
100
AcDbLine
 10
-71.99991006829755
 20
43.70000000000005
 30
0.0
 11
-71.99991006829755
 21
43.70000000000005
 31
0.0
  0
LINE
  5
2B3
330
77
100
AcDbEntity
  8
LC-003-002-----0
  6
Continuous
 62
     7
100
AcDbLine
 10
-71.99991006829755
 20
48.20000000000005
 30
0.0
 11
-71.99991006829755
 21
48.20000000000005
 31
0.0
  0
LINE
  5
2B4
330
77
100
AcDbEntity
  8
LC-003-002-----0
  6
Continuous
 62
     7
100
AcDbLine
 10
-71.99991006829755
 20
9.69999999999999
 30
0.0
 11
-71.99991006829755
 21
9.69999999999999
 31
0.0
  0
LINE
  5
2B5
330
77
100
AcDbEntity
  8
LC-003-002-----0
  6
Continuous
 62
     7
100
AcDbLine
 10
-71.99991006829755
 20
14.20000000000005
 30
0.0
 11
-71.99991006829755
 21
14.20000000000005
 31
0.0
  0
LINE
  5
2B6
330
77
100
AcDbEntity
  8
LC-003-002-----0
  6
Continuous
 62
     7
100
AcDbLine
 10
-71.99991006829755
 20
18.70000000000005
 30
0.0
 11
-71.99991006829755
 21
18.70000000000005
 31
0.0
  0
LINE
  5
2B7
330
77
100
AcDbEntity
  8
LC-003-002-----0
  6
Continuous
 62
     7
100
AcDbLine
 10
-71.99991006829755
 20
23.20000000000005
 30
0.0
 11
-71.99991006829755
 21
23.20000000000005
 31
0.0
  0
LINE
  5
2B8
330
77
100
AcDbEntity
  8
LC-003-002-----0
  6
Continuous
 62
     7
100
AcDbLine
 10
-71.99991006829755
 20
27.70000000000005
 30
0.0
 11
-71.99991006829755
 21
27.70000000000005
 31
0.0
  0
LINE
  5
2B9
330
77
100
AcDbEntity
  8
LC-003-002-----0
  6
Continuous
 62
     7
100
AcDbLine
 10
-71.99991006829755
 20
32.20000000000005
 30
0.0
 11
-71.99991006829755
 21
32.20000000000005
 31
0.0
  0
LINE
  5
2BA
330
77
100
AcDbEntity
  8
LC-003-002-----0
  6
Continuous
 62
     7
100
AcDbLine
 10
-71.99991006829755
 20
36.70000000000005
 30
0.0
 11
-71.99991006829755
 21
36.70000000000005
 31
0.0
  0
LINE
  5
2BB
330
77
100
AcDbEntity
  8
LC-003-002-----0
  6
Continuous
 62
     7
100
AcDbLine
 10
-71.99991006829755
 20
41.20000000000005
 30
0.0
 11
-71.99991006829755
 21
41.20000000000005
 31
0.0
  0
LINE
  5
2BC
330
77
100
AcDbEntity
  8
LC-003-002-----0
  6
Continuous
 62
     7
100
AcDbLine
 10
-71.99991006829755
 20
45.70000000000005
 30
0.0
 11
-71.99991006829755
 21
45.70000000000005
 31
0.0
  0
LINE
  5
2BD
330
77
100
AcDbEntity
  8
LC-003-002-----0
  6
Continuous
 62
     7
100
AcDbLine
 10
-72.49991006829755
 20
9.19999999999999
 30
0.0
 11
-72.49991006829755
 21
8.19999999999999
 31
0.0
  0
LINE
  5
2BE
330
77
100
AcDbEntity
  8
LC-003-002-----0
  6
Continuous
 62
     7
100
AcDbLine
 10
-72.49991006829755
 20
13.70000000000005
 30
0.0
 11
-72.49991006829755
 21
12.70000000000005
 31
0.0
  0
LINE
  5
2BF
330
77
100
AcDbEntity
  8
LC-003-002-----0
  6
Continuous
 62
     7
100
AcDbLine
 10
-72.49991006829755
 20
18.20000000000005
 30
0.0
 11
-72.49991006829755
 21
17.20000000000005
 31
0.0
  0
LINE
  5
2C0
330
77
100
AcDbEntity
  8
LC-003-002-----0
  6
Continuous
 62
     7
100
AcDbLine
 10
-72.49991006829755
 20
22.70000000000005
 30
0.0
 11
-72.49991006829755
 21
21.70000000000005
 31
0.0
  0
LINE
  5
2C1
330
77
100
AcDbEntity
  8
LC-003-002-----0
  6
Continuous
 62
     7
100
AcDbLine
 10
-72.49991006829755
 20
27.20000000000005
 30
0.0
 11
-72.49991006829755
 21
26.20000000000005
 31
0.0
  0
LINE
  5
2C2
330
77
100
AcDbEntity
  8
LC-003-002-----0
  6
Continuous
 62
     7
100
AcDbLine
 10
-72.49991006829755
 20
31.70000000000005
 30
0.0
 11
-72.49991006829755
 21
30.70000000000005
 31
0.0
  0
LINE
  5
2C3
330
77
100
AcDbEntity
  8
LC-003-002-----0
  6
Continuous
 62
     7
100
AcDbLine
 10
-72.49991006829755
 20
36.20000000000005
 30
0.0
 11
-72.49991006829755
 21
35.20000000000005
 31
0.0
  0
LINE
  5
2C4
330
77
100
AcDbEntity
  8
LC-003-002-----0
  6
Continuous
 62
     7
100
AcDbLine
 10
-72.49991006829755
 20
40.70000000000005
 30
0.0
 11
-72.49991006829755
 21
39.70000000000005
 31
0.0
  0
LINE
  5
2C5
330
77
100
AcDbEntity
  8
LC-003-002-----0
  6
Continuous
 62
     7
100
AcDbLine
 10
-72.49991006829755
 20
45.20000000000005
 30
0.0
 11
-72.49991006829755
 21
44.20000000000005
 31
0.0
  0
LINE
  5
2C6
330
77
100
AcDbEntity
  8
LC-003-002-----0
  6
Continuous
 62
     7
100
AcDbLine
 10
-72.49991006829755
 20
55.70000000000005
 30
0.0
 11
-72.49991006829755
 21
53.20000000000005
 31
0.0
  0
LINE
  5
2C7
330
77
100
AcDbEntity
  8
LC-003-002-----0
  6
Continuous
 62
     7
100
AcDbLine
 10
73.50008993170243
 20
69.70000000000005
 30
0.0
 11
-73.49991006829755
 21
69.70000000000005
 31
0.0
  0
LINE
  5
2C8
330
77
100
AcDbEntity
  8
LC-003-002-----0
  6
Continuous
 62
     7
100
AcDbLine
 10
73.50008993170243
 20
69.70000000000005
 30
0.0
 11
73.50008993170243
 21
55.70000000000005
 31
0.0
  0
LINE
  5
2C9
330
77
100
AcDbEntity
  8
LC-003-002-----0
  6
Continuous
 62
     7
100
AcDbLine
 10
73.00008993170243
 20
53.20000000000005
 30
0.0
 11
72.50008993170243
 21
53.20000000000005
 31
0.0
  0
LINE
  5
2CA
330
77
100
AcDbEntity
  8
LC-003-002-----0
  6
Continuous
 62
     7
100
AcDbLine
 10
72.50008993170243
 20
55.70000000000005
 30
0.0
 11
73.50008993170243
 21
55.70000000000005
 31
0.0
  0
LINE
  5
2CB
330
77
100
AcDbEntity
  8
LC-003-002-----0
  6
Continuous
 62
     7
100
AcDbLine
 10
73.00008993170243
 20
51.20000000000005
 30
0.0
 11
72.50008993170243
 21
51.20000000000005
 31
0.0
  0
LINE
  5
2CC
330
77
100
AcDbEntity
  8
LC-003-002-----0
  6
Continuous
 62
     7
100
AcDbLine
 10
73.00008993170243
 20
53.20000000000005
 30
0.0
 11
73.00008993170243
 21
51.20000000000005
 31
0.0
  0
LINE
  5
2CD
330
77
100
AcDbEntity
  8
LC-003-002-----0
  6
Continuous
 62
     7
100
AcDbLine
 10
72.50008993170243
 20
51.20000000000005
 30
0.0
 11
72.50008993170243
 21
48.70000000000005
 31
0.0
  0
LINE
  5
2CE
330
77
100
AcDbEntity
  8
LC-003-002-----0
  6
Continuous
 62
     7
100
AcDbLine
 10
72.00008993170243
 20
7.69999999999999
 30
0.0
 11
72.00008993170243
 21
7.69999999999999
 31
0.0
  0
LINE
  5
2CF
330
77
100
AcDbEntity
  8
LC-003-002-----0
  6
Continuous
 62
     7
100
AcDbLine
 10
72.00008993170243
 20
12.20000000000005
 30
0.0
 11
72.00008993170243
 21
12.20000000000005
 31
0.0
  0
LINE
  5
2D0
330
77
100
AcDbEntity
  8
LC-003-002-----0
  6
Continuous
 62
     7
100
AcDbLine
 10
72.00008993170243
 20
16.70000000000005
 30
0.0
 11
72.00008993170243
 21
16.70000000000005
 31
0.0
  0
LINE
  5
2D1
330
77
100
AcDbEntity
  8
LC-003-002-----0
  6
Continuous
 62
     7
100
AcDbLine
 10
72.00008993170243
 20
21.20000000000005
 30
0.0
 11
72.00008993170243
 21
21.20000000000005
 31
0.0
  0
LINE
  5
2D2
330
77
100
AcDbEntity
  8
LC-003-002-----0
  6
Continuous
 62
     7
100
AcDbLine
 10
72.00008993170243
 20
25.70000000000005
 30
0.0
 11
72.00008993170243
 21
25.70000000000005
 31
0.0
  0
LINE
  5
2D3
330
77
100
AcDbEntity
  8
LC-003-002-----0
  6
Continuous
 62
     7
100
AcDbLine
 10
72.00008993170243
 20
30.20000000000005
 30
0.0
 11
72.00008993170243
 21
30.20000000000005
 31
0.0
  0
LINE
  5
2D4
330
77
100
AcDbEntity
  8
LC-003-002-----0
  6
Continuous
 62
     7
100
AcDbLine
 10
72.00008993170243
 20
34.70000000000005
 30
0.0
 11
72.00008993170243
 21
34.70000000000005
 31
0.0
  0
LINE
  5
2D5
330
77
100
AcDbEntity
  8
LC-003-002-----0
  6
Continuous
 62
     7
100
AcDbLine
 10
72.00008993170243
 20
39.20000000000005
 30
0.0
 11
72.00008993170243
 21
39.20000000000005
 31
0.0
  0
LINE
  5
2D6
330
77
100
AcDbEntity
  8
LC-003-002-----0
  6
Continuous
 62
     7
100
AcDbLine
 10
72.00008993170243
 20
43.70000000000005
 30
0.0
 11
72.00008993170243
 21
43.70000000000005
 31
0.0
  0
LINE
  5
2D7
330
77
100
AcDbEntity
  8
LC-003-002-----0
  6
Continuous
 62
     7
100
AcDbLine
 10
72.00008993170243
 20
48.20000000000005
 30
0.0
 11
72.00008993170243
 21
48.20000000000005
 31
0.0
  0
LINE
  5
2D8
330
77
100
AcDbEntity
  8
LC-003-002-----0
  6
Continuous
 62
     7
100
AcDbLine
 10
72.00008993170243
 20
9.69999999999999
 30
0.0
 11
72.00008993170243
 21
9.69999999999999
 31
0.0
  0
LINE
  5
2D9
330
77
100
AcDbEntity
  8
LC-003-002-----0
  6
Continuous
 62
     7
100
AcDbLine
 10
72.00008993170243
 20
14.20000000000005
 30
0.0
 11
72.00008993170243
 21
14.20000000000005
 31
0.0
  0
LINE
  5
2DA
330
77
100
AcDbEntity
  8
LC-003-002-----0
  6
Continuous
 62
     7
100
AcDbLine
 10
72.00008993170243
 20
18.70000000000005
 30
0.0
 11
72.00008993170243
 21
18.70000000000005
 31
0.0
  0
LINE
  5
2DB
330
77
100
AcDbEntity
  8
LC-003-002-----0
  6
Continuous
 62
     7
100
AcDbLine
 10
72.00008993170243
 20
23.20000000000005
 30
0.0
 11
72.00008993170243
 21
23.20000000000005
 31
0.0
  0
LINE
  5
2DC
330
77
100
AcDbEntity
  8
LC-003-002-----0
  6
Continuous
 62
     7
100
AcDbLine
 10
72.00008993170243
 20
27.70000000000005
 30
0.0
 11
72.00008993170243
 21
27.70000000000005
 31
0.0
  0
LINE
  5
2DD
330
77
100
AcDbEntity
  8
LC-003-002-----0
  6
Continuous
 62
     7
100
AcDbLine
 10
72.00008993170243
 20
32.20000000000005
 30
0.0
 11
72.00008993170243
 21
32.20000000000005
 31
0.0
  0
LINE
  5
2DE
330
77
100
AcDbEntity
  8
LC-003-002-----0
  6
Continuous
 62
     7
100
AcDbLine
 10
72.00008993170243
 20
36.70000000000005
 30
0.0
 11
72.00008993170243
 21
36.70000000000005
 31
0.0
  0
LINE
  5
2DF
330
77
100
AcDbEntity
  8
LC-003-002-----0
  6
Continuous
 62
     7
100
AcDbLine
 10
72.00008993170243
 20
41.20000000000005
 30
0.0
 11
72.00008993170243
 21
41.20000000000005
 31
0.0
  0
LINE
  5
2E0
330
77
100
AcDbEntity
  8
LC-003-002-----0
  6
Continuous
 62
     7
100
AcDbLine
 10
72.00008993170243
 20
45.70000000000005
 30
0.0
 11
72.00008993170243
 21
45.70000000000005
 31
0.0
  0
LINE
  5
2E1
330
77
100
AcDbEntity
  8
LC-003-002-----0
  6
Continuous
 62
     7
100
AcDbLine
 10
72.50008993170243
 20
9.19999999999999
 30
0.0
 11
72.50008993170243
 21
8.19999999999999
 31
0.0
  0
LINE
  5
2E2
330
77
100
AcDbEntity
  8
LC-003-002-----0
  6
Continuous
 62
     7
100
AcDbLine
 10
72.50008993170243
 20
13.70000000000005
 30
0.0
 11
72.50008993170243
 21
12.70000000000005
 31
0.0
  0
LINE
  5
2E3
330
77
100
AcDbEntity
  8
LC-003-002-----0
  6
Continuous
 62
     7
100
AcDbLine
 10
72.50008993170243
 20
18.20000000000005
 30
0.0
 11
72.50008993170243
 21
17.20000000000005
 31
0.0
  0
LINE
  5
2E4
330
77
100
AcDbEntity
  8
LC-003-002-----0
  6
Continuous
 62
     7
100
AcDbLine
 10
72.50008993170243
 20
22.70000000000005
 30
0.0
 11
72.50008993170243
 21
21.70000000000005
 31
0.0
  0
LINE
  5
2E5
330
77
100
AcDbEntity
  8
LC-003-002-----0
  6
Continuous
 62
     7
100
AcDbLine
 10
72.50008993170243
 20
27.20000000000005
 30
0.0
 11
72.50008993170243
 21
26.20000000000005
 31
0.0
  0
LINE
  5
2E6
330
77
100
AcDbEntity
  8
LC-003-002-----0
  6
Continuous
 62
     7
100
AcDbLine
 10
72.50008993170243
 20
31.70000000000005
 30
0.0
 11
72.50008993170243
 21
30.70000000000005
 31
0.0
  0
LINE
  5
2E7
330
77
100
AcDbEntity
  8
LC-003-002-----0
  6
Continuous
 62
     7
100
AcDbLine
 10
72.50008993170243
 20
36.20000000000005
 30
0.0
 11
72.50008993170243
 21
35.20000000000005
 31
0.0
  0
LINE
  5
2E8
330
77
100
AcDbEntity
  8
LC-003-002-----0
  6
Continuous
 62
     7
100
AcDbLine
 10
72.50008993170243
 20
40.70000000000005
 30
0.0
 11
72.50008993170243
 21
39.70000000000005
 31
0.0
  0
LINE
  5
2E9
330
77
100
AcDbEntity
  8
LC-003-002-----0
  6
Continuous
 62
     7
100
AcDbLine
 10
72.50008993170243
 20
45.20000000000005
 30
0.0
 11
72.50008993170243
 21
44.20000000000005
 31
0.0
  0
LINE
  5
2EA
330
77
100
AcDbEntity
  8
LC-003-002-----0
  6
Continuous
 62
     7
100
AcDbLine
 10
72.50008993170243
 20
55.70000000000005
 30
0.0
 11
72.50008993170243
 21
53.20000000000005
 31
0.0
  0
LINE
  5
2EB
330
77
100
AcDbEntity
  8
1
  6
Continuous
 62
     7
100
AcDbLine
 10
-34.99991006829756
 20
53.20000000000005
 30
0.0
 11
-34.99991006829756
 21
51.20000000000005
 31
0.0
  0
LINE
  5
2EC
330
77
100
AcDbEntity
  8
1
  6
Continuous
 62
     7
100
AcDbLine
 10
-34.99991006829756
 20
51.20000000000005
 30
0.0
 11
35.00008993170244
 21
51.20000000000005
 31
0.0
  0
LINE
  5
2ED
330
77
100
AcDbEntity
  8
1
  6
Continuous
 62
     7
100
AcDbLine
 10
-34.99991006829756
 20
53.20000000000005
 30
0.0
 11
35.00008993170244
 21
53.20000000000005
 31
0.0
  0
LINE
  5
2EE
330
77
100
AcDbEntity
  8
1
  6
Continuous
 62
     7
100
AcDbLine
 10
35.00008993170244
 20
51.20000000000005
 30
0.0
 11
35.00008993170244
 21
53.20000000000005
 31
0.0
  0
LINE
  5
2EF
330
77
100
AcDbEntity
  8
1
  6
Continuous
 62
     7
100
AcDbLine
 10
35.00008993170244
 20
51.20000000000005
 30
0.0
 11
63.50008993170244
 21
51.20000000000005
 31
0.0
  0
LINE
  5
2F0
330
77
100
AcDbEntity
  8
1
  6
Continuous
 62
     7
100
AcDbLine
 10
35.00008993170244
 20
51.20000000000005
 30
0.0
 11
63.50008993170244
 21
55.70000000000005
 31
0.0
  0
LINE
  5
2F1
330
77
100
AcDbEntity
  8
1
  6
Continuous
 62
     7
100
AcDbLine
 10
63.50008993170244
 20
55.70000000000005
 30
0.0
 11
72.50008993170243
 21
55.70000000000005
 31
0.0
  0
LINE
  5
2F2
330
77
100
AcDbEntity
  8
1
  6
Continuous
 62
     7
100
AcDbLine
 10
63.50008993170244
 20
55.70000000000005
 30
0.0
 11
63.50008993170244
 21
53.20000000000005
 31
0.0
  0
LINE
  5
2F3
330
77
100
AcDbEntity
  8
1
  6
Continuous
 62
     7
100
AcDbLine
 10
63.50008993170244
 20
51.20000000000005
 30
0.0
 11
72.50008993170243
 21
51.20000000000005
 31
0.0
  0
LINE
  5
2F4
330
77
100
AcDbEntity
  8
1
  6
Continuous
 62
     7
100
AcDbLine
 10
72.50008993170243
 20
53.20000000000005
 30
0.0
 11
63.50008993170244
 21
53.20000000000005
 31
0.0
  0
LINE
  5
2F5
330
77
100
AcDbEntity
  8
1
  6
Continuous
 62
     7
100
AcDbLine
 10
63.50008993170244
 20
53.20000000000005
 30
0.0
 11
63.50008993170244
 21
51.20000000000005
 31
0.0
  0
LINE
  5
2F6
330
77
100
AcDbEntity
  8
1
  6
Continuous
 62
     7
100
AcDbLine
 10
-63.49991006829755
 20
55.70000000000005
 30
0.0
 11
-34.99991006829756
 21
51.20000000000005
 31
0.0
  0
LINE
  5
2F7
330
77
100
AcDbEntity
  8
1
  6
Continuous
 62
     7
100
AcDbLine
 10
-63.49991006829755
 20
51.20000000000005
 30
0.0
 11
-63.49991006829755
 21
53.20000000000005
 31
0.0
  0
LINE
  5
2F8
330
77
100
AcDbEntity
  8
1
  6
Continuous
 62
     7
100
AcDbLine
 10
-63.49991006829755
 20
53.20000000000005
 30
0.0
 11
-63.49991006829755
 21
55.70000000000005
 31
0.0
  0
ARC
  5
2F9
330
77
100
AcDbEntity
  8
LC-003-002-----0
  6
Continuous
 62
     7
100
AcDbCircle
 10
72.00008993170243
 20
6.44999999999999
 30
0.0
 40
1.25
100
AcDbArc
 50
90.0
 51
-90.0
  0
ARC
  5
2FA
330
77
100
AcDbEntity
  8
LC-009-002-RND-0
  6
Continuous
 62
     7
100
AcDbCircle
 10
72.00008993170243
 20
4.69999999999999
 30
0.0
 40
0.5
100
AcDbArc
 50
0.0
 51
90.0
  0
ARC
  5
2FB
330
77
100
AcDbEntity
  8
LC-003-002-----0
  6
Continuous
 62
     7
100
AcDbCircle
 10
-71.99991006829755
 20
6.44999999999999
 30
0.0
 40
1.25
100
AcDbArc
 50
-90.0
 51
90.0
  0
ARC
  5
2FC
330
77
100
AcDbEntity
  8
LC-009-002-RND-0
  6
Continuous
 62
     7
100
AcDbCircle
 10
-71.99991006829755
 20
4.69999999999999
 30
0.0
 40
0.5
100
AcDbArc
 50
90.0
 51
180.0
  0
ARC
  5
2FD
330
77
100
AcDbEntity
  8
LC-003-002-----0
  6
Continuous
 62
     7
100
AcDbCircle
 10
-71.99991006829755
 20
10.94999999999999
 30
0.0
 40
1.250000000000002
100
AcDbArc
 50
-90.0
 51
90.0
  0
ARC
  5
2FE
330
77
100
AcDbEntity
  8
LC-003-002-----0
  6
Continuous
 62
     7
100
AcDbCircle
 10
-71.99991006829755
 20
15.45000000000005
 30
0.0
 40
1.25
100
AcDbArc
 50
-90.0
 51
90.0
  0
ARC
  5
2FF
330
77
100
AcDbEntity
  8
LC-003-002-----0
  6
Continuous
 62
     7
100
AcDbCircle
 10
-71.99991006829755
 20
19.95000000000005
 30
0.0
 40
1.25
100
AcDbArc
 50
-90.0
 51
90.0
  0
ARC
  5
300
330
77
100
AcDbEntity
  8
LC-003-002-----0
  6
Continuous
 62
     7
100
AcDbCircle
 10
-71.99991006829755
 20
24.45000000000005
 30
0.0
 40
1.25
100
AcDbArc
 50
-90.0
 51
90.0
  0
ARC
  5
301
330
77
100
AcDbEntity
  8
LC-003-002-----0
  6
Continuous
 62
     7
100
AcDbCircle
 10
-71.99991006829755
 20
28.95000000000005
 30
0.0
 40
1.25
100
AcDbArc
 50
-90.0
 51
90.0
  0
ARC
  5
302
330
77
100
AcDbEntity
  8
LC-003-002-----0
  6
Continuous
 62
     7
100
AcDbCircle
 10
-71.99991006829755
 20
33.45000000000005
 30
0.0
 40
1.25
100
AcDbArc
 50
-90.0
 51
90.0
  0
ARC
  5
303
330
77
100
AcDbEntity
  8
LC-003-002-----0
  6
Continuous
 62
     7
100
AcDbCircle
 10
-71.99991006829755
 20
37.95000000000005
 30
0.0
 40
1.25
100
AcDbArc
 50
-90.0
 51
90.0
  0
ARC
  5
304
330
77
100
AcDbEntity
  8
LC-003-002-----0
  6
Continuous
 62
     7
100
AcDbCircle
 10
-71.99991006829755
 20
42.45000000000005
 30
0.0
 40
1.25
100
AcDbArc
 50
-90.0
 51
90.0
  0
ARC
  5
305
330
77
100
AcDbEntity
  8
LC-003-002-----0
  6
Continuous
 62
     7
100
AcDbCircle
 10
-71.99991006829755
 20
46.95000000000005
 30
0.0
 40
1.25
100
AcDbArc
 50
-90.0
 51
90.0
  0
ARC
  5
306
330
77
100
AcDbEntity
  8
LC-009-002-RND-0
  6
Continuous
 62
     7
100
AcDbCircle
 10
-71.99991006829755
 20
9.19999999999999
 30
0.0
 40
0.5
100
AcDbArc
 50
90.0
 51
180.0
  0
ARC
  5
307
330
77
100
AcDbEntity
  8
LC-009-002-RND-0
  6
Continuous
 62
     7
100
AcDbCircle
 10
-71.99991006829755
 20
13.70000000000005
 30
0.0
 40
0.5
100
AcDbArc
 50
90.0
 51
180.0
  0
ARC
  5
308
330
77
100
AcDbEntity
  8
LC-009-002-RND-0
  6
Continuous
 62
     7
100
AcDbCircle
 10
-71.99991006829755
 20
18.20000000000005
 30
0.0
 40
0.5
100
AcDbArc
 50
90.0
 51
180.0
  0
ARC
  5
309
330
77
100
AcDbEntity
  8
LC-009-002-RND-0
  6
Continuous
 62
     7
100
AcDbCircle
 10
-71.99991006829755
 20
22.70000000000005
 30
0.0
 40
0.5
100
AcDbArc
 50
90.0
 51
180.0
  0
ARC
  5
30A
330
77
100
AcDbEntity
  8
LC-009-002-RND-0
  6
Continuous
 62
     7
100
AcDbCircle
 10
-71.99991006829755
 20
27.20000000000005
 30
0.0
 40
0.5
100
AcDbArc
 50
90.0
 51
180.0
  0
ARC
  5
30B
330
77
100
AcDbEntity
  8
LC-009-002-RND-0
  6
Continuous
 62
     7
100
AcDbCircle
 10
-71.99991006829755
 20
31.70000000000005
 30
0.0
 40
0.5000000000000036
100
AcDbArc
 50
90.0
 51
180.0
  0
ARC
  5
30C
330
77
100
AcDbEntity
  8
LC-009-002-RND-0
  6
Continuous
 62
     7
100
AcDbCircle
 10
-71.99991006829755
 20
36.20000000000005
 30
0.0
 40
0.5
100
AcDbArc
 50
90.0
 51
180.0
  0
ARC
  5
30D
330
77
100
AcDbEntity
  8
LC-009-002-RND-0
  6
Continuous
 62
     7
100
AcDbCircle
 10
-71.99991006829755
 20
40.70000000000005
 30
0.0
 40
0.5
100
AcDbArc
 50
90.0
 51
180.0
  0
ARC
  5
30E
330
77
100
AcDbEntity
  8
LC-009-002-RND-0
  6
Continuous
 62
     7
100
AcDbCircle
 10
-71.99991006829755
 20
45.20000000000005
 30
0.0
 40
0.5
100
AcDbArc
 50
90.0
 51
180.0
  0
ARC
  5
30F
330
77
100
AcDbEntity
  8
LC-009-002-RND-0
  6
Continuous
 62
     7
100
AcDbCircle
 10
-71.99991006829755
 20
48.70000000000005
 30
0.0
 40
0.5
100
AcDbArc
 50
180.0
 51
-90.0
  0
ARC
  5
310
330
77
100
AcDbEntity
  8
LC-009-002-RND-0
  6
Continuous
 62
     7
100
AcDbCircle
 10
-71.99991006829755
 20
44.20000000000005
 30
0.0
 40
0.5
100
AcDbArc
 50
180.0
 51
-90.0
  0
ARC
  5
311
330
77
100
AcDbEntity
  8
LC-009-002-RND-0
  6
Continuous
 62
     7
100
AcDbCircle
 10
-71.99991006829755
 20
39.70000000000005
 30
0.0
 40
0.5
100
AcDbArc
 50
180.0
 51
-90.0
  0
ARC
  5
312
330
77
100
AcDbEntity
  8
LC-009-002-RND-0
  6
Continuous
 62
     7
100
AcDbCircle
 10
-71.99991006829755
 20
35.20000000000005
 30
0.0
 40
0.5
100
AcDbArc
 50
180.0
 51
-90.0
  0
ARC
  5
313
330
77
100
AcDbEntity
  8
LC-009-002-RND-0
  6
Continuous
 62
     7
100
AcDbCircle
 10
-71.99991006829755
 20
30.70000000000005
 30
0.0
 40
0.5
100
AcDbArc
 50
180.0
 51
-90.0
  0
ARC
  5
314
330
77
100
AcDbEntity
  8
LC-009-002-RND-0
  6
Continuous
 62
     7
100
AcDbCircle
 10
-71.99991006829755
 20
26.20000000000005
 30
0.0
 40
0.5
100
AcDbArc
 50
180.0
 51
-90.0
  0
ARC
  5
315
330
77
100
AcDbEntity
  8
LC-009-002-RND-0
  6
Continuous
 62
     7
100
AcDbCircle
 10
-71.99991006829755
 20
21.70000000000005
 30
0.0
 40
0.5
100
AcDbArc
 50
180.0
 51
-90.0
  0
ARC
  5
316
330
77
100
AcDbEntity
  8
LC-009-002-RND-0
  6
Continuous
 62
     7
100
AcDbCircle
 10
-71.99991006829755
 20
12.70000000000005
 30
0.0
 40
0.5
100
AcDbArc
 50
180.0
 51
-90.0
  0
ARC
  5
317
330
77
100
AcDbEntity
  8
LC-009-002-RND-0
  6
Continuous
 62
     7
100
AcDbCircle
 10
-71.99991006829755
 20
17.20000000000005
 30
0.0
 40
0.5
100
AcDbArc
 50
180.0
 51
-90.0
  0
ARC
  5
318
330
77
100
AcDbEntity
  8
LC-009-002-RND-0
  6
Continuous
 62
     7
100
AcDbCircle
 10
-71.99991006829755
 20
8.19999999999999
 30
0.0
 40
0.5
100
AcDbArc
 50
180.0
 51
-90.0
  0
ARC
  5
319
330
77
100
AcDbEntity
  8
LC-003-002-----0
  6
Continuous
 62
     7
100
AcDbCircle
 10
72.00008993170243
 20
10.94999999999999
 30
0.0
 40
1.25000000000006
100
AcDbArc
 50
90.0
 51
-90.0
  0
ARC
  5
31A
330
77
100
AcDbEntity
  8
LC-003-002-----0
  6
Continuous
 62
     7
100
AcDbCircle
 10
72.00008993170243
 20
15.45000000000005
 30
0.0
 40
1.249999999999998
100
AcDbArc
 50
90.0
 51
-90.0
  0
ARC
  5
31B
330
77
100
AcDbEntity
  8
LC-003-002-----0
  6
Continuous
 62
     7
100
AcDbCircle
 10
72.00008993170243
 20
19.95000000000005
 30
0.0
 40
1.25
100
AcDbArc
 50
90.0
 51
-90.0
  0
ARC
  5
31C
330
77
100
AcDbEntity
  8
LC-003-002-----0
  6
Continuous
 62
     7
100
AcDbCircle
 10
72.00008993170243
 20
24.45000000000005
 30
0.0
 40
1.25
100
AcDbArc
 50
90.0
 51
-90.0
  0
ARC
  5
31D
330
77
100
AcDbEntity
  8
LC-003-002-----0
  6
Continuous
 62
     7
100
AcDbCircle
 10
72.00008993170243
 20
28.95000000000005
 30
0.0
 40
1.25
100
AcDbArc
 50
90.0
 51
-90.0
  0
ARC
  5
31E
330
77
100
AcDbEntity
  8
LC-003-002-----0
  6
Continuous
 62
     7
100
AcDbCircle
 10
72.00008993170243
 20
33.45000000000005
 30
0.0
 40
1.25
100
AcDbArc
 50
90.0
 51
-90.0
  0
ARC
  5
31F
330
77
100
AcDbEntity
  8
LC-003-002-----0
  6
Continuous
 62
     7
100
AcDbCircle
 10
72.00008993170243
 20
37.95000000000005
 30
0.0
 40
1.25
100
AcDbArc
 50
90.0
 51
-90.0
  0
ARC
  5
320
330
77
100
AcDbEntity
  8
LC-003-002-----0
  6
Continuous
 62
     7
100
AcDbCircle
 10
72.00008993170243
 20
42.45000000000005
 30
0.0
 40
1.25
100
AcDbArc
 50
90.0
 51
-90.0
  0
ARC
  5
321
330
77
100
AcDbEntity
  8
LC-003-002-----0
  6
Continuous
 62
     7
100
AcDbCircle
 10
72.00008993170243
 20
46.95000000000005
 30
0.0
 40
1.25
100
AcDbArc
 50
90.0
 51
-90.0
  0
ARC
  5
322
330
77
100
AcDbEntity
  8
LC-009-002-RND-0
  6
Continuous
 62
     7
100
AcDbCircle
 10
72.00008993170243
 20
9.19999999999999
 30
0.0
 40
0.5
100
AcDbArc
 50
0.0
 51
90.0
  0
ARC
  5
323
330
77
100
AcDbEntity
  8
LC-009-002-RND-0
  6
Continuous
 62
     7
100
AcDbCircle
 10
72.00008993170243
 20
13.70000000000005
 30
0.0
 40
0.5
100
AcDbArc
 50
0.0
 51
90.0
  0
ARC
  5
324
330
77
100
AcDbEntity
  8
LC-009-002-RND-0
  6
Continuous
 62
     7
100
AcDbCircle
 10
72.00008993170243
 20
18.20000000000005
 30
0.0
 40
0.5
100
AcDbArc
 50
0.0
 51
90.0
  0
ARC
  5
325
330
77
100
AcDbEntity
  8
LC-009-002-RND-0
  6
Continuous
 62
     7
100
AcDbCircle
 10
72.00008993170243
 20
22.70000000000005
 30
0.0
 40
0.5
100
AcDbArc
 50
0.0
 51
90.0
  0
ARC
  5
326
330
77
100
AcDbEntity
  8
LC-009-002-RND-0
  6
Continuous
 62
     7
100
AcDbCircle
 10
72.00008993170243
 20
27.20000000000005
 30
0.0
 40
0.5
100
AcDbArc
 50
0.0
 51
90.0
  0
ARC
  5
327
330
77
100
AcDbEntity
  8
LC-009-002-RND-0
  6
Continuous
 62
     7
100
AcDbCircle
 10
72.00008993170243
 20
31.70000000000005
 30
0.0
 40
0.5
100
AcDbArc
 50
0.0
 51
90.0
  0
ARC
  5
328
330
77
100
AcDbEntity
  8
LC-009-002-RND-0
  6
Continuous
 62
     7
100
AcDbCircle
 10
72.00008993170243
 20
36.20000000000005
 30
0.0
 40
0.5
100
AcDbArc
 50
0.0
 51
90.0
  0
ARC
  5
329
330
77
100
AcDbEntity
  8
LC-009-002-RND-0
  6
Continuous
 62
     7
100
AcDbCircle
 10
72.00008993170243
 20
40.70000000000005
 30
0.0
 40
0.5
100
AcDbArc
 50
0.0
 51
90.0
  0
ARC
  5
32A
330
77
100
AcDbEntity
  8
LC-009-002-RND-0
  6
Continuous
 62
     7
100
AcDbCircle
 10
72.00008993170243
 20
45.20000000000005
 30
0.0
 40
0.5
100
AcDbArc
 50
0.0
 51
90.0
  0
ARC
  5
32B
330
77
100
AcDbEntity
  8
LC-009-002-RND-0
  6
Continuous
 62
     7
100
AcDbCircle
 10
72.00008993170243
 20
48.70000000000005
 30
0.0
 40
0.5
100
AcDbArc
 50
-90.0
 51
0.0
  0
ARC
  5
32C
330
77
100
AcDbEntity
  8
LC-009-002-RND-0
  6
Continuous
 62
     7
100
AcDbCircle
 10
72.00008993170243
 20
44.20000000000005
 30
0.0
 40
0.5
100
AcDbArc
 50
-90.0
 51
0.0
  0
ARC
  5
32D
330
77
100
AcDbEntity
  8
LC-009-002-RND-0
  6
Continuous
 62
     7
100
AcDbCircle
 10
72.00008993170243
 20
39.70000000000005
 30
0.0
 40
0.5
100
AcDbArc
 50
-90.0
 51
0.0
  0
ARC
  5
32E
330
77
100
AcDbEntity
  8
LC-009-002-RND-0
  6
Continuous
 62
     7
100
AcDbCircle
 10
72.00008993170243
 20
35.20000000000005
 30
0.0
 40
0.5
100
AcDbArc
 50
-90.0
 51
0.0
  0
ARC
  5
32F
330
77
100
AcDbEntity
  8
LC-009-002-RND-0
  6
Continuous
 62
     7
100
AcDbCircle
 10
72.00008993170243
 20
30.70000000000005
 30
0.0
 40
0.5
100
AcDbArc
 50
-90.0
 51
0.0
  0
ARC
  5
330
330
77
100
AcDbEntity
  8
LC-009-002-RND-0
  6
Continuous
 62
     7
100
AcDbCircle
 10
72.00008993170243
 20
26.20000000000005
 30
0.0
 40
0.5
100
AcDbArc
 50
-90.0
 51
0.0
  0
ARC
  5
331
330
77
100
AcDbEntity
  8
LC-009-002-RND-0
  6
Continuous
 62
     7
100
AcDbCircle
 10
72.00008993170243
 20
21.70000000000005
 30
0.0
 40
0.5
100
AcDbArc
 50
-90.0
 51
0.0
  0
ARC
  5
332
330
77
100
AcDbEntity
  8
LC-009-002-RND-0
  6
Continuous
 62
     7
100
AcDbCircle
 10
72.00008993170243
 20
12.70000000000005
 30
0.0
 40
0.5
100
AcDbArc
 50
-90.0
 51
0.0
  0
ARC
  5
333
330
77
100
AcDbEntity
  8
LC-009-002-RND-0
  6
Continuous
 62
     7
100
AcDbCircle
 10
72.00008993170243
 20
17.20000000000005
 30
0.0
 40
0.5
100
AcDbArc
 50
-90.0
 51
0.0
  0
ARC
  5
334
330
77
100
AcDbEntity
  8
LC-009-002-RND-0
  6
Continuous
 62
     7
100
AcDbCircle
 10
72.00008993170243
 20
8.19999999999999
 30
0.0
 40
0.5
100
AcDbArc
 50
-90.0
 51
0.0
  0
ENDBLK
  5
79
330
77
100
AcDbEntity
  8
0
100
AcDbBlockEnd
  0
BLOCK
  5
7C
330
7A
100
AcDbEntity
  8
0
100
AcDbBlockBegin
  2
HL_66_0_Aufsatzrahmen
 70
     0
 71
     0
 10
-3.92514290157587
 20
-1307.93044053037
 30
0.0
  3
HL_66_0_Aufsatzrahmen
  1

  0
INSERT
  5
7B
330
7A
100
AcDbEntity
  8
1
100
AcDbBlockReference
  2
062B_2E_Aufsatzrahmen
 10
-69.62906273015423
 20
-1383.377514897322
 30
0.0
  0
ENDBLK
  5
7D
330
7A
100
AcDbEntity
  8
0
100
AcDbBlockEnd
  0
BLOCK
  5
33D
330
335
100
AcDbEntity
  8
0
100
AcDbBlockBegin
  2
*D14
 70
     1
 71
     0
 10
0.0
 20
0.0
 30
0.0
  3
*D14
  1

  0
LINE
  5
336
330
335
100
AcDbEntity
  8
1
  6
Continuous
 62
     4
100
AcDbLine
 10
-160.751659
 20
-107.0266037984278
 30
0.0
 11
-160.751659
 21
-3.00045699999998
 31
0.0
  0
LINE
  5
337
330
335
100
AcDbEntity
  8
1
  6
Continuous
 62
     4
100
AcDbLine
 10
-150.751659
 20
-3.00045699999998
 30
0.0
 11
-162.751659
 21
-3.00045699999998
 31
0.0
  0
LINE
  5
338
330
335
100
AcDbEntity
  8
1
  6
Continuous
 62
     4
100
AcDbLine
 10
-72.24985639872348
 20
-107.0266037984278
 30
0.0
 11
-162.751659
 21
-107.0266037984278
 31
0.0
  0
SOLID
  5
339
330
335
100
AcDbEntity
  8
1
 62
     4
100
AcDbTrace
 10
-162.0681839758739
 20
-97.0266037984278
 30
0.0
 11
-159.435134024126
 21
-97.0266037984278
 31
0.0
 12
-160.751659
 22
-107.0266037984278
 32
0.0
 13
-160.751659
 23
-107.0266037984278
 33
0.0
  0
SOLID
  5
33A
330
335
100
AcDbEntity
  8
1
 62
     4
100
AcDbTrace
 10
-159.435134024126
 20
-13.00045699999998
 30
0.0
 11
-162.0681839758739
 21
-13.00045699999998
 31
0.0
 12
-160.751659
 22
-3.00045699999998
 32
0.0
 13
-160.751659
 23
-3.00045699999998
 33
0.0
  0
MTEXT
  5
33C
330
335
100
AcDbEntity
  8
1
 62
     1
100
AcDbMText
 10
-162.751659
 20
-62.8629295244704
 30
0.0
 40
10.0
 41
0.0
 71
     7
 72
     1
  1
103
  7
CONVERTER_11
 11
0.0
 21
1.0
 31
0.0
 73
     1
 44
0.60024009603842
  0
ENDBLK
  5
33E
330
335
100
AcDbEntity
  8
0
100
AcDbBlockEnd
  0
BLOCK
  5
348
330
341
100
AcDbEntity
  8
0
100
AcDbBlockBegin
  2
*D15
 70
     1
 71
     0
 10
0.0
 20
0.0
 30
0.0
  3
*D15
  1

  0
LINE
  5
342
330
341
100
AcDbEntity
  8
1
  6
Continuous
 62
     4
100
AcDbLine
 10
-94.77100015462479
 20
-231.6242469364774
 30
0.0
 11
94.7717708450183
 21
-231.6239868737146
 31
0.0
  0
LINE
  5
343
330
341
100
AcDbEntity
  8
1
  6
Continuous
 62
     4
100
AcDbLine
 10
-94.771301
 20
-12.35769200000001
 30
0.0
 11
-94.77099741051842
 21
-233.6242469364755
 31
0.0
  0
LINE
  5
344
330
341
100
AcDbEntity
  8
1
  6
Continuous
 62
     4
100
AcDbLine
 10
94.77146999999991
 20
-12.35769200000001
 30
0.0
 11
94.77177358912466
 21
-233.6239868737127
 31
0.0
  0
SOLID
  5
345
330
341
100
AcDbEntity
  8
1
 62
     4
100
AcDbTrace
 10
-84.77100196097649
 20
-230.3077082400728
 30
0.0
 11
-84.77099834829191
 21
-232.9407581918182
 31
0.0
 12
-94.77100015462479
 22
-231.6242469364774
 32
0.0
 13
-94.77100015462479
 23
-231.6242469364774
 33
0.0
  0
SOLID
  5
346
330
341
100
AcDbEntity
  8
1
 62
     4
100
AcDbTrace
 10
84.77177265137
 20
-232.9405255701192
 30
0.0
 11
84.77176903868542
 21
-230.3074756183738
 31
0.0
 12
94.7717708450183
 22
-231.6239868737146
 32
0.0
 13
94.7717708450183
 23
-231.6239868737146
 33
0.0
  0
MTEXT
  5
347
330
341
100
AcDbEntity
  8
1
 62
     1
100
AcDbMText
 10
-22.54253362612377
 20
-229.6241650882275
 30
0.0
 40
10.0
 41
0.0
 71
     7
 72
     1
  1
\C1;\U+00d8\C1;190
  7
CONVERTER_11
 11
0.9999999999970619
 21
2.424068405545306E-6
 31
0.0
 73
     1
 44
0.60024009603842
  0
ENDBLK
  5
349
330
341
100
AcDbEntity
  8
0
100
AcDbBlockEnd
  0
BLOCK
  5
353
330
34C
100
AcDbEntity
  8
0
100
AcDbBlockBegin
  2
*D16
 70
     1
 71
     0
 10
0.0
 20
0.0
 30
0.0
  3
*D16
  1

  0
LINE
  5
34D
330
34C
100
AcDbEntity
  8
1
  6
Continuous
 62
     4
100
AcDbLine
 10
-249.7972005418535
 20
113.6912949837844
 30
0.0
 11
249.796990457206
 21
113.6919804535858
 31
0.0
  0
LINE
  5
34E
330
34C
100
AcDbEntity
  8
1
  6
Continuous
 62
     4
100
AcDbLine
 10
-249.797051
 20
4.69999999999999
 30
0.0
 11
-249.7972032859598
 21
115.6912949837826
 31
0.0
  0
LINE
  5
34F
330
34C
100
AcDbEntity
  8
1
  6
Continuous
 62
     4
100
AcDbLine
 10
249.7971399999999
 20
4.69999999999999
 30
0.0
 11
249.7969877130996
 21
115.6919804535839
 31
0.0
  0
SOLID
  5
350
330
34C
100
AcDbEntity
  8
1
 62
     4
100
AcDbTrace
 10
-239.7972023482052
 20
115.0078336801891
 30
0.0
 11
-239.7971987355206
 21
112.3747837284436
 31
0.0
 12
-249.7972005418535
 22
113.6912949837844
 32
0.0
 13
-249.7972005418535
 23
113.6912949837844
 33
0.0
  0
SOLID
  5
351
330
34C
100
AcDbEntity
  8
1
 62
     4
100
AcDbTrace
 10
239.7969922635577
 20
112.3754417571812
 30
0.0
 11
239.7969886508731
 21
115.0084917089266
 31
0.0
 12
249.796990457206
 22
113.6919804535858
 32
0.0
 13
249.796990457206
 23
113.6919804535858
 33
0.0
  0
MTEXT
  5
352
330
34C
100
AcDbEntity
  8
1
 62
     1
100
AcDbMText
 10
-27.50298031888096
 20
115.6915827302297
 30
0.0
 40
10.0
 41
0.0
 71
     7
 72
     1
  1
\C1;\U+00d8\C1;500
  7
CONVERTER_11
 11
0.9999999999970619
 21
2.424068405545306E-6
 31
0.0
 73
     1
 44
0.60024009603842
  0
ENDBLK
  5
354
330
34C
100
AcDbEntity
  8
0
100
AcDbBlockEnd
  0
BLOCK
  5
35E
330
357
100
AcDbEntity
  8
0
100
AcDbBlockBegin
  2
*D17
 70
     1
 71
     0
 10
0.0
 20
0.0
 30
0.0
  3
*D17
  1

  0
LINE
  5
358
330
357
100
AcDbEntity
  8
1
  6
Continuous
 62
     4
100
AcDbLine
 10
-73.49993293045884
 20
86.36273693514124
 30
0.0
 11
73.5000670692644
 21
86.36293862695953
 31
0.0
  0
LINE
  5
359
330
357
100
AcDbEntity
  8
1
  6
Continuous
 62
     4
100
AcDbLine
 10
-73.49991006829755
 20
69.69999999999993
 30
0.0
 11
-73.49993567456521
 21
88.36273693513937
 31
0.0
  0
LINE
  5
35A
330
357
100
AcDbEntity
  8
1
  6
Continuous
 62
     4
100
AcDbLine
 10
73.50008993170243
 20
69.69999999999993
 30
0.0
 11
73.50006432515804
 21
88.36293862695766
 31
0.0
  0
SOLID
  5
35B
330
357
100
AcDbEntity
  8
1
 62
     4
100
AcDbTrace
 10
-63.49993473681054
 20
87.67927563154588
 30
0.0
 11
-63.49993112412596
 21
85.04622567980043
 31
0.0
 12
-73.49993293045884
 22
86.36273693514124
 32
0.0
 13
-73.49993293045884
 23
86.36273693514124
 33
0.0
  0
SOLID
  5
35C
330
357
100
AcDbEntity
  8
1
 62
     4
100
AcDbTrace
 10
63.50006887561611
 20
85.04639993055491
 30
0.0
 11
63.50006526293152
 21
87.67944988230035
 31
0.0
 12
73.5000670692644
 22
86.36293862695953
 32
0.0
 13
73.5000670692644
 23
86.36293862695953
 33
0.0
  0
MTEXT
  5
35D
330
357
100
AcDbEntity
  8
1
 62
     1
100
AcDbMText
 10
-30.11543143084766
 20
88.36279646098662
 30
0.0
 40
10.0
 41
0.0
 71
     7
 72
     1
  1
150x150
  7
CONVERTER_11
 11
0.9999999999970619
 21
2.424068405545306E-6
 31
0.0
 73
     1
 44
0.60024009603842
  0
ENDBLK
  5
35F
330
357
100
AcDbEntity
  8
0
100
AcDbBlockEnd
  0
BLOCK
  5
369
330
362
100
AcDbEntity
  8
0
100
AcDbBlockBegin
  2
*D18
 70
     1
 71
     0
 10
0.0
 20
0.0
 30
0.0
  3
*D18
  1

  0
LINE
  5
363
330
362
100
AcDbEntity
  8
1
  6
Continuous
 62
     4
100
AcDbLine
 10
-54.99981398279971
 20
-190.1696364736999
 30
0.0
 11
55.00018601699323
 21
-190.1694855478494
 31
0.0
  0
LINE
  5
364
330
362
100
AcDbEntity
  8
1
  6
Continuous
 62
     4
100
AcDbLine
 10
-54.9998573987235
 20
-158.5266037984278
 30
0.0
 11
-54.99981123869333
 21
-192.169636473698
 31
0.0
  0
LINE
  5
365
330
362
100
AcDbEntity
  8
1
  6
Continuous
 62
     4
100
AcDbLine
 10
55.0001426012765
 20
-158.5266037984278
 30
0.0
 11
55.00018876109961
 21
-192.1694855478475
 31
0.0
  0
SOLID
  5
366
330
362
100
AcDbEntity
  8
1
 62
     4
100
AcDbTrace
 10
-44.99981578915141
 20
-188.8530977772952
 30
0.0
 11
-44.99981217646683
 21
-191.4861477290407
 31
0.0
 12
-54.99981398279971
 22
-190.1696364736999
 32
0.0
 13
-54.99981398279971
 23
-190.1696364736999
 33
0.0
  0
SOLID
  5
367
330
362
100
AcDbEntity
  8
1
 62
     4
100
AcDbTrace
 10
45.00018782334493
 20
-191.486024244254
 30
0.0
 11
45.00018421066034
 21
-188.8529742925086
 31
0.0
 12
55.00018601699323
 22
-190.1694855478494
 32
0.0
 13
55.00018601699323
 23
-190.1694855478494
 33
0.0
  0
MTEXT
  5
368
330
362
100
AcDbEntity
  8
1
 62
     1
100
AcDbMText
 10
-12.64321097929153
 20
-188.1695956112355
 30
0.0
 40
10.0
 41
0.0
 71
     7
 72
     1
  1
\C1;DN\C1;110
  7
CONVERTER_11
 11
0.9999999999970619
 21
2.424068405545306E-6
 31
0.0
 73
     1
 44
0.60024009603842
  0
ENDBLK
  5
36A
330
362
100
AcDbEntity
  8
0
100
AcDbBlockEnd
  0
BLOCK
  5
374
330
36D
100
AcDbEntity
  8
0
100
AcDbBlockBegin
  2
*D19
 70
     1
 71
     0
 10
0.0
 20
0.0
 30
0.0
  3
*D19
  1

  0
LINE
  5
36E
330
36D
100
AcDbEntity
  8
1
  6
Continuous
 62
     4
100
AcDbLine
 10
-80.24969641274733
 20
-213.6299380076512
 30
0.0
 11
80.25030358695055
 21
-213.6297177931149
 31
0.0
  0
LINE
  5
36F
330
36D
100
AcDbEntity
  8
1
  6
Continuous
 62
     4
100
AcDbLine
 10
-80.24985639872348
 20
-97.0266037984278
 30
0.0
 11
-80.24969366864096
 21
-215.6299380076493
 31
0.0
  0
LINE
  5
370
330
36D
100
AcDbEntity
  8
1
  6
Continuous
 62
     4
100
AcDbLine
 10
80.25014360127653
 20
-97.0266037984278
 30
0.0
 11
80.25030633105692
 21
-215.629717793113
 31
0.0
  0
SOLID
  5
371
330
36D
100
AcDbEntity
  8
1
 62
     4
100
AcDbTrace
 10
-70.24969821909903
 20
-212.3133993112466
 30
0.0
 11
-70.24969460641445
 21
-214.946449262992
 31
0.0
 12
-80.24969641274733
 22
-213.6299380076512
 32
0.0
 13
-80.24969641274733
 23
-213.6299380076512
 33
0.0
  0
SOLID
  5
372
330
36D
100
AcDbEntity
  8
1
 62
     4
100
AcDbTrace
 10
70.25030539330226
 20
-214.9462564895195
 30
0.0
 11
70.25030178061768
 21
-212.3132065377741
 31
0.0
 12
80.25030358695055
 22
-213.6297177931149
 32
0.0
 13
80.25030358695055
 23
-213.6297177931149
 33
0.0
  0
MTEXT
  5
373
330
36D
100
AcDbEntity
  8
1
 62
     1
100
AcDbMText
 10
-21.36204630448984
 20
-211.629874463711
 30
0.0
 40
10.0
 41
0.0
 71
     7
 72
     1
  1
\C1;\U+00d8\C1;160
  7
CONVERTER_11
 11
0.9999999999970619
 21
2.424068405545306E-6
 31
0.0
 73
     1
 44
0.60024009603842
  0
ENDBLK
  5
375
330
36D
100
AcDbEntity
  8
0
100
AcDbBlockEnd
  0
ENDSEC
  0
SECTION
  2
ENTITIES
  0
INSERT
  5
7E
330
1F
100
AcDbEntity
  8
0
100
AcDbBlockReference
  2
HL62B
 10
-249.9999405861538
 20
-802.158524924082
 30
0.0
  0
INSERT
  5
7F
330
1F
100
AcDbEntity
  8
0
100
AcDbBlockReference
  2
Körper
 10
-380.005557640756
 20
-870.491944403875
 30
0.0
  0
INSERT
  5
80
330
1F
100
AcDbEntity
  8
0
100
AcDbBlockReference
  2
HL_66_0_Aufsatzrahmen
 10
-3.92514290157587
 20
-1307.93044053037
 30
0.0
  0
DIMENSION
  5
340
330
1F
100
AcDbEntity
  8
1
100
AcDbDimension
  2
*D14
 10
-160.751659
 20
-107.0266037984278
 30
0.0
 11
-167.751659
 21
-52.3629295244704
 31
0.0
 70
    32
  1
103
 71
     5
 42
-1.0
 53
90.0
  3
ME10_DIM_10
100
AcDbAlignedDimension
 13
-150.751659
 23
-3.00045699999998
 33
0.0
 14
-72.24985639872348
 24
-107.0266037984278
 34
0.0
 50
90.0
100
AcDbRotatedDimension
  0
DIMENSION
  5
34B
330
1F
100
AcDbEntity
  8
1
100
AcDbDimension
  2
*D15
 10
-94.77100015462479
 20
-231.6242469364774
 30
0.0
 11
-1.64254048644212
 21
-224.624119159271
 31
0.0
 70
    32
  1
Ø190
 71
     5
 42
-1.0
 53
0.00013888888889
  3
ME10_DIM_11
100
AcDbAlignedDimension
 13
94.77146999999991
 23
-12.35769199999999
 33
0.0
 14
-94.771301
 24
-12.35769199999999
 34
0.0
 50
0.0000786128568
100
AcDbRotatedDimension
  0
DIMENSION
  5
356
330
1F
100
AcDbEntity
  8
1
100
AcDbDimension
  2
*D16
 10
-249.7972005418535
 20
113.6912949837844
 30
0.0
 11
-5.10298717920072
 21
120.691630717266
 31
0.0
 70
    32
  1
Ø500
 71
     5
 42
-1.0
 53
0.00013888888889
  3
ME10_DIM_12
100
AcDbAlignedDimension
 13
249.7971399999999
 23
4.69999999999999
 33
0.0
 14
-249.797051
 24
4.69999999999999
 34
0.0
 50
0.0000786128568
100
AcDbRotatedDimension
  0
DIMENSION
  5
361
330
1F
100
AcDbEntity
  8
1
100
AcDbDimension
  2
*D17
 10
-73.49993293045884
 20
86.36273693514124
 30
0.0
 11
-3.115438291139
 21
93.36283350641793
 31
0.0
 70
    32
  1
150x150
 71
     5
 42
-1.0
 53
0.00013888888889
  3
ME10_DIM_13
100
AcDbAlignedDimension
 13
73.50008993170243
 23
69.70000000000005
 33
0.0
 14
-73.49991006829755
 24
69.70000000000005
 34
0.0
 50
0.0000786128568
100
AcDbRotatedDimension
  0
DIMENSION
  5
36C
330
1F
100
AcDbEntity
  8
1
100
AcDbDimension
  2
*D18
 10
-54.99981398279971
 20
-190.1696364736999
 30
0.0
 11
1.75678216039624
 21
-183.1695586006247
 31
0.0
 70
    32
  1
<>
 71
     5
 42
-1.0
 53
0.00013888888889
  3
ME10_DIM_14
100
AcDbAlignedDimension
 13
55.00014260127651
 23
-158.5266037984278
 33
0.0
 14
-54.99985739872349
 24
-158.5266037984278
 34
0.0
 50
0.00007861285683
100
AcDbRotatedDimension
  0
DIMENSION
  5
377
330
1F
100
AcDbEntity
  8
1
100
AcDbDimension
  2
*D19
 10
-80.24969641274733
 20
-213.6299380076512
 30
0.0
 11
-0.46205316480819
 21
-206.6298285347545
 31
0.0
 70
    32
  1
Ø160
 71
     5
 42
-1.0
 53
0.00013888888889
  3
ME10_DIM_15
100
AcDbAlignedDimension
 13
80.25014360127653
 23
-97.0266037984278
 33
0.0
 14
-80.24985639872348
 24
-97.0266037984278
 34
0.0
 50
0.0000786128568
100
AcDbRotatedDimension
  0
ENDSEC
  0
SECTION
  2
OBJECTS
  0
DICTIONARY
  5
C
330
0
100
AcDbDictionary
281
     1
  3
ACAD_GROUP
350
D
  3
ACAD_LAYOUT
350
1A
  3
ACAD_MLINESTYLE
350
17
  3
ACAD_PLOTSETTINGS
350
19
  3
ACAD_PLOTSTYLENAME
350
E
  3
ACAD_TABLESTYLE
350
378
  3
ACAD_VISUALSTYLE
350
2A
  0
DICTIONARY
  5
D
102
{ACAD_REACTORS
330
C
102
}
330
C
100
AcDbDictionary
281
     1
  0
DICTIONARY
  5
1A
102
{ACAD_REACTORS
330
C
102
}
330
C
100
AcDbDictionary
281
     1
  3
Layout1
350
1E
  3
Layout2
350
26
  3
Model
350
22
  0
DICTIONARY
  5
17
102
{ACAD_REACTORS
330
C
102
}
330
C
100
AcDbDictionary
281
     1
  3
Standard
350
18
  0
DICTIONARY
  5
19
102
{ACAD_REACTORS
330
C
102
}
330
C
100
AcDbDictionary
281
     1
  0
ACDBDICTIONARYWDFLT
  5
E
102
{ACAD_REACTORS
330
C
102
}
330
C
100
AcDbDictionary
281
     1
  3
Normal
350
F
100
AcDbDictionaryWithDefault
340
F
  0
DICTIONARY
  5
378
102
{ACAD_REACTORS
330
C
102
}
330
C
100
AcDbDictionary
281
     1
  0
DICTIONARY
  5
2A
102
{ACAD_REACTORS
330
C
102
}
330
C
100
AcDbDictionary
281
     1
  3
2dWireframe
350
2F
  3
3D Hidden
350
31
  3
3dWireframe
350
30
  3
Basic
350
32
  3
Brighten
350
36
  3
ColorChange
350
3A
  3
Conceptual
350
34
  3
Dim
350
35
  3
Facepattern
350
39
  3
Flat
350
2B
  3
FlatWithEdges
350
2C
  3
Gouraud
350
2D
  3
GouraudWithEdges
350
2E
  3
Linepattern
350
38
  3
Realistic
350
33
  3
Thicken
350
37
  0
LAYOUT
  5
1E
102
{ACAD_REACTORS
330
1A
102
}
330
1A
100
AcDbPlotSettings
  1

  2
none_device
  4

  6

 40
0.0
 41
0.0
 42
0.0
 43
0.0
 44
0.0
 45
0.0
 46
0.0
 47
0.0
 48
0.0
 49
0.0
140
0.0
141
0.0
142
1.0
143
1.0
 70
   688
 72
     0
 73
     0
 74
     5
  7

 75
    16
147
1.0
148
0.0
149
0.0
100
AcDbLayout
  1
Layout1
 70
     1
 71
     1
 10
0.0
 20
0.0
 11
12.0
 21
9.0
 12
0.0
 22
0.0
 32
0.0
 14
1.00000000000000E+20
 24
1.00000000000000E+20
 34
1.00000000000000E+20
 15
-1.00000000000000E+20
 25
-1.00000000000000E+20
 35
-1.00000000000000E+20
146
0.0
 13
0.0
 23
0.0
 33
0.0
 16
1.0
 26
0.0
 36
0.0
 17
0.0
 27
1.0
 37
0.0
 76
     0
330
1B
  0
LAYOUT
  5
26
102
{ACAD_REACTORS
330
1A
102
}
330
1A
100
AcDbPlotSettings
  1

  2
none_device
  4

  6

 40
0.0
 41
0.0
 42
0.0
 43
0.0
 44
0.0
 45
0.0
 46
0.0
 47
0.0
 48
0.0
 49
0.0
140
0.0
141
0.0
142
1.0
143
1.0
 70
   688
 72
     0
 73
     0
 74
     5
  7

 75
    16
147
1.0
148
0.0
149
0.0
100
AcDbLayout
  1
Layout2
 70
     1
 71
     2
 10
0.0
 20
0.0
 11
0.0
 21
0.0
 12
0.0
 22
0.0
 32
0.0
 14
0.0
 24
0.0
 34
0.0
 15
0.0
 25
0.0
 35
0.0
146
0.0
 13
0.0
 23
0.0
 33
0.0
 16
1.0
 26
0.0
 36
0.0
 17
0.0
 27
1.0
 37
0.0
 76
     0
330
23
  0
LAYOUT
  5
22
102
{ACAD_REACTORS
330
1A
102
}
330
1A
100
AcDbPlotSettings
  1

  2
none_device
  4

  6

 40
0.0
 41
0.0
 42
0.0
 43
0.0
 44
0.0
 45
0.0
 46
0.0
 47
0.0
 48
0.0
 49
0.0
140
0.0
141
0.0
142
1.0
143
1.0
 70
  1712
 72
     0
 73
     0
 74
     0
  7

 75
     0
147
1.0
148
0.0
149
0.0
100
AcDbLayout
  1
Model
 70
     1
 71
     0
 10
0.0
 20
0.0
 11
12.0
 21
9.0
 12
0.0
 22
0.0
 32
0.0
 14
-274.9999405861538
 24
-827.158524924082
 34
0.0
 15
275.0000594138462
 25
125.6916554142186
 35
0.0
146
0.0
 13
0.0
 23
0.0
 33
0.0
 16
1.0
 26
0.0
 36
0.0
 17
0.0
 27
1.0
 37
0.0
 76
     0
330
1F
331
29
  0
MLINESTYLE
  5
18
102
{ACAD_REACTORS
330
17
102
}
330
17
100
AcDbMlineStyle
  2
Standard
 70
     0
  3

 62
   256
 51
90.0
 52
90.0
 71
     2
 49
0.5
 62
   256
  6
BYLAYER
 49
-0.5
 62
   256
  6
BYLAYER
  0
ACDBPLACEHOLDER
  5
F
102
{ACAD_REACTORS
330
E
102
}
330
E
  0
VISUALSTYLE
  5
2F
102
{ACAD_REACTORS
330
2A
102
}
330
2A
100
AcDbVisualStyle
  2
2dWireframe
 70
     4
 71
     0
 72
     2
 73
     0
 90
        0
 40
-0.6
 41
-30.0
 62
     5
 63
     7
 74
     1
 91
        4
 64
     7
 65
   257
 75
     1
175
     1
 42
1.0
 92
        0
 66
   257
 43
1.0
 76
     1
 77
     6
 78
     2
 67
     7
 79
     5
170
     0
171
     0
290
     0
174
     0
 93
        1
 44
0.0
173
     0
291
     0
 45
0.0
1001
ACAD
1000
AcDbSavedByObjectVersion
1070
     0
  0
VISUALSTYLE
  5
31
102
{ACAD_REACTORS
330
2A
102
}
330
2A
100
AcDbVisualStyle
  2
3D Hidden
 70
     6
 71
     1
 72
     2
 73
     2
 90
        0
 40
-0.6
 41
-30.0
 62
     5
 63
     7
 74
     2
 91
        2
 64
     7
 65
   257
 75
     2
175
     1
 42
40.0
 92
        0
 66
   257
 43
1.0
 76
     1
 77
     6
 78
     2
 67
     7
 79
     3
170
     0
171
     0
290
     0
174
     0
 93
        1
 44
0.0
173
     0
291
     0
 45
0.0
1001
ACAD
1000
AcDbSavedByObjectVersion
1070
     0
  0
VISUALSTYLE
  5
30
102
{ACAD_REACTORS
330
2A
102
}
330
2A
100
AcDbVisualStyle
  2
3dWireframe
 70
     5
 71
     0
 72
     2
 73
     0
 90
        0
 40
-0.6
 41
-30.0
 62
     5
 63
     7
 74
     1
 91
        4
 64
     7
 65
   257
 75
     1
175
     1
 42
1.0
 92
        0
 66
   257
 43
1.0
 76
     1
 77
     6
 78
     2
 67
     7
 79
     5
170
     0
171
     0
290
     0
174
     0
 93
        1
 44
0.0
173
     0
291
     0
 45
0.0
1001
ACAD
1000
AcDbSavedByObjectVersion
1070
     0
  0
VISUALSTYLE
  5
32
102
{ACAD_REACTORS
330
2A
102
}
330
2A
100
AcDbVisualStyle
  2
Basic
 70
     7
 71
     1
 72
     0
 73
     1
 90
        0
 40
-0.6
 41
-30.0
 62
     5
 63
     7
 74
     0
 91
        4
 64
     7
 65
   257
 75
     1
175
     1
 42
1.0
 92
        8
 66
     7
 43
1.0
 76
     1
 77
     6
 78
     2
 67
     7
 79
     5
170
     0
171
     0
290
     0
174
     0
 93
        1
 44
0.0
173
     0
291
     1
 45
0.0
1001
ACAD
1000
AcDbSavedByObjectVersion
1070
     0
  0
VISUALSTYLE
  5
36
102
{ACAD_REACTORS
330
2A
102
}
330
2A
100
AcDbVisualStyle
  2
Brighten
 70
    12
 71
     2
 72
     2
 73
     0
 90
        0
 40
-0.6
 41
-30.0
 62
     5
 63
     7
 74
     1
 91
        4
 64
     7
 65
   257
 75
     1
175
     1
 42
1.0
 92
        8
 66
     7
 43
1.0
 76
     1
 77
     6
 78
     2
 67
     7
 79
     5
170
     0
171
     0
290
     0
174
     0
 93
        1
 44
50.0
173
     0
291
     1
 45
0.0
1001
ACAD
1000
AcDbSavedByObjectVersion
1070
     0
  0
VISUALSTYLE
  5
3A
102
{ACAD_REACTORS
330
2A
102
}
330
2A
100
AcDbVisualStyle
  2
ColorChange
 70
    16
 71
     2
 72
     2
 73
     3
 90
        0
 40
-0.6
 41
-30.0
 62
     5
 63
     8
 74
     1
 91
        4
 64
     7
 65
   257
 75
     1
175
     1
 42
1.0
 92
        8
 66
     8
 43
1.0
 76
     1
 77
     6
 78
     2
 67
     7
 79
     5
170
     0
171
     0
290
     0
174
     0
 93
        1
 44
0.0
173
     0
291
     1
 45
0.0
1001
ACAD
1000
AcDbSavedByObjectVersion
1070
     0
  0
VISUALSTYLE
  5
34
102
{ACAD_REACTORS
330
2A
102
}
330
2A
100
AcDbVisualStyle
  2
Conceptual
 70
     9
 71
     3
 72
     2
 73
     0
 90
        0
 40
-0.6
 41
-30.0
 62
     5
 63
     7
 74
     2
 91
        2
 64
     7
 65
   257
 75
     1
175
     1
 42
40.0
 92
        8
 66
     7
 43
1.0
 76
     1
 77
     6
 78
     2
 67
     7
 79
     3
170
     0
171
     0
290
     0
174
     0
 93
        1
 44
0.0
173
     0
291
     0
 45
0.0
1001
ACAD
1000
AcDbSavedByObjectVersion
1070
     0
  0
VISUALSTYLE
  5
35
102
{ACAD_REACTORS
330
2A
102
}
330
2A
100
AcDbVisualStyle
  2
Dim
 70
    11
 71
     2
 72
     2
 73
     0
 90
        0
 40
-0.6
 41
-30.0
 62
     5
 63
     7
 74
     1
 91
        4
 64
     7
 65
   257
 75
     1
175
     1
 42
1.0
 92
        8
 66
     7
 43
1.0
 76
     1
 77
     6
 78
     2
 67
     7
 79
     5
170
     0
171
     0
290
     0
174
     0
 93
        1
 44
-50.0
173
     0
291
     1
 45
0.0
1001
ACAD
1000
AcDbSavedByObjectVersion
1070
     0
  0
VISUALSTYLE
  5
39
102
{ACAD_REACTORS
330
2A
102
}
330
2A
100
AcDbVisualStyle
  2
Facepattern
 70
    15
 71
     2
 72
     2
 73
     0
 90
        0
 40
-0.6
 41
-30.0
 62
     5
 63
     7
 74
     1
 91
        4
 64
     7
 65
   257
 75
     1
175
     1
 42
1.0
 92
        8
 66
     7
 43
1.0
 76
     1
 77
     6
 78
     2
 67
     7
 79
     5
170
     0
171
     0
290
     0
174
     0
 93
        1
 44
0.0
173
     0
291
     1
 45
0.0
1001
ACAD
1000
AcDbSavedByObjectVersion
1070
     0
  0
VISUALSTYLE
  5
2B
102
{ACAD_REACTORS
330
2A
102
}
330
2A
100
AcDbVisualStyle
  2
Flat
 70
     0
 71
     2
 72
     1
 73
     1
 90
        2
 40
-0.6
 41
30.0
 62
     5
 63
     7
 74
     0
 91
        4
 64
     7
 65
   257
 75
     1
175
     1
 42
1.0
 92
        8
 66
     7
 43
1.0
 76
     1
 77
     6
 78
     2
 67
     7
 79
     5
170
     0
171
     0
290
     0
174
     0
 93
       13
 44
0.0
173
     0
291
     1
 45
0.0
1001
ACAD
1000
AcDbSavedByObjectVersion
1070
     0
  0
VISUALSTYLE
  5
2C
102
{ACAD_REACTORS
330
2A
102
}
330
2A
100
AcDbVisualStyle
  2
FlatWithEdges
 70
     1
 71
     2
 72
     1
 73
     1
 90
        2
 40
-0.6
 41
30.0
 62
     5
 63
     7
 74
     1
 91
        4
 64
     7
 65
   257
 75
     1
175
     1
 42
1.0
 92
        0
 66
   257
 43
1.0
 76
     1
 77
     6
 78
     2
 67
     7
 79
     5
170
     0
171
     0
290
     0
174
     0
 93
       13
 44
0.0
173
     0
291
     1
 45
0.0
1001
ACAD
1000
AcDbSavedByObjectVersion
1070
     0
  0
VISUALSTYLE
  5
2D
102
{ACAD_REACTORS
330
2A
102
}
330
2A
100
AcDbVisualStyle
  2
Gouraud
 70
     2
 71
     2
 72
     2
 73
     1
 90
        2
 40
-0.6
 41
30.0
 62
     5
 63
     7
 74
     0
 91
        4
 64
     7
 65
   257
 75
     1
175
     1
 42
1.0
 92
        0
 66
     7
 43
1.0
 76
     1
 77
     6
 78
     2
 67
     7
 79
     5
170
     0
171
     0
290
     0
174
     0
 93
       13
 44
0.0
173
     0
291
     1
 45
0.0
1001
ACAD
1000
AcDbSavedByObjectVersion
1070
     0
  0
VISUALSTYLE
  5
2E
102
{ACAD_REACTORS
330
2A
102
}
330
2A
100
AcDbVisualStyle
  2
GouraudWithEdges
 70
     3
 71
     2
 72
     2
 73
     1
 90
        2
 40
-0.6
 41
30.0
 62
     5
 63
     7
 74
     1
 91
        4
 64
     7
 65
   257
 75
     1
175
     1
 42
1.0
 92
        0
 66
   257
 43
1.0
 76
     1
 77
     6
 78
     2
 67
     7
 79
     5
170
     0
171
     0
290
     0
174
     0
 93
       13
 44
0.0
173
     0
291
     1
 45
0.0
1001
ACAD
1000
AcDbSavedByObjectVersion
1070
     0
  0
VISUALSTYLE
  5
38
102
{ACAD_REACTORS
330
2A
102
}
330
2A
100
AcDbVisualStyle
  2
Linepattern
 70
    14
 71
     2
 72
     2
 73
     0
 90
        0
 40
-0.6
 41
-30.0
 62
     5
 63
     7
 74
     1
 91
        4
 64
     7
 65
   257
 75
     7
175
     7
 42
1.0
 92
        8
 66
     7
 43
1.0
 76
     1
 77
     6
 78
     2
 67
     7
 79
     5
170
     0
171
     0
290
     0
174
     0
 93
        1
 44
0.0
173
     0
291
     1
 45
0.0
1001
ACAD
1000
AcDbSavedByObjectVersion
1070
     0
  0
VISUALSTYLE
  5
33
102
{ACAD_REACTORS
330
2A
102
}
330
2A
100
AcDbVisualStyle
  2
Realistic
 70
     8
 71
     2
 72
     2
 73
     0
 90
        0
 40
-0.6
 41
-30.0
 62
     5
 63
     7
 74
     1
 91
        0
 64
     7
 65
   257
 75
     1
175
     1
 42
1.0
 92
        8
 66
     8
 43
1.0
 76
     1
 77
     6
 78
     2
 67
     7
 79
     5
170
     0
171
     0
290
     0
174
     0
 93
       13
 44
0.0
173
     0
291
     0
 45
0.0
1001
ACAD
1000
AcDbSavedByObjectVersion
1070
     0
  0
VISUALSTYLE
  5
37
102
{ACAD_REACTORS
330
2A
102
}
330
2A
100
AcDbVisualStyle
  2
Thicken
 70
    13
 71
     2
 72
     2
 73
     0
 90
        0
 40
-0.6
 41
-30.0
 62
     5
 63
     7
 74
     1
 91
        4
 64
     7
 65
   257
 75
     1
175
     1
 42
1.0
 92
       12
 66
     7
 43
1.0
 76
     1
 77
     6
 78
     2
 67
     7
 79
     5
170
     0
171
     0
290
     0
174
     0
 93
        1
 44
0.0
173
     0
291
     1
 45
0.0
1001
ACAD
1000
AcDbSavedByObjectVersion
1070
     0
  0
ENDSEC
  0
EOF
