  0
SECTION
  2
HEADER
  9
$ACADVER
  1
AC1014
  9
$ACADMAINTVER
 70
             0
  9
$DWGCODEPAGE
  3
ANSI_1252
  9
$INSBASE
 10
0.0
 20
0.0
 30
0.0
  9
$EXTMIN
 10
-283.39096556295323
 20
-220.23227757740659
 30
0.0
  9
$EXTMAX
 10
249.7971337247333
 20
125.6916554142186
 30
0.0
  9
$LIMMIN
 10
0.0
 20
0.0
  9
$LIMMAX
 10
0.0
 20
0.0
  9
$ORTHOMODE
 70
             0
  9
$REGENMODE
 70
             1
  9
$FILLMODE
 70
             1
  9
$QTEXTMODE
 70
             0
  9
$MIRRTEXT
 70
             1
  9
$DRAGMODE
 70
             2
  9
$LTSCALE
 40
1.0
  9
$OSMODE
 70
             0
  9
$ATTMODE
 70
             1
  9
$TEXTSIZE
 40
0.2
  9
$TRACEWID
 40
0.05
  9
$TEXTSTYLE
  7
STANDARD
  9
$CLAYER
  8
0
  9
$CELTYPE
  6
CONTINUOUS
  9
$CECOLOR
 62
           256
  9
$CELTSCALE
 40
1.0
  9
$DELOBJ
 70
             1
  9
$DISPSILH
 70
             0
  9
$DIMSCALE
 40
1.0
  9
$DIMASZ
 40
0.18
  9
$DIMEXO
 40
0.0625
  9
$DIMDLI
 40
0.38
  9
$DIMRND
 40
0.0
  9
$DIMDLE
 40
0.0
  9
$DIMEXE
 40
0.18
  9
$DIMTP
 40
0.0
  9
$DIMTM
 40
0.0
  9
$DIMTXT
 40
0.18
  9
$DIMCEN
 40
0.09
  9
$DIMTSZ
 40
0.0
  9
$DIMTOL
 70
             0
  9
$DIMLIM
 70
             0
  9
$DIMTIH
 70
             1
  9
$DIMTOH
 70
             1
  9
$DIMSE1
 70
             0
  9
$DIMSE2
 70
             0
  9
$DIMTAD
 70
             0
  9
$DIMZIN
 70
             0
  9
$DIMBLK
  1

  9
$DIMASO
 70
             1
  9
$DIMSHO
 70
             1
  9
$DIMPOST
  1

  9
$DIMAPOST
  1

  9
$DIMALT
 70
             0
  9
$DIMALTD
 70
             2
  9
$DIMALTF
 40
25.4
  9
$DIMLFAC
 40
1.0
  9
$DIMTOFL
 70
             0
  9
$DIMTVP
 40
0.0
  9
$DIMTIX
 70
             0
  9
$DIMSOXD
 70
             0
  9
$DIMSAH
 70
             0
  9
$DIMBLK1
  1

  9
$DIMBLK2
  1

  9
$DIMSTYLE
  2
STANDARD
  9
$DIMCLRD
 70
             0
  9
$DIMCLRE
 70
             0
  9
$DIMCLRT
 70
             0
  9
$DIMTFAC
 40
1.0
  9
$DIMGAP
 40
0.09
  9
$DIMJUST
 70
             0
  9
$DIMSD1
 70
             0
  9
$DIMSD2
 70
             0
  9
$DIMTOLJ
 70
             1
  9
$DIMTZIN
 70
             0
  9
$DIMALTZ
 70
             0
  9
$DIMALTTZ
 70
             0
  9
$DIMFIT
 70
             3
  9
$DIMUPT
 70
             0
  9
$DIMUNIT
 70
             2
  9
$DIMDEC
 70
             4
  9
$DIMTDEC
 70
             4
  9
$DIMALTU
 70
             2
  9
$DIMALTTD
 70
             2
  9
$DIMTXSTY
  7
STANDARD
  9
$DIMAUNIT
 70
             0
  9
$LUNITS
 70
             2
  9
$LUPREC
 70
             4
  9
$SKETCHINC
 40
0.1
  9
$FILLETRAD
 40
0.0
  9
$AUNITS
 70
             0
  9
$AUPREC
 70
             0
  9
$MENU
  1
acad
  9
$ELEVATION
 40
0.0
  9
$PELEVATION
 40
0.0
  9
$THICKNESS
 40
0.0
  9
$LIMCHECK
 70
             0
  9
$BLIPMODE
 70
             1
  9
$CHAMFERA
 40
0.0
  9
$CHAMFERB
 40
0.0
  9
$CHAMFERC
 40
0.0
  9
$CHAMFERD
 40
0.0
  9
$SKPOLY
 70
             0
  9
$TDCREATE
 40
0.000000000
  9
$TDUPDATE
 40
0.000000000
  9
$TDINDWG
 40
0.0000000000
  9
$TDUSRTIMER
 40
0.0000000000
  9
$USRTIMER
 70
             1
  9
$ANGBASE
 50
0.0
  9
$ANGDIR
 70
             0
  9
$PDMODE
 70
             0
  9
$PDSIZE
 40
0.0
  9
$PLINEWID
 40
0.0
  9
$COORDS
 70
             0
  9
$SPLFRAME
 70
             0
  9
$SPLINETYPE
 70
             6
  9
$SPLINESEGS
 70
             8
  9
$ATTDIA
 70
             0
  9
$ATTREQ
 70
             1
  9
$HANDLING
 70
             1
  9
$HANDSEED
  5
170
  9
$SURFTAB1
 70
             6
  9
$SURFTAB2
 70
             6
  9
$SURFTYPE
 70
             6
  9
$SURFU
 70
             6
  9
$SURFV
 70
             6
  9
$UCSNAME
  2

  9
$UCSORG
 10
0.0
 20
0.0
 30
0.0
  9
$UCSXDIR
 10
1.0
 20
0.0
 30
0.0
  9
$UCSYDIR
 10
0.0
 20
1.0
 30
0.0
  9
$PUCSNAME
  2

  9
$PUCSORG
 10
0.0
 20
0.0
 30
0.0
  9
$PUCSXDIR
 10
1.0
 20
0.0
 30
0.0
  9
$PUCSYDIR
 10
0.0
 20
1.0
 30
0.0
  9
$USERI1
 70
             0
  9
$USERI2
 70
             0
  9
$USERI3
 70
             0
  9
$USERI4
 70
             0
  9
$USERI5
 70
             0
  9
$USERR1
 40
12.01
  9
$USERR2
 40
0.0
  9
$USERR3
 40
0.0
  9
$USERR4
 40
0.0
  9
$USERR5
 40
0.0
  9
$WORLDVIEW
 70
             1
  9
$SHADEDGE
 70
             3
  9
$SHADEDIF
 70
            70
  9
$TILEMODE
 70
             1
  9
$MAXACTVP
 70
            16
  9
$PINSBASE
 10
0.0
 20
0.0
 30
0.0
  9
$PLIMCHECK
 70
             0
  9
$PEXTMIN
 10
1.00000000000000E+20
 20
1.00000000000000E+20
 30
1.00000000000000E+20
  9
$PEXTMAX
 10
-1.00000000000000E+20
 20
-1.00000000000000E+20
 30
-1.00000000000000E+20
  9
$PLIMMIN
 10
0.0
 20
0.0
  9
$PLIMMAX
 10
12.0
 20
9.0
  9
$UNITMODE
 70
             0
  9
$VISRETAIN
 70
             0
  9
$PLINEGEN
 70
             1
  9
$PSLTSCALE
 70
             0
  9
$TREEDEPTH
 70
          3020
  9
$PICKSTYLE
 70
             1
  9
$CMLSTYLE
  2
STANDARD
  9
$CMLJUST
 70
             0
  9
$CMLSCALE
 40
1.0
  9
$PROXYGRAPHICS
 70
             0
  9
$MEASUREMENT
 70
             1
  0
ENDSEC
  0
SECTION
  2
CLASSES
  0
CLASS
  1
LWPOLYLINE
  2
AcDbPolyline
  3
"AutoCAD"
 90
        0
280
             0
281
             1
  0
CLASS
  1
IMAGE
  2
AcDbRasterImage
  3
ISM
 90
      127
280
             0
281
             1
  0
CLASS
  1
OLE2FRAME
  2
AcDbOle2Frame
  3
""
 90
        0
280
             0
281
             1
  0
CLASS
  1
HATCH
  2
AcDbHatch
  3
"ACAD_SEDONA"
 90
        0
280
             0
281
             1
  0
CLASS
  1
DICTIONARYVAR
  2
AcDbDictionaryVar
  3
"AutoCAD"
 90
        0
280
             0
281
             0
  0
CLASS
  1
RASTERVARIABLES
  2
AcDbRasterVariables
  3
ISM
 90
        0
280
             0
281
             0
  0
CLASS
  1
IMAGEDEF
  2
AcDbRasterImageDef
  3
ISM
 90
        0
280
             0
281
             0
  0
CLASS
  1
IMAGEDEF_REACTOR
  2
AcDbRasterImageDefReactor
  3
ISM
 90
        1
280
             0
281
             0
  0
CLASS
  1
IDBUFFER
  2
AcDbIdBuffer
  3
"Acad"
 90
        0
280
             0
281
             0
  0
CLASS
  1
SPATIAL_FILTER
  2
AcDbSpatialFilter
  3
"Acad"
 90
        0
280
             0
281
             0
  0
CLASS
  1
XRECORD
  2
AcDbXrecord
  3
"<Built In>"
 90
        0
280
             0
281
             0
  0
CLASS
  1
SORTENTSTABLE
  2
AcDbSortentsTable
  3
"AutoCAD"
 90
        0
280
             0
281
             0
  0
CLASS
  1
LAYER_INDEX
  2
AcDbLayerIndex
  3
"Acad"
 90
        0
280
             0
281
             0
  0
CLASS
  1
SPATIAL_INDEX
  2
AcDbSpatialIndex
  3
"Acad"
 90
        0
280
             0
281
             0
  0
CLASS
  1
OBJECT_PTR
  2
CAseDLPNTableRecord
  3
"ASE-LPNTableRecord"
 90
        1
280
             0
281
             0
  0
CLASS
  1
LAYOUT
  2
AcDbLayout
  3
"AutoCAD 2000"
 90
        0
280
             0
281
             0
  0
CLASS
  1
PLOTSETTINGS
  2
AcDbPlotSettings
  3
"AutoCAD 2000"
 90
        0
280
             0
281
             0
  0
CLASS
  1
ACDBDICTIONARYWDFLT
  2
AcDbDictionaryWithDefault
  3
"AutoCAD 2000"
 90
        0
280
             0
281
             0
  0
CLASS
  1
ACDBPLACEHOLDER
  2
AcDbPlaceHolder
  3
"AutoCAD 2000"
 90
        0
280
             0
281
             0
  0
ENDSEC
  0
SECTION
  2
TABLES
  0
TABLE
  2
VPORT
  5
7
100
AcDbSymbolTable
 70
             1
  0
VPORT
  5
15
100
AcDbSymbolTableRecord
100
AcDbViewportTableRecord
  2
*ACTIVE
 70
             0
 10
0.0
 20
0.0
 11
1.0
 21
1.0
 12
-16.79691591910996
 22
-47.270311081594
 13
0.0
 23
0.0
 14
1.0
 24
1.0
 15
0.0
 25
0.0
 16
0.0
 26
0.0
 36
1.0
 17
0.0
 27
0.0
 37
0.0
 40
380.51632629078773
 41
1.60267857142857
 42
50.0
 43
0.0
 44
0.0
 50
0.0
 51
0.0
 71
             0
 72
           100
 73
             1
 74
             1
 75
             0
 76
             0
 77
             0
 78
             0
  0
ENDTAB
  0
TABLE
  2
LTYPE
  5
4
100
AcDbSymbolTable
 70
            11
  0
LTYPE
  5
11
100
AcDbSymbolTableRecord
100
AcDbLinetypeTableRecord
  2
BYBLOCK
 70
            64
  3

 72
            65
 73
             0
 40
0.0
  0
LTYPE
  5
12
100
AcDbSymbolTableRecord
100
AcDbLinetypeTableRecord
  2
BYLAYER
 70
            64
  3

 72
            65
 73
             0
 40
0.0
  0
LTYPE
  5
13
100
AcDbSymbolTableRecord
100
AcDbLinetypeTableRecord
  2
CONTINUOUS
 70
            64
  3
Solid line
 72
            65
 73
             0
 40
0.0
  0
LTYPE
  5
1D
100
AcDbSymbolTableRecord
100
AcDbLinetypeTableRecord
  2
DASHED
 70
            64
  3
Dashed
 72
            65
 73
             2
 40
15.0
 49
7.0
 74
             0
 49
-8.0
 74
             0
  0
LTYPE
  5
1E
100
AcDbSymbolTableRecord
100
AcDbLinetypeTableRecord
  2
DOTTED
 70
            64
  3
Dotted
 72
            65
 73
             2
 40
1.0
 49
0.0
 74
             0
 49
-1.0
 74
             0
  0
LTYPE
  5
1F
100
AcDbSymbolTableRecord
100
AcDbLinetypeTableRecord
  2
DOT_CENTER
 70
            64
  3
Dot_Center
 72
            65
 73
             4
 40
14.0
 49
12.0
 74
             0
 49
-1.0
 74
             0
 49
0.0
 74
             0
 49
-1.0
 74
             0
  0
LTYPE
  5
20
100
AcDbSymbolTableRecord
100
AcDbLinetypeTableRecord
  2
LONG_DASHED
 70
            64
  3
Long_Dashed
 72
            65
 73
             2
 40
15.0
 49
10.0
 74
             0
 49
-5.0
 74
             0
  0
LTYPE
  5
21
100
AcDbSymbolTableRecord
100
AcDbLinetypeTableRecord
  2
DASH_CENTER
 70
            64
  3
Dash_Center
 72
            65
 73
             4
 40
14.0
 49
11.0
 74
             0
 49
-1.0
 74
             0
 49
1.0
 74
             0
 49
-1.0
 74
             0
  0
LTYPE
  5
22
100
AcDbSymbolTableRecord
100
AcDbLinetypeTableRecord
  2
PHANTOM
 70
            64
  3
Phantom
 72
            65
 73
             6
 40
13.0
 49
10.0
 74
             0
 49
-1.0
 74
             0
 49
0.0
 74
             0
 49
-1.0
 74
             0
 49
0.0
 74
             0
 49
-1.0
 74
             0
  0
LTYPE
  5
23
100
AcDbSymbolTableRecord
100
AcDbLinetypeTableRecord
  2
CENTER_DASH_DASH
 70
            64
  3
Center_Dash_Dash
 72
            65
 73
             6
 40
14.0
 49
9.0
 74
             0
 49
-1.0
 74
             0
 49
1.0
 74
             0
 49
-1.0
 74
             0
 49
1.0
 74
             0
 49
-1.0
 74
             0
  0
LTYPE
  5
24
100
AcDbSymbolTableRecord
100
AcDbLinetypeTableRecord
  2
DASHDOT
 70
            64
  3
DASHDOT
 72
            65
 73
             4
 40
16.0
 49
10.0
 74
             0
 49
-3.0
 74
             0
 49
0.0
 74
             0
 49
-3.0
 74
             0
  0
ENDTAB
  0
TABLE
  2
LAYER
  5
2
100
AcDbSymbolTable
 70
             9
  0
LAYER
  5
14
100
AcDbSymbolTableRecord
100
AcDbLayerTableRecord
  2
0
 70
             0
 62
             7
  6
CONTINUOUS
  0
LAYER
  5
25
100
AcDbSymbolTableRecord
100
AcDbLayerTableRecord
  2
1
 70
             0
 62
             7
  6
CONTINUOUS
  0
LAYER
  5
26
100
AcDbSymbolTableRecord
100
AcDbLayerTableRecord
  2
LC-002-002-----0
 70
             0
 62
             7
  6
CONTINUOUS
  0
LAYER
  5
27
100
AcDbSymbolTableRecord
100
AcDbLayerTableRecord
  2
LC-003-001-----0
 70
             0
 62
             7
  6
CONTINUOUS
  0
LAYER
  5
28
100
AcDbSymbolTableRecord
100
AcDbLayerTableRecord
  2
LC-003-002-----0
 70
             0
 62
             7
  6
CONTINUOUS
  0
LAYER
  5
29
100
AcDbSymbolTableRecord
100
AcDbLayerTableRecord
  2
LC-004-001-RND-0
 70
             0
 62
             7
  6
CONTINUOUS
  0
LAYER
  5
2A
100
AcDbSymbolTableRecord
100
AcDbLayerTableRecord
  2
LC-005-002-RND-0
 70
             0
 62
             7
  6
CONTINUOUS
  0
LAYER
  5
2B
100
AcDbSymbolTableRecord
100
AcDbLayerTableRecord
  2
LC-008-003-----0
 70
             0
 62
             7
  6
CONTINUOUS
  0
LAYER
  5
2C
100
AcDbSymbolTableRecord
100
AcDbLayerTableRecord
  2
LC-009-002-RND-0
 70
             0
 62
             7
  6
CONTINUOUS
  0
ENDTAB
  0
TABLE
  2
STYLE
  5
3
100
AcDbSymbolTable
 70
             2
  0
STYLE
  5
17
100
AcDbSymbolTableRecord
100
AcDbTextStyleTableRecord
  2
STANDARD
 70
             0
 40
0.0
 41
1.0
 50
0.0
 71
             0
 42
0.0
  3
txt
  4

  0
STYLE
  5
133
100
AcDbSymbolTableRecord
100
AcDbTextStyleTableRecord
  2
CONVERTER_1
 70
             0
 40
0.0
 41
0.9
 50
0.0
 71
             0
 42
0.0
  3
txt.shx
  4

  0
ENDTAB
  0
TABLE
  2
VIEW
  5
5
100
AcDbSymbolTable
 70
             0
  0
ENDTAB
  0
TABLE
  2
UCS
  5
6
100
AcDbSymbolTable
 70
             0
  0
ENDTAB
  0
TABLE
  2
APPID
  5
8
100
AcDbSymbolTable
 70
             1
  0
APPID
  5
16
100
AcDbSymbolTableRecord
100
AcDbRegAppTableRecord
  2
ACAD
 70
             0
  0
ENDTAB
  0
TABLE
  2
DIMSTYLE
  5
9
100
AcDbSymbolTable
 70
             7
  0
DIMSTYLE
105
18
100
AcDbSymbolTableRecord
100
AcDbDimStyleTableRecord
  2
STANDARD
 70
             0
  3

  4

  5

  6

  7

 40
1.0
 41
0.18
 42
0.0625
 43
0.38
 44
0.18
 45
0.0
 46
0.0
 47
0.0
 48
0.0
 71
             0
 72
             0
 73
             1
 74
             1
 75
             0
 76
             0
 77
             0
 78
             0
140
0.18
141
0.09
142
0.0
143
25.4
144
1.0
145
0.0
146
1.0
147
0.09
170
             0
171
             2
172
             0
173
             0
174
             0
175
             0
176
             0
177
             0
178
             0
270
             2
271
             4
272
             4
273
             2
274
             2
275
             0
280
             0
281
             0
282
             0
283
             1
284
             0
285
             0
286
             0
287
             3
288
             0
340
17
  0
DIMSTYLE
105
136
100
AcDbSymbolTableRecord
100
AcDbDimStyleTableRecord
  2
ME10_DIM_0
 70
             0
  3
DN<>
  4

  5

  6

  7

 40
1.0
 41
10.0
 42
0.0
 43
0.38
 44
2.0
 45
0.0
 46
0.0
 47
0.0
 48
0.0
 71
             0
 72
             0
 73
             0
 74
             0
 75
             0
 76
             0
 77
             1
 78
             8
140
10.0
141
0.09
142
0.0
143
25.4
144
1.0
145
0.0
146
1.0
147
0.625
170
             0
171
             2
172
             1
173
             1
174
             0
175
             0
176
             4
177
             4
178
             1
270
             2
271
             2
272
             4
273
             2
274
             2
275
             0
280
             0
281
             0
282
             0
283
             1
284
             0
285
             0
286
             0
287
             3
288
             0
340
133
  0
DIMSTYLE
105
141
100
AcDbSymbolTableRecord
100
AcDbDimStyleTableRecord
  2
ME10_DIM_1
 70
             0
  3
Ø<>
  4

  5

  6

  7

 40
1.0
 41
10.0
 42
0.0
 43
0.38
 44
2.0
 45
0.0
 46
0.0
 47
0.0
 48
0.0
 71
             0
 72
             0
 73
             0
 74
             0
 75
             0
 76
             0
 77
             1
 78
             8
140
10.0
141
0.09
142
0.0
143
25.4
144
1.0
145
0.0
146
1.0
147
0.625
170
             0
171
             2
172
             1
173
             1
174
             0
175
             0
176
             4
177
             4
178
             1
270
             2
271
             2
272
             4
273
             2
274
             2
275
             0
280
             0
281
             0
282
             0
283
             1
284
             0
285
             0
286
             0
287
             3
288
             0
340
133
  0
DIMSTYLE
105
14C
100
AcDbSymbolTableRecord
100
AcDbDimStyleTableRecord
  2
ME10_DIM_2
 70
             0
  3
Ø<>
  4

  5

  6

  7

 40
1.0
 41
10.0
 42
0.0
 43
0.38
 44
2.0
 45
0.0
 46
0.0
 47
0.0
 48
0.0
 71
             0
 72
             0
 73
             0
 74
             0
 75
             0
 76
             0
 77
             1
 78
             8
140
10.0
141
0.09
142
0.0
143
25.4
144
1.0
145
0.0
146
1.0
147
0.625
170
             0
171
             2
172
             1
173
             1
174
             0
175
             0
176
             4
177
             4
178
             1
270
             2
271
             2
272
             4
273
             2
274
             2
275
             0
280
             0
281
             0
282
             0
283
             1
284
             0
285
             0
286
             0
287
             3
288
             0
340
133
  0
DIMSTYLE
105
157
100
AcDbSymbolTableRecord
100
AcDbDimStyleTableRecord
  2
ME10_DIM_3
 70
             0
  3

  4

  5

  6

  7

 40
1.0
 41
10.0
 42
0.0
 43
0.38
 44
2.0
 45
0.0
 46
0.0
 47
0.0
 48
0.0
 71
             0
 72
             0
 73
             0
 74
             0
 75
             0
 76
             0
 77
             1
 78
             8
140
10.0
141
0.09
142
0.0
143
25.4
144
1.0
145
0.0
146
1.0
147
0.625
170
             0
171
             2
172
             1
173
             1
174
             0
175
             0
176
             4
177
             4
178
             1
270
             2
271
             2
272
             4
273
             2
274
             2
275
             0
280
             0
281
             0
282
             0
283
             1
284
             0
285
             0
286
             0
287
             3
288
             0
340
133
  0
DIMSTYLE
105
162
100
AcDbSymbolTableRecord
100
AcDbDimStyleTableRecord
  2
ME10_DIM_4
 70
             0
  3

  4

  5

  6

  7

 40
1.0
 41
10.0
 42
0.0
 43
0.38
 44
2.0
 45
0.0
 46
0.0
 47
0.0
 48
0.0
 71
             0
 72
             0
 73
             0
 74
             0
 75
             0
 76
             0
 77
             1
 78
             8
140
10.0
141
0.09
142
0.0
143
25.4
144
1.0
145
0.0
146
1.0
147
0.625
170
             0
171
             2
172
             1
173
             1
174
             0
175
             0
176
             4
177
             4
178
             1
270
             2
271
             2
272
             4
273
             2
274
             2
275
             0
280
             0
281
             0
282
             0
283
             1
284
             0
285
             0
286
             0
287
             3
288
             0
340
133
  0
DIMSTYLE
105
16D
100
AcDbSymbolTableRecord
100
AcDbDimStyleTableRecord
  2
ME10_DIM_5
 70
             0
  3

  4

  5

  6

  7

 40
1.0
 41
10.0
 42
0.0
 43
0.38
 44
2.0
 45
0.0
 46
0.0
 47
0.0
 48
0.0
 71
             0
 72
             0
 73
             0
 74
             0
 75
             0
 76
             0
 77
             1
 78
             8
140
10.0
141
0.09
142
0.0
143
25.4
144
1.0
145
0.0
146
1.0
147
0.625
170
             0
171
             2
172
             1
173
             1
174
             0
175
             0
176
             4
177
             4
178
             1
270
             2
271
             2
272
             4
273
             2
274
             2
275
             0
280
             0
281
             0
282
             0
283
             1
284
             0
285
             0
286
             0
287
             3
288
             0
340
133
  0
ENDTAB
  0
TABLE
  2
BLOCK_RECORD
  5
1
100
AcDbSymbolTable
 70
             9
  0
BLOCK_RECORD
  5
A
100
AcDbSymbolTableRecord
100
AcDbBlockTableRecord
  2
*MODEL_SPACE
  0
BLOCK_RECORD
  5
B
100
AcDbSymbolTableRecord
100
AcDbBlockTableRecord
  2
*PAPER_SPACE
  0
BLOCK_RECORD
  5
2D
100
AcDbSymbolTableRecord
100
AcDbBlockTableRecord
  2
TOP
  0
BLOCK_RECORD
  5
2F
100
AcDbSymbolTableRecord
100
AcDbBlockTableRecord
  2
062B_2E_AUFSATZRAHMEN
  0
BLOCK_RECORD
  5
31
100
AcDbSymbolTableRecord
100
AcDbBlockTableRecord
  2
HL_66_0_AUFSATZRAHMEN
  0
BLOCK_RECORD
  5
12C
100
AcDbSymbolTableRecord
100
AcDbBlockTableRecord
  2
*D3
  0
BLOCK_RECORD
  5
138
100
AcDbSymbolTableRecord
100
AcDbBlockTableRecord
  2
*D4
  0
BLOCK_RECORD
  5
143
100
AcDbSymbolTableRecord
100
AcDbBlockTableRecord
  2
*D5
  0
BLOCK_RECORD
  5
14E
100
AcDbSymbolTableRecord
100
AcDbBlockTableRecord
  2
*D6
  0
BLOCK_RECORD
  5
159
100
AcDbSymbolTableRecord
100
AcDbBlockTableRecord
  2
*D7
  0
BLOCK_RECORD
  5
164
100
AcDbSymbolTableRecord
100
AcDbBlockTableRecord
  2
*D8
  0
ENDTAB
  0
ENDSEC
  0
SECTION
  2
BLOCKS
  0
BLOCK
  5
D
100
AcDbEntity
  8
0
100
AcDbBlockBegin
  2
*MODEL_SPACE
 70
             0
 10
0.0
 20
0.0
 30
0.0
  3
*MODEL_SPACE
  1

  0
ENDBLK
  5
E
100
AcDbEntity
  8
0
100
AcDbBlockEnd
  0
BLOCK
  5
F
100
AcDbEntity
 67
             1
  8
0
100
AcDbBlockBegin
  2
*PAPER_SPACE
 70
             0
 10
0.0
 20
0.0
 30
0.0
  3
*PAPER_SPACE
  1

  0
ENDBLK
  5
10
100
AcDbEntity
 67
             1
  8
0
100
AcDbBlockEnd
  0
BLOCK
  5
2E
100
AcDbEntity
  8
0
100
AcDbBlockBegin
  2
TOP
 70
             0
 10
-380.00555764075602
 20
-870.49194440387498
 30
0.0
  3
TOP
  1

  0
ARC
  5
79
100
AcDbEntity
  8
LC-005-002-RND-0
  6
CONTINUOUS
 62
             7
100
AcDbCircle
 10
84.49937072473325
 20
-25.10821800000002
 40
5.00000000000013
100
AcDbArc
 50
-25.99999999999408
 51
0.0
  0
ARC
  5
78
100
AcDbEntity
  8
LC-005-002-RND-0
  6
CONTINUOUS
 62
             7
100
AcDbCircle
 10
81.7500777247334
 20
-38.72915299999994
 40
1.50000000000006
100
AcDbArc
 50
108.09293600001033
 51
180.0
  0
ARC
  5
77
100
AcDbEntity
  8
LC-005-002-RND-0
  6
CONTINUOUS
 62
             7
100
AcDbCircle
 10
81.0852267247334
 20
-32.10825199999994
 40
5.00000000000053
100
AcDbArc
 50
-71.90706400000281
 51
-25.99999999999512
  0
ARC
  5
76
100
AcDbEntity
  8
LC-005-002-RND-0
  6
CONTINUOUS
 62
             7
100
AcDbCircle
 10
91.49937072473325
 20
-17.20068399999997
 40
2.0
100
AcDbArc
 50
90.0
 51
180.0
  0
ARC
  5
75
100
AcDbEntity
  8
LC-005-002-RND-0
  6
CONTINUOUS
 62
             7
100
AcDbCircle
 10
91.77557472473349
 20
-12.20068399999997
 40
3.0
100
AcDbArc
 50
-90.0
 51
-3.00000000000322
  0
ARC
  5
74
100
AcDbEntity
  8
LC-004-001-RND-0
  6
CONTINUOUS
 62
             7
100
AcDbCircle
 10
96.4856247247334
 20
-7.81053099999997
 40
1.49999999999959
100
AcDbArc
 50
93.99999700001357
 51
177.00000000001648
  0
ARC
  5
73
100
AcDbEntity
  8
LC-005-002-RND-0
  6
CONTINUOUS
 62
             7
100
AcDbCircle
 10
-84.49921527526668
 20
-25.10821800000002
 40
5.0
100
AcDbArc
 50
180.0
 51
-154.00000000000477
  0
ARC
  5
72
100
AcDbEntity
  8
LC-005-002-RND-0
  6
CONTINUOUS
 62
             7
100
AcDbCircle
 10
-81.7499222752666
 20
-38.72915299999994
 40
1.5
100
AcDbArc
 50
0.0
 51
71.90706399998967
  0
ARC
  5
71
100
AcDbEntity
  8
LC-005-002-RND-0
  6
CONTINUOUS
 62
             7
100
AcDbCircle
 10
-81.08507027526672
 20
-32.10825199999994
 40
4.99999999999992
100
AcDbArc
 50
-154.00000000000489
 51
-108.0929359999972
  0
ARC
  5
70
100
AcDbEntity
  8
LC-005-002-RND-0
  6
CONTINUOUS
 62
             7
100
AcDbCircle
 10
-91.49921527526668
 20
-17.20068399999997
 40
2.0
100
AcDbArc
 50
0.0
 51
90.0
  0
ARC
  5
6F
100
AcDbEntity
  8
LC-005-002-RND-0
  6
CONTINUOUS
 62
             7
100
AcDbCircle
 10
-91.77541927526669
 20
-12.20068399999997
 40
3.00000000000017
100
AcDbArc
 50
-176.99999999999679
 51
-90.0
  0
ARC
  5
6E
100
AcDbEntity
  8
LC-004-001-RND-0
  6
CONTINUOUS
 62
             7
100
AcDbCircle
 10
-96.4854692752666
 20
-7.81053099999997
 40
1.50000000000006
100
AcDbArc
 50
2.99999999998374
 51
86.00000299998644
  0
LINE
  5
6D
100
AcDbEntity
  8
LC-002-002-----0
  6
CONTINUOUS
 62
             7
100
AcDbLine
 10
80.2500777247334
 20
-38.72915299999994
 11
-80.2499222752666
 21
-38.72937300000007
  0
LINE
  5
6C
100
AcDbEntity
  8
LC-002-002-----0
  6
CONTINUOUS
 62
             7
100
AcDbLine
 10
89.49937072473325
 20
-25.10821800000002
 11
-89.49921527526668
 21
-25.10846299999997
  0
LINE
  5
6B
100
AcDbEntity
  8
LC-002-002-----0
  6
CONTINUOUS
 62
             7
100
AcDbLine
 10
91.49937072473325
 20
-15.20068399999997
 11
-91.49921527526668
 21
-15.20093499999996
  0
LINE
  5
6A
100
AcDbEntity
  8
LC-002-002-----0
  6
CONTINUOUS
 62
             7
100
AcDbLine
 10
96.38098972473348
 20
-6.31418500000001
 11
-96.38083427526668
 21
-6.31444999999997
  0
LINE
  5
69
100
AcDbEntity
  8
LC-002-002-----0
  6
CONTINUOUS
 62
             7
100
AcDbLine
 10
109.48988272473331
 20
-5.39752299999998
 11
-109.4897262752667
 21
-5.39782299999996
  0
LINE
  5
68
100
AcDbEntity
  8
LC-002-002-----0
  6
CONTINUOUS
 62
             7
100
AcDbLine
 10
111.19650772473339
 20
-3.690898
 11
-111.19635127526669
 21
-3.69120299999997
  0
LINE
  5
67
100
AcDbEntity
  8
LC-002-002-----0
  6
CONTINUOUS
 62
             7
100
AcDbLine
 10
150.75182072473319
 20
-3.00045699999998
 11
-150.75166527526659
 21
-3.00087099999996
  0
LINE
  5
66
100
AcDbEntity
  8
LC-002-002-----0
  6
CONTINUOUS
 62
             7
100
AcDbLine
 10
-79.9999222752666
 20
-159.10068399999989
 11
80.0000777247334
 21
-159.10068399999989
  0
LINE
  5
65
100
AcDbEntity
  8
LC-002-002-----0
  6
DASHDOT
 62
             2
100
AcDbLine
 10
-0.0001072752667
 20
78.18593900000002
 11
0.00022172473327
 21
-161.60068399999989
  0
LINE
  5
64
100
AcDbEntity
  8
LC-002-002-----0
  6
CONTINUOUS
 62
             7
100
AcDbLine
 10
-85.04272727526664
 20
4.69999999999999
 11
-85.5855732752667
 21
5.01019700000001
  0
LINE
  5
63
100
AcDbEntity
  8
LC-002-002-----0
  6
CONTINUOUS
 62
             7
100
AcDbLine
 10
85.04230572473342
 20
4.69999999999999
 11
85.58555872473347
 21
5.01043200000004
  0
LINE
  5
62
100
AcDbEntity
  8
LC-002-002-----0
  6
CONTINUOUS
 62
             7
100
AcDbLine
 10
-150.66967827526659
 20
0.0
 11
249.7971337247333
 21
0.0
  0
LINE
  5
61
100
AcDbEntity
  8
LC-002-002-----0
  6
CONTINUOUS
 62
             7
100
AcDbLine
 10
249.7971337247333
 20
4.69999999999999
 11
249.7971337247333
 21
0.0
  0
LINE
  5
60
100
AcDbEntity
  8
LC-002-002-----0
  6
CONTINUOUS
 62
             7
100
AcDbLine
 10
-0.00000627526661
 20
4.69999999999999
 11
249.7971337247333
 21
4.69999999999999
  0
LINE
  5
5F
100
AcDbEntity
  8
LC-002-002-----0
  6
CONTINUOUS
 62
             7
100
AcDbLine
 10
-249.79705727526661
 20
4.69999999999999
 11
-249.79705727526661
 21
0.0
  0
LINE
  5
5E
100
AcDbEntity
  8
LC-002-002-----0
  6
CONTINUOUS
 62
             7
100
AcDbLine
 10
-150.66967827526659
 20
0.0
 11
-249.79705727526661
 21
0.0
  0
LINE
  5
5D
100
AcDbEntity
  8
LC-002-002-----0
  6
CONTINUOUS
 62
             7
100
AcDbLine
 10
-0.00000627526661
 20
4.69999999999999
 11
-249.79705727526661
 21
4.69999999999999
  0
LINE
  5
5C
100
AcDbEntity
  8
LC-002-002-----0
  6
CONTINUOUS
 62
             7
100
AcDbLine
 10
-79.9999222752666
 20
-159.10068399999989
 11
-78.79415027526657
 21
-163.60068399999989
  0
LINE
  5
5B
100
AcDbEntity
  8
LC-002-002-----0
  6
CONTINUOUS
 62
             7
100
AcDbLine
 10
-79.9999222752666
 20
-92.53787600000004
 11
-79.9999222752666
 21
-159.10068399999989
  0
LINE
  5
5A
100
AcDbEntity
  8
LC-002-002-----0
  6
CONTINUOUS
 62
             7
100
AcDbLine
 10
80.2500777247334
 20
-38.72915299999994
 11
80.2500777247334
 21
-95.60068399999994
  0
LINE
  5
59
100
AcDbEntity
  8
LC-002-002-----0
  6
CONTINUOUS
 62
             7
100
AcDbLine
 10
88.99334172473336
 20
-27.30007300000005
 11
85.57919672473339
 21
-34.30010799999997
  0
LINE
  5
58
100
AcDbEntity
  8
LC-002-002-----0
  6
CONTINUOUS
 62
             7
100
AcDbLine
 10
89.49937072473325
 20
-25.10821800000002
 11
89.49937072473325
 21
-17.20068399999997
  0
LINE
  5
57
100
AcDbEntity
  8
LC-002-002-----0
  6
CONTINUOUS
 62
             7
100
AcDbLine
 10
0.0000777247334
 20
-163.60068399999989
 11
78.79430672473349
 21
-163.60068399999989
  0
LINE
  5
56
100
AcDbEntity
  8
LC-002-002-----0
  6
CONTINUOUS
 62
             7
100
AcDbLine
 10
91.77557472473349
 20
-15.20068399999997
 11
91.49937072473325
 21
-15.20068399999997
  0
LINE
  5
55
100
AcDbEntity
  8
LC-002-002-----0
  6
CONTINUOUS
 62
             7
100
AcDbLine
 10
80.0000777247334
 20
-95.60068399999994
 11
80.0000777247334
 21
-159.10068399999989
  0
LINE
  5
54
100
AcDbEntity
  8
LC-002-002-----0
  6
CONTINUOUS
 62
             7
100
AcDbLine
 10
150.75182072473319
 20
0.0
 11
150.75182072473319
 21
-3.00045699999998
  0
LINE
  5
53
100
AcDbEntity
  8
LC-002-002-----0
  6
CONTINUOUS
 62
             7
100
AcDbLine
 10
82.63802272473335
 20
-36.86102199999999
 11
81.28423872473344
 21
-37.30332199999992
  0
LINE
  5
52
100
AcDbEntity
  8
LC-002-002-----0
  6
CONTINUOUS
 62
             7
100
AcDbLine
 10
80.0000777247334
 20
-159.10068399999989
 11
78.79430672473349
 21
-163.60068399999989
  0
LINE
  5
51
100
AcDbEntity
  8
LC-002-002-----0
  6
CONTINUOUS
 62
             7
100
AcDbLine
 10
80.2500777247334
 20
-95.60068399999994
 11
80.0000777247334
 21
-95.60068399999994
  0
LINE
  5
50
100
AcDbEntity
  8
LC-002-002-----0
  6
CONTINUOUS
 62
             7
100
AcDbLine
 10
95.0138127247334
 20
-7.73339699999997
 11
94.77146372473329
 21
-12.35769199999999
  0
LINE
  5
4F
100
AcDbEntity
  8
LC-003-001-----0
  6
CONTINUOUS
 62
             7
100
AcDbLine
 10
109.48988272473331
 20
-5.39752299999998
 11
96.38098972473348
 21
-6.31418500000001
  0
LINE
  5
4E
100
AcDbEntity
  8
LC-002-002-----0
  6
CONTINUOUS
 62
             7
100
AcDbLine
 10
111.19650772473339
 20
-3.690898
 11
109.48988272473331
 21
-5.39752299999998
  0
LINE
  5
4D
100
AcDbEntity
  8
LC-002-002-----0
  6
CONTINUOUS
 62
             7
100
AcDbLine
 10
150.75182072473319
 20
-3.00045699999998
 11
111.19650772473339
 21
-3.690898
  0
LINE
  5
4C
100
AcDbEntity
  8
LC-002-002-----0
  6
CONTINUOUS
 62
             7
100
AcDbLine
 10
-80.2499222752666
 20
-38.72915299999994
 11
-80.2499222752666
 21
-92.53787600000004
  0
LINE
  5
4B
100
AcDbEntity
  8
LC-002-002-----0
  6
CONTINUOUS
 62
             7
100
AcDbLine
 10
-88.99318527526667
 20
-27.30007300000005
 11
-85.57904027526671
 21
-34.30010799999997
  0
LINE
  5
4A
100
AcDbEntity
  8
LC-002-002-----0
  6
CONTINUOUS
 62
             7
100
AcDbLine
 10
-89.49921527526668
 20
-25.10821800000002
 11
-89.49921527526668
 21
-17.20068399999997
  0
LINE
  5
49
100
AcDbEntity
  8
LC-002-002-----0
  6
CONTINUOUS
 62
             7
100
AcDbLine
 10
0.0000777247334
 20
-163.60068399999989
 11
-78.79415027526657
 21
-163.60068399999989
  0
LINE
  5
48
100
AcDbEntity
  8
LC-002-002-----0
  6
CONTINUOUS
 62
             7
100
AcDbLine
 10
-91.77541927526669
 20
-15.20068399999997
 11
-91.49921527526668
 21
-15.20068399999997
  0
LINE
  5
47
100
AcDbEntity
  8
LC-002-002-----0
  6
CONTINUOUS
 62
             7
100
AcDbLine
 10
-150.75166527526659
 20
0.0
 11
-150.75166527526659
 21
-3.00045699999998
  0
LINE
  5
46
100
AcDbEntity
  8
LC-002-002-----0
  6
CONTINUOUS
 62
             7
100
AcDbLine
 10
-82.63786627526666
 20
-36.86102199999999
 11
-81.28408327526664
 21
-37.30332199999992
  0
LINE
  5
45
100
AcDbEntity
  8
LC-002-002-----0
  6
CONTINUOUS
 62
             7
100
AcDbLine
 10
-95.01365627526671
 20
-7.73339699999997
 11
-94.77130727526661
 21
-12.35769199999999
  0
LINE
  5
44
100
AcDbEntity
  8
LC-003-001-----0
  6
CONTINUOUS
 62
             7
100
AcDbLine
 10
-109.4897262752667
 20
-5.39752299999998
 11
-96.38083427526668
 21
-6.31418500000001
  0
LINE
  5
43
100
AcDbEntity
  8
LC-002-002-----0
  6
CONTINUOUS
 62
             7
100
AcDbLine
 10
-111.19635127526669
 20
-3.690898
 11
-109.4897262752667
 21
-5.39752299999998
  0
LINE
  5
42
100
AcDbEntity
  8
LC-002-002-----0
  6
CONTINUOUS
 62
             7
100
AcDbLine
 10
-150.75166527526659
 20
-3.00045699999998
 11
-111.19635127526669
 21
-3.690898
  0
POINT
  5
41
100
AcDbEntity
  8
LC-008-003-----0
 62
             7
100
AcDbPoint
 10
-77.29992227526667
 20
-163.60068399999989
  0
POINT
  5
40
100
AcDbEntity
  8
LC-008-003-----0
 62
             7
100
AcDbPoint
 10
-150.75166527526659
 20
-3.00045699999998
  0
POINT
  5
3F
100
AcDbEntity
  8
LC-008-003-----0
 62
             7
100
AcDbPoint
 10
80.0000777247334
 20
-159.10068399999989
  0
POINT
  5
3E
100
AcDbEntity
  8
LC-008-003-----0
 62
             7
100
AcDbPoint
 10
-79.9999222752666
 20
-159.10068399999989
  0
POINT
  5
3D
100
AcDbEntity
  8
LC-008-003-----0
 62
             7
100
AcDbPoint
 10
94.77146372473329
 20
-12.35769199999999
  0
POINT
  5
3C
100
AcDbEntity
  8
LC-008-003-----0
 62
             7
100
AcDbPoint
 10
-94.77130727526661
 20
-12.35769199999999
  0
POINT
  5
3B
100
AcDbEntity
  8
LC-008-003-----0
 62
             7
100
AcDbPoint
 10
150.75182072473319
 20
-3.00045699999998
  0
POINT
  5
3A
100
AcDbEntity
  8
LC-008-003-----0
 62
             7
100
AcDbPoint
 10
-150.75166527526659
 20
-3.00045699999998
  0
POINT
  5
39
100
AcDbEntity
  8
LC-008-003-----0
 62
             7
100
AcDbPoint
 10
249.7971337247333
 20
4.69999999999999
  0
POINT
  5
38
100
AcDbEntity
  8
LC-008-003-----0
 62
             7
100
AcDbPoint
 10
-249.79705727526661
 20
4.69999999999999
  0
ENDBLK
  5
7A
100
AcDbEntity
  8
0
100
AcDbBlockEnd
  0
BLOCK
  5
30
100
AcDbEntity
  8
0
100
AcDbBlockBegin
  2
062B_2E_AUFSATZRAHMEN
 70
             0
 10
-69.62906273015423
 20
-883.37751489732182
 30
0.0
  3
062B_2E_AUFSATZRAHMEN
  1

  0
ARC
  5
128
100
AcDbEntity
  8
LC-009-002-RND-0
  6
CONTINUOUS
 62
             7
100
AcDbCircle
 10
72.00008365643582
 20
8.19999999999999
 40
0.5
100
AcDbArc
 50
-90.0
 51
0.0
  0
ARC
  5
127
100
AcDbEntity
  8
LC-009-002-RND-0
  6
CONTINUOUS
 62
             7
100
AcDbCircle
 10
72.00008365643582
 20
17.19999999999999
 40
0.5
100
AcDbArc
 50
-90.0
 51
0.0
  0
ARC
  5
126
100
AcDbEntity
  8
LC-009-002-RND-0
  6
CONTINUOUS
 62
             7
100
AcDbCircle
 10
72.00008365643582
 20
12.69999999999999
 40
0.5
100
AcDbArc
 50
-90.0
 51
0.0
  0
ARC
  5
125
100
AcDbEntity
  8
LC-009-002-RND-0
  6
CONTINUOUS
 62
             7
100
AcDbCircle
 10
72.00008365643582
 20
21.69999999999999
 40
0.5
100
AcDbArc
 50
-90.0
 51
0.0
  0
ARC
  5
124
100
AcDbEntity
  8
LC-009-002-RND-0
  6
CONTINUOUS
 62
             7
100
AcDbCircle
 10
72.00008365643582
 20
26.19999999999999
 40
0.5
100
AcDbArc
 50
-90.0
 51
0.0
  0
ARC
  5
123
100
AcDbEntity
  8
LC-009-002-RND-0
  6
CONTINUOUS
 62
             7
100
AcDbCircle
 10
72.00008365643582
 20
30.69999999999999
 40
0.5
100
AcDbArc
 50
-90.0
 51
0.0
  0
ARC
  5
122
100
AcDbEntity
  8
LC-009-002-RND-0
  6
CONTINUOUS
 62
             7
100
AcDbCircle
 10
72.00008365643582
 20
35.19999999999999
 40
0.5
100
AcDbArc
 50
-90.0
 51
0.0
  0
ARC
  5
121
100
AcDbEntity
  8
LC-009-002-RND-0
  6
CONTINUOUS
 62
             7
100
AcDbCircle
 10
72.00008365643582
 20
39.69999999999999
 40
0.5
100
AcDbArc
 50
-90.0
 51
0.0
  0
ARC
  5
120
100
AcDbEntity
  8
LC-009-002-RND-0
  6
CONTINUOUS
 62
             7
100
AcDbCircle
 10
72.00008365643582
 20
44.19999999999999
 40
0.5
100
AcDbArc
 50
-90.0
 51
0.0
  0
ARC
  5
11F
100
AcDbEntity
  8
LC-009-002-RND-0
  6
CONTINUOUS
 62
             7
100
AcDbCircle
 10
72.00008365643582
 20
48.69999999999999
 40
0.5
100
AcDbArc
 50
-90.0
 51
0.0
  0
ARC
  5
11E
100
AcDbEntity
  8
LC-009-002-RND-0
  6
CONTINUOUS
 62
             7
100
AcDbCircle
 10
72.00008365643582
 20
45.19999999999999
 40
0.5
100
AcDbArc
 50
0.0
 51
90.0
  0
ARC
  5
11D
100
AcDbEntity
  8
LC-009-002-RND-0
  6
CONTINUOUS
 62
             7
100
AcDbCircle
 10
72.00008365643582
 20
40.69999999999999
 40
0.5
100
AcDbArc
 50
0.0
 51
90.0
  0
ARC
  5
11C
100
AcDbEntity
  8
LC-009-002-RND-0
  6
CONTINUOUS
 62
             7
100
AcDbCircle
 10
72.00008365643582
 20
36.19999999999999
 40
0.5
100
AcDbArc
 50
0.0
 51
90.0
  0
ARC
  5
11B
100
AcDbEntity
  8
LC-009-002-RND-0
  6
CONTINUOUS
 62
             7
100
AcDbCircle
 10
72.00008365643582
 20
31.69999999999999
 40
0.5
100
AcDbArc
 50
0.0
 51
90.0
  0
ARC
  5
11A
100
AcDbEntity
  8
LC-009-002-RND-0
  6
CONTINUOUS
 62
             7
100
AcDbCircle
 10
72.00008365643582
 20
27.19999999999999
 40
0.5
100
AcDbArc
 50
0.0
 51
90.0
  0
ARC
  5
119
100
AcDbEntity
  8
LC-009-002-RND-0
  6
CONTINUOUS
 62
             7
100
AcDbCircle
 10
72.00008365643582
 20
22.69999999999999
 40
0.5
100
AcDbArc
 50
0.0
 51
90.0
  0
ARC
  5
118
100
AcDbEntity
  8
LC-009-002-RND-0
  6
CONTINUOUS
 62
             7
100
AcDbCircle
 10
72.00008365643582
 20
18.19999999999999
 40
0.5
100
AcDbArc
 50
0.0
 51
90.0
  0
ARC
  5
117
100
AcDbEntity
  8
LC-009-002-RND-0
  6
CONTINUOUS
 62
             7
100
AcDbCircle
 10
72.00008365643582
 20
13.69999999999999
 40
0.5
100
AcDbArc
 50
0.0
 51
90.0
  0
ARC
  5
116
100
AcDbEntity
  8
LC-009-002-RND-0
  6
CONTINUOUS
 62
             7
100
AcDbCircle
 10
72.00008365643582
 20
9.19999999999999
 40
0.5
100
AcDbArc
 50
0.0
 51
90.0
  0
ARC
  5
115
100
AcDbEntity
  8
LC-003-002-----0
  6
CONTINUOUS
 62
             7
100
AcDbCircle
 10
72.00008365643582
 20
46.94999999999999
 40
1.25
100
AcDbArc
 50
90.0
 51
-90.0
  0
ARC
  5
114
100
AcDbEntity
  8
LC-003-002-----0
  6
CONTINUOUS
 62
             7
100
AcDbCircle
 10
72.00008365643582
 20
42.44999999999999
 40
1.25
100
AcDbArc
 50
90.0
 51
-90.0
  0
ARC
  5
113
100
AcDbEntity
  8
LC-003-002-----0
  6
CONTINUOUS
 62
             7
100
AcDbCircle
 10
72.00008365643582
 20
37.94999999999999
 40
1.25
100
AcDbArc
 50
90.0
 51
-90.0
  0
ARC
  5
112
100
AcDbEntity
  8
LC-003-002-----0
  6
CONTINUOUS
 62
             7
100
AcDbCircle
 10
72.00008365643582
 20
33.44999999999999
 40
1.25
100
AcDbArc
 50
90.0
 51
-90.0
  0
ARC
  5
111
100
AcDbEntity
  8
LC-003-002-----0
  6
CONTINUOUS
 62
             7
100
AcDbCircle
 10
72.00008365643582
 20
28.94999999999999
 40
1.25
100
AcDbArc
 50
90.0
 51
-90.0
  0
ARC
  5
110
100
AcDbEntity
  8
LC-003-002-----0
  6
CONTINUOUS
 62
             7
100
AcDbCircle
 10
72.00008365643582
 20
24.44999999999999
 40
1.25
100
AcDbArc
 50
90.0
 51
-90.0
  0
ARC
  5
10F
100
AcDbEntity
  8
LC-003-002-----0
  6
CONTINUOUS
 62
             7
100
AcDbCircle
 10
72.00008365643582
 20
19.94999999999999
 40
1.25
100
AcDbArc
 50
90.0
 51
-90.0
  0
ARC
  5
10E
100
AcDbEntity
  8
LC-003-002-----0
  6
CONTINUOUS
 62
             7
100
AcDbCircle
 10
72.00008365643582
 20
15.44999999999999
 40
1.25
100
AcDbArc
 50
90.0
 51
-90.0
  0
ARC
  5
10D
100
AcDbEntity
  8
LC-003-002-----0
  6
CONTINUOUS
 62
             7
100
AcDbCircle
 10
72.00008365643582
 20
10.94999999999999
 40
1.25
100
AcDbArc
 50
90.0
 51
-90.0
  0
ARC
  5
10C
100
AcDbEntity
  8
LC-009-002-RND-0
  6
CONTINUOUS
 62
             7
100
AcDbCircle
 10
-71.99991634356417
 20
8.19999999999999
 40
0.5
100
AcDbArc
 50
180.0
 51
-90.0
  0
ARC
  5
10B
100
AcDbEntity
  8
LC-009-002-RND-0
  6
CONTINUOUS
 62
             7
100
AcDbCircle
 10
-71.99991634356417
 20
17.19999999999999
 40
0.5
100
AcDbArc
 50
180.0
 51
-90.0
  0
ARC
  5
10A
100
AcDbEntity
  8
LC-009-002-RND-0
  6
CONTINUOUS
 62
             7
100
AcDbCircle
 10
-71.99991634356417
 20
12.69999999999999
 40
0.5
100
AcDbArc
 50
180.0
 51
-90.0
  0
ARC
  5
109
100
AcDbEntity
  8
LC-009-002-RND-0
  6
CONTINUOUS
 62
             7
100
AcDbCircle
 10
-71.99991634356417
 20
21.69999999999999
 40
0.5
100
AcDbArc
 50
180.0
 51
-90.0
  0
ARC
  5
108
100
AcDbEntity
  8
LC-009-002-RND-0
  6
CONTINUOUS
 62
             7
100
AcDbCircle
 10
-71.99991634356417
 20
26.19999999999999
 40
0.5
100
AcDbArc
 50
180.0
 51
-90.0
  0
ARC
  5
107
100
AcDbEntity
  8
LC-009-002-RND-0
  6
CONTINUOUS
 62
             7
100
AcDbCircle
 10
-71.99991634356417
 20
30.69999999999999
 40
0.5
100
AcDbArc
 50
180.0
 51
-90.0
  0
ARC
  5
106
100
AcDbEntity
  8
LC-009-002-RND-0
  6
CONTINUOUS
 62
             7
100
AcDbCircle
 10
-71.99991634356417
 20
35.19999999999999
 40
0.5
100
AcDbArc
 50
180.0
 51
-90.0
  0
ARC
  5
105
100
AcDbEntity
  8
LC-009-002-RND-0
  6
CONTINUOUS
 62
             7
100
AcDbCircle
 10
-71.99991634356417
 20
39.69999999999999
 40
0.5
100
AcDbArc
 50
180.0
 51
-90.0
  0
ARC
  5
104
100
AcDbEntity
  8
LC-009-002-RND-0
  6
CONTINUOUS
 62
             7
100
AcDbCircle
 10
-71.99991634356417
 20
44.19999999999999
 40
0.5
100
AcDbArc
 50
180.0
 51
-90.0
  0
ARC
  5
103
100
AcDbEntity
  8
LC-009-002-RND-0
  6
CONTINUOUS
 62
             7
100
AcDbCircle
 10
-71.99991634356417
 20
48.69999999999999
 40
0.5
100
AcDbArc
 50
180.0
 51
-90.0
  0
ARC
  5
102
100
AcDbEntity
  8
LC-009-002-RND-0
  6
CONTINUOUS
 62
             7
100
AcDbCircle
 10
-71.99991634356417
 20
45.19999999999999
 40
0.5
100
AcDbArc
 50
90.0
 51
180.0
  0
ARC
  5
101
100
AcDbEntity
  8
LC-009-002-RND-0
  6
CONTINUOUS
 62
             7
100
AcDbCircle
 10
-71.99991634356417
 20
40.69999999999999
 40
0.5
100
AcDbArc
 50
90.0
 51
180.0
  0
ARC
  5
100
100
AcDbEntity
  8
LC-009-002-RND-0
  6
CONTINUOUS
 62
             7
100
AcDbCircle
 10
-71.99991634356417
 20
36.19999999999999
 40
0.5
100
AcDbArc
 50
90.0
 51
180.0
  0
ARC
  5
FF
100
AcDbEntity
  8
LC-009-002-RND-0
  6
CONTINUOUS
 62
             7
100
AcDbCircle
 10
-71.99991634356417
 20
31.69999999999999
 40
0.5
100
AcDbArc
 50
90.0
 51
180.0
  0
ARC
  5
FE
100
AcDbEntity
  8
LC-009-002-RND-0
  6
CONTINUOUS
 62
             7
100
AcDbCircle
 10
-71.99991634356417
 20
27.19999999999999
 40
0.5
100
AcDbArc
 50
90.0
 51
180.0
  0
ARC
  5
FD
100
AcDbEntity
  8
LC-009-002-RND-0
  6
CONTINUOUS
 62
             7
100
AcDbCircle
 10
-71.99991634356417
 20
22.69999999999999
 40
0.5
100
AcDbArc
 50
90.0
 51
180.0
  0
ARC
  5
FC
100
AcDbEntity
  8
LC-009-002-RND-0
  6
CONTINUOUS
 62
             7
100
AcDbCircle
 10
-71.99991634356417
 20
18.19999999999999
 40
0.5
100
AcDbArc
 50
90.0
 51
180.0
  0
ARC
  5
FB
100
AcDbEntity
  8
LC-009-002-RND-0
  6
CONTINUOUS
 62
             7
100
AcDbCircle
 10
-71.99991634356417
 20
13.69999999999999
 40
0.5
100
AcDbArc
 50
90.0
 51
180.0
  0
ARC
  5
FA
100
AcDbEntity
  8
LC-009-002-RND-0
  6
CONTINUOUS
 62
             7
100
AcDbCircle
 10
-71.99991634356417
 20
9.19999999999999
 40
0.5
100
AcDbArc
 50
90.0
 51
180.0
  0
ARC
  5
F9
100
AcDbEntity
  8
LC-003-002-----0
  6
CONTINUOUS
 62
             7
100
AcDbCircle
 10
-71.99991634356417
 20
46.94999999999999
 40
1.25
100
AcDbArc
 50
-90.0
 51
90.0
  0
ARC
  5
F8
100
AcDbEntity
  8
LC-003-002-----0
  6
CONTINUOUS
 62
             7
100
AcDbCircle
 10
-71.99991634356417
 20
42.44999999999999
 40
1.25
100
AcDbArc
 50
-90.0
 51
90.0
  0
ARC
  5
F7
100
AcDbEntity
  8
LC-003-002-----0
  6
CONTINUOUS
 62
             7
100
AcDbCircle
 10
-71.99991634356417
 20
37.94999999999999
 40
1.25
100
AcDbArc
 50
-90.0
 51
90.0
  0
ARC
  5
F6
100
AcDbEntity
  8
LC-003-002-----0
  6
CONTINUOUS
 62
             7
100
AcDbCircle
 10
-71.99991634356417
 20
33.44999999999999
 40
1.25
100
AcDbArc
 50
-90.0
 51
90.0
  0
ARC
  5
F5
100
AcDbEntity
  8
LC-003-002-----0
  6
CONTINUOUS
 62
             7
100
AcDbCircle
 10
-71.99991634356417
 20
28.94999999999999
 40
1.25
100
AcDbArc
 50
-90.0
 51
90.0
  0
ARC
  5
F4
100
AcDbEntity
  8
LC-003-002-----0
  6
CONTINUOUS
 62
             7
100
AcDbCircle
 10
-71.99991634356417
 20
24.44999999999999
 40
1.25
100
AcDbArc
 50
-90.0
 51
90.0
  0
ARC
  5
F3
100
AcDbEntity
  8
LC-003-002-----0
  6
CONTINUOUS
 62
             7
100
AcDbCircle
 10
-71.99991634356417
 20
19.94999999999999
 40
1.25
100
AcDbArc
 50
-90.0
 51
90.0
  0
ARC
  5
F2
100
AcDbEntity
  8
LC-003-002-----0
  6
CONTINUOUS
 62
             7
100
AcDbCircle
 10
-71.99991634356417
 20
15.44999999999999
 40
1.25
100
AcDbArc
 50
-90.0
 51
90.0
  0
ARC
  5
F1
100
AcDbEntity
  8
LC-003-002-----0
  6
CONTINUOUS
 62
             7
100
AcDbCircle
 10
-71.99991634356417
 20
10.94999999999999
 40
1.25
100
AcDbArc
 50
-90.0
 51
90.0
  0
ARC
  5
F0
100
AcDbEntity
  8
LC-009-002-RND-0
  6
CONTINUOUS
 62
             7
100
AcDbCircle
 10
-71.99991634356417
 20
4.69999999999999
 40
0.5
100
AcDbArc
 50
90.0
 51
180.0
  0
ARC
  5
EF
100
AcDbEntity
  8
LC-003-002-----0
  6
CONTINUOUS
 62
             7
100
AcDbCircle
 10
-71.99991634356417
 20
6.44999999999999
 40
1.25
100
AcDbArc
 50
-90.0
 51
90.0
  0
ARC
  5
EE
100
AcDbEntity
  8
LC-009-002-RND-0
  6
CONTINUOUS
 62
             7
100
AcDbCircle
 10
72.00008365643582
 20
4.69999999999999
 40
0.5
100
AcDbArc
 50
0.0
 51
90.0
  0
ARC
  5
ED
100
AcDbEntity
  8
LC-003-002-----0
  6
CONTINUOUS
 62
             7
100
AcDbCircle
 10
72.00008365643582
 20
6.44999999999999
 40
1.25
100
AcDbArc
 50
90.0
 51
-90.0
  0
LINE
  5
EC
100
AcDbEntity
  8
1
  6
CONTINUOUS
 62
             7
100
AcDbLine
 10
-63.49991634356417
 20
53.19999999999999
 11
-63.49991634356417
 21
55.69999999999999
  0
LINE
  5
EB
100
AcDbEntity
  8
1
  6
CONTINUOUS
 62
             7
100
AcDbLine
 10
-63.49991634356417
 20
51.19999999999999
 11
-63.49991634356417
 21
53.19999999999999
  0
LINE
  5
EA
100
AcDbEntity
  8
1
  6
CONTINUOUS
 62
             7
100
AcDbLine
 10
-63.49991634356417
 20
55.69999999999999
 11
-34.99991634356417
 21
51.19999999999999
  0
LINE
  5
E9
100
AcDbEntity
  8
1
  6
CONTINUOUS
 62
             7
100
AcDbLine
 10
63.50008365643583
 20
53.19999999999999
 11
63.50008365643583
 21
51.19999999999999
  0
LINE
  5
E8
100
AcDbEntity
  8
1
  6
CONTINUOUS
 62
             7
100
AcDbLine
 10
72.50008365643582
 20
53.19999999999999
 11
63.50008365643583
 21
53.19999999999999
  0
LINE
  5
E7
100
AcDbEntity
  8
1
  6
CONTINUOUS
 62
             7
100
AcDbLine
 10
63.50008365643583
 20
51.19999999999999
 11
72.50008365643582
 21
51.19999999999999
  0
LINE
  5
E6
100
AcDbEntity
  8
1
  6
CONTINUOUS
 62
             7
100
AcDbLine
 10
63.50008365643583
 20
55.69999999999999
 11
63.50008365643583
 21
53.19999999999999
  0
LINE
  5
E5
100
AcDbEntity
  8
1
  6
CONTINUOUS
 62
             7
100
AcDbLine
 10
63.50008365643583
 20
55.69999999999999
 11
72.50008365643582
 21
55.69999999999999
  0
LINE
  5
E4
100
AcDbEntity
  8
1
  6
CONTINUOUS
 62
             7
100
AcDbLine
 10
35.00008365643583
 20
51.19999999999999
 11
63.50008365643583
 21
55.69999999999999
  0
LINE
  5
E3
100
AcDbEntity
  8
1
  6
CONTINUOUS
 62
             7
100
AcDbLine
 10
35.00008365643583
 20
51.19999999999999
 11
63.50008365643583
 21
51.19999999999999
  0
LINE
  5
E2
100
AcDbEntity
  8
1
  6
CONTINUOUS
 62
             7
100
AcDbLine
 10
35.00008365643583
 20
51.19999999999999
 11
35.00008365643583
 21
53.19999999999999
  0
LINE
  5
E1
100
AcDbEntity
  8
1
  6
CONTINUOUS
 62
             7
100
AcDbLine
 10
-34.99991634356417
 20
53.19999999999999
 11
35.00008365643583
 21
53.19999999999999
  0
LINE
  5
E0
100
AcDbEntity
  8
1
  6
CONTINUOUS
 62
             7
100
AcDbLine
 10
-34.99991634356417
 20
51.19999999999999
 11
35.00008365643583
 21
51.19999999999999
  0
LINE
  5
DF
100
AcDbEntity
  8
1
  6
CONTINUOUS
 62
             7
100
AcDbLine
 10
-34.99991634356417
 20
53.19999999999999
 11
-34.99991634356417
 21
51.19999999999999
  0
LINE
  5
DE
100
AcDbEntity
  8
LC-003-002-----0
  6
CONTINUOUS
 62
             7
100
AcDbLine
 10
72.50008365643582
 20
55.69999999999999
 11
72.50008365643582
 21
53.19999999999999
  0
LINE
  5
DD
100
AcDbEntity
  8
LC-003-002-----0
  6
CONTINUOUS
 62
             7
100
AcDbLine
 10
72.50008365643582
 20
45.19999999999999
 11
72.50008365643582
 21
44.19999999999999
  0
LINE
  5
DC
100
AcDbEntity
  8
LC-003-002-----0
  6
CONTINUOUS
 62
             7
100
AcDbLine
 10
72.50008365643582
 20
40.69999999999999
 11
72.50008365643582
 21
39.69999999999999
  0
LINE
  5
DB
100
AcDbEntity
  8
LC-003-002-----0
  6
CONTINUOUS
 62
             7
100
AcDbLine
 10
72.50008365643582
 20
36.19999999999999
 11
72.50008365643582
 21
35.19999999999999
  0
LINE
  5
DA
100
AcDbEntity
  8
LC-003-002-----0
  6
CONTINUOUS
 62
             7
100
AcDbLine
 10
72.50008365643582
 20
31.69999999999999
 11
72.50008365643582
 21
30.69999999999999
  0
LINE
  5
D9
100
AcDbEntity
  8
LC-003-002-----0
  6
CONTINUOUS
 62
             7
100
AcDbLine
 10
72.50008365643582
 20
27.19999999999999
 11
72.50008365643582
 21
26.19999999999999
  0
LINE
  5
D8
100
AcDbEntity
  8
LC-003-002-----0
  6
CONTINUOUS
 62
             7
100
AcDbLine
 10
72.50008365643582
 20
22.69999999999999
 11
72.50008365643582
 21
21.69999999999999
  0
LINE
  5
D7
100
AcDbEntity
  8
LC-003-002-----0
  6
CONTINUOUS
 62
             7
100
AcDbLine
 10
72.50008365643582
 20
18.19999999999999
 11
72.50008365643582
 21
17.19999999999999
  0
LINE
  5
D6
100
AcDbEntity
  8
LC-003-002-----0
  6
CONTINUOUS
 62
             7
100
AcDbLine
 10
72.50008365643582
 20
13.69999999999999
 11
72.50008365643582
 21
12.69999999999999
  0
LINE
  5
D5
100
AcDbEntity
  8
LC-003-002-----0
  6
CONTINUOUS
 62
             7
100
AcDbLine
 10
72.50008365643582
 20
9.19999999999999
 11
72.50008365643582
 21
8.19999999999999
  0
LINE
  5
D4
100
AcDbEntity
  8
LC-003-002-----0
  6
CONTINUOUS
 62
             7
100
AcDbLine
 10
72.00008365643582
 20
45.69999999999999
 11
72.00008365643582
 21
45.69999999999999
  0
LINE
  5
D3
100
AcDbEntity
  8
LC-003-002-----0
  6
CONTINUOUS
 62
             7
100
AcDbLine
 10
72.00008365643582
 20
41.19999999999999
 11
72.00008365643582
 21
41.19999999999999
  0
LINE
  5
D2
100
AcDbEntity
  8
LC-003-002-----0
  6
CONTINUOUS
 62
             7
100
AcDbLine
 10
72.00008365643582
 20
36.69999999999999
 11
72.00008365643582
 21
36.69999999999999
  0
LINE
  5
D1
100
AcDbEntity
  8
LC-003-002-----0
  6
CONTINUOUS
 62
             7
100
AcDbLine
 10
72.00008365643582
 20
32.19999999999999
 11
72.00008365643582
 21
32.19999999999999
  0
LINE
  5
D0
100
AcDbEntity
  8
LC-003-002-----0
  6
CONTINUOUS
 62
             7
100
AcDbLine
 10
72.00008365643582
 20
27.69999999999999
 11
72.00008365643582
 21
27.69999999999999
  0
LINE
  5
CF
100
AcDbEntity
  8
LC-003-002-----0
  6
CONTINUOUS
 62
             7
100
AcDbLine
 10
72.00008365643582
 20
23.19999999999999
 11
72.00008365643582
 21
23.19999999999999
  0
LINE
  5
CE
100
AcDbEntity
  8
LC-003-002-----0
  6
CONTINUOUS
 62
             7
100
AcDbLine
 10
72.00008365643582
 20
18.69999999999999
 11
72.00008365643582
 21
18.69999999999999
  0
LINE
  5
CD
100
AcDbEntity
  8
LC-003-002-----0
  6
CONTINUOUS
 62
             7
100
AcDbLine
 10
72.00008365643582
 20
14.19999999999999
 11
72.00008365643582
 21
14.19999999999999
  0
LINE
  5
CC
100
AcDbEntity
  8
LC-003-002-----0
  6
CONTINUOUS
 62
             7
100
AcDbLine
 10
72.00008365643582
 20
9.69999999999999
 11
72.00008365643582
 21
9.69999999999999
  0
LINE
  5
CB
100
AcDbEntity
  8
LC-003-002-----0
  6
CONTINUOUS
 62
             7
100
AcDbLine
 10
72.00008365643582
 20
48.19999999999999
 11
72.00008365643582
 21
48.19999999999999
  0
LINE
  5
CA
100
AcDbEntity
  8
LC-003-002-----0
  6
CONTINUOUS
 62
             7
100
AcDbLine
 10
72.00008365643582
 20
43.69999999999999
 11
72.00008365643582
 21
43.69999999999999
  0
LINE
  5
C9
100
AcDbEntity
  8
LC-003-002-----0
  6
CONTINUOUS
 62
             7
100
AcDbLine
 10
72.00008365643582
 20
39.19999999999999
 11
72.00008365643582
 21
39.19999999999999
  0
LINE
  5
C8
100
AcDbEntity
  8
LC-003-002-----0
  6
CONTINUOUS
 62
             7
100
AcDbLine
 10
72.00008365643582
 20
34.69999999999999
 11
72.00008365643582
 21
34.69999999999999
  0
LINE
  5
C7
100
AcDbEntity
  8
LC-003-002-----0
  6
CONTINUOUS
 62
             7
100
AcDbLine
 10
72.00008365643582
 20
30.19999999999999
 11
72.00008365643582
 21
30.19999999999999
  0
LINE
  5
C6
100
AcDbEntity
  8
LC-003-002-----0
  6
CONTINUOUS
 62
             7
100
AcDbLine
 10
72.00008365643582
 20
25.69999999999999
 11
72.00008365643582
 21
25.69999999999999
  0
LINE
  5
C5
100
AcDbEntity
  8
LC-003-002-----0
  6
CONTINUOUS
 62
             7
100
AcDbLine
 10
72.00008365643582
 20
21.19999999999999
 11
72.00008365643582
 21
21.19999999999999
  0
LINE
  5
C4
100
AcDbEntity
  8
LC-003-002-----0
  6
CONTINUOUS
 62
             7
100
AcDbLine
 10
72.00008365643582
 20
16.69999999999999
 11
72.00008365643582
 21
16.69999999999999
  0
LINE
  5
C3
100
AcDbEntity
  8
LC-003-002-----0
  6
CONTINUOUS
 62
             7
100
AcDbLine
 10
72.00008365643582
 20
12.19999999999999
 11
72.00008365643582
 21
12.19999999999999
  0
LINE
  5
C2
100
AcDbEntity
  8
LC-003-002-----0
  6
CONTINUOUS
 62
             7
100
AcDbLine
 10
72.00008365643582
 20
7.69999999999999
 11
72.00008365643582
 21
7.69999999999999
  0
LINE
  5
C1
100
AcDbEntity
  8
LC-003-002-----0
  6
CONTINUOUS
 62
             7
100
AcDbLine
 10
72.50008365643582
 20
51.19999999999999
 11
72.50008365643582
 21
48.69999999999999
  0
LINE
  5
C0
100
AcDbEntity
  8
LC-003-002-----0
  6
CONTINUOUS
 62
             7
100
AcDbLine
 10
73.00008365643582
 20
53.19999999999999
 11
73.00008365643582
 21
51.19999999999999
  0
LINE
  5
BF
100
AcDbEntity
  8
LC-003-002-----0
  6
CONTINUOUS
 62
             7
100
AcDbLine
 10
73.00008365643582
 20
51.19999999999999
 11
72.50008365643582
 21
51.19999999999999
  0
LINE
  5
BE
100
AcDbEntity
  8
LC-003-002-----0
  6
CONTINUOUS
 62
             7
100
AcDbLine
 10
72.50008365643582
 20
55.69999999999999
 11
73.50008365643582
 21
55.69999999999999
  0
LINE
  5
BD
100
AcDbEntity
  8
LC-003-002-----0
  6
CONTINUOUS
 62
             7
100
AcDbLine
 10
73.00008365643582
 20
53.19999999999999
 11
72.50008365643582
 21
53.19999999999999
  0
LINE
  5
BC
100
AcDbEntity
  8
LC-003-002-----0
  6
CONTINUOUS
 62
             7
100
AcDbLine
 10
73.50008365643582
 20
69.69999999999999
 11
73.50008365643582
 21
55.69999999999999
  0
LINE
  5
BB
100
AcDbEntity
  8
LC-003-002-----0
  6
CONTINUOUS
 62
             7
100
AcDbLine
 10
73.50008365643582
 20
69.69999999999999
 11
-73.49991634356417
 21
69.69999999999999
  0
LINE
  5
BA
100
AcDbEntity
  8
LC-003-002-----0
  6
CONTINUOUS
 62
             7
100
AcDbLine
 10
-72.49991634356417
 20
55.69999999999999
 11
-72.49991634356417
 21
53.19999999999999
  0
LINE
  5
B9
100
AcDbEntity
  8
LC-003-002-----0
  6
CONTINUOUS
 62
             7
100
AcDbLine
 10
-72.49991634356417
 20
45.19999999999999
 11
-72.49991634356417
 21
44.19999999999999
  0
LINE
  5
B8
100
AcDbEntity
  8
LC-003-002-----0
  6
CONTINUOUS
 62
             7
100
AcDbLine
 10
-72.49991634356417
 20
40.69999999999999
 11
-72.49991634356417
 21
39.69999999999999
  0
LINE
  5
B7
100
AcDbEntity
  8
LC-003-002-----0
  6
CONTINUOUS
 62
             7
100
AcDbLine
 10
-72.49991634356417
 20
36.19999999999999
 11
-72.49991634356417
 21
35.19999999999999
  0
LINE
  5
B6
100
AcDbEntity
  8
LC-003-002-----0
  6
CONTINUOUS
 62
             7
100
AcDbLine
 10
-72.49991634356417
 20
31.69999999999999
 11
-72.49991634356417
 21
30.69999999999999
  0
LINE
  5
B5
100
AcDbEntity
  8
LC-003-002-----0
  6
CONTINUOUS
 62
             7
100
AcDbLine
 10
-72.49991634356417
 20
27.19999999999999
 11
-72.49991634356417
 21
26.19999999999999
  0
LINE
  5
B4
100
AcDbEntity
  8
LC-003-002-----0
  6
CONTINUOUS
 62
             7
100
AcDbLine
 10
-72.49991634356417
 20
22.69999999999999
 11
-72.49991634356417
 21
21.69999999999999
  0
LINE
  5
B3
100
AcDbEntity
  8
LC-003-002-----0
  6
CONTINUOUS
 62
             7
100
AcDbLine
 10
-72.49991634356417
 20
18.19999999999999
 11
-72.49991634356417
 21
17.19999999999999
  0
LINE
  5
B2
100
AcDbEntity
  8
LC-003-002-----0
  6
CONTINUOUS
 62
             7
100
AcDbLine
 10
-72.49991634356417
 20
13.69999999999999
 11
-72.49991634356417
 21
12.69999999999999
  0
LINE
  5
B1
100
AcDbEntity
  8
LC-003-002-----0
  6
CONTINUOUS
 62
             7
100
AcDbLine
 10
-72.49991634356417
 20
9.19999999999999
 11
-72.49991634356417
 21
8.19999999999999
  0
LINE
  5
B0
100
AcDbEntity
  8
LC-003-002-----0
  6
CONTINUOUS
 62
             7
100
AcDbLine
 10
-71.99991634356417
 20
45.69999999999999
 11
-71.99991634356417
 21
45.69999999999999
  0
LINE
  5
AF
100
AcDbEntity
  8
LC-003-002-----0
  6
CONTINUOUS
 62
             7
100
AcDbLine
 10
-71.99991634356417
 20
41.19999999999999
 11
-71.99991634356417
 21
41.19999999999999
  0
LINE
  5
AE
100
AcDbEntity
  8
LC-003-002-----0
  6
CONTINUOUS
 62
             7
100
AcDbLine
 10
-71.99991634356417
 20
36.69999999999999
 11
-71.99991634356417
 21
36.69999999999999
  0
LINE
  5
AD
100
AcDbEntity
  8
LC-003-002-----0
  6
CONTINUOUS
 62
             7
100
AcDbLine
 10
-71.99991634356417
 20
32.19999999999999
 11
-71.99991634356417
 21
32.19999999999999
  0
LINE
  5
AC
100
AcDbEntity
  8
LC-003-002-----0
  6
CONTINUOUS
 62
             7
100
AcDbLine
 10
-71.99991634356417
 20
27.69999999999999
 11
-71.99991634356417
 21
27.69999999999999
  0
LINE
  5
AB
100
AcDbEntity
  8
LC-003-002-----0
  6
CONTINUOUS
 62
             7
100
AcDbLine
 10
-71.99991634356417
 20
23.19999999999999
 11
-71.99991634356417
 21
23.19999999999999
  0
LINE
  5
AA
100
AcDbEntity
  8
LC-003-002-----0
  6
CONTINUOUS
 62
             7
100
AcDbLine
 10
-71.99991634356417
 20
18.69999999999999
 11
-71.99991634356417
 21
18.69999999999999
  0
LINE
  5
A9
100
AcDbEntity
  8
LC-003-002-----0
  6
CONTINUOUS
 62
             7
100
AcDbLine
 10
-71.99991634356417
 20
14.19999999999999
 11
-71.99991634356417
 21
14.19999999999999
  0
LINE
  5
A8
100
AcDbEntity
  8
LC-003-002-----0
  6
CONTINUOUS
 62
             7
100
AcDbLine
 10
-71.99991634356417
 20
9.69999999999999
 11
-71.99991634356417
 21
9.69999999999999
  0
LINE
  5
A7
100
AcDbEntity
  8
LC-003-002-----0
  6
CONTINUOUS
 62
             7
100
AcDbLine
 10
-71.99991634356417
 20
48.19999999999999
 11
-71.99991634356417
 21
48.19999999999999
  0
LINE
  5
A6
100
AcDbEntity
  8
LC-003-002-----0
  6
CONTINUOUS
 62
             7
100
AcDbLine
 10
-71.99991634356417
 20
43.69999999999999
 11
-71.99991634356417
 21
43.69999999999999
  0
LINE
  5
A5
100
AcDbEntity
  8
LC-003-002-----0
  6
CONTINUOUS
 62
             7
100
AcDbLine
 10
-71.99991634356417
 20
39.19999999999999
 11
-71.99991634356417
 21
39.19999999999999
  0
LINE
  5
A4
100
AcDbEntity
  8
LC-003-002-----0
  6
CONTINUOUS
 62
             7
100
AcDbLine
 10
-71.99991634356417
 20
34.69999999999999
 11
-71.99991634356417
 21
34.69999999999999
  0
LINE
  5
A3
100
AcDbEntity
  8
LC-003-002-----0
  6
CONTINUOUS
 62
             7
100
AcDbLine
 10
-71.99991634356417
 20
30.19999999999999
 11
-71.99991634356417
 21
30.19999999999999
  0
LINE
  5
A2
100
AcDbEntity
  8
LC-003-002-----0
  6
CONTINUOUS
 62
             7
100
AcDbLine
 10
-71.99991634356417
 20
25.69999999999999
 11
-71.99991634356417
 21
25.69999999999999
  0
LINE
  5
A1
100
AcDbEntity
  8
LC-003-002-----0
  6
CONTINUOUS
 62
             7
100
AcDbLine
 10
-71.99991634356417
 20
21.19999999999999
 11
-71.99991634356417
 21
21.19999999999999
  0
LINE
  5
A0
100
AcDbEntity
  8
LC-003-002-----0
  6
CONTINUOUS
 62
             7
100
AcDbLine
 10
-71.99991634356417
 20
16.69999999999999
 11
-71.99991634356417
 21
16.69999999999999
  0
LINE
  5
9F
100
AcDbEntity
  8
LC-003-002-----0
  6
CONTINUOUS
 62
             7
100
AcDbLine
 10
-71.99991634356417
 20
12.19999999999999
 11
-71.99991634356417
 21
12.19999999999999
  0
LINE
  5
9E
100
AcDbEntity
  8
LC-003-002-----0
  6
CONTINUOUS
 62
             7
100
AcDbLine
 10
-71.99991634356417
 20
7.69999999999999
 11
-71.99991634356417
 21
7.69999999999999
  0
LINE
  5
9D
100
AcDbEntity
  8
LC-003-002-----0
  6
CONTINUOUS
 62
             7
100
AcDbLine
 10
-72.49991634356417
 20
51.19999999999999
 11
-72.49991634356417
 21
48.69999999999999
  0
LINE
  5
9C
100
AcDbEntity
  8
LC-003-002-----0
  6
CONTINUOUS
 62
             7
100
AcDbLine
 10
-72.99991634356417
 20
53.19999999999999
 11
-72.99991634356417
 21
51.19999999999999
  0
LINE
  5
9B
100
AcDbEntity
  8
LC-003-002-----0
  6
CONTINUOUS
 62
             7
100
AcDbLine
 10
-72.99991634356417
 20
51.19999999999999
 11
-72.49991634356417
 21
51.19999999999999
  0
LINE
  5
9A
100
AcDbEntity
  8
LC-003-002-----0
  6
CONTINUOUS
 62
             7
100
AcDbLine
 10
-72.49991634356417
 20
55.69999999999999
 11
-73.49991634356417
 21
55.69999999999999
  0
LINE
  5
99
100
AcDbEntity
  8
LC-003-002-----0
  6
CONTINUOUS
 62
             7
100
AcDbLine
 10
-72.99991634356417
 20
53.19999999999999
 11
-72.49991634356417
 21
53.19999999999999
  0
LINE
  5
98
100
AcDbEntity
  8
LC-003-002-----0
  6
CONTINUOUS
 62
             7
100
AcDbLine
 10
-73.49991634356417
 20
69.69999999999999
 11
-73.49991634356417
 21
55.69999999999999
  0
LINE
  5
97
100
AcDbEntity
  8
1
  6
CONTINUOUS
 62
             7
100
AcDbLine
 10
-72.49991634356417
 20
55.69999999999999
 11
63.50008365643583
 21
55.69999999999999
  0
LINE
  5
96
100
AcDbEntity
  8
1
  6
CONTINUOUS
 62
             7
100
AcDbLine
 10
-72.49991634356417
 20
53.19999999999999
 11
-63.49991634356417
 21
53.19999999999999
  0
LINE
  5
95
100
AcDbEntity
  8
1
  6
CONTINUOUS
 62
             7
100
AcDbLine
 10
-72.49991634356417
 20
51.19999999999999
 11
-34.99991634356417
 21
51.19999999999999
  0
LINE
  5
94
100
AcDbEntity
  8
1
  6
CONTINUOUS
 62
             7
100
AcDbLine
 10
72.00008365643582
 20
48.19999999999999
 11
-71.99991634356417
 21
48.19999999999999
  0
LINE
  5
93
100
AcDbEntity
  8
1
  6
CONTINUOUS
 62
             7
100
AcDbLine
 10
-71.99991634356417
 20
45.69999999999999
 11
72.00008365643582
 21
45.69999999999999
  0
LINE
  5
92
100
AcDbEntity
  8
1
  6
CONTINUOUS
 62
             7
100
AcDbLine
 10
-71.99991634356417
 20
43.69999999999999
 11
72.00008365643582
 21
43.69999999999999
  0
LINE
  5
91
100
AcDbEntity
  8
1
  6
CONTINUOUS
 62
             7
100
AcDbLine
 10
-71.99991634356417
 20
41.19999999999999
 11
72.00008365643582
 21
41.19999999999999
  0
LINE
  5
90
100
AcDbEntity
  8
1
  6
CONTINUOUS
 62
             7
100
AcDbLine
 10
-71.99991634356417
 20
39.19999999999999
 11
72.00008365643582
 21
39.19999999999999
  0
LINE
  5
8F
100
AcDbEntity
  8
1
  6
CONTINUOUS
 62
             7
100
AcDbLine
 10
-71.99991634356417
 20
36.69999999999999
 11
72.00008365643582
 21
36.69999999999999
  0
LINE
  5
8E
100
AcDbEntity
  8
1
  6
CONTINUOUS
 62
             7
100
AcDbLine
 10
-71.99991634356417
 20
34.69999999999999
 11
72.00008365643582
 21
34.69999999999999
  0
LINE
  5
8D
100
AcDbEntity
  8
1
  6
CONTINUOUS
 62
             7
100
AcDbLine
 10
-71.99991634356417
 20
32.19999999999999
 11
72.00008365643582
 21
32.19999999999999
  0
LINE
  5
8C
100
AcDbEntity
  8
1
  6
CONTINUOUS
 62
             7
100
AcDbLine
 10
-71.99991634356417
 20
30.19999999999999
 11
72.00008365643582
 21
30.19999999999999
  0
LINE
  5
8B
100
AcDbEntity
  8
1
  6
CONTINUOUS
 62
             7
100
AcDbLine
 10
-71.99991634356417
 20
27.69999999999999
 11
72.00008365643582
 21
27.69999999999999
  0
LINE
  5
8A
100
AcDbEntity
  8
1
  6
CONTINUOUS
 62
             7
100
AcDbLine
 10
-71.99991634356417
 20
25.69999999999999
 11
72.00008365643582
 21
25.69999999999999
  0
LINE
  5
89
100
AcDbEntity
  8
1
  6
CONTINUOUS
 62
             7
100
AcDbLine
 10
-71.99991634356417
 20
23.19999999999999
 11
72.00008365643582
 21
23.19999999999999
  0
LINE
  5
88
100
AcDbEntity
  8
1
  6
CONTINUOUS
 62
             7
100
AcDbLine
 10
-71.99991634356417
 20
21.19999999999999
 11
72.00008365643582
 21
21.19999999999999
  0
LINE
  5
87
100
AcDbEntity
  8
1
  6
CONTINUOUS
 62
             7
100
AcDbLine
 10
-71.99991634356417
 20
18.69999999999999
 11
72.00008365643582
 21
18.69999999999999
  0
LINE
  5
86
100
AcDbEntity
  8
1
  6
CONTINUOUS
 62
             7
100
AcDbLine
 10
-71.99991634356417
 20
16.69999999999999
 11
72.00008365643582
 21
16.69999999999999
  0
LINE
  5
85
100
AcDbEntity
  8
1
  6
CONTINUOUS
 62
             7
100
AcDbLine
 10
-71.99991634356417
 20
14.19999999999999
 11
72.00008365643582
 21
14.19999999999999
  0
LINE
  5
84
100
AcDbEntity
  8
1
  6
CONTINUOUS
 62
             7
100
AcDbLine
 10
-71.99991634356417
 20
12.19999999999999
 11
72.00008365643582
 21
12.19999999999999
  0
LINE
  5
83
100
AcDbEntity
  8
1
  6
CONTINUOUS
 62
             7
100
AcDbLine
 10
-71.99991634356417
 20
9.69999999999999
 11
72.00008365643582
 21
9.69999999999999
  0
LINE
  5
82
100
AcDbEntity
  8
1
  6
CONTINUOUS
 62
             7
100
AcDbLine
 10
-71.99991634356417
 20
7.69999999999999
 11
72.00008365643582
 21
7.69999999999999
  0
LINE
  5
81
100
AcDbEntity
  8
LC-003-002-----0
  6
CONTINUOUS
 62
             7
100
AcDbLine
 10
-71.99991634356417
 20
5.19999999999999
 11
-71.99991634356417
 21
5.19999999999999
  0
LINE
  5
80
100
AcDbEntity
  8
LC-003-002-----0
  6
CONTINUOUS
 62
             7
100
AcDbLine
 10
72.00008365643582
 20
5.19999999999999
 11
72.00008365643582
 21
5.19999999999999
  0
LINE
  5
7F
100
AcDbEntity
  8
1
  6
CONTINUOUS
 62
             7
100
AcDbLine
 10
-71.99991634356417
 20
5.19999999999999
 11
72.00008365643582
 21
5.19999999999999
  0
LINE
  5
7E
100
AcDbEntity
  8
1
  6
PHANTOM
 62
             2
100
AcDbLine
 10
0.00008365643582
 20
72.35862692968414
 11
0.00008365643582
 21
-23.53482445343974
  0
POINT
  5
7D
100
AcDbEntity
  8
0
 62
             7
100
AcDbPoint
 10
73.50008365643582
 20
69.69999999999999
  0
POINT
  5
7C
100
AcDbEntity
  8
0
 62
             7
100
AcDbPoint
 10
73.50008365643582
 20
69.69999999999999
  0
POINT
  5
7B
100
AcDbEntity
  8
0
 62
             7
100
AcDbPoint
 10
-73.49991634356417
 20
69.69999999999999
  0
ENDBLK
  5
129
100
AcDbEntity
  8
0
100
AcDbBlockEnd
  0
BLOCK
  5
32
100
AcDbEntity
  8
0
100
AcDbBlockBegin
  2
HL_66_0_AUFSATZRAHMEN
 70
             0
 10
-3.92514290157587
 20
-807.93044053037011
 30
0.0
  3
HL_66_0_AUFSATZRAHMEN
  1

  0
INSERT
  5
33
100
AcDbEntity
  8
1
100
AcDbBlockReference
  2
062B_2E_AUFSATZRAHMEN
 10
-69.62906273015423
 20
-883.37751489732182
  0
ENDBLK
  5
12A
100
AcDbEntity
  8
0
100
AcDbBlockEnd
  0
BLOCK
  5
12D
100
AcDbEntity
  8
0
100
AcDbBlockBegin
  2
*D3
 70
             1
 10
0.0
 20
0.0
 30
0.0
  3
*D3
  1

  0
LINE
  5
12E
100
AcDbEntity
  8
0
  6
CONTINUOUS
 62
             4
100
AcDbLine
 10
-79.99987523566156
 20
-193.38478138658209
 11
80.00012476403724
 21
-193.38456185807232
  0
LINE
  5
12F
100
AcDbEntity
  8
0
  6
CONTINUOUS
 62
             4
100
AcDbLine
 10
-79.9999222752666
 20
-159.10068399999992
 11
-79.9998724915552
 21
-195.38478138658016
  0
LINE
  5
130
100
AcDbEntity
  8
0
  6
CONTINUOUS
 62
             4
100
AcDbLine
 10
80.0000777247334
 20
-159.10068399999992
 11
80.00012750814361
 21
-195.38456185807038
  0
SOLID
  5
131
100
AcDbEntity
  8
0
 62
             4
100
AcDbTrace
 10
-69.99987704201327
 20
-192.06824269017747
 11
-69.99987342932869
 21
-194.70129264192289
 12
-79.99987523566156
 22
-193.38478138658209
 13
-79.99987523566156
 23
-193.38478138658209
  0
SOLID
  5
132
100
AcDbEntity
  8
0
 62
             4
100
AcDbTrace
 10
70.00012657038894
 20
-194.70110055447694
 11
70.00012295770436
 21
-192.06805060273152
 12
80.00012476403724
 22
-193.38456185807232
 13
80.00012476403724
 23
-193.38456185807232
  0
MTEXT
  5
134
100
AcDbEntity
  8
0
 62
             1
100
AcDbMText
 10
-16.53100159601485
 20
-191.38471155695953
 30
0.0
 40
10.0
 41
0.0
 71
             7
 72
             1
  1
\C1;DN\C1;160
  7
CONVERTER_1
 11
0.99999999999706
 21
0.00000242406841
 31
0.0
  0
ENDBLK
  5
135
100
AcDbEntity
  8
0
100
AcDbBlockEnd
  0
BLOCK
  5
139
100
AcDbEntity
  8
0
100
AcDbBlockBegin
  2
*D4
 70
             1
 10
0.0
 20
0.0
 30
0.0
  3
*D4
  1

  0
LINE
  5
13A
100
AcDbEntity
  8
0
  6
CONTINUOUS
 62
             4
100
AcDbLine
 10
-94.77102480438562
 20
-218.2322775774085
 11
94.77174619525746
 21
-218.23201751464572
  0
LINE
  5
13B
100
AcDbEntity
  8
0
  6
CONTINUOUS
 62
             4
100
AcDbLine
 10
-94.77130727526661
 20
-12.3576919999999
 11
-94.77102206027925
 21
-220.23227757740656
  0
LINE
  5
13C
100
AcDbEntity
  8
0
  6
CONTINUOUS
 62
             4
100
AcDbLine
 10
94.77146372473329
 20
-12.3576919999999
 11
94.77174893936383
 21
-220.23201751464379
  0
SOLID
  5
13D
100
AcDbEntity
  8
0
 62
             4
100
AcDbTrace
 10
-84.77102661073732
 20
-216.91573888100388
 11
-84.77102299805274
 21
-219.5487888327493
 12
-94.77102480438562
 22
-218.2322775774085
 13
-94.77102480438562
 23
-218.2322775774085
  0
SOLID
  5
13E
100
AcDbEntity
  8
0
 62
             4
100
AcDbTrace
 10
84.77174800160917
 20
-219.54855621105034
 11
84.77174438892459
 21
-216.91550625930492
 12
94.77174619525746
 22
-218.23201751464572
 13
94.77174619525746
 23
-218.23201751464572
  0
MTEXT
  5
13F
100
AcDbEntity
  8
0
 62
             1
100
AcDbMText
 10
-11.84033924396137
 20
-216.23217241862008
 30
0.0
 40
10.0
 41
0.0
 71
             7
 72
             1
  1
\C1;Ø\C1;190
  7
CONVERTER_1
 11
0.99999999999706
 21
0.00000242406841
 31
0.0
  0
ENDBLK
  5
140
100
AcDbEntity
  8
0
100
AcDbBlockEnd
  0
BLOCK
  5
144
100
AcDbEntity
  8
0
100
AcDbBlockBegin
  2
*D5
 70
             1
 10
0.0
 20
0.0
 30
0.0
  3
*D5
  1

  0
LINE
  5
145
100
AcDbEntity
  8
0
  6
CONTINUOUS
 62
             4
100
AcDbLine
 10
-249.79720681712013
 20
113.69129498378443
 11
249.79698418193937
 21
113.69198045358577
  0
LINE
  5
146
100
AcDbEntity
  8
0
  6
CONTINUOUS
 62
             4
100
AcDbLine
 10
-249.79705727526664
 20
4.69999999999999
 11
-249.79720956122642
 21
115.69129498378256
  0
LINE
  5
147
100
AcDbEntity
  8
0
  6
CONTINUOUS
 62
             4
100
AcDbLine
 10
249.79713372473327
 20
4.69999999999999
 11
249.79698143783295
 21
115.69198045358389
  0
SOLID
  5
148
100
AcDbEntity
  8
0
 62
             4
100
AcDbTrace
 10
-239.79720862347185
 20
115.00783368018907
 11
-239.79720501078725
 21
112.37478372844362
 12
-249.79720681712013
 22
113.69129498378443
 13
-249.79720681712013
 23
113.69129498378443
  0
SOLID
  5
149
100
AcDbEntity
  8
0
 62
             4
100
AcDbTrace
 10
239.79698598829108
 20
112.37544175718115
 11
239.79698237560649
 21
115.00849170892658
 12
249.79698418193937
 22
113.69198045358577
 13
249.79698418193937
 23
113.69198045358577
  0
MTEXT
  5
14A
100
AcDbEntity
  8
0
 62
             1
100
AcDbMText
 10
-19.30298659417167
 20
115.69160260759065
 30
0.0
 40
10.0
 41
0.0
 71
             7
 72
             1
  1
\C1;Ø\C1;500
  7
CONVERTER_1
 11
0.99999999999706
 21
0.00000242406841
 31
0.0
  0
ENDBLK
  5
14B
100
AcDbEntity
  8
0
100
AcDbBlockEnd
  0
BLOCK
  5
14F
100
AcDbEntity
  8
0
100
AcDbBlockBegin
  2
*D6
 70
             1
 10
0.0
 20
0.0
 30
0.0
  3
*D6
  1

  0
LINE
  5
150
100
AcDbEntity
  8
0
  6
CONTINUOUS
 62
             4
100
AcDbLine
 10
-73.49993920572545
 20
86.3627369351413
 11
73.50006079399779
 21
86.36293862695959
  0
LINE
  5
151
100
AcDbEntity
  8
0
  6
CONTINUOUS
 62
             4
100
AcDbLine
 10
-73.49991634356417
 20
69.69999999999999
 11
-73.49994194983182
 21
88.36273693513942
  0
LINE
  5
152
100
AcDbEntity
  8
0
  6
CONTINUOUS
 62
             4
100
AcDbLine
 10
73.50008365643582
 20
69.69999999999999
 11
73.50005804989142
 21
88.36293862695771
  0
SOLID
  5
153
100
AcDbEntity
  8
0
 62
             4
100
AcDbTrace
 10
-63.49994101207716
 20
87.67927563154593
 11
-63.49993739939257
 21
85.04622567980049
 12
-73.49993920572545
 22
86.3627369351413
 13
-73.49993920572545
 23
86.3627369351413
  0
SOLID
  5
154
100
AcDbEntity
  8
0
 62
             4
100
AcDbTrace
 10
63.50006260034949
 20
85.04639993055497
 11
63.50005898766491
 21
87.6794498823004
 12
73.50006079399779
 22
86.36293862695959
 13
73.50006079399779
 23
86.36293862695959
  0
MTEXT
  5
155
100
AcDbEntity
  8
0
 62
             1
100
AcDbMText
 10
-30.11543770611428
 20
88.36279646098667
 30
0.0
 40
10.0
 41
0.0
 71
             7
 72
             1
  1
150x150
  7
CONVERTER_1
 11
0.99999999999706
 21
0.00000242406841
 31
0.0
  0
ENDBLK
  5
156
100
AcDbEntity
  8
0
100
AcDbBlockEnd
  0
BLOCK
  5
15A
100
AcDbEntity
  8
0
100
AcDbBlockBegin
  2
*D7
 70
             1
 10
0.0
 20
0.0
 30
0.0
  3
*D7
  1

  0
LINE
  5
15B
100
AcDbEntity
  8
0
  6
CONTINUOUS
 62
             4
100
AcDbLine
 10
-178.4730550460682
 20
-163.60068399999994
 11
-178.4730550460682
 21
-3.00087099999996
  0
LINE
  5
15C
100
AcDbEntity
  8
0
  6
CONTINUOUS
 62
             4
100
AcDbLine
 10
-78.7941502752666
 20
-163.60068399999994
 11
-180.4730550460682
 21
-163.60068399999994
  0
LINE
  5
15D
100
AcDbEntity
  8
0
  6
CONTINUOUS
 62
             4
100
AcDbLine
 10
-150.75166527526662
 20
-3.00087099999996
 11
-180.4730550460682
 21
-3.00087099999996
  0
SOLID
  5
15E
100
AcDbEntity
  8
0
 62
             4
100
AcDbTrace
 10
-179.78958002194216
 20
-153.60068399999994
 11
-177.15653007019424
 21
-153.60068399999994
 12
-178.4730550460682
 22
-163.60068399999994
 13
-178.4730550460682
 23
-163.60068399999994
  0
SOLID
  5
15F
100
AcDbEntity
  8
0
 62
             4
100
AcDbTrace
 10
-177.15653007019424
 20
-13.00087099999996
 11
-179.78958002194216
 21
-13.00087099999996
 12
-178.4730550460682
 22
-3.00087099999996
 13
-178.4730550460682
 23
-3.00087099999996
  0
MTEXT
  5
160
100
AcDbEntity
  8
0
 62
             1
100
AcDbMText
 10
-180.4730550460682
 20
-93.03524308704499
 30
0.0
 40
10.0
 41
0.0
 71
             7
 72
             1
  1
160
  7
CONVERTER_1
 11
0.0
 21
1.0
 31
0.0
  0
ENDBLK
  5
161
100
AcDbEntity
  8
0
100
AcDbBlockEnd
  0
BLOCK
  5
165
100
AcDbEntity
  8
0
100
AcDbBlockBegin
  2
*D8
 70
             1
 10
0.0
 20
0.0
 30
0.0
  3
*D8
  1

  0
LINE
  5
166
100
AcDbEntity
  8
0
  6
CONTINUOUS
 62
             4
100
AcDbLine
 10
-271.39096556295323
 20
4.7
 11
-271.39096556295323
 21
69.69999999999999
  0
LINE
  5
167
100
AcDbEntity
  8
0
  6
CONTINUOUS
 62
             4
100
AcDbLine
 10
-249.79705727526664
 20
4.7
 11
-273.39096556295323
 21
4.7
  0
LINE
  5
168
100
AcDbEntity
  8
0
  6
CONTINUOUS
 62
             4
100
AcDbLine
 10
-73.49991634356422
 20
69.69999999999999
 11
-273.39096556295323
 21
69.69999999999999
  0
SOLID
  5
169
100
AcDbEntity
  8
0
 62
             4
100
AcDbTrace
 10
-272.70749053882719
 20
14.7
 11
-270.07444058707927
 21
14.7
 12
-271.39096556295323
 22
4.7
 13
-271.39096556295323
 23
4.7
  0
SOLID
  5
16A
100
AcDbEntity
  8
0
 62
             4
100
AcDbTrace
 10
-270.07444058707927
 20
59.69999999999999
 11
-272.70749053882719
 21
59.69999999999999
 12
-271.39096556295323
 22
69.69999999999999
 13
-271.39096556295323
 23
69.69999999999999
  0
MTEXT
  5
16B
100
AcDbEntity
  8
0
 62
             1
100
AcDbMText
 10
-273.39096556295323
 20
19.70523908472001
 30
0.0
 40
10.0
 41
0.0
 71
             7
 72
             1
  1
12-65
  7
CONVERTER_1
 11
0.0
 21
1.0
 31
0.0
  0
ENDBLK
  5
16C
100
AcDbEntity
  8
0
100
AcDbBlockEnd
  0
ENDSEC
  0
SECTION
  2
ENTITIES
  0
DIMENSION
  5
16E
100
AcDbEntity
  8
1
100
AcDbDimension
  2
*D8
 10
-271.39096556295323
 20
4.7
 11
-278.39096556295323
 21
38.70523908472001
 31
0.0
 53
90.0
  1
12-65
  3
ME10_DIM_5
100
AcDbAlignedDimension
 13
-73.49991634356417
 23
69.69999999999999
 14
-249.79705727526661
 24
4.69999999999999
 50
90.0
100
AcDbRotatedDimension
  0
DIMENSION
  5
163
100
AcDbEntity
  8
1
100
AcDbDimension
  2
*D7
 10
-178.4730550460682
 20
-163.60068399999994
 11
-185.4730550460682
 21
-82.53524308704499
 31
0.0
 53
90.0
  1
160
  3
ME10_DIM_4
100
AcDbAlignedDimension
 13
-150.75166527526659
 23
-3.00087099999996
 14
-78.79415027526657
 24
-163.60068399999989
 50
90.0
100
AcDbRotatedDimension
  0
DIMENSION
  5
158
100
AcDbEntity
  8
1
100
AcDbDimension
  2
*D6
 10
-73.49993920572545
 20
86.3627369351413
 11
-3.11544456640562
 21
93.36283350641799
 31
0.0
 53
0.00013888888889
  1
150x150
  3
ME10_DIM_3
100
AcDbAlignedDimension
 13
73.50008365643582
 23
69.69999999999999
 14
-73.49991634356417
 24
69.69999999999999
 50
0.0000786128568
100
AcDbRotatedDimension
  0
DIMENSION
  5
14D
100
AcDbEntity
  8
1
100
AcDbDimension
  2
*D5
 10
-249.79720681712013
 20
113.69129498378443
 11
-5.10299345446734
 21
120.69163071726599
 31
0.0
 53
0.00013888888889
  1
Ø500
  3
ME10_DIM_2
100
AcDbAlignedDimension
 13
249.7971337247333
 23
4.69999999999999
 14
-249.79705727526661
 24
4.69999999999999
 50
0.0000786128568
100
AcDbRotatedDimension
  0
DIMENSION
  5
142
100
AcDbEntity
  8
1
100
AcDbDimension
  2
*D4
 10
-94.77102480438562
 20
-218.2322775774085
 11
0.85965389574437
 21
-211.23214636702451
 31
0.0
 53
0.00013888888889
  1
Ø190
  3
ME10_DIM_1
100
AcDbAlignedDimension
 13
94.77146372473329
 23
-12.35769199999999
 14
-94.77130727526661
 24
-12.35769199999999
 50
0.0000786128568
100
AcDbRotatedDimension
  0
DIMENSION
  5
137
100
AcDbEntity
  8
1
100
AcDbDimension
  2
*D3
 10
-79.99987523566156
 20
-193.38478138658209
 11
-0.63100845632849
 21
-186.38467248826899
 31
0.0
 53
0.00013888888889
  1
<>
  3
ME10_DIM_0
100
AcDbAlignedDimension
 13
80.0000777247334
 23
-159.10068399999989
 14
-79.9999222752666
 24
-159.10068399999989
 50
0.0000786128568
100
AcDbRotatedDimension
  0
INSERT
  5
36
100
AcDbEntity
  8
0
100
AcDbBlockReference
  2
TOP
 10
-380.00555764075602
 20
-870.49194440387498
  0
INSERT
  5
37
100
AcDbEntity
  8
0
100
AcDbBlockReference
  2
HL_66_0_AUFSATZRAHMEN
 10
-3.92514290157587
 20
-807.93044053037011
  0
ENDSEC
  0
SECTION
  2
OBJECTS
  0
DICTIONARY
  5
19
100
AcDbDictionary
  3
ACAD_GROUP
350
1A
  3
ACAD_MLINESTYLE
350
1B
  0
DICTIONARY
  5
1A
102
{ACAD_REACTORS
330
19
102
}
100
AcDbDictionary
  0
DICTIONARY
  5
1B
102
{ACAD_REACTORS
330
19
102
}
100
AcDbDictionary
  3
STANDARD
350
1C
  0
MLINESTYLE
  5
1C
102
{ACAD_REACTORS
330
1B
102
}
100
AcDbMlineStyle
  2
STANDARD
 70
             0
  3

 62
             0
 51
90.0
 52
90.0
 71
             2
 49
0.5
 62
           256
  6
BYLAYER
 49
-0.5
 62
           256
  6
BYLAYER
  0
ENDSEC
  0
EOF
