  0
SECTION
  2
HEADER
  9
$ACADVER
  1
AC1015
  9
$ACADMAINTVER
 70
     6
  9
$DWGCODEPAGE
  3
ANSI_1252
  9
$INSBASE
 10
0.0
 20
0.0
 30
0.0
  9
$EXTMIN
 10
257.321734179422
 20
-26.4690135061411
 30
0.0
  9
$EXTMAX
 10
649.417315718247
 20
285.170556583959
 30
0.0
  9
$LIMMIN
 10
0.0
 20
0.0
  9
$LIMMAX
 10
12.0
 20
9.0
  9
$ORTHOMODE
 70
     0
  9
$REGENMODE
 70
     1
  9
$FILLMODE
 70
     1
  9
$QTEXTMODE
 70
     0
  9
$MIRRTEXT
 70
     1
  9
$LTSCALE
 40
1.0
  9
$ATTMODE
 70
     1
  9
$TEXTSIZE
 40
0.2
  9
$TRACEWID
 40
0.05
  9
$TEXTSTYLE
  7
Standard
  9
$CLAYER
  8
0
  9
$CELTYPE
  6
ByLayer
  9
$CECOLOR
 62
   256
  9
$CELTSCALE
 40
1.0
  9
$DISPSILH
 70
     0
  9
$DIMSCALE
 40
1.0
  9
$DIMASZ
 40
0.18
  9
$DIMEXO
 40
0.0625
  9
$DIMDLI
 40
0.38
  9
$DIMRND
 40
0.0
  9
$DIMDLE
 40
0.0
  9
$DIMEXE
 40
0.18
  9
$DIMTP
 40
0.0
  9
$DIMTM
 40
0.0
  9
$DIMTXT
 40
0.18
  9
$DIMCEN
 40
0.09
  9
$DIMTSZ
 40
0.0
  9
$DIMTOL
 70
     0
  9
$DIMLIM
 70
     0
  9
$DIMTIH
 70
     1
  9
$DIMTOH
 70
     1
  9
$DIMSE1
 70
     0
  9
$DIMSE2
 70
     0
  9
$DIMTAD
 70
     0
  9
$DIMZIN
 70
     0
  9
$DIMBLK
  1

  9
$DIMASO
 70
     1
  9
$DIMSHO
 70
     1
  9
$DIMPOST
  1

  9
$DIMAPOST
  1

  9
$DIMALT
 70
     0
  9
$DIMALTD
 70
     2
  9
$DIMALTF
 40
25.4
  9
$DIMLFAC
 40
1.0
  9
$DIMTOFL
 70
     0
  9
$DIMTVP
 40
0.0
  9
$DIMTIX
 70
     0
  9
$DIMSOXD
 70
     0
  9
$DIMSAH
 70
     0
  9
$DIMBLK1
  1

  9
$DIMBLK2
  1

  9
$DIMSTYLE
  2
Standard
  9
$DIMCLRD
 70
     0
  9
$DIMCLRE
 70
     0
  9
$DIMCLRT
 70
     0
  9
$DIMTFAC
 40
1.0
  9
$DIMGAP
 40
0.09
  9
$DIMJUST
 70
     0
  9
$DIMSD1
 70
     0
  9
$DIMSD2
 70
     0
  9
$DIMTOLJ
 70
     1
  9
$DIMTZIN
 70
     0
  9
$DIMALTZ
 70
     0
  9
$DIMALTTZ
 70
     0
  9
$DIMUPT
 70
     0
  9
$DIMDEC
 70
     4
  9
$DIMTDEC
 70
     4
  9
$DIMALTU
 70
     2
  9
$DIMALTTD
 70
     2
  9
$DIMTXSTY
  7
Standard
  9
$DIMAUNIT
 70
     0
  9
$DIMADEC
 70
     0
  9
$DIMALTRND
 40
0.0
  9
$DIMAZIN
 70
     0
  9
$DIMDSEP
 70
    46
  9
$DIMATFIT
 70
     3
  9
$DIMFRAC
 70
     0
  9
$DIMLDRBLK
  1

  9
$DIMLUNIT
 70
     2
  9
$DIMLWD
 70
    -2
  9
$DIMLWE
 70
    -2
  9
$DIMTMOVE
 70
     0
  9
$LUNITS
 70
     2
  9
$LUPREC
 70
     4
  9
$SKETCHINC
 40
0.1
  9
$FILLETRAD
 40
0.5
  9
$AUNITS
 70
     0
  9
$AUPREC
 70
     0
  9
$MENU
  1
.
  9
$ELEVATION
 40
0.0
  9
$PELEVATION
 40
0.0
  9
$THICKNESS
 40
0.0
  9
$LIMCHECK
 70
     0
  9
$CHAMFERA
 40
0.5
  9
$CHAMFERB
 40
0.5
  9
$CHAMFERC
 40
1.0
  9
$CHAMFERD
 40
0.0
  9
$SKPOLY
 70
     0
  9
$TDCREATE
 40
2455386.301425544
  9
$TDUCREATE
 40
2455386.218092211
  9
$TDUPDATE
 40
2455386.301425556
  9
$TDUUPDATE
 40
2455386.218092222
  9
$TDINDWG
 40
0.0000000116
  9
$TDUSRTIMER
 40
0.0000000116
  9
$USRTIMER
 70
     1
  9
$ANGBASE
 50
0.0
  9
$ANGDIR
 70
     0
  9
$PDMODE
 70
     0
  9
$PDSIZE
 40
0.0
  9
$PLINEWID
 40
0.0
  9
$SPLFRAME
 70
     0
  9
$SPLINETYPE
 70
     6
  9
$SPLINESEGS
 70
     8
  9
$HANDSEED
  5
32A
  9
$SURFTAB1
 70
     6
  9
$SURFTAB2
 70
     6
  9
$SURFTYPE
 70
     6
  9
$SURFU
 70
     6
  9
$SURFV
 70
     6
  9
$UCSBASE
  2

  9
$UCSNAME
  2

  9
$UCSORG
 10
0.0
 20
0.0
 30
0.0
  9
$UCSXDIR
 10
1.0
 20
0.0
 30
0.0
  9
$UCSYDIR
 10
0.0
 20
1.0
 30
0.0
  9
$UCSORTHOREF
  2

  9
$UCSORTHOVIEW
 70
     0
  9
$UCSORGTOP
 10
0.0
 20
0.0
 30
0.0
  9
$UCSORGBOTTOM
 10
0.0
 20
0.0
 30
0.0
  9
$UCSORGLEFT
 10
0.0
 20
0.0
 30
0.0
  9
$UCSORGRIGHT
 10
0.0
 20
0.0
 30
0.0
  9
$UCSORGFRONT
 10
0.0
 20
0.0
 30
0.0
  9
$UCSORGBACK
 10
0.0
 20
0.0
 30
0.0
  9
$PUCSBASE
  2

  9
$PUCSNAME
  2

  9
$PUCSORG
 10
0.0
 20
0.0
 30
0.0
  9
$PUCSXDIR
 10
1.0
 20
0.0
 30
0.0
  9
$PUCSYDIR
 10
0.0
 20
1.0
 30
0.0
  9
$PUCSORTHOREF
  2

  9
$PUCSORTHOVIEW
 70
     0
  9
$PUCSORGTOP
 10
0.0
 20
0.0
 30
0.0
  9
$PUCSORGBOTTOM
 10
0.0
 20
0.0
 30
0.0
  9
$PUCSORGLEFT
 10
0.0
 20
0.0
 30
0.0
  9
$PUCSORGRIGHT
 10
0.0
 20
0.0
 30
0.0
  9
$PUCSORGFRONT
 10
0.0
 20
0.0
 30
0.0
  9
$PUCSORGBACK
 10
0.0
 20
0.0
 30
0.0
  9
$USERI1
 70
     0
  9
$USERI2
 70
     0
  9
$USERI3
 70
     0
  9
$USERI4
 70
     0
  9
$USERI5
 70
     0
  9
$USERR1
 40
16.5
  9
$USERR2
 40
0.0
  9
$USERR3
 40
0.0
  9
$USERR4
 40
0.0
  9
$USERR5
 40
0.0
  9
$WORLDVIEW
 70
     1
  9
$SHADEDGE
 70
     3
  9
$SHADEDIF
 70
    70
  9
$TILEMODE
 70
     1
  9
$MAXACTVP
 70
    64
  9
$PINSBASE
 10
0.0
 20
0.0
 30
0.0
  9
$PLIMCHECK
 70
     0
  9
$PEXTMIN
 10
1.00000000000000E+20
 20
1.00000000000000E+20
 30
1.00000000000000E+20
  9
$PEXTMAX
 10
-1.00000000000000E+20
 20
-1.00000000000000E+20
 30
-1.00000000000000E+20
  9
$PLIMMIN
 10
0.0
 20
0.0
  9
$PLIMMAX
 10
12.0
 20
9.0
  9
$UNITMODE
 70
     0
  9
$VISRETAIN
 70
     1
  9
$PLINEGEN
 70
     0
  9
$PSLTSCALE
 70
     1
  9
$TREEDEPTH
 70
  3020
  9
$CMLSTYLE
  2
Standard
  9
$CMLJUST
 70
     0
  9
$CMLSCALE
 40
1.0
  9
$PROXYGRAPHICS
 70
     1
  9
$MEASUREMENT
 70
     1
  9
$CELWEIGHT
370
    -1
  9
$ENDCAPS
280
     0
  9
$JOINSTYLE
280
     0
  9
$LWDISPLAY
290
     0
  9
$INSUNITS
 70
     1
  9
$HYPERLINKBASE
  1

  9
$STYLESHEET
  1

  9
$XEDIT
290
     1
  9
$CEPSNTYPE
380
     0
  9
$PSTYLEMODE
290
     1
  9
$FINGERPRINTGUID
  2
{AE0A6548-257A-4DC1-88D8-2EE4641690AE}
  9
$VERSIONGUID
  2
{FAEB1C32-E019-11D5-929B-00C0DF256EC4}
  9
$EXTNAMES
290
     1
  9
$PSVPSCALE
 40
0.0
  9
$OLESTARTUP
290
     0
  0
ENDSEC
  0
SECTION
  2
CLASSES
  0
CLASS
  1
ACDBDICTIONARYWDFLT
  2
AcDbDictionaryWithDefault
  3
ObjectDBX Classes
 90
        0
280
     0
281
     0
  0
CLASS
  1
VISUALSTYLE
  2
AcDbVisualStyle
  3
ObjectDBX Classes
 90
     4095
280
     0
281
     0
  0
CLASS
  1
SCALE
  2
AcDbScale
  3
ObjectDBX Classes
 90
     1153
280
     0
281
     0
  0
CLASS
  1

  2
exOdDbPolyline
  3

 90
        0
280
     0
281
     1
  0
CLASS
  1

  2
exOdDbSpline
  3

 90
        0
280
     0
281
     1
  0
CLASS
  1
DICTIONARYVAR
  2
AcDbDictionaryVar
  3
ObjectDBX Classes
 90
        0
280
     0
281
     0
  0
CLASS
  1
ACDBPLACEHOLDER
  2
AcDbPlaceHolder
  3
ObjectDBX Classes
 90
        0
280
     0
281
     0
  0
CLASS
  1
LAYOUT
  2
AcDbLayout
  3
ObjectDBX Classes
 90
        0
280
     0
281
     0
  0
ENDSEC
  0
SECTION
  2
TABLES
  0
TABLE
  2
VPORT
  5
8
330
0
100
AcDbSymbolTable
 70
     1
  0
VPORT
  5
29
330
8
100
AcDbSymbolTableRecord
100
AcDbViewportTableRecord
  2
*Active
 70
     0
 10
0.0
 20
0.0
 11
1.0
 21
1.0
 12
453.3695249488345
 22
129.350771538909
 13
0.0
 23
0.0
 14
0.5
 24
0.5
 15
0.5
 25
0.5
 16
0.0
 26
0.0
 36
1.0
 17
0.0
 27
0.0
 37
0.0
 40
342.8035270991102
 41
1.60267857142857
 42
50.0
 43
0.0
 44
0.0
 50
0.0
 51
0.0
 71
     0
 72
   100
 73
     1
 74
     3
 75
     0
 76
     0
 77
     0
 78
     0
281
     0
 65
     1
110
0.0
120
0.0
130
0.0
111
1.0
121
0.0
131
0.0
112
0.0
122
1.0
132
0.0
 79
     0
146
0.0
  0
ENDTAB
  0
TABLE
  2
LTYPE
  5
5
330
0
100
AcDbSymbolTable
 70
     9
  0
LTYPE
  5
14
330
5
100
AcDbSymbolTableRecord
100
AcDbLinetypeTableRecord
  2
ByBlock
 70
     0
  3

 72
    65
 73
     0
 40
0.0
  0
LTYPE
  5
15
330
5
100
AcDbSymbolTableRecord
100
AcDbLinetypeTableRecord
  2
ByLayer
 70
     0
  3

 72
    65
 73
     0
 40
0.0
  0
LTYPE
  5
16
330
5
100
AcDbSymbolTableRecord
100
AcDbLinetypeTableRecord
  2
Continuous
 70
     0
  3
Solid line
 72
    65
 73
     0
 40
0.0
  0
LTYPE
  5
3B
330
5
100
AcDbSymbolTableRecord
100
AcDbLinetypeTableRecord
  2
DASHED
 70
     0
  3
Dashed
 72
    65
 73
     2
 40
15.0
 49
7.0
 74
     0
 49
-8.0
 74
     0
  0
LTYPE
  5
3C
330
5
100
AcDbSymbolTableRecord
100
AcDbLinetypeTableRecord
  2
DOTTED
 70
     0
  3
Dotted
 72
    65
 73
     2
 40
1.0
 49
0.0
 74
     0
 49
-1.0
 74
     0
  0
LTYPE
  5
3D
330
5
100
AcDbSymbolTableRecord
100
AcDbLinetypeTableRecord
  2
DOT_CENTER
 70
     0
  3
Dot_Center
 72
    65
 73
     4
 40
14.0
 49
12.0
 74
     0
 49
-1.0
 74
     0
 49
0.0
 74
     0
 49
-1.0
 74
     0
  0
LTYPE
  5
3E
330
5
100
AcDbSymbolTableRecord
100
AcDbLinetypeTableRecord
  2
LONG_DASHED
 70
     0
  3
Long_Dashed
 72
    65
 73
     2
 40
15.0
 49
10.0
 74
     0
 49
-5.0
 74
     0
  0
LTYPE
  5
3F
330
5
100
AcDbSymbolTableRecord
100
AcDbLinetypeTableRecord
  2
DASH_CENTER
 70
     0
  3
Dash_Center
 72
    65
 73
     4
 40
14.0
 49
11.0
 74
     0
 49
-1.0
 74
     0
 49
1.0
 74
     0
 49
-1.0
 74
     0
  0
LTYPE
  5
40
330
5
100
AcDbSymbolTableRecord
100
AcDbLinetypeTableRecord
  2
PHANTOM
 70
     0
  3
Phantom
 72
    65
 73
     6
 40
13.0
 49
10.0
 74
     0
 49
-1.0
 74
     0
 49
0.0
 74
     0
 49
-1.0
 74
     0
 49
0.0
 74
     0
 49
-1.0
 74
     0
  0
LTYPE
  5
41
330
5
100
AcDbSymbolTableRecord
100
AcDbLinetypeTableRecord
  2
CENTER_DASH_DASH
 70
     0
  3
Center_Dash_Dash
 72
    65
 73
     6
 40
14.0
 49
9.0
 74
     0
 49
-1.0
 74
     0
 49
1.0
 74
     0
 49
-1.0
 74
     0
 49
1.0
 74
     0
 49
-1.0
 74
     0
  0
LTYPE
  5
42
330
5
100
AcDbSymbolTableRecord
100
AcDbLinetypeTableRecord
  2
CENTERX2
 70
     0
  3
CENTERX2
 72
    65
 73
     4
 40
22.0
 49
13.0
 74
     0
 49
-3.0
 74
     0
 49
3.0
 74
     0
 49
-3.0
 74
     0
  0
ENDTAB
  0
TABLE
  2
LAYER
  5
2
330
0
100
AcDbSymbolTable
 70
     2
  0
LAYER
  5
10
330
2
100
AcDbSymbolTableRecord
100
AcDbLayerTableRecord
  2
0
 70
     0
 62
     7
  6
Continuous
370
    -3
390
F
  0
LAYER
  5
43
330
2
100
AcDbSymbolTableRecord
100
AcDbLayerTableRecord
  2
1
 70
     0
 62
     7
  6
Continuous
370
    -3
390
F
  0
ENDTAB
  0
TABLE
  2
STYLE
  5
3
330
0
100
AcDbSymbolTable
 70
     2
  0
STYLE
  5
11
330
3
100
AcDbSymbolTableRecord
100
AcDbTextStyleTableRecord
  2
Standard
 70
     0
 40
0.0
 41
1.0
 50
0.0
 71
     0
 42
0.2
  3
txt
  4

  0
STYLE
  5
2EC
330
3
100
AcDbSymbolTableRecord
100
AcDbTextStyleTableRecord
  2
CONVERTER_11
 70
     0
 40
0.0
 41
0.9
 50
0.0
 71
     0
 42
0.2
  3
txt.shx
  4

  0
ENDTAB
  0
TABLE
  2
VIEW
  5
6
330
0
100
AcDbSymbolTable
 70
     0
  0
ENDTAB
  0
TABLE
  2
UCS
  5
7
330
0
100
AcDbSymbolTable
 70
     0
  0
ENDTAB
  0
TABLE
  2
APPID
  5
9
330
0
100
AcDbSymbolTable
 70
     1
  0
APPID
  5
12
330
9
100
AcDbSymbolTableRecord
100
AcDbRegAppTableRecord
  2
ACAD
 70
     0
  0
ENDTAB
  0
TABLE
  2
DIMSTYLE
  5
A
330
0
100
AcDbSymbolTable
 70
     5
100
AcDbDimStyleTable
  0
DIMSTYLE
105
27
330
A
100
AcDbSymbolTableRecord
100
AcDbDimStyleTableRecord
  2
Standard
 70
     0
340
11
  0
DIMSTYLE
105
2F0
102
{ACAD_REACTORS
330
2F1
102
}
330
A
100
AcDbSymbolTableRecord
100
AcDbDimStyleTableRecord
  2
ME10_DIM_10
 70
     0
  3
Ø<>
 41
10.0
 42
0.0
 44
2.0
 73
     0
 74
     0
 77
     1
 78
     8
140
10.0
147
2.0
172
     1
173
     1
176
     4
177
     4
178
     1
271
     2
340
2EC
  0
DIMSTYLE
105
2FB
102
{ACAD_REACTORS
330
2FC
102
}
330
A
100
AcDbSymbolTableRecord
100
AcDbDimStyleTableRecord
  2
ME10_DIM_11
 70
     0
  3
x150
 41
10.0
 42
0.0
 44
2.0
 73
     0
 74
     0
 77
     1
 78
     8
140
10.0
147
2.0
172
     1
173
     1
176
     4
177
     4
178
     1
271
     2
340
2EC
  0
DIMSTYLE
105
306
102
{ACAD_REACTORS
330
307
102
}
330
A
100
AcDbSymbolTableRecord
100
AcDbDimStyleTableRecord
  2
ME10_DIM_12
 70
     0
  3
DN<>
 41
10.0
 42
0.0
 44
2.0
 73
     0
 74
     0
 77
     1
 78
     8
140
10.0
147
2.0
172
     1
173
     1
176
     4
177
     4
178
     1
271
     0
340
2EC
  0
DIMSTYLE
105
311
102
{ACAD_REACTORS
330
312
102
}
330
A
100
AcDbSymbolTableRecord
100
AcDbDimStyleTableRecord
  2
ME10_DIM_13
 70
     0
 41
10.0
 42
0.0
 44
2.0
 73
     0
 74
     0
 77
     1
 78
     8
140
10.0
147
2.0
172
     1
173
     1
176
     4
177
     4
178
     1
271
     2
340
2EC
  0
ENDTAB
  0
TABLE
  2
BLOCK_RECORD
  5
1
330
0
100
AcDbSymbolTable
 70
     7
  0
BLOCK_RECORD
  5
1F
330
1
100
AcDbSymbolTableRecord
100
AcDbBlockTableRecord
  2
*Model_Space
340
22
  0
BLOCK_RECORD
  5
1B
330
1
100
AcDbSymbolTableRecord
100
AcDbBlockTableRecord
  2
*Paper_Space
340
1E
  0
BLOCK_RECORD
  5
23
330
1
100
AcDbSymbolTableRecord
100
AcDbBlockTableRecord
  2
*Paper_Space0
340
26
  0
BLOCK_RECORD
  5
44
330
1
100
AcDbSymbolTableRecord
100
AcDbBlockTableRecord
  2
HL62BP_5
340
0
102
{BLKREFS
331
6A
102
}
  0
BLOCK_RECORD
  5
47
330
1
100
AcDbSymbolTableRecord
100
AcDbBlockTableRecord
  2
HL_62BP_5_DN160_Dachablauf
340
0
102
{BLKREFS
331
6D
102
}
  0
BLOCK_RECORD
  5
2E6
330
1
100
AcDbSymbolTableRecord
100
AcDbBlockTableRecord
  2
*D3
340
0
  0
BLOCK_RECORD
  5
2F2
330
1
100
AcDbSymbolTableRecord
100
AcDbBlockTableRecord
  2
*D4
340
0
  0
BLOCK_RECORD
  5
2FD
330
1
100
AcDbSymbolTableRecord
100
AcDbBlockTableRecord
  2
*D5
340
0
  0
BLOCK_RECORD
  5
308
330
1
100
AcDbSymbolTableRecord
100
AcDbBlockTableRecord
  2
*D6
340
0
  0
ENDTAB
  0
ENDSEC
  0
SECTION
  2
BLOCKS
  0
BLOCK
  5
20
330
1F
100
AcDbEntity
  8
0
100
AcDbBlockBegin
  2
*Model_Space
 70
     0
 10
0.0
 20
0.0
 30
0.0
  3
*Model_Space
  1

  0
ENDBLK
  5
21
330
1F
100
AcDbEntity
  8
0
100
AcDbBlockEnd
  0
BLOCK
  5
1C
330
1B
100
AcDbEntity
 67
     1
  8
0
100
AcDbBlockBegin
  2
*Paper_Space
 70
     0
 10
0.0
 20
0.0
 30
0.0
  3
*Paper_Space
  1

  0
ENDBLK
  5
1D
330
1B
100
AcDbEntity
 67
     1
  8
0
100
AcDbBlockEnd
  0
BLOCK
  5
24
330
23
100
AcDbEntity
  8
0
100
AcDbBlockBegin
  2
*Paper_Space0
 70
     0
 10
0.0
 20
0.0
 30
0.0
  3
*Paper_Space0
  1

  0
ENDBLK
  5
25
330
23
100
AcDbEntity
  8
0
100
AcDbBlockEnd
  0
BLOCK
  5
45
330
44
100
AcDbEntity
  8
0
100
AcDbBlockBegin
  2
HL62BP_5
 70
     0
 10
453.3695249488345
 20
129.350771538909
 30
0.0
  3
HL62BP_5
  1

  0
POINT
  5
6E
330
44
100
AcDbEntity
  8
0
 62
     7
100
AcDbPoint
 10
389.242310781747
 20
5.00000009199999
 30
0.0
  0
POINT
  5
6F
330
44
100
AcDbEntity
  8
0
 62
     7
100
AcDbPoint
 10
549.442310781747
 20
5.00000009199999
 30
0.0
  0
POINT
  5
70
330
44
100
AcDbEntity
  8
0
 62
     7
100
AcDbPoint
 10
307.342310781747
 20
159.9999202053
 30
0.0
  0
POINT
  5
71
330
44
100
AcDbEntity
  8
0
 62
     7
100
AcDbPoint
 10
390.582056743947
 20
0.00000009199999
 30
0.0
  0
POINT
  5
72
330
44
100
AcDbEntity
  8
0
 62
     7
100
AcDbPoint
 10
289.342310781747
 20
156.500341092
 30
0.0
  0
POINT
  5
73
330
44
100
AcDbEntity
  8
0
 62
     7
100
AcDbPoint
 10
649.3423107817471
 20
156.500341092
 30
0.0
  0
POINT
  5
74
330
44
100
AcDbEntity
  8
0
 62
     7
100
AcDbPoint
 10
543.3423107817471
 20
232.9999202053
 30
0.0
  0
POINT
  5
75
330
44
100
AcDbEntity
  8
0
 62
     7
100
AcDbPoint
 10
395.342310781747
 20
232.9999202053
 30
0.0
  0
POINT
  5
76
330
44
100
AcDbEntity
  8
0
 62
     7
100
AcDbPoint
 10
395.342310781747
 20
232.9999202053
 30
0.0
  0
POINT
  5
77
330
44
100
AcDbEntity
  8
0
 62
     7
100
AcDbPoint
 10
389.592313779347
 20
159.9999202053
 30
0.0
  0
LWPOLYLINE
  5
78
330
44
100
AcDbEntity
  8
0
  6
Continuous
 62
     7
100
AcDbPolyline
 90
        2
 70
     0
 43
0.15
 10
525.830114707147
 20
142.4999199807
 10
525.830114707147
 20
139.9999223649
  0
LWPOLYLINE
  5
79
330
44
100
AcDbEntity
  8
0
  6
Continuous
 62
     7
100
AcDbPolyline
 90
        2
 70
     0
 43
0.15
 10
412.854506149647
 20
139.9999223649
 10
412.854506149647
 20
142.4999199807
  0
LWPOLYLINE
  5
7A
330
44
100
AcDbEntity
  8
0
  6
Continuous
 62
     7
100
AcDbPolyline
 90
        2
 70
     0
 43
0.15
 10
498.012183680847
 20
142.4999199807
 10
498.012183680847
 20
139.9999223649
  0
LWPOLYLINE
  5
7B
330
44
100
AcDbEntity
  8
0
  6
Continuous
 62
     7
100
AcDbPolyline
 90
        2
 70
     0
 43
0.15
 10
440.672437175847
 20
139.9999223649
 10
440.672437175847
 20
142.4999199807
  0
LWPOLYLINE
  5
7C
330
44
100
AcDbEntity
  8
0
  6
Continuous
 62
     7
100
AcDbPolyline
 90
        2
 70
     0
 43
0.15
 10
483.092310353847
 20
228.4999154508
 10
483.092310353847
 20
229.9999259412
  0
LWPOLYLINE
  5
7D
330
44
100
AcDbEntity
  8
0
  6
Continuous
 62
     7
100
AcDbPolyline
 90
        2
 70
     0
 43
0.15
 10
455.592310502847
 20
229.9999259412
 10
455.592310502847
 20
228.4999154508
  0
LWPOLYLINE
  5
7E
330
44
100
AcDbEntity
  8
0
  6
Continuous
 62
     7
100
AcDbPolyline
 90
        2
 70
     0
 43
0.15
 10
499.092311113847
 20
228.4999154508
 10
499.092311113847
 20
229.9999259412
  0
LWPOLYLINE
  5
7F
330
44
100
AcDbEntity
  8
0
  6
Continuous
 62
     7
100
AcDbPolyline
 90
        2
 70
     0
 43
0.15
 10
439.592311605547
 20
229.9999259412
 10
439.592311605547
 20
228.4999154508
  0
LWPOLYLINE
  5
80
330
44
100
AcDbEntity
  8
0
  6
Continuous
 62
     7
100
AcDbPolyline
 90
        2
 70
     0
 43
0.15
 10
515.092311873747
 20
228.4999154508
 10
515.092311873747
 20
229.9999259412
  0
LWPOLYLINE
  5
81
330
44
100
AcDbEntity
  8
0
  6
Continuous
 62
     7
100
AcDbPolyline
 90
        2
 70
     0
 43
0.15
 10
423.592308982947
 20
229.9999259412
 10
423.592308982947
 20
228.4999154508
  0
LWPOLYLINE
  5
82
330
44
100
AcDbEntity
  8
0
  6
Continuous
 62
     7
100
AcDbPolyline
 90
        2
 70
     0
 43
0.15
 10
396.842310651847
 20
206.9999240339
 10
396.842310651847
 20
213.9999233186
  0
LWPOLYLINE
  5
83
330
44
100
AcDbEntity
  8
0
  6
Continuous
 62
     7
100
AcDbPolyline
 90
        2
 70
     0
 43
0.15
 10
396.342309638647
 20
213.9999233186
 10
396.842310651847
 20
213.9999233186
  0
LWPOLYLINE
  5
84
330
44
100
AcDbEntity
  8
0
  6
Continuous
 62
     7
100
AcDbPolyline
 90
        2
 70
     0
 43
0.15
 10
396.342309638647
 20
213.9999233186
 10
396.342309638647
 20
215.9999273717
  0
LWPOLYLINE
  5
85
330
44
100
AcDbEntity
  8
0
  6
Continuous
 62
     7
100
AcDbPolyline
 90
        2
 70
     0
 43
0.15
 10
396.842310651847
 20
215.9999273717
 10
396.342309638647
 20
215.9999273717
  0
LWPOLYLINE
  5
86
330
44
100
AcDbEntity
  8
0
  6
Continuous
 62
     7
100
AcDbPolyline
 90
        2
 70
     0
 43
0.15
 10
396.842310651847
 20
215.9999273717
 10
396.842310651847
 20
218.9999185502
  0
LWPOLYLINE
  5
87
330
44
100
AcDbEntity
  8
0
  6
Continuous
 62
     7
100
AcDbPolyline
 90
        2
 70
     0
 43
0.15
 10
396.842310651847
 20
218.9999185502
 10
395.342307612047
 20
218.9999185502
  0
LWPOLYLINE
  5
88
330
44
100
AcDbEntity
  8
0
  6
Continuous
 62
     7
100
AcDbPolyline
 90
        2
 70
     0
 43
0.15
 10
395.342307612047
 20
218.9999185502
 10
395.342307612047
 20
232.9999171197
  0
LWPOLYLINE
  5
89
330
44
100
AcDbEntity
  8
0
  6
Continuous
 62
     7
100
AcDbPolyline
 90
        2
 70
     0
 43
0.15
 10
399.342308267747
 20
232.9999171197
 10
395.342307612047
 20
232.9999171197
  0
LWPOLYLINE
  5
8A
330
44
100
AcDbEntity
  8
0
  6
Continuous
 62
     7
100
AcDbPolyline
 90
        2
 70
     0
 43
0.15
 10
399.342308267747
 20
232.9999171197
 10
399.342308267747
 20
221.9999246299
  0
LWPOLYLINE
  5
8B
330
44
100
AcDbEntity
  8
0
  6
Continuous
 62
     7
100
AcDbPolyline
 90
        2
 70
     0
 43
0.15
 10
400.342310294247
 20
221.9999246299
 10
399.342308267747
 20
221.9999246299
  0
LWPOLYLINE
  5
8C
330
44
100
AcDbEntity
  8
0
  6
Continuous
 62
     7
100
AcDbPolyline
 90
        2
 70
     0
 43
0.15
 10
400.342310294247
 20
221.9999246299
 10
400.342310294247
 20
142.4999199807
  0
LWPOLYLINE
  5
8D
330
44
100
AcDbEntity
  8
0
  6
Continuous
 62
     7
100
AcDbPolyline
 90
        2
 70
     0
 43
0.15
 10
397.342311665147
 20
142.4999199807
 10
400.342310294247
 20
142.4999199807
  0
LWPOLYLINE
  5
8E
330
44
100
AcDbEntity
  8
0
  6
Continuous
 62
     7
100
AcDbPolyline
 90
        2
 70
     0
 43
0.15
 10
396.842310651847
 20
144.9999175966
 10
396.842310651847
 20
142.999920994
  0
LWPOLYLINE
  5
8F
330
44
100
AcDbEntity
  8
0
  6
Continuous
 62
     7
100
AcDbPolyline
 90
        2
 70
     0
 43
0.15
 10
396.842310651847
 20
149.4999192655
 10
396.842310651847
 20
148.4999172389
  0
LWPOLYLINE
  5
90
330
44
100
AcDbEntity
  8
0
  6
Continuous
 62
     7
100
AcDbPolyline
 90
        2
 70
     0
 43
0.15
 10
396.842310651847
 20
153.9999209344
 10
396.842310651847
 20
152.9999189079
  0
LWPOLYLINE
  5
91
330
44
100
AcDbEntity
  8
0
  6
Continuous
 62
     7
100
AcDbPolyline
 90
        2
 70
     0
 43
0.15
 10
396.842310651847
 20
158.4999226033
 10
396.842310651847
 20
157.4999205768
  0
LWPOLYLINE
  5
92
330
44
100
AcDbEntity
  8
0
  6
Continuous
 62
     7
100
AcDbPolyline
 90
        2
 70
     0
 43
0.15
 10
396.842310651847
 20
162.9999168217
 10
396.842310651847
 20
161.9999222457
  0
LWPOLYLINE
  5
93
330
44
100
AcDbEntity
  8
0
  6
Continuous
 62
     7
100
AcDbPolyline
 90
        2
 70
     0
 43
0.15
 10
396.842310651847
 20
167.4999259412
 10
396.842310651847
 20
166.4999239146
  0
LWPOLYLINE
  5
94
330
44
100
AcDbEntity
  8
0
  6
Continuous
 62
     7
100
AcDbPolyline
 90
        2
 70
     0
 43
0.15
 10
396.842310651847
 20
171.9999276101
 10
396.842310651847
 20
170.9999255836
  0
LWPOLYLINE
  5
95
330
44
100
AcDbEntity
  8
0
  6
Continuous
 62
     7
100
AcDbPolyline
 90
        2
 70
     0
 43
0.15
 10
396.842310651847
 20
176.4999143779
 10
396.842310651847
 20
175.4999272525
  0
LWPOLYLINE
  5
96
330
44
100
AcDbEntity
  8
0
  6
Continuous
 62
     7
100
AcDbPolyline
 90
        2
 70
     0
 43
0.15
 10
396.842310651847
 20
180.9999160468
 10
396.842310651847
 20
179.9999140203
  0
LWPOLYLINE
  5
97
330
44
100
AcDbEntity
  8
0
  6
Continuous
 62
     7
100
AcDbPolyline
 90
        2
 70
     0
 43
0.15
 10
396.842310651847
 20
185.4999177158
 10
396.842310651847
 20
184.4999156892
  0
LWPOLYLINE
  5
98
330
44
100
AcDbEntity
  8
0
  6
Continuous
 62
     7
100
AcDbPolyline
 90
        2
 70
     0
 43
0.15
 10
396.842310651847
 20
189.9999193847
 10
396.842310651847
 20
188.9999173581
  0
LWPOLYLINE
  5
99
330
44
100
AcDbEntity
  8
0
  6
Continuous
 62
     7
100
AcDbPolyline
 90
        2
 70
     0
 43
0.15
 10
396.842310651847
 20
194.4999210536
 10
396.842310651847
 20
193.4999190271
  0
LWPOLYLINE
  5
9A
330
44
100
AcDbEntity
  8
0
  6
Continuous
 62
     7
100
AcDbPolyline
 90
        2
 70
     0
 43
0.15
 10
396.842310651847
 20
198.9999227226
 10
396.842310651847
 20
197.999920696
  0
LWPOLYLINE
  5
9B
330
44
100
AcDbEntity
  8
0
  6
Continuous
 62
     7
100
AcDbPolyline
 90
        2
 70
     0
 43
0.15
 10
396.842310651847
 20
203.4999243915
 10
396.842310651847
 20
202.4999223649
  0
LWPOLYLINE
  5
9C
330
44
100
AcDbEntity
  8
0
  6
Continuous
 62
     7
100
AcDbPolyline
 90
        2
 70
     0
 43
0.15
 10
541.8423139301469
 20
148.4999172389
 10
541.8423139301469
 20
149.4999192655
  0
LWPOLYLINE
  5
9D
330
44
100
AcDbEntity
  8
0
  6
Continuous
 62
     7
100
AcDbPolyline
 90
        2
 70
     0
 43
0.15
 10
541.8423139301469
 20
152.9999189079
 10
541.8423139301469
 20
153.9999209344
  0
LWPOLYLINE
  5
9E
330
44
100
AcDbEntity
  8
0
  6
Continuous
 62
     7
100
AcDbPolyline
 90
        2
 70
     0
 43
0.15
 10
541.8423139301469
 20
157.4999205768
 10
541.8423139301469
 20
158.4999226033
  0
LWPOLYLINE
  5
9F
330
44
100
AcDbEntity
  8
0
  6
Continuous
 62
     7
100
AcDbPolyline
 90
        2
 70
     0
 43
0.15
 10
541.8423139301469
 20
161.9999222457
 10
541.8423139301469
 20
162.9999168217
  0
LWPOLYLINE
  5
A0
330
44
100
AcDbEntity
  8
0
  6
Continuous
 62
     7
100
AcDbPolyline
 90
        2
 70
     0
 43
0.15
 10
541.8423139301469
 20
166.4999239146
 10
541.8423139301469
 20
167.4999259412
  0
LWPOLYLINE
  5
A1
330
44
100
AcDbEntity
  8
0
  6
Continuous
 62
     7
100
AcDbPolyline
 90
        2
 70
     0
 43
0.15
 10
541.8423139301469
 20
170.9999255836
 10
541.8423139301469
 20
171.9999276101
  0
LWPOLYLINE
  5
A2
330
44
100
AcDbEntity
  8
0
  6
Continuous
 62
     7
100
AcDbPolyline
 90
        2
 70
     0
 43
0.15
 10
541.8423139301469
 20
175.4999272525
 10
541.8423139301469
 20
176.4999143779
  0
LWPOLYLINE
  5
A3
330
44
100
AcDbEntity
  8
0
  6
Continuous
 62
     7
100
AcDbPolyline
 90
        2
 70
     0
 43
0.15
 10
541.8423139301469
 20
179.9999140203
 10
541.8423139301469
 20
180.9999160468
  0
LWPOLYLINE
  5
A4
330
44
100
AcDbEntity
  8
0
  6
Continuous
 62
     7
100
AcDbPolyline
 90
        2
 70
     0
 43
0.15
 10
541.8423139301469
 20
184.4999156892
 10
541.8423139301469
 20
185.4999177158
  0
LWPOLYLINE
  5
A5
330
44
100
AcDbEntity
  8
0
  6
Continuous
 62
     7
100
AcDbPolyline
 90
        2
 70
     0
 43
0.15
 10
541.8423139301469
 20
188.9999173581
 10
541.8423139301469
 20
189.9999193847
  0
LWPOLYLINE
  5
A6
330
44
100
AcDbEntity
  8
0
  6
Continuous
 62
     7
100
AcDbPolyline
 90
        2
 70
     0
 43
0.15
 10
541.8423139301469
 20
193.4999190271
 10
541.8423139301469
 20
194.4999210536
  0
LWPOLYLINE
  5
A7
330
44
100
AcDbEntity
  8
0
  6
Continuous
 62
     7
100
AcDbPolyline
 90
        2
 70
     0
 43
0.15
 10
541.8423139301469
 20
197.999920696
 10
541.8423139301469
 20
198.9999227226
  0
LWPOLYLINE
  5
A8
330
44
100
AcDbEntity
  8
0
  6
Continuous
 62
     7
100
AcDbPolyline
 90
        2
 70
     0
 43
0.15
 10
541.8423139301469
 20
202.4999223649
 10
541.8423139301469
 20
203.4999243915
  0
LWPOLYLINE
  5
A9
330
44
100
AcDbEntity
  8
0
  6
Continuous
 62
     7
100
AcDbPolyline
 90
        2
 70
     0
 43
0.15
 10
408.342311605547
 20
221.9999246299
 10
400.342310294247
 20
221.9999246299
  0
LWPOLYLINE
  5
AA
330
44
100
AcDbEntity
  8
0
  6
Continuous
 62
     7
100
AcDbPolyline
 90
        2
 70
     0
 43
0.15
 10
408.342311605547
 20
215.6960330903
 10
408.342311605547
 20
221.9999246299
  0
LWPOLYLINE
  5
AB
330
44
100
AcDbEntity
  8
0
  6
Continuous
 62
     7
100
AcDbPolyline
 90
        2
 70
     0
 43
0.15
 10
437.093280702547
 20
215.6960330903
 10
408.342311605547
 20
215.6960330903
  0
LWPOLYLINE
  5
AC
330
44
100
AcDbEntity
  8
0
  6
Continuous
 62
     7
100
AcDbPolyline
 90
        2
 70
     0
 43
0.15
 10
437.093280702547
 20
221.9999246299
 10
437.093280702547
 20
215.6960330903
  0
LWPOLYLINE
  5
AD
330
44
100
AcDbEntity
  8
0
  6
Continuous
 62
     7
100
AcDbPolyline
 90
        2
 70
     0
 43
0.15
 10
501.591342016847
 20
221.9999246299
 10
437.093280702547
 20
221.9999246299
  0
LWPOLYLINE
  5
AE
330
44
100
AcDbEntity
  8
0
  6
Continuous
 62
     7
100
AcDbPolyline
 90
        2
 70
     0
 43
0.15
 10
501.591342016847
 20
215.6960330903
 10
501.591342016847
 20
221.9999246299
  0
LWPOLYLINE
  5
AF
330
44
100
AcDbEntity
  8
0
  6
Continuous
 62
     7
100
AcDbPolyline
 90
        2
 70
     0
 43
0.15
 10
530.3423092511471
 20
215.6960330903
 10
501.591342016847
 20
215.6960330903
  0
LWPOLYLINE
  5
B0
330
44
100
AcDbEntity
  8
0
  6
Continuous
 62
     7
100
AcDbPolyline
 90
        2
 70
     0
 43
0.15
 10
530.3423092511471
 20
221.9999246299
 10
530.3423092511471
 20
215.6960330903
  0
LWPOLYLINE
  5
B1
330
44
100
AcDbEntity
  8
0
  6
Continuous
 62
     7
100
AcDbPolyline
 90
        2
 70
     0
 43
0.15
 10
538.3423142877471
 20
221.9999246299
 10
530.3423092511471
 20
221.9999246299
  0
LWPOLYLINE
  5
B2
330
44
100
AcDbEntity
  8
0
  6
Continuous
 62
     7
100
AcDbPolyline
 90
        2
 70
     0
 43
0.15
 10
538.3423142877471
 20
142.4999199807
 10
538.3423142877471
 20
221.9999246299
  0
LWPOLYLINE
  5
B3
330
44
100
AcDbEntity
  8
0
  6
Continuous
 62
     7
100
AcDbPolyline
 90
        2
 70
     0
 43
0.15
 10
537.842313274447
 20
142.4999199807
 10
531.895267292647
 20
142.4999199807
  0
LWPOLYLINE
  5
B4
330
44
100
AcDbEntity
  8
0
  6
Continuous
 62
     7
100
AcDbPolyline
 90
        2
 70
     0
 43
0.15
 10
525.830114707147
 20
142.4999199807
 10
508.966519012847
 20
142.4999199807
  0
LWPOLYLINE
  5
B5
330
44
100
AcDbEntity
  8
0
  6
Continuous
 62
     7
100
AcDbPolyline
 90
        2
 70
     0
 43
0.15
 10
498.464936837347
 20
142.4999199807
 10
475.397856421547
 20
142.4999199807
  0
LWPOLYLINE
  5
B6
330
44
100
AcDbEntity
  8
0
  6
Continuous
 62
     7
100
AcDbPolyline
 90
        2
 70
     0
 43
0.15
 10
463.286765366547
 20
142.4999199807
 10
440.219684019447
 20
142.4999199807
  0
LWPOLYLINE
  5
B7
330
44
100
AcDbEntity
  8
0
  6
Continuous
 62
     7
100
AcDbPolyline
 90
        2
 70
     0
 43
0.15
 10
429.718101843947
 20
142.4999199807
 10
412.854506149647
 20
142.4999199807
  0
LWPOLYLINE
  5
B8
330
44
100
AcDbEntity
  8
0
  6
Continuous
 62
     7
100
AcDbPolyline
 90
        2
 70
     0
 43
0.15
 10
406.789353564147
 20
142.4999199807
 10
400.842311307547
 20
142.4999199807
  0
LWPOLYLINE
  5
B9
330
44
100
AcDbEntity
  8
0
  6
Continuous
 62
     7
100
AcDbPolyline
 90
        2
 70
     0
 43
0.15
 10
541.8423139301469
 20
213.9999233186
 10
541.8423139301469
 20
206.9999240339
  0
LWPOLYLINE
  5
BA
330
44
100
AcDbEntity
  8
0
  6
Continuous
 62
     7
100
AcDbPolyline
 90
        2
 70
     0
 43
0.15
 10
541.8423139301469
 20
218.9999185502
 10
541.8423139301469
 20
215.9999273717
  0
LWPOLYLINE
  5
BB
330
44
100
AcDbEntity
  8
0
  6
Continuous
 62
     7
100
AcDbPolyline
 90
        2
 70
     0
 43
0.15
 10
541.8423139301469
 20
142.999920994
 10
541.8423139301469
 20
144.9999175966
  0
LWPOLYLINE
  5
BC
330
44
100
AcDbEntity
  8
0
  6
Continuous
 62
     7
100
AcDbPolyline
 90
        2
 70
     0
 43
0.15
 10
538.3423142877471
 20
142.4999199807
 10
541.342312916847
 20
142.4999199807
  0
LWPOLYLINE
  5
BD
330
44
100
AcDbEntity
  8
0
  6
Continuous
 62
     7
100
AcDbPolyline
 90
        2
 70
     0
 43
0.15
 10
542.342307492847
 20
215.9999273717
 10
541.8423139301469
 20
215.9999273717
  0
LWPOLYLINE
  5
BE
330
44
100
AcDbEntity
  8
0
  6
Continuous
 62
     7
100
AcDbPolyline
 90
        2
 70
     0
 43
0.15
 10
542.342307492847
 20
215.9999273717
 10
542.342307492847
 20
213.9999233186
  0
LWPOLYLINE
  5
BF
330
44
100
AcDbEntity
  8
0
  6
Continuous
 62
     7
100
AcDbPolyline
 90
        2
 70
     0
 43
0.15
 10
541.8423139301469
 20
213.9999233186
 10
542.342307492847
 20
213.9999233186
  0
LWPOLYLINE
  5
C0
330
44
100
AcDbEntity
  8
0
  6
Continuous
 62
     7
100
AcDbPolyline
 90
        2
 70
     0
 43
0.15
 10
539.342308863747
 20
221.9999246299
 10
538.3423142877471
 20
221.9999246299
  0
LWPOLYLINE
  5
C1
330
44
100
AcDbEntity
  8
0
  6
Continuous
 62
     7
100
AcDbPolyline
 90
        2
 70
     0
 43
0.15
 10
539.342308863747
 20
221.9999246299
 10
539.342308863747
 20
232.9999171197
  0
LWPOLYLINE
  5
C2
330
44
100
AcDbEntity
  8
0
  6
Continuous
 62
     7
100
AcDbPolyline
 90
        2
 70
     0
 43
0.15
 10
543.342309519447
 20
218.9999185502
 10
541.8423139301469
 20
218.9999185502
  0
LWPOLYLINE
  5
C3
330
44
100
AcDbEntity
  8
0
  6
Continuous
 62
     7
100
AcDbPolyline
 90
        2
 70
     0
 43
0.15
 10
543.342309519447
 20
232.9999171197
 10
543.342309519447
 20
218.9999185502
  0
LWPOLYLINE
  5
C4
330
44
100
AcDbEntity
  8
0
  6
Continuous
 62
     7
100
AcDbPolyline
 90
        2
 70
     0
 43
0.15
 10
543.342309519447
 20
232.9999171197
 10
539.342308863747
 20
232.9999171197
  0
LWPOLYLINE
  5
C5
330
44
100
AcDbEntity
  8
0
  6
Continuous
 62
     7
100
AcDbPolyline
 90
        2
 70
     0
 43
0.15
 10
537.842313274447
 20
227.4999134242
 10
537.842313274447
 20
221.9999246299
  0
LWPOLYLINE
  5
C6
330
44
100
AcDbEntity
  8
0
  6
Continuous
 62
     7
100
AcDbPolyline
 90
        2
 70
     0
 43
0.15
 10
538.3423142877471
 20
227.4999134242
 10
539.342308863747
 20
227.4999134242
  0
LWPOLYLINE
  5
C7
330
44
100
AcDbEntity
  8
0
  6
Continuous
 62
     7
100
AcDbPolyline
 90
        2
 70
     0
 43
0.15
 10
399.342308267747
 20
227.4999134242
 10
400.342310294247
 20
227.4999134242
  0
LWPOLYLINE
  5
C8
330
44
100
AcDbEntity
  8
0
  6
Continuous
 62
     7
100
AcDbPolyline
 90
        2
 70
     0
 43
0.15
 10
400.842311307547
 20
227.4999134242
 10
400.842311307547
 20
221.9999246299
  0
LWPOLYLINE
  5
C9
330
44
100
AcDbEntity
  8
0
  6
Continuous
 62
     7
100
AcDbPolyline
 90
        2
 70
     0
 43
0.15
 10
534.342313632147
 20
227.4999134242
 10
534.342313632147
 20
221.9999246299
  0
LWPOLYLINE
  5
CA
330
44
100
AcDbEntity
  8
0
  6
Continuous
 62
     7
100
AcDbPolyline
 90
        2
 70
     0
 43
0.15
 10
534.342313632147
 20
227.4999134242
 10
536.842311247947
 20
227.4999134242
  0
LWPOLYLINE
  5
CB
330
44
100
AcDbEntity
  8
0
  6
Continuous
 62
     7
100
AcDbPolyline
 90
        2
 70
     0
 43
0.15
 10
404.342310949947
 20
227.4999134242
 10
404.342310949947
 20
221.9999246299
  0
LWPOLYLINE
  5
CC
330
44
100
AcDbEntity
  8
0
  6
Continuous
 62
     7
100
AcDbPolyline
 90
        2
 70
     0
 43
0.15
 10
401.842313334147
 20
227.4999134242
 10
404.342310949947
 20
227.4999134242
  0
LWPOLYLINE
  5
CD
330
44
100
AcDbEntity
  8
0
  6
Continuous
 62
     7
100
AcDbPolyline
 90
        2
 70
     0
 43
0.15
 10
501.591342016847
 20
215.6960330903
 10
503.599519356847
 20
217.4322269857
  0
LWPOLYLINE
  5
CE
330
44
100
AcDbEntity
  8
0
  6
Continuous
 62
     7
100
AcDbPolyline
 90
        2
 70
     0
 43
0.15
 10
503.599519356847
 20
217.4322269857
 10
530.3423092511471
 20
217.4322269857
  0
LWPOLYLINE
  5
CF
330
44
100
AcDbEntity
  8
0
  6
Continuous
 62
     7
100
AcDbPolyline
 90
        2
 70
     0
 43
0.15
 10
408.342311605547
 20
217.4322269857
 10
435.085101499947
 20
217.4322269857
  0
LWPOLYLINE
  5
D0
330
44
100
AcDbEntity
  8
0
  6
Continuous
 62
     7
100
AcDbPolyline
 90
        2
 70
     0
 43
0.15
 10
435.085101499947
 20
217.4322269857
 10
437.093280702547
 20
215.6960330903
  0
LWPOLYLINE
  5
D1
330
44
100
AcDbEntity
  8
0
  6
Continuous
 62
     7
100
AcDbPolyline
 90
        2
 70
     0
 43
0.15
 10
530.3423092511471
 20
221.9999246299
 10
529.760605171077
 20
221.999924629899
  0
LWPOLYLINE
  5
D2
330
44
100
AcDbEntity
  8
0
  6
Continuous
 62
     7
100
AcDbPolyline
 90
        2
 70
     0
 43
0.15
 10
408.92401568567
 20
221.999924629899
 10
408.342311605547
 20
221.9999246299
  0
LWPOLYLINE
  5
D3
330
44
100
AcDbEntity
  8
0
  6
Continuous
 62
     7
100
AcDbPolyline
 90
        2
 70
     0
 43
0.15
 10
529.760605171077
 20
221.999924629899
 10
501.591342016847
 20
221.9999246299
  0
LWPOLYLINE
  5
D4
330
44
100
AcDbEntity
  8
0
  6
Continuous
 62
     7
100
AcDbPolyline
 90
        2
 70
     0
 43
0.15
 10
437.093280702547
 20
221.9999246299
 10
408.92401568567
 20
221.999924629899
  0
LWPOLYLINE
  5
D5
330
44
100
AcDbEntity
  8
0
  6
Continuous
 62
     7
100
AcDbPolyline
 90
        2
 70
     0
 43
0.15
 10
522.842308953147
 20
227.4999134242
 10
522.842308953147
 20
221.9999246299
  0
LWPOLYLINE
  5
D6
330
44
100
AcDbEntity
  8
0
  6
Continuous
 62
     7
100
AcDbPolyline
 90
        2
 70
     0
 43
0.15
 10
526.342312320847
 20
227.4999134242
 10
526.342312320847
 20
221.9999246299
  0
LWPOLYLINE
  5
D7
330
44
100
AcDbEntity
  8
0
  6
Continuous
 62
     7
100
AcDbPolyline
 90
        2
 70
     0
 43
0.15
 10
522.842308953147
 20
227.4999134242
 10
526.342312320847
 20
227.4999134242
  0
LWPOLYLINE
  5
D8
330
44
100
AcDbEntity
  8
0
  6
Continuous
 62
     7
100
AcDbPolyline
 90
        2
 70
     0
 43
0.15
 10
498.842310607147
 20
227.4999134242
 10
498.842310607147
 20
221.9999246299
  0
LWPOLYLINE
  5
D9
330
44
100
AcDbEntity
  8
0
  6
Continuous
 62
     7
100
AcDbPolyline
 90
        2
 70
     0
 43
0.15
 10
495.342310964847
 20
227.4999134242
 10
495.342310964847
 20
221.9999246299
  0
LWPOLYLINE
  5
DA
330
44
100
AcDbEntity
  8
0
  6
Continuous
 62
     7
100
AcDbPolyline
 90
        2
 70
     0
 43
0.15
 10
495.342310964847
 20
227.4999134242
 10
498.842310607147
 20
227.4999134242
  0
LWPOLYLINE
  5
DB
330
44
100
AcDbEntity
  8
0
  6
Continuous
 62
     7
100
AcDbPolyline
 90
        2
 70
     0
 43
0.15
 10
412.342312261247
 20
227.4999134242
 10
412.342312261247
 20
221.9999246299
  0
LWPOLYLINE
  5
DC
330
44
100
AcDbEntity
  8
0
  6
Continuous
 62
     7
100
AcDbPolyline
 90
        2
 70
     0
 43
0.15
 10
415.842311903547
 20
227.4999134242
 10
415.842311903547
 20
221.9999246299
  0
LWPOLYLINE
  5
DD
330
44
100
AcDbEntity
  8
0
  6
Continuous
 62
     7
100
AcDbPolyline
 90
        2
 70
     0
 43
0.15
 10
412.342312261247
 20
227.4999134242
 10
415.842311903547
 20
227.4999134242
  0
LWPOLYLINE
  5
DE
330
44
100
AcDbEntity
  8
0
  6
Continuous
 62
     7
100
AcDbPolyline
 90
        2
 70
     0
 43
0.15
 10
439.842310249547
 20
227.4999134242
 10
439.842310249547
 20
221.9999246299
  0
LWPOLYLINE
  5
DF
330
44
100
AcDbEntity
  8
0
  6
Continuous
 62
     7
100
AcDbPolyline
 90
        2
 70
     0
 43
0.15
 10
443.342309891947
 20
227.4999134242
 10
443.342309891947
 20
221.9999246299
  0
LWPOLYLINE
  5
E0
330
44
100
AcDbEntity
  8
0
  6
Continuous
 62
     7
100
AcDbPolyline
 90
        2
 70
     0
 43
0.15
 10
439.842310249547
 20
227.4999134242
 10
443.342309891947
 20
227.4999134242
  0
LWPOLYLINE
  5
E1
330
44
100
AcDbEntity
  8
0
  6
Continuous
 62
     7
100
AcDbPolyline
 90
        2
 70
     0
 43
0.15
 10
483.342310860547
 20
227.4999134242
 10
483.342310860547
 20
221.9999246299
  0
LWPOLYLINE
  5
E2
330
44
100
AcDbEntity
  8
0
  6
Continuous
 62
     7
100
AcDbPolyline
 90
        2
 70
     0
 43
0.15
 10
455.342310927547
 20
227.4999134242
 10
455.342310927547
 20
221.9999246299
  0
LWPOLYLINE
  5
E3
330
44
100
AcDbEntity
  8
0
  6
Continuous
 62
     7
100
AcDbPolyline
 90
        2
 70
     0
 43
0.15
 10
539.342308863747
 20
232.9999171197
 10
399.342308267747
 20
232.9999171197
  0
LWPOLYLINE
  5
E4
330
44
100
AcDbEntity
  8
0
  6
Continuous
 62
     7
100
AcDbPolyline
 90
        2
 70
     0
 43
0.15
 10
390.842313393747
 20
159.9999181926
 10
390.842313393747
 20
142.4999199807
  0
LWPOLYLINE
  5
E5
330
44
100
AcDbEntity
  8
0
  6
Continuous
 62
     7
100
AcDbPolyline
 90
        2
 70
     0
 43
0.15
 10
547.8423111883469
 20
142.4999199807
 10
547.8423111883469
 20
159.9999181926
  0
LWPOLYLINE
  5
E6
330
44
100
AcDbEntity
  8
0
  6
Continuous
 62
     7
100
AcDbPolyline
 90
        2
 70
     0
 43
0.15
 10
412.854506149647
 20
139.9999223649
 10
424.127778485147
 20
139.9999223649
  0
LWPOLYLINE
  5
E7
330
44
100
AcDbEntity
  8
0
  6
Continuous
 62
     7
100
AcDbPolyline
 90
        2
 70
     0
 43
0.15
 10
440.672437175847
 20
139.9999223649
 10
460.728977322347
 20
139.9999223649
  0
LWPOLYLINE
  5
E8
330
44
100
AcDbEntity
  8
0
  6
Continuous
 62
     7
100
AcDbPolyline
 90
        2
 70
     0
 43
0.15
 10
477.955644465747
 20
139.9999223649
 10
498.012183680847
 20
139.9999223649
  0
LWPOLYLINE
  5
E9
330
44
100
AcDbEntity
  8
0
  6
Continuous
 62
     7
100
AcDbPolyline
 90
        2
 70
     0
 43
0.15
 10
514.556842371547
 20
139.9999223649
 10
525.830114707147
 20
139.9999223649
  0
LWPOLYLINE
  5
EA
330
44
100
AcDbEntity
  8
0
  6
Continuous
 62
     7
100
AcDbPolyline
 90
        2
 70
     0
 43
0.15
 10
545.342313572547
 20
139.9999223649
 10
547.8423111883469
 20
142.4999199807
  0
LWPOLYLINE
  5
EB
330
44
100
AcDbEntity
  8
0
  6
Continuous
 62
     7
100
AcDbPolyline
 90
        2
 70
     0
 43
0.15
 10
390.842313393747
 20
142.4999199807
 10
393.342311009547
 20
139.9999223649
  0
LWPOLYLINE
  5
EC
330
44
100
AcDbEntity
  8
0
  6
Continuous
 62
     7
100
AcDbPolyline
 90
        2
 70
     0
 43
0.15
 10
400.842311307547
 20
139.9999223649
 10
393.342311009547
 20
139.9999223649
  0
LWPOLYLINE
  5
ED
330
44
100
AcDbEntity
  8
0
  6
Continuous
 62
     7
100
AcDbPolyline
 90
        2
 70
     0
 43
0.15
 10
400.842311307547
 20
142.4999199807
 10
400.842311307547
 20
139.9999223649
  0
LWPOLYLINE
  5
EE
330
44
100
AcDbEntity
  8
0
  6
Continuous
 62
     7
100
AcDbPolyline
 90
        2
 70
     0
 43
0.15
 10
392.342308982947
 20
159.9999181926
 10
390.842313393747
 20
159.9999181926
  0
LWPOLYLINE
  5
EF
330
44
100
AcDbEntity
  8
0
  6
Continuous
 62
     7
100
AcDbPolyline
 90
        2
 70
     0
 43
0.15
 10
400.842311307547
 20
142.4999199807
 10
396.883437856747
 20
142.4999199807
  0
LWPOLYLINE
  5
F0
330
44
100
AcDbEntity
  8
0
  6
Continuous
 62
     7
100
AcDbPolyline
 90
        2
 70
     0
 43
0.15
 10
395.883443280847
 20
158.9999236166
 10
393.342311009547
 20
158.9999236166
  0
LWPOLYLINE
  5
F1
330
44
100
AcDbEntity
  8
0
  6
Continuous
 62
     7
100
AcDbPolyline
 90
        2
 70
     0
 43
0.15
 10
396.883437856747
 20
157.9999215901
 10
396.883437856747
 20
142.4999199807
  0
LWPOLYLINE
  5
F2
330
44
100
AcDbEntity
  8
0
  6
Continuous
 62
     7
100
AcDbPolyline
 90
        2
 70
     0
 43
0.15
 10
392.342308982947
 20
159.9999181926
 10
398.567053004847
 20
159.9999181926
  0
LWPOLYLINE
  5
F3
330
44
100
AcDbEntity
  8
0
  6
Continuous
 62
     7
100
AcDbPolyline
 90
        2
 70
     0
 43
0.15
 10
540.117564126647
 20
159.9999181926
 10
546.342308148447
 20
159.9999181926
  0
LWPOLYLINE
  5
F4
330
44
100
AcDbEntity
  8
0
  6
Continuous
 62
     7
100
AcDbPolyline
 90
        2
 70
     0
 43
0.15
 10
537.842313274447
 20
139.9999223649
 10
537.842313274447
 20
142.4999199807
  0
LWPOLYLINE
  5
F5
330
44
100
AcDbEntity
  8
0
  6
Continuous
 62
     7
100
AcDbPolyline
 90
        2
 70
     0
 43
0.15
 10
547.8423111883469
 20
159.9999181926
 10
546.342308148447
 20
159.9999181926
  0
LWPOLYLINE
  5
F6
330
44
100
AcDbEntity
  8
0
  6
Continuous
 62
     7
100
AcDbPolyline
 90
        2
 70
     0
 43
0.15
 10
541.801179274647
 20
142.4999199807
 10
537.842313274447
 20
142.4999199807
  0
LWPOLYLINE
  5
F7
330
44
100
AcDbEntity
  8
0
  6
Continuous
 62
     7
100
AcDbPolyline
 90
        2
 70
     0
 43
0.15
 10
545.342313572547
 20
158.9999236166
 10
542.801181301247
 20
158.9999236166
  0
LWPOLYLINE
  5
F8
330
44
100
AcDbEntity
  8
0
  6
Continuous
 62
     7
100
AcDbPolyline
 90
        2
 70
     0
 43
0.15
 10
541.801179274647
 20
142.4999199807
 10
541.801179274647
 20
157.9999215901
  0
LWPOLYLINE
  5
F9
330
44
100
AcDbEntity
  8
0
  6
Continuous
 62
     7
100
AcDbPolyline
 90
        2
 70
     0
 43
0.15
 10
545.342313572547
 20
139.9999223649
 10
537.842313274447
 20
139.9999223649
  0
LWPOLYLINE
  5
FA
330
44
100
AcDbEntity
  8
0
  6
Continuous
 62
     7
100
AcDbPolyline
 90
        2
 70
     0
 43
0.15
 10
531.1650507894469
 20
142.4999199807
 10
531.1650507894469
 20
139.9999223649
  0
LWPOLYLINE
  5
FB
330
44
100
AcDbEntity
  8
0
  6
Continuous
 62
     7
100
AcDbPolyline
 90
        2
 70
     0
 43
0.15
 10
534.580113813047
 20
142.4999199807
 10
534.580113813047
 20
139.9999223649
  0
LWPOLYLINE
  5
FC
330
44
100
AcDbEntity
  8
0
  6
Continuous
 62
     7
100
AcDbPolyline
 90
        2
 70
     0
 43
0.15
 10
531.1650507894469
 20
139.9999223649
 10
534.580113813047
 20
139.9999223649
  0
LWPOLYLINE
  5
FD
330
44
100
AcDbEntity
  8
0
  6
Continuous
 62
     7
100
AcDbPolyline
 90
        2
 70
     0
 43
0.15
 10
531.1650507894469
 20
142.4999199807
 10
531.895267292647
 20
142.4999199807
  0
LWPOLYLINE
  5
FE
330
44
100
AcDbEntity
  8
0
  6
Continuous
 62
     7
100
AcDbPolyline
 90
        2
 70
     0
 43
0.15
 10
404.104510769047
 20
142.4999199807
 10
404.104510769047
 20
139.9999223649
  0
LWPOLYLINE
  5
FF
330
44
100
AcDbEntity
  8
0
  6
Continuous
 62
     7
100
AcDbPolyline
 90
        2
 70
     0
 43
0.15
 10
406.789353564147
 20
142.4999199807
 10
407.519570067247
 20
142.4999199807
  0
LWPOLYLINE
  5
100
330
44
100
AcDbEntity
  8
0
  6
Continuous
 62
     7
100
AcDbPolyline
 90
        2
 70
     0
 43
0.15
 10
407.519570067247
 20
142.4999199807
 10
407.519570067247
 20
139.9999223649
  0
LWPOLYLINE
  5
101
330
44
100
AcDbEntity
  8
0
  6
Continuous
 62
     7
100
AcDbPolyline
 90
        2
 70
     0
 43
0.15
 10
404.104510769047
 20
139.9999223649
 10
407.519570067247
 20
139.9999223649
  0
LWPOLYLINE
  5
102
330
44
100
AcDbEntity
  8
0
  6
Continuous
 62
     7
100
AcDbPolyline
 90
        2
 70
     0
 43
0.15
 10
537.625732347147
 20
139.9999223649
 10
537.625732347147
 20
142.4999199807
  0
LWPOLYLINE
  5
103
330
44
100
AcDbEntity
  8
0
  6
Continuous
 62
     7
100
AcDbPolyline
 90
        2
 70
     0
 43
0.15
 10
534.580113813047
 20
139.9999223649
 10
537.625732347147
 20
139.9999223649
  0
LWPOLYLINE
  5
104
330
44
100
AcDbEntity
  8
0
  6
Continuous
 62
     7
100
AcDbPolyline
 90
        2
 70
     0
 43
0.15
 10
401.058892234947
 20
142.4999199807
 10
401.058892234947
 20
139.9999223649
  0
LWPOLYLINE
  5
105
330
44
100
AcDbEntity
  8
0
  6
Continuous
 62
     7
100
AcDbPolyline
 90
        2
 70
     0
 43
0.15
 10
401.058892234947
 20
139.9999223649
 10
404.104510769047
 20
139.9999223649
  0
LWPOLYLINE
  5
106
330
44
100
AcDbEntity
  8
0
  6
Continuous
 62
     7
100
AcDbPolyline
 90
        2
 70
     0
 43
0.15
 10
526.165051832547
 20
142.4999199807
 10
526.165051832547
 20
139.9999223649
  0
LWPOLYLINE
  5
107
330
44
100
AcDbEntity
  8
0
  6
Continuous
 62
     7
100
AcDbPolyline
 90
        2
 70
     0
 43
0.15
 10
526.165051832547
 20
139.9999223649
 10
531.1650507894469
 20
139.9999223649
  0
LWPOLYLINE
  5
108
330
44
100
AcDbEntity
  8
0
  6
Continuous
 62
     7
100
AcDbPolyline
 90
        2
 70
     0
 43
0.15
 10
526.165051832547
 20
142.4999199807
 10
531.1650507894469
 20
142.4999199807
  0
LWPOLYLINE
  5
109
330
44
100
AcDbEntity
  8
0
  6
Continuous
 62
     7
100
AcDbPolyline
 90
        2
 70
     0
 43
0.15
 10
412.519569024247
 20
142.4999199807
 10
412.519569024247
 20
139.9999223649
  0
LWPOLYLINE
  5
10A
330
44
100
AcDbEntity
  8
0
  6
Continuous
 62
     7
100
AcDbPolyline
 90
        2
 70
     0
 43
0.15
 10
407.519570067247
 20
142.4999199807
 10
412.519569024247
 20
142.4999199807
  0
LWPOLYLINE
  5
10B
330
44
100
AcDbEntity
  8
0
  6
Continuous
 62
     7
100
AcDbPolyline
 90
        2
 70
     0
 43
0.15
 10
407.519570067247
 20
139.9999223649
 10
412.519569024247
 20
139.9999223649
  0
LWPOLYLINE
  5
10C
330
44
100
AcDbEntity
  8
0
  6
Continuous
 62
     7
100
AcDbPolyline
 90
        2
 70
     0
 43
0.15
 10
537.842313274447
 20
139.9999223649
 10
537.625732347147
 20
139.9999223649
  0
LWPOLYLINE
  5
10D
330
44
100
AcDbEntity
  8
0
  6
Continuous
 62
     7
100
AcDbPolyline
 90
        2
 70
     0
 43
0.15
 10
401.058892234947
 20
139.9999223649
 10
400.842311307547
 20
139.9999223649
  0
LWPOLYLINE
  5
10E
330
44
100
AcDbEntity
  8
0
  6
Continuous
 62
     7
100
AcDbPolyline
 90
        2
 70
     0
 43
0.15
 10
525.830114707147
 20
139.9999223649
 10
526.165051832547
 20
139.9999223649
  0
LWPOLYLINE
  5
10F
330
44
100
AcDbEntity
  8
0
  6
Continuous
 62
     7
100
AcDbPolyline
 90
        2
 70
     0
 43
0.15
 10
525.839725956047
 20
142.4999199807
 10
526.165051832547
 20
142.4999199807
  0
LWPOLYLINE
  5
110
330
44
100
AcDbEntity
  8
0
  6
Continuous
 62
     7
100
AcDbPolyline
 90
        2
 70
     0
 43
0.15
 10
412.519569024247
 20
142.4999199807
 10
412.844898625947
 20
142.4999199807
  0
LWPOLYLINE
  5
111
330
44
100
AcDbEntity
  8
0
  6
Continuous
 62
     7
100
AcDbPolyline
 90
        2
 70
     0
 43
0.15
 10
412.519569024247
 20
139.9999223649
 10
412.854506149647
 20
139.9999223649
  0
LWPOLYLINE
  5
112
330
44
100
AcDbEntity
  8
0
  6
Continuous
 62
     7
100
AcDbPolyline
 90
        2
 70
     0
 43
0.15
 10
514.556842371547
 20
142.4999199807
 10
514.556842371547
 20
139.9999223649
  0
LWPOLYLINE
  5
113
330
44
100
AcDbEntity
  8
0
  6
Continuous
 62
     7
100
AcDbPolyline
 90
        2
 70
     0
 43
0.15
 10
424.127778485147
 20
139.9999223649
 10
424.127778485147
 20
142.4999199807
  0
LWPOLYLINE
  5
114
330
44
100
AcDbEntity
  8
0
  6
Continuous
 62
     7
100
AcDbPolyline
 90
        2
 70
     0
 43
0.15
 10
507.922439351447
 20
142.4999199807
 10
507.922439351447
 20
139.9999223649
  0
LWPOLYLINE
  5
115
330
44
100
AcDbEntity
  8
0
  6
Continuous
 62
     7
100
AcDbPolyline
 90
        2
 70
     0
 43
0.15
 10
511.337502375047
 20
142.4999199807
 10
511.337502375047
 20
139.9999223649
  0
LWPOLYLINE
  5
116
330
44
100
AcDbEntity
  8
0
  6
Continuous
 62
     7
100
AcDbPolyline
 90
        2
 70
     0
 43
0.15
 10
507.922439351447
 20
139.9999223649
 10
511.337502375047
 20
139.9999223649
  0
LWPOLYLINE
  5
117
330
44
100
AcDbEntity
  8
0
  6
Continuous
 62
     7
100
AcDbPolyline
 90
        2
 70
     0
 43
0.15
 10
507.922439351447
 20
142.4999199807
 10
508.966519012847
 20
142.4999199807
  0
LWPOLYLINE
  5
118
330
44
100
AcDbEntity
  8
0
  6
Continuous
 62
     7
100
AcDbPolyline
 90
        2
 70
     0
 43
0.15
 10
427.347118481747
 20
142.4999199807
 10
427.347118481747
 20
139.9999223649
  0
LWPOLYLINE
  5
119
330
44
100
AcDbEntity
  8
0
  6
Continuous
 62
     7
100
AcDbPolyline
 90
        2
 70
     0
 43
0.15
 10
430.762185230647
 20
142.4999199807
 10
430.762185230647
 20
139.9999223649
  0
LWPOLYLINE
  5
11A
330
44
100
AcDbEntity
  8
0
  6
Continuous
 62
     7
100
AcDbPolyline
 90
        2
 70
     0
 43
0.15
 10
429.718101843947
 20
142.4999199807
 10
430.762185230647
 20
142.4999199807
  0
LWPOLYLINE
  5
11B
330
44
100
AcDbEntity
  8
0
  6
Continuous
 62
     7
100
AcDbPolyline
 90
        2
 70
     0
 43
0.15
 10
427.347118481747
 20
139.9999223649
 10
430.762185230647
 20
139.9999223649
  0
LWPOLYLINE
  5
11C
330
44
100
AcDbEntity
  8
0
  6
Continuous
 62
     7
100
AcDbPolyline
 90
        2
 70
     0
 43
0.15
 10
499.262182488747
 20
142.4999199807
 10
499.262182488747
 20
139.9999223649
  0
LWPOLYLINE
  5
11D
330
44
100
AcDbEntity
  8
0
  6
Continuous
 62
     7
100
AcDbPolyline
 90
        2
 70
     0
 43
0.15
 10
499.262182488747
 20
139.9999223649
 10
507.922439351447
 20
139.9999223649
  0
LWPOLYLINE
  5
11E
330
44
100
AcDbEntity
  8
0
  6
Continuous
 62
     7
100
AcDbPolyline
 90
        2
 70
     0
 43
0.15
 10
499.262182488747
 20
142.4999199807
 10
507.922439351447
 20
142.4999199807
  0
LWPOLYLINE
  5
11F
330
44
100
AcDbEntity
  8
0
  6
Continuous
 62
     7
100
AcDbPolyline
 90
        2
 70
     0
 43
0.15
 10
439.422438367947
 20
142.4999199807
 10
439.422438367947
 20
139.9999223649
  0
LWPOLYLINE
  5
120
330
44
100
AcDbEntity
  8
0
  6
Continuous
 62
     7
100
AcDbPolyline
 90
        2
 70
     0
 43
0.15
 10
430.762185230647
 20
142.4999199807
 10
439.422438367947
 20
142.4999199807
  0
LWPOLYLINE
  5
121
330
44
100
AcDbEntity
  8
0
  6
Continuous
 62
     7
100
AcDbPolyline
 90
        2
 70
     0
 43
0.15
 10
430.762185230647
 20
139.9999223649
 10
439.422438367947
 20
139.9999223649
  0
LWPOLYLINE
  5
122
330
44
100
AcDbEntity
  8
0
  6
Continuous
 62
     7
100
AcDbPolyline
 90
        2
 70
     0
 43
0.15
 10
513.095887824647
 20
139.9999223649
 10
513.095887824647
 20
142.4999199807
  0
LWPOLYLINE
  5
123
330
44
100
AcDbEntity
  8
0
  6
Continuous
 62
     7
100
AcDbPolyline
 90
        2
 70
     0
 43
0.15
 10
511.337502375047
 20
139.9999223649
 10
513.095887824647
 20
139.9999223649
  0
LWPOLYLINE
  5
124
330
44
100
AcDbEntity
  8
0
  6
Continuous
 62
     7
100
AcDbPolyline
 90
        2
 70
     0
 43
0.15
 10
425.588733032147
 20
142.4999199807
 10
425.588733032147
 20
139.9999223649
  0
LWPOLYLINE
  5
125
330
44
100
AcDbEntity
  8
0
  6
Continuous
 62
     7
100
AcDbPolyline
 90
        2
 70
     0
 43
0.15
 10
425.588733032147
 20
139.9999223649
 10
427.347118481747
 20
139.9999223649
  0
LWPOLYLINE
  5
126
330
44
100
AcDbEntity
  8
0
  6
Continuous
 62
     7
100
AcDbPolyline
 90
        2
 70
     0
 43
0.15
 10
514.556842371547
 20
139.9999223649
 10
513.095887824647
 20
139.9999223649
  0
LWPOLYLINE
  5
127
330
44
100
AcDbEntity
  8
0
  6
Continuous
 62
     7
100
AcDbPolyline
 90
        2
 70
     0
 43
0.15
 10
425.588733032147
 20
139.9999223649
 10
424.127778485147
 20
139.9999223649
  0
LWPOLYLINE
  5
128
330
44
100
AcDbEntity
  8
0
  6
Continuous
 62
     7
100
AcDbPolyline
 90
        2
 70
     0
 43
0.15
 10
498.012183680847
 20
139.9999223649
 10
499.262182488747
 20
139.9999223649
  0
LWPOLYLINE
  5
129
330
44
100
AcDbEntity
  8
0
  6
Continuous
 62
     7
100
AcDbPolyline
 90
        2
 70
     0
 43
0.15
 10
498.464936837347
 20
142.4999199807
 10
499.262182488747
 20
142.4999199807
  0
LWPOLYLINE
  5
12A
330
44
100
AcDbEntity
  8
0
  6
Continuous
 62
     7
100
AcDbPolyline
 90
        2
 70
     0
 43
0.15
 10
439.422438367947
 20
142.4999199807
 10
440.219684019447
 20
142.4999199807
  0
LWPOLYLINE
  5
12B
330
44
100
AcDbEntity
  8
0
  6
Continuous
 62
     7
100
AcDbPolyline
 90
        2
 70
     0
 43
0.15
 10
439.422438367947
 20
139.9999223649
 10
440.672437175847
 20
139.9999223649
  0
LWPOLYLINE
  5
12C
330
44
100
AcDbEntity
  8
0
  6
Continuous
 62
     7
100
AcDbPolyline
 90
        2
 70
     0
 43
0.15
 10
477.955644465747
 20
142.4999199807
 10
477.955644465747
 20
139.9999223649
  0
LWPOLYLINE
  5
12D
330
44
100
AcDbEntity
  8
0
  6
Continuous
 62
     7
100
AcDbPolyline
 90
        2
 70
     0
 43
0.15
 10
460.728977322347
 20
139.9999223649
 10
460.728977322347
 20
142.4999199807
  0
LWPOLYLINE
  5
12E
330
44
100
AcDbEntity
  8
0
  6
Continuous
 62
     7
100
AcDbPolyline
 90
        2
 70
     0
 43
0.15
 10
474.342310782247
 20
142.4999199807
 10
474.342310782247
 20
139.9999223649
  0
LWPOLYLINE
  5
12F
330
44
100
AcDbEntity
  8
0
  6
Continuous
 62
     7
100
AcDbPolyline
 90
        2
 70
     0
 43
0.15
 10
474.342310782247
 20
142.4999199807
 10
475.397856421547
 20
142.4999199807
  0
LWPOLYLINE
  5
130
330
44
100
AcDbEntity
  8
0
  6
Continuous
 62
     7
100
AcDbPolyline
 90
        2
 70
     0
 43
0.15
 10
476.842310726347
 20
142.4999199807
 10
476.842310726347
 20
139.9999223649
  0
LWPOLYLINE
  5
131
330
44
100
AcDbEntity
  8
0
  6
Continuous
 62
     7
100
AcDbPolyline
 90
        2
 70
     0
 43
0.15
 10
474.342310782247
 20
139.9999223649
 10
476.842310726347
 20
139.9999223649
  0
LWPOLYLINE
  5
132
330
44
100
AcDbEntity
  8
0
  6
Continuous
 62
     7
100
AcDbPolyline
 90
        2
 70
     0
 43
0.15
 10
464.342310772947
 20
142.4999199807
 10
464.342310772947
 20
139.9999223649
  0
LWPOLYLINE
  5
133
330
44
100
AcDbEntity
  8
0
  6
Continuous
 62
     7
100
AcDbPolyline
 90
        2
 70
     0
 43
0.15
 10
464.342310772947
 20
139.9999223649
 10
474.342310782247
 20
139.9999223649
  0
LWPOLYLINE
  5
134
330
44
100
AcDbEntity
  8
0
  6
Continuous
 62
     7
100
AcDbPolyline
 90
        2
 70
     0
 43
0.15
 10
464.342310772947
 20
142.4999199807
 10
474.342310782247
 20
142.4999199807
  0
LWPOLYLINE
  5
135
330
44
100
AcDbEntity
  8
0
  6
Continuous
 62
     7
100
AcDbPolyline
 90
        2
 70
     0
 43
0.15
 10
461.842310596047
 20
142.4999199807
 10
461.842310596047
 20
139.9999223649
  0
LWPOLYLINE
  5
136
330
44
100
AcDbEntity
  8
0
  6
Continuous
 62
     7
100
AcDbPolyline
 90
        2
 70
     0
 43
0.15
 10
461.842310596047
 20
139.9999223649
 10
464.342310772947
 20
139.9999223649
  0
LWPOLYLINE
  5
137
330
44
100
AcDbEntity
  8
0
  6
Continuous
 62
     7
100
AcDbPolyline
 90
        2
 70
     0
 43
0.15
 10
463.286765366547
 20
142.4999199807
 10
464.342310772947
 20
142.4999199807
  0
LWPOLYLINE
  5
138
330
44
100
AcDbEntity
  8
0
  6
Continuous
 62
     7
100
AcDbPolyline
 90
        2
 70
     0
 43
0.15
 10
477.955644465747
 20
139.9999223649
 10
476.842310726347
 20
139.9999223649
  0
LWPOLYLINE
  5
139
330
44
100
AcDbEntity
  8
0
  6
Continuous
 62
     7
100
AcDbPolyline
 90
        2
 70
     0
 43
0.15
 10
461.842310596047
 20
139.9999223649
 10
460.728977322347
 20
139.9999223649
  0
LWPOLYLINE
  5
13A
330
44
100
AcDbEntity
  8
0
  6
Continuous
 62
     7
100
AcDbPolyline
 90
        2
 70
     0
 43
0.15
 10
439.092310592247
 20
232.499923557
 10
435.592310949947
 20
232.499923557
  0
LWPOLYLINE
  5
13B
330
44
100
AcDbEntity
  8
0
  6
Continuous
 62
     7
100
AcDbPolyline
 90
        2
 70
     0
 43
0.15
 10
439.092310592247
 20
230.9999130666
 10
435.592310949947
 20
230.9999130666
  0
LWPOLYLINE
  5
13C
330
44
100
AcDbEntity
  8
0
  6
Continuous
 62
     7
100
AcDbPolyline
 90
        2
 70
     0
 43
0.15
 10
441.592310070747
 20
229.9999259412
 10
441.592310070747
 20
228.4999154508
  0
LWPOLYLINE
  5
13D
330
44
100
AcDbEntity
  8
0
  6
Continuous
 62
     7
100
AcDbPolyline
 90
        2
 70
     0
 43
0.15
 10
433.092309608847
 20
228.4999154508
 10
433.092309608847
 20
229.9999259412
  0
LWPOLYLINE
  5
13E
330
44
100
AcDbEntity
  8
0
  6
Continuous
 62
     7
100
AcDbPolyline
 90
        2
 70
     0
 43
0.15
 10
440.092310756247
 20
229.9999259412
 10
440.092310756247
 20
228.4999154508
  0
LWPOLYLINE
  5
13F
330
44
100
AcDbEntity
  8
0
  6
Continuous
 62
     7
100
AcDbPolyline
 90
        2
 70
     0
 43
0.15
 10
433.092309608847
 20
228.4999154508
 10
434.592308923347
 20
228.4999154508
  0
LWPOLYLINE
  5
140
330
44
100
AcDbEntity
  8
0
  6
Continuous
 62
     7
100
AcDbPolyline
 90
        2
 70
     0
 43
0.15
 10
440.092310756247
 20
228.4999154508
 10
441.592310070747
 20
228.4999154508
  0
LWPOLYLINE
  5
141
330
44
100
AcDbEntity
  8
0
  6
Continuous
 62
     7
100
AcDbPolyline
 90
        2
 70
     0
 43
0.15
 10
434.592308923347
 20
228.4999154508
 10
434.592308923347
 20
229.9999259412
  0
LWPOLYLINE
  5
142
330
44
100
AcDbEntity
  8
0
  6
Continuous
 62
     7
100
AcDbPolyline
 90
        2
 70
     0
 43
0.15
 10
423.092311694947
 20
232.499923557
 10
419.592312052647
 20
232.499923557
  0
LWPOLYLINE
  5
143
330
44
100
AcDbEntity
  8
0
  6
Continuous
 62
     7
100
AcDbPolyline
 90
        2
 70
     0
 43
0.15
 10
425.592309310747
 20
229.9999259412
 10
425.592309310747
 20
228.4999154508
  0
LWPOLYLINE
  5
144
330
44
100
AcDbEntity
  8
0
  6
Continuous
 62
     7
100
AcDbPolyline
 90
        2
 70
     0
 43
0.15
 10
423.092311694947
 20
230.9999130666
 10
419.592312052647
 20
230.9999130666
  0
LWPOLYLINE
  5
145
330
44
100
AcDbEntity
  8
0
  6
Continuous
 62
     7
100
AcDbPolyline
 90
        2
 70
     0
 43
0.15
 10
418.592310026047
 20
228.4999154508
 10
418.592310026047
 20
229.9999259412
  0
LWPOLYLINE
  5
146
330
44
100
AcDbEntity
  8
0
  6
Continuous
 62
     7
100
AcDbPolyline
 90
        2
 70
     0
 43
0.15
 10
417.092310711447
 20
228.4999154508
 10
417.092310711447
 20
229.9999259412
  0
LWPOLYLINE
  5
147
330
44
100
AcDbEntity
  8
0
  6
Continuous
 62
     7
100
AcDbPolyline
 90
        2
 70
     0
 43
0.15
 10
424.092309996247
 20
229.9999259412
 10
424.092309996247
 20
228.4999154508
  0
LWPOLYLINE
  5
148
330
44
100
AcDbEntity
  8
0
  6
Continuous
 62
     7
100
AcDbPolyline
 90
        2
 70
     0
 43
0.15
 10
424.092309996247
 20
228.4999154508
 10
425.592309310747
 20
228.4999154508
  0
LWPOLYLINE
  5
149
330
44
100
AcDbEntity
  8
0
  6
Continuous
 62
     7
100
AcDbPolyline
 90
        2
 70
     0
 43
0.15
 10
417.092310711447
 20
228.4999154508
 10
418.592310026047
 20
228.4999154508
  0
LWPOLYLINE
  5
14A
330
44
100
AcDbEntity
  8
0
  6
Continuous
 62
     7
100
AcDbPolyline
 90
        2
 70
     0
 43
0.15
 10
407.092309072347
 20
232.499923557
 10
402.842307910047
 20
232.499923557
  0
LWPOLYLINE
  5
14B
330
44
100
AcDbEntity
  8
0
  6
Continuous
 62
     7
100
AcDbPolyline
 90
        2
 70
     0
 43
0.15
 10
408.092311098947
 20
229.9999259412
 10
408.092311098947
 20
228.4999154508
  0
LWPOLYLINE
  5
14C
330
44
100
AcDbEntity
  8
0
  6
Continuous
 62
     7
100
AcDbPolyline
 90
        2
 70
     0
 43
0.15
 10
407.092309072347
 20
230.9999130666
 10
402.842307910047
 20
230.9999130666
  0
LWPOLYLINE
  5
14D
330
44
100
AcDbEntity
  8
0
  6
Continuous
 62
     7
100
AcDbPolyline
 90
        2
 70
     0
 43
0.15
 10
401.842313334147
 20
229.9999259412
 10
401.842313334147
 20
227.4999134242
  0
LWPOLYLINE
  5
14E
330
44
100
AcDbEntity
  8
0
  6
Continuous
 62
     7
100
AcDbPolyline
 90
        2
 70
     0
 43
0.15
 10
401.842313334147
 20
227.4999134242
 10
400.342310294247
 20
227.4999134242
  0
LWPOLYLINE
  5
14F
330
44
100
AcDbEntity
  8
0
  6
Continuous
 62
     7
100
AcDbPolyline
 90
        2
 70
     0
 43
0.15
 10
400.342310294247
 20
229.9999259412
 10
400.342310294247
 20
227.4999134242
  0
LWPOLYLINE
  5
150
330
44
100
AcDbEntity
  8
0
  6
Continuous
 62
     7
100
AcDbPolyline
 90
        2
 70
     0
 43
0.15
 10
409.592310413447
 20
229.9999259412
 10
409.592310413447
 20
228.4999154508
  0
LWPOLYLINE
  5
151
330
44
100
AcDbEntity
  8
0
  6
Continuous
 62
     7
100
AcDbPolyline
 90
        2
 70
     0
 43
0.15
 10
408.092311098947
 20
228.4999154508
 10
409.592310413447
 20
228.4999154508
  0
LWPOLYLINE
  5
152
330
44
100
AcDbEntity
  8
0
  6
Continuous
 62
     7
100
AcDbPolyline
 90
        2
 70
     0
 43
0.15
 10
503.092309906847
 20
230.9999130666
 10
499.592310264447
 20
230.9999130666
  0
LWPOLYLINE
  5
153
330
44
100
AcDbEntity
  8
0
  6
Continuous
 62
     7
100
AcDbPolyline
 90
        2
 70
     0
 43
0.15
 10
498.592310100547
 20
228.4999154508
 10
498.592310100547
 20
229.9999259412
  0
LWPOLYLINE
  5
154
330
44
100
AcDbEntity
  8
0
  6
Continuous
 62
     7
100
AcDbPolyline
 90
        2
 70
     0
 43
0.15
 10
497.092310786047
 20
228.4999154508
 10
498.592310100547
 20
228.4999154508
  0
LWPOLYLINE
  5
155
330
44
100
AcDbEntity
  8
0
  6
Continuous
 62
     7
100
AcDbPolyline
 90
        2
 70
     0
 43
0.15
 10
497.092310786047
 20
228.4999154508
 10
497.092310786047
 20
229.9999259412
  0
LWPOLYLINE
  5
156
330
44
100
AcDbEntity
  8
0
  6
Continuous
 62
     7
100
AcDbPolyline
 90
        2
 70
     0
 43
0.15
 10
503.092309906847
 20
232.499923557
 10
499.592310264447
 20
232.499923557
  0
LWPOLYLINE
  5
157
330
44
100
AcDbEntity
  8
0
  6
Continuous
 62
     7
100
AcDbPolyline
 90
        2
 70
     0
 43
0.15
 10
504.092311933347
 20
228.4999154508
 10
505.592311247947
 20
228.4999154508
  0
LWPOLYLINE
  5
158
330
44
100
AcDbEntity
  8
0
  6
Continuous
 62
     7
100
AcDbPolyline
 90
        2
 70
     0
 43
0.15
 10
504.092311933347
 20
229.9999259412
 10
504.092311933347
 20
228.4999154508
  0
LWPOLYLINE
  5
159
330
44
100
AcDbEntity
  8
0
  6
Continuous
 62
     7
100
AcDbPolyline
 90
        2
 70
     0
 43
0.15
 10
505.592311247947
 20
229.9999259412
 10
505.592311247947
 20
228.4999154508
  0
LWPOLYLINE
  5
15A
330
44
100
AcDbEntity
  8
0
  6
Continuous
 62
     7
100
AcDbPolyline
 90
        2
 70
     0
 43
0.15
 10
519.092312529447
 20
230.9999130666
 10
515.5923091617469
 20
230.9999130666
  0
LWPOLYLINE
  5
15B
330
44
100
AcDbEntity
  8
0
  6
Continuous
 62
     7
100
AcDbPolyline
 90
        2
 70
     0
 43
0.15
 10
514.5923108605471
 20
228.4999154508
 10
514.5923108605471
 20
229.9999259412
  0
LWPOLYLINE
  5
15C
330
44
100
AcDbEntity
  8
0
  6
Continuous
 62
     7
100
AcDbPolyline
 90
        2
 70
     0
 43
0.15
 10
513.092311545947
 20
228.4999154508
 10
514.5923108605471
 20
228.4999154508
  0
LWPOLYLINE
  5
15D
330
44
100
AcDbEntity
  8
0
  6
Continuous
 62
     7
100
AcDbPolyline
 90
        2
 70
     0
 43
0.15
 10
519.092312529447
 20
232.499923557
 10
515.5923091617469
 20
232.499923557
  0
LWPOLYLINE
  5
15E
330
44
100
AcDbEntity
  8
0
  6
Continuous
 62
     7
100
AcDbPolyline
 90
        2
 70
     0
 43
0.15
 10
520.092310830747
 20
228.4999154508
 10
521.592310145247
 20
228.4999154508
  0
LWPOLYLINE
  5
15F
330
44
100
AcDbEntity
  8
0
  6
Continuous
 62
     7
100
AcDbPolyline
 90
        2
 70
     0
 43
0.15
 10
520.092310830747
 20
229.9999259412
 10
520.092310830747
 20
228.4999154508
  0
LWPOLYLINE
  5
160
330
44
100
AcDbEntity
  8
0
  6
Continuous
 62
     7
100
AcDbPolyline
 90
        2
 70
     0
 43
0.15
 10
521.592310145247
 20
229.9999259412
 10
521.592310145247
 20
228.4999154508
  0
LWPOLYLINE
  5
161
330
44
100
AcDbEntity
  8
0
  6
Continuous
 62
     7
100
AcDbPolyline
 90
        2
 70
     0
 43
0.15
 10
513.092311545947
 20
228.4999154508
 10
513.092311545947
 20
229.9999259412
  0
LWPOLYLINE
  5
162
330
44
100
AcDbEntity
  8
0
  6
Continuous
 62
     7
100
AcDbPolyline
 90
        2
 70
     0
 43
0.15
 10
487.092311009547
 20
230.9999130666
 10
451.592311709847
 20
230.9999130666
  0
LWPOLYLINE
  5
163
330
44
100
AcDbEntity
  8
0
  6
Continuous
 62
     7
100
AcDbPolyline
 90
        2
 70
     0
 43
0.15
 10
467.081075631747
 20
232.499923557
 10
451.592311709847
 20
232.499923557
  0
LWPOLYLINE
  5
164
330
44
100
AcDbEntity
  8
0
  6
Continuous
 62
     7
100
AcDbPolyline
 90
        2
 70
     0
 43
0.15
 10
467.081075631747
 20
232.499923557
 10
467.081075631747
 20
232.3999218642
  0
LWPOLYLINE
  5
165
330
44
100
AcDbEntity
  8
0
  6
Continuous
 62
     7
100
AcDbPolyline
 90
        2
 70
     0
 43
0.15
 10
469.202395626147
 20
232.3999218642
 10
467.081075631747
 20
232.3999218642
  0
LWPOLYLINE
  5
166
330
44
100
AcDbEntity
  8
0
  6
Continuous
 62
     7
100
AcDbPolyline
 90
        2
 70
     0
 43
0.15
 10
469.202395626147
 20
232.3999218642
 10
469.202395626147
 20
232.499923557
  0
LWPOLYLINE
  5
167
330
44
100
AcDbEntity
  8
0
  6
Continuous
 62
     7
100
AcDbPolyline
 90
        2
 70
     0
 43
0.15
 10
471.323715271147
 20
232.499923557
 10
469.202395626147
 20
232.499923557
  0
LWPOLYLINE
  5
168
330
44
100
AcDbEntity
  8
0
  6
Continuous
 62
     7
100
AcDbPolyline
 90
        2
 70
     0
 43
0.15
 10
471.323715271147
 20
232.499923557
 10
471.323715271147
 20
232.3999218642
  0
LWPOLYLINE
  5
169
330
44
100
AcDbEntity
  8
0
  6
Continuous
 62
     7
100
AcDbPolyline
 90
        2
 70
     0
 43
0.15
 10
474.940585884947
 20
232.3999218642
 10
471.323715271147
 20
232.3999218642
  0
LWPOLYLINE
  5
16A
330
44
100
AcDbEntity
  8
0
  6
Continuous
 62
     7
100
AcDbPolyline
 90
        2
 70
     0
 43
0.15
 10
474.940585884947
 20
232.3999218642
 10
474.940585884947
 20
232.499923557
  0
LWPOLYLINE
  5
16B
330
44
100
AcDbEntity
  8
0
  6
Continuous
 62
     7
100
AcDbPolyline
 90
        2
 70
     0
 43
0.15
 10
487.092311009547
 20
232.499923557
 10
474.940585884947
 20
232.499923557
  0
LWPOLYLINE
  5
16C
330
44
100
AcDbEntity
  8
0
  6
Continuous
 62
     7
100
AcDbPolyline
 90
        2
 70
     0
 43
0.15
 10
488.092311173447
 20
228.4999154508
 10
489.592310487947
 20
228.4999154508
  0
LWPOLYLINE
  5
16D
330
44
100
AcDbEntity
  8
0
  6
Continuous
 62
     7
100
AcDbPolyline
 90
        2
 70
     0
 43
0.15
 10
488.092311173447
 20
229.9999259412
 10
488.092311173447
 20
228.4999154508
  0
LWPOLYLINE
  5
16E
330
44
100
AcDbEntity
  8
0
  6
Continuous
 62
     7
100
AcDbPolyline
 90
        2
 70
     0
 43
0.15
 10
449.092310368747
 20
228.4999154508
 10
449.092310368747
 20
229.9999259412
  0
LWPOLYLINE
  5
16F
330
44
100
AcDbEntity
  8
0
  6
Continuous
 62
     7
100
AcDbPolyline
 90
        2
 70
     0
 43
0.15
 10
489.592310487947
 20
229.9999259412
 10
489.592310487947
 20
228.4999154508
  0
LWPOLYLINE
  5
170
330
44
100
AcDbEntity
  8
0
  6
Continuous
 62
     7
100
AcDbPolyline
 90
        2
 70
     0
 43
0.15
 10
450.592311545947
 20
228.4999154508
 10
450.592311545947
 20
229.9999259412
  0
LWPOLYLINE
  5
171
330
44
100
AcDbEntity
  8
0
  6
Continuous
 62
     7
100
AcDbPolyline
 90
        2
 70
     0
 43
0.15
 10
449.092310368747
 20
228.4999154508
 10
450.592311545947
 20
228.4999154508
  0
LWPOLYLINE
  5
172
330
44
100
AcDbEntity
  8
0
  6
Continuous
 62
     7
100
AcDbPolyline
 90
        2
 70
     0
 43
0.15
 10
529.092310443247
 20
228.4999154508
 10
530.592309757847
 20
228.4999154508
  0
LWPOLYLINE
  5
173
330
44
100
AcDbEntity
  8
0
  6
Continuous
 62
     7
100
AcDbPolyline
 90
        2
 70
     0
 43
0.15
 10
535.842309221347
 20
232.499923557
 10
531.592311784347
 20
232.499923557
  0
LWPOLYLINE
  5
174
330
44
100
AcDbEntity
  8
0
  6
Continuous
 62
     7
100
AcDbPolyline
 90
        2
 70
     0
 43
0.15
 10
538.3423142877471
 20
227.4999134242
 10
538.3423142877471
 20
229.9999259412
  0
LWPOLYLINE
  5
175
330
44
100
AcDbEntity
  8
0
  6
Continuous
 62
     7
100
AcDbPolyline
 90
        2
 70
     0
 43
0.15
 10
538.3423142877471
 20
227.4999134242
 10
536.842311247947
 20
227.4999134242
  0
LWPOLYLINE
  5
176
330
44
100
AcDbEntity
  8
0
  6
Continuous
 62
     7
100
AcDbPolyline
 90
        2
 70
     0
 43
0.15
 10
536.842311247947
 20
227.4999134242
 10
536.842311247947
 20
229.9999259412
  0
LWPOLYLINE
  5
177
330
44
100
AcDbEntity
  8
0
  6
Continuous
 62
     7
100
AcDbPolyline
 90
        2
 70
     0
 43
0.15
 10
535.842309221347
 20
230.9999130666
 10
531.592311784347
 20
230.9999130666
  0
LWPOLYLINE
  5
178
330
44
100
AcDbEntity
  8
0
  6
Continuous
 62
     7
100
AcDbPolyline
 90
        2
 70
     0
 43
0.15
 10
529.092310443247
 20
228.4999154508
 10
529.092310443247
 20
229.9999259412
  0
LWPOLYLINE
  5
179
330
44
100
AcDbEntity
  8
0
  6
Continuous
 62
     7
100
AcDbPolyline
 90
        2
 70
     0
 43
0.15
 10
530.592309757847
 20
228.4999154508
 10
530.592309757847
 20
229.9999259412
  0
LWPOLYLINE
  5
17A
330
44
100
AcDbEntity
  8
0
  6
Continuous
 62
     7
100
AcDbPolyline
 90
        2
 70
     0
 43
0.15
 10
469.202395626147
 20
232.499923557
 10
467.081075631747
 20
232.499923557
  0
LWPOLYLINE
  5
17B
330
44
100
AcDbEntity
  8
0
  6
Continuous
 62
     7
100
AcDbPolyline
 90
        2
 70
     0
 43
0.15
 10
473.308927360647
 20
232.3999218642
 10
473.308927360647
 20
232.499923557
  0
LWPOLYLINE
  5
17C
330
44
100
AcDbEntity
  8
0
  6
Continuous
 62
     7
100
AcDbPolyline
 90
        2
 70
     0
 43
0.15
 10
474.940585884947
 20
232.499923557
 10
473.308927360647
 20
232.499923557
  0
LWPOLYLINE
  5
17D
330
44
100
AcDbEntity
  8
0
  6
Continuous
 62
     7
100
AcDbPolyline
 90
        2
 70
     0
 43
0.15
 10
473.308927360647
 20
232.499923557
 10
471.323715271147
 20
232.499923557
  0
LWPOLYLINE
  5
17E
330
44
100
AcDbEntity
  8
0
  6
Continuous
 62
     7
100
AcDbPolyline
 90
        2
 70
     0
 43
0.15
 10
497.092310786047
 20
229.9999259412
 10
489.592310487947
 20
229.9999259412
  0
LWPOLYLINE
  5
17F
330
44
100
AcDbEntity
  8
0
  6
Continuous
 62
     7
100
AcDbPolyline
 90
        2
 70
     0
 43
0.15
 10
487.092311009547
 20
232.499923557
 10
499.592310264447
 20
232.499923557
  0
LWPOLYLINE
  5
180
330
44
100
AcDbEntity
  8
0
  6
Continuous
 62
     7
100
AcDbPolyline
 90
        2
 70
     0
 43
0.15
 10
497.092310786047
 20
228.4999154508
 10
489.592310487947
 20
228.4999154508
  0
LWPOLYLINE
  5
181
330
44
100
AcDbEntity
  8
0
  6
Continuous
 62
     7
100
AcDbPolyline
 90
        2
 70
     0
 43
0.15
 10
449.092310368747
 20
229.9999259412
 10
441.592310070747
 20
229.9999259412
  0
LWPOLYLINE
  5
182
330
44
100
AcDbEntity
  8
0
  6
Continuous
 62
     7
100
AcDbPolyline
 90
        2
 70
     0
 43
0.15
 10
439.092310592247
 20
232.499923557
 10
451.592311709847
 20
232.499923557
  0
LWPOLYLINE
  5
183
330
44
100
AcDbEntity
  8
0
  6
Continuous
 62
     7
100
AcDbPolyline
 90
        2
 70
     0
 43
0.15
 10
449.092310368747
 20
228.4999154508
 10
441.592310070747
 20
228.4999154508
  0
LWPOLYLINE
  5
184
330
44
100
AcDbEntity
  8
0
  6
Continuous
 62
     7
100
AcDbPolyline
 90
        2
 70
     0
 43
0.15
 10
477.842310890347
 20
230.9999130666
 10
477.842310890347
 20
229.9999259412
  0
LWPOLYLINE
  5
185
330
44
100
AcDbEntity
  8
0
  6
Continuous
 62
     7
100
AcDbPolyline
 90
        2
 70
     0
 43
0.15
 10
460.842310897747
 20
229.9999259412
 10
477.842310890347
 20
229.9999259412
  0
LWPOLYLINE
  5
186
330
44
100
AcDbEntity
  8
0
  6
Continuous
 62
     7
100
AcDbPolyline
 90
        2
 70
     0
 43
0.15
 10
460.842310897747
 20
229.9999259412
 10
460.842310897747
 20
230.9999130666
  0
LWPOLYLINE
  5
187
330
44
100
AcDbEntity
  8
0
  6
Continuous
 62
     7
100
AcDbPolyline
 90
        2
 70
     0
 43
0.15
 10
477.842310890347
 20
228.4999154508
 10
477.842310890347
 20
229.9999259412
  0
LWPOLYLINE
  5
188
330
44
100
AcDbEntity
  8
0
  6
Continuous
 62
     7
100
AcDbPolyline
 90
        2
 70
     0
 43
0.15
 10
460.842310897747
 20
228.4999154508
 10
460.842310897747
 20
229.9999259412
  0
LWPOLYLINE
  5
189
330
44
100
AcDbEntity
  8
0
  6
Continuous
 62
     7
100
AcDbPolyline
 90
        2
 70
     0
 43
0.15
 10
460.842310897747
 20
228.4999154508
 10
477.842310890347
 20
228.4999154508
  0
LWPOLYLINE
  5
18A
330
44
100
AcDbEntity
  8
0
  6
Continuous
 62
     7
100
AcDbPolyline
 90
        2
 70
     0
 43
0.15
 10
477.842310890347
 20
228.4999154508
 10
483.092310353847
 20
228.4999154508
  0
LWPOLYLINE
  5
18B
330
44
100
AcDbEntity
  8
0
  6
Continuous
 62
     7
100
AcDbPolyline
 90
        2
 70
     0
 43
0.15
 10
455.592310502847
 20
228.4999154508
 10
460.842310897747
 20
228.4999154508
  0
LWPOLYLINE
  5
18C
330
44
100
AcDbEntity
  8
0
  6
Continuous
 62
     7
100
AcDbPolyline
 90
        2
 70
     0
 43
0.15
 10
513.092311545947
 20
229.9999259412
 10
505.592311247947
 20
229.9999259412
  0
LWPOLYLINE
  5
18D
330
44
100
AcDbEntity
  8
0
  6
Continuous
 62
     7
100
AcDbPolyline
 90
        2
 70
     0
 43
0.15
 10
503.092309906847
 20
232.499923557
 10
515.5923091617469
 20
232.499923557
  0
LWPOLYLINE
  5
18E
330
44
100
AcDbEntity
  8
0
  6
Continuous
 62
     7
100
AcDbPolyline
 90
        2
 70
     0
 43
0.15
 10
513.092311545947
 20
228.4999154508
 10
505.592311247947
 20
228.4999154508
  0
LWPOLYLINE
  5
18F
330
44
100
AcDbEntity
  8
0
  6
Continuous
 62
     7
100
AcDbPolyline
 90
        2
 70
     0
 43
0.15
 10
433.092309608847
 20
229.9999259412
 10
425.592309310747
 20
229.9999259412
  0
LWPOLYLINE
  5
190
330
44
100
AcDbEntity
  8
0
  6
Continuous
 62
     7
100
AcDbPolyline
 90
        2
 70
     0
 43
0.15
 10
433.092309608847
 20
228.4999154508
 10
425.592309310747
 20
228.4999154508
  0
LWPOLYLINE
  5
191
330
44
100
AcDbEntity
  8
0
  6
Continuous
 62
     7
100
AcDbPolyline
 90
        2
 70
     0
 43
0.15
 10
423.092311694947
 20
232.499923557
 10
435.592310949947
 20
232.499923557
  0
LWPOLYLINE
  5
192
330
44
100
AcDbEntity
  8
0
  6
Continuous
 62
     7
100
AcDbPolyline
 90
        2
 70
     0
 43
0.15
 10
450.592311545947
 20
228.4999154508
 10
455.592310502847
 20
228.4999154508
  0
LWPOLYLINE
  5
193
330
44
100
AcDbEntity
  8
0
  6
Continuous
 62
     7
100
AcDbPolyline
 90
        2
 70
     0
 43
0.15
 10
483.092310353847
 20
228.4999154508
 10
488.092311173447
 20
228.4999154508
  0
LWPOLYLINE
  5
194
330
44
100
AcDbEntity
  8
0
  6
Continuous
 62
     7
100
AcDbPolyline
 90
        2
 70
     0
 43
0.15
 10
498.592310100547
 20
228.4999154508
 10
499.092311113847
 20
228.4999154508
  0
LWPOLYLINE
  5
195
330
44
100
AcDbEntity
  8
0
  6
Continuous
 62
     7
100
AcDbPolyline
 90
        2
 70
     0
 43
0.15
 10
439.592311605547
 20
228.4999154508
 10
440.092310756247
 20
228.4999154508
  0
LWPOLYLINE
  5
196
330
44
100
AcDbEntity
  8
0
  6
Continuous
 62
     7
100
AcDbPolyline
 90
        2
 70
     0
 43
0.15
 10
529.092310443247
 20
229.9999259412
 10
521.592310145247
 20
229.9999259412
  0
LWPOLYLINE
  5
197
330
44
100
AcDbEntity
  8
0
  6
Continuous
 62
     7
100
AcDbPolyline
 90
        2
 70
     0
 43
0.15
 10
519.092312529447
 20
232.499923557
 10
531.592311784347
 20
232.499923557
  0
LWPOLYLINE
  5
198
330
44
100
AcDbEntity
  8
0
  6
Continuous
 62
     7
100
AcDbPolyline
 90
        2
 70
     0
 43
0.15
 10
529.092310443247
 20
228.4999154508
 10
521.592310145247
 20
228.4999154508
  0
LWPOLYLINE
  5
199
330
44
100
AcDbEntity
  8
0
  6
Continuous
 62
     7
100
AcDbPolyline
 90
        2
 70
     0
 43
0.15
 10
417.092310711447
 20
229.9999259412
 10
409.592310413447
 20
229.9999259412
  0
LWPOLYLINE
  5
19A
330
44
100
AcDbEntity
  8
0
  6
Continuous
 62
     7
100
AcDbPolyline
 90
        2
 70
     0
 43
0.15
 10
407.092309072347
 20
232.499923557
 10
419.592312052647
 20
232.499923557
  0
LWPOLYLINE
  5
19B
330
44
100
AcDbEntity
  8
0
  6
Continuous
 62
     7
100
AcDbPolyline
 90
        2
 70
     0
 43
0.15
 10
417.092310711447
 20
228.4999154508
 10
409.592310413447
 20
228.4999154508
  0
LWPOLYLINE
  5
19C
330
44
100
AcDbEntity
  8
0
  6
Continuous
 62
     7
100
AcDbPolyline
 90
        2
 70
     0
 43
0.15
 10
514.5923108605471
 20
228.4999154508
 10
515.092311873747
 20
228.4999154508
  0
LWPOLYLINE
  5
19D
330
44
100
AcDbEntity
  8
0
  6
Continuous
 62
     7
100
AcDbPolyline
 90
        2
 70
     0
 43
0.15
 10
434.592308923347
 20
228.4999154508
 10
439.592311605547
 20
228.4999154508
  0
LWPOLYLINE
  5
19E
330
44
100
AcDbEntity
  8
0
  6
Continuous
 62
     7
100
AcDbPolyline
 90
        2
 70
     0
 43
0.15
 10
499.092311113847
 20
228.4999154508
 10
504.092311933347
 20
228.4999154508
  0
LWPOLYLINE
  5
19F
330
44
100
AcDbEntity
  8
0
  6
Continuous
 62
     7
100
AcDbPolyline
 90
        2
 70
     0
 43
0.15
 10
423.592308982947
 20
228.4999154508
 10
424.092309996247
 20
228.4999154508
  0
LWPOLYLINE
  5
1A0
330
44
100
AcDbEntity
  8
0
  6
Continuous
 62
     7
100
AcDbPolyline
 90
        2
 70
     0
 43
0.15
 10
401.842313334147
 20
229.9999259412
 10
403.342308923347
 20
229.9999259412
  0
LWPOLYLINE
  5
1A1
330
44
100
AcDbEntity
  8
0
  6
Continuous
 62
     7
100
AcDbPolyline
 90
        2
 70
     0
 43
0.15
 10
403.342308923347
 20
230.9999130666
 10
403.342308923347
 20
229.9999259412
  0
LWPOLYLINE
  5
1A2
330
44
100
AcDbEntity
  8
0
  6
Continuous
 62
     7
100
AcDbPolyline
 90
        2
 70
     0
 43
0.15
 10
535.342308208147
 20
229.9999259412
 10
536.842311247947
 20
229.9999259412
  0
LWPOLYLINE
  5
1A3
330
44
100
AcDbEntity
  8
0
  6
Continuous
 62
     7
100
AcDbPolyline
 90
        2
 70
     0
 43
0.15
 10
535.342308208147
 20
230.9999130666
 10
535.342308208147
 20
229.9999259412
  0
LWPOLYLINE
  5
1A4
330
44
100
AcDbEntity
  8
0
  6
Continuous
 62
     7
100
AcDbPolyline
 90
        2
 70
     0
 43
0.15
 10
403.342308923347
 20
227.4999134242
 10
403.342308923347
 20
229.9999259412
  0
LWPOLYLINE
  5
1A5
330
44
100
AcDbEntity
  8
0
  6
Continuous
 62
     7
100
AcDbPolyline
 90
        2
 70
     0
 43
0.15
 10
535.342308208147
 20
229.9999259412
 10
535.342308208147
 20
227.4999134242
  0
LWPOLYLINE
  5
1A6
330
44
100
AcDbEntity
  8
0
  6
Continuous
 62
     7
100
AcDbPolyline
 90
        2
 70
     0
 43
0.15
 10
534.342313632147
 20
227.4999134242
 10
526.342312320847
 20
227.4999134242
  0
LWPOLYLINE
  5
1A7
330
44
100
AcDbEntity
  8
0
  6
Continuous
 62
     7
100
AcDbPolyline
 90
        2
 70
     0
 43
0.15
 10
522.842308953147
 20
227.4999134242
 10
498.842310607147
 20
227.4999134242
  0
LWPOLYLINE
  5
1A8
330
44
100
AcDbEntity
  8
0
  6
Continuous
 62
     7
100
AcDbPolyline
 90
        2
 70
     0
 43
0.15
 10
495.342310964847
 20
227.4999134242
 10
443.342309891947
 20
227.4999134242
  0
LWPOLYLINE
  5
1A9
330
44
100
AcDbEntity
  8
0
  6
Continuous
 62
     7
100
AcDbPolyline
 90
        2
 70
     0
 43
0.15
 10
439.842310249547
 20
227.4999134242
 10
415.842311903547
 20
227.4999134242
  0
LWPOLYLINE
  5
1AA
330
44
100
AcDbEntity
  8
0
  6
Continuous
 62
     7
100
AcDbPolyline
 90
        2
 70
     0
 43
0.15
 10
412.342312261247
 20
227.4999134242
 10
404.342310949947
 20
227.4999134242
  0
LWPOLYLINE
  5
1AB
330
44
100
AcDbEntity
  8
0
  6
Continuous
 62
     7
100
AcDbPolyline
 90
        2
 70
     0
 43
0.15
 10
538.842307850447
 20
68.2907681912
 10
538.842307850447
 20
77.00000330800002
  0
LWPOLYLINE
  5
1AC
330
44
100
AcDbEntity
  8
0
  6
Continuous
 62
     7
100
AcDbPolyline
 90
        2
 70
     0
 43
0.15
 10
399.842309280947
 20
77.00000330800002
 10
399.842309280947
 20
68.2907681912
  0
LWPOLYLINE
  5
1AD
330
44
100
AcDbEntity
  8
0
  6
Continuous
 62
     7
100
AcDbPolyline
 90
        2
 70
     0
 43
0.15
 10
399.842309280947
 20
68.2907681912
 10
392.342308982947
 20
61.66812591249997
  0
LWPOLYLINE
  5
1AE
330
44
100
AcDbEntity
  8
0
  6
Continuous
 62
     7
100
AcDbPolyline
 90
        2
 70
     0
 43
0.15
 10
546.342308148447
 20
61.66812591249997
 10
538.842307850447
 20
68.2907681912
  0
LWPOLYLINE
  5
1AF
330
44
100
AcDbEntity
  8
0
  6
Continuous
 62
     7
100
AcDbPolyline
 90
        2
 70
     0
 43
0.15
 10
546.342308148447
 20
59.00000222020002
 10
392.342308982947
 20
59.00000222020002
  0
LWPOLYLINE
  5
1B0
330
44
100
AcDbEntity
  8
0
  6
Continuous
 62
     7
100
AcDbPolyline
 90
        2
 70
     0
 43
0.15
 10
546.342308148447
 20
59.00000222020002
 10
546.342308148447
 20
61.66812591249997
  0
LWPOLYLINE
  5
1B1
330
44
100
AcDbEntity
  8
0
  6
Continuous
 62
     7
100
AcDbPolyline
 90
        2
 70
     0
 43
0.15
 10
392.342308982947
 20
61.66812591249997
 10
392.342308982947
 20
59.00000222020002
  0
LWPOLYLINE
  5
1B2
330
44
100
AcDbEntity
  8
0
  6
Continuous
 62
     7
100
AcDbPolyline
 90
        2
 70
     0
 43
0.15
 10
532.592313810947
 20
73.00000265240003
 10
406.092310771147
 20
73.00000265240003
  0
LWPOLYLINE
  5
1B3
330
44
100
AcDbEntity
  8
0
  6
Continuous
 62
     7
100
AcDbPolyline
 90
        2
 70
     0
 43
0.15
 10
532.592313810947
 20
73.00000265240003
 10
532.592313810947
 20
70.70000283419999
  0
LWPOLYLINE
  5
1B4
330
44
100
AcDbEntity
  8
0
  6
Continuous
 62
     7
100
AcDbPolyline
 90
        2
 70
     0
 43
0.15
 10
532.592313810947
 20
70.70000283419999
 10
406.092310771147
 20
70.70000283419999
  0
LWPOLYLINE
  5
1B5
330
44
100
AcDbEntity
  8
0
  6
Continuous
 62
     7
100
AcDbPolyline
 90
        2
 70
     0
 43
0.15
 10
406.092310771147
 20
70.70000283419999
 10
406.092310771147
 20
73.00000265240003
  0
LWPOLYLINE
  5
1B6
330
44
100
AcDbEntity
  8
0
  6
Continuous
 62
     7
100
AcDbPolyline
 90
        2
 70
     0
 43
0.15
 10
402.592311128747
 20
65.38282148540002
 10
402.592311128747
 20
68.05094517759998
  0
LWPOLYLINE
  5
1B7
330
44
100
AcDbEntity
  8
0
  6
Continuous
 62
     7
100
AcDbPolyline
 90
        2
 70
     0
 43
0.15
 10
395.914884730947
 20
59.48652885850002
 10
402.592311128747
 20
65.38282148540002
  0
LWPOLYLINE
  5
1B8
330
44
100
AcDbEntity
  8
0
  6
Continuous
 62
     7
100
AcDbPolyline
 90
        2
 70
     0
 43
0.15
 10
394.591080471647
 20
60.98570860919999
 10
395.914884730947
 20
59.48652885850002
  0
LWPOLYLINE
  5
1B9
330
44
100
AcDbEntity
  8
0
  6
Continuous
 62
     7
100
AcDbPolyline
 90
        2
 70
     0
 43
0.15
 10
392.342308982947
 20
59.00000222020002
 10
394.591080471647
 20
60.98570860919999
  0
LWPOLYLINE
  5
1BA
330
44
100
AcDbEntity
  8
0
  6
Continuous
 62
     7
100
AcDbPolyline
 90
        2
 70
     0
 43
0.15
 10
402.092310115447
 20
73.00000265240003
 10
402.092310115447
 20
77.00000330800002
  0
LWPOLYLINE
  5
1BB
330
44
100
AcDbEntity
  8
0
  6
Continuous
 62
     7
100
AcDbPolyline
 90
        2
 70
     0
 43
0.15
 10
406.092310771147
 20
73.00000265240003
 10
402.092310115447
 20
73.00000265240003
  0
LWPOLYLINE
  5
1BC
330
44
100
AcDbEntity
  8
0
  6
Continuous
 62
     7
100
AcDbPolyline
 90
        2
 70
     0
 43
0.15
 10
405.592309757847
 20
70.70000283419999
 10
406.092310771147
 20
70.70000283419999
  0
LWPOLYLINE
  5
1BD
330
44
100
AcDbEntity
  8
0
  6
Continuous
 62
     7
100
AcDbPolyline
 90
        2
 70
     0
 43
0.15
 10
402.592311128747
 20
68.05094517759998
 10
405.592309757847
 20
70.70000283419999
  0
LWPOLYLINE
  5
1BE
330
44
100
AcDbEntity
  8
0
  6
Continuous
 62
     7
100
AcDbPolyline
 90
        2
 70
     0
 43
0.15
 10
402.092310115447
 20
77.00000330800002
 10
399.842309280947
 20
77.00000330800002
  0
LWPOLYLINE
  5
1BF
330
44
100
AcDbEntity
  8
0
  6
Continuous
 62
     7
100
AcDbPolyline
 90
        2
 70
     0
 43
0.15
 10
536.592314466547
 20
77.00000330800002
 10
536.592314466547
 20
73.00000265240003
  0
LWPOLYLINE
  5
1C0
330
44
100
AcDbEntity
  8
0
  6
Continuous
 62
     7
100
AcDbPolyline
 90
        2
 70
     0
 43
0.15
 10
536.592314466547
 20
77.00000330800002
 10
536.342310234647
 20
77.00000330800002
  0
LWPOLYLINE
  5
1C1
330
44
100
AcDbEntity
  8
0
  6
Continuous
 62
     7
100
AcDbPolyline
 90
        2
 70
     0
 43
0.15
 10
536.592314466547
 20
73.00000265240003
 10
532.592313810947
 20
73.00000265240003
  0
LWPOLYLINE
  5
1C2
330
44
100
AcDbEntity
  8
0
  6
Continuous
 62
     7
100
AcDbPolyline
 90
        2
 70
     0
 43
0.15
 10
544.0935366598469
 20
60.98570860919999
 10
546.342308148447
 20
59.00000222020002
  0
LWPOLYLINE
  5
1C3
330
44
100
AcDbEntity
  8
0
  6
Continuous
 62
     7
100
AcDbPolyline
 90
        2
 70
     0
 43
0.15
 10
536.0923134533471
 20
65.38282148540002
 10
542.769732400547
 20
59.48652885850002
  0
LWPOLYLINE
  5
1C4
330
44
100
AcDbEntity
  8
0
  6
Continuous
 62
     7
100
AcDbPolyline
 90
        2
 70
     0
 43
0.15
 10
536.0923134533471
 20
68.05094517759998
 10
536.0923134533471
 20
65.38282148540002
  0
LWPOLYLINE
  5
1C5
330
44
100
AcDbEntity
  8
0
  6
Continuous
 62
     7
100
AcDbPolyline
 90
        2
 70
     0
 43
0.15
 10
533.0923073736469
 20
70.70000283419999
 10
536.0923134533471
 20
68.05094517759998
  0
LWPOLYLINE
  5
1C6
330
44
100
AcDbEntity
  8
0
  6
Continuous
 62
     7
100
AcDbPolyline
 90
        2
 70
     0
 43
0.15
 10
542.769732400547
 20
59.48652885850002
 10
544.0935366598469
 20
60.98570860919999
  0
LWPOLYLINE
  5
1C7
330
44
100
AcDbEntity
  8
0
  6
Continuous
 62
     7
100
AcDbPolyline
 90
        2
 70
     0
 43
0.15
 10
532.592313810947
 20
70.70000283419999
 10
533.0923073736469
 20
70.70000283419999
  0
LWPOLYLINE
  5
1C8
330
44
100
AcDbEntity
  8
0
  6
Continuous
 62
     7
100
AcDbPolyline
 90
        2
 70
     0
 43
0.15
 10
538.842307850447
 20
77.00000330800002
 10
536.592314466547
 20
77.00000330800002
  0
LWPOLYLINE
  5
1C9
330
44
100
AcDbEntity
  8
0
  6
Continuous
 62
     7
100
AcDbPolyline
 90
        2
 70
     0
 43
0.15
 10
468.342310788347
 20
65.38282148540002
 10
470.342310825147
 20
65.38282148540002
  0
LWPOLYLINE
  5
1CA
330
44
100
AcDbEntity
  8
0
  6
Continuous
 62
     7
100
AcDbPolyline
 90
        2
 70
     0
 43
0.15
 10
468.342310788329
 20
68.04433092472202
 10
468.342310788347
 20
65.38282148540002
  0
LWPOLYLINE
  5
1CB
330
44
100
AcDbEntity
  8
0
  6
Continuous
 62
     7
100
AcDbPolyline
 90
        2
 70
     0
 43
0.15
 10
470.342310825117
 20
68.04433092472202
 10
470.342310825147
 20
65.38282148540002
  0
LWPOLYLINE
  5
1CC
330
44
100
AcDbEntity
  8
0
  6
Continuous
 62
     7
100
AcDbPolyline
 90
        2
 70
     0
 43
0.15
 10
468.342310788347
 20
59.48652885850002
 10
470.342310825147
 20
59.48652885850002
  0
LWPOLYLINE
  5
1CD
330
44
100
AcDbEntity
  8
0
  6
Continuous
 62
     7
100
AcDbPolyline
 90
        2
 70
     0
 43
0.15
 10
468.342310788347
 20
65.38282148540002
 10
468.342310788347
 20
59.48652885850002
  0
LWPOLYLINE
  5
1CE
330
44
100
AcDbEntity
  8
0
  6
Continuous
 62
     7
100
AcDbPolyline
 90
        2
 70
     0
 43
0.15
 10
470.342310825147
 20
65.38282148540002
 10
470.342310825147
 20
59.48652885850002
  0
LWPOLYLINE
  5
1CF
330
44
100
AcDbEntity
  8
0
  6
Continuous
 62
     7
100
AcDbPolyline
 90
        2
 70
     0
 43
0.15
 10
534.092309400147
 20
127.2014938295
 10
534.092309400147
 20
127.7014873922
  0
LWPOLYLINE
  5
1D0
330
44
100
AcDbEntity
  8
0
  6
Continuous
 62
     7
100
AcDbPolyline
 90
        2
 70
     0
 43
0.15
 10
536.0923134533471
 20
129.7014914453
 10
546.592312380447
 20
129.7014914453
  0
LWPOLYLINE
  5
1D1
330
44
100
AcDbEntity
  8
0
  6
Continuous
 62
     7
100
AcDbPolyline
 90
        2
 70
     0
 43
0.15
 10
546.592312380447
 20
129.7014914453
 10
546.592312380447
 20
127.2014938295
  0
LWPOLYLINE
  5
1D2
330
44
100
AcDbEntity
  8
0
  6
Continuous
 62
     7
100
AcDbPolyline
 90
        2
 70
     0
 43
0.15
 10
546.592312380447
 20
127.2014938295
 10
545.437613948947
 20
125.2014897763
  0
LWPOLYLINE
  5
1D3
330
44
100
AcDbEntity
  8
0
  6
Continuous
 62
     7
100
AcDbPolyline
 90
        2
 70
     0
 43
0.15
 10
545.437613948947
 20
125.2014897763
 10
538.592311069147
 20
125.2014897763
  0
LWPOLYLINE
  5
1D4
330
44
100
AcDbEntity
  8
0
  6
Continuous
 62
     7
100
AcDbPolyline
 90
        2
 70
     0
 43
0.15
 10
536.592314466547
 20
127.2014938295
 10
534.092309400147
 20
127.2014938295
  0
LWPOLYLINE
  5
1D5
330
44
100
AcDbEntity
  8
0
  6
Continuous
 62
     7
100
AcDbPolyline
 90
        2
 70
     0
 43
0.15
 10
400.092313512947
 20
125.2014897763
 10
538.592311069147
 20
125.2014897763
  0
LWPOLYLINE
  5
1D6
330
44
100
AcDbEntity
  8
0
  6
Continuous
 62
     7
100
AcDbPolyline
 90
        2
 70
     0
 43
0.15
 10
400.092313512947
 20
125.2014897763
 10
393.247010633147
 20
125.2014897763
  0
LWPOLYLINE
  5
1D7
330
44
100
AcDbEntity
  8
0
  6
Continuous
 62
     7
100
AcDbPolyline
 90
        2
 70
     0
 43
0.15
 10
393.247010633147
 20
125.2014897763
 10
392.092312201647
 20
127.2014938295
  0
LWPOLYLINE
  5
1D8
330
44
100
AcDbEntity
  8
0
  6
Continuous
 62
     7
100
AcDbPolyline
 90
        2
 70
     0
 43
0.15
 10
392.092312201647
 20
127.2014938295
 10
392.092312201647
 20
129.7014914453
  0
LWPOLYLINE
  5
1D9
330
44
100
AcDbEntity
  8
0
  6
Continuous
 62
     7
100
AcDbPolyline
 90
        2
 70
     0
 43
0.15
 10
392.092312201647
 20
129.7014914453
 10
402.592311128747
 20
129.7014914453
  0
LWPOLYLINE
  5
1DA
330
44
100
AcDbEntity
  8
0
  6
Continuous
 62
     7
100
AcDbPolyline
 90
        2
 70
     0
 43
0.15
 10
404.592307731247
 20
127.7014873922
 10
404.592307731247
 20
127.2014938295
  0
LWPOLYLINE
  5
1DB
330
44
100
AcDbEntity
  8
0
  6
Continuous
 62
     7
100
AcDbPolyline
 90
        2
 70
     0
 43
0.15
 10
404.592307731247
 20
127.2014938295
 10
402.092310115447
 20
127.2014938295
  0
LWPOLYLINE
  5
1DC
330
44
100
AcDbEntity
  8
0
  6
Continuous
 62
     7
100
AcDbPolyline
 90
        2
 70
     0
 43
0.15
 10
404.592307731247
 20
127.7014873922
 10
534.092309400147
 20
127.7014873922
  0
LWPOLYLINE
  5
1DD
330
44
100
AcDbEntity
  8
0
  6
Continuous
 62
     7
100
AcDbPolyline
 90
        2
 70
     0
 43
0.15
 10
402.592311128747
 20
129.7014914453
 10
536.0923134533471
 20
129.7014914453
  0
LWPOLYLINE
  5
1DE
330
44
100
AcDbEntity
  8
0
  6
Continuous
 62
     7
100
AcDbPolyline
 90
        2
 70
     0
 43
0.15
 10
404.592307731247
 20
127.2014938295
 10
534.092309400147
 20
127.2014938295
  0
LWPOLYLINE
  5
1DF
330
44
100
AcDbEntity
  8
0
  6
Continuous
 62
     7
100
AcDbPolyline
 90
        2
 70
     0
 43
0.15
 10
546.342308148447
 20
129.8000030219
 10
392.342308982947
 20
129.8000030219
  0
LWPOLYLINE
  5
1E0
330
44
100
AcDbEntity
  8
0
  6
Continuous
 62
     7
100
AcDbPolyline
 90
        2
 70
     0
 43
0.15
 10
546.342308148447
 20
129.8000030219
 10
546.342308148447
 20
125.2014897763
  0
LWPOLYLINE
  5
1E1
330
44
100
AcDbEntity
  8
0
  6
Continuous
 62
     7
100
AcDbPolyline
 90
        2
 70
     0
 43
0.15
 10
392.342308982947
 20
125.2014897763
 10
392.342308982947
 20
129.8000030219
  0
LWPOLYLINE
  5
1E2
330
44
100
AcDbEntity
  8
0
  6
Continuous
 62
     7
100
AcDbPolyline
 90
        2
 70
     0
 43
0.15
 10
544.8423125592469
 20
135.0569166243
 10
393.842312022847
 20
135.0569166243
  0
LWPOLYLINE
  5
1E3
330
44
100
AcDbEntity
  8
0
  6
Continuous
 62
     7
100
AcDbPolyline
 90
        2
 70
     0
 43
0.15
 10
544.8423125592469
 20
135.0569166243
 10
544.8423125592469
 20
130.7999975979
  0
LWPOLYLINE
  5
1E4
330
44
100
AcDbEntity
  8
0
  6
Continuous
 62
     7
100
AcDbPolyline
 90
        2
 70
     0
 43
0.15
 10
544.8423125592469
 20
130.7999975979
 10
393.842312022847
 20
130.7999975979
  0
LWPOLYLINE
  5
1E5
330
44
100
AcDbEntity
  8
0
  6
Continuous
 62
     7
100
AcDbPolyline
 90
        2
 70
     0
 43
0.15
 10
393.842312022847
 20
130.7999975979
 10
393.842312022847
 20
135.0569166243
  0
LWPOLYLINE
  5
1E6
330
44
100
AcDbEntity
  8
0
  6
Continuous
 62
     7
100
AcDbPolyline
 90
        2
 70
     0
 43
0.15
 10
393.842312022847
 20
135.0569166243
 10
394.592220410447
 20
135.5000026524
  0
LWPOLYLINE
  5
1E7
330
44
100
AcDbEntity
  8
0
  6
Continuous
 62
     7
100
AcDbPolyline
 90
        2
 70
     0
 43
0.15
 10
544.092396721047
 20
135.5000026524
 10
394.592220410447
 20
135.5000026524
  0
LWPOLYLINE
  5
1E8
330
44
100
AcDbEntity
  8
0
  6
Continuous
 62
     7
100
AcDbPolyline
 90
        2
 70
     0
 43
0.15
 10
544.092396721047
 20
135.5000026524
 10
544.8423125592469
 20
135.0569166243
  0
LWPOLYLINE
  5
1E9
330
44
100
AcDbEntity
  8
0
  6
Continuous
 62
     7
100
AcDbPolyline
 90
        2
 70
     0
 43
0.15
 10
649.3423157182469
 20
156.5003432333
 10
649.3423157182469
 20
157.9999215901
  0
LWPOLYLINE
  5
1EA
330
44
100
AcDbEntity
  8
0
  6
Continuous
 62
     7
100
AcDbPolyline
 90
        2
 70
     0
 43
0.15
 10
289.342316314347
 20
157.9999215901
 10
289.342316314347
 20
156.5003432333
  0
LWPOLYLINE
  5
1EB
330
44
100
AcDbEntity
  8
0
  6
Continuous
 62
     7
100
AcDbPolyline
 90
        2
 70
     0
 43
0.15
 10
549.4423084703469
 20
138.6000029742
 10
551.592292710847
 20
142.4000002444
  0
LWPOLYLINE
  5
1EC
330
44
100
AcDbEntity
  8
0
  6
Continuous
 62
     7
100
AcDbPolyline
 90
        2
 70
     0
 43
0.15
 10
387.092331871147
 20
142.4000002444
 10
389.242308661047
 20
138.6000029742
  0
LWPOLYLINE
  5
1ED
330
44
100
AcDbEntity
  8
0
  6
Continuous
 62
     7
100
AcDbPolyline
 90
        2
 70
     0
 43
0.15
 10
536.342310234647
 20
73.00000265240003
 10
536.342310234647
 20
112.500000745
  0
LWPOLYLINE
  5
1EE
330
44
100
AcDbEntity
  8
0
  6
Continuous
 62
     7
100
AcDbPolyline
 90
        2
 70
     0
 43
0.15
 10
402.342314347347
 20
112.500000745
 10
402.342314347347
 20
73.00000265240003
  0
LWPOLYLINE
  5
1EF
330
44
100
AcDbEntity
  8
0
  6
Continuous
 62
     7
100
AcDbPolyline
 90
        2
 70
     0
 43
0.15
 10
538.7423136082471
 20
124.2014877498
 10
399.942310973747
 20
124.2014877498
  0
LWPOLYLINE
  5
1F0
330
44
100
AcDbEntity
  8
0
  6
Continuous
 62
     7
100
AcDbPolyline
 90
        2
 70
     0
 43
0.15
 10
399.942310973747
 20
117.000002414
 10
538.7423136082471
 20
117.000002414
  0
LWPOLYLINE
  5
1F1
330
44
100
AcDbEntity
  8
0
  6
Continuous
 62
     7
100
AcDbPolyline
 90
        2
 70
     0
 43
0.15
 10
404.842311963147
 20
116.0000003874
 10
533.842312618847
 20
116.0000003874
  0
LWPOLYLINE
  5
1F2
330
44
100
AcDbEntity
  8
0
  6
Continuous
 62
     7
100
AcDbPolyline
 90
        2
 70
     0
 43
0.15
 10
532.842310592247
 20
114.9999983608
 10
405.842310264447
 20
114.9999983608
  0
LWPOLYLINE
  5
1F3
330
44
100
AcDbEntity
  8
0
  6
Continuous
 62
     7
100
AcDbPolyline
 90
        2
 70
     0
 43
0.15
 10
548.1025674191469
 20
0.0
 10
549.4423084703469
 20
4.99999895689999
  0
LWPOLYLINE
  5
1F4
330
44
100
AcDbEntity
  8
0
  6
Continuous
 62
     7
100
AcDbPolyline
 90
        2
 70
     0
 43
0.15
 10
389.242308661047
 20
4.99999895689999
 10
390.582057162847
 20
0.0
  0
LWPOLYLINE
  5
1F5
330
44
100
AcDbEntity
  8
0
  6
Continuous
 62
     7
100
AcDbPolyline
 90
        2
 70
     0
 43
0.15
 10
301.342310830747
 20
157.9999215901
 10
301.342310830747
 20
156.5003432333
  0
LWPOLYLINE
  5
1F6
330
44
100
AcDbEntity
  8
0
  6
Continuous
 62
     7
100
AcDbPolyline
 90
        2
 70
     0
 43
0.15
 10
305.342304035747
 20
157.9999215901
 10
301.342310830747
 20
157.9999215901
  0
LWPOLYLINE
  5
1F7
330
44
100
AcDbEntity
  8
0
  6
Continuous
 62
     7
100
AcDbPolyline
 90
        2
 70
     0
 43
0.15
 10
305.342304035747
 20
156.5003432333
 10
305.342304035747
 20
157.9999215901
  0
LWPOLYLINE
  5
1F8
330
44
100
AcDbEntity
  8
0
  6
Continuous
 62
     7
100
AcDbPolyline
 90
        2
 70
     0
 43
0.15
 10
301.342310830747
 20
156.5003432333
 10
305.342304035747
 20
156.5003432333
  0
LWPOLYLINE
  5
1F9
330
44
100
AcDbEntity
  8
0
  6
Continuous
 62
     7
100
AcDbPolyline
 90
        2
 70
     0
 43
0.15
 10
633.342313095647
 20
157.9999215901
 10
633.342313095647
 20
156.5003432333
  0
LWPOLYLINE
  5
1FA
330
44
100
AcDbEntity
  8
0
  6
Continuous
 62
     7
100
AcDbPolyline
 90
        2
 70
     0
 43
0.15
 10
637.3423063007469
 20
157.9999215901
 10
633.342313095647
 20
157.9999215901
  0
LWPOLYLINE
  5
1FB
330
44
100
AcDbEntity
  8
0
  6
Continuous
 62
     7
100
AcDbPolyline
 90
        2
 70
     0
 43
0.15
 10
637.3423063007469
 20
156.5003432333
 10
637.3423063007469
 20
157.9999215901
  0
LWPOLYLINE
  5
1FC
330
44
100
AcDbEntity
  8
0
  6
Continuous
 62
     7
100
AcDbPolyline
 90
        2
 70
     0
 43
0.15
 10
633.342313095647
 20
156.5003432333
 10
637.3423063007469
 20
156.5003432333
  0
LWPOLYLINE
  5
1FD
330
44
100
AcDbEntity
  8
0
  6
Continuous
 62
     7
100
AcDbPolyline
 90
        2
 70
     0
 43
0.15
 10
299.342306777547
 20
159.9999181926
 10
307.342308088847
 20
159.9999181926
  0
LWPOLYLINE
  5
1FE
330
44
100
AcDbEntity
  8
0
  6
Continuous
 62
     7
100
AcDbPolyline
 90
        2
 70
     0
 43
0.15
 10
307.342308088847
 20
159.9999181926
 10
305.342304035747
 20
157.9999215901
  0
LWPOLYLINE
  5
1FF
330
44
100
AcDbEntity
  8
0
  6
Continuous
 62
     7
100
AcDbPolyline
 90
        2
 70
     0
 43
0.15
 10
301.342310830747
 20
157.9999215901
 10
299.342306777547
 20
159.9999181926
  0
LWPOLYLINE
  5
200
330
44
100
AcDbEntity
  8
0
  6
Continuous
 62
     7
100
AcDbPolyline
 90
        2
 70
     0
 43
0.15
 10
631.342309042547
 20
159.9999181926
 10
639.342310353847
 20
159.9999181926
  0
LWPOLYLINE
  5
201
330
44
100
AcDbEntity
  8
0
  6
Continuous
 62
     7
100
AcDbPolyline
 90
        2
 70
     0
 43
0.15
 10
639.342310353847
 20
159.9999181926
 10
637.3423063007469
 20
157.9999215901
  0
LWPOLYLINE
  5
202
330
44
100
AcDbEntity
  8
0
  6
Continuous
 62
     7
100
AcDbPolyline
 90
        2
 70
     0
 43
0.15
 10
633.342313095647
 20
157.9999215901
 10
631.342309042547
 20
159.9999181926
  0
LWPOLYLINE
  5
203
330
44
100
AcDbEntity
  8
0
  6
Continuous
 62
     7
100
AcDbPolyline
 90
        2
 70
     0
 43
0.15
 10
548.0922632662471
 20
143.301833421
 10
547.8423111883469
 20
143.301833421
  0
LWPOLYLINE
  5
204
330
44
100
AcDbEntity
  8
0
  6
Continuous
 62
     7
100
AcDbPolyline
 90
        2
 70
     0
 43
0.15
 10
390.842313393747
 20
143.301833421
 10
390.592361315847
 20
143.301833421
  0
LWPOLYLINE
  5
205
330
44
100
AcDbEntity
  8
0
  6
Continuous
 62
     7
100
AcDbPolyline
 90
        2
 70
     0
 43
0.15
 10
548.0922632662471
 20
143.301833421
 10
544.092396721047
 20
136.4000029862
  0
LWPOLYLINE
  5
206
330
44
100
AcDbEntity
  8
0
  6
Continuous
 62
     7
100
AcDbPolyline
 90
        2
 70
     0
 43
0.15
 10
544.092396721047
 20
136.4000029862
 10
394.592220410447
 20
136.4000029862
  0
LWPOLYLINE
  5
207
330
44
100
AcDbEntity
  8
0
  6
Continuous
 62
     7
100
AcDbPolyline
 90
        2
 70
     0
 43
0.15
 10
394.592220410447
 20
136.4000029862
 10
390.592361315847
 20
143.301833421
  0
LWPOLYLINE
  5
208
330
44
100
AcDbEntity
  8
0
  6
Continuous
 62
     7
100
AcDbPolyline
 90
        2
 70
     0
 43
0.15
 10
532.842310592247
 20
114.9999983608
 10
532.842310592247
 20
73.00000265240003
  0
LWPOLYLINE
  5
209
330
44
100
AcDbEntity
  8
0
  6
Continuous
 62
     7
100
AcDbPolyline
 90
        2
 70
     0
 43
0.15
 10
405.842310264447
 20
73.00000265240003
 10
405.842310264447
 20
114.9999983608
  0
LWPOLYLINE
  5
20A
330
44
100
AcDbEntity
  8
0
  6
Continuous
 62
     7
100
AcDbPolyline
 90
        2
 70
     0
 43
0.15
 10
538.7423136082471
 20
124.2014877498
 10
538.7423136082471
 20
117.000002414
  0
LWPOLYLINE
  5
20B
330
44
100
AcDbEntity
  8
0
  6
Continuous
 62
     7
100
AcDbPolyline
 90
        2
 70
     0
 43
0.15
 10
399.942310973747
 20
117.000002414
 10
399.942310973747
 20
124.2014877498
  0
LWPOLYLINE
  5
20C
330
44
100
AcDbEntity
  8
0
  6
Continuous
 62
     7
100
AcDbPolyline
 90
        2
 70
     0
 43
0.15
 10
549.4423084703469
 20
4.99999895689999
 10
549.4423084703469
 20
138.6000029742
  0
LWPOLYLINE
  5
20D
330
44
100
AcDbEntity
  8
0
  6
Continuous
 62
     7
100
AcDbPolyline
 90
        2
 70
     0
 43
0.15
 10
389.242308661047
 20
138.6000029742
 10
389.242308661047
 20
4.99999895689999
  0
LWPOLYLINE
  5
20E
330
44
100
AcDbEntity
  8
0
  6
Continuous
 62
     7
100
AcDbPolyline
 90
        2
 70
     0
 43
0.15
 10
392.092312201647
 20
0.0
 10
392.742308303447
 20
121.7019446194
  0
LWPOLYLINE
  5
20F
330
44
100
AcDbEntity
  8
0
  6
Continuous
 62
     7
100
AcDbPolyline
 90
        2
 70
     0
 43
0.15
 10
545.942308827947
 20
121.7019446194
 10
546.592312380447
 20
0.0
  0
LWPOLYLINE
  5
210
330
44
100
AcDbEntity
  8
0
  6
Continuous
 62
     7
100
AcDbPolyline
 90
        2
 70
     0
 43
0.15
 10
546.592312380447
 20
0.0
 10
392.092312201647
 20
0.0
  0
LWPOLYLINE
  5
211
330
44
100
AcDbEntity
  8
0
  6
Continuous
 62
     7
100
AcDbPolyline
 90
        2
 70
     0
 43
0.15
 10
542.2423132506469
 20
114.9999983608
 10
542.2423132506469
 20
121.7019446194
  0
LWPOLYLINE
  5
212
330
44
100
AcDbEntity
  8
0
  6
Continuous
 62
     7
100
AcDbPolyline
 90
        2
 70
     0
 43
0.15
 10
396.442311331347
 20
121.7019446194
 10
396.442311331347
 20
114.9999983608
  0
LWPOLYLINE
  5
213
330
44
100
AcDbEntity
  8
0
  6
Continuous
 62
     7
100
AcDbPolyline
 90
        2
 70
     0
 43
0.15
 10
389.592314585847
 20
159.9999181926
 10
390.842313393747
 20
159.9999181926
  0
LWPOLYLINE
  5
214
330
44
100
AcDbEntity
  8
0
  6
Continuous
 62
     7
100
AcDbPolyline
 90
        2
 70
     0
 43
0.15
 10
547.8423111883469
 20
159.9999181926
 10
549.092309996247
 20
159.9999181926
  0
LWPOLYLINE
  5
215
330
44
100
AcDbEntity
  8
0
  6
Continuous
 62
     7
100
AcDbPolyline
 90
        2
 70
     0
 43
0.15
 10
299.342306777547
 20
159.9999181926
 10
291.342305466247
 20
159.9999181926
  0
LWPOLYLINE
  5
216
330
44
100
AcDbEntity
  8
0
  6
Continuous
 62
     7
100
AcDbPolyline
 90
        2
 70
     0
 43
0.15
 10
289.342316314347
 20
156.5003432333
 10
301.342310830747
 20
156.5003432333
  0
LWPOLYLINE
  5
217
330
44
100
AcDbEntity
  8
0
  6
Continuous
 62
     7
100
AcDbPolyline
 90
        2
 70
     0
 43
0.15
 10
392.342308982947
 20
129.8000030219
 10
393.842312022847
 20
130.7999975979
  0
LWPOLYLINE
  5
218
330
44
100
AcDbEntity
  8
0
  6
Continuous
 62
     7
100
AcDbPolyline
 90
        2
 70
     0
 43
0.15
 10
544.8423125592469
 20
130.7999975979
 10
546.342308148447
 20
129.8000030219
  0
LWPOLYLINE
  5
219
330
44
100
AcDbEntity
  8
0
  6
Continuous
 62
     7
100
AcDbPolyline
 90
        2
 70
     0
 43
0.15
 10
551.592292710847
 20
142.4000002444
 10
551.592307612047
 20
156.5003432333
  0
LWPOLYLINE
  5
21A
330
44
100
AcDbEntity
  8
0
  6
Continuous
 62
     7
100
AcDbPolyline
 90
        2
 70
     0
 43
0.15
 10
387.092309519447
 20
156.5003432333
 10
387.092331871147
 20
142.4000002444
  0
LWPOLYLINE
  5
21B
330
44
100
AcDbEntity
  8
0
  6
Continuous
 62
     7
100
AcDbPolyline
 90
        2
 70
     0
 43
0.15
 10
544.092396721047
 20
136.4000029862
 10
544.092396721047
 20
135.5000026524
  0
LWPOLYLINE
  5
21C
330
44
100
AcDbEntity
  8
0
  6
Continuous
 62
     7
100
AcDbPolyline
 90
        2
 70
     0
 43
0.15
 10
394.592220410447
 20
135.5000026524
 10
394.592220410447
 20
136.4000029862
  0
LWPOLYLINE
  5
21D
330
44
100
AcDbEntity
  8
0
  6
Continuous
 62
     7
100
AcDbPolyline
 90
        2
 70
     0
 43
0.15
 10
390.592361315847
 20
143.301833421
 10
390.592316612347
 20
158.9999236166
  0
LWPOLYLINE
  5
21E
330
44
100
AcDbEntity
  8
0
  6
Continuous
 62
     7
100
AcDbPolyline
 90
        2
 70
     0
 43
0.15
 10
389.592314585847
 20
159.9999181926
 10
307.342308088847
 20
159.9999181926
  0
LWPOLYLINE
  5
21F
330
44
100
AcDbEntity
  8
0
  6
Continuous
 62
     7
100
AcDbPolyline
 90
        2
 70
     0
 43
0.15
 10
398.942308947247
 20
112.500000745
 10
402.342314347347
 20
112.500000745
  0
LWPOLYLINE
  5
220
330
44
100
AcDbEntity
  8
0
  6
Continuous
 62
     7
100
AcDbPolyline
 90
        2
 70
     0
 43
0.15
 10
392.742308303447
 20
121.7019446194
 10
396.442311331347
 20
121.7019446194
  0
LWPOLYLINE
  5
221
330
44
100
AcDbEntity
  8
0
  6
Continuous
 62
     7
100
AcDbPolyline
 90
        2
 70
     0
 43
0.15
 10
390.582057162847
 20
0.0
 10
392.092312201647
 20
0.0
  0
LWPOLYLINE
  5
222
330
44
100
AcDbEntity
  8
0
  6
Continuous
 62
     7
100
AcDbPolyline
 90
        2
 70
     0
 43
0.15
 10
398.942308947247
 20
125.2014897763
 10
392.342308982947
 20
125.2014897763
  0
LWPOLYLINE
  5
223
330
44
100
AcDbEntity
  8
0
  6
Continuous
 62
     7
100
AcDbPolyline
 90
        2
 70
     0
 43
0.15
 10
404.842311963147
 20
116.0000003874
 10
400.942313000347
 20
116.0000003874
  0
LWPOLYLINE
  5
224
330
44
100
AcDbEntity
  8
0
  6
Continuous
 62
     7
100
AcDbPolyline
 90
        2
 70
     0
 43
0.15
 10
402.342314347347
 20
73.00000265240003
 10
405.842310264447
 20
73.00000265240003
  0
LWPOLYLINE
  5
225
330
44
100
AcDbEntity
  8
0
  6
Continuous
 62
     7
100
AcDbPolyline
 90
        2
 70
     0
 43
0.15
 10
305.342304035747
 20
156.5003432333
 10
387.092309519447
 20
156.5003432333
  0
LWPOLYLINE
  5
226
330
44
100
AcDbEntity
  8
0
  6
Continuous
 62
     7
100
AcDbPolyline
 90
        2
 70
     0
 43
0.15
 10
548.092307969647
 20
158.9999236166
 10
548.0922632662471
 20
143.301833421
  0
LWPOLYLINE
  5
227
330
44
100
AcDbEntity
  8
0
  6
Continuous
 62
     7
100
AcDbPolyline
 90
        2
 70
     0
 43
0.15
 10
631.342309042547
 20
159.9999181926
 10
549.092309996247
 20
159.9999181926
  0
LWPOLYLINE
  5
228
330
44
100
AcDbEntity
  8
0
  6
Continuous
 62
     7
100
AcDbPolyline
 90
        2
 70
     0
 43
0.15
 10
536.342310234647
 20
112.500000745
 10
539.742308184247
 20
112.500000745
  0
LWPOLYLINE
  5
229
330
44
100
AcDbEntity
  8
0
  6
Continuous
 62
     7
100
AcDbPolyline
 90
        2
 70
     0
 43
0.15
 10
542.2423132506469
 20
121.7019446194
 10
545.942308827947
 20
121.7019446194
  0
LWPOLYLINE
  5
22A
330
44
100
AcDbEntity
  8
0
  6
Continuous
 62
     7
100
AcDbPolyline
 90
        2
 70
     0
 43
0.15
 10
546.592312380447
 20
0.0
 10
548.1025674191469
 20
0.0
  0
LWPOLYLINE
  5
22B
330
44
100
AcDbEntity
  8
0
  6
Continuous
 62
     7
100
AcDbPolyline
 90
        2
 70
     0
 43
0.15
 10
546.342308148447
 20
125.2014897763
 10
539.742308184247
 20
125.2014897763
  0
LWPOLYLINE
  5
22C
330
44
100
AcDbEntity
  8
0
  6
Continuous
 62
     7
100
AcDbPolyline
 90
        2
 70
     0
 43
0.15
 10
537.742311581747
 20
116.0000003874
 10
533.842312618847
 20
116.0000003874
  0
LWPOLYLINE
  5
22D
330
44
100
AcDbEntity
  8
0
  6
Continuous
 62
     7
100
AcDbPolyline
 90
        2
 70
     0
 43
0.15
 10
532.842310592247
 20
73.00000265240003
 10
536.342310234647
 20
73.00000265240003
  0
LWPOLYLINE
  5
22E
330
44
100
AcDbEntity
  8
0
  6
Continuous
 62
     7
100
AcDbPolyline
 90
        2
 70
     0
 43
0.15
 10
551.592307612047
 20
156.5003432333
 10
633.342313095647
 20
156.5003432333
  0
LWPOLYLINE
  5
22F
330
44
100
AcDbEntity
  8
0
  6
Continuous
 62
     7
100
AcDbPolyline
 90
        2
 70
     0
 43
0.15
 10
647.342311665147
 20
159.9999181926
 10
639.342310353847
 20
159.9999181926
  0
LWPOLYLINE
  5
230
330
44
100
AcDbEntity
  8
0
  6
Continuous
 62
     7
100
AcDbPolyline
 90
        2
 70
     0
 43
0.15
 10
637.3423063007469
 20
156.5003432333
 10
649.3423157182469
 20
156.5003432333
  0
LWPOLYLINE
  5
231
330
44
100
AcDbEntity
  8
0
  6
Continuous
 62
     7
100
AcDbPolyline
 90
        2
 70
     0
 43
0.15
 10
542.801181301247
 20
158.9999236166
 10
541.342312916847
 20
158.9999236166
  0
LWPOLYLINE
  5
232
330
44
100
AcDbEntity
  8
0
  6
Continuous
 62
     7
100
AcDbPolyline
 90
        2
 70
     0
 43
0.15
 10
397.342311665147
 20
158.9999236166
 10
395.883443280847
 20
158.9999236166
  0
LWPOLYLINE
  5
233
330
44
100
AcDbEntity
  8
0
  6
Continuous
 62
     7
100
AcDbPolyline
 90
        2
 70
     0
 43
0.15
 10
477.842310890347
 20
229.9999259412
 10
483.092310353847
 20
229.9999259412
  0
LWPOLYLINE
  5
234
330
44
100
AcDbEntity
  8
0
  6
Continuous
 62
     7
100
AcDbPolyline
 90
        2
 70
     0
 43
0.15
 10
455.592310502847
 20
229.9999259412
 10
460.842310897747
 20
229.9999259412
  0
LWPOLYLINE
  5
235
330
44
100
AcDbEntity
  8
0
  6
Continuous
 62
     7
100
AcDbPolyline
 90
        2
 70
     0
 43
0.15
 10
498.592310100547
 20
229.9999259412
 10
499.092311113847
 20
229.9999259412
  0
LWPOLYLINE
  5
236
330
44
100
AcDbEntity
  8
0
  6
Continuous
 62
     7
100
AcDbPolyline
 90
        2
 70
     0
 43
0.15
 10
450.592311545947
 20
229.9999259412
 10
455.592310502847
 20
229.9999259412
  0
LWPOLYLINE
  5
237
330
44
100
AcDbEntity
  8
0
  6
Continuous
 62
     7
100
AcDbPolyline
 90
        2
 70
     0
 43
0.15
 10
483.092310353847
 20
229.9999259412
 10
488.092311173447
 20
229.9999259412
  0
LWPOLYLINE
  5
238
330
44
100
AcDbEntity
  8
0
  6
Continuous
 62
     7
100
AcDbPolyline
 90
        2
 70
     0
 43
0.15
 10
439.592311605547
 20
229.9999259412
 10
440.092310756247
 20
229.9999259412
  0
LWPOLYLINE
  5
239
330
44
100
AcDbEntity
  8
0
  6
Continuous
 62
     7
100
AcDbPolyline
 90
        2
 70
     0
 43
0.15
 10
434.592308923347
 20
229.9999259412
 10
439.592311605547
 20
229.9999259412
  0
LWPOLYLINE
  5
23A
330
44
100
AcDbEntity
  8
0
  6
Continuous
 62
     7
100
AcDbPolyline
 90
        2
 70
     0
 43
0.15
 10
499.092311113847
 20
229.9999259412
 10
504.092311933347
 20
229.9999259412
  0
LWPOLYLINE
  5
23B
330
44
100
AcDbEntity
  8
0
  6
Continuous
 62
     7
100
AcDbPolyline
 90
        2
 70
     0
 43
0.15
 10
514.5923108605471
 20
229.9999259412
 10
515.092311873747
 20
229.9999259412
  0
LWPOLYLINE
  5
23C
330
44
100
AcDbEntity
  8
0
  6
Continuous
 62
     7
100
AcDbPolyline
 90
        2
 70
     0
 43
0.15
 10
423.592308982947
 20
229.9999259412
 10
424.092309996247
 20
229.9999259412
  0
LWPOLYLINE
  5
23D
330
44
100
AcDbEntity
  8
0
  6
Continuous
 62
     7
100
AcDbPolyline
 90
        2
 70
     0
 43
0.15
 10
403.342308923347
 20
229.9999259412
 10
408.092311098947
 20
229.9999259412
  0
LWPOLYLINE
  5
23E
330
44
100
AcDbEntity
  8
0
  6
Continuous
 62
     7
100
AcDbPolyline
 90
        2
 70
     0
 43
0.15
 10
418.592310026047
 20
229.9999259412
 10
423.592308982947
 20
229.9999259412
  0
LWPOLYLINE
  5
23F
330
44
100
AcDbEntity
  8
0
  6
Continuous
 62
     7
100
AcDbPolyline
 90
        2
 70
     0
 43
0.15
 10
515.092311873747
 20
229.9999259412
 10
520.092310830747
 20
229.9999259412
  0
LWPOLYLINE
  5
240
330
44
100
AcDbEntity
  8
0
  6
Continuous
 62
     7
100
AcDbPolyline
 90
        2
 70
     0
 43
0.15
 10
530.592309757847
 20
229.9999259412
 10
535.342308208147
 20
229.9999259412
  0
LWPOLYLINE
  5
241
330
44
100
AcDbEntity
  8
0
  6
Continuous
 62
     7
100
AcDbPolyline
 90
        2
 70
     0
 43
0.15
 10
548.092307969647
 20
158.9999236166
 10
547.8423111883469
 20
158.9999236166
  0
LWPOLYLINE
  5
242
330
44
100
AcDbEntity
  8
0
  6
Continuous
 62
     7
100
AcDbPolyline
 90
        2
 70
     0
 43
0.15
 10
390.842313393747
 20
158.9999236166
 10
390.592316612347
 20
158.9999236166
  0
LINE
  5
243
330
44
100
AcDbEntity
  8
0
  6
CENTERX2
 62
     7
100
AcDbLine
 10
469.342310781747
 20
237.1084755418
 30
0.0
 11
469.342310781747
 21
-1.99999990800001
 31
0.0
  0
LWPOLYLINE
  5
244
330
44
100
AcDbEntity
  8
0
  6
Continuous
 62
     7
100
AcDbPolyline
 90
        2
 70
     0
 43
0.15
 10
484.092310781747
 20
230.9999202053
 42
0.4142135623731
 10
483.092310781747
 20
229.9999202053
 42
0.4142135623731
  0
LWPOLYLINE
  5
245
330
44
100
AcDbEntity
  8
0
  6
Continuous
 62
     7
100
AcDbPolyline
 90
        2
 70
     0
 43
0.15
 10
455.592310781747
 20
229.9999202053
 42
0.4142135623731
 10
454.592310781747
 20
230.9999202053
 42
0.4142135623731
  0
LWPOLYLINE
  5
246
330
44
100
AcDbEntity
  8
0
  6
Continuous
 62
     7
100
AcDbPolyline
 90
        2
 70
     0
 43
0.15
 10
500.092310781747
 20
230.9999202053
 42
0.4142135623731
 10
499.092310781747
 20
229.9999202053
 42
0.4142135623731
  0
LWPOLYLINE
  5
247
330
44
100
AcDbEntity
  8
0
  6
Continuous
 62
     7
100
AcDbPolyline
 90
        2
 70
     0
 43
0.15
 10
439.592310781747
 20
229.9999202053
 42
0.4142135623731
 10
438.592310781747
 20
230.9999202053
 42
0.4142135623731
  0
LWPOLYLINE
  5
248
330
44
100
AcDbEntity
  8
0
  6
Continuous
 62
     7
100
AcDbPolyline
 90
        2
 70
     0
 43
0.15
 10
516.0923107817471
 20
230.9999202053
 42
0.4142135623731
 10
515.0923107817471
 20
229.9999202053
 42
0.4142135623731
  0
LWPOLYLINE
  5
249
330
44
100
AcDbEntity
  8
0
  6
Continuous
 62
     7
100
AcDbPolyline
 90
        2
 70
     0
 43
0.15
 10
423.592310781747
 20
229.9999202053
 42
0.4142135623731
 10
422.592310781747
 20
230.9999202053
 42
0.4142135623731
  0
LWPOLYLINE
  5
24A
330
44
100
AcDbEntity
  8
0
  6
Continuous
 62
     7
100
AcDbPolyline
 90
        2
 70
     0
 43
0.15
 10
397.342310781747
 20
203.9999202053
 42
0.4142135623731
 10
396.842310781747
 20
203.4999202053
 42
0.4142135623731
  0
LWPOLYLINE
  5
24B
330
44
100
AcDbEntity
  8
0
  6
Continuous
 62
     7
100
AcDbPolyline
 90
        2
 70
     0
 43
0.15
 10
397.342310781747
 20
203.9999202053
 42
1.0
 10
397.342310781747
 20
206.4999202053
 42
1.0
  0
LWPOLYLINE
  5
24C
330
44
100
AcDbEntity
  8
0
  6
Continuous
 62
     7
100
AcDbPolyline
 90
        2
 70
     0
 43
0.15
 10
396.842310781747
 20
206.9999202053
 42
0.4142135623731
 10
397.342310781747
 20
206.4999202053
 42
0.4142135623731
  0
LWPOLYLINE
  5
24D
330
44
100
AcDbEntity
  8
0
  6
Continuous
 62
     7
100
AcDbPolyline
 90
        2
 70
     0
 43
0.15
 10
396.842310781747
 20
142.9999202053
 42
0.4142135623731
 10
397.342310781747
 20
142.4999202053
 42
0.4142135623731
  0
LWPOLYLINE
  5
24E
330
44
100
AcDbEntity
  8
0
  6
Continuous
 62
     7
100
AcDbPolyline
 90
        2
 70
     0
 43
0.15
 10
397.342310781747
 20
145.4999202053
 42
0.4142135623731
 10
396.842310781747
 20
144.9999202053
 42
0.4142135623731
  0
LWPOLYLINE
  5
24F
330
44
100
AcDbEntity
  8
0
  6
Continuous
 62
     7
100
AcDbPolyline
 90
        2
 70
     0
 43
0.15
 10
397.342310781747
 20
145.4999202053
 42
1.0
 10
397.342310781747
 20
147.9999202053
 42
1.0
  0
LWPOLYLINE
  5
250
330
44
100
AcDbEntity
  8
0
  6
Continuous
 62
     7
100
AcDbPolyline
 90
        2
 70
     0
 43
0.15
 10
396.842310781747
 20
148.4999202053
 42
0.4142135623731
 10
397.342310781747
 20
147.9999202053
 42
0.4142135623731
  0
LWPOLYLINE
  5
251
330
44
100
AcDbEntity
  8
0
  6
Continuous
 62
     7
100
AcDbPolyline
 90
        2
 70
     0
 43
0.15
 10
397.342310781747
 20
149.9999202053
 42
0.4142135623731
 10
396.842310781747
 20
149.4999202053
 42
0.4142135623731
  0
LWPOLYLINE
  5
252
330
44
100
AcDbEntity
  8
0
  6
Continuous
 62
     7
100
AcDbPolyline
 90
        2
 70
     0
 43
0.15
 10
397.342310781747
 20
149.9999202053
 42
1.0
 10
397.342310781747
 20
152.4999202053
 42
1.0
  0
LWPOLYLINE
  5
253
330
44
100
AcDbEntity
  8
0
  6
Continuous
 62
     7
100
AcDbPolyline
 90
        2
 70
     0
 43
0.15
 10
396.842310781747
 20
152.9999202053
 42
0.4142135623731
 10
397.342310781747
 20
152.4999202053
 42
0.4142135623731
  0
LWPOLYLINE
  5
254
330
44
100
AcDbEntity
  8
0
  6
Continuous
 62
     7
100
AcDbPolyline
 90
        2
 70
     0
 43
0.15
 10
397.342310781747
 20
154.4999202053
 42
0.4142135623731
 10
396.842310781747
 20
153.9999202053
 42
0.4142135623731
  0
LWPOLYLINE
  5
255
330
44
100
AcDbEntity
  8
0
  6
Continuous
 62
     7
100
AcDbPolyline
 90
        2
 70
     0
 43
0.15
 10
397.342310781747
 20
154.4999202053
 42
1.0
 10
397.342310781747
 20
156.9999202053
 42
1.0
  0
LWPOLYLINE
  5
256
330
44
100
AcDbEntity
  8
0
  6
Continuous
 62
     7
100
AcDbPolyline
 90
        2
 70
     0
 43
0.15
 10
396.842310781747
 20
157.4999202053
 42
0.4142135623731
 10
397.342310781747
 20
156.9999202053
 42
0.4142135623731
  0
LWPOLYLINE
  5
257
330
44
100
AcDbEntity
  8
0
  6
Continuous
 62
     7
100
AcDbPolyline
 90
        2
 70
     0
 43
0.15
 10
397.342310781747
 20
158.9999202053
 42
0.4142135623731
 10
396.842310781747
 20
158.4999202053
 42
0.4142135623731
  0
LWPOLYLINE
  5
258
330
44
100
AcDbEntity
  8
0
  6
Continuous
 62
     7
100
AcDbPolyline
 90
        2
 70
     0
 43
0.15
 10
397.342310781747
 20
158.9999202053
 42
1.0
 10
397.342310781747
 20
161.4999202053
 42
1.0
  0
LWPOLYLINE
  5
259
330
44
100
AcDbEntity
  8
0
  6
Continuous
 62
     7
100
AcDbPolyline
 90
        2
 70
     0
 43
0.15
 10
396.842310781747
 20
161.9999202053
 42
0.4142135623731
 10
397.342310781747
 20
161.4999202053
 42
0.4142135623731
  0
LWPOLYLINE
  5
25A
330
44
100
AcDbEntity
  8
0
  6
Continuous
 62
     7
100
AcDbPolyline
 90
        2
 70
     0
 43
0.15
 10
397.342310781747
 20
163.4999202053
 42
0.4142135623731
 10
396.842310781747
 20
162.9999202053
 42
0.4142135623731
  0
LWPOLYLINE
  5
25B
330
44
100
AcDbEntity
  8
0
  6
Continuous
 62
     7
100
AcDbPolyline
 90
        2
 70
     0
 43
0.15
 10
397.342310781747
 20
163.4999202053
 42
1.0
 10
397.342310781747
 20
165.9999202053
 42
1.0
  0
LWPOLYLINE
  5
25C
330
44
100
AcDbEntity
  8
0
  6
Continuous
 62
     7
100
AcDbPolyline
 90
        2
 70
     0
 43
0.15
 10
396.842310781747
 20
166.4999202053
 42
0.4142135623731
 10
397.342310781747
 20
165.9999202053
 42
0.4142135623731
  0
LWPOLYLINE
  5
25D
330
44
100
AcDbEntity
  8
0
  6
Continuous
 62
     7
100
AcDbPolyline
 90
        2
 70
     0
 43
0.15
 10
397.342310781747
 20
167.9999202053
 42
0.4142135623731
 10
396.842310781747
 20
167.4999202053
 42
0.4142135623731
  0
LWPOLYLINE
  5
25E
330
44
100
AcDbEntity
  8
0
  6
Continuous
 62
     7
100
AcDbPolyline
 90
        2
 70
     0
 43
0.15
 10
397.342310781747
 20
167.9999202053
 42
1.0
 10
397.342310781747
 20
170.4999202053
 42
1.0
  0
LWPOLYLINE
  5
25F
330
44
100
AcDbEntity
  8
0
  6
Continuous
 62
     7
100
AcDbPolyline
 90
        2
 70
     0
 43
0.15
 10
396.842310781747
 20
170.9999202053
 42
0.4142135623731
 10
397.342310781747
 20
170.4999202053
 42
0.4142135623731
  0
LWPOLYLINE
  5
260
330
44
100
AcDbEntity
  8
0
  6
Continuous
 62
     7
100
AcDbPolyline
 90
        2
 70
     0
 43
0.15
 10
397.342310781747
 20
172.4999202053
 42
0.4142135623731
 10
396.842310781747
 20
171.9999202053
 42
0.4142135623731
  0
LWPOLYLINE
  5
261
330
44
100
AcDbEntity
  8
0
  6
Continuous
 62
     7
100
AcDbPolyline
 90
        2
 70
     0
 43
0.15
 10
397.342310781747
 20
172.4999202053
 42
1.0
 10
397.342310781747
 20
174.9999202053
 42
1.0
  0
LWPOLYLINE
  5
262
330
44
100
AcDbEntity
  8
0
  6
Continuous
 62
     7
100
AcDbPolyline
 90
        2
 70
     0
 43
0.15
 10
396.842310781747
 20
175.4999202053
 42
0.4142135623731
 10
397.342310781747
 20
174.9999202053
 42
0.4142135623731
  0
LWPOLYLINE
  5
263
330
44
100
AcDbEntity
  8
0
  6
Continuous
 62
     7
100
AcDbPolyline
 90
        2
 70
     0
 43
0.15
 10
397.342310781747
 20
176.9999202053
 42
0.4142135623731
 10
396.842310781747
 20
176.4999202053
 42
0.4142135623731
  0
LWPOLYLINE
  5
264
330
44
100
AcDbEntity
  8
0
  6
Continuous
 62
     7
100
AcDbPolyline
 90
        2
 70
     0
 43
0.15
 10
397.342310781747
 20
176.9999202053
 42
1.0
 10
397.342310781747
 20
179.4999202053
 42
1.0
  0
LWPOLYLINE
  5
265
330
44
100
AcDbEntity
  8
0
  6
Continuous
 62
     7
100
AcDbPolyline
 90
        2
 70
     0
 43
0.15
 10
396.842310781747
 20
179.9999202053
 42
0.4142135623731
 10
397.342310781747
 20
179.4999202053
 42
0.4142135623731
  0
LWPOLYLINE
  5
266
330
44
100
AcDbEntity
  8
0
  6
Continuous
 62
     7
100
AcDbPolyline
 90
        2
 70
     0
 43
0.15
 10
397.342310781747
 20
181.4999202053
 42
0.4142135623731
 10
396.842310781747
 20
180.9999202053
 42
0.4142135623731
  0
LWPOLYLINE
  5
267
330
44
100
AcDbEntity
  8
0
  6
Continuous
 62
     7
100
AcDbPolyline
 90
        2
 70
     0
 43
0.15
 10
397.342310781747
 20
181.4999202053
 42
1.0
 10
397.342310781747
 20
183.9999202053
 42
1.0
  0
LWPOLYLINE
  5
268
330
44
100
AcDbEntity
  8
0
  6
Continuous
 62
     7
100
AcDbPolyline
 90
        2
 70
     0
 43
0.15
 10
396.842310781747
 20
184.4999202053
 42
0.4142135623731
 10
397.342310781747
 20
183.9999202053
 42
0.4142135623731
  0
LWPOLYLINE
  5
269
330
44
100
AcDbEntity
  8
0
  6
Continuous
 62
     7
100
AcDbPolyline
 90
        2
 70
     0
 43
0.15
 10
397.342310781747
 20
185.9999202053
 42
0.4142135623731
 10
396.842310781747
 20
185.4999202053
 42
0.4142135623731
  0
LWPOLYLINE
  5
26A
330
44
100
AcDbEntity
  8
0
  6
Continuous
 62
     7
100
AcDbPolyline
 90
        2
 70
     0
 43
0.15
 10
397.342310781747
 20
185.9999202053
 42
1.0
 10
397.342310781747
 20
188.4999202053
 42
1.0
  0
LWPOLYLINE
  5
26B
330
44
100
AcDbEntity
  8
0
  6
Continuous
 62
     7
100
AcDbPolyline
 90
        2
 70
     0
 43
0.15
 10
396.842310781747
 20
188.9999202053
 42
0.4142135623731
 10
397.342310781747
 20
188.4999202053
 42
0.4142135623731
  0
LWPOLYLINE
  5
26C
330
44
100
AcDbEntity
  8
0
  6
Continuous
 62
     7
100
AcDbPolyline
 90
        2
 70
     0
 43
0.15
 10
397.342310781747
 20
190.4999202053
 42
0.4142135623731
 10
396.842310781747
 20
189.9999202053
 42
0.4142135623731
  0
LWPOLYLINE
  5
26D
330
44
100
AcDbEntity
  8
0
  6
Continuous
 62
     7
100
AcDbPolyline
 90
        2
 70
     0
 43
0.15
 10
397.342310781747
 20
190.4999202053
 42
1.0
 10
397.342310781747
 20
192.9999202053
 42
1.0
  0
LWPOLYLINE
  5
26E
330
44
100
AcDbEntity
  8
0
  6
Continuous
 62
     7
100
AcDbPolyline
 90
        2
 70
     0
 43
0.15
 10
396.842310781747
 20
193.4999202053
 42
0.4142135623731
 10
397.342310781747
 20
192.9999202053
 42
0.4142135623731
  0
LWPOLYLINE
  5
26F
330
44
100
AcDbEntity
  8
0
  6
Continuous
 62
     7
100
AcDbPolyline
 90
        2
 70
     0
 43
0.15
 10
397.342310781747
 20
194.9999202053
 42
0.4142135623731
 10
396.842310781747
 20
194.4999202053
 42
0.4142135623731
  0
LWPOLYLINE
  5
270
330
44
100
AcDbEntity
  8
0
  6
Continuous
 62
     7
100
AcDbPolyline
 90
        2
 70
     0
 43
0.15
 10
397.342310781747
 20
194.9999202053
 42
1.0
 10
397.342310781747
 20
197.4999202053
 42
1.0
  0
LWPOLYLINE
  5
271
330
44
100
AcDbEntity
  8
0
  6
Continuous
 62
     7
100
AcDbPolyline
 90
        2
 70
     0
 43
0.15
 10
396.842310781747
 20
197.9999202053
 42
0.4142135623731
 10
397.342310781747
 20
197.4999202053
 42
0.4142135623731
  0
LWPOLYLINE
  5
272
330
44
100
AcDbEntity
  8
0
  6
Continuous
 62
     7
100
AcDbPolyline
 90
        2
 70
     0
 43
0.15
 10
397.342310781747
 20
199.4999202053
 42
0.4142135623731
 10
396.842310781747
 20
198.9999202053
 42
0.4142135623731
  0
LWPOLYLINE
  5
273
330
44
100
AcDbEntity
  8
0
  6
Continuous
 62
     7
100
AcDbPolyline
 90
        2
 70
     0
 43
0.15
 10
397.342310781747
 20
199.4999202053
 42
1.0
 10
397.342310781747
 20
201.9999202053
 42
1.0
  0
LWPOLYLINE
  5
274
330
44
100
AcDbEntity
  8
0
  6
Continuous
 62
     7
100
AcDbPolyline
 90
        2
 70
     0
 43
0.15
 10
396.842310781747
 20
202.4999202053
 42
0.4142135623731
 10
397.342310781747
 20
201.9999202053
 42
0.4142135623731
  0
LWPOLYLINE
  5
275
330
44
100
AcDbEntity
  8
0
  6
Continuous
 62
     7
100
AcDbPolyline
 90
        2
 70
     0
 43
0.15
 10
541.8423107817471
 20
144.9999202053
 42
0.4142135623731
 10
541.3423107817471
 20
145.4999202053
 42
0.4142135623731
  0
LWPOLYLINE
  5
276
330
44
100
AcDbEntity
  8
0
  6
Continuous
 62
     7
100
AcDbPolyline
 90
        2
 70
     0
 43
0.15
 10
541.8423107817471
 20
149.4999202053
 42
0.4142135623731
 10
541.3423107817471
 20
149.9999202053
 42
0.4142135623731
  0
LWPOLYLINE
  5
277
330
44
100
AcDbEntity
  8
0
  6
Continuous
 62
     7
100
AcDbPolyline
 90
        2
 70
     0
 43
0.15
 10
541.3423107817471
 20
152.4999202053
 42
1.0
 10
541.3423107817471
 20
149.9999202053
 42
1.0
  0
LWPOLYLINE
  5
278
330
44
100
AcDbEntity
  8
0
  6
Continuous
 62
     7
100
AcDbPolyline
 90
        2
 70
     0
 43
0.15
 10
541.3423107817471
 20
152.4999202053
 42
0.4142135623731
 10
541.8423107817471
 20
152.9999202053
 42
0.4142135623731
  0
LWPOLYLINE
  5
279
330
44
100
AcDbEntity
  8
0
  6
Continuous
 62
     7
100
AcDbPolyline
 90
        2
 70
     0
 43
0.15
 10
541.8423107817471
 20
153.9999202053
 42
0.4142135623731
 10
541.3423107817471
 20
154.4999202053
 42
0.4142135623731
  0
LWPOLYLINE
  5
27A
330
44
100
AcDbEntity
  8
0
  6
Continuous
 62
     7
100
AcDbPolyline
 90
        2
 70
     0
 43
0.15
 10
541.3423107817471
 20
156.9999202053
 42
1.0
 10
541.3423107817471
 20
154.4999202053
 42
1.0
  0
LWPOLYLINE
  5
27B
330
44
100
AcDbEntity
  8
0
  6
Continuous
 62
     7
100
AcDbPolyline
 90
        2
 70
     0
 43
0.15
 10
541.3423107817471
 20
156.9999202053
 42
0.4142135623731
 10
541.8423107817471
 20
157.4999202053
 42
0.4142135623731
  0
LWPOLYLINE
  5
27C
330
44
100
AcDbEntity
  8
0
  6
Continuous
 62
     7
100
AcDbPolyline
 90
        2
 70
     0
 43
0.15
 10
541.8423107817471
 20
158.4999202053
 42
0.4142135623731
 10
541.3423107817471
 20
158.9999202053
 42
0.4142135623731
  0
LWPOLYLINE
  5
27D
330
44
100
AcDbEntity
  8
0
  6
Continuous
 62
     7
100
AcDbPolyline
 90
        2
 70
     0
 43
0.15
 10
541.3423107817471
 20
161.4999202053
 42
1.0
 10
541.3423107817471
 20
158.9999202053
 42
1.0
  0
LWPOLYLINE
  5
27E
330
44
100
AcDbEntity
  8
0
  6
Continuous
 62
     7
100
AcDbPolyline
 90
        2
 70
     0
 43
0.15
 10
541.3423107817471
 20
161.4999202053
 42
0.4142135623731
 10
541.8423107817471
 20
161.9999202053
 42
0.4142135623731
  0
LWPOLYLINE
  5
27F
330
44
100
AcDbEntity
  8
0
  6
Continuous
 62
     7
100
AcDbPolyline
 90
        2
 70
     0
 43
0.15
 10
541.8423107817471
 20
162.9999202053
 42
0.4142135623731
 10
541.3423107817471
 20
163.4999202053
 42
0.4142135623731
  0
LWPOLYLINE
  5
280
330
44
100
AcDbEntity
  8
0
  6
Continuous
 62
     7
100
AcDbPolyline
 90
        2
 70
     0
 43
0.15
 10
541.3423107817471
 20
165.9999202053
 42
1.0
 10
541.3423107817471
 20
163.4999202053
 42
1.0
  0
LWPOLYLINE
  5
281
330
44
100
AcDbEntity
  8
0
  6
Continuous
 62
     7
100
AcDbPolyline
 90
        2
 70
     0
 43
0.15
 10
541.8423107817471
 20
167.4999202053
 42
0.4142135623731
 10
541.3423107817471
 20
167.9999202053
 42
0.4142135623731
  0
LWPOLYLINE
  5
282
330
44
100
AcDbEntity
  8
0
  6
Continuous
 62
     7
100
AcDbPolyline
 90
        2
 70
     0
 43
0.15
 10
541.3423107817471
 20
170.4999202053
 42
1.0
 10
541.3423107817471
 20
167.9999202053
 42
1.0
  0
LWPOLYLINE
  5
283
330
44
100
AcDbEntity
  8
0
  6
Continuous
 62
     7
100
AcDbPolyline
 90
        2
 70
     0
 43
0.15
 10
541.3423107817471
 20
170.4999202053
 42
0.4142135623731
 10
541.8423107817471
 20
170.9999202053
 42
0.4142135623731
  0
LWPOLYLINE
  5
284
330
44
100
AcDbEntity
  8
0
  6
Continuous
 62
     7
100
AcDbPolyline
 90
        2
 70
     0
 43
0.15
 10
541.8423107817471
 20
171.9999202053
 42
0.4142135623731
 10
541.3423107817471
 20
172.4999202053
 42
0.4142135623731
  0
LWPOLYLINE
  5
285
330
44
100
AcDbEntity
  8
0
  6
Continuous
 62
     7
100
AcDbPolyline
 90
        2
 70
     0
 43
0.15
 10
541.3423107817471
 20
174.9999202053
 42
1.0
 10
541.3423107817471
 20
172.4999202053
 42
1.0
  0
LWPOLYLINE
  5
286
330
44
100
AcDbEntity
  8
0
  6
Continuous
 62
     7
100
AcDbPolyline
 90
        2
 70
     0
 43
0.15
 10
541.3423107817471
 20
174.9999202053
 42
0.4142135623731
 10
541.8423107817471
 20
175.4999202053
 42
0.4142135623731
  0
LWPOLYLINE
  5
287
330
44
100
AcDbEntity
  8
0
  6
Continuous
 62
     7
100
AcDbPolyline
 90
        2
 70
     0
 43
0.15
 10
541.8423107817471
 20
176.4999202053
 42
0.4142135623731
 10
541.3423107817471
 20
176.9999202053
 42
0.4142135623731
  0
LWPOLYLINE
  5
288
330
44
100
AcDbEntity
  8
0
  6
Continuous
 62
     7
100
AcDbPolyline
 90
        2
 70
     0
 43
0.15
 10
541.3423107817471
 20
179.4999202053
 42
1.0
 10
541.3423107817471
 20
176.9999202053
 42
1.0
  0
LWPOLYLINE
  5
289
330
44
100
AcDbEntity
  8
0
  6
Continuous
 62
     7
100
AcDbPolyline
 90
        2
 70
     0
 43
0.15
 10
541.3423107817471
 20
179.4999202053
 42
0.4142135623731
 10
541.8423107817471
 20
179.9999202053
 42
0.4142135623731
  0
LWPOLYLINE
  5
28A
330
44
100
AcDbEntity
  8
0
  6
Continuous
 62
     7
100
AcDbPolyline
 90
        2
 70
     0
 43
0.15
 10
541.8423107817471
 20
180.9999202053
 42
0.4142135623731
 10
541.3423107817471
 20
181.4999202053
 42
0.4142135623731
  0
LWPOLYLINE
  5
28B
330
44
100
AcDbEntity
  8
0
  6
Continuous
 62
     7
100
AcDbPolyline
 90
        2
 70
     0
 43
0.15
 10
541.3423107817471
 20
183.9999202053
 42
1.0
 10
541.3423107817471
 20
181.4999202053
 42
1.0
  0
LWPOLYLINE
  5
28C
330
44
100
AcDbEntity
  8
0
  6
Continuous
 62
     7
100
AcDbPolyline
 90
        2
 70
     0
 43
0.15
 10
541.3423107817471
 20
183.9999202053
 42
0.4142135623731
 10
541.8423107817471
 20
184.4999202053
 42
0.4142135623731
  0
LWPOLYLINE
  5
28D
330
44
100
AcDbEntity
  8
0
  6
Continuous
 62
     7
100
AcDbPolyline
 90
        2
 70
     0
 43
0.15
 10
541.8423107817471
 20
185.4999202053
 42
0.4142135623731
 10
541.3423107817471
 20
185.9999202053
 42
0.4142135623731
  0
LWPOLYLINE
  5
28E
330
44
100
AcDbEntity
  8
0
  6
Continuous
 62
     7
100
AcDbPolyline
 90
        2
 70
     0
 43
0.15
 10
541.3423107817471
 20
188.4999202053
 42
1.0
 10
541.3423107817471
 20
185.9999202053
 42
1.0
  0
LWPOLYLINE
  5
28F
330
44
100
AcDbEntity
  8
0
  6
Continuous
 62
     7
100
AcDbPolyline
 90
        2
 70
     0
 43
0.15
 10
541.3423107817471
 20
188.4999202053
 42
0.4142135623731
 10
541.8423107817471
 20
188.9999202053
 42
0.4142135623731
  0
LWPOLYLINE
  5
290
330
44
100
AcDbEntity
  8
0
  6
Continuous
 62
     7
100
AcDbPolyline
 90
        2
 70
     0
 43
0.15
 10
541.8423107817471
 20
189.9999202053
 42
0.4142135623731
 10
541.3423107817471
 20
190.4999202053
 42
0.4142135623731
  0
LWPOLYLINE
  5
291
330
44
100
AcDbEntity
  8
0
  6
Continuous
 62
     7
100
AcDbPolyline
 90
        2
 70
     0
 43
0.15
 10
541.3423107817471
 20
192.9999202053
 42
1.0
 10
541.3423107817471
 20
190.4999202053
 42
1.0
  0
LWPOLYLINE
  5
292
330
44
100
AcDbEntity
  8
0
  6
Continuous
 62
     7
100
AcDbPolyline
 90
        2
 70
     0
 43
0.15
 10
541.3423107817471
 20
192.9999202053
 42
0.4142135623731
 10
541.8423107817471
 20
193.4999202053
 42
0.4142135623731
  0
LWPOLYLINE
  5
293
330
44
100
AcDbEntity
  8
0
  6
Continuous
 62
     7
100
AcDbPolyline
 90
        2
 70
     0
 43
0.15
 10
541.8423107817471
 20
194.4999202053
 42
0.4142135623731
 10
541.3423107817471
 20
194.9999202053
 42
0.4142135623731
  0
LWPOLYLINE
  5
294
330
44
100
AcDbEntity
  8
0
  6
Continuous
 62
     7
100
AcDbPolyline
 90
        2
 70
     0
 43
0.15
 10
541.3423107817471
 20
197.4999202053
 42
1.0
 10
541.3423107817471
 20
194.9999202053
 42
1.0
  0
LWPOLYLINE
  5
295
330
44
100
AcDbEntity
  8
0
  6
Continuous
 62
     7
100
AcDbPolyline
 90
        2
 70
     0
 43
0.15
 10
541.3423107817471
 20
197.4999202053
 42
0.4142135623731
 10
541.8423107817471
 20
197.9999202053
 42
0.4142135623731
  0
LWPOLYLINE
  5
296
330
44
100
AcDbEntity
  8
0
  6
Continuous
 62
     7
100
AcDbPolyline
 90
        2
 70
     0
 43
0.15
 10
541.3423107817471
 20
201.9999202053
 42
1.0
 10
541.3423107817471
 20
199.4999202053
 42
1.0
  0
LWPOLYLINE
  5
297
330
44
100
AcDbEntity
  8
0
  6
Continuous
 62
     7
100
AcDbPolyline
 90
        2
 70
     0
 43
0.15
 10
541.3423107817471
 20
201.9999202053
 42
0.4142135623731
 10
541.8423107817471
 20
202.4999202053
 42
0.4142135623731
  0
LWPOLYLINE
  5
298
330
44
100
AcDbEntity
  8
0
  6
Continuous
 62
     7
100
AcDbPolyline
 90
        2
 70
     0
 43
0.15
 10
541.8423107817471
 20
203.4999202053
 42
0.4142135623731
 10
541.3423107817471
 20
203.9999202053
 42
0.4142135623731
  0
LWPOLYLINE
  5
299
330
44
100
AcDbEntity
  8
0
  6
Continuous
 62
     7
100
AcDbPolyline
 90
        2
 70
     0
 43
0.15
 10
541.3423107817471
 20
206.4999202053
 42
1.0
 10
541.3423107817471
 20
203.9999202053
 42
1.0
  0
LWPOLYLINE
  5
29A
330
44
100
AcDbEntity
  8
0
  6
Continuous
 62
     7
100
AcDbPolyline
 90
        2
 70
     0
 43
0.15
 10
541.3423107817471
 20
206.4999202053
 42
0.4142135623731
 10
541.8423107817471
 20
206.9999202053
 42
0.4142135623731
  0
LWPOLYLINE
  5
29B
330
44
100
AcDbEntity
  8
0
  6
Continuous
 62
     7
100
AcDbPolyline
 90
        2
 70
     0
 43
0.15
 10
541.8423107817471
 20
198.9999202053
 42
0.4142135623731
 10
541.3423107817471
 20
199.4999202053
 42
0.4142135623731
  0
LWPOLYLINE
  5
29C
330
44
100
AcDbEntity
  8
0
  6
Continuous
 62
     7
100
AcDbPolyline
 90
        2
 70
     0
 43
0.15
 10
541.3423107817471
 20
165.9999202053
 42
0.4142135623731
 10
541.8423107817471
 20
166.4999202053
 42
0.4142135623731
  0
LWPOLYLINE
  5
29D
330
44
100
AcDbEntity
  8
0
  6
Continuous
 62
     7
100
AcDbPolyline
 90
        2
 70
     0
 43
0.15
 10
541.3423107817471
 20
147.9999202053
 42
0.4142135623731
 10
541.8423107817471
 20
148.4999202053
 42
0.4142135623731
  0
LWPOLYLINE
  5
29E
330
44
100
AcDbEntity
  8
0
  6
Continuous
 62
     7
100
AcDbPolyline
 90
        2
 70
     0
 43
0.15
 10
541.3423107817471
 20
147.9999202053
 42
1.0
 10
541.3423107817471
 20
145.4999202053
 42
1.0
  0
LWPOLYLINE
  5
29F
330
44
100
AcDbEntity
  8
0
  6
Continuous
 62
     7
100
AcDbPolyline
 90
        2
 70
     0
 43
0.15
 10
541.3423107817471
 20
142.4999202053
 42
0.4142135623731
 10
541.8423107817471
 20
142.9999202053
 42
0.4142135623731
  0
LWPOLYLINE
  5
2A0
330
44
100
AcDbEntity
  8
0
  6
Continuous
 62
     7
100
AcDbPolyline
 90
        2
 70
     0
 43
0.15
 10
393.342310781747
 20
158.9999202053
 42
0.4142135623731
 10
392.342310781747
 20
159.9999202053
 42
0.4142135623731
  0
LWPOLYLINE
  5
2A1
330
44
100
AcDbEntity
  8
0
  6
Continuous
 62
     7
100
AcDbPolyline
 90
        2
 70
     0
 43
0.15
 10
396.883440332047
 20
157.9999202053
 42
0.4142135623731
 10
395.883440332047
 20
158.9999202053
 42
0.4142135623731
  0
LWPOLYLINE
  5
2A2
330
44
100
AcDbEntity
  8
0
  6
Continuous
 62
     7
100
AcDbPolyline
 90
        2
 70
     0
 43
0.15
 10
546.3423107817471
 20
159.9999202053
 42
0.4142135623731
 10
545.3423107817471
 20
158.9999202053
 42
0.4142135623731
  0
LWPOLYLINE
  5
2A3
330
44
100
AcDbEntity
  8
0
  6
Continuous
 62
     7
100
AcDbPolyline
 90
        2
 70
     0
 43
0.15
 10
542.801181231447
 20
158.9999202053
 42
0.4142135623731
 10
541.801181231447
 20
157.9999202053
 42
0.4142135623731
  0
LWPOLYLINE
  5
2A4
330
44
100
AcDbEntity
  8
0
  6
Continuous
 62
     7
100
AcDbPolyline
 90
        2
 70
     0
 43
0.15
 10
435.592310781747
 20
232.4999202053
 42
0.4142135623731
 10
433.092310781747
 20
229.9999202053
 42
0.4142135623731
  0
LWPOLYLINE
  5
2A5
330
44
100
AcDbEntity
  8
0
  6
Continuous
 62
     7
100
AcDbPolyline
 90
        2
 70
     0
 43
0.15
 10
441.592310781747
 20
229.9999202053
 42
0.4142135623731
 10
439.092310781747
 20
232.4999202053
 42
0.4142135623731
  0
LWPOLYLINE
  5
2A6
330
44
100
AcDbEntity
  8
0
  6
Continuous
 62
     7
100
AcDbPolyline
 90
        2
 70
     0
 43
0.15
 10
440.092310781747
 20
229.9999202053
 42
0.4142135623731
 10
439.092310781747
 20
230.9999202053
 42
0.4142135623731
  0
LWPOLYLINE
  5
2A7
330
44
100
AcDbEntity
  8
0
  6
Continuous
 62
     7
100
AcDbPolyline
 90
        2
 70
     0
 43
0.15
 10
435.592310781747
 20
230.9999202053
 42
0.4142135623731
 10
434.592310781747
 20
229.9999202053
 42
0.4142135623731
  0
LWPOLYLINE
  5
2A8
330
44
100
AcDbEntity
  8
0
  6
Continuous
 62
     7
100
AcDbPolyline
 90
        2
 70
     0
 43
0.15
 10
419.592310781747
 20
232.4999202053
 42
0.4142135623731
 10
417.092310781747
 20
229.9999202053
 42
0.4142135623731
  0
LWPOLYLINE
  5
2A9
330
44
100
AcDbEntity
  8
0
  6
Continuous
 62
     7
100
AcDbPolyline
 90
        2
 70
     0
 43
0.15
 10
425.592310781747
 20
229.9999202053
 42
0.4142135623731
 10
423.092310781747
 20
232.4999202053
 42
0.4142135623731
  0
LWPOLYLINE
  5
2AA
330
44
100
AcDbEntity
  8
0
  6
Continuous
 62
     7
100
AcDbPolyline
 90
        2
 70
     0
 43
0.15
 10
424.092310781747
 20
229.9999202053
 42
0.4142135623731
 10
423.092310781747
 20
230.9999202053
 42
0.4142135623731
  0
LWPOLYLINE
  5
2AB
330
44
100
AcDbEntity
  8
0
  6
Continuous
 62
     7
100
AcDbPolyline
 90
        2
 70
     0
 43
0.15
 10
419.592310781747
 20
230.9999202053
 42
0.4142135623731
 10
418.592310781747
 20
229.9999202053
 42
0.4142135623731
  0
LWPOLYLINE
  5
2AC
330
44
100
AcDbEntity
  8
0
  6
Continuous
 62
     7
100
AcDbPolyline
 90
        2
 70
     0
 43
0.15
 10
409.592310781747
 20
229.9999202053
 42
0.4142135623731
 10
407.092310781747
 20
232.4999202053
 42
0.4142135623731
  0
LWPOLYLINE
  5
2AD
330
44
100
AcDbEntity
  8
0
  6
Continuous
 62
     7
100
AcDbPolyline
 90
        2
 70
     0
 43
0.15
 10
408.092310781747
 20
229.9999202053
 42
0.4142135623731
 10
407.092310781747
 20
230.9999202053
 42
0.4142135623731
  0
LWPOLYLINE
  5
2AE
330
44
100
AcDbEntity
  8
0
  6
Continuous
 62
     7
100
AcDbPolyline
 90
        2
 70
     0
 43
0.15
 10
402.842310781747
 20
230.9999202053
 42
0.4142135623731
 10
401.842310781747
 20
229.9999202053
 42
0.4142135623731
  0
LWPOLYLINE
  5
2AF
330
44
100
AcDbEntity
  8
0
  6
Continuous
 62
     7
100
AcDbPolyline
 90
        2
 70
     0
 43
0.15
 10
402.842310781747
 20
232.4999202053
 42
0.4142135623731
 10
400.342310781747
 20
229.9999202053
 42
0.4142135623731
  0
LWPOLYLINE
  5
2B0
330
44
100
AcDbEntity
  8
0
  6
Continuous
 62
     7
100
AcDbPolyline
 90
        2
 70
     0
 43
0.15
 10
504.092310781747
 20
229.9999202053
 42
0.4142135623731
 10
503.092310781747
 20
230.9999202053
 42
0.4142135623731
  0
LWPOLYLINE
  5
2B1
330
44
100
AcDbEntity
  8
0
  6
Continuous
 62
     7
100
AcDbPolyline
 90
        2
 70
     0
 43
0.15
 10
499.592310781747
 20
230.9999202053
 42
0.4142135623731
 10
498.592310781747
 20
229.9999202053
 42
0.4142135623731
  0
LWPOLYLINE
  5
2B2
330
44
100
AcDbEntity
  8
0
  6
Continuous
 62
     7
100
AcDbPolyline
 90
        2
 70
     0
 43
0.15
 10
499.592310781747
 20
232.4999202053
 42
0.4142135623731
 10
497.092310781747
 20
229.9999202053
 42
0.4142135623731
  0
LWPOLYLINE
  5
2B3
330
44
100
AcDbEntity
  8
0
  6
Continuous
 62
     7
100
AcDbPolyline
 90
        2
 70
     0
 43
0.15
 10
505.592310781747
 20
229.9999202053
 42
0.4142135623731
 10
503.092310781747
 20
232.4999202053
 42
0.4142135623731
  0
LWPOLYLINE
  5
2B4
330
44
100
AcDbEntity
  8
0
  6
Continuous
 62
     7
100
AcDbPolyline
 90
        2
 70
     0
 43
0.15
 10
520.0923107817471
 20
229.9999202053
 42
0.4142135623731
 10
519.0923107817471
 20
230.9999202053
 42
0.4142135623731
  0
LWPOLYLINE
  5
2B5
330
44
100
AcDbEntity
  8
0
  6
Continuous
 62
     7
100
AcDbPolyline
 90
        2
 70
     0
 43
0.15
 10
515.5923107817471
 20
230.9999202053
 42
0.4142135623731
 10
514.5923107817471
 20
229.9999202053
 42
0.4142135623731
  0
LWPOLYLINE
  5
2B6
330
44
100
AcDbEntity
  8
0
  6
Continuous
 62
     7
100
AcDbPolyline
 90
        2
 70
     0
 43
0.15
 10
515.5923107817471
 20
232.4999202053
 42
0.4142135623731
 10
513.0923107817471
 20
229.9999202053
 42
0.4142135623731
  0
LWPOLYLINE
  5
2B7
330
44
100
AcDbEntity
  8
0
  6
Continuous
 62
     7
100
AcDbPolyline
 90
        2
 70
     0
 43
0.15
 10
521.5923107817471
 20
229.9999202053
 42
0.4142135623731
 10
519.0923107817471
 20
232.4999202053
 42
0.4142135623731
  0
LWPOLYLINE
  5
2B8
330
44
100
AcDbEntity
  8
0
  6
Continuous
 62
     7
100
AcDbPolyline
 90
        2
 70
     0
 43
0.15
 10
451.592310781747
 20
230.9999202053
 42
0.4142135623731
 10
450.592310781747
 20
229.9999202053
 42
0.4142135623731
  0
LWPOLYLINE
  5
2B9
330
44
100
AcDbEntity
  8
0
  6
Continuous
 62
     7
100
AcDbPolyline
 90
        2
 70
     0
 43
0.15
 10
451.592310781747
 20
232.4999202053
 42
0.4142135623731
 10
449.092310781747
 20
229.9999202053
 42
0.4142135623731
  0
LWPOLYLINE
  5
2BA
330
44
100
AcDbEntity
  8
0
  6
Continuous
 62
     7
100
AcDbPolyline
 90
        2
 70
     0
 43
0.15
 10
489.592310781747
 20
229.9999202053
 42
0.4142135623731
 10
487.092310781747
 20
232.4999202053
 42
0.4142135623731
  0
LWPOLYLINE
  5
2BB
330
44
100
AcDbEntity
  8
0
  6
Continuous
 62
     7
100
AcDbPolyline
 90
        2
 70
     0
 43
0.15
 10
488.092310781747
 20
229.9999202053
 42
0.4142135623731
 10
487.092310781747
 20
230.9999202053
 42
0.4142135623731
  0
LWPOLYLINE
  5
2BC
330
44
100
AcDbEntity
  8
0
  6
Continuous
 62
     7
100
AcDbPolyline
 90
        2
 70
     0
 43
0.15
 10
531.5923107817471
 20
232.4999202053
 42
0.4142135623731
 10
529.0923107817471
 20
229.9999202053
 42
0.4142135623731
  0
LWPOLYLINE
  5
2BD
330
44
100
AcDbEntity
  8
0
  6
Continuous
 62
     7
100
AcDbPolyline
 90
        2
 70
     0
 43
0.15
 10
538.3423107817471
 20
229.9999202053
 42
0.4142135623731
 10
535.8423107817471
 20
232.4999202053
 42
0.4142135623731
  0
LWPOLYLINE
  5
2BE
330
44
100
AcDbEntity
  8
0
  6
Continuous
 62
     7
100
AcDbPolyline
 90
        2
 70
     0
 43
0.15
 10
536.8423107817471
 20
229.9999202053
 42
0.4142135623731
 10
535.8423107817471
 20
230.9999202053
 42
0.4142135623731
  0
LWPOLYLINE
  5
2BF
330
44
100
AcDbEntity
  8
0
  6
Continuous
 62
     7
100
AcDbPolyline
 90
        2
 70
     0
 43
0.15
 10
531.5923107817471
 20
230.9999202053
 42
0.4142135623731
 10
530.5923107817471
 20
229.9999202053
 42
0.4142135623731
  0
LWPOLYLINE
  5
2C0
330
44
100
AcDbEntity
  8
0
  6
Continuous
 62
     7
100
AcDbPolyline
 90
        2
 70
     0
 43
0.15
 10
536.0923107817471
 20
129.7014909637
 42
0.4142135623731
 10
534.0923107817471
 20
127.7014909637
 42
0.4142135623731
  0
LWPOLYLINE
  5
2C1
330
44
100
AcDbEntity
  8
0
  6
Continuous
 62
     7
100
AcDbPolyline
 90
        2
 70
     0
 43
0.15
 10
538.5923107817471
 20
125.2014909637
 42
0.4142135623731
 10
536.5923107817471
 20
127.2014909637
 42
0.4142135623731
  0
LWPOLYLINE
  5
2C2
330
44
100
AcDbEntity
  8
0
  6
Continuous
 62
     7
100
AcDbPolyline
 90
        2
 70
     0
 43
0.15
 10
402.092310781747
 20
127.2014909637
 42
0.4142135623731
 10
400.092310781747
 20
125.2014909637
 42
0.4142135623731
  0
LWPOLYLINE
  5
2C3
330
44
100
AcDbEntity
  8
0
  6
Continuous
 62
     7
100
AcDbPolyline
 90
        2
 70
     0
 43
0.15
 10
404.592310781747
 20
127.7014909637
 42
0.4142135623731
 10
402.592310781747
 20
129.7014909637
 42
0.4142135623731
  0
LWPOLYLINE
  5
2C4
330
44
100
AcDbEntity
  8
0
  6
Continuous
 62
     7
100
AcDbPolyline
 90
        2
 70
     0
 43
0.15
 10
649.3423107817471
 20
157.9999202053
 42
0.4142135623731
 10
647.3423107817471
 20
159.9999202053
 42
0.4142135623731
  0
LWPOLYLINE
  5
2C5
330
44
100
AcDbEntity
  8
0
  6
Continuous
 62
     7
100
AcDbPolyline
 90
        2
 70
     0
 43
0.15
 10
291.342310781747
 20
159.9999202053
 42
0.4142135623731
 10
289.342310781747
 20
157.9999202053
 42
0.4142135623731
  0
LWPOLYLINE
  5
2C6
330
44
100
AcDbEntity
  8
0
  6
Continuous
 62
     7
100
AcDbPolyline
 90
        2
 70
     0
 43
0.15
 10
539.7423107817469
 20
125.2014909637
 42
0.4142135623731
 10
538.7423107817469
 20
124.2014909637
 42
0.4142135623731
  0
LWPOLYLINE
  5
2C7
330
44
100
AcDbEntity
  8
0
  6
Continuous
 62
     7
100
AcDbPolyline
 90
        2
 70
     0
 43
0.15
 10
399.942310781747
 20
124.2014909637
 42
0.4142135623731
 10
398.942310781747
 20
125.2014909637
 42
0.4142135623731
  0
LWPOLYLINE
  5
2C8
330
44
100
AcDbEntity
  8
0
  6
Continuous
 62
     7
100
AcDbPolyline
 90
        2
 70
     0
 43
0.15
 10
537.7423107817469
 20
116.000000092
 42
0.4142135623731
 10
538.7423107817469
 20
117.000000092
 42
0.4142135623731
  0
LWPOLYLINE
  5
2C9
330
44
100
AcDbEntity
  8
0
  6
Continuous
 62
     7
100
AcDbPolyline
 90
        2
 70
     0
 43
0.15
 10
399.942310781747
 20
117.000000092
 42
0.4142135623731
 10
400.942310781747
 20
116.000000092
 42
0.4142135623731
  0
LWPOLYLINE
  5
2CA
330
44
100
AcDbEntity
  8
0
  6
Continuous
 62
     7
100
AcDbPolyline
 90
        2
 70
     0
 43
0.15
 10
533.8423107817471
 20
116.000000092
 42
0.4142135623731
 10
532.8423107817471
 20
115.000000092
 42
0.4142135623731
  0
LWPOLYLINE
  5
2CB
330
44
100
AcDbEntity
  8
0
  6
Continuous
 62
     7
100
AcDbPolyline
 90
        2
 70
     0
 43
0.15
 10
405.842310781747
 20
115.000000092
 42
0.4142135623731
 10
404.842310781747
 20
116.000000092
 42
0.4142135623731
  0
LWPOLYLINE
  5
2CC
330
44
100
AcDbEntity
  8
0
  6
Continuous
 62
     7
100
AcDbPolyline
 90
        2
 70
     0
 43
0.15
 10
396.442310781747
 20
115.000000092
 42
0.4142135623731
 10
398.942310781747
 20
112.500000092
 42
0.4142135623731
  0
LWPOLYLINE
  5
2CD
330
44
100
AcDbEntity
  8
0
  6
Continuous
 62
     7
100
AcDbPolyline
 90
        2
 70
     0
 43
0.15
 10
539.7423107817469
 20
112.500000092
 42
0.4142135623731
 10
542.2423107817469
 20
115.000000092
 42
0.4142135623731
  0
LWPOLYLINE
  5
2CE
330
44
100
AcDbEntity
  8
0
  6
Continuous
 62
     7
100
AcDbPolyline
 90
        2
 70
     0
 43
0.15
 10
549.092307784147
 20
159.9999202053
 42
0.41421268438055
 10
548.092307784152
 20
158.999923202955
 42
0.41421268438055
  0
LWPOLYLINE
  5
2CF
330
44
100
AcDbEntity
  8
0
  6
Continuous
 62
     7
100
AcDbPolyline
 90
        2
 70
     0
 43
0.15
 10
390.592313779343
 20
158.999923202955
 42
0.41421268438055
 10
389.592313779347
 20
159.9999202053
 42
0.41421268438055
  0
SPLINE
  5
2D0
330
44
100
AcDbEntity
  8
0
  6
Continuous
 62
     7
100
AcDbSpline
210
0.0
220
0.0
230
1.0
 70
     8
 71
     3
 72
    13
 73
     9
 74
     7
 42
0.0000000001
 43
0.0000000001
 44
0.00000001
 40
0.0
 40
0.0
 40
0.0
 40
0.0
 40
6.463532871391921
 40
12.92685841740725
 40
19.39529964782754
 40
25.86365733195187
 40
26.21207099776718
 40
26.56048371248814
 40
26.56048371248814
 40
26.56048371248814
 40
26.56048371248814
 10
529.760605171077
 20
221.999924629899
 30
0.0
 10
527.6463666461094
 20
221.5853020005049
 30
0.0
 10
523.4179574128476
 20
220.7560700412224
 30
0.0
 10
517.063254941316
 20
219.5653599432454
 30
0.0
 10
510.6876659774608
 20
218.4816327287781
 30
0.0
 10
506.3091914261195
 20
217.8166610418357
 30
0.0
 10
503.9444991697679
 20
217.4810182750388
 30
0.0
 10
503.7145125231848
 20
217.448490734014
 30
0.0
 10
503.599519356847
 20
217.4322269857
 30
0.0
 11
529.760605171077
 21
221.999924629899
 31
0.0
 11
523.4161484609929
 21
220.7649646170111
 31
0.0
 11
517.0617163923902
 21
219.5835374295434
 31
0.0
 11
510.6846030292818
 21
218.5004136575458
 31
0.0
 11
504.2894468454042
 21
217.530038207742
 31
0.0
 11
503.9444947837812
 21
217.4810468033028
 31
0.0
 11
503.599519356847
 21
217.4322269857
 31
0.0
  0
SPLINE
  5
2D1
330
44
100
AcDbEntity
  8
0
  6
Continuous
 62
     7
100
AcDbSpline
210
0.0
220
0.0
230
1.0
 70
     8
 71
     3
 72
    13
 73
     9
 74
     7
 42
0.0000000001
 43
0.0000000001
 44
0.00000001
 40
0.0
 40
0.0
 40
0.0
 40
0.0
 40
7.310136649522668
 40
14.61945148371398
 40
18.73781929457575
 40
22.85633974527842
 40
24.70826429423568
 40
26.56016463901767
 40
26.56016463901767
 40
26.56016463901767
 40
26.56016463901767
 10
435.085101499947
 20
217.4322269857
 30
0.0
 10
432.6765196845467
 20
217.8013937778254
 30
0.0
 10
427.8596268297328
 20
218.539685859852
 30
0.0
 10
421.6965689113061
 20
219.5561539177624
 30
0.0
 10
416.5992480046008
 20
220.4902242416429
 30
0.0
 10
413.2974586082012
 20
221.128798496547
 30
0.0
 10
410.7399210202775
 20
221.6365331612917
 30
0.0
 10
409.5293148268036
 20
221.8787946680825
 30
0.0
 10
408.92401568567
 20
221.999924629899
 30
0.0
 11
435.085101499947
 21
217.4322269857
 31
0.0
 11
427.8614582108215
 21
218.5534207540413
 31
0.0
 11
420.6518404928369
 21
219.7565399110041
 31
0.0
 11
416.6005535256097
 21
220.4968285943685
 31
0.0
 11
412.5565723327323
 21
221.2768457829677
 31
0.0
 11
410.7400055246262
 21
221.6369979268148
 31
0.0
 11
408.92401568567
 21
221.999924629899
 31
0.0
  0
SPLINE
  5
2D2
330
44
100
AcDbEntity
  8
0
  6
Continuous
 62
     7
100
AcDbSpline
210
0.0
220
0.0
230
1.0
 70
     8
 71
     3
 72
    11
 73
     7
 74
     5
 42
0.0000000001
 43
0.0000000001
 44
0.00000001
 40
0.0
 40
0.0
 40
0.0
 40
0.0
 40
0.7511252879527106
 40
1.502213542381824
 40
1.751126525073106
 40
2.000043575024716
 40
2.000043575024716
 40
2.000043575024716
 40
2.000043575024716
 10
470.342310825117
 20
68.04433092472202
 30
0.0
 10
470.0919444490071
 20
68.04639946794268
 30
0.0
 10
469.5912240408655
 20
68.05053645239643
 30
0.0
 10
469.0074998433846
 20
68.05100871836625
 30
0.0
 10
468.5912097538643
 20
68.04721436521113
 30
0.0
 10
468.4252775620615
 20
68.04529207678674
 30
0.0
 10
468.342310788329
 20
68.04433092472202
 30
0.0
 11
470.342310825117
 21
68.04433092472202
 31
0.0
 11
469.5912040433182
 21
68.04960354626142
 31
0.0
 11
468.8401158593925
 21
68.04927811023809
 31
0.0
 11
468.5912123025983
 21
68.04711192293716
 31
0.0
 11
468.342310788329
 21
68.04433092472202
 31
0.0
  0
DIMENSION
  5
2F1
330
44
100
AcDbEntity
  8
1
100
AcDbDimension
  2
*D3
 10
289.34231675737
 20
273.170557209109
 30
0.0
 11
469.8596512823297
 21
280.170556514719
 31
0.0
 70
    33
  1
<>
 71
     5
 42
-1.0
 53
0.00013888888889
  3
ME10_DIM_10
100
AcDbAlignedDimension
 13
649.3423107817471
 23
157.9999202053
 33
0.0
 14
289.342316314347
 24
157.9999215901
 34
0.0
  0
DIMENSION
  5
2FC
330
44
100
AcDbEntity
  8
1
100
AcDbDimension
  2
*D4
 10
395.342307612047
 20
251.52948205353
 30
0.0
 11
469.530931939768
 21
258.52948205353
 31
0.0
 70
    33
  1
150
 71
     5
 42
-1.0
 53
0.00013888888889
  3
ME10_DIM_11
100
AcDbAlignedDimension
 13
543.342309519447
 23
232.9999171197
 33
0.0
 14
395.342307612047
 24
232.9999171197
 34
0.0
  0
DIMENSION
  5
307
330
44
100
AcDbEntity
  8
1
100
AcDbDimension
  2
*D5
 10
389.242308661047
 20
-24.4690135061411
 30
0.0
 11
471.355265929297
 21
-17.4690135061411
 31
0.0
 70
    33
  1
<>
 71
     5
 42
-1.0
 53
0.00013888888889
  3
ME10_DIM_12
100
AcDbAlignedDimension
 13
549.4423084703469
 23
4.99999895689999
 33
0.0
 14
389.242308661047
 24
4.99999895689999
 34
0.0
  0
DIMENSION
  5
312
330
44
100
AcDbEntity
  8
1
100
AcDbDimension
  2
*D6
 10
269.321734179422
 20
159.9999181926
 30
0.0
 11
262.321734179422
 21
77.5989016361072
 31
0.0
 70
    32
  1
<>
 71
     5
 42
-1.0
 53
90.0
  3
ME10_DIM_13
100
AcDbAlignedDimension
 13
392.092312201647
 23
0.0
 33
0.0
 14
291.342305466247
 24
159.9999181926
 34
0.0
 50
90.0
100
AcDbRotatedDimension
  0
HATCH
  5
313
330
44
100
AcDbEntity
  8
0
  6
Continuous
 62
     7
100
AcDbHatch
 10
0.0
 20
0.0
 30
0.0
210
0.0
220
0.0
230
1.0
  2
CUSTOM0
 70
     0
 71
     0
 91
        1
 92
        1
 93
       13
 72
     1
 10
649.3423107817471
 20
156.500341092
 11
649.3423107817471
 21
157.9999202053
 72
     1
 10
649.3423107817471
 20
157.9999202053
 11
649.302443937429
 21
158.397258866925
 72
     1
 10
649.302443937429
 20
158.397258866925
 11
649.184432769752
 21
158.778756889952
 72
     1
 10
649.184432769752
 20
158.778756889952
 11
648.992982011566
 21
159.129205152125
 72
     1
 10
648.992982011566
 20
159.129205152125
 11
648.7357242004409
 21
159.434632387134
 72
     1
 10
648.7357242004409
 20
159.434632387134
 11
648.422915393483
 21
159.682862174951
 72
     1
 10
648.422915393483
 20
159.682862174951
 11
648.0670262906999
 21
159.86399837727
 72
     1
 10
648.0670262906999
 20
159.86399837727
 11
647.682245067547
 21
159.970819665312
 72
     1
 10
647.682245067547
 20
159.970819665312
 11
647.3423107817471
 21
159.9999202053
 72
     1
 10
647.3423107817471
 20
159.9999202053
 11
639.3423107817471
 21
159.999920205335
 72
     1
 10
639.3423107817471
 20
159.999920205335
 11
637.3423107817471
 21
157.999920205335
 72
     1
 10
637.3423107817471
 20
157.999920205335
 11
637.3423107817471
 21
156.500341092022
 72
     1
 10
637.3423107817471
 20
156.500341092022
 11
649.3423107817471
 21
156.500341092
 97
        0
 75
     1
 76
     2
 52
0.0
 41
1.0
 77
     0
 78
     1
 53
44.99999999999998
 43
0.0
 44
0.0
 45
-4.490128060534577
 46
0.0000000000000018
 79
     0
 98
        1
 10
0.0
 20
0.0
  0
HATCH
  5
314
330
44
100
AcDbEntity
  8
0
  6
Continuous
 62
     7
100
AcDbHatch
 10
0.0
 20
0.0
 30
0.0
210
0.0
220
0.0
230
1.0
  2
CUSTOM1
 70
     0
 71
     0
 91
        1
 92
        1
 93
       66
 72
     1
 10
539.7423107817469
 20
112.500000092
 11
540.238984108734
 21
112.549833647419
 72
     1
 10
540.238984108734
 20
112.549833647419
 11
540.7158566375181
 21
112.697347607015
 72
     1
 10
540.7158566375181
 20
112.697347607015
 11
541.153916965234
 21
112.936661054748
 72
     1
 10
541.153916965234
 20
112.936661054748
 11
541.5357010089949
 21
113.258233318654
 72
     1
 10
541.5357010089949
 20
113.258233318654
 11
541.845988243766
 21
113.649244327352
 72
     1
 10
541.845988243766
 20
113.649244327352
 11
542.072408496665
 21
114.094105705831
 72
     1
 10
542.072408496665
 20
114.094105705831
 11
542.205935106718
 21
114.575082234772
 72
     1
 10
542.205935106718
 20
114.575082234772
 11
542.2423107817469
 21
115.000000092
 72
     1
 10
542.2423107817469
 20
115.000000092
 11
542.242310781746
 21
121.701942092022
 72
     1
 10
542.242310781746
 20
121.701942092022
 11
545.9423107817461
 21
121.701942092022
 72
     1
 10
545.9423107817461
 20
121.701942092022
 11
546.5923107817471
 21
0.0000000920219918
 72
     1
 10
546.5923107817471
 20
0.0000000920219918
 11
548.102564819591
 21
0.0000000920219918
 72
     1
 10
548.102564819591
 20
0.0000000920219918
 11
549.442310781747
 21
5.000000091999993
 72
     1
 10
549.442310781747
 20
5.000000091999993
 11
549.442310781747
 21
138.600000092022
 72
     1
 10
549.442310781747
 20
138.600000092022
 11
551.592291781747
 21
142.400000092022
 72
     1
 10
551.592291781747
 20
142.400000092022
 11
551.5923107817471
 21
156.500341092022
 72
     1
 10
551.5923107817471
 20
156.500341092022
 11
633.3423107817471
 21
156.500341092022
 72
     1
 10
633.3423107817471
 20
156.500341092022
 11
633.3423107817471
 21
157.999920205335
 72
     1
 10
633.3423107817471
 20
157.999920205335
 11
631.3423107817471
 21
159.999920205335
 72
     1
 10
631.3423107817471
 20
159.999920205335
 11
549.092307784147
 21
159.9999202053
 72
     1
 10
549.092307784147
 20
159.9999202053
 11
548.893638453372
 21
159.979986783176
 72
     1
 10
548.893638453372
 20
159.979986783176
 11
548.7028894418579
 21
159.920981199338
 72
     1
 10
548.7028894418579
 20
159.920981199338
 11
548.5276653107719
 21
159.825255820245
 72
     1
 10
548.5276653107719
 20
159.825255820245
 11
548.374951693267
 21
159.696626914682
 72
     1
 10
548.374951693267
 20
159.696626914682
 11
548.2508367993589
 21
159.540222511203
 72
     1
 10
548.2508367993589
 20
159.540222511203
 11
548.1602686982001
 21
159.362277959812
 72
     1
 10
548.1602686982001
 20
159.362277959812
 11
548.106858054178
 21
159.169887348235
 72
     1
 10
548.106858054178
 20
159.169887348235
 11
548.092307784152
 21
158.999923202955
 72
     1
 10
548.092307784152
 20
158.999923202955
 11
548.092260727826
 21
143.301832525297
 72
     1
 10
548.092260727826
 20
143.301832525297
 11
544.092399145601
 21
136.400000092022
 72
     1
 10
544.092399145601
 20
136.400000092022
 11
544.092399145601
 21
135.500000092022
 72
     1
 10
544.092399145601
 20
135.500000092022
 11
544.8423107817471
 21
135.05691896368
 72
     1
 10
544.8423107817471
 20
135.05691896368
 11
544.8423107817471
 21
130.800000092022
 72
     1
 10
544.8423107817471
 20
130.800000092022
 11
546.3423107817471
 21
129.800000092022
 72
     1
 10
546.3423107817471
 20
129.800000092022
 11
546.3423107817471
 21
125.20149096368
 72
     1
 10
546.3423107817471
 20
125.20149096368
 11
539.7423107817469
 21
125.2014909637
 72
     1
 10
539.7423107817469
 20
125.2014909637
 11
539.543641450952
 21
125.181557541521
 72
     1
 10
539.543641450952
 20
125.181557541521
 11
539.3528924394379
 21
125.122551957683
 72
     1
 10
539.3528924394379
 20
125.122551957683
 11
539.1776683083519
 21
125.02682657859
 72
     1
 10
539.1776683083519
 20
125.02682657859
 11
539.0249546908469
 21
124.898197673027
 72
     1
 10
539.0249546908469
 20
124.898197673027
 11
538.900839796939
 21
124.741793269548
 72
     1
 10
538.900839796939
 20
124.741793269548
 11
538.810271695779
 21
124.563848718157
 72
     1
 10
538.810271695779
 20
124.563848718157
 11
538.756861051758
 21
124.37145810658
 72
     1
 10
538.756861051758
 20
124.37145810658
 11
538.7423107817469
 21
124.2014909637
 72
     1
 10
538.7423107817469
 20
124.2014909637
 11
538.7423107817469
 21
117.000000092
 72
     1
 10
538.7423107817469
 20
117.000000092
 11
538.722377359588
 21
116.801330761227
 72
     1
 10
538.722377359588
 20
116.801330761227
 11
538.663371775749
 21
116.610581749714
 72
     1
 10
538.663371775749
 20
116.610581749714
 11
538.5676463966561
 21
116.435357618627
 72
     1
 10
538.5676463966561
 20
116.435357618627
 11
538.439017491094
 21
116.282644001123
 72
     1
 10
538.439017491094
 20
116.282644001123
 11
538.282613087615
 21
116.158529107214
 72
     1
 10
538.282613087615
 20
116.158529107214
 11
538.104668536223
 21
116.067961006055
 72
     1
 10
538.104668536223
 20
116.067961006055
 11
537.912277924647
 21
116.014550362034
 72
     1
 10
537.912277924647
 20
116.014550362034
 11
537.7423107817469
 21
116.000000092
 72
     1
 10
537.7423107817469
 20
116.000000092
 11
533.8423107817471
 21
116.000000092
 72
     1
 10
533.8423107817471
 20
116.000000092
 11
533.6436414509519
 21
115.980066669864
 72
     1
 10
533.6436414509519
 20
115.980066669864
 11
533.4528924394381
 21
115.921061086025
 72
     1
 10
533.4528924394381
 20
115.921061086025
 11
533.277668308352
 21
115.825335706932
 72
     1
 10
533.277668308352
 20
115.825335706932
 11
533.1249546908471
 21
115.696706801369
 72
     1
 10
533.1249546908471
 20
115.696706801369
 11
533.000839796939
 21
115.54030239789
 72
     1
 10
533.000839796939
 20
115.54030239789
 11
532.910271695779
 21
115.362357846499
 72
     1
 10
532.910271695779
 20
115.362357846499
 11
532.856861051758
 21
115.169967234923
 72
     1
 10
532.856861051758
 20
115.169967234923
 11
532.8423107817471
 21
115.000000092
 72
     1
 10
532.8423107817471
 20
115.000000092
 11
532.8423107817471
 21
73.00000209202197
 72
     1
 10
532.8423107817471
 20
73.00000209202197
 11
536.3423107817471
 21
73.00000209202197
 72
     1
 10
536.3423107817471
 20
73.00000209202197
 11
536.3423107817471
 21
112.500000092022
 72
     1
 10
536.3423107817471
 20
112.500000092022
 11
539.7423107817469
 21
112.500000092
 97
        0
 75
     1
 76
     2
 52
0.0
 41
1.0
 77
     0
 78
     1
 53
44.99999999999998
 43
0.0
 44
0.0
 45
-4.490128060534577
 46
0.0000000000000018
 79
     0
 98
        1
 10
0.0
 20
0.0
  0
HATCH
  5
315
330
44
100
AcDbEntity
  8
0
  6
Continuous
 62
     7
100
AcDbHatch
 10
0.0
 20
0.0
 30
0.0
210
0.0
220
0.0
230
1.0
  2
CUSTOM2
 70
     0
 71
     0
 91
        1
 92
        1
 93
       66
 72
     1
 10
392.742310781746
 20
121.701942092022
 11
396.442310781747
 21
121.701942092022
 72
     1
 10
396.442310781747
 20
121.701942092022
 11
396.442310781747
 21
115.000000092
 72
     1
 10
396.442310781747
 20
115.000000092
 11
396.492144337143
 21
114.503326765035
 72
     1
 10
396.492144337143
 20
114.503326765035
 11
396.639658296739
 21
114.026454236251
 72
     1
 10
396.639658296739
 20
114.026454236251
 11
396.878971744472
 21
113.588393908535
 72
     1
 10
396.878971744472
 20
113.588393908535
 11
397.200544008379
 21
113.206609864773
 72
     1
 10
397.200544008379
 20
113.206609864773
 11
397.591555017076
 21
112.896322630003
 72
     1
 10
397.591555017076
 20
112.896322630003
 11
398.036416395555
 21
112.669902377104
 72
     1
 10
398.036416395555
 20
112.669902377104
 11
398.517392924496
 21
112.536375767051
 72
     1
 10
398.517392924496
 20
112.536375767051
 11
398.942310781747
 21
112.500000092
 72
     1
 10
398.942310781747
 20
112.500000092
 11
402.342310781746
 21
112.500000092022
 72
     1
 10
402.342310781746
 20
112.500000092022
 11
402.342310781746
 21
73.00000209202197
 72
     1
 10
402.342310781746
 20
73.00000209202197
 11
405.842310781746
 21
73.00000209202197
 72
     1
 10
405.842310781746
 20
73.00000209202197
 11
405.842310781747
 21
115.000000092
 72
     1
 10
405.842310781747
 20
115.000000092
 11
405.822377359588
 21
115.198669422817
 72
     1
 10
405.822377359588
 20
115.198669422817
 11
405.763371775749
 21
115.389418434331
 72
     1
 10
405.763371775749
 20
115.389418434331
 11
405.667646396656
 21
115.564642565417
 72
     1
 10
405.667646396656
 20
115.564642565417
 11
405.539017491094
 21
115.717356182922
 72
     1
 10
405.539017491094
 20
115.717356182922
 11
405.382613087615
 21
115.84147107683
 72
     1
 10
405.382613087615
 20
115.84147107683
 11
405.204668536223
 21
115.93203917799
 72
     1
 10
405.204668536223
 20
115.93203917799
 11
405.012277924647
 21
115.985449822011
 72
     1
 10
405.012277924647
 20
115.985449822011
 11
404.842310781747
 21
116.000000092
 72
     1
 10
404.842310781747
 20
116.000000092
 11
400.942310781747
 21
116.000000092
 72
     1
 10
400.942310781747
 20
116.000000092
 11
400.743641450951
 21
116.019933514181
 72
     1
 10
400.743641450951
 20
116.019933514181
 11
400.552892439438
 21
116.078939098019
 72
     1
 10
400.552892439438
 20
116.078939098019
 11
400.377668308351
 21
116.174664477113
 72
     1
 10
400.377668308351
 20
116.174664477113
 11
400.224954690847
 21
116.303293382675
 72
     1
 10
400.224954690847
 20
116.303293382675
 11
400.100839796939
 21
116.459697786154
 72
     1
 10
400.100839796939
 20
116.459697786154
 11
400.010271695779
 21
116.637642337546
 72
     1
 10
400.010271695779
 20
116.637642337546
 11
399.956861051758
 21
116.830032949122
 72
     1
 10
399.956861051758
 20
116.830032949122
 11
399.942310781747
 21
117.000000092
 72
     1
 10
399.942310781747
 20
117.000000092
 11
399.942310781747
 21
124.2014909637
 72
     1
 10
399.942310781747
 20
124.2014909637
 11
399.922377359588
 21
124.400160294475
 72
     1
 10
399.922377359588
 20
124.400160294475
 11
399.863371775749
 21
124.590909305989
 72
     1
 10
399.863371775749
 20
124.590909305989
 11
399.767646396656
 21
124.766133437075
 72
     1
 10
399.767646396656
 20
124.766133437075
 11
399.639017491094
 21
124.91884705458
 72
     1
 10
399.639017491094
 20
124.91884705458
 11
399.482613087615
 21
125.042961948488
 72
     1
 10
399.482613087615
 20
125.042961948488
 11
399.304668536223
 21
125.133530049647
 72
     1
 10
399.304668536223
 20
125.133530049647
 11
399.112277924647
 21
125.186940693669
 72
     1
 10
399.112277924647
 20
125.186940693669
 11
398.942310781747
 21
125.2014909637
 72
     1
 10
398.942310781747
 20
125.2014909637
 11
392.342310781746
 21
125.20149096368
 72
     1
 10
392.342310781746
 20
125.20149096368
 11
392.342310781746
 21
129.800000092022
 72
     1
 10
392.342310781746
 20
129.800000092022
 11
393.842310781746
 21
130.800000092022
 72
     1
 10
393.842310781746
 20
130.800000092022
 11
393.842310781746
 21
135.05691896368
 72
     1
 10
393.842310781746
 20
135.05691896368
 11
394.592222417893
 21
135.500000092022
 72
     1
 10
394.592222417893
 20
135.500000092022
 11
394.592222417893
 21
136.400000092022
 72
     1
 10
394.592222417893
 20
136.400000092022
 11
390.592360835667
 21
143.301832525297
 72
     1
 10
390.592360835667
 20
143.301832525297
 11
390.592313779343
 21
158.999923202955
 72
     1
 10
390.592313779343
 20
158.999923202955
 11
390.572379761621
 21
159.198592474032
 72
     1
 10
390.572379761621
 20
159.198592474032
 11
390.513373605983
 21
159.389341308666
 72
     1
 10
390.513373605983
 20
159.389341308666
 11
390.417647701628
 21
159.5645651528
 72
     1
 10
390.417647701628
 20
159.5645651528
 11
390.289018338283
 21
159.717278384718
 72
     1
 10
390.289018338283
 20
159.717278384718
 11
390.132613562751
 21
159.84139280978
 72
     1
 10
390.132613562751
 20
159.84139280978
 11
389.954668739869
 21
159.931960377522
 72
     1
 10
389.954668739869
 20
159.931960377522
 11
389.762277968186
 21
159.985370444822
 72
     1
 10
389.762277968186
 20
159.985370444822
 11
389.592313779347
 21
159.9999202053
 72
     1
 10
389.592313779347
 20
159.9999202053
 11
307.342310781747
 21
159.9999202053
 72
     1
 10
307.342310781747
 20
159.9999202053
 11
305.3423107817465
 21
157.999920205335
 72
     1
 10
305.3423107817465
 20
157.999920205335
 11
305.3423107817465
 21
156.500341092022
 72
     1
 10
305.3423107817465
 20
156.500341092022
 11
387.092310781746
 21
156.500341092022
 72
     1
 10
387.092310781746
 20
156.500341092022
 11
387.092329781747
 21
142.400000092022
 72
     1
 10
387.092329781747
 20
142.400000092022
 11
389.242310781746
 21
138.600000092022
 72
     1
 10
389.242310781746
 20
138.600000092022
 11
389.242310781747
 21
5.000000091999993
 72
     1
 10
389.242310781747
 20
5.000000091999993
 11
390.582056743947
 21
0.0000000919999934
 72
     1
 10
390.582056743947
 20
0.0000000919999934
 11
392.092310781746
 21
0.0000000920219918
 72
     1
 10
392.092310781746
 20
0.0000000920219918
 11
392.742310781746
 21
121.701942092022
 97
        0
 75
     1
 76
     2
 52
0.0
 41
1.0
 77
     0
 78
     1
 53
44.99999999999998
 43
0.0
 44
0.0
 45
-4.490128060534577
 46
0.0000000000000018
 79
     0
 98
        1
 10
0.0
 20
0.0
  0
HATCH
  5
316
330
44
100
AcDbEntity
  8
0
  6
Continuous
 62
     7
100
AcDbHatch
 10
0.0
 20
0.0
 30
0.0
210
0.0
220
0.0
230
1.0
  2
CUSTOM3
 70
     0
 71
     0
 91
        1
 92
        1
 93
       13
 72
     1
 10
299.3423107817465
 20
159.999920205335
 11
291.342310781747
 21
159.9999202053
 72
     1
 10
291.342310781747
 20
159.9999202053
 11
290.9449721201564
 21
159.960053361018
 72
     1
 10
290.9449721201564
 20
159.960053361018
 11
290.5634740971292
 21
159.842042193341
 72
     1
 10
290.5634740971292
 20
159.842042193341
 11
290.2130258349565
 21
159.650591435154
 72
     1
 10
290.2130258349565
 20
159.650591435154
 11
289.9075985999475
 21
159.393333624029
 72
     1
 10
289.9075985999475
 20
159.393333624029
 11
289.6593688121307
 21
159.080524817071
 72
     1
 10
289.6593688121307
 20
159.080524817071
 11
289.4782326098121
 21
158.724635714288
 72
     1
 10
289.4782326098121
 20
158.724635714288
 11
289.3714113217696
 21
158.339854491136
 72
     1
 10
289.3714113217696
 20
158.339854491136
 11
289.342310781747
 21
157.9999202053
 72
     1
 10
289.342310781747
 20
157.9999202053
 11
289.342310781747
 21
156.500341092
 72
     1
 10
289.342310781747
 20
156.500341092
 11
301.3423107817465
 21
156.500341092022
 72
     1
 10
301.3423107817465
 20
156.500341092022
 11
301.3423107817465
 21
157.999920205335
 72
     1
 10
301.3423107817465
 20
157.999920205335
 11
299.3423107817465
 21
159.999920205335
 97
        0
 75
     1
 76
     2
 52
0.0
 41
1.0
 77
     0
 78
     1
 53
44.99999999999998
 43
0.0
 44
0.0
 45
-4.490128060534577
 46
0.0000000000000018
 79
     0
 98
        1
 10
0.0
 20
0.0
  0
HATCH
  5
317
330
44
100
AcDbEntity
  8
0
  6
Continuous
 62
     7
100
AcDbHatch
 10
0.0
 20
0.0
 30
0.0
210
0.0
220
0.0
230
1.0
  2
CUSTOM4
 70
     0
 71
     0
 91
        1
 92
        1
 93
       22
 72
     1
 10
534.0923107817471
 20
127.20149096368
 11
536.5923107817471
 21
127.2014909637
 72
     1
 10
536.5923107817471
 20
127.2014909637
 11
536.9896494433369
 21
127.161624119363
 72
     1
 10
536.9896494433369
 20
127.161624119363
 11
537.3711474663639
 21
127.043612951686
 72
     1
 10
537.3711474663639
 20
127.043612951686
 11
537.7215957285371
 21
126.852162193499
 72
     1
 10
537.7215957285371
 20
126.852162193499
 11
538.027022963546
 21
126.594904382374
 72
     1
 10
538.027022963546
 20
126.594904382374
 11
538.275252751362
 21
126.282095575416
 72
     1
 10
538.275252751362
 20
126.282095575416
 11
538.456388953681
 21
125.926206472633
 72
     1
 10
538.456388953681
 20
125.926206472633
 11
538.563210241723
 21
125.541425249481
 72
     1
 10
538.563210241723
 20
125.541425249481
 11
538.5923107817471
 21
125.2014909637
 72
     1
 10
538.5923107817471
 20
125.2014909637
 11
545.437610781747
 21
125.20149096368
 72
     1
 10
545.437610781747
 20
125.20149096368
 11
546.5923107817471
 21
127.20149096368
 72
     1
 10
546.5923107817471
 20
127.20149096368
 11
546.5923107817471
 21
129.70149096368
 72
     1
 10
546.5923107817471
 20
129.70149096368
 11
536.0923107817471
 21
129.7014909637
 72
     1
 10
536.0923107817471
 20
129.7014909637
 11
535.694972120156
 21
129.661624119363
 72
     1
 10
535.694972120156
 20
129.661624119363
 11
535.3134740971291
 21
129.543612951686
 72
     1
 10
535.3134740971291
 20
129.543612951686
 11
534.9630258349559
 21
129.352162193499
 72
     1
 10
534.9630258349559
 20
129.352162193499
 11
534.657598599947
 21
129.094904382374
 72
     1
 10
534.657598599947
 20
129.094904382374
 11
534.409368812131
 21
128.782095575416
 72
     1
 10
534.409368812131
 20
128.782095575416
 11
534.228232609812
 21
128.426206472633
 72
     1
 10
534.228232609812
 20
128.426206472633
 11
534.12141132177
 21
128.041425249481
 72
     1
 10
534.12141132177
 20
128.041425249481
 11
534.0923107817471
 21
127.7014909637
 72
     1
 10
534.0923107817471
 20
127.7014909637
 11
534.0923107817471
 21
127.20149096368
 97
        0
 75
     1
 76
     2
 52
0.0
 41
1.0
 77
     0
 78
     1
 53
44.99999999999998
 43
0.0
 44
0.0
 45
-4.490128060534577
 46
0.0000000000000018
 79
     0
 98
        1
 10
0.0
 20
0.0
  0
HATCH
  5
318
330
44
100
AcDbEntity
  8
0
  6
Continuous
 62
     7
100
AcDbHatch
 10
0.0
 20
0.0
 30
0.0
210
0.0
220
0.0
230
1.0
  2
CUSTOM5
 70
     0
 71
     0
 91
        1
 92
        1
 93
       22
 72
     1
 10
402.092310781747
 20
127.2014909637
 11
404.592310781746
 21
127.20149096368
 72
     1
 10
404.592310781746
 20
127.20149096368
 11
404.592310781747
 21
127.7014909637
 72
     1
 10
404.592310781747
 20
127.7014909637
 11
404.552443937429
 21
128.09882962527
 72
     1
 10
404.552443937429
 20
128.09882962527
 11
404.434432769752
 21
128.480327648297
 72
     1
 10
404.434432769752
 20
128.480327648297
 11
404.242982011566
 21
128.83077591047
 72
     1
 10
404.242982011566
 20
128.83077591047
 11
403.985724200441
 21
129.136203145479
 72
     1
 10
403.985724200441
 20
129.136203145479
 11
403.672915393483
 21
129.384432933296
 72
     1
 10
403.672915393483
 20
129.384432933296
 11
403.3170262907
 21
129.565569135615
 72
     1
 10
403.3170262907
 20
129.565569135615
 11
402.932245067547
 21
129.672390423657
 72
     1
 10
402.932245067547
 20
129.672390423657
 11
402.592310781747
 21
129.7014909637
 72
     1
 10
402.592310781747
 20
129.7014909637
 11
392.092310781746
 21
129.70149096368
 72
     1
 10
392.092310781746
 20
129.70149096368
 11
392.092310781746
 21
127.20149096368
 72
     1
 10
392.092310781746
 20
127.20149096368
 11
393.247010781747
 21
125.20149096368
 72
     1
 10
393.247010781747
 20
125.20149096368
 11
400.092310781747
 21
125.2014909637
 72
     1
 10
400.092310781747
 20
125.2014909637
 11
400.132177626064
 21
125.59882962527
 72
     1
 10
400.132177626064
 20
125.59882962527
 11
400.250188793741
 21
125.980327648297
 72
     1
 10
400.250188793741
 20
125.980327648297
 11
400.441639551927
 21
126.33077591047
 72
     1
 10
400.441639551927
 20
126.33077591047
 11
400.698897363052
 21
126.636203145479
 72
     1
 10
400.698897363052
 20
126.636203145479
 11
401.01170617001
 21
126.884432933296
 72
     1
 10
401.01170617001
 20
126.884432933296
 11
401.367595272793
 21
127.065569135615
 72
     1
 10
401.367595272793
 20
127.065569135615
 11
401.752376495946
 21
127.172390423657
 72
     1
 10
401.752376495946
 20
127.172390423657
 11
402.092310781747
 21
127.2014909637
 97
        0
 75
     1
 76
     2
 52
0.0
 41
1.0
 77
     0
 78
     1
 53
44.99999999999998
 43
0.0
 44
0.0
 45
-4.490128060534577
 46
0.0000000000000018
 79
     0
 98
        1
 10
0.0
 20
0.0
  0
HATCH
  5
319
330
44
100
AcDbEntity
  8
0
  6
Continuous
 62
     7
100
AcDbHatch
 10
0.0
 20
0.0
 30
0.0
210
0.0
220
0.0
230
1.0
  2
CUSTOM6
 70
     0
 71
     0
 91
        1
 92
        1
 93
       13
 72
     1
 10
532.5923107817471
 20
73.00000209202197
 11
532.5923107817471
 21
70.70000209202202
 72
     1
 10
532.5923107817471
 20
70.70000209202202
 11
533.0923107817471
 21
70.70000209202202
 72
     1
 10
533.0923107817471
 20
70.70000209202202
 11
536.0923107817471
 21
68.05094548824802
 72
     1
 10
536.0923107817471
 20
68.05094548824802
 11
536.0923107817471
 21
65.38282081266799
 72
     1
 10
536.0923107817471
 20
65.38282081266799
 11
542.7697357971749
 21
59.486528534893
 72
     1
 10
542.7697357971749
 20
59.486528534893
 11
544.093540304522
 21
60.98570885304302
 72
     1
 10
544.093540304522
 20
60.98570885304302
 11
546.3423107817471
 21
59.00000209202197
 72
     1
 10
546.3423107817471
 20
59.00000209202197
 11
546.3423107817471
 21
61.66812680448599
 72
     1
 10
546.3423107817471
 20
61.66812680448599
 11
538.8423107817471
 21
68.29076831392
 72
     1
 10
538.8423107817471
 20
68.29076831392
 11
538.8423107817471
 21
77.00000209202197
 72
     1
 10
538.8423107817471
 20
77.00000209202197
 11
536.5923107817471
 21
77.00000209202197
 72
     1
 10
536.5923107817471
 20
77.00000209202197
 11
536.5923107817471
 21
73.00000209202197
 72
     1
 10
536.5923107817471
 20
73.00000209202197
 11
532.5923107817471
 21
73.00000209202197
 97
        0
 75
     1
 76
     2
 52
0.0
 41
1.0
 77
     0
 78
     1
 53
44.99999999999998
 43
0.0
 44
0.0
 45
-4.490128060534577
 46
0.0000000000000018
 79
     0
 98
        1
 10
0.0
 20
0.0
  0
HATCH
  5
31A
330
44
100
AcDbEntity
  8
0
  6
Continuous
 62
     7
100
AcDbHatch
 10
0.0
 20
0.0
 30
0.0
210
0.0
220
0.0
230
1.0
  2
CUSTOM7
 70
     0
 71
     0
 91
        1
 92
        1
 93
       13
 72
     1
 10
402.592310781747
 20
68.05094548824898
 11
405.592310781747
 21
70.70000209202202
 72
     1
 10
405.592310781747
 20
70.70000209202202
 11
406.092310781747
 21
70.70000209202202
 72
     1
 10
406.092310781747
 20
70.70000209202202
 11
406.092310781747
 21
73.00000209202197
 72
     1
 10
406.092310781747
 20
73.00000209202197
 11
402.092310781747
 21
73.00000209202197
 72
     1
 10
402.092310781747
 20
73.00000209202197
 11
402.092310781747
 21
77.00000209202197
 72
     1
 10
402.092310781747
 20
77.00000209202197
 11
399.842310781747
 21
77.00000209202197
 72
     1
 10
399.842310781747
 20
77.00000209202197
 11
399.842310781747
 21
68.29076831392
 72
     1
 10
399.842310781747
 20
68.29076831392
 11
392.342310781747
 21
61.66812680448599
 72
     1
 10
392.342310781747
 20
61.66812680448599
 11
392.342310781747
 21
59.00000209202197
 72
     1
 10
392.342310781747
 20
59.00000209202197
 11
394.591081258971
 21
60.98570885304302
 72
     1
 10
394.591081258971
 20
60.98570885304302
 11
395.914885766318
 21
59.48652853489402
 72
     1
 10
395.914885766318
 20
59.48652853489402
 11
402.592310781747
 21
65.38282081266799
 72
     1
 10
402.592310781747
 20
65.38282081266799
 11
402.592310781747
 21
68.05094548824898
 97
        0
 75
     1
 76
     2
 52
0.0
 41
1.0
 77
     0
 78
     1
 53
44.99999999999998
 43
0.0
 44
0.0
 45
-4.490128060534577
 46
0.0000000000000018
 79
     0
 98
        1
 10
0.0
 20
0.0
  0
HATCH
  5
31B
330
44
100
AcDbEntity
  8
0
  6
Continuous
 62
     7
100
AcDbHatch
 10
0.0
 20
0.0
 30
0.0
210
0.0
220
0.0
230
1.0
  2
CUSTOM8
 70
     0
 71
     0
 91
        1
 92
        1
 93
       40
 72
     1
 10
536.8423107817471
 20
227.499920205335
 11
538.3423107817471
 21
227.499920205335
 72
     1
 10
538.3423107817471
 20
227.499920205335
 11
538.3423107817471
 21
229.9999202053
 72
     1
 10
538.3423107817471
 20
229.9999202053
 11
538.29247722635
 21
230.496593532323
 72
     1
 10
538.29247722635
 20
230.496593532323
 11
538.144963266754
 21
230.973466061107
 72
     1
 10
538.144963266754
 20
230.973466061107
 11
537.9056498190209
 21
231.411526388823
 72
     1
 10
537.9056498190209
 20
231.411526388823
 11
537.5840775551139
 21
231.793310432584
 72
     1
 10
537.5840775551139
 20
231.793310432584
 11
537.193066546417
 21
232.103597667355
 72
     1
 10
537.193066546417
 20
232.103597667355
 11
536.7482051679381
 21
232.330017920253
 72
     1
 10
536.7482051679381
 20
232.330017920253
 11
536.267228638997
 21
232.463544530306
 72
     1
 10
536.267228638997
 20
232.463544530306
 11
535.8423107817471
 21
232.4999202053
 72
     1
 10
535.8423107817471
 20
232.4999202053
 11
531.5923107817471
 21
232.4999202053
 72
     1
 10
531.5923107817471
 20
232.4999202053
 11
531.0956374547591
 21
232.450086649938
 72
     1
 10
531.0956374547591
 20
232.450086649938
 11
530.618764925975
 21
232.302572690342
 72
     1
 10
530.618764925975
 20
232.302572690342
 11
530.180704598259
 21
232.063259242609
 72
     1
 10
530.180704598259
 20
232.063259242609
 11
529.798920554498
 21
231.741686978703
 72
     1
 10
529.798920554498
 20
231.741686978703
 11
529.488633319727
 21
231.350675970006
 72
     1
 10
529.488633319727
 20
231.350675970006
 11
529.262213066828
 21
230.905814591527
 72
     1
 10
529.262213066828
 20
230.905814591527
 11
529.128686456775
 21
230.424838062586
 72
     1
 10
529.128686456775
 20
230.424838062586
 11
529.0923107817471
 21
229.9999202053
 72
     1
 10
529.0923107817471
 20
229.9999202053
 11
529.0923107817471
 21
228.499920205335
 72
     1
 10
529.0923107817471
 20
228.499920205335
 11
530.5923107817471
 21
228.499920205335
 72
     1
 10
530.5923107817471
 20
228.499920205335
 11
530.5923107817471
 21
229.9999202053
 72
     1
 10
530.5923107817471
 20
229.9999202053
 11
530.612244203905
 21
230.19858953613
 72
     1
 10
530.612244203905
 20
230.19858953613
 11
530.671249787744
 21
230.389338547644
 72
     1
 10
530.671249787744
 20
230.389338547644
 11
530.766975166837
 21
230.56456267873
 72
     1
 10
530.766975166837
 20
230.56456267873
 11
530.895604072399
 21
230.717276296235
 72
     1
 10
530.895604072399
 20
230.717276296235
 11
531.052008475878
 21
230.841391190143
 72
     1
 10
531.052008475878
 20
230.841391190143
 11
531.22995302727
 21
230.931959291302
 72
     1
 10
531.22995302727
 20
230.931959291302
 11
531.422343638846
 21
230.985369935324
 72
     1
 10
531.422343638846
 20
230.985369935324
 11
531.5923107817471
 21
230.9999202053
 72
     1
 10
531.5923107817471
 20
230.9999202053
 11
535.8423107817471
 21
230.9999202053
 72
     1
 10
535.8423107817471
 20
230.9999202053
 11
536.040980112542
 21
230.979986783176
 72
     1
 10
536.040980112542
 20
230.979986783176
 11
536.2317291240549
 21
230.920981199338
 72
     1
 10
536.2317291240549
 20
230.920981199338
 11
536.4069532551421
 21
230.825255820245
 72
     1
 10
536.4069532551421
 20
230.825255820245
 11
536.559666872646
 21
230.696626914682
 72
     1
 10
536.559666872646
 20
230.696626914682
 11
536.6837817665551
 21
230.540222511203
 72
     1
 10
536.6837817665551
 20
230.540222511203
 11
536.7743498677139
 21
230.362277959812
 72
     1
 10
536.7743498677139
 20
230.362277959812
 11
536.827760511735
 21
230.169887348235
 72
     1
 10
536.827760511735
 20
230.169887348235
 11
536.8423107817471
 21
229.9999202053
 72
     1
 10
536.8423107817471
 20
229.9999202053
 11
536.8423107817471
 21
227.499920205335
 97
        0
 75
     1
 76
     2
 52
0.0
 41
1.0
 77
     0
 78
     1
 53
44.99999999999998
 43
0.0
 44
0.0
 45
-4.490128060534577
 46
0.0000000000000018
 79
     0
 98
        1
 10
0.0
 20
0.0
  0
HATCH
  5
31C
330
44
100
AcDbEntity
  8
0
  6
Continuous
 62
     7
100
AcDbHatch
 10
0.0
 20
0.0
 30
0.0
210
0.0
220
0.0
230
1.0
  2
CUSTOM9
 70
     0
 71
     0
 91
        1
 92
        1
 93
       40
 72
     1
 10
433.092310781747
 20
229.9999202053
 11
433.092310781746
 21
228.499920205335
 72
     1
 10
433.092310781746
 20
228.499920205335
 11
434.592310781746
 21
228.499920205335
 72
     1
 10
434.592310781746
 20
228.499920205335
 11
434.592310781747
 21
229.9999202053
 72
     1
 10
434.592310781747
 20
229.9999202053
 11
434.612244203905
 21
230.19858953613
 72
     1
 10
434.612244203905
 20
230.19858953613
 11
434.671249787744
 21
230.389338547644
 72
     1
 10
434.671249787744
 20
230.389338547644
 11
434.766975166837
 21
230.56456267873
 72
     1
 10
434.766975166837
 20
230.56456267873
 11
434.895604072399
 21
230.717276296235
 72
     1
 10
434.895604072399
 20
230.717276296235
 11
435.052008475878
 21
230.841391190143
 72
     1
 10
435.052008475878
 20
230.841391190143
 11
435.22995302727
 21
230.931959291302
 72
     1
 10
435.22995302727
 20
230.931959291302
 11
435.422343638846
 21
230.985369935324
 72
     1
 10
435.422343638846
 20
230.985369935324
 11
435.592310781747
 21
230.9999202053
 72
     1
 10
435.592310781747
 20
230.9999202053
 11
439.092310781747
 21
230.9999202053
 72
     1
 10
439.092310781747
 20
230.9999202053
 11
439.290980112542
 21
230.979986783176
 72
     1
 10
439.290980112542
 20
230.979986783176
 11
439.481729124055
 21
230.920981199338
 72
     1
 10
439.481729124055
 20
230.920981199338
 11
439.656953255142
 21
230.825255820245
 72
     1
 10
439.656953255142
 20
230.825255820245
 11
439.809666872646
 21
230.696626914682
 72
     1
 10
439.809666872646
 20
230.696626914682
 11
439.933781766554
 21
230.540222511203
 72
     1
 10
439.933781766554
 20
230.540222511203
 11
440.024349867714
 21
230.362277959812
 72
     1
 10
440.024349867714
 20
230.362277959812
 11
440.077760511735
 21
230.169887348235
 72
     1
 10
440.077760511735
 20
230.169887348235
 11
440.092310781747
 21
229.9999202053
 72
     1
 10
440.092310781747
 20
229.9999202053
 11
440.092310781746
 21
228.499920205335
 72
     1
 10
440.092310781746
 20
228.499920205335
 11
441.592310781746
 21
228.499920205335
 72
     1
 10
441.592310781746
 20
228.499920205335
 11
441.592310781747
 21
229.9999202053
 72
     1
 10
441.592310781747
 20
229.9999202053
 11
441.54247722635
 21
230.496593532323
 72
     1
 10
441.54247722635
 20
230.496593532323
 11
441.394963266754
 21
230.973466061107
 72
     1
 10
441.394963266754
 20
230.973466061107
 11
441.155649819021
 21
231.411526388823
 72
     1
 10
441.155649819021
 20
231.411526388823
 11
440.834077555114
 21
231.793310432584
 72
     1
 10
440.834077555114
 20
231.793310432584
 11
440.443066546417
 21
232.103597667355
 72
     1
 10
440.443066546417
 20
232.103597667355
 11
439.998205167938
 21
232.330017920253
 72
     1
 10
439.998205167938
 20
232.330017920253
 11
439.517228638997
 21
232.463544530306
 72
     1
 10
439.517228638997
 20
232.463544530306
 11
439.092310781747
 21
232.4999202053
 72
     1
 10
439.092310781747
 20
232.4999202053
 11
435.592310781747
 21
232.4999202053
 72
     1
 10
435.592310781747
 20
232.4999202053
 11
435.095637454759
 21
232.450086649938
 72
     1
 10
435.095637454759
 20
232.450086649938
 11
434.618764925975
 21
232.302572690342
 72
     1
 10
434.618764925975
 20
232.302572690342
 11
434.180704598259
 21
232.063259242609
 72
     1
 10
434.180704598259
 20
232.063259242609
 11
433.798920554498
 21
231.741686978703
 72
     1
 10
433.798920554498
 20
231.741686978703
 11
433.488633319727
 21
231.350675970006
 72
     1
 10
433.488633319727
 20
231.350675970006
 11
433.262213066828
 21
230.905814591527
 72
     1
 10
433.262213066828
 20
230.905814591527
 11
433.128686456775
 21
230.424838062586
 72
     1
 10
433.128686456775
 20
230.424838062586
 11
433.092310781747
 21
229.9999202053
 97
        0
 75
     1
 76
     2
 52
0.0
 41
1.0
 77
     0
 78
     1
 53
44.99999999999998
 43
0.0
 44
0.0
 45
-4.490128060534577
 46
0.0000000000000018
 79
     0
 98
        1
 10
0.0
 20
0.0
  0
HATCH
  5
31D
330
44
100
AcDbEntity
  8
0
  6
Continuous
 62
     7
100
AcDbHatch
 10
0.0
 20
0.0
 30
0.0
210
0.0
220
0.0
230
1.0
  2
CUSTOM10
 70
     0
 71
     0
 91
        1
 92
        1
 93
       40
 72
     1
 10
417.092310781747
 20
229.9999202053
 11
417.092310781746
 21
228.499920205335
 72
     1
 10
417.092310781746
 20
228.499920205335
 11
418.592310781746
 21
228.499920205335
 72
     1
 10
418.592310781746
 20
228.499920205335
 11
418.592310781747
 21
229.9999202053
 72
     1
 10
418.592310781747
 20
229.9999202053
 11
418.612244203905
 21
230.19858953613
 72
     1
 10
418.612244203905
 20
230.19858953613
 11
418.671249787744
 21
230.389338547644
 72
     1
 10
418.671249787744
 20
230.389338547644
 11
418.766975166837
 21
230.56456267873
 72
     1
 10
418.766975166837
 20
230.56456267873
 11
418.895604072399
 21
230.717276296235
 72
     1
 10
418.895604072399
 20
230.717276296235
 11
419.052008475878
 21
230.841391190143
 72
     1
 10
419.052008475878
 20
230.841391190143
 11
419.22995302727
 21
230.931959291302
 72
     1
 10
419.22995302727
 20
230.931959291302
 11
419.422343638846
 21
230.985369935324
 72
     1
 10
419.422343638846
 20
230.985369935324
 11
419.592310781747
 21
230.9999202053
 72
     1
 10
419.592310781747
 20
230.9999202053
 11
423.092310781747
 21
230.9999202053
 72
     1
 10
423.092310781747
 20
230.9999202053
 11
423.290980112542
 21
230.979986783176
 72
     1
 10
423.290980112542
 20
230.979986783176
 11
423.481729124055
 21
230.920981199338
 72
     1
 10
423.481729124055
 20
230.920981199338
 11
423.656953255142
 21
230.825255820245
 72
     1
 10
423.656953255142
 20
230.825255820245
 11
423.809666872646
 21
230.696626914682
 72
     1
 10
423.809666872646
 20
230.696626914682
 11
423.933781766554
 21
230.540222511203
 72
     1
 10
423.933781766554
 20
230.540222511203
 11
424.024349867714
 21
230.362277959812
 72
     1
 10
424.024349867714
 20
230.362277959812
 11
424.077760511735
 21
230.169887348235
 72
     1
 10
424.077760511735
 20
230.169887348235
 11
424.092310781747
 21
229.9999202053
 72
     1
 10
424.092310781747
 20
229.9999202053
 11
424.092310781746
 21
228.499920205335
 72
     1
 10
424.092310781746
 20
228.499920205335
 11
425.592310781746
 21
228.499920205335
 72
     1
 10
425.592310781746
 20
228.499920205335
 11
425.592310781747
 21
229.9999202053
 72
     1
 10
425.592310781747
 20
229.9999202053
 11
425.54247722635
 21
230.496593532323
 72
     1
 10
425.54247722635
 20
230.496593532323
 11
425.394963266754
 21
230.973466061107
 72
     1
 10
425.394963266754
 20
230.973466061107
 11
425.155649819021
 21
231.411526388823
 72
     1
 10
425.155649819021
 20
231.411526388823
 11
424.834077555114
 21
231.793310432584
 72
     1
 10
424.834077555114
 20
231.793310432584
 11
424.443066546417
 21
232.103597667355
 72
     1
 10
424.443066546417
 20
232.103597667355
 11
423.998205167938
 21
232.330017920253
 72
     1
 10
423.998205167938
 20
232.330017920253
 11
423.517228638997
 21
232.463544530306
 72
     1
 10
423.517228638997
 20
232.463544530306
 11
423.092310781747
 21
232.4999202053
 72
     1
 10
423.092310781747
 20
232.4999202053
 11
419.592310781747
 21
232.4999202053
 72
     1
 10
419.592310781747
 20
232.4999202053
 11
419.095637454759
 21
232.450086649938
 72
     1
 10
419.095637454759
 20
232.450086649938
 11
418.618764925975
 21
232.302572690342
 72
     1
 10
418.618764925975
 20
232.302572690342
 11
418.180704598259
 21
232.063259242609
 72
     1
 10
418.180704598259
 20
232.063259242609
 11
417.798920554498
 21
231.741686978703
 72
     1
 10
417.798920554498
 20
231.741686978703
 11
417.488633319727
 21
231.350675970006
 72
     1
 10
417.488633319727
 20
231.350675970006
 11
417.262213066828
 21
230.905814591527
 72
     1
 10
417.262213066828
 20
230.905814591527
 11
417.128686456775
 21
230.424838062586
 72
     1
 10
417.128686456775
 20
230.424838062586
 11
417.092310781747
 21
229.9999202053
 97
        0
 75
     1
 76
     2
 52
0.0
 41
1.0
 77
     0
 78
     1
 53
44.99999999999998
 43
0.0
 44
0.0
 45
-4.490128060534577
 46
0.0000000000000018
 79
     0
 98
        1
 10
0.0
 20
0.0
  0
HATCH
  5
31E
330
44
100
AcDbEntity
  8
0
  6
Continuous
 62
     7
100
AcDbHatch
 10
0.0
 20
0.0
 30
0.0
210
0.0
220
0.0
230
1.0
  2
CUSTOM11
 70
     0
 71
     0
 91
        1
 92
        1
 93
       40
 72
     1
 10
402.842310781747
 20
232.4999202053
 11
402.345637454759
 21
232.450086649938
 72
     1
 10
402.345637454759
 20
232.450086649938
 11
401.868764925975
 21
232.302572690342
 72
     1
 10
401.868764925975
 20
232.302572690342
 11
401.430704598259
 21
232.063259242609
 72
     1
 10
401.430704598259
 20
232.063259242609
 11
401.048920554498
 21
231.741686978703
 72
     1
 10
401.048920554498
 20
231.741686978703
 11
400.738633319727
 21
231.350675970006
 72
     1
 10
400.738633319727
 20
231.350675970006
 11
400.512213066828
 21
230.905814591527
 72
     1
 10
400.512213066828
 20
230.905814591527
 11
400.378686456775
 21
230.424838062586
 72
     1
 10
400.378686456775
 20
230.424838062586
 11
400.342310781747
 21
229.9999202053
 72
     1
 10
400.342310781747
 20
229.9999202053
 11
400.342310781747
 21
227.499920205335
 72
     1
 10
400.342310781747
 20
227.499920205335
 11
401.842310781746
 21
227.499920205335
 72
     1
 10
401.842310781746
 20
227.499920205335
 11
401.842310781747
 21
229.9999202053
 72
     1
 10
401.842310781747
 20
229.9999202053
 11
401.862244203905
 21
230.19858953613
 72
     1
 10
401.862244203905
 20
230.19858953613
 11
401.921249787744
 21
230.389338547644
 72
     1
 10
401.921249787744
 20
230.389338547644
 11
402.016975166837
 21
230.56456267873
 72
     1
 10
402.016975166837
 20
230.56456267873
 11
402.145604072399
 21
230.717276296235
 72
     1
 10
402.145604072399
 20
230.717276296235
 11
402.302008475878
 21
230.841391190143
 72
     1
 10
402.302008475878
 20
230.841391190143
 11
402.47995302727
 21
230.931959291302
 72
     1
 10
402.47995302727
 20
230.931959291302
 11
402.672343638846
 21
230.985369935324
 72
     1
 10
402.672343638846
 20
230.985369935324
 11
402.842310781747
 21
230.9999202053
 72
     1
 10
402.842310781747
 20
230.9999202053
 11
407.092310781747
 21
230.9999202053
 72
     1
 10
407.092310781747
 20
230.9999202053
 11
407.290980112542
 21
230.979986783176
 72
     1
 10
407.290980112542
 20
230.979986783176
 11
407.481729124055
 21
230.920981199338
 72
     1
 10
407.481729124055
 20
230.920981199338
 11
407.656953255142
 21
230.825255820245
 72
     1
 10
407.656953255142
 20
230.825255820245
 11
407.809666872646
 21
230.696626914682
 72
     1
 10
407.809666872646
 20
230.696626914682
 11
407.933781766555
 21
230.540222511203
 72
     1
 10
407.933781766555
 20
230.540222511203
 11
408.024349867714
 21
230.362277959812
 72
     1
 10
408.024349867714
 20
230.362277959812
 11
408.077760511735
 21
230.169887348235
 72
     1
 10
408.077760511735
 20
230.169887348235
 11
408.092310781747
 21
229.9999202053
 72
     1
 10
408.092310781747
 20
229.9999202053
 11
408.092310781747
 21
228.499920205335
 72
     1
 10
408.092310781747
 20
228.499920205335
 11
409.592310781747
 21
228.499920205335
 72
     1
 10
409.592310781747
 20
228.499920205335
 11
409.592310781747
 21
229.9999202053
 72
     1
 10
409.592310781747
 20
229.9999202053
 11
409.54247722635
 21
230.496593532323
 72
     1
 10
409.54247722635
 20
230.496593532323
 11
409.394963266754
 21
230.973466061107
 72
     1
 10
409.394963266754
 20
230.973466061107
 11
409.155649819021
 21
231.411526388823
 72
     1
 10
409.155649819021
 20
231.411526388823
 11
408.834077555115
 21
231.793310432584
 72
     1
 10
408.834077555115
 20
231.793310432584
 11
408.443066546417
 21
232.103597667355
 72
     1
 10
408.443066546417
 20
232.103597667355
 11
407.998205167938
 21
232.330017920253
 72
     1
 10
407.998205167938
 20
232.330017920253
 11
407.517228638997
 21
232.463544530306
 72
     1
 10
407.517228638997
 20
232.463544530306
 11
407.092310781747
 21
232.4999202053
 72
     1
 10
407.092310781747
 20
232.4999202053
 11
402.842310781747
 21
232.4999202053
 97
        0
 75
     1
 76
     2
 52
0.0
 41
1.0
 77
     0
 78
     1
 53
44.99999999999998
 43
0.0
 44
0.0
 45
-4.490128060534577
 46
0.0000000000000018
 79
     0
 98
        1
 10
0.0
 20
0.0
  0
HATCH
  5
31F
330
44
100
AcDbEntity
  8
0
  6
Continuous
 62
     7
100
AcDbHatch
 10
0.0
 20
0.0
 30
0.0
210
0.0
220
0.0
230
1.0
  2
CUSTOM12
 70
     0
 71
     0
 91
        1
 92
        1
 93
       40
 72
     1
 10
504.092310781747
 20
229.9999202053
 11
504.092310781747
 21
228.499920205335
 72
     1
 10
504.092310781747
 20
228.499920205335
 11
505.592310781747
 21
228.499920205335
 72
     1
 10
505.592310781747
 20
228.499920205335
 11
505.592310781747
 21
229.9999202053
 72
     1
 10
505.592310781747
 20
229.9999202053
 11
505.54247722635
 21
230.496593532323
 72
     1
 10
505.54247722635
 20
230.496593532323
 11
505.394963266754
 21
230.973466061107
 72
     1
 10
505.394963266754
 20
230.973466061107
 11
505.155649819021
 21
231.411526388823
 72
     1
 10
505.155649819021
 20
231.411526388823
 11
504.834077555115
 21
231.793310432584
 72
     1
 10
504.834077555115
 20
231.793310432584
 11
504.443066546417
 21
232.103597667355
 72
     1
 10
504.443066546417
 20
232.103597667355
 11
503.998205167938
 21
232.330017920253
 72
     1
 10
503.998205167938
 20
232.330017920253
 11
503.517228638997
 21
232.463544530306
 72
     1
 10
503.517228638997
 20
232.463544530306
 11
503.092310781747
 21
232.4999202053
 72
     1
 10
503.092310781747
 20
232.4999202053
 11
499.592310781747
 21
232.4999202053
 72
     1
 10
499.592310781747
 20
232.4999202053
 11
499.095637454759
 21
232.450086649938
 72
     1
 10
499.095637454759
 20
232.450086649938
 11
498.618764925975
 21
232.302572690342
 72
     1
 10
498.618764925975
 20
232.302572690342
 11
498.180704598259
 21
232.063259242609
 72
     1
 10
498.180704598259
 20
232.063259242609
 11
497.798920554498
 21
231.741686978703
 72
     1
 10
497.798920554498
 20
231.741686978703
 11
497.488633319727
 21
231.350675970006
 72
     1
 10
497.488633319727
 20
231.350675970006
 11
497.262213066828
 21
230.905814591527
 72
     1
 10
497.262213066828
 20
230.905814591527
 11
497.128686456775
 21
230.424838062586
 72
     1
 10
497.128686456775
 20
230.424838062586
 11
497.092310781747
 21
229.9999202053
 72
     1
 10
497.092310781747
 20
229.9999202053
 11
497.092310781746
 21
228.499920205335
 72
     1
 10
497.092310781746
 20
228.499920205335
 11
498.592310781746
 21
228.499920205335
 72
     1
 10
498.592310781746
 20
228.499920205335
 11
498.592310781747
 21
229.9999202053
 72
     1
 10
498.592310781747
 20
229.9999202053
 11
498.612244203905
 21
230.19858953613
 72
     1
 10
498.612244203905
 20
230.19858953613
 11
498.671249787744
 21
230.389338547644
 72
     1
 10
498.671249787744
 20
230.389338547644
 11
498.766975166837
 21
230.56456267873
 72
     1
 10
498.766975166837
 20
230.56456267873
 11
498.895604072399
 21
230.717276296235
 72
     1
 10
498.895604072399
 20
230.717276296235
 11
499.052008475878
 21
230.841391190143
 72
     1
 10
499.052008475878
 20
230.841391190143
 11
499.22995302727
 21
230.931959291302
 72
     1
 10
499.22995302727
 20
230.931959291302
 11
499.422343638846
 21
230.985369935324
 72
     1
 10
499.422343638846
 20
230.985369935324
 11
499.592310781747
 21
230.9999202053
 72
     1
 10
499.592310781747
 20
230.9999202053
 11
503.092310781747
 21
230.9999202053
 72
     1
 10
503.092310781747
 20
230.9999202053
 11
503.290980112542
 21
230.979986783177
 72
     1
 10
503.290980112542
 20
230.979986783177
 11
503.481729124055
 21
230.920981199338
 72
     1
 10
503.481729124055
 20
230.920981199338
 11
503.656953255142
 21
230.825255820245
 72
     1
 10
503.656953255142
 20
230.825255820245
 11
503.809666872646
 21
230.696626914682
 72
     1
 10
503.809666872646
 20
230.696626914682
 11
503.933781766554
 21
230.540222511204
 72
     1
 10
503.933781766554
 20
230.540222511204
 11
504.024349867714
 21
230.362277959812
 72
     1
 10
504.024349867714
 20
230.362277959812
 11
504.077760511735
 21
230.169887348236
 72
     1
 10
504.077760511735
 20
230.169887348236
 11
504.092310781747
 21
229.9999202053
 97
        0
 75
     1
 76
     2
 52
0.0
 41
1.0
 77
     0
 78
     1
 53
44.99999999999998
 43
0.0
 44
0.0
 45
-4.490128060534577
 46
0.0000000000000018
 79
     0
 98
        1
 10
0.0
 20
0.0
  0
HATCH
  5
320
330
44
100
AcDbEntity
  8
0
  6
Continuous
 62
     7
100
AcDbHatch
 10
0.0
 20
0.0
 30
0.0
210
0.0
220
0.0
230
1.0
  2
CUSTOM13
 70
     0
 71
     0
 91
        1
 92
        1
 93
       40
 72
     1
 10
520.0923107817471
 20
229.9999202053
 11
520.0923107817471
 21
228.499920205335
 72
     1
 10
520.0923107817471
 20
228.499920205335
 11
521.5923107817471
 21
228.499920205335
 72
     1
 10
521.5923107817471
 20
228.499920205335
 11
521.5923107817471
 21
229.9999202053
 72
     1
 10
521.5923107817471
 20
229.9999202053
 11
521.54247722635
 21
230.496593532323
 72
     1
 10
521.54247722635
 20
230.496593532323
 11
521.394963266754
 21
230.973466061107
 72
     1
 10
521.394963266754
 20
230.973466061107
 11
521.1556498190209
 21
231.411526388823
 72
     1
 10
521.1556498190209
 20
231.411526388823
 11
520.8340775551139
 21
231.793310432584
 72
     1
 10
520.8340775551139
 20
231.793310432584
 11
520.443066546417
 21
232.103597667355
 72
     1
 10
520.443066546417
 20
232.103597667355
 11
519.9982051679381
 21
232.330017920253
 72
     1
 10
519.9982051679381
 20
232.330017920253
 11
519.517228638997
 21
232.463544530306
 72
     1
 10
519.517228638997
 20
232.463544530306
 11
519.0923107817471
 21
232.4999202053
 72
     1
 10
519.0923107817471
 20
232.4999202053
 11
515.5923107817471
 21
232.4999202053
 72
     1
 10
515.5923107817471
 20
232.4999202053
 11
515.0956374547591
 21
232.450086649938
 72
     1
 10
515.0956374547591
 20
232.450086649938
 11
514.618764925975
 21
232.302572690342
 72
     1
 10
514.618764925975
 20
232.302572690342
 11
514.180704598259
 21
232.063259242609
 72
     1
 10
514.180704598259
 20
232.063259242609
 11
513.798920554498
 21
231.741686978703
 72
     1
 10
513.798920554498
 20
231.741686978703
 11
513.488633319727
 21
231.350675970006
 72
     1
 10
513.488633319727
 20
231.350675970006
 11
513.262213066828
 21
230.905814591527
 72
     1
 10
513.262213066828
 20
230.905814591527
 11
513.128686456775
 21
230.424838062586
 72
     1
 10
513.128686456775
 20
230.424838062586
 11
513.0923107817471
 21
229.9999202053
 72
     1
 10
513.0923107817471
 20
229.9999202053
 11
513.0923107817471
 21
228.499920205335
 72
     1
 10
513.0923107817471
 20
228.499920205335
 11
514.5923107817471
 21
228.499920205335
 72
     1
 10
514.5923107817471
 20
228.499920205335
 11
514.5923107817471
 21
229.9999202053
 72
     1
 10
514.5923107817471
 20
229.9999202053
 11
514.612244203905
 21
230.19858953613
 72
     1
 10
514.612244203905
 20
230.19858953613
 11
514.671249787744
 21
230.389338547644
 72
     1
 10
514.671249787744
 20
230.389338547644
 11
514.766975166837
 21
230.56456267873
 72
     1
 10
514.766975166837
 20
230.56456267873
 11
514.895604072399
 21
230.717276296235
 72
     1
 10
514.895604072399
 20
230.717276296235
 11
515.052008475878
 21
230.841391190143
 72
     1
 10
515.052008475878
 20
230.841391190143
 11
515.22995302727
 21
230.931959291302
 72
     1
 10
515.22995302727
 20
230.931959291302
 11
515.422343638846
 21
230.985369935324
 72
     1
 10
515.422343638846
 20
230.985369935324
 11
515.5923107817471
 21
230.9999202053
 72
     1
 10
515.5923107817471
 20
230.9999202053
 11
519.0923107817471
 21
230.9999202053
 72
     1
 10
519.0923107817471
 20
230.9999202053
 11
519.290980112541
 21
230.979986783177
 72
     1
 10
519.290980112541
 20
230.979986783177
 11
519.4817291240549
 21
230.920981199338
 72
     1
 10
519.4817291240549
 20
230.920981199338
 11
519.6569532551409
 21
230.825255820245
 72
     1
 10
519.6569532551409
 20
230.825255820245
 11
519.809666872646
 21
230.696626914683
 72
     1
 10
519.809666872646
 20
230.696626914683
 11
519.9337817665539
 21
230.540222511204
 72
     1
 10
519.9337817665539
 20
230.540222511204
 11
520.0243498677139
 21
230.362277959812
 72
     1
 10
520.0243498677139
 20
230.362277959812
 11
520.077760511735
 21
230.169887348236
 72
     1
 10
520.077760511735
 20
230.169887348236
 11
520.0923107817471
 21
229.9999202053
 97
        0
 75
     1
 76
     2
 52
0.0
 41
1.0
 77
     0
 78
     1
 53
44.99999999999998
 43
0.0
 44
0.0
 45
-4.490128060534577
 46
0.0000000000000018
 79
     0
 98
        1
 10
0.0
 20
0.0
  0
HATCH
  5
321
330
44
100
AcDbEntity
  8
0
  6
Continuous
 62
     7
100
AcDbHatch
 10
0.0
 20
0.0
 30
0.0
210
0.0
220
0.0
230
1.0
  2
CUSTOM14
 70
     0
 71
     0
 91
        1
 92
        1
 93
       48
 72
     1
 10
487.092310781747
 20
230.9999202053
 11
487.290980112542
 21
230.979986783176
 72
     1
 10
487.290980112542
 20
230.979986783176
 11
487.481729124055
 21
230.920981199338
 72
     1
 10
487.481729124055
 20
230.920981199338
 11
487.656953255141
 21
230.825255820245
 72
     1
 10
487.656953255141
 20
230.825255820245
 11
487.809666872646
 21
230.696626914682
 72
     1
 10
487.809666872646
 20
230.696626914682
 11
487.933781766554
 21
230.540222511203
 72
     1
 10
487.933781766554
 20
230.540222511203
 11
488.024349867714
 21
230.362277959812
 72
     1
 10
488.024349867714
 20
230.362277959812
 11
488.077760511735
 21
230.169887348236
 72
     1
 10
488.077760511735
 20
230.169887348236
 11
488.092310781747
 21
229.9999202053
 72
     1
 10
488.092310781747
 20
229.9999202053
 11
488.092310781746
 21
228.499920205335
 72
     1
 10
488.092310781746
 20
228.499920205335
 11
489.592310781746
 21
228.499920205335
 72
     1
 10
489.592310781746
 20
228.499920205335
 11
489.592310781747
 21
229.9999202053
 72
     1
 10
489.592310781747
 20
229.9999202053
 11
489.54247722635
 21
230.496593532323
 72
     1
 10
489.54247722635
 20
230.496593532323
 11
489.394963266754
 21
230.973466061107
 72
     1
 10
489.394963266754
 20
230.973466061107
 11
489.155649819021
 21
231.411526388823
 72
     1
 10
489.155649819021
 20
231.411526388823
 11
488.834077555114
 21
231.793310432584
 72
     1
 10
488.834077555114
 20
231.793310432584
 11
488.443066546417
 21
232.103597667355
 72
     1
 10
488.443066546417
 20
232.103597667355
 11
487.998205167938
 21
232.330017920253
 72
     1
 10
487.998205167938
 20
232.330017920253
 11
487.517228638997
 21
232.463544530306
 72
     1
 10
487.517228638997
 20
232.463544530306
 11
487.092310781747
 21
232.4999202053
 72
     1
 10
487.092310781747
 20
232.4999202053
 11
474.940585941868
 21
232.499920205335
 72
     1
 10
474.940585941868
 20
232.499920205335
 11
474.940585941868
 21
232.399920205335
 72
     1
 10
474.940585941868
 20
232.399920205335
 11
471.323715276037
 21
232.399920205335
 72
     1
 10
471.323715276037
 20
232.399920205335
 11
471.323715276037
 21
232.499920205335
 72
     1
 10
471.323715276037
 20
232.499920205335
 11
469.202395619597
 21
232.499920205335
 72
     1
 10
469.202395619597
 20
232.499920205335
 11
469.202395619597
 21
232.399920205335
 72
     1
 10
469.202395619597
 20
232.399920205335
 11
467.081075619596
 21
232.399920205335
 72
     1
 10
467.081075619596
 20
232.399920205335
 11
467.081075619596
 21
232.499920205335
 72
     1
 10
467.081075619596
 20
232.499920205335
 11
451.592310781747
 21
232.4999202053
 72
     1
 10
451.592310781747
 20
232.4999202053
 11
451.095637454759
 21
232.450086649938
 72
     1
 10
451.095637454759
 20
232.450086649938
 11
450.618764925975
 21
232.302572690342
 72
     1
 10
450.618764925975
 20
232.302572690342
 11
450.180704598259
 21
232.063259242609
 72
     1
 10
450.180704598259
 20
232.063259242609
 11
449.798920554498
 21
231.741686978703
 72
     1
 10
449.798920554498
 20
231.741686978703
 11
449.488633319727
 21
231.350675970006
 72
     1
 10
449.488633319727
 20
231.350675970006
 11
449.262213066828
 21
230.905814591527
 72
     1
 10
449.262213066828
 20
230.905814591527
 11
449.128686456775
 21
230.424838062586
 72
     1
 10
449.128686456775
 20
230.424838062586
 11
449.092310781747
 21
229.9999202053
 72
     1
 10
449.092310781747
 20
229.9999202053
 11
449.092310781746
 21
228.499920205335
 72
     1
 10
449.092310781746
 20
228.499920205335
 11
450.592310781746
 21
228.499920205335
 72
     1
 10
450.592310781746
 20
228.499920205335
 11
450.592310781747
 21
229.9999202053
 72
     1
 10
450.592310781747
 20
229.9999202053
 11
450.612244203905
 21
230.19858953613
 72
     1
 10
450.612244203905
 20
230.19858953613
 11
450.671249787744
 21
230.389338547644
 72
     1
 10
450.671249787744
 20
230.389338547644
 11
450.766975166837
 21
230.56456267873
 72
     1
 10
450.766975166837
 20
230.56456267873
 11
450.895604072399
 21
230.717276296235
 72
     1
 10
450.895604072399
 20
230.717276296235
 11
451.052008475878
 21
230.841391190143
 72
     1
 10
451.052008475878
 20
230.841391190143
 11
451.22995302727
 21
230.931959291302
 72
     1
 10
451.22995302727
 20
230.931959291302
 11
451.422343638846
 21
230.985369935324
 72
     1
 10
451.422343638846
 20
230.985369935324
 11
451.592310781747
 21
230.9999202053
 72
     1
 10
451.592310781747
 20
230.9999202053
 11
487.092310781747
 21
230.9999202053
 97
        0
 75
     1
 76
     2
 52
0.0
 41
1.0
 77
     0
 78
     1
 53
44.99999999999998
 43
0.0
 44
0.0
 45
-4.490128060534577
 46
0.0000000000000018
 79
     0
 98
        1
 10
0.0
 20
0.0
  0
HATCH
  5
322
330
44
100
AcDbEntity
  8
0
  6
Continuous
 62
     7
100
AcDbHatch
 10
0.0
 20
0.0
 30
0.0
210
0.0
220
0.0
230
1.0
  2
CUSTOM15
 70
     0
 71
     0
 91
        1
 92
        1
 93
       24
 72
     1
 10
537.8423107817471
 20
139.999920205335
 11
545.3423107817471
 21
139.999920205335
 72
     1
 10
545.3423107817471
 20
139.999920205335
 11
547.8423107817471
 21
142.499920205335
 72
     1
 10
547.8423107817471
 20
142.499920205335
 11
547.8423107817471
 21
159.999920205335
 72
     1
 10
547.8423107817471
 20
159.999920205335
 11
546.3423107817471
 21
159.9999202053
 72
     1
 10
546.3423107817471
 20
159.9999202053
 11
546.143641450951
 21
159.979986783176
 72
     1
 10
546.143641450951
 20
159.979986783176
 11
545.9528924394381
 21
159.920981199338
 72
     1
 10
545.9528924394381
 20
159.920981199338
 11
545.7776683083509
 21
159.825255820245
 72
     1
 10
545.7776683083509
 20
159.825255820245
 11
545.6249546908471
 21
159.696626914682
 72
     1
 10
545.6249546908471
 20
159.696626914682
 11
545.500839796939
 21
159.540222511203
 72
     1
 10
545.500839796939
 20
159.540222511203
 11
545.410271695779
 21
159.362277959812
 72
     1
 10
545.410271695779
 20
159.362277959812
 11
545.356861051758
 21
159.169887348235
 72
     1
 10
545.356861051758
 20
159.169887348235
 11
545.3423107817471
 21
158.9999202053
 72
     1
 10
545.3423107817471
 20
158.9999202053
 11
542.801181231447
 21
158.9999202053
 72
     1
 10
542.801181231447
 20
158.9999202053
 11
542.602511900689
 21
158.979986783176
 72
     1
 10
542.602511900689
 20
158.979986783176
 11
542.411762889175
 21
158.920981199338
 72
     1
 10
542.411762889175
 20
158.920981199338
 11
542.236538758089
 21
158.825255820245
 72
     1
 10
542.236538758089
 20
158.825255820245
 11
542.083825140585
 21
158.696626914682
 72
     1
 10
542.083825140585
 20
158.696626914682
 11
541.959710246676
 21
158.540222511203
 72
     1
 10
541.959710246676
 20
158.540222511203
 11
541.869142145517
 21
158.362277959812
 72
     1
 10
541.869142145517
 20
158.362277959812
 11
541.815731501496
 21
158.169887348235
 72
     1
 10
541.815731501496
 20
158.169887348235
 11
541.801181231447
 21
157.9999202053
 72
     1
 10
541.801181231447
 20
157.9999202053
 11
541.801181231484
 21
142.499920205335
 72
     1
 10
541.801181231484
 20
142.499920205335
 11
537.8423107817471
 21
142.499920205335
 72
     1
 10
537.8423107817471
 20
142.499920205335
 11
537.8423107817471
 21
139.999920205335
 97
        0
 75
     1
 76
     2
 52
0.0
 41
1.0
 77
     0
 78
     1
 53
44.99999999999998
 43
0.0
 44
0.0
 45
-4.490128060534577
 46
0.0000000000000018
 79
     0
 98
        1
 10
0.0
 20
0.0
  0
HATCH
  5
323
330
44
100
AcDbEntity
  8
0
  6
Continuous
 62
     7
100
AcDbHatch
 10
0.0
 20
0.0
 30
0.0
210
0.0
220
0.0
230
1.0
  2
CUSTOM16
 70
     0
 71
     0
 91
        1
 92
        1
 93
       24
 72
     1
 10
393.342310781746
 20
139.999920205335
 11
400.842310781746
 21
139.999920205335
 72
     1
 10
400.842310781746
 20
139.999920205335
 11
400.842310781746
 21
142.499920205335
 72
     1
 10
400.842310781746
 20
142.499920205335
 11
396.883440332009
 21
142.499920205335
 72
     1
 10
396.883440332009
 20
142.499920205335
 11
396.883440332047
 21
157.9999202053
 72
     1
 10
396.883440332047
 20
157.9999202053
 11
396.86350690985
 21
158.19858953613
 72
     1
 10
396.86350690985
 20
158.19858953613
 11
396.804501326012
 21
158.389338547644
 72
     1
 10
396.804501326012
 20
158.389338547644
 11
396.708775946919
 21
158.56456267873
 72
     1
 10
396.708775946919
 20
158.56456267873
 11
396.580147041356
 21
158.717276296235
 72
     1
 10
396.580147041356
 20
158.717276296235
 11
396.423742637877
 21
158.841391190143
 72
     1
 10
396.423742637877
 20
158.841391190143
 11
396.245798086486
 21
158.931959291302
 72
     1
 10
396.245798086486
 20
158.931959291302
 11
396.053407474909
 21
158.985369935324
 72
     1
 10
396.053407474909
 20
158.985369935324
 11
395.883440332047
 21
158.9999202053
 72
     1
 10
395.883440332047
 20
158.9999202053
 11
393.342310781747
 21
158.9999202053
 72
     1
 10
393.342310781747
 20
158.9999202053
 11
393.322377359588
 21
159.19858953613
 72
     1
 10
393.322377359588
 20
159.19858953613
 11
393.263371775749
 21
159.389338547644
 72
     1
 10
393.263371775749
 20
159.389338547644
 11
393.167646396656
 21
159.56456267873
 72
     1
 10
393.167646396656
 20
159.56456267873
 11
393.039017491094
 21
159.717276296235
 72
     1
 10
393.039017491094
 20
159.717276296235
 11
392.882613087615
 21
159.841391190143
 72
     1
 10
392.882613087615
 20
159.841391190143
 11
392.704668536223
 21
159.931959291302
 72
     1
 10
392.704668536223
 20
159.931959291302
 11
392.512277924647
 21
159.985369935324
 72
     1
 10
392.512277924647
 20
159.985369935324
 11
392.342310781747
 21
159.9999202053
 72
     1
 10
392.342310781747
 20
159.9999202053
 11
390.842310781746
 21
159.999920205335
 72
     1
 10
390.842310781746
 20
159.999920205335
 11
390.842310781746
 21
142.499920205335
 72
     1
 10
390.842310781746
 20
142.499920205335
 11
393.342310781746
 21
139.999920205335
 97
        0
 75
     1
 76
     2
 52
0.0
 41
1.0
 77
     0
 78
     1
 53
44.99999999999998
 43
0.0
 44
0.0
 45
-4.490128060534577
 46
0.0000000000000018
 79
     0
 98
        1
 10
0.0
 20
0.0
  0
HATCH
  5
324
330
44
100
AcDbEntity
  8
0
  6
Continuous
 62
     7
100
AcDbHatch
 10
0.0
 20
0.0
 30
0.0
210
0.0
220
0.0
230
1.0
  2
CUSTOM17
 70
     0
 71
     0
 91
        1
 92
        1
 93
      482
 72
     1
 10
396.842310781747
 20
203.4999202053
 11
396.842310781747
 21
202.4999202053
 72
     1
 10
396.842310781747
 20
202.4999202053
 11
396.852277492826
 21
202.400585539938
 72
     1
 10
396.852277492826
 20
202.400585539938
 11
396.881780284745
 21
202.305211034181
 72
     1
 10
396.881780284745
 20
202.305211034181
 11
396.929642974292
 21
202.217598968638
 72
     1
 10
396.929642974292
 20
202.217598968638
 11
396.993957427073
 21
202.141242159885
 72
     1
 10
396.993957427073
 20
202.141242159885
 11
397.072159628812
 21
202.079184712931
 72
     1
 10
397.072159628812
 20
202.079184712931
 11
397.161131904508
 21
202.033900662352
 72
     1
 10
397.161131904508
 20
202.033900662352
 11
397.257327210296
 21
202.007195340341
 72
     1
 10
397.257327210296
 20
202.007195340341
 11
397.342310781747
 21
201.9999202053
 72
     1
 10
397.342310781747
 20
201.9999202053
 11
397.59064744524
 21
201.975003427637
 72
     1
 10
397.59064744524
 20
201.975003427637
 11
397.829083709632
 21
201.901246447839
 72
     1
 10
397.829083709632
 20
201.901246447839
 11
398.04811387349
 21
201.781589723972
 72
     1
 10
398.04811387349
 20
201.781589723972
 11
398.239005895371
 21
201.620803592019
 72
     1
 10
398.239005895371
 20
201.620803592019
 11
398.394149512756
 21
201.42529808767
 72
     1
 10
398.394149512756
 20
201.42529808767
 11
398.507359639206
 21
201.202867398431
 72
     1
 10
398.507359639206
 20
201.202867398431
 11
398.574122944232
 21
200.96237913396
 72
     1
 10
398.574122944232
 20
200.96237913396
 11
398.591777785548
 21
200.713420802458
 72
     1
 10
398.591777785548
 20
200.713420802458
 11
398.559620320344
 21
200.465917586969
 72
     1
 10
398.559620320344
 20
200.465917586969
 11
398.478932565279
 21
200.229736659651
 72
     1
 10
398.478932565279
 20
200.229736659651
 11
398.352931286521
 21
200.014293808766
 72
     1
 10
398.352931286521
 20
200.014293808766
 11
398.186639757435
 21
199.828178060909
 72
     1
 10
398.186639757435
 20
199.828178060909
 11
397.986687496523
 21
199.678809263624
 72
     1
 10
397.986687496523
 20
199.678809263624
 11
397.761045969441
 21
199.572142279499
 72
     1
 10
397.761045969441
 20
199.572142279499
 11
397.518710791821
 21
199.512429584585
 72
     1
 10
397.518710791821
 20
199.512429584585
 11
397.342310781747
 21
199.4999202053
 72
     1
 10
397.342310781747
 20
199.4999202053
 11
397.242976116349
 21
199.489953494256
 72
     1
 10
397.242976116349
 20
199.489953494256
 11
397.147601610592
 21
199.460450702337
 72
     1
 10
397.147601610592
 20
199.460450702337
 11
397.059989545049
 21
199.41258801279
 72
     1
 10
397.059989545049
 20
199.41258801279
 11
396.983632736297
 21
199.348273560009
 72
     1
 10
396.983632736297
 20
199.348273560009
 11
396.921575289343
 21
199.270071358269
 72
     1
 10
396.921575289343
 20
199.270071358269
 11
396.876291238763
 21
199.181099082574
 72
     1
 10
396.876291238763
 20
199.181099082574
 11
396.849585916752
 21
199.084903776785
 72
     1
 10
396.849585916752
 20
199.084903776785
 11
396.842310781747
 21
198.9999202053
 72
     1
 10
396.842310781747
 20
198.9999202053
 11
396.842310781747
 21
197.9999202053
 72
     1
 10
396.842310781747
 20
197.9999202053
 11
396.852277492826
 21
197.900585539938
 72
     1
 10
396.852277492826
 20
197.900585539938
 11
396.881780284745
 21
197.805211034181
 72
     1
 10
396.881780284745
 20
197.805211034181
 11
396.929642974292
 21
197.717598968638
 72
     1
 10
396.929642974292
 20
197.717598968638
 11
396.993957427073
 21
197.641242159885
 72
     1
 10
396.993957427073
 20
197.641242159885
 11
397.072159628812
 21
197.579184712931
 72
     1
 10
397.072159628812
 20
197.579184712931
 11
397.161131904508
 21
197.533900662352
 72
     1
 10
397.161131904508
 20
197.533900662352
 11
397.257327210296
 21
197.507195340341
 72
     1
 10
397.257327210296
 20
197.507195340341
 11
397.342310781747
 21
197.4999202053
 72
     1
 10
397.342310781747
 20
197.4999202053
 11
397.59064744524
 21
197.475003427637
 72
     1
 10
397.59064744524
 20
197.475003427637
 11
397.829083709632
 21
197.401246447839
 72
     1
 10
397.829083709632
 20
197.401246447839
 11
398.04811387349
 21
197.281589723972
 72
     1
 10
398.04811387349
 20
197.281589723972
 11
398.239005895371
 21
197.120803592019
 72
     1
 10
398.239005895371
 20
197.120803592019
 11
398.394149512756
 21
196.92529808767
 72
     1
 10
398.394149512756
 20
196.92529808767
 11
398.507359639206
 21
196.702867398431
 72
     1
 10
398.507359639206
 20
196.702867398431
 11
398.574122944232
 21
196.46237913396
 72
     1
 10
398.574122944232
 20
196.46237913396
 11
398.591777785548
 21
196.213420802459
 72
     1
 10
398.591777785548
 20
196.213420802459
 11
398.559620320344
 21
195.965917586969
 72
     1
 10
398.559620320344
 20
195.965917586969
 11
398.478932565279
 21
195.729736659651
 72
     1
 10
398.478932565279
 20
195.729736659651
 11
398.352931286521
 21
195.514293808766
 72
     1
 10
398.352931286521
 20
195.514293808766
 11
398.186639757435
 21
195.328178060909
 72
     1
 10
398.186639757435
 20
195.328178060909
 11
397.986687496523
 21
195.178809263624
 72
     1
 10
397.986687496523
 20
195.178809263624
 11
397.761045969441
 21
195.072142279499
 72
     1
 10
397.761045969441
 20
195.072142279499
 11
397.518710791821
 21
195.012429584585
 72
     1
 10
397.518710791821
 20
195.012429584585
 11
397.342310781747
 21
194.9999202053
 72
     1
 10
397.342310781747
 20
194.9999202053
 11
397.242976116349
 21
194.989953494256
 72
     1
 10
397.242976116349
 20
194.989953494256
 11
397.147601610592
 21
194.960450702337
 72
     1
 10
397.147601610592
 20
194.960450702337
 11
397.059989545049
 21
194.91258801279
 72
     1
 10
397.059989545049
 20
194.91258801279
 11
396.983632736297
 21
194.848273560009
 72
     1
 10
396.983632736297
 20
194.848273560009
 11
396.921575289343
 21
194.770071358269
 72
     1
 10
396.921575289343
 20
194.770071358269
 11
396.876291238763
 21
194.681099082574
 72
     1
 10
396.876291238763
 20
194.681099082574
 11
396.849585916752
 21
194.584903776785
 72
     1
 10
396.849585916752
 20
194.584903776785
 11
396.842310781747
 21
194.4999202053
 72
     1
 10
396.842310781747
 20
194.4999202053
 11
396.842310781747
 21
193.4999202053
 72
     1
 10
396.842310781747
 20
193.4999202053
 11
396.852277492826
 21
193.400585539938
 72
     1
 10
396.852277492826
 20
193.400585539938
 11
396.881780284745
 21
193.305211034181
 72
     1
 10
396.881780284745
 20
193.305211034181
 11
396.929642974292
 21
193.217598968638
 72
     1
 10
396.929642974292
 20
193.217598968638
 11
396.993957427073
 21
193.141242159885
 72
     1
 10
396.993957427073
 20
193.141242159885
 11
397.072159628812
 21
193.079184712931
 72
     1
 10
397.072159628812
 20
193.079184712931
 11
397.161131904508
 21
193.033900662352
 72
     1
 10
397.161131904508
 20
193.033900662352
 11
397.257327210296
 21
193.007195340341
 72
     1
 10
397.257327210296
 20
193.007195340341
 11
397.342310781747
 21
192.9999202053
 72
     1
 10
397.342310781747
 20
192.9999202053
 11
397.59064744524
 21
192.975003427637
 72
     1
 10
397.59064744524
 20
192.975003427637
 11
397.829083709632
 21
192.901246447839
 72
     1
 10
397.829083709632
 20
192.901246447839
 11
398.04811387349
 21
192.781589723972
 72
     1
 10
398.04811387349
 20
192.781589723972
 11
398.239005895371
 21
192.620803592019
 72
     1
 10
398.239005895371
 20
192.620803592019
 11
398.394149512756
 21
192.42529808767
 72
     1
 10
398.394149512756
 20
192.42529808767
 11
398.507359639206
 21
192.202867398431
 72
     1
 10
398.507359639206
 20
192.202867398431
 11
398.574122944232
 21
191.962379133961
 72
     1
 10
398.574122944232
 20
191.962379133961
 11
398.591777785548
 21
191.713420802459
 72
     1
 10
398.591777785548
 20
191.713420802459
 11
398.559620320344
 21
191.465917586969
 72
     1
 10
398.559620320344
 20
191.465917586969
 11
398.478932565279
 21
191.229736659651
 72
     1
 10
398.478932565279
 20
191.229736659651
 11
398.352931286521
 21
191.014293808766
 72
     1
 10
398.352931286521
 20
191.014293808766
 11
398.186639757435
 21
190.828178060909
 72
     1
 10
398.186639757435
 20
190.828178060909
 11
397.986687496523
 21
190.678809263624
 72
     1
 10
397.986687496523
 20
190.678809263624
 11
397.761045969441
 21
190.572142279499
 72
     1
 10
397.761045969441
 20
190.572142279499
 11
397.518710791821
 21
190.512429584585
 72
     1
 10
397.518710791821
 20
190.512429584585
 11
397.342310781747
 21
190.4999202053
 72
     1
 10
397.342310781747
 20
190.4999202053
 11
397.242976116349
 21
190.489953494256
 72
     1
 10
397.242976116349
 20
190.489953494256
 11
397.147601610592
 21
190.460450702337
 72
     1
 10
397.147601610592
 20
190.460450702337
 11
397.059989545049
 21
190.41258801279
 72
     1
 10
397.059989545049
 20
190.41258801279
 11
396.983632736297
 21
190.348273560009
 72
     1
 10
396.983632736297
 20
190.348273560009
 11
396.921575289342
 21
190.270071358269
 72
     1
 10
396.921575289342
 20
190.270071358269
 11
396.876291238763
 21
190.181099082574
 72
     1
 10
396.876291238763
 20
190.181099082574
 11
396.849585916752
 21
190.084903776785
 72
     1
 10
396.849585916752
 20
190.084903776785
 11
396.842310781747
 21
189.9999202053
 72
     1
 10
396.842310781747
 20
189.9999202053
 11
396.842310781747
 21
188.9999202053
 72
     1
 10
396.842310781747
 20
188.9999202053
 11
396.852277492826
 21
188.900585539938
 72
     1
 10
396.852277492826
 20
188.900585539938
 11
396.881780284745
 21
188.805211034181
 72
     1
 10
396.881780284745
 20
188.805211034181
 11
396.929642974292
 21
188.717598968638
 72
     1
 10
396.929642974292
 20
188.717598968638
 11
396.993957427073
 21
188.641242159885
 72
     1
 10
396.993957427073
 20
188.641242159885
 11
397.072159628812
 21
188.579184712931
 72
     1
 10
397.072159628812
 20
188.579184712931
 11
397.161131904508
 21
188.533900662352
 72
     1
 10
397.161131904508
 20
188.533900662352
 11
397.257327210296
 21
188.507195340341
 72
     1
 10
397.257327210296
 20
188.507195340341
 11
397.342310781747
 21
188.4999202053
 72
     1
 10
397.342310781747
 20
188.4999202053
 11
397.59064744524
 21
188.475003427637
 72
     1
 10
397.59064744524
 20
188.475003427637
 11
397.829083709632
 21
188.401246447839
 72
     1
 10
397.829083709632
 20
188.401246447839
 11
398.04811387349
 21
188.281589723972
 72
     1
 10
398.04811387349
 20
188.281589723972
 11
398.239005895371
 21
188.120803592019
 72
     1
 10
398.239005895371
 20
188.120803592019
 11
398.394149512756
 21
187.92529808767
 72
     1
 10
398.394149512756
 20
187.92529808767
 11
398.507359639205
 21
187.702867398431
 72
     1
 10
398.507359639205
 20
187.702867398431
 11
398.574122944232
 21
187.46237913396
 72
     1
 10
398.574122944232
 20
187.46237913396
 11
398.591777785548
 21
187.213420802459
 72
     1
 10
398.591777785548
 20
187.213420802459
 11
398.559620320344
 21
186.965917586969
 72
     1
 10
398.559620320344
 20
186.965917586969
 11
398.478932565278
 21
186.729736659651
 72
     1
 10
398.478932565278
 20
186.729736659651
 11
398.352931286521
 21
186.514293808766
 72
     1
 10
398.352931286521
 20
186.514293808766
 11
398.186639757435
 21
186.328178060909
 72
     1
 10
398.186639757435
 20
186.328178060909
 11
397.986687496523
 21
186.178809263624
 72
     1
 10
397.986687496523
 20
186.178809263624
 11
397.761045969441
 21
186.072142279499
 72
     1
 10
397.761045969441
 20
186.072142279499
 11
397.518710791821
 21
186.012429584585
 72
     1
 10
397.518710791821
 20
186.012429584585
 11
397.342310781747
 21
185.9999202053
 72
     1
 10
397.342310781747
 20
185.9999202053
 11
397.242976116349
 21
185.989953494256
 72
     1
 10
397.242976116349
 20
185.989953494256
 11
397.147601610592
 21
185.960450702337
 72
     1
 10
397.147601610592
 20
185.960450702337
 11
397.059989545049
 21
185.91258801279
 72
     1
 10
397.059989545049
 20
185.91258801279
 11
396.983632736297
 21
185.848273560009
 72
     1
 10
396.983632736297
 20
185.848273560009
 11
396.921575289342
 21
185.770071358269
 72
     1
 10
396.921575289342
 20
185.770071358269
 11
396.876291238763
 21
185.681099082574
 72
     1
 10
396.876291238763
 20
185.681099082574
 11
396.849585916752
 21
185.584903776785
 72
     1
 10
396.849585916752
 20
185.584903776785
 11
396.842310781747
 21
185.4999202053
 72
     1
 10
396.842310781747
 20
185.4999202053
 11
396.842310781747
 21
184.4999202053
 72
     1
 10
396.842310781747
 20
184.4999202053
 11
396.852277492826
 21
184.400585539938
 72
     1
 10
396.852277492826
 20
184.400585539938
 11
396.881780284745
 21
184.305211034181
 72
     1
 10
396.881780284745
 20
184.305211034181
 11
396.929642974292
 21
184.217598968638
 72
     1
 10
396.929642974292
 20
184.217598968638
 11
396.993957427073
 21
184.141242159885
 72
     1
 10
396.993957427073
 20
184.141242159885
 11
397.072159628812
 21
184.079184712931
 72
     1
 10
397.072159628812
 20
184.079184712931
 11
397.161131904508
 21
184.033900662352
 72
     1
 10
397.161131904508
 20
184.033900662352
 11
397.257327210296
 21
184.007195340341
 72
     1
 10
397.257327210296
 20
184.007195340341
 11
397.342310781747
 21
183.9999202053
 72
     1
 10
397.342310781747
 20
183.9999202053
 11
397.59064744524
 21
183.975003427637
 72
     1
 10
397.59064744524
 20
183.975003427637
 11
397.829083709632
 21
183.901246447839
 72
     1
 10
397.829083709632
 20
183.901246447839
 11
398.04811387349
 21
183.781589723972
 72
     1
 10
398.04811387349
 20
183.781589723972
 11
398.239005895371
 21
183.620803592019
 72
     1
 10
398.239005895371
 20
183.620803592019
 11
398.394149512756
 21
183.42529808767
 72
     1
 10
398.394149512756
 20
183.42529808767
 11
398.507359639205
 21
183.202867398431
 72
     1
 10
398.507359639205
 20
183.202867398431
 11
398.574122944232
 21
182.96237913396
 72
     1
 10
398.574122944232
 20
182.96237913396
 11
398.591777785548
 21
182.713420802458
 72
     1
 10
398.591777785548
 20
182.713420802458
 11
398.559620320344
 21
182.465917586969
 72
     1
 10
398.559620320344
 20
182.465917586969
 11
398.478932565278
 21
182.229736659651
 72
     1
 10
398.478932565278
 20
182.229736659651
 11
398.352931286521
 21
182.014293808766
 72
     1
 10
398.352931286521
 20
182.014293808766
 11
398.186639757435
 21
181.828178060909
 72
     1
 10
398.186639757435
 20
181.828178060909
 11
397.986687496523
 21
181.678809263624
 72
     1
 10
397.986687496523
 20
181.678809263624
 11
397.761045969441
 21
181.572142279499
 72
     1
 10
397.761045969441
 20
181.572142279499
 11
397.518710791821
 21
181.512429584585
 72
     1
 10
397.518710791821
 20
181.512429584585
 11
397.342310781747
 21
181.4999202053
 72
     1
 10
397.342310781747
 20
181.4999202053
 11
397.242976116349
 21
181.489953494256
 72
     1
 10
397.242976116349
 20
181.489953494256
 11
397.147601610592
 21
181.460450702337
 72
     1
 10
397.147601610592
 20
181.460450702337
 11
397.059989545049
 21
181.41258801279
 72
     1
 10
397.059989545049
 20
181.41258801279
 11
396.983632736297
 21
181.348273560009
 72
     1
 10
396.983632736297
 20
181.348273560009
 11
396.921575289342
 21
181.270071358269
 72
     1
 10
396.921575289342
 20
181.270071358269
 11
396.876291238763
 21
181.181099082574
 72
     1
 10
396.876291238763
 20
181.181099082574
 11
396.849585916752
 21
181.084903776785
 72
     1
 10
396.849585916752
 20
181.084903776785
 11
396.842310781747
 21
180.9999202053
 72
     1
 10
396.842310781747
 20
180.9999202053
 11
396.842310781747
 21
179.9999202053
 72
     1
 10
396.842310781747
 20
179.9999202053
 11
396.852277492826
 21
179.900585539938
 72
     1
 10
396.852277492826
 20
179.900585539938
 11
396.881780284745
 21
179.805211034181
 72
     1
 10
396.881780284745
 20
179.805211034181
 11
396.929642974292
 21
179.717598968638
 72
     1
 10
396.929642974292
 20
179.717598968638
 11
396.993957427073
 21
179.641242159885
 72
     1
 10
396.993957427073
 20
179.641242159885
 11
397.072159628812
 21
179.579184712931
 72
     1
 10
397.072159628812
 20
179.579184712931
 11
397.161131904508
 21
179.533900662352
 72
     1
 10
397.161131904508
 20
179.533900662352
 11
397.257327210296
 21
179.507195340341
 72
     1
 10
397.257327210296
 20
179.507195340341
 11
397.342310781747
 21
179.4999202053
 72
     1
 10
397.342310781747
 20
179.4999202053
 11
397.59064744524
 21
179.475003427637
 72
     1
 10
397.59064744524
 20
179.475003427637
 11
397.829083709632
 21
179.401246447839
 72
     1
 10
397.829083709632
 20
179.401246447839
 11
398.04811387349
 21
179.281589723972
 72
     1
 10
398.04811387349
 20
179.281589723972
 11
398.239005895371
 21
179.120803592019
 72
     1
 10
398.239005895371
 20
179.120803592019
 11
398.394149512756
 21
178.92529808767
 72
     1
 10
398.394149512756
 20
178.92529808767
 11
398.507359639205
 21
178.702867398431
 72
     1
 10
398.507359639205
 20
178.702867398431
 11
398.574122944232
 21
178.462379133961
 72
     1
 10
398.574122944232
 20
178.462379133961
 11
398.591777785548
 21
178.213420802459
 72
     1
 10
398.591777785548
 20
178.213420802459
 11
398.559620320344
 21
177.965917586969
 72
     1
 10
398.559620320344
 20
177.965917586969
 11
398.478932565279
 21
177.729736659651
 72
     1
 10
398.478932565279
 20
177.729736659651
 11
398.352931286521
 21
177.514293808766
 72
     1
 10
398.352931286521
 20
177.514293808766
 11
398.186639757435
 21
177.328178060909
 72
     1
 10
398.186639757435
 20
177.328178060909
 11
397.986687496523
 21
177.178809263624
 72
     1
 10
397.986687496523
 20
177.178809263624
 11
397.761045969441
 21
177.072142279499
 72
     1
 10
397.761045969441
 20
177.072142279499
 11
397.518710791821
 21
177.012429584585
 72
     1
 10
397.518710791821
 20
177.012429584585
 11
397.342310781747
 21
176.9999202053
 72
     1
 10
397.342310781747
 20
176.9999202053
 11
397.242976116349
 21
176.989953494256
 72
     1
 10
397.242976116349
 20
176.989953494256
 11
397.147601610592
 21
176.960450702337
 72
     1
 10
397.147601610592
 20
176.960450702337
 11
397.059989545049
 21
176.91258801279
 72
     1
 10
397.059989545049
 20
176.91258801279
 11
396.983632736297
 21
176.848273560009
 72
     1
 10
396.983632736297
 20
176.848273560009
 11
396.921575289342
 21
176.770071358269
 72
     1
 10
396.921575289342
 20
176.770071358269
 11
396.876291238763
 21
176.681099082573
 72
     1
 10
396.876291238763
 20
176.681099082573
 11
396.849585916752
 21
176.584903776785
 72
     1
 10
396.849585916752
 20
176.584903776785
 11
396.842310781747
 21
176.4999202053
 72
     1
 10
396.842310781747
 20
176.4999202053
 11
396.842310781747
 21
175.4999202053
 72
     1
 10
396.842310781747
 20
175.4999202053
 11
396.852277492826
 21
175.400585539938
 72
     1
 10
396.852277492826
 20
175.400585539938
 11
396.881780284745
 21
175.305211034181
 72
     1
 10
396.881780284745
 20
175.305211034181
 11
396.929642974292
 21
175.217598968638
 72
     1
 10
396.929642974292
 20
175.217598968638
 11
396.993957427073
 21
175.141242159885
 72
     1
 10
396.993957427073
 20
175.141242159885
 11
397.072159628812
 21
175.079184712931
 72
     1
 10
397.072159628812
 20
175.079184712931
 11
397.161131904508
 21
175.033900662352
 72
     1
 10
397.161131904508
 20
175.033900662352
 11
397.257327210296
 21
175.007195340341
 72
     1
 10
397.257327210296
 20
175.007195340341
 11
397.342310781747
 21
174.9999202053
 72
     1
 10
397.342310781747
 20
174.9999202053
 11
397.59064744524
 21
174.975003427637
 72
     1
 10
397.59064744524
 20
174.975003427637
 11
397.829083709632
 21
174.901246447839
 72
     1
 10
397.829083709632
 20
174.901246447839
 11
398.04811387349
 21
174.781589723972
 72
     1
 10
398.04811387349
 20
174.781589723972
 11
398.239005895371
 21
174.620803592019
 72
     1
 10
398.239005895371
 20
174.620803592019
 11
398.394149512756
 21
174.42529808767
 72
     1
 10
398.394149512756
 20
174.42529808767
 11
398.507359639205
 21
174.202867398431
 72
     1
 10
398.507359639205
 20
174.202867398431
 11
398.574122944232
 21
173.96237913396
 72
     1
 10
398.574122944232
 20
173.96237913396
 11
398.591777785548
 21
173.713420802459
 72
     1
 10
398.591777785548
 20
173.713420802459
 11
398.559620320344
 21
173.465917586969
 72
     1
 10
398.559620320344
 20
173.465917586969
 11
398.478932565278
 21
173.229736659651
 72
     1
 10
398.478932565278
 20
173.229736659651
 11
398.352931286521
 21
173.014293808766
 72
     1
 10
398.352931286521
 20
173.014293808766
 11
398.186639757435
 21
172.828178060909
 72
     1
 10
398.186639757435
 20
172.828178060909
 11
397.986687496523
 21
172.678809263624
 72
     1
 10
397.986687496523
 20
172.678809263624
 11
397.761045969441
 21
172.572142279499
 72
     1
 10
397.761045969441
 20
172.572142279499
 11
397.518710791821
 21
172.512429584585
 72
     1
 10
397.518710791821
 20
172.512429584585
 11
397.342310781747
 21
172.4999202053
 72
     1
 10
397.342310781747
 20
172.4999202053
 11
397.242976116349
 21
172.489953494256
 72
     1
 10
397.242976116349
 20
172.489953494256
 11
397.147601610592
 21
172.460450702337
 72
     1
 10
397.147601610592
 20
172.460450702337
 11
397.059989545049
 21
172.41258801279
 72
     1
 10
397.059989545049
 20
172.41258801279
 11
396.983632736297
 21
172.348273560009
 72
     1
 10
396.983632736297
 20
172.348273560009
 11
396.921575289342
 21
172.270071358269
 72
     1
 10
396.921575289342
 20
172.270071358269
 11
396.876291238763
 21
172.181099082573
 72
     1
 10
396.876291238763
 20
172.181099082573
 11
396.849585916752
 21
172.084903776785
 72
     1
 10
396.849585916752
 20
172.084903776785
 11
396.842310781747
 21
171.9999202053
 72
     1
 10
396.842310781747
 20
171.9999202053
 11
396.842310781747
 21
170.9999202053
 72
     1
 10
396.842310781747
 20
170.9999202053
 11
396.852277492826
 21
170.900585539938
 72
     1
 10
396.852277492826
 20
170.900585539938
 11
396.881780284745
 21
170.805211034181
 72
     1
 10
396.881780284745
 20
170.805211034181
 11
396.929642974291
 21
170.717598968638
 72
     1
 10
396.929642974291
 20
170.717598968638
 11
396.993957427073
 21
170.641242159885
 72
     1
 10
396.993957427073
 20
170.641242159885
 11
397.072159628812
 21
170.579184712931
 72
     1
 10
397.072159628812
 20
170.579184712931
 11
397.161131904508
 21
170.533900662352
 72
     1
 10
397.161131904508
 20
170.533900662352
 11
397.257327210296
 21
170.507195340341
 72
     1
 10
397.257327210296
 20
170.507195340341
 11
397.342310781747
 21
170.4999202053
 72
     1
 10
397.342310781747
 20
170.4999202053
 11
397.59064744524
 21
170.475003427637
 72
     1
 10
397.59064744524
 20
170.475003427637
 11
397.829083709632
 21
170.401246447839
 72
     1
 10
397.829083709632
 20
170.401246447839
 11
398.04811387349
 21
170.281589723972
 72
     1
 10
398.04811387349
 20
170.281589723972
 11
398.239005895371
 21
170.120803592019
 72
     1
 10
398.239005895371
 20
170.120803592019
 11
398.394149512756
 21
169.92529808767
 72
     1
 10
398.394149512756
 20
169.92529808767
 11
398.507359639205
 21
169.702867398431
 72
     1
 10
398.507359639205
 20
169.702867398431
 11
398.574122944232
 21
169.46237913396
 72
     1
 10
398.574122944232
 20
169.46237913396
 11
398.591777785548
 21
169.213420802459
 72
     1
 10
398.591777785548
 20
169.213420802459
 11
398.559620320344
 21
168.965917586969
 72
     1
 10
398.559620320344
 20
168.965917586969
 11
398.478932565278
 21
168.729736659651
 72
     1
 10
398.478932565278
 20
168.729736659651
 11
398.352931286521
 21
168.514293808766
 72
     1
 10
398.352931286521
 20
168.514293808766
 11
398.186639757435
 21
168.328178060909
 72
     1
 10
398.186639757435
 20
168.328178060909
 11
397.986687496523
 21
168.178809263624
 72
     1
 10
397.986687496523
 20
168.178809263624
 11
397.761045969441
 21
168.072142279499
 72
     1
 10
397.761045969441
 20
168.072142279499
 11
397.518710791821
 21
168.012429584585
 72
     1
 10
397.518710791821
 20
168.012429584585
 11
397.342310781747
 21
167.9999202053
 72
     1
 10
397.342310781747
 20
167.9999202053
 11
397.242976116349
 21
167.989953494256
 72
     1
 10
397.242976116349
 20
167.989953494256
 11
397.147601610592
 21
167.960450702337
 72
     1
 10
397.147601610592
 20
167.960450702337
 11
397.059989545049
 21
167.91258801279
 72
     1
 10
397.059989545049
 20
167.91258801279
 11
396.983632736297
 21
167.848273560009
 72
     1
 10
396.983632736297
 20
167.848273560009
 11
396.921575289342
 21
167.770071358269
 72
     1
 10
396.921575289342
 20
167.770071358269
 11
396.876291238763
 21
167.681099082574
 72
     1
 10
396.876291238763
 20
167.681099082574
 11
396.849585916752
 21
167.584903776785
 72
     1
 10
396.849585916752
 20
167.584903776785
 11
396.842310781747
 21
167.4999202053
 72
     1
 10
396.842310781747
 20
167.4999202053
 11
396.842310781747
 21
166.4999202053
 72
     1
 10
396.842310781747
 20
166.4999202053
 11
396.852277492826
 21
166.400585539938
 72
     1
 10
396.852277492826
 20
166.400585539938
 11
396.881780284745
 21
166.305211034181
 72
     1
 10
396.881780284745
 20
166.305211034181
 11
396.929642974291
 21
166.217598968638
 72
     1
 10
396.929642974291
 20
166.217598968638
 11
396.993957427073
 21
166.141242159885
 72
     1
 10
396.993957427073
 20
166.141242159885
 11
397.072159628812
 21
166.079184712931
 72
     1
 10
397.072159628812
 20
166.079184712931
 11
397.161131904508
 21
166.033900662352
 72
     1
 10
397.161131904508
 20
166.033900662352
 11
397.257327210296
 21
166.007195340341
 72
     1
 10
397.257327210296
 20
166.007195340341
 11
397.342310781747
 21
165.9999202053
 72
     1
 10
397.342310781747
 20
165.9999202053
 11
397.59064744524
 21
165.975003427637
 72
     1
 10
397.59064744524
 20
165.975003427637
 11
397.829083709632
 21
165.901246447839
 72
     1
 10
397.829083709632
 20
165.901246447839
 11
398.04811387349
 21
165.781589723972
 72
     1
 10
398.04811387349
 20
165.781589723972
 11
398.239005895371
 21
165.620803592019
 72
     1
 10
398.239005895371
 20
165.620803592019
 11
398.394149512756
 21
165.42529808767
 72
     1
 10
398.394149512756
 20
165.42529808767
 11
398.507359639205
 21
165.202867398431
 72
     1
 10
398.507359639205
 20
165.202867398431
 11
398.574122944232
 21
164.962379133961
 72
     1
 10
398.574122944232
 20
164.962379133961
 11
398.591777785548
 21
164.713420802459
 72
     1
 10
398.591777785548
 20
164.713420802459
 11
398.559620320344
 21
164.465917586969
 72
     1
 10
398.559620320344
 20
164.465917586969
 11
398.478932565278
 21
164.229736659651
 72
     1
 10
398.478932565278
 20
164.229736659651
 11
398.352931286521
 21
164.014293808766
 72
     1
 10
398.352931286521
 20
164.014293808766
 11
398.186639757435
 21
163.828178060909
 72
     1
 10
398.186639757435
 20
163.828178060909
 11
397.986687496523
 21
163.678809263624
 72
     1
 10
397.986687496523
 20
163.678809263624
 11
397.761045969441
 21
163.572142279499
 72
     1
 10
397.761045969441
 20
163.572142279499
 11
397.518710791821
 21
163.512429584585
 72
     1
 10
397.518710791821
 20
163.512429584585
 11
397.342310781747
 21
163.4999202053
 72
     1
 10
397.342310781747
 20
163.4999202053
 11
397.242976116349
 21
163.489953494256
 72
     1
 10
397.242976116349
 20
163.489953494256
 11
397.147601610592
 21
163.460450702337
 72
     1
 10
397.147601610592
 20
163.460450702337
 11
397.059989545049
 21
163.41258801279
 72
     1
 10
397.059989545049
 20
163.41258801279
 11
396.983632736297
 21
163.348273560009
 72
     1
 10
396.983632736297
 20
163.348273560009
 11
396.921575289342
 21
163.270071358269
 72
     1
 10
396.921575289342
 20
163.270071358269
 11
396.876291238763
 21
163.181099082574
 72
     1
 10
396.876291238763
 20
163.181099082574
 11
396.849585916752
 21
163.084903776785
 72
     1
 10
396.849585916752
 20
163.084903776785
 11
396.842310781747
 21
162.9999202053
 72
     1
 10
396.842310781747
 20
162.9999202053
 11
396.842310781747
 21
161.9999202053
 72
     1
 10
396.842310781747
 20
161.9999202053
 11
396.852277492826
 21
161.900585539938
 72
     1
 10
396.852277492826
 20
161.900585539938
 11
396.881780284745
 21
161.805211034181
 72
     1
 10
396.881780284745
 20
161.805211034181
 11
396.929642974291
 21
161.717598968638
 72
     1
 10
396.929642974291
 20
161.717598968638
 11
396.993957427073
 21
161.641242159885
 72
     1
 10
396.993957427073
 20
161.641242159885
 11
397.072159628812
 21
161.579184712931
 72
     1
 10
397.072159628812
 20
161.579184712931
 11
397.161131904508
 21
161.533900662352
 72
     1
 10
397.161131904508
 20
161.533900662352
 11
397.257327210296
 21
161.507195340341
 72
     1
 10
397.257327210296
 20
161.507195340341
 11
397.342310781747
 21
161.4999202053
 72
     1
 10
397.342310781747
 20
161.4999202053
 11
397.59064744524
 21
161.475003427637
 72
     1
 10
397.59064744524
 20
161.475003427637
 11
397.829083709632
 21
161.401246447839
 72
     1
 10
397.829083709632
 20
161.401246447839
 11
398.04811387349
 21
161.281589723972
 72
     1
 10
398.04811387349
 20
161.281589723972
 11
398.239005895371
 21
161.120803592019
 72
     1
 10
398.239005895371
 20
161.120803592019
 11
398.394149512756
 21
160.92529808767
 72
     1
 10
398.394149512756
 20
160.92529808767
 11
398.507359639205
 21
160.702867398431
 72
     1
 10
398.507359639205
 20
160.702867398431
 11
398.574122944232
 21
160.46237913396
 72
     1
 10
398.574122944232
 20
160.46237913396
 11
398.591777785548
 21
160.213420802459
 72
     1
 10
398.591777785548
 20
160.213420802459
 11
398.559620320344
 21
159.965917586969
 72
     1
 10
398.559620320344
 20
159.965917586969
 11
398.478932565278
 21
159.729736659651
 72
     1
 10
398.478932565278
 20
159.729736659651
 11
398.352931286521
 21
159.514293808766
 72
     1
 10
398.352931286521
 20
159.514293808766
 11
398.186639757435
 21
159.328178060909
 72
     1
 10
398.186639757435
 20
159.328178060909
 11
397.986687496523
 21
159.178809263624
 72
     1
 10
397.986687496523
 20
159.178809263624
 11
397.761045969441
 21
159.072142279499
 72
     1
 10
397.761045969441
 20
159.072142279499
 11
397.518710791821
 21
159.012429584585
 72
     1
 10
397.518710791821
 20
159.012429584585
 11
397.342310781747
 21
158.9999202053
 72
     1
 10
397.342310781747
 20
158.9999202053
 11
397.242976116349
 21
158.989953494256
 72
     1
 10
397.242976116349
 20
158.989953494256
 11
397.147601610592
 21
158.960450702337
 72
     1
 10
397.147601610592
 20
158.960450702337
 11
397.059989545049
 21
158.91258801279
 72
     1
 10
397.059989545049
 20
158.91258801279
 11
396.983632736297
 21
158.848273560009
 72
     1
 10
396.983632736297
 20
158.848273560009
 11
396.921575289342
 21
158.770071358269
 72
     1
 10
396.921575289342
 20
158.770071358269
 11
396.876291238763
 21
158.681099082573
 72
     1
 10
396.876291238763
 20
158.681099082573
 11
396.849585916752
 21
158.584903776785
 72
     1
 10
396.849585916752
 20
158.584903776785
 11
396.842310781747
 21
158.4999202053
 72
     1
 10
396.842310781747
 20
158.4999202053
 11
396.842310781747
 21
157.4999202053
 72
     1
 10
396.842310781747
 20
157.4999202053
 11
396.852277492826
 21
157.400585539938
 72
     1
 10
396.852277492826
 20
157.400585539938
 11
396.881780284745
 21
157.305211034181
 72
     1
 10
396.881780284745
 20
157.305211034181
 11
396.929642974291
 21
157.217598968638
 72
     1
 10
396.929642974291
 20
157.217598968638
 11
396.993957427073
 21
157.141242159885
 72
     1
 10
396.993957427073
 20
157.141242159885
 11
397.072159628812
 21
157.079184712931
 72
     1
 10
397.072159628812
 20
157.079184712931
 11
397.161131904508
 21
157.033900662351
 72
     1
 10
397.161131904508
 20
157.033900662351
 11
397.257327210296
 21
157.007195340341
 72
     1
 10
397.257327210296
 20
157.007195340341
 11
397.342310781747
 21
156.9999202053
 72
     1
 10
397.342310781747
 20
156.9999202053
 11
397.59064744524
 21
156.975003427637
 72
     1
 10
397.59064744524
 20
156.975003427637
 11
397.829083709632
 21
156.901246447839
 72
     1
 10
397.829083709632
 20
156.901246447839
 11
398.04811387349
 21
156.781589723972
 72
     1
 10
398.04811387349
 20
156.781589723972
 11
398.239005895371
 21
156.620803592019
 72
     1
 10
398.239005895371
 20
156.620803592019
 11
398.394149512756
 21
156.42529808767
 72
     1
 10
398.394149512756
 20
156.42529808767
 11
398.507359639205
 21
156.202867398431
 72
     1
 10
398.507359639205
 20
156.202867398431
 11
398.574122944232
 21
155.96237913396
 72
     1
 10
398.574122944232
 20
155.96237913396
 11
398.591777785548
 21
155.713420802459
 72
     1
 10
398.591777785548
 20
155.713420802459
 11
398.559620320344
 21
155.465917586969
 72
     1
 10
398.559620320344
 20
155.465917586969
 11
398.478932565278
 21
155.229736659651
 72
     1
 10
398.478932565278
 20
155.229736659651
 11
398.352931286521
 21
155.014293808766
 72
     1
 10
398.352931286521
 20
155.014293808766
 11
398.186639757435
 21
154.828178060909
 72
     1
 10
398.186639757435
 20
154.828178060909
 11
397.986687496523
 21
154.678809263624
 72
     1
 10
397.986687496523
 20
154.678809263624
 11
397.761045969441
 21
154.572142279499
 72
     1
 10
397.761045969441
 20
154.572142279499
 11
397.518710791821
 21
154.512429584585
 72
     1
 10
397.518710791821
 20
154.512429584585
 11
397.342310781747
 21
154.4999202053
 72
     1
 10
397.342310781747
 20
154.4999202053
 11
397.242976116349
 21
154.489953494256
 72
     1
 10
397.242976116349
 20
154.489953494256
 11
397.147601610592
 21
154.460450702337
 72
     1
 10
397.147601610592
 20
154.460450702337
 11
397.059989545049
 21
154.41258801279
 72
     1
 10
397.059989545049
 20
154.41258801279
 11
396.983632736297
 21
154.348273560009
 72
     1
 10
396.983632736297
 20
154.348273560009
 11
396.921575289342
 21
154.270071358269
 72
     1
 10
396.921575289342
 20
154.270071358269
 11
396.876291238763
 21
154.181099082574
 72
     1
 10
396.876291238763
 20
154.181099082574
 11
396.849585916752
 21
154.084903776785
 72
     1
 10
396.849585916752
 20
154.084903776785
 11
396.842310781747
 21
153.9999202053
 72
     1
 10
396.842310781747
 20
153.9999202053
 11
396.842310781747
 21
152.9999202053
 72
     1
 10
396.842310781747
 20
152.9999202053
 11
396.852277492826
 21
152.900585539938
 72
     1
 10
396.852277492826
 20
152.900585539938
 11
396.881780284745
 21
152.805211034181
 72
     1
 10
396.881780284745
 20
152.805211034181
 11
396.929642974291
 21
152.717598968638
 72
     1
 10
396.929642974291
 20
152.717598968638
 11
396.993957427073
 21
152.641242159885
 72
     1
 10
396.993957427073
 20
152.641242159885
 11
397.072159628812
 21
152.579184712931
 72
     1
 10
397.072159628812
 20
152.579184712931
 11
397.161131904508
 21
152.533900662352
 72
     1
 10
397.161131904508
 20
152.533900662352
 11
397.257327210296
 21
152.507195340341
 72
     1
 10
397.257327210296
 20
152.507195340341
 11
397.342310781747
 21
152.4999202053
 72
     1
 10
397.342310781747
 20
152.4999202053
 11
397.59064744524
 21
152.475003427637
 72
     1
 10
397.59064744524
 20
152.475003427637
 11
397.829083709632
 21
152.401246447839
 72
     1
 10
397.829083709632
 20
152.401246447839
 11
398.04811387349
 21
152.281589723972
 72
     1
 10
398.04811387349
 20
152.281589723972
 11
398.239005895371
 21
152.120803592019
 72
     1
 10
398.239005895371
 20
152.120803592019
 11
398.394149512756
 21
151.92529808767
 72
     1
 10
398.394149512756
 20
151.92529808767
 11
398.507359639205
 21
151.702867398431
 72
     1
 10
398.507359639205
 20
151.702867398431
 11
398.574122944232
 21
151.46237913396
 72
     1
 10
398.574122944232
 20
151.46237913396
 11
398.591777785548
 21
151.213420802458
 72
     1
 10
398.591777785548
 20
151.213420802458
 11
398.559620320344
 21
150.965917586969
 72
     1
 10
398.559620320344
 20
150.965917586969
 11
398.478932565278
 21
150.729736659651
 72
     1
 10
398.478932565278
 20
150.729736659651
 11
398.352931286521
 21
150.514293808766
 72
     1
 10
398.352931286521
 20
150.514293808766
 11
398.186639757435
 21
150.328178060909
 72
     1
 10
398.186639757435
 20
150.328178060909
 11
397.986687496523
 21
150.178809263624
 72
     1
 10
397.986687496523
 20
150.178809263624
 11
397.761045969441
 21
150.072142279499
 72
     1
 10
397.761045969441
 20
150.072142279499
 11
397.518710791821
 21
150.012429584585
 72
     1
 10
397.518710791821
 20
150.012429584585
 11
397.342310781747
 21
149.9999202053
 72
     1
 10
397.342310781747
 20
149.9999202053
 11
397.242976116349
 21
149.989953494256
 72
     1
 10
397.242976116349
 20
149.989953494256
 11
397.147601610592
 21
149.960450702337
 72
     1
 10
397.147601610592
 20
149.960450702337
 11
397.059989545049
 21
149.91258801279
 72
     1
 10
397.059989545049
 20
149.91258801279
 11
396.983632736297
 21
149.848273560009
 72
     1
 10
396.983632736297
 20
149.848273560009
 11
396.921575289342
 21
149.770071358269
 72
     1
 10
396.921575289342
 20
149.770071358269
 11
396.876291238763
 21
149.681099082573
 72
     1
 10
396.876291238763
 20
149.681099082573
 11
396.849585916752
 21
149.584903776785
 72
     1
 10
396.849585916752
 20
149.584903776785
 11
396.842310781747
 21
149.4999202053
 72
     1
 10
396.842310781747
 20
149.4999202053
 11
396.842310781747
 21
148.4999202053
 72
     1
 10
396.842310781747
 20
148.4999202053
 11
396.852277492826
 21
148.400585539938
 72
     1
 10
396.852277492826
 20
148.400585539938
 11
396.881780284745
 21
148.305211034181
 72
     1
 10
396.881780284745
 20
148.305211034181
 11
396.929642974291
 21
148.217598968638
 72
     1
 10
396.929642974291
 20
148.217598968638
 11
396.993957427073
 21
148.141242159885
 72
     1
 10
396.993957427073
 20
148.141242159885
 11
397.072159628812
 21
148.079184712931
 72
     1
 10
397.072159628812
 20
148.079184712931
 11
397.161131904508
 21
148.033900662352
 72
     1
 10
397.161131904508
 20
148.033900662352
 11
397.257327210296
 21
148.007195340341
 72
     1
 10
397.257327210296
 20
148.007195340341
 11
397.342310781747
 21
147.9999202053
 72
     1
 10
397.342310781747
 20
147.9999202053
 11
397.59064744524
 21
147.975003427637
 72
     1
 10
397.59064744524
 20
147.975003427637
 11
397.829083709632
 21
147.901246447839
 72
     1
 10
397.829083709632
 20
147.901246447839
 11
398.04811387349
 21
147.781589723972
 72
     1
 10
398.04811387349
 20
147.781589723972
 11
398.239005895371
 21
147.620803592019
 72
     1
 10
398.239005895371
 20
147.620803592019
 11
398.394149512756
 21
147.42529808767
 72
     1
 10
398.394149512756
 20
147.42529808767
 11
398.507359639205
 21
147.202867398431
 72
     1
 10
398.507359639205
 20
147.202867398431
 11
398.574122944232
 21
146.96237913396
 72
     1
 10
398.574122944232
 20
146.96237913396
 11
398.591777785548
 21
146.713420802459
 72
     1
 10
398.591777785548
 20
146.713420802459
 11
398.559620320344
 21
146.465917586969
 72
     1
 10
398.559620320344
 20
146.465917586969
 11
398.478932565278
 21
146.229736659651
 72
     1
 10
398.478932565278
 20
146.229736659651
 11
398.352931286521
 21
146.014293808766
 72
     1
 10
398.352931286521
 20
146.014293808766
 11
398.186639757435
 21
145.828178060909
 72
     1
 10
398.186639757435
 20
145.828178060909
 11
397.986687496523
 21
145.678809263624
 72
     1
 10
397.986687496523
 20
145.678809263624
 11
397.761045969441
 21
145.572142279499
 72
     1
 10
397.761045969441
 20
145.572142279499
 11
397.518710791821
 21
145.512429584585
 72
     1
 10
397.518710791821
 20
145.512429584585
 11
397.342310781747
 21
145.4999202053
 72
     1
 10
397.342310781747
 20
145.4999202053
 11
397.242976116349
 21
145.489953494256
 72
     1
 10
397.242976116349
 20
145.489953494256
 11
397.147601610592
 21
145.460450702337
 72
     1
 10
397.147601610592
 20
145.460450702337
 11
397.059989545049
 21
145.41258801279
 72
     1
 10
397.059989545049
 20
145.41258801279
 11
396.983632736297
 21
145.348273560009
 72
     1
 10
396.983632736297
 20
145.348273560009
 11
396.921575289342
 21
145.270071358269
 72
     1
 10
396.921575289342
 20
145.270071358269
 11
396.876291238763
 21
145.181099082574
 72
     1
 10
396.876291238763
 20
145.181099082574
 11
396.849585916752
 21
145.084903776785
 72
     1
 10
396.849585916752
 20
145.084903776785
 11
396.842310781747
 21
144.9999202053
 72
     1
 10
396.842310781747
 20
144.9999202053
 11
396.842310781747
 21
142.9999202053
 72
     1
 10
396.842310781747
 20
142.9999202053
 11
396.852277492826
 21
142.900585539938
 72
     1
 10
396.852277492826
 20
142.900585539938
 11
396.881780284745
 21
142.805211034181
 72
     1
 10
396.881780284745
 20
142.805211034181
 11
396.929642974291
 21
142.717598968638
 72
     1
 10
396.929642974291
 20
142.717598968638
 11
396.993957427073
 21
142.641242159885
 72
     1
 10
396.993957427073
 20
142.641242159885
 11
397.072159628812
 21
142.579184712931
 72
     1
 10
397.072159628812
 20
142.579184712931
 11
397.161131904508
 21
142.533900662352
 72
     1
 10
397.161131904508
 20
142.533900662352
 11
397.257327210296
 21
142.507195340341
 72
     1
 10
397.257327210296
 20
142.507195340341
 11
397.342310781747
 21
142.4999202053
 72
     1
 10
397.342310781747
 20
142.4999202053
 11
400.342310781746
 21
142.499920205335
 72
     1
 10
400.342310781746
 20
142.499920205335
 11
400.342310781747
 21
221.999920205335
 72
     1
 10
400.342310781747
 20
221.999920205335
 11
399.342310781746
 21
221.999920205335
 72
     1
 10
399.342310781746
 20
221.999920205335
 11
399.342310781746
 21
232.999920205335
 72
     1
 10
399.342310781746
 20
232.999920205335
 11
395.342310781747
 21
232.9999202053
 72
     1
 10
395.342310781747
 20
232.9999202053
 11
395.342310781746
 21
218.999920205335
 72
     1
 10
395.342310781746
 20
218.999920205335
 11
396.842310781746
 21
218.999920205335
 72
     1
 10
396.842310781746
 20
218.999920205335
 11
396.842310781746
 21
215.999920205335
 72
     1
 10
396.842310781746
 20
215.999920205335
 11
396.342310781746
 21
215.999920205335
 72
     1
 10
396.342310781746
 20
215.999920205335
 11
396.342310781746
 21
213.999920205335
 72
     1
 10
396.342310781746
 20
213.999920205335
 11
396.842310781746
 21
213.999920205335
 72
     1
 10
396.842310781746
 20
213.999920205335
 11
396.842310781747
 21
206.9999202053
 72
     1
 10
396.842310781747
 20
206.9999202053
 11
396.852277492826
 21
206.900585539938
 72
     1
 10
396.852277492826
 20
206.900585539938
 11
396.881780284745
 21
206.805211034181
 72
     1
 10
396.881780284745
 20
206.805211034181
 11
396.929642974292
 21
206.717598968638
 72
     1
 10
396.929642974292
 20
206.717598968638
 11
396.993957427073
 21
206.641242159885
 72
     1
 10
396.993957427073
 20
206.641242159885
 11
397.072159628812
 21
206.579184712931
 72
     1
 10
397.072159628812
 20
206.579184712931
 11
397.161131904508
 21
206.533900662352
 72
     1
 10
397.161131904508
 20
206.533900662352
 11
397.257327210296
 21
206.507195340341
 72
     1
 10
397.257327210296
 20
206.507195340341
 11
397.342310781747
 21
206.4999202053
 72
     1
 10
397.342310781747
 20
206.4999202053
 11
397.59064744524
 21
206.475003427637
 72
     1
 10
397.59064744524
 20
206.475003427637
 11
397.829083709632
 21
206.401246447839
 72
     1
 10
397.829083709632
 20
206.401246447839
 11
398.04811387349
 21
206.281589723972
 72
     1
 10
398.04811387349
 20
206.281589723972
 11
398.239005895371
 21
206.120803592019
 72
     1
 10
398.239005895371
 20
206.120803592019
 11
398.394149512756
 21
205.92529808767
 72
     1
 10
398.394149512756
 20
205.92529808767
 11
398.507359639206
 21
205.702867398431
 72
     1
 10
398.507359639206
 20
205.702867398431
 11
398.574122944232
 21
205.462379133961
 72
     1
 10
398.574122944232
 20
205.462379133961
 11
398.591777785548
 21
205.213420802459
 72
     1
 10
398.591777785548
 20
205.213420802459
 11
398.559620320344
 21
204.965917586969
 72
     1
 10
398.559620320344
 20
204.965917586969
 11
398.478932565279
 21
204.729736659651
 72
     1
 10
398.478932565279
 20
204.729736659651
 11
398.352931286521
 21
204.514293808766
 72
     1
 10
398.352931286521
 20
204.514293808766
 11
398.186639757435
 21
204.328178060909
 72
     1
 10
398.186639757435
 20
204.328178060909
 11
397.986687496523
 21
204.178809263624
 72
     1
 10
397.986687496523
 20
204.178809263624
 11
397.761045969441
 21
204.072142279499
 72
     1
 10
397.761045969441
 20
204.072142279499
 11
397.518710791821
 21
204.012429584585
 72
     1
 10
397.518710791821
 20
204.012429584585
 11
397.342310781747
 21
203.9999202053
 72
     1
 10
397.342310781747
 20
203.9999202053
 11
397.242976116349
 21
203.989953494256
 72
     1
 10
397.242976116349
 20
203.989953494256
 11
397.147601610592
 21
203.960450702337
 72
     1
 10
397.147601610592
 20
203.960450702337
 11
397.059989545049
 21
203.91258801279
 72
     1
 10
397.059989545049
 20
203.91258801279
 11
396.983632736297
 21
203.848273560009
 72
     1
 10
396.983632736297
 20
203.848273560009
 11
396.921575289343
 21
203.770071358269
 72
     1
 10
396.921575289343
 20
203.770071358269
 11
396.876291238763
 21
203.681099082574
 72
     1
 10
396.876291238763
 20
203.681099082574
 11
396.849585916752
 21
203.584903776785
 72
     1
 10
396.849585916752
 20
203.584903776785
 11
396.842310781747
 21
203.4999202053
 97
        0
 75
     1
 76
     2
 52
0.0
 41
1.0
 77
     0
 78
     1
 53
44.99999999999998
 43
0.0
 44
0.0
 45
-4.490128060534577
 46
0.0000000000000018
 79
     0
 98
        1
 10
0.0
 20
0.0
  0
HATCH
  5
325
330
44
100
AcDbEntity
  8
0
  6
Continuous
 62
     7
100
AcDbHatch
 10
0.0
 20
0.0
 30
0.0
210
0.0
220
0.0
230
1.0
  2
CUSTOM18
 70
     0
 71
     0
 91
        1
 92
        1
 93
      482
 72
     1
 10
541.3423107817471
 20
199.4999202053
 11
541.0939741182531
 21
199.524836983034
 72
     1
 10
541.0939741182531
 20
199.524836983034
 11
540.855537853861
 21
199.598593962831
 72
     1
 10
540.855537853861
 20
199.598593962831
 11
540.636507690003
 21
199.718250686698
 72
     1
 10
540.636507690003
 20
199.718250686698
 11
540.445615668122
 21
199.879036818651
 72
     1
 10
540.445615668122
 20
199.879036818651
 11
540.290472050737
 21
200.074542323
 72
     1
 10
540.290472050737
 20
200.074542323
 11
540.1772619242879
 21
200.296973012239
 72
     1
 10
540.1772619242879
 20
200.296973012239
 11
540.110498619261
 21
200.53746127671
 72
     1
 10
540.110498619261
 20
200.53746127671
 11
540.0928437779451
 21
200.786419608212
 72
     1
 10
540.0928437779451
 20
200.786419608212
 11
540.125001243149
 21
201.033922823701
 72
     1
 10
540.125001243149
 20
201.033922823701
 11
540.205688998215
 21
201.270103751019
 72
     1
 10
540.205688998215
 20
201.270103751019
 11
540.331690276972
 21
201.485546601904
 72
     1
 10
540.331690276972
 20
201.485546601904
 11
540.497981806058
 21
201.671662349762
 72
     1
 10
540.497981806058
 20
201.671662349762
 11
540.69793406697
 21
201.821031147046
 72
     1
 10
540.69793406697
 20
201.821031147046
 11
540.923575594052
 21
201.927698131171
 72
     1
 10
540.923575594052
 20
201.927698131171
 11
541.165910771672
 21
201.987410826086
 72
     1
 10
541.165910771672
 20
201.987410826086
 11
541.3423107817471
 21
201.9999202053
 72
     1
 10
541.3423107817471
 20
201.9999202053
 11
541.441645447144
 21
202.009886916415
 72
     1
 10
541.441645447144
 20
202.009886916415
 11
541.537019952901
 21
202.039389708334
 72
     1
 10
541.537019952901
 20
202.039389708334
 11
541.624632018444
 21
202.08725239788
 72
     1
 10
541.624632018444
 20
202.08725239788
 11
541.7009888271959
 21
202.151566850662
 72
     1
 10
541.7009888271959
 20
202.151566850662
 11
541.7630462741511
 21
202.229769052401
 72
     1
 10
541.7630462741511
 20
202.229769052401
 11
541.8083303247299
 21
202.318741328097
 72
     1
 10
541.8083303247299
 20
202.318741328097
 11
541.8350356467411
 21
202.414936633885
 72
     1
 10
541.8350356467411
 20
202.414936633885
 11
541.8423107817471
 21
202.4999202053
 72
     1
 10
541.8423107817471
 20
202.4999202053
 11
541.8423107817471
 21
203.4999202053
 72
     1
 10
541.8423107817471
 20
203.4999202053
 11
541.832344070667
 21
203.599254870733
 72
     1
 10
541.832344070667
 20
203.599254870733
 11
541.802841278748
 21
203.69462937649
 72
     1
 10
541.802841278748
 20
203.69462937649
 11
541.7549785892011
 21
203.782241442033
 72
     1
 10
541.7549785892011
 20
203.782241442033
 11
541.69066413642
 21
203.858598250785
 72
     1
 10
541.69066413642
 20
203.858598250785
 11
541.612461934681
 21
203.920655697739
 72
     1
 10
541.612461934681
 20
203.920655697739
 11
541.523489658985
 21
203.965939748319
 72
     1
 10
541.523489658985
 20
203.965939748319
 11
541.427294353197
 21
203.992645070329
 72
     1
 10
541.427294353197
 20
203.992645070329
 11
541.3423107817471
 21
203.9999202053
 72
     1
 10
541.3423107817471
 20
203.9999202053
 11
541.0939741182531
 21
204.024836983034
 72
     1
 10
541.0939741182531
 20
204.024836983034
 11
540.855537853861
 21
204.098593962832
 72
     1
 10
540.855537853861
 20
204.098593962832
 11
540.636507690003
 21
204.218250686698
 72
     1
 10
540.636507690003
 20
204.218250686698
 11
540.445615668122
 21
204.379036818651
 72
     1
 10
540.445615668122
 20
204.379036818651
 11
540.290472050737
 21
204.574542323
 72
     1
 10
540.290472050737
 20
204.574542323
 11
540.1772619242879
 21
204.796973012239
 72
     1
 10
540.1772619242879
 20
204.796973012239
 11
540.110498619261
 21
205.03746127671
 72
     1
 10
540.110498619261
 20
205.03746127671
 11
540.0928437779451
 21
205.286419608212
 72
     1
 10
540.0928437779451
 20
205.286419608212
 11
540.125001243149
 21
205.533922823702
 72
     1
 10
540.125001243149
 20
205.533922823702
 11
540.205688998214
 21
205.770103751019
 72
     1
 10
540.205688998214
 20
205.770103751019
 11
540.331690276972
 21
205.985546601904
 72
     1
 10
540.331690276972
 20
205.985546601904
 11
540.497981806058
 21
206.171662349762
 72
     1
 10
540.497981806058
 20
206.171662349762
 11
540.69793406697
 21
206.321031147046
 72
     1
 10
540.69793406697
 20
206.321031147046
 11
540.923575594052
 21
206.427698131171
 72
     1
 10
540.923575594052
 20
206.427698131171
 11
541.165910771672
 21
206.487410826086
 72
     1
 10
541.165910771672
 20
206.487410826086
 11
541.3423107817471
 21
206.4999202053
 72
     1
 10
541.3423107817471
 20
206.4999202053
 11
541.441645447144
 21
206.509886916415
 72
     1
 10
541.441645447144
 20
206.509886916415
 11
541.537019952901
 21
206.539389708334
 72
     1
 10
541.537019952901
 20
206.539389708334
 11
541.624632018444
 21
206.58725239788
 72
     1
 10
541.624632018444
 20
206.58725239788
 11
541.7009888271959
 21
206.651566850662
 72
     1
 10
541.7009888271959
 20
206.651566850662
 11
541.7630462741511
 21
206.729769052401
 72
     1
 10
541.7630462741511
 20
206.729769052401
 11
541.8083303247299
 21
206.818741328097
 72
     1
 10
541.8083303247299
 20
206.818741328097
 11
541.8350356467411
 21
206.914936633885
 72
     1
 10
541.8350356467411
 20
206.914936633885
 11
541.8423107817471
 21
206.9999202053
 72
     1
 10
541.8423107817471
 20
206.9999202053
 11
541.8423107817471
 21
213.999920205335
 72
     1
 10
541.8423107817471
 20
213.999920205335
 11
542.3423107817471
 21
213.999920205335
 72
     1
 10
542.3423107817471
 20
213.999920205335
 11
542.3423107817471
 21
215.999920205335
 72
     1
 10
542.3423107817471
 20
215.999920205335
 11
541.8423107817471
 21
215.999920205335
 72
     1
 10
541.8423107817471
 20
215.999920205335
 11
541.8423107817471
 21
218.999920205335
 72
     1
 10
541.8423107817471
 20
218.999920205335
 11
543.3423107817471
 21
218.999920205335
 72
     1
 10
543.3423107817471
 20
218.999920205335
 11
543.3423107817471
 21
232.9999202053
 72
     1
 10
543.3423107817471
 20
232.9999202053
 11
539.3423107817471
 21
232.999920205335
 72
     1
 10
539.3423107817471
 20
232.999920205335
 11
539.3423107817471
 21
221.999920205335
 72
     1
 10
539.3423107817471
 20
221.999920205335
 11
538.3423107817471
 21
221.999920205335
 72
     1
 10
538.3423107817471
 20
221.999920205335
 11
538.3423107817471
 21
142.499920205335
 72
     1
 10
538.3423107817471
 20
142.499920205335
 11
541.3423107817471
 21
142.4999202053
 72
     1
 10
541.3423107817471
 20
142.4999202053
 11
541.441645447144
 21
142.509886916415
 72
     1
 10
541.441645447144
 20
142.509886916415
 11
541.537019952901
 21
142.539389708334
 72
     1
 10
541.537019952901
 20
142.539389708334
 11
541.624632018444
 21
142.58725239788
 72
     1
 10
541.624632018444
 20
142.58725239788
 11
541.700988827197
 21
142.651566850662
 72
     1
 10
541.700988827197
 20
142.651566850662
 11
541.7630462741511
 21
142.729769052401
 72
     1
 10
541.7630462741511
 20
142.729769052401
 11
541.8083303247311
 21
142.818741328097
 72
     1
 10
541.8083303247311
 20
142.818741328097
 11
541.8350356467411
 21
142.914936633885
 72
     1
 10
541.8350356467411
 20
142.914936633885
 11
541.8423107817471
 21
142.9999202053
 72
     1
 10
541.8423107817471
 20
142.9999202053
 11
541.8423107817471
 21
144.9999202053
 72
     1
 10
541.8423107817471
 20
144.9999202053
 11
541.832344070667
 21
145.099254870733
 72
     1
 10
541.832344070667
 20
145.099254870733
 11
541.802841278748
 21
145.19462937649
 72
     1
 10
541.802841278748
 20
145.19462937649
 11
541.754978589202
 21
145.282241442033
 72
     1
 10
541.754978589202
 20
145.282241442033
 11
541.69066413642
 21
145.358598250785
 72
     1
 10
541.69066413642
 20
145.358598250785
 11
541.612461934681
 21
145.420655697739
 72
     1
 10
541.612461934681
 20
145.420655697739
 11
541.523489658985
 21
145.465939748319
 72
     1
 10
541.523489658985
 20
145.465939748319
 11
541.427294353197
 21
145.492645070329
 72
     1
 10
541.427294353197
 20
145.492645070329
 11
541.3423107817471
 21
145.4999202053
 72
     1
 10
541.3423107817471
 20
145.4999202053
 11
541.0939741182531
 21
145.524836983034
 72
     1
 10
541.0939741182531
 20
145.524836983034
 11
540.855537853861
 21
145.598593962832
 72
     1
 10
540.855537853861
 20
145.598593962832
 11
540.636507690003
 21
145.718250686698
 72
     1
 10
540.636507690003
 20
145.718250686698
 11
540.445615668122
 21
145.879036818651
 72
     1
 10
540.445615668122
 20
145.879036818651
 11
540.290472050737
 21
146.074542323
 72
     1
 10
540.290472050737
 20
146.074542323
 11
540.1772619242879
 21
146.296973012239
 72
     1
 10
540.1772619242879
 20
146.296973012239
 11
540.110498619261
 21
146.53746127671
 72
     1
 10
540.110498619261
 20
146.53746127671
 11
540.0928437779451
 21
146.786419608212
 72
     1
 10
540.0928437779451
 20
146.786419608212
 11
540.125001243149
 21
147.033922823702
 72
     1
 10
540.125001243149
 20
147.033922823702
 11
540.205688998215
 21
147.270103751019
 72
     1
 10
540.205688998215
 20
147.270103751019
 11
540.331690276972
 21
147.485546601904
 72
     1
 10
540.331690276972
 20
147.485546601904
 11
540.497981806058
 21
147.671662349762
 72
     1
 10
540.497981806058
 20
147.671662349762
 11
540.69793406697
 21
147.821031147046
 72
     1
 10
540.69793406697
 20
147.821031147046
 11
540.923575594052
 21
147.927698131171
 72
     1
 10
540.923575594052
 20
147.927698131171
 11
541.165910771672
 21
147.987410826086
 72
     1
 10
541.165910771672
 20
147.987410826086
 11
541.3423107817471
 21
147.9999202053
 72
     1
 10
541.3423107817471
 20
147.9999202053
 11
541.441645447144
 21
148.009886916415
 72
     1
 10
541.441645447144
 20
148.009886916415
 11
541.537019952901
 21
148.039389708334
 72
     1
 10
541.537019952901
 20
148.039389708334
 11
541.624632018444
 21
148.08725239788
 72
     1
 10
541.624632018444
 20
148.08725239788
 11
541.700988827197
 21
148.151566850662
 72
     1
 10
541.700988827197
 20
148.151566850662
 11
541.7630462741511
 21
148.229769052401
 72
     1
 10
541.7630462741511
 20
148.229769052401
 11
541.8083303247299
 21
148.318741328097
 72
     1
 10
541.8083303247299
 20
148.318741328097
 11
541.8350356467411
 21
148.414936633885
 72
     1
 10
541.8350356467411
 20
148.414936633885
 11
541.8423107817471
 21
148.4999202053
 72
     1
 10
541.8423107817471
 20
148.4999202053
 11
541.8423107817471
 21
149.4999202053
 72
     1
 10
541.8423107817471
 20
149.4999202053
 11
541.832344070667
 21
149.599254870733
 72
     1
 10
541.832344070667
 20
149.599254870733
 11
541.802841278748
 21
149.694629376489
 72
     1
 10
541.802841278748
 20
149.694629376489
 11
541.754978589202
 21
149.782241442033
 72
     1
 10
541.754978589202
 20
149.782241442033
 11
541.69066413642
 21
149.858598250785
 72
     1
 10
541.69066413642
 20
149.858598250785
 11
541.612461934681
 21
149.920655697739
 72
     1
 10
541.612461934681
 20
149.920655697739
 11
541.523489658985
 21
149.965939748319
 72
     1
 10
541.523489658985
 20
149.965939748319
 11
541.427294353197
 21
149.992645070329
 72
     1
 10
541.427294353197
 20
149.992645070329
 11
541.3423107817471
 21
149.9999202053
 72
     1
 10
541.3423107817471
 20
149.9999202053
 11
541.0939741182531
 21
150.024836983034
 72
     1
 10
541.0939741182531
 20
150.024836983034
 11
540.855537853861
 21
150.098593962832
 72
     1
 10
540.855537853861
 20
150.098593962832
 11
540.636507690003
 21
150.218250686698
 72
     1
 10
540.636507690003
 20
150.218250686698
 11
540.445615668122
 21
150.379036818651
 72
     1
 10
540.445615668122
 20
150.379036818651
 11
540.290472050737
 21
150.574542323
 72
     1
 10
540.290472050737
 20
150.574542323
 11
540.1772619242879
 21
150.796973012239
 72
     1
 10
540.1772619242879
 20
150.796973012239
 11
540.110498619261
 21
151.03746127671
 72
     1
 10
540.110498619261
 20
151.03746127671
 11
540.0928437779451
 21
151.286419608212
 72
     1
 10
540.0928437779451
 20
151.286419608212
 11
540.125001243149
 21
151.533922823702
 72
     1
 10
540.125001243149
 20
151.533922823702
 11
540.205688998215
 21
151.770103751019
 72
     1
 10
540.205688998215
 20
151.770103751019
 11
540.331690276972
 21
151.985546601904
 72
     1
 10
540.331690276972
 20
151.985546601904
 11
540.497981806058
 21
152.171662349762
 72
     1
 10
540.497981806058
 20
152.171662349762
 11
540.69793406697
 21
152.321031147046
 72
     1
 10
540.69793406697
 20
152.321031147046
 11
540.923575594052
 21
152.427698131171
 72
     1
 10
540.923575594052
 20
152.427698131171
 11
541.165910771672
 21
152.487410826086
 72
     1
 10
541.165910771672
 20
152.487410826086
 11
541.3423107817471
 21
152.4999202053
 72
     1
 10
541.3423107817471
 20
152.4999202053
 11
541.441645447144
 21
152.509886916415
 72
     1
 10
541.441645447144
 20
152.509886916415
 11
541.537019952901
 21
152.539389708334
 72
     1
 10
541.537019952901
 20
152.539389708334
 11
541.624632018444
 21
152.58725239788
 72
     1
 10
541.624632018444
 20
152.58725239788
 11
541.700988827197
 21
152.651566850662
 72
     1
 10
541.700988827197
 20
152.651566850662
 11
541.7630462741511
 21
152.729769052401
 72
     1
 10
541.7630462741511
 20
152.729769052401
 11
541.8083303247299
 21
152.818741328097
 72
     1
 10
541.8083303247299
 20
152.818741328097
 11
541.8350356467411
 21
152.914936633885
 72
     1
 10
541.8350356467411
 20
152.914936633885
 11
541.8423107817471
 21
152.9999202053
 72
     1
 10
541.8423107817471
 20
152.9999202053
 11
541.8423107817471
 21
153.9999202053
 72
     1
 10
541.8423107817471
 20
153.9999202053
 11
541.832344070667
 21
154.099254870733
 72
     1
 10
541.832344070667
 20
154.099254870733
 11
541.802841278748
 21
154.19462937649
 72
     1
 10
541.802841278748
 20
154.19462937649
 11
541.754978589202
 21
154.282241442033
 72
     1
 10
541.754978589202
 20
154.282241442033
 11
541.69066413642
 21
154.358598250785
 72
     1
 10
541.69066413642
 20
154.358598250785
 11
541.612461934681
 21
154.420655697739
 72
     1
 10
541.612461934681
 20
154.420655697739
 11
541.523489658985
 21
154.465939748319
 72
     1
 10
541.523489658985
 20
154.465939748319
 11
541.427294353197
 21
154.492645070329
 72
     1
 10
541.427294353197
 20
154.492645070329
 11
541.3423107817471
 21
154.4999202053
 72
     1
 10
541.3423107817471
 20
154.4999202053
 11
541.0939741182531
 21
154.524836983034
 72
     1
 10
541.0939741182531
 20
154.524836983034
 11
540.855537853861
 21
154.598593962832
 72
     1
 10
540.855537853861
 20
154.598593962832
 11
540.636507690003
 21
154.718250686698
 72
     1
 10
540.636507690003
 20
154.718250686698
 11
540.445615668122
 21
154.879036818651
 72
     1
 10
540.445615668122
 20
154.879036818651
 11
540.290472050737
 21
155.074542323
 72
     1
 10
540.290472050737
 20
155.074542323
 11
540.1772619242879
 21
155.296973012239
 72
     1
 10
540.1772619242879
 20
155.296973012239
 11
540.110498619261
 21
155.53746127671
 72
     1
 10
540.110498619261
 20
155.53746127671
 11
540.0928437779451
 21
155.786419608212
 72
     1
 10
540.0928437779451
 20
155.786419608212
 11
540.125001243149
 21
156.033922823702
 72
     1
 10
540.125001243149
 20
156.033922823702
 11
540.205688998215
 21
156.270103751019
 72
     1
 10
540.205688998215
 20
156.270103751019
 11
540.331690276972
 21
156.485546601904
 72
     1
 10
540.331690276972
 20
156.485546601904
 11
540.497981806058
 21
156.671662349762
 72
     1
 10
540.497981806058
 20
156.671662349762
 11
540.69793406697
 21
156.821031147046
 72
     1
 10
540.69793406697
 20
156.821031147046
 11
540.923575594052
 21
156.927698131171
 72
     1
 10
540.923575594052
 20
156.927698131171
 11
541.165910771672
 21
156.987410826086
 72
     1
 10
541.165910771672
 20
156.987410826086
 11
541.3423107817471
 21
156.9999202053
 72
     1
 10
541.3423107817471
 20
156.9999202053
 11
541.441645447144
 21
157.009886916414
 72
     1
 10
541.441645447144
 20
157.009886916414
 11
541.537019952901
 21
157.039389708334
 72
     1
 10
541.537019952901
 20
157.039389708334
 11
541.624632018444
 21
157.08725239788
 72
     1
 10
541.624632018444
 20
157.08725239788
 11
541.700988827197
 21
157.151566850662
 72
     1
 10
541.700988827197
 20
157.151566850662
 11
541.7630462741511
 21
157.229769052401
 72
     1
 10
541.7630462741511
 20
157.229769052401
 11
541.8083303247299
 21
157.318741328097
 72
     1
 10
541.8083303247299
 20
157.318741328097
 11
541.8350356467411
 21
157.414936633885
 72
     1
 10
541.8350356467411
 20
157.414936633885
 11
541.8423107817471
 21
157.4999202053
 72
     1
 10
541.8423107817471
 20
157.4999202053
 11
541.8423107817471
 21
158.4999202053
 72
     1
 10
541.8423107817471
 20
158.4999202053
 11
541.832344070667
 21
158.599254870733
 72
     1
 10
541.832344070667
 20
158.599254870733
 11
541.802841278748
 21
158.694629376489
 72
     1
 10
541.802841278748
 20
158.694629376489
 11
541.754978589202
 21
158.782241442033
 72
     1
 10
541.754978589202
 20
158.782241442033
 11
541.69066413642
 21
158.858598250785
 72
     1
 10
541.69066413642
 20
158.858598250785
 11
541.612461934681
 21
158.920655697739
 72
     1
 10
541.612461934681
 20
158.920655697739
 11
541.523489658985
 21
158.965939748319
 72
     1
 10
541.523489658985
 20
158.965939748319
 11
541.427294353197
 21
158.992645070329
 72
     1
 10
541.427294353197
 20
158.992645070329
 11
541.3423107817471
 21
158.9999202053
 72
     1
 10
541.3423107817471
 20
158.9999202053
 11
541.0939741182531
 21
159.024836983034
 72
     1
 10
541.0939741182531
 20
159.024836983034
 11
540.855537853861
 21
159.098593962832
 72
     1
 10
540.855537853861
 20
159.098593962832
 11
540.636507690003
 21
159.218250686698
 72
     1
 10
540.636507690003
 20
159.218250686698
 11
540.445615668122
 21
159.379036818651
 72
     1
 10
540.445615668122
 20
159.379036818651
 11
540.290472050737
 21
159.574542323
 72
     1
 10
540.290472050737
 20
159.574542323
 11
540.1772619242879
 21
159.796973012239
 72
     1
 10
540.1772619242879
 20
159.796973012239
 11
540.110498619261
 21
160.03746127671
 72
     1
 10
540.110498619261
 20
160.03746127671
 11
540.0928437779451
 21
160.286419608212
 72
     1
 10
540.0928437779451
 20
160.286419608212
 11
540.125001243149
 21
160.533922823702
 72
     1
 10
540.125001243149
 20
160.533922823702
 11
540.205688998215
 21
160.770103751019
 72
     1
 10
540.205688998215
 20
160.770103751019
 11
540.331690276972
 21
160.985546601904
 72
     1
 10
540.331690276972
 20
160.985546601904
 11
540.497981806058
 21
161.171662349762
 72
     1
 10
540.497981806058
 20
161.171662349762
 11
540.69793406697
 21
161.321031147046
 72
     1
 10
540.69793406697
 20
161.321031147046
 11
540.923575594052
 21
161.427698131171
 72
     1
 10
540.923575594052
 20
161.427698131171
 11
541.165910771672
 21
161.487410826086
 72
     1
 10
541.165910771672
 20
161.487410826086
 11
541.3423107817471
 21
161.4999202053
 72
     1
 10
541.3423107817471
 20
161.4999202053
 11
541.441645447144
 21
161.509886916415
 72
     1
 10
541.441645447144
 20
161.509886916415
 11
541.537019952901
 21
161.539389708334
 72
     1
 10
541.537019952901
 20
161.539389708334
 11
541.624632018444
 21
161.58725239788
 72
     1
 10
541.624632018444
 20
161.58725239788
 11
541.7009888271959
 21
161.651566850662
 72
     1
 10
541.7009888271959
 20
161.651566850662
 11
541.7630462741511
 21
161.729769052401
 72
     1
 10
541.7630462741511
 20
161.729769052401
 11
541.8083303247299
 21
161.818741328097
 72
     1
 10
541.8083303247299
 20
161.818741328097
 11
541.8350356467411
 21
161.914936633885
 72
     1
 10
541.8350356467411
 20
161.914936633885
 11
541.8423107817471
 21
161.9999202053
 72
     1
 10
541.8423107817471
 20
161.9999202053
 11
541.8423107817471
 21
162.9999202053
 72
     1
 10
541.8423107817471
 20
162.9999202053
 11
541.832344070667
 21
163.099254870733
 72
     1
 10
541.832344070667
 20
163.099254870733
 11
541.802841278748
 21
163.19462937649
 72
     1
 10
541.802841278748
 20
163.19462937649
 11
541.754978589202
 21
163.282241442033
 72
     1
 10
541.754978589202
 20
163.282241442033
 11
541.69066413642
 21
163.358598250785
 72
     1
 10
541.69066413642
 20
163.358598250785
 11
541.612461934681
 21
163.420655697739
 72
     1
 10
541.612461934681
 20
163.420655697739
 11
541.523489658985
 21
163.465939748319
 72
     1
 10
541.523489658985
 20
163.465939748319
 11
541.427294353197
 21
163.492645070329
 72
     1
 10
541.427294353197
 20
163.492645070329
 11
541.3423107817471
 21
163.4999202053
 72
     1
 10
541.3423107817471
 20
163.4999202053
 11
541.0939741182531
 21
163.524836983034
 72
     1
 10
541.0939741182531
 20
163.524836983034
 11
540.855537853861
 21
163.598593962832
 72
     1
 10
540.855537853861
 20
163.598593962832
 11
540.636507690003
 21
163.718250686698
 72
     1
 10
540.636507690003
 20
163.718250686698
 11
540.445615668122
 21
163.879036818651
 72
     1
 10
540.445615668122
 20
163.879036818651
 11
540.290472050737
 21
164.074542323
 72
     1
 10
540.290472050737
 20
164.074542323
 11
540.1772619242879
 21
164.296973012239
 72
     1
 10
540.1772619242879
 20
164.296973012239
 11
540.110498619261
 21
164.53746127671
 72
     1
 10
540.110498619261
 20
164.53746127671
 11
540.0928437779451
 21
164.786419608212
 72
     1
 10
540.0928437779451
 20
164.786419608212
 11
540.125001243149
 21
165.033922823702
 72
     1
 10
540.125001243149
 20
165.033922823702
 11
540.205688998215
 21
165.270103751019
 72
     1
 10
540.205688998215
 20
165.270103751019
 11
540.331690276972
 21
165.485546601904
 72
     1
 10
540.331690276972
 20
165.485546601904
 11
540.497981806058
 21
165.671662349762
 72
     1
 10
540.497981806058
 20
165.671662349762
 11
540.69793406697
 21
165.821031147046
 72
     1
 10
540.69793406697
 20
165.821031147046
 11
540.923575594052
 21
165.927698131171
 72
     1
 10
540.923575594052
 20
165.927698131171
 11
541.165910771672
 21
165.987410826086
 72
     1
 10
541.165910771672
 20
165.987410826086
 11
541.3423107817471
 21
165.9999202053
 72
     1
 10
541.3423107817471
 20
165.9999202053
 11
541.441645447144
 21
166.009886916415
 72
     1
 10
541.441645447144
 20
166.009886916415
 11
541.537019952901
 21
166.039389708334
 72
     1
 10
541.537019952901
 20
166.039389708334
 11
541.624632018444
 21
166.08725239788
 72
     1
 10
541.624632018444
 20
166.08725239788
 11
541.7009888271959
 21
166.151566850662
 72
     1
 10
541.7009888271959
 20
166.151566850662
 11
541.7630462741511
 21
166.229769052401
 72
     1
 10
541.7630462741511
 20
166.229769052401
 11
541.8083303247299
 21
166.318741328097
 72
     1
 10
541.8083303247299
 20
166.318741328097
 11
541.8350356467411
 21
166.414936633885
 72
     1
 10
541.8350356467411
 20
166.414936633885
 11
541.8423107817471
 21
166.4999202053
 72
     1
 10
541.8423107817471
 20
166.4999202053
 11
541.8423107817471
 21
167.4999202053
 72
     1
 10
541.8423107817471
 20
167.4999202053
 11
541.832344070667
 21
167.599254870733
 72
     1
 10
541.832344070667
 20
167.599254870733
 11
541.802841278748
 21
167.694629376489
 72
     1
 10
541.802841278748
 20
167.694629376489
 11
541.754978589202
 21
167.782241442033
 72
     1
 10
541.754978589202
 20
167.782241442033
 11
541.69066413642
 21
167.858598250785
 72
     1
 10
541.69066413642
 20
167.858598250785
 11
541.612461934681
 21
167.920655697739
 72
     1
 10
541.612461934681
 20
167.920655697739
 11
541.523489658985
 21
167.965939748319
 72
     1
 10
541.523489658985
 20
167.965939748319
 11
541.427294353197
 21
167.992645070329
 72
     1
 10
541.427294353197
 20
167.992645070329
 11
541.3423107817471
 21
167.9999202053
 72
     1
 10
541.3423107817471
 20
167.9999202053
 11
541.0939741182531
 21
168.024836983034
 72
     1
 10
541.0939741182531
 20
168.024836983034
 11
540.855537853861
 21
168.098593962832
 72
     1
 10
540.855537853861
 20
168.098593962832
 11
540.636507690003
 21
168.218250686698
 72
     1
 10
540.636507690003
 20
168.218250686698
 11
540.445615668122
 21
168.379036818651
 72
     1
 10
540.445615668122
 20
168.379036818651
 11
540.290472050737
 21
168.574542323
 72
     1
 10
540.290472050737
 20
168.574542323
 11
540.1772619242879
 21
168.796973012239
 72
     1
 10
540.1772619242879
 20
168.796973012239
 11
540.110498619261
 21
169.03746127671
 72
     1
 10
540.110498619261
 20
169.03746127671
 11
540.0928437779451
 21
169.286419608212
 72
     1
 10
540.0928437779451
 20
169.286419608212
 11
540.125001243149
 21
169.533922823702
 72
     1
 10
540.125001243149
 20
169.533922823702
 11
540.205688998215
 21
169.770103751019
 72
     1
 10
540.205688998215
 20
169.770103751019
 11
540.331690276972
 21
169.985546601904
 72
     1
 10
540.331690276972
 20
169.985546601904
 11
540.497981806058
 21
170.171662349762
 72
     1
 10
540.497981806058
 20
170.171662349762
 11
540.69793406697
 21
170.321031147046
 72
     1
 10
540.69793406697
 20
170.321031147046
 11
540.923575594052
 21
170.427698131171
 72
     1
 10
540.923575594052
 20
170.427698131171
 11
541.165910771672
 21
170.487410826086
 72
     1
 10
541.165910771672
 20
170.487410826086
 11
541.3423107817471
 21
170.4999202053
 72
     1
 10
541.3423107817471
 20
170.4999202053
 11
541.441645447144
 21
170.509886916415
 72
     1
 10
541.441645447144
 20
170.509886916415
 11
541.537019952901
 21
170.539389708334
 72
     1
 10
541.537019952901
 20
170.539389708334
 11
541.624632018444
 21
170.58725239788
 72
     1
 10
541.624632018444
 20
170.58725239788
 11
541.7009888271959
 21
170.651566850662
 72
     1
 10
541.7009888271959
 20
170.651566850662
 11
541.7630462741511
 21
170.729769052401
 72
     1
 10
541.7630462741511
 20
170.729769052401
 11
541.8083303247299
 21
170.818741328097
 72
     1
 10
541.8083303247299
 20
170.818741328097
 11
541.8350356467411
 21
170.914936633885
 72
     1
 10
541.8350356467411
 20
170.914936633885
 11
541.8423107817471
 21
170.9999202053
 72
     1
 10
541.8423107817471
 20
170.9999202053
 11
541.8423107817471
 21
171.9999202053
 72
     1
 10
541.8423107817471
 20
171.9999202053
 11
541.832344070667
 21
172.099254870733
 72
     1
 10
541.832344070667
 20
172.099254870733
 11
541.802841278748
 21
172.194629376489
 72
     1
 10
541.802841278748
 20
172.194629376489
 11
541.754978589202
 21
172.282241442033
 72
     1
 10
541.754978589202
 20
172.282241442033
 11
541.69066413642
 21
172.358598250785
 72
     1
 10
541.69066413642
 20
172.358598250785
 11
541.612461934681
 21
172.420655697739
 72
     1
 10
541.612461934681
 20
172.420655697739
 11
541.523489658985
 21
172.465939748319
 72
     1
 10
541.523489658985
 20
172.465939748319
 11
541.427294353197
 21
172.492645070329
 72
     1
 10
541.427294353197
 20
172.492645070329
 11
541.3423107817471
 21
172.4999202053
 72
     1
 10
541.3423107817471
 20
172.4999202053
 11
541.0939741182531
 21
172.524836983034
 72
     1
 10
541.0939741182531
 20
172.524836983034
 11
540.855537853861
 21
172.598593962832
 72
     1
 10
540.855537853861
 20
172.598593962832
 11
540.636507690003
 21
172.718250686698
 72
     1
 10
540.636507690003
 20
172.718250686698
 11
540.445615668122
 21
172.879036818651
 72
     1
 10
540.445615668122
 20
172.879036818651
 11
540.290472050737
 21
173.074542323
 72
     1
 10
540.290472050737
 20
173.074542323
 11
540.1772619242879
 21
173.296973012239
 72
     1
 10
540.1772619242879
 20
173.296973012239
 11
540.110498619261
 21
173.53746127671
 72
     1
 10
540.110498619261
 20
173.53746127671
 11
540.0928437779451
 21
173.786419608212
 72
     1
 10
540.0928437779451
 20
173.786419608212
 11
540.125001243149
 21
174.033922823702
 72
     1
 10
540.125001243149
 20
174.033922823702
 11
540.205688998215
 21
174.270103751019
 72
     1
 10
540.205688998215
 20
174.270103751019
 11
540.331690276972
 21
174.485546601904
 72
     1
 10
540.331690276972
 20
174.485546601904
 11
540.497981806058
 21
174.671662349762
 72
     1
 10
540.497981806058
 20
174.671662349762
 11
540.69793406697
 21
174.821031147046
 72
     1
 10
540.69793406697
 20
174.821031147046
 11
540.923575594052
 21
174.927698131171
 72
     1
 10
540.923575594052
 20
174.927698131171
 11
541.165910771672
 21
174.987410826086
 72
     1
 10
541.165910771672
 20
174.987410826086
 11
541.3423107817471
 21
174.9999202053
 72
     1
 10
541.3423107817471
 20
174.9999202053
 11
541.441645447144
 21
175.009886916415
 72
     1
 10
541.441645447144
 20
175.009886916415
 11
541.537019952901
 21
175.039389708334
 72
     1
 10
541.537019952901
 20
175.039389708334
 11
541.624632018444
 21
175.08725239788
 72
     1
 10
541.624632018444
 20
175.08725239788
 11
541.7009888271959
 21
175.151566850662
 72
     1
 10
541.7009888271959
 20
175.151566850662
 11
541.7630462741511
 21
175.229769052401
 72
     1
 10
541.7630462741511
 20
175.229769052401
 11
541.8083303247299
 21
175.318741328097
 72
     1
 10
541.8083303247299
 20
175.318741328097
 11
541.8350356467411
 21
175.414936633885
 72
     1
 10
541.8350356467411
 20
175.414936633885
 11
541.8423107817471
 21
175.4999202053
 72
     1
 10
541.8423107817471
 20
175.4999202053
 11
541.8423107817471
 21
176.4999202053
 72
     1
 10
541.8423107817471
 20
176.4999202053
 11
541.832344070667
 21
176.599254870733
 72
     1
 10
541.832344070667
 20
176.599254870733
 11
541.802841278748
 21
176.694629376489
 72
     1
 10
541.802841278748
 20
176.694629376489
 11
541.754978589202
 21
176.782241442033
 72
     1
 10
541.754978589202
 20
176.782241442033
 11
541.69066413642
 21
176.858598250785
 72
     1
 10
541.69066413642
 20
176.858598250785
 11
541.612461934681
 21
176.920655697739
 72
     1
 10
541.612461934681
 20
176.920655697739
 11
541.523489658985
 21
176.965939748319
 72
     1
 10
541.523489658985
 20
176.965939748319
 11
541.427294353197
 21
176.992645070329
 72
     1
 10
541.427294353197
 20
176.992645070329
 11
541.3423107817471
 21
176.9999202053
 72
     1
 10
541.3423107817471
 20
176.9999202053
 11
541.0939741182531
 21
177.024836983034
 72
     1
 10
541.0939741182531
 20
177.024836983034
 11
540.855537853861
 21
177.098593962832
 72
     1
 10
540.855537853861
 20
177.098593962832
 11
540.636507690003
 21
177.218250686698
 72
     1
 10
540.636507690003
 20
177.218250686698
 11
540.445615668122
 21
177.379036818651
 72
     1
 10
540.445615668122
 20
177.379036818651
 11
540.290472050737
 21
177.574542323
 72
     1
 10
540.290472050737
 20
177.574542323
 11
540.1772619242879
 21
177.796973012239
 72
     1
 10
540.1772619242879
 20
177.796973012239
 11
540.110498619261
 21
178.03746127671
 72
     1
 10
540.110498619261
 20
178.03746127671
 11
540.0928437779451
 21
178.286419608212
 72
     1
 10
540.0928437779451
 20
178.286419608212
 11
540.125001243149
 21
178.533922823702
 72
     1
 10
540.125001243149
 20
178.533922823702
 11
540.205688998215
 21
178.770103751019
 72
     1
 10
540.205688998215
 20
178.770103751019
 11
540.331690276972
 21
178.985546601904
 72
     1
 10
540.331690276972
 20
178.985546601904
 11
540.497981806058
 21
179.171662349762
 72
     1
 10
540.497981806058
 20
179.171662349762
 11
540.69793406697
 21
179.321031147046
 72
     1
 10
540.69793406697
 20
179.321031147046
 11
540.923575594052
 21
179.427698131171
 72
     1
 10
540.923575594052
 20
179.427698131171
 11
541.165910771672
 21
179.487410826086
 72
     1
 10
541.165910771672
 20
179.487410826086
 11
541.3423107817471
 21
179.4999202053
 72
     1
 10
541.3423107817471
 20
179.4999202053
 11
541.441645447144
 21
179.509886916415
 72
     1
 10
541.441645447144
 20
179.509886916415
 11
541.537019952901
 21
179.539389708334
 72
     1
 10
541.537019952901
 20
179.539389708334
 11
541.624632018444
 21
179.58725239788
 72
     1
 10
541.624632018444
 20
179.58725239788
 11
541.7009888271959
 21
179.651566850662
 72
     1
 10
541.7009888271959
 20
179.651566850662
 11
541.7630462741511
 21
179.729769052401
 72
     1
 10
541.7630462741511
 20
179.729769052401
 11
541.8083303247299
 21
179.818741328097
 72
     1
 10
541.8083303247299
 20
179.818741328097
 11
541.8350356467411
 21
179.914936633885
 72
     1
 10
541.8350356467411
 20
179.914936633885
 11
541.8423107817471
 21
179.9999202053
 72
     1
 10
541.8423107817471
 20
179.9999202053
 11
541.8423107817471
 21
180.9999202053
 72
     1
 10
541.8423107817471
 20
180.9999202053
 11
541.832344070667
 21
181.099254870733
 72
     1
 10
541.832344070667
 20
181.099254870733
 11
541.802841278748
 21
181.19462937649
 72
     1
 10
541.802841278748
 20
181.19462937649
 11
541.754978589202
 21
181.282241442033
 72
     1
 10
541.754978589202
 20
181.282241442033
 11
541.69066413642
 21
181.358598250785
 72
     1
 10
541.69066413642
 20
181.358598250785
 11
541.612461934681
 21
181.420655697739
 72
     1
 10
541.612461934681
 20
181.420655697739
 11
541.523489658985
 21
181.465939748319
 72
     1
 10
541.523489658985
 20
181.465939748319
 11
541.427294353197
 21
181.492645070329
 72
     1
 10
541.427294353197
 20
181.492645070329
 11
541.3423107817471
 21
181.4999202053
 72
     1
 10
541.3423107817471
 20
181.4999202053
 11
541.0939741182531
 21
181.524836983034
 72
     1
 10
541.0939741182531
 20
181.524836983034
 11
540.855537853861
 21
181.598593962831
 72
     1
 10
540.855537853861
 20
181.598593962831
 11
540.636507690003
 21
181.718250686698
 72
     1
 10
540.636507690003
 20
181.718250686698
 11
540.445615668122
 21
181.879036818651
 72
     1
 10
540.445615668122
 20
181.879036818651
 11
540.290472050737
 21
182.074542323
 72
     1
 10
540.290472050737
 20
182.074542323
 11
540.1772619242879
 21
182.296973012239
 72
     1
 10
540.1772619242879
 20
182.296973012239
 11
540.110498619261
 21
182.53746127671
 72
     1
 10
540.110498619261
 20
182.53746127671
 11
540.0928437779451
 21
182.786419608212
 72
     1
 10
540.0928437779451
 20
182.786419608212
 11
540.125001243149
 21
183.033922823701
 72
     1
 10
540.125001243149
 20
183.033922823701
 11
540.205688998215
 21
183.270103751019
 72
     1
 10
540.205688998215
 20
183.270103751019
 11
540.331690276972
 21
183.485546601904
 72
     1
 10
540.331690276972
 20
183.485546601904
 11
540.497981806058
 21
183.671662349762
 72
     1
 10
540.497981806058
 20
183.671662349762
 11
540.69793406697
 21
183.821031147046
 72
     1
 10
540.69793406697
 20
183.821031147046
 11
540.923575594052
 21
183.927698131171
 72
     1
 10
540.923575594052
 20
183.927698131171
 11
541.165910771672
 21
183.987410826086
 72
     1
 10
541.165910771672
 20
183.987410826086
 11
541.3423107817471
 21
183.9999202053
 72
     1
 10
541.3423107817471
 20
183.9999202053
 11
541.441645447144
 21
184.009886916415
 72
     1
 10
541.441645447144
 20
184.009886916415
 11
541.537019952901
 21
184.039389708334
 72
     1
 10
541.537019952901
 20
184.039389708334
 11
541.624632018444
 21
184.08725239788
 72
     1
 10
541.624632018444
 20
184.08725239788
 11
541.7009888271959
 21
184.151566850662
 72
     1
 10
541.7009888271959
 20
184.151566850662
 11
541.7630462741511
 21
184.229769052401
 72
     1
 10
541.7630462741511
 20
184.229769052401
 11
541.8083303247299
 21
184.318741328097
 72
     1
 10
541.8083303247299
 20
184.318741328097
 11
541.8350356467411
 21
184.414936633885
 72
     1
 10
541.8350356467411
 20
184.414936633885
 11
541.8423107817471
 21
184.4999202053
 72
     1
 10
541.8423107817471
 20
184.4999202053
 11
541.8423107817471
 21
185.4999202053
 72
     1
 10
541.8423107817471
 20
185.4999202053
 11
541.832344070667
 21
185.599254870733
 72
     1
 10
541.832344070667
 20
185.599254870733
 11
541.802841278748
 21
185.69462937649
 72
     1
 10
541.802841278748
 20
185.69462937649
 11
541.754978589202
 21
185.782241442033
 72
     1
 10
541.754978589202
 20
185.782241442033
 11
541.69066413642
 21
185.858598250785
 72
     1
 10
541.69066413642
 20
185.858598250785
 11
541.612461934681
 21
185.920655697739
 72
     1
 10
541.612461934681
 20
185.920655697739
 11
541.523489658985
 21
185.965939748319
 72
     1
 10
541.523489658985
 20
185.965939748319
 11
541.427294353197
 21
185.992645070329
 72
     1
 10
541.427294353197
 20
185.992645070329
 11
541.3423107817471
 21
185.9999202053
 72
     1
 10
541.3423107817471
 20
185.9999202053
 11
541.0939741182531
 21
186.024836983034
 72
     1
 10
541.0939741182531
 20
186.024836983034
 11
540.855537853861
 21
186.098593962832
 72
     1
 10
540.855537853861
 20
186.098593962832
 11
540.636507690003
 21
186.218250686698
 72
     1
 10
540.636507690003
 20
186.218250686698
 11
540.445615668122
 21
186.379036818651
 72
     1
 10
540.445615668122
 20
186.379036818651
 11
540.290472050737
 21
186.574542323
 72
     1
 10
540.290472050737
 20
186.574542323
 11
540.1772619242879
 21
186.796973012239
 72
     1
 10
540.1772619242879
 20
186.796973012239
 11
540.110498619261
 21
187.03746127671
 72
     1
 10
540.110498619261
 20
187.03746127671
 11
540.0928437779451
 21
187.286419608212
 72
     1
 10
540.0928437779451
 20
187.286419608212
 11
540.125001243149
 21
187.533922823702
 72
     1
 10
540.125001243149
 20
187.533922823702
 11
540.205688998214
 21
187.770103751019
 72
     1
 10
540.205688998214
 20
187.770103751019
 11
540.331690276972
 21
187.985546601904
 72
     1
 10
540.331690276972
 20
187.985546601904
 11
540.497981806058
 21
188.171662349762
 72
     1
 10
540.497981806058
 20
188.171662349762
 11
540.69793406697
 21
188.321031147046
 72
     1
 10
540.69793406697
 20
188.321031147046
 11
540.923575594052
 21
188.427698131171
 72
     1
 10
540.923575594052
 20
188.427698131171
 11
541.165910771672
 21
188.487410826086
 72
     1
 10
541.165910771672
 20
188.487410826086
 11
541.3423107817471
 21
188.4999202053
 72
     1
 10
541.3423107817471
 20
188.4999202053
 11
541.441645447144
 21
188.509886916415
 72
     1
 10
541.441645447144
 20
188.509886916415
 11
541.537019952901
 21
188.539389708334
 72
     1
 10
541.537019952901
 20
188.539389708334
 11
541.624632018444
 21
188.58725239788
 72
     1
 10
541.624632018444
 20
188.58725239788
 11
541.7009888271959
 21
188.651566850662
 72
     1
 10
541.7009888271959
 20
188.651566850662
 11
541.7630462741511
 21
188.729769052401
 72
     1
 10
541.7630462741511
 20
188.729769052401
 11
541.8083303247299
 21
188.818741328097
 72
     1
 10
541.8083303247299
 20
188.818741328097
 11
541.8350356467411
 21
188.914936633885
 72
     1
 10
541.8350356467411
 20
188.914936633885
 11
541.8423107817471
 21
188.9999202053
 72
     1
 10
541.8423107817471
 20
188.9999202053
 11
541.8423107817471
 21
189.9999202053
 72
     1
 10
541.8423107817471
 20
189.9999202053
 11
541.832344070667
 21
190.099254870733
 72
     1
 10
541.832344070667
 20
190.099254870733
 11
541.802841278748
 21
190.19462937649
 72
     1
 10
541.802841278748
 20
190.19462937649
 11
541.754978589202
 21
190.282241442033
 72
     1
 10
541.754978589202
 20
190.282241442033
 11
541.69066413642
 21
190.358598250785
 72
     1
 10
541.69066413642
 20
190.358598250785
 11
541.612461934681
 21
190.420655697739
 72
     1
 10
541.612461934681
 20
190.420655697739
 11
541.523489658985
 21
190.465939748319
 72
     1
 10
541.523489658985
 20
190.465939748319
 11
541.427294353197
 21
190.492645070329
 72
     1
 10
541.427294353197
 20
190.492645070329
 11
541.3423107817471
 21
190.4999202053
 72
     1
 10
541.3423107817471
 20
190.4999202053
 11
541.0939741182531
 21
190.524836983034
 72
     1
 10
541.0939741182531
 20
190.524836983034
 11
540.855537853861
 21
190.598593962832
 72
     1
 10
540.855537853861
 20
190.598593962832
 11
540.636507690003
 21
190.718250686698
 72
     1
 10
540.636507690003
 20
190.718250686698
 11
540.445615668122
 21
190.879036818651
 72
     1
 10
540.445615668122
 20
190.879036818651
 11
540.290472050737
 21
191.074542323
 72
     1
 10
540.290472050737
 20
191.074542323
 11
540.1772619242879
 21
191.296973012239
 72
     1
 10
540.1772619242879
 20
191.296973012239
 11
540.110498619261
 21
191.53746127671
 72
     1
 10
540.110498619261
 20
191.53746127671
 11
540.0928437779451
 21
191.786419608212
 72
     1
 10
540.0928437779451
 20
191.786419608212
 11
540.125001243149
 21
192.033922823702
 72
     1
 10
540.125001243149
 20
192.033922823702
 11
540.205688998214
 21
192.270103751019
 72
     1
 10
540.205688998214
 20
192.270103751019
 11
540.331690276972
 21
192.485546601904
 72
     1
 10
540.331690276972
 20
192.485546601904
 11
540.497981806058
 21
192.671662349762
 72
     1
 10
540.497981806058
 20
192.671662349762
 11
540.69793406697
 21
192.821031147046
 72
     1
 10
540.69793406697
 20
192.821031147046
 11
540.923575594052
 21
192.927698131171
 72
     1
 10
540.923575594052
 20
192.927698131171
 11
541.165910771672
 21
192.987410826086
 72
     1
 10
541.165910771672
 20
192.987410826086
 11
541.3423107817471
 21
192.9999202053
 72
     1
 10
541.3423107817471
 20
192.9999202053
 11
541.441645447144
 21
193.009886916415
 72
     1
 10
541.441645447144
 20
193.009886916415
 11
541.537019952901
 21
193.039389708334
 72
     1
 10
541.537019952901
 20
193.039389708334
 11
541.624632018444
 21
193.08725239788
 72
     1
 10
541.624632018444
 20
193.08725239788
 11
541.7009888271959
 21
193.151566850662
 72
     1
 10
541.7009888271959
 20
193.151566850662
 11
541.7630462741511
 21
193.229769052401
 72
     1
 10
541.7630462741511
 20
193.229769052401
 11
541.8083303247299
 21
193.318741328097
 72
     1
 10
541.8083303247299
 20
193.318741328097
 11
541.8350356467411
 21
193.414936633885
 72
     1
 10
541.8350356467411
 20
193.414936633885
 11
541.8423107817471
 21
193.4999202053
 72
     1
 10
541.8423107817471
 20
193.4999202053
 11
541.8423107817471
 21
194.4999202053
 72
     1
 10
541.8423107817471
 20
194.4999202053
 11
541.832344070667
 21
194.599254870733
 72
     1
 10
541.832344070667
 20
194.599254870733
 11
541.802841278748
 21
194.694629376489
 72
     1
 10
541.802841278748
 20
194.694629376489
 11
541.7549785892011
 21
194.782241442033
 72
     1
 10
541.7549785892011
 20
194.782241442033
 11
541.69066413642
 21
194.858598250785
 72
     1
 10
541.69066413642
 20
194.858598250785
 11
541.612461934681
 21
194.920655697739
 72
     1
 10
541.612461934681
 20
194.920655697739
 11
541.523489658985
 21
194.965939748319
 72
     1
 10
541.523489658985
 20
194.965939748319
 11
541.427294353197
 21
194.992645070329
 72
     1
 10
541.427294353197
 20
194.992645070329
 11
541.3423107817471
 21
194.9999202053
 72
     1
 10
541.3423107817471
 20
194.9999202053
 11
541.0939741182531
 21
195.024836983034
 72
     1
 10
541.0939741182531
 20
195.024836983034
 11
540.855537853861
 21
195.098593962832
 72
     1
 10
540.855537853861
 20
195.098593962832
 11
540.636507690003
 21
195.218250686698
 72
     1
 10
540.636507690003
 20
195.218250686698
 11
540.445615668122
 21
195.379036818651
 72
     1
 10
540.445615668122
 20
195.379036818651
 11
540.290472050737
 21
195.574542323
 72
     1
 10
540.290472050737
 20
195.574542323
 11
540.1772619242879
 21
195.796973012239
 72
     1
 10
540.1772619242879
 20
195.796973012239
 11
540.110498619261
 21
196.03746127671
 72
     1
 10
540.110498619261
 20
196.03746127671
 11
540.0928437779451
 21
196.286419608212
 72
     1
 10
540.0928437779451
 20
196.286419608212
 11
540.125001243149
 21
196.533922823702
 72
     1
 10
540.125001243149
 20
196.533922823702
 11
540.205688998214
 21
196.770103751019
 72
     1
 10
540.205688998214
 20
196.770103751019
 11
540.331690276972
 21
196.985546601904
 72
     1
 10
540.331690276972
 20
196.985546601904
 11
540.497981806058
 21
197.171662349762
 72
     1
 10
540.497981806058
 20
197.171662349762
 11
540.69793406697
 21
197.321031147046
 72
     1
 10
540.69793406697
 20
197.321031147046
 11
540.923575594052
 21
197.427698131171
 72
     1
 10
540.923575594052
 20
197.427698131171
 11
541.165910771672
 21
197.487410826086
 72
     1
 10
541.165910771672
 20
197.487410826086
 11
541.3423107817471
 21
197.4999202053
 72
     1
 10
541.3423107817471
 20
197.4999202053
 11
541.441645447144
 21
197.509886916415
 72
     1
 10
541.441645447144
 20
197.509886916415
 11
541.537019952901
 21
197.539389708334
 72
     1
 10
541.537019952901
 20
197.539389708334
 11
541.624632018444
 21
197.58725239788
 72
     1
 10
541.624632018444
 20
197.58725239788
 11
541.7009888271959
 21
197.651566850662
 72
     1
 10
541.7009888271959
 20
197.651566850662
 11
541.7630462741511
 21
197.729769052401
 72
     1
 10
541.7630462741511
 20
197.729769052401
 11
541.8083303247299
 21
197.818741328097
 72
     1
 10
541.8083303247299
 20
197.818741328097
 11
541.8350356467411
 21
197.914936633885
 72
     1
 10
541.8350356467411
 20
197.914936633885
 11
541.8423107817471
 21
197.9999202053
 72
     1
 10
541.8423107817471
 20
197.9999202053
 11
541.8423107817471
 21
198.9999202053
 72
     1
 10
541.8423107817471
 20
198.9999202053
 11
541.832344070667
 21
199.099254870733
 72
     1
 10
541.832344070667
 20
199.099254870733
 11
541.802841278748
 21
199.19462937649
 72
     1
 10
541.802841278748
 20
199.19462937649
 11
541.7549785892011
 21
199.282241442033
 72
     1
 10
541.7549785892011
 20
199.282241442033
 11
541.69066413642
 21
199.358598250785
 72
     1
 10
541.69066413642
 20
199.358598250785
 11
541.612461934681
 21
199.420655697739
 72
     1
 10
541.612461934681
 20
199.420655697739
 11
541.523489658985
 21
199.465939748319
 72
     1
 10
541.523489658985
 20
199.465939748319
 11
541.427294353197
 21
199.492645070329
 72
     1
 10
541.427294353197
 20
199.492645070329
 11
541.3423107817471
 21
199.4999202053
 97
        0
 75
     1
 76
     2
 52
0.0
 41
1.0
 77
     0
 78
     1
 53
44.99999999999998
 43
0.0
 44
0.0
 45
-4.490128060534577
 46
0.0000000000000018
 79
     0
 98
        1
 10
0.0
 20
0.0
  0
ENDBLK
  5
46
330
44
100
AcDbEntity
  8
0
100
AcDbBlockEnd
  0
BLOCK
  5
6B
330
47
100
AcDbEntity
  8
0
100
AcDbBlockBegin
  2
HL_62BP_5_DN160_Dachablauf
 70
     0
 10
453.3695249488345
 20
129.350771538909
 30
0.0
  3
HL_62BP_5_DN160_Dachablauf
  1

  0
INSERT
  5
6A
330
47
100
AcDbEntity
  8
0
100
AcDbBlockReference
  2
HL62BP_5
 10
453.3695249488345
 20
129.350771538909
 30
0.0
  0
ENDBLK
  5
6C
330
47
100
AcDbEntity
  8
0
100
AcDbBlockEnd
  0
BLOCK
  5
2EE
330
2E6
100
AcDbEntity
  8
0
100
AcDbBlockBegin
  2
*D3
 70
     1
 10
0.0
 20
0.0
 30
0.0
  3
*D3
  1

  0
LINE
  5
2E7
330
2E6
100
AcDbEntity
  8
1
  6
Continuous
 62
     4
100
AcDbLine
 10
289.34231675737
 20
273.170557209109
 30
0.0
 11
649.3423112247701
 21
273.170555824309
 31
0.0
  0
LINE
  5
2E8
330
2E6
100
AcDbEntity
  8
1
  6
Continuous
 62
     4
100
AcDbLine
 10
289.342316314347
 20
157.9999215901
 30
0.0
 11
289.3423167650634
 21
275.170557209109
 31
0.0
  0
LINE
  5
2E9
330
2E6
100
AcDbEntity
  8
1
  6
Continuous
 62
     4
100
AcDbLine
 10
649.3423107817471
 20
157.9999202053
 30
0.0
 11
649.3423112324634
 21
275.170555824309
 31
0.0
  0
SOLID
  5
2EA
330
2E6
100
AcDbEntity
  8
1
 62
     4
100
AcDbTrace
 10
299.3423167624342
 20
274.4870821465165
 30
0.0
 11
299.3423167523057
 21
271.8540321947685
 31
0.0
 12
289.34231675737
 22
273.170557209109
 32
0.0
 13
289.34231675737
 23
273.170557209109
 33
0.0
  0
SOLID
  5
2EB
330
2E6
100
AcDbEntity
  8
1
 62
     4
100
AcDbTrace
 10
639.342311219706
 20
271.8540308869016
 30
0.0
 11
639.3423112298343
 21
274.4870808386495
 31
0.0
 12
649.3423112247701
 22
273.170555824309
 32
0.0
 13
649.3423112247701
 23
273.170555824309
 33
0.0
  0
MTEXT
  5
2ED
330
2E6
100
AcDbEntity
  8
1
 62
     1
100
AcDbMText
 10
447.4596512823779
 20
275.1705167599972
 30
0.0
 40
10.0
 41
0.0
 71
     7
 72
     1
  1
\C1;%%c\C1;360
  7
CONVERTER_11
 11
0.9999999999970619
 21
2.424068405545306E-6
 31
0.0
 73
     1
 44
0.60024009603842
  0
ENDBLK
  5
2EF
330
2E6
100
AcDbEntity
  8
0
100
AcDbBlockEnd
  0
BLOCK
  5
2F9
330
2F2
100
AcDbEntity
  8
0
100
AcDbBlockBegin
  2
*D4
 70
     1
 10
0.0
 20
0.0
 30
0.0
  3
*D4
  1

  0
LINE
  5
2F3
330
2F2
100
AcDbEntity
  8
1
  6
Continuous
 62
     4
100
AcDbLine
 10
395.342307612047
 20
251.52948205353
 30
0.0
 11
543.342309519447
 21
251.52948205353
 31
0.0
  0
LINE
  5
2F4
330
2F2
100
AcDbEntity
  8
1
  6
Continuous
 62
     4
100
AcDbLine
 10
395.342307612047
 20
232.9999171197
 30
0.0
 11
395.342307612047
 21
253.52948205353
 31
0.0
  0
LINE
  5
2F5
330
2F2
100
AcDbEntity
  8
1
  6
Continuous
 62
     4
100
AcDbLine
 10
543.342309519447
 20
232.9999171197
 30
0.0
 11
543.342309519447
 21
253.52948205353
 31
0.0
  0
SOLID
  5
2F6
330
2F2
100
AcDbEntity
  8
1
 62
     4
100
AcDbTrace
 10
405.342307612047
 20
252.8460070294039
 30
0.0
 11
405.342307612047
 21
250.212957077656
 31
0.0
 12
395.342307612047
 22
251.52948205353
 32
0.0
 13
395.342307612047
 23
251.52948205353
 33
0.0
  0
SOLID
  5
2F7
330
2F2
100
AcDbEntity
  8
1
 62
     4
100
AcDbTrace
 10
533.342309519447
 20
250.212957077656
 30
0.0
 11
533.342309519447
 21
252.8460070294039
 31
0.0
 12
543.342309519447
 22
251.52948205353
 32
0.0
 13
543.342309519447
 23
251.52948205353
 33
0.0
  0
MTEXT
  5
2F8
330
2F2
100
AcDbEntity
  8
1
 62
     1
100
AcDbMText
 10
441.530931939768
 20
253.52948205353
 30
0.0
 40
10.0
 41
0.0
 71
     7
 72
     1
  1
\C1;150\C1;x150
  7
CONVERTER_11
 11
0.9999999999970619
 21
2.424068405545306E-6
 31
0.0
 73
     1
 44
0.60024009603842
  0
ENDBLK
  5
2FA
330
2F2
100
AcDbEntity
  8
0
100
AcDbBlockEnd
  0
BLOCK
  5
304
330
2FD
100
AcDbEntity
  8
0
100
AcDbBlockBegin
  2
*D5
 70
     1
 10
0.0
 20
0.0
 30
0.0
  3
*D5
  1

  0
LINE
  5
2FE
330
2FD
100
AcDbEntity
  8
1
  6
Continuous
 62
     4
100
AcDbLine
 10
389.242308661047
 20
-24.4690135061411
 30
0.0
 11
549.4423084703469
 21
-24.4690135061411
 31
0.0
  0
LINE
  5
2FF
330
2FD
100
AcDbEntity
  8
1
  6
Continuous
 62
     4
100
AcDbLine
 10
389.242308661047
 20
4.99999895689999
 30
0.0
 11
389.242308661047
 21
-26.4690135061411
 31
0.0
  0
LINE
  5
300
330
2FD
100
AcDbEntity
  8
1
  6
Continuous
 62
     4
100
AcDbLine
 10
549.4423084703469
 20
4.99999895689999
 30
0.0
 11
549.4423084703469
 21
-26.4690135061411
 31
0.0
  0
SOLID
  5
301
330
2FD
100
AcDbEntity
  8
1
 62
     4
100
AcDbTrace
 10
399.242308661047
 20
-23.15248853026714
 30
0.0
 11
399.242308661047
 21
-25.78553848201506
 31
0.0
 12
389.242308661047
 22
-24.4690135061411
 32
0.0
 13
389.242308661047
 23
-24.4690135061411
 33
0.0
  0
SOLID
  5
302
330
2FD
100
AcDbEntity
  8
1
 62
     4
100
AcDbTrace
 10
539.4423084703469
 20
-25.78553848201506
 30
0.0
 11
539.4423084703469
 21
-23.15248853026714
 31
0.0
 12
549.4423084703469
 22
-24.4690135061411
 32
0.0
 13
549.4423084703469
 23
-24.4690135061411
 33
0.0
  0
MTEXT
  5
303
330
2FD
100
AcDbEntity
  8
1
 62
     1
100
AcDbMText
 10
455.4552659293452
 20
-22.46905326086295
 30
0.0
 40
10.0
 41
0.0
 71
     7
 72
     1
  1
\C1;DN\C1;160
  7
CONVERTER_11
 11
0.9999999999970619
 21
2.424068405545306E-6
 31
0.0
 73
     1
 44
0.60024009603842
  0
ENDBLK
  5
305
330
2FD
100
AcDbEntity
  8
0
100
AcDbBlockEnd
  0
BLOCK
  5
30F
330
308
100
AcDbEntity
  8
0
100
AcDbBlockBegin
  2
*D6
 70
     1
 10
0.0
 20
0.0
 30
0.0
  3
*D6
  1

  0
LINE
  5
309
330
308
100
AcDbEntity
  8
1
  6
Continuous
 62
     4
100
AcDbLine
 10
269.321734179422
 20
159.9999181926
 30
0.0
 11
269.321734179422
 21
0.0
 31
0.0
  0
LINE
  5
30A
330
308
100
AcDbEntity
  8
1
  6
Continuous
 62
     4
100
AcDbLine
 10
291.342305466247
 20
159.9999181926
 30
0.0
 11
267.321734179422
 21
159.9999181926
 31
0.0
  0
LINE
  5
30B
330
308
100
AcDbEntity
  8
1
  6
Continuous
 62
     4
100
AcDbLine
 10
392.092312201647
 20
0.0
 30
0.0
 11
267.321734179422
 21
0.0
 31
0.0
  0
SOLID
  5
30C
330
308
100
AcDbEntity
  8
1
 62
     4
100
AcDbTrace
 10
270.6382591552959
 20
149.9999181926
 30
0.0
 11
268.005209203548
 21
149.9999181926
 31
0.0
 12
269.321734179422
 22
159.9999181926
 32
0.0
 13
269.321734179422
 23
159.9999181926
 33
0.0
  0
SOLID
  5
30D
330
308
100
AcDbEntity
  8
1
 62
     4
100
AcDbTrace
 10
268.005209203548
 20
10.0
 30
0.0
 11
270.6382591552959
 21
10.0
 31
0.0
 12
269.321734179422
 22
0.0
 32
0.0
 13
269.321734179422
 23
0.0
 33
0.0
  0
MTEXT
  5
30E
330
308
100
AcDbEntity
  8
1
 62
     1
100
AcDbMText
 10
267.321734179422
 20
67.0989016361072
 30
0.0
 40
10.0
 41
0.0
 71
     7
 72
     1
  1
160
  7
CONVERTER_11
 11
0.0
 21
1.0
 31
0.0
 73
     1
 44
0.60024009603842
  0
ENDBLK
  5
310
330
308
100
AcDbEntity
  8
0
100
AcDbBlockEnd
  0
ENDSEC
  0
SECTION
  2
ENTITIES
  0
INSERT
  5
6D
330
1F
100
AcDbEntity
  8
0
100
AcDbBlockReference
  2
HL_62BP_5_DN160_Dachablauf
 10
453.3695249488345
 20
129.350771538909
 30
0.0
  0
ENDSEC
  0
SECTION
  2
OBJECTS
  0
DICTIONARY
  5
C
330
0
100
AcDbDictionary
281
     1
  3
ACAD_GROUP
350
D
  3
ACAD_LAYOUT
350
1A
  3
ACAD_MLEADERSTYLE
350
328
  3
ACAD_MLINESTYLE
350
17
  3
ACAD_PLOTSETTINGS
350
19
  3
ACAD_PLOTSTYLENAME
350
E
  3
ACAD_SCALELIST
350
48
  3
ACAD_VISUALSTYLE
350
2A
  3
AcDbVariableDictionary
350
326
  0
DICTIONARY
  5
D
102
{ACAD_REACTORS
330
C
102
}
330
C
100
AcDbDictionary
281
     1
  0
DICTIONARY
  5
1A
102
{ACAD_REACTORS
330
C
102
}
330
C
100
AcDbDictionary
281
     1
  3
Layout1
350
1E
  3
Layout2
350
26
  3
Model
350
22
  0
DICTIONARY
  5
328
102
{ACAD_REACTORS
330
C
102
}
330
C
100
AcDbDictionary
281
     1
  0
DICTIONARY
  5
17
102
{ACAD_REACTORS
330
C
102
}
330
C
100
AcDbDictionary
281
     1
  3
Standard
350
18
  0
DICTIONARY
  5
19
102
{ACAD_REACTORS
330
C
102
}
330
C
100
AcDbDictionary
281
     1
  0
ACDBDICTIONARYWDFLT
  5
E
102
{ACAD_REACTORS
330
C
102
}
330
C
100
AcDbDictionary
281
     1
  3
Normal
350
F
100
AcDbDictionaryWithDefault
340
F
  0
DICTIONARY
  5
48
102
{ACAD_REACTORS
330
C
102
}
330
C
100
AcDbDictionary
281
     1
  3
A0
350
49
  3
A1
350
4A
  3
A2
350
4B
  3
A3
350
4C
  3
A4
350
4D
  3
A5
350
4E
  3
A6
350
4F
  3
A7
350
50
  3
A8
350
51
  3
A9
350
52
  3
B0
350
53
  3
B1
350
54
  3
B2
350
55
  3
B3
350
56
  3
B4
350
57
  3
B5
350
58
  3
B6
350
59
  3
B7
350
5A
  3
B8
350
5B
  3
B9
350
5C
  3
C0
350
5D
  3
C1
350
5E
  3
C2
350
5F
  3
C3
350
60
  3
C4
350
61
  3
C5
350
62
  3
C6
350
63
  3
C7
350
64
  3
C8
350
65
  3
C9
350
66
  3
D0
350
67
  3
D1
350
68
  3
D2
350
69
  0
DICTIONARY
  5
2A
102
{ACAD_REACTORS
330
C
102
}
330
C
100
AcDbDictionary
281
     1
  3
2dWireframe
350
2F
  3
3D Hidden
350
31
  3
3dWireframe
350
30
  3
Basic
350
32
  3
Brighten
350
36
  3
ColorChange
350
3A
  3
Conceptual
350
34
  3
Dim
350
35
  3
Facepattern
350
39
  3
Flat
350
2B
  3
FlatWithEdges
350
2C
  3
Gouraud
350
2D
  3
GouraudWithEdges
350
2E
  3
Linepattern
350
38
  3
Realistic
350
33
  3
Thicken
350
37
  0
DICTIONARY
  5
326
102
{ACAD_REACTORS
330
C
102
}
330
C
100
AcDbDictionary
281
     1
  3
CANNOSCALE
350
329
  0
LAYOUT
  5
1E
102
{ACAD_REACTORS
330
1A
102
}
330
1A
100
AcDbPlotSettings
  1

  2
none_device
  4

  6

 40
0.0
 41
0.0
 42
0.0
 43
0.0
 44
0.0
 45
0.0
 46
0.0
 47
0.0
 48
0.0
 49
0.0
140
0.0
141
0.0
142
1.0
143
1.0
 70
   688
 72
     0
 73
     0
 74
     5
  7

 75
    16
147
1.0
148
0.0
149
0.0
100
AcDbLayout
  1
Layout1
 70
     1
 71
     1
 10
0.0
 20
0.0
 11
12.0
 21
9.0
 12
0.0
 22
0.0
 32
0.0
 14
1.00000000000000E+20
 24
1.00000000000000E+20
 34
1.00000000000000E+20
 15
-1.00000000000000E+20
 25
-1.00000000000000E+20
 35
-1.00000000000000E+20
146
0.0
 13
0.0
 23
0.0
 33
0.0
 16
1.0
 26
0.0
 36
0.0
 17
0.0
 27
1.0
 37
0.0
 76
     0
330
1B
  0
LAYOUT
  5
26
102
{ACAD_REACTORS
330
1A
102
}
330
1A
100
AcDbPlotSettings
  1

  2
none_device
  4

  6

 40
0.0
 41
0.0
 42
0.0
 43
0.0
 44
0.0
 45
0.0
 46
0.0
 47
0.0
 48
0.0
 49
0.0
140
0.0
141
0.0
142
1.0
143
1.0
 70
   688
 72
     0
 73
     0
 74
     5
  7

 75
    16
147
1.0
148
0.0
149
0.0
100
AcDbLayout
  1
Layout2
 70
     1
 71
     2
 10
0.0
 20
0.0
 11
0.0
 21
0.0
 12
0.0
 22
0.0
 32
0.0
 14
0.0
 24
0.0
 34
0.0
 15
0.0
 25
0.0
 35
0.0
146
0.0
 13
0.0
 23
0.0
 33
0.0
 16
1.0
 26
0.0
 36
0.0
 17
0.0
 27
1.0
 37
0.0
 76
     0
330
23
  0
LAYOUT
  5
22
102
{ACAD_REACTORS
330
1A
102
}
330
1A
100
AcDbPlotSettings
  1

  2
none_device
  4

  6

 40
0.0
 41
0.0
 42
0.0
 43
0.0
 44
0.0
 45
0.0
 46
0.0
 47
0.0
 48
0.0
 49
0.0
140
0.0
141
0.0
142
1.0
143
1.0
 70
  1712
 72
     0
 73
     0
 74
     0
  7

 75
     0
147
1.0
148
0.0
149
0.0
100
AcDbLayout
  1
Model
 70
     1
 71
     0
 10
0.0
 20
0.0
 11
12.0
 21
9.0
 12
0.0
 22
0.0
 32
0.0
 14
257.321734179422
 24
-26.4690135061411
 34
0.0
 15
649.417315718247
 25
285.170556583959
 35
0.0
146
0.0
 13
0.0
 23
0.0
 33
0.0
 16
1.0
 26
0.0
 36
0.0
 17
0.0
 27
1.0
 37
0.0
 76
     0
330
1F
331
29
  0
MLINESTYLE
  5
18
102
{ACAD_REACTORS
330
17
102
}
330
17
100
AcDbMlineStyle
  2
Standard
 70
     0
  3

 62
   256
 51
90.0
 52
90.0
 71
     2
 49
0.5
 62
   256
  6
BYLAYER
 49
-0.5
 62
   256
  6
BYLAYER
  0
ACDBPLACEHOLDER
  5
F
102
{ACAD_REACTORS
330
E
102
}
330
E
  0
SCALE
  5
49
102
{ACAD_REACTORS
330
48
102
}
330
48
100
AcDbScale
 70
     0
300
1:1
140
1.0
141
1.0
290
     1
  0
SCALE
  5
4A
102
{ACAD_REACTORS
330
48
102
}
330
48
100
AcDbScale
 70
     0
300
1:2
140
1.0
141
2.0
290
     0
  0
SCALE
  5
4B
102
{ACAD_REACTORS
330
48
102
}
330
48
100
AcDbScale
 70
     0
300
1:4
140
1.0
141
4.0
290
     0
  0
SCALE
  5
4C
102
{ACAD_REACTORS
330
48
102
}
330
48
100
AcDbScale
 70
     0
300
1:5
140
1.0
141
5.0
290
     0
  0
SCALE
  5
4D
102
{ACAD_REACTORS
330
48
102
}
330
48
100
AcDbScale
 70
     0
300
1:8
140
1.0
141
8.0
290
     0
  0
SCALE
  5
4E
102
{ACAD_REACTORS
330
48
102
}
330
48
100
AcDbScale
 70
     0
300
1:10
140
1.0
141
10.0
290
     0
  0
SCALE
  5
4F
102
{ACAD_REACTORS
330
48
102
}
330
48
100
AcDbScale
 70
     0
300
1:16
140
1.0
141
16.0
290
     0
  0
SCALE
  5
50
102
{ACAD_REACTORS
330
48
102
}
330
48
100
AcDbScale
 70
     0
300
1:20
140
1.0
141
20.0
290
     0
  0
SCALE
  5
51
102
{ACAD_REACTORS
330
48
102
}
330
48
100
AcDbScale
 70
     0
300
1:30
140
1.0
141
30.0
290
     0
  0
SCALE
  5
52
102
{ACAD_REACTORS
330
48
102
}
330
48
100
AcDbScale
 70
     0
300
1:40
140
1.0
141
40.0
290
     0
  0
SCALE
  5
53
102
{ACAD_REACTORS
330
48
102
}
330
48
100
AcDbScale
 70
     0
300
1:50
140
1.0
141
50.0
290
     0
  0
SCALE
  5
54
102
{ACAD_REACTORS
330
48
102
}
330
48
100
AcDbScale
 70
     0
300
1:100
140
1.0
141
100.0
290
     0
  0
SCALE
  5
55
102
{ACAD_REACTORS
330
48
102
}
330
48
100
AcDbScale
 70
     0
300
2:1
140
2.0
141
1.0
290
     0
  0
SCALE
  5
56
102
{ACAD_REACTORS
330
48
102
}
330
48
100
AcDbScale
 70
     0
300
4:1
140
4.0
141
1.0
290
     0
  0
SCALE
  5
57
102
{ACAD_REACTORS
330
48
102
}
330
48
100
AcDbScale
 70
     0
300
8:1
140
8.0
141
1.0
290
     0
  0
SCALE
  5
58
102
{ACAD_REACTORS
330
48
102
}
330
48
100
AcDbScale
 70
     0
300
10:1
140
10.0
141
1.0
290
     0
  0
SCALE
  5
59
102
{ACAD_REACTORS
330
48
102
}
330
48
100
AcDbScale
 70
     0
300
100:1
140
100.0
141
1.0
290
     0
  0
SCALE
  5
5A
102
{ACAD_REACTORS
330
48
102
}
330
48
100
AcDbScale
 70
     0
300
1/128" = 1'-0"
140
0.0078125
141
12.0
290
     0
  0
SCALE
  5
5B
102
{ACAD_REACTORS
330
48
102
}
330
48
100
AcDbScale
 70
     0
300
1/64" = 1'-0"
140
0.015625
141
12.0
290
     0
  0
SCALE
  5
5C
102
{ACAD_REACTORS
330
48
102
}
330
48
100
AcDbScale
 70
     0
300
1/32" = 1'-0"
140
0.03125
141
12.0
290
     0
  0
SCALE
  5
5D
102
{ACAD_REACTORS
330
48
102
}
330
48
100
AcDbScale
 70
     0
300
1/16" = 1'-0"
140
0.0625
141
12.0
290
     0
  0
SCALE
  5
5E
102
{ACAD_REACTORS
330
48
102
}
330
48
100
AcDbScale
 70
     0
300
3/32" = 1'-0"
140
0.09375
141
12.0
290
     0
  0
SCALE
  5
5F
102
{ACAD_REACTORS
330
48
102
}
330
48
100
AcDbScale
 70
     0
300
1/8" = 1'-0"
140
0.125
141
12.0
290
     0
  0
SCALE
  5
60
102
{ACAD_REACTORS
330
48
102
}
330
48
100
AcDbScale
 70
     0
300
3/16" = 1'-0"
140
0.1875
141
12.0
290
     0
  0
SCALE
  5
61
102
{ACAD_REACTORS
330
48
102
}
330
48
100
AcDbScale
 70
     0
300
1/4" = 1'-0"
140
0.25
141
12.0
290
     0
  0
SCALE
  5
62
102
{ACAD_REACTORS
330
48
102
}
330
48
100
AcDbScale
 70
     0
300
3/8" = 1'-0"
140
0.375
141
12.0
290
     0
  0
SCALE
  5
63
102
{ACAD_REACTORS
330
48
102
}
330
48
100
AcDbScale
 70
     0
300
1/2" = 1'-0"
140
0.5
141
12.0
290
     0
  0
SCALE
  5
64
102
{ACAD_REACTORS
330
48
102
}
330
48
100
AcDbScale
 70
     0
300
3/4" = 1'-0"
140
0.75
141
12.0
290
     0
  0
SCALE
  5
65
102
{ACAD_REACTORS
330
48
102
}
330
48
100
AcDbScale
 70
     0
300
1" = 1'-0"
140
1.0
141
12.0
290
     0
  0
SCALE
  5
66
102
{ACAD_REACTORS
330
48
102
}
330
48
100
AcDbScale
 70
     0
300
1-1/2" = 1'-0"
140
1.5
141
12.0
290
     0
  0
SCALE
  5
67
102
{ACAD_REACTORS
330
48
102
}
330
48
100
AcDbScale
 70
     0
300
3" = 1'-0"
140
3.0
141
12.0
290
     0
  0
SCALE
  5
68
102
{ACAD_REACTORS
330
48
102
}
330
48
100
AcDbScale
 70
     0
300
6" = 1'-0"
140
6.0
141
12.0
290
     0
  0
SCALE
  5
69
102
{ACAD_REACTORS
330
48
102
}
330
48
100
AcDbScale
 70
     0
300
1'-0" = 1'-0"
140
12.0
141
12.0
290
     0
  0
VISUALSTYLE
  5
2F
102
{ACAD_REACTORS
330
2A
102
}
330
2A
100
AcDbVisualStyle
  2
2dWireframe
 70
     4
 71
     0
 72
     2
 73
     0
 90
        0
 40
-0.6
 41
-30.0
 62
     5
 63
     7
 74
     1
 91
        4
 64
     7
 65
   257
 75
     1
175
     1
 42
1.0
 92
        0
 66
   257
 43
1.0
 76
     1
 77
     6
 78
     2
 67
     7
 79
     5
170
     0
171
     0
290
     0
174
     0
 93
        1
 44
0.0
173
     0
291
     0
 45
0.0
1001
ACAD
1000
AcDbSavedByObjectVersion
1070
     0
  0
VISUALSTYLE
  5
31
102
{ACAD_REACTORS
330
2A
102
}
330
2A
100
AcDbVisualStyle
  2
3D Hidden
 70
     6
 71
     1
 72
     2
 73
     2
 90
        0
 40
-0.6
 41
-30.0
 62
     5
 63
     7
 74
     2
 91
        2
 64
     7
 65
   257
 75
     2
175
     1
 42
40.0
 92
        0
 66
   257
 43
1.0
 76
     1
 77
     6
 78
     2
 67
     7
 79
     3
170
     0
171
     0
290
     0
174
     0
 93
        1
 44
0.0
173
     0
291
     0
 45
0.0
1001
ACAD
1000
AcDbSavedByObjectVersion
1070
     0
  0
VISUALSTYLE
  5
30
102
{ACAD_REACTORS
330
2A
102
}
330
2A
100
AcDbVisualStyle
  2
3dWireframe
 70
     5
 71
     0
 72
     2
 73
     0
 90
        0
 40
-0.6
 41
-30.0
 62
     5
 63
     7
 74
     1
 91
        4
 64
     7
 65
   257
 75
     1
175
     1
 42
1.0
 92
        0
 66
   257
 43
1.0
 76
     1
 77
     6
 78
     2
 67
     7
 79
     5
170
     0
171
     0
290
     0
174
     0
 93
        1
 44
0.0
173
     0
291
     0
 45
0.0
1001
ACAD
1000
AcDbSavedByObjectVersion
1070
     0
  0
VISUALSTYLE
  5
32
102
{ACAD_REACTORS
330
2A
102
}
330
2A
100
AcDbVisualStyle
  2
Basic
 70
     7
 71
     1
 72
     0
 73
     1
 90
        0
 40
-0.6
 41
-30.0
 62
     5
 63
     7
 74
     0
 91
        4
 64
     7
 65
   257
 75
     1
175
     1
 42
1.0
 92
        8
 66
     7
 43
1.0
 76
     1
 77
     6
 78
     2
 67
     7
 79
     5
170
     0
171
     0
290
     0
174
     0
 93
        1
 44
0.0
173
     0
291
     1
 45
0.0
1001
ACAD
1000
AcDbSavedByObjectVersion
1070
     0
  0
VISUALSTYLE
  5
36
102
{ACAD_REACTORS
330
2A
102
}
330
2A
100
AcDbVisualStyle
  2
Brighten
 70
    12
 71
     2
 72
     2
 73
     0
 90
        0
 40
-0.6
 41
-30.0
 62
     5
 63
     7
 74
     1
 91
        4
 64
     7
 65
   257
 75
     1
175
     1
 42
1.0
 92
        8
 66
     7
 43
1.0
 76
     1
 77
     6
 78
     2
 67
     7
 79
     5
170
     0
171
     0
290
     0
174
     0
 93
        1
 44
50.0
173
     0
291
     1
 45
0.0
1001
ACAD
1000
AcDbSavedByObjectVersion
1070
     0
  0
VISUALSTYLE
  5
3A
102
{ACAD_REACTORS
330
2A
102
}
330
2A
100
AcDbVisualStyle
  2
ColorChange
 70
    16
 71
     2
 72
     2
 73
     3
 90
        0
 40
-0.6
 41
-30.0
 62
     5
 63
     8
 74
     1
 91
        4
 64
     7
 65
   257
 75
     1
175
     1
 42
1.0
 92
        8
 66
     8
 43
1.0
 76
     1
 77
     6
 78
     2
 67
     7
 79
     5
170
     0
171
     0
290
     0
174
     0
 93
        1
 44
0.0
173
     0
291
     1
 45
0.0
1001
ACAD
1000
AcDbSavedByObjectVersion
1070
     0
  0
VISUALSTYLE
  5
34
102
{ACAD_REACTORS
330
2A
102
}
330
2A
100
AcDbVisualStyle
  2
Conceptual
 70
     9
 71
     3
 72
     2
 73
     0
 90
        0
 40
-0.6
 41
-30.0
 62
     5
 63
     7
 74
     2
 91
        2
 64
     7
 65
   257
 75
     1
175
     1
 42
40.0
 92
        8
 66
     7
 43
1.0
 76
     1
 77
     6
 78
     2
 67
     7
 79
     3
170
     0
171
     0
290
     0
174
     0
 93
        1
 44
0.0
173
     0
291
     0
 45
0.0
1001
ACAD
1000
AcDbSavedByObjectVersion
1070
     0
  0
VISUALSTYLE
  5
35
102
{ACAD_REACTORS
330
2A
102
}
330
2A
100
AcDbVisualStyle
  2
Dim
 70
    11
 71
     2
 72
     2
 73
     0
 90
        0
 40
-0.6
 41
-30.0
 62
     5
 63
     7
 74
     1
 91
        4
 64
     7
 65
   257
 75
     1
175
     1
 42
1.0
 92
        8
 66
     7
 43
1.0
 76
     1
 77
     6
 78
     2
 67
     7
 79
     5
170
     0
171
     0
290
     0
174
     0
 93
        1
 44
-50.0
173
     0
291
     1
 45
0.0
1001
ACAD
1000
AcDbSavedByObjectVersion
1070
     0
  0
VISUALSTYLE
  5
39
102
{ACAD_REACTORS
330
2A
102
}
330
2A
100
AcDbVisualStyle
  2
Facepattern
 70
    15
 71
     2
 72
     2
 73
     0
 90
        0
 40
-0.6
 41
-30.0
 62
     5
 63
     7
 74
     1
 91
        4
 64
     7
 65
   257
 75
     1
175
     1
 42
1.0
 92
        8
 66
     7
 43
1.0
 76
     1
 77
     6
 78
     2
 67
     7
 79
     5
170
     0
171
     0
290
     0
174
     0
 93
        1
 44
0.0
173
     0
291
     1
 45
0.0
1001
ACAD
1000
AcDbSavedByObjectVersion
1070
     0
  0
VISUALSTYLE
  5
2B
102
{ACAD_REACTORS
330
2A
102
}
330
2A
100
AcDbVisualStyle
  2
Flat
 70
     0
 71
     2
 72
     1
 73
     1
 90
        2
 40
-0.6
 41
30.0
 62
     5
 63
     7
 74
     0
 91
        4
 64
     7
 65
   257
 75
     1
175
     1
 42
1.0
 92
        8
 66
     7
 43
1.0
 76
     1
 77
     6
 78
     2
 67
     7
 79
     5
170
     0
171
     0
290
     0
174
     0
 93
       13
 44
0.0
173
     0
291
     1
 45
0.0
1001
ACAD
1000
AcDbSavedByObjectVersion
1070
     0
  0
VISUALSTYLE
  5
2C
102
{ACAD_REACTORS
330
2A
102
}
330
2A
100
AcDbVisualStyle
  2
FlatWithEdges
 70
     1
 71
     2
 72
     1
 73
     1
 90
        2
 40
-0.6
 41
30.0
 62
     5
 63
     7
 74
     1
 91
        4
 64
     7
 65
   257
 75
     1
175
     1
 42
1.0
 92
        0
 66
   257
 43
1.0
 76
     1
 77
     6
 78
     2
 67
     7
 79
     5
170
     0
171
     0
290
     0
174
     0
 93
       13
 44
0.0
173
     0
291
     1
 45
0.0
1001
ACAD
1000
AcDbSavedByObjectVersion
1070
     0
  0
VISUALSTYLE
  5
2D
102
{ACAD_REACTORS
330
2A
102
}
330
2A
100
AcDbVisualStyle
  2
Gouraud
 70
     2
 71
     2
 72
     2
 73
     1
 90
        2
 40
-0.6
 41
30.0
 62
     5
 63
     7
 74
     0
 91
        4
 64
     7
 65
   257
 75
     1
175
     1
 42
1.0
 92
        0
 66
     7
 43
1.0
 76
     1
 77
     6
 78
     2
 67
     7
 79
     5
170
     0
171
     0
290
     0
174
     0
 93
       13
 44
0.0
173
     0
291
     1
 45
0.0
1001
ACAD
1000
AcDbSavedByObjectVersion
1070
     0
  0
VISUALSTYLE
  5
2E
102
{ACAD_REACTORS
330
2A
102
}
330
2A
100
AcDbVisualStyle
  2
GouraudWithEdges
 70
     3
 71
     2
 72
     2
 73
     1
 90
        2
 40
-0.6
 41
30.0
 62
     5
 63
     7
 74
     1
 91
        4
 64
     7
 65
   257
 75
     1
175
     1
 42
1.0
 92
        0
 66
   257
 43
1.0
 76
     1
 77
     6
 78
     2
 67
     7
 79
     5
170
     0
171
     0
290
     0
174
     0
 93
       13
 44
0.0
173
     0
291
     1
 45
0.0
1001
ACAD
1000
AcDbSavedByObjectVersion
1070
     0
  0
VISUALSTYLE
  5
38
102
{ACAD_REACTORS
330
2A
102
}
330
2A
100
AcDbVisualStyle
  2
Linepattern
 70
    14
 71
     2
 72
     2
 73
     0
 90
        0
 40
-0.6
 41
-30.0
 62
     5
 63
     7
 74
     1
 91
        4
 64
     7
 65
   257
 75
     7
175
     7
 42
1.0
 92
        8
 66
     7
 43
1.0
 76
     1
 77
     6
 78
     2
 67
     7
 79
     5
170
     0
171
     0
290
     0
174
     0
 93
        1
 44
0.0
173
     0
291
     1
 45
0.0
1001
ACAD
1000
AcDbSavedByObjectVersion
1070
     0
  0
VISUALSTYLE
  5
33
102
{ACAD_REACTORS
330
2A
102
}
330
2A
100
AcDbVisualStyle
  2
Realistic
 70
     8
 71
     2
 72
     2
 73
     0
 90
        0
 40
-0.6
 41
-30.0
 62
     5
 63
     7
 74
     1
 91
        0
 64
     7
 65
   257
 75
     1
175
     1
 42
1.0
 92
        8
 66
     8
 43
1.0
 76
     1
 77
     6
 78
     2
 67
     7
 79
     5
170
     0
171
     0
290
     0
174
     0
 93
       13
 44
0.0
173
     0
291
     0
 45
0.0
1001
ACAD
1000
AcDbSavedByObjectVersion
1070
     0
  0
VISUALSTYLE
  5
37
102
{ACAD_REACTORS
330
2A
102
}
330
2A
100
AcDbVisualStyle
  2
Thicken
 70
    13
 71
     2
 72
     2
 73
     0
 90
        0
 40
-0.6
 41
-30.0
 62
     5
 63
     7
 74
     1
 91
        4
 64
     7
 65
   257
 75
     1
175
     1
 42
1.0
 92
       12
 66
     7
 43
1.0
 76
     1
 77
     6
 78
     2
 67
     7
 79
     5
170
     0
171
     0
290
     0
174
     0
 93
        1
 44
0.0
173
     0
291
     1
 45
0.0
1001
ACAD
1000
AcDbSavedByObjectVersion
1070
     0
  0
DICTIONARYVAR
  5
329
102
{ACAD_REACTORS
330
326
102
}
330
326
100
DictionaryVariables
280
     0
  1
1:1
  0
ENDSEC
  0
EOF
