  0
SECTION
  2
HEADER
  9
$ACADVER
  1
AC1015
  9
$ACADMAINTVER
 70
     6
  9
$DWGCODEPAGE
  3
ANSI_1252
  9
$INSBASE
 10
0.0
 20
0.0
 30
0.0
  9
$EXTMIN
 10
243.834210414093
 20
-31.9051058120813
 30
0.0
  9
$EXTMAX
 10
629.9341855009351
 20
269.199022963285
 30
0.0
  9
$LIMMIN
 10
0.0
 20
0.0
  9
$LIMMAX
 10
12.0
 20
9.0
  9
$ORTHOMODE
 70
     0
  9
$REGENMODE
 70
     1
  9
$FILLMODE
 70
     1
  9
$QTEXTMODE
 70
     0
  9
$MIRRTEXT
 70
     1
  9
$LTSCALE
 40
1.0
  9
$ATTMODE
 70
     1
  9
$TEXTSIZE
 40
0.2
  9
$TRACEWID
 40
0.05
  9
$TEXTSTYLE
  7
Standard
  9
$CLAYER
  8
0
  9
$CELTYPE
  6
ByLayer
  9
$CECOLOR
 62
   256
  9
$CELTSCALE
 40
1.0
  9
$DISPSILH
 70
     0
  9
$DIMSCALE
 40
1.0
  9
$DIMASZ
 40
0.18
  9
$DIMEXO
 40
0.0625
  9
$DIMDLI
 40
0.38
  9
$DIMRND
 40
0.0
  9
$DIMDLE
 40
0.0
  9
$DIMEXE
 40
0.18
  9
$DIMTP
 40
0.0
  9
$DIMTM
 40
0.0
  9
$DIMTXT
 40
0.18
  9
$DIMCEN
 40
0.09
  9
$DIMTSZ
 40
0.0
  9
$DIMTOL
 70
     0
  9
$DIMLIM
 70
     0
  9
$DIMTIH
 70
     1
  9
$DIMTOH
 70
     1
  9
$DIMSE1
 70
     0
  9
$DIMSE2
 70
     0
  9
$DIMTAD
 70
     0
  9
$DIMZIN
 70
     0
  9
$DIMBLK
  1

  9
$DIMASO
 70
     1
  9
$DIMSHO
 70
     1
  9
$DIMPOST
  1

  9
$DIMAPOST
  1

  9
$DIMALT
 70
     0
  9
$DIMALTD
 70
     2
  9
$DIMALTF
 40
25.4
  9
$DIMLFAC
 40
1.0
  9
$DIMTOFL
 70
     0
  9
$DIMTVP
 40
0.0
  9
$DIMTIX
 70
     0
  9
$DIMSOXD
 70
     0
  9
$DIMSAH
 70
     0
  9
$DIMBLK1
  1

  9
$DIMBLK2
  1

  9
$DIMSTYLE
  2
Standard
  9
$DIMCLRD
 70
     0
  9
$DIMCLRE
 70
     0
  9
$DIMCLRT
 70
     0
  9
$DIMTFAC
 40
1.0
  9
$DIMGAP
 40
0.09
  9
$DIMJUST
 70
     0
  9
$DIMSD1
 70
     0
  9
$DIMSD2
 70
     0
  9
$DIMTOLJ
 70
     1
  9
$DIMTZIN
 70
     0
  9
$DIMALTZ
 70
     0
  9
$DIMALTTZ
 70
     0
  9
$DIMUPT
 70
     0
  9
$DIMDEC
 70
     4
  9
$DIMTDEC
 70
     4
  9
$DIMALTU
 70
     2
  9
$DIMALTTD
 70
     2
  9
$DIMTXSTY
  7
Standard
  9
$DIMAUNIT
 70
     0
  9
$DIMADEC
 70
     0
  9
$DIMALTRND
 40
0.0
  9
$DIMAZIN
 70
     0
  9
$DIMDSEP
 70
    46
  9
$DIMATFIT
 70
     3
  9
$DIMFRAC
 70
     0
  9
$DIMLDRBLK
  1

  9
$DIMLUNIT
 70
     2
  9
$DIMLWD
 70
    -2
  9
$DIMLWE
 70
    -2
  9
$DIMTMOVE
 70
     0
  9
$LUNITS
 70
     2
  9
$LUPREC
 70
     4
  9
$SKETCHINC
 40
0.1
  9
$FILLETRAD
 40
0.5
  9
$AUNITS
 70
     0
  9
$AUPREC
 70
     0
  9
$MENU
  1
.
  9
$ELEVATION
 40
0.0
  9
$PELEVATION
 40
0.0
  9
$THICKNESS
 40
0.0
  9
$LIMCHECK
 70
     0
  9
$CHAMFERA
 40
0.5
  9
$CHAMFERB
 40
0.5
  9
$CHAMFERC
 40
1.0
  9
$CHAMFERD
 40
0.0
  9
$SKPOLY
 70
     0
  9
$TDCREATE
 40
2455386.302265127
  9
$TDUCREATE
 40
2455386.218931794
  9
$TDUPDATE
 40
2455386.302265139
  9
$TDUUPDATE
 40
2455386.218931805
  9
$TDINDWG
 40
0.0000000116
  9
$TDUSRTIMER
 40
0.0000000116
  9
$USRTIMER
 70
     1
  9
$ANGBASE
 50
0.0
  9
$ANGDIR
 70
     0
  9
$PDMODE
 70
     0
  9
$PDSIZE
 40
0.0
  9
$PLINEWID
 40
0.0
  9
$SPLFRAME
 70
     0
  9
$SPLINETYPE
 70
     6
  9
$SPLINESEGS
 70
     8
  9
$HANDSEED
  5
238
  9
$SURFTAB1
 70
     6
  9
$SURFTAB2
 70
     6
  9
$SURFTYPE
 70
     6
  9
$SURFU
 70
     6
  9
$SURFV
 70
     6
  9
$UCSBASE
  2

  9
$UCSNAME
  2

  9
$UCSORG
 10
0.0
 20
0.0
 30
0.0
  9
$UCSXDIR
 10
1.0
 20
0.0
 30
0.0
  9
$UCSYDIR
 10
0.0
 20
1.0
 30
0.0
  9
$UCSORTHOREF
  2

  9
$UCSORTHOVIEW
 70
     0
  9
$UCSORGTOP
 10
0.0
 20
0.0
 30
0.0
  9
$UCSORGBOTTOM
 10
0.0
 20
0.0
 30
0.0
  9
$UCSORGLEFT
 10
0.0
 20
0.0
 30
0.0
  9
$UCSORGRIGHT
 10
0.0
 20
0.0
 30
0.0
  9
$UCSORGFRONT
 10
0.0
 20
0.0
 30
0.0
  9
$UCSORGBACK
 10
0.0
 20
0.0
 30
0.0
  9
$PUCSBASE
  2

  9
$PUCSNAME
  2

  9
$PUCSORG
 10
0.0
 20
0.0
 30
0.0
  9
$PUCSXDIR
 10
1.0
 20
0.0
 30
0.0
  9
$PUCSYDIR
 10
0.0
 20
1.0
 30
0.0
  9
$PUCSORTHOREF
  2

  9
$PUCSORTHOVIEW
 70
     0
  9
$PUCSORGTOP
 10
0.0
 20
0.0
 30
0.0
  9
$PUCSORGBOTTOM
 10
0.0
 20
0.0
 30
0.0
  9
$PUCSORGLEFT
 10
0.0
 20
0.0
 30
0.0
  9
$PUCSORGRIGHT
 10
0.0
 20
0.0
 30
0.0
  9
$PUCSORGFRONT
 10
0.0
 20
0.0
 30
0.0
  9
$PUCSORGBACK
 10
0.0
 20
0.0
 30
0.0
  9
$USERI1
 70
     0
  9
$USERI2
 70
     0
  9
$USERI3
 70
     0
  9
$USERI4
 70
     0
  9
$USERI5
 70
     0
  9
$USERR1
 40
16.5
  9
$USERR2
 40
0.0
  9
$USERR3
 40
0.0
  9
$USERR4
 40
0.0
  9
$USERR5
 40
0.0
  9
$WORLDVIEW
 70
     1
  9
$SHADEDGE
 70
     3
  9
$SHADEDIF
 70
    70
  9
$TILEMODE
 70
     1
  9
$MAXACTVP
 70
    64
  9
$PINSBASE
 10
0.0
 20
0.0
 30
0.0
  9
$PLIMCHECK
 70
     0
  9
$PEXTMIN
 10
1.00000000000000E+20
 20
1.00000000000000E+20
 30
1.00000000000000E+20
  9
$PEXTMAX
 10
-1.00000000000000E+20
 20
-1.00000000000000E+20
 30
-1.00000000000000E+20
  9
$PLIMMIN
 10
0.0
 20
0.0
  9
$PLIMMAX
 10
12.0
 20
9.0
  9
$UNITMODE
 70
     0
  9
$VISRETAIN
 70
     1
  9
$PLINEGEN
 70
     0
  9
$PSLTSCALE
 70
     1
  9
$TREEDEPTH
 70
  3020
  9
$CMLSTYLE
  2
Standard
  9
$CMLJUST
 70
     0
  9
$CMLSCALE
 40
1.0
  9
$PROXYGRAPHICS
 70
     1
  9
$MEASUREMENT
 70
     1
  9
$CELWEIGHT
370
    -1
  9
$ENDCAPS
280
     0
  9
$JOINSTYLE
280
     0
  9
$LWDISPLAY
290
     0
  9
$INSUNITS
 70
     1
  9
$HYPERLINKBASE
  1

  9
$STYLESHEET
  1

  9
$XEDIT
290
     1
  9
$CEPSNTYPE
380
     0
  9
$PSTYLEMODE
290
     1
  9
$FINGERPRINTGUID
  2
{01E400D1-BD77-419A-B450-020DB44ABC25}
  9
$VERSIONGUID
  2
{FAEB1C32-E019-11D5-929B-00C0DF256EC4}
  9
$EXTNAMES
290
     1
  9
$PSVPSCALE
 40
0.0
  9
$OLESTARTUP
290
     0
  0
ENDSEC
  0
SECTION
  2
CLASSES
  0
CLASS
  1
ACDBDICTIONARYWDFLT
  2
AcDbDictionaryWithDefault
  3
ObjectDBX Classes
 90
        0
280
     0
281
     0
  0
CLASS
  1
VISUALSTYLE
  2
AcDbVisualStyle
  3
ObjectDBX Classes
 90
     4095
280
     0
281
     0
  0
CLASS
  1
SCALE
  2
AcDbScale
  3
ObjectDBX Classes
 90
     1153
280
     0
281
     0
  0
CLASS
  1

  2
exOdDbPolyline
  3

 90
        0
280
     0
281
     1
  0
CLASS
  1

  2
exOdDbSpline
  3

 90
        0
280
     0
281
     1
  0
CLASS
  1
DICTIONARYVAR
  2
AcDbDictionaryVar
  3
ObjectDBX Classes
 90
        0
280
     0
281
     0
  0
CLASS
  1
ACDBPLACEHOLDER
  2
AcDbPlaceHolder
  3
ObjectDBX Classes
 90
        0
280
     0
281
     0
  0
CLASS
  1
LAYOUT
  2
AcDbLayout
  3
ObjectDBX Classes
 90
        0
280
     0
281
     0
  0
ENDSEC
  0
SECTION
  2
TABLES
  0
TABLE
  2
VPORT
  5
8
330
0
100
AcDbSymbolTable
 70
     1
  0
VPORT
  5
29
330
8
100
AcDbSymbolTableRecord
100
AcDbViewportTableRecord
  2
*Active
 70
     0
 10
0.0
 20
0.0
 11
1.0
 21
1.0
 12
436.8841979575141
 22
118.6469585756019
 13
0.0
 23
0.0
 14
0.5
 24
0.5
 15
0.5
 25
0.5
 16
0.0
 26
0.0
 36
1.0
 17
0.0
 27
0.0
 37
0.0
 40
331.2145416529029
 41
1.60267857142857
 42
50.0
 43
0.0
 44
0.0
 50
0.0
 51
0.0
 71
     0
 72
   100
 73
     1
 74
     3
 75
     0
 76
     0
 77
     0
 78
     0
281
     0
 65
     1
110
0.0
120
0.0
130
0.0
111
1.0
121
0.0
131
0.0
112
0.0
122
1.0
132
0.0
 79
     0
146
0.0
  0
ENDTAB
  0
TABLE
  2
LTYPE
  5
5
330
0
100
AcDbSymbolTable
 70
     9
  0
LTYPE
  5
14
330
5
100
AcDbSymbolTableRecord
100
AcDbLinetypeTableRecord
  2
ByBlock
 70
     0
  3

 72
    65
 73
     0
 40
0.0
  0
LTYPE
  5
15
330
5
100
AcDbSymbolTableRecord
100
AcDbLinetypeTableRecord
  2
ByLayer
 70
     0
  3

 72
    65
 73
     0
 40
0.0
  0
LTYPE
  5
16
330
5
100
AcDbSymbolTableRecord
100
AcDbLinetypeTableRecord
  2
Continuous
 70
     0
  3
Solid line
 72
    65
 73
     0
 40
0.0
  0
LTYPE
  5
3B
330
5
100
AcDbSymbolTableRecord
100
AcDbLinetypeTableRecord
  2
DASHED
 70
     0
  3
Dashed
 72
    65
 73
     2
 40
15.0
 49
7.0
 74
     0
 49
-8.0
 74
     0
  0
LTYPE
  5
3C
330
5
100
AcDbSymbolTableRecord
100
AcDbLinetypeTableRecord
  2
DOTTED
 70
     0
  3
Dotted
 72
    65
 73
     2
 40
1.0
 49
0.0
 74
     0
 49
-1.0
 74
     0
  0
LTYPE
  5
3D
330
5
100
AcDbSymbolTableRecord
100
AcDbLinetypeTableRecord
  2
DOT_CENTER
 70
     0
  3
Dot_Center
 72
    65
 73
     4
 40
14.0
 49
12.0
 74
     0
 49
-1.0
 74
     0
 49
0.0
 74
     0
 49
-1.0
 74
     0
  0
LTYPE
  5
3E
330
5
100
AcDbSymbolTableRecord
100
AcDbLinetypeTableRecord
  2
LONG_DASHED
 70
     0
  3
Long_Dashed
 72
    65
 73
     2
 40
15.0
 49
10.0
 74
     0
 49
-5.0
 74
     0
  0
LTYPE
  5
3F
330
5
100
AcDbSymbolTableRecord
100
AcDbLinetypeTableRecord
  2
DASH_CENTER
 70
     0
  3
Dash_Center
 72
    65
 73
     4
 40
14.0
 49
11.0
 74
     0
 49
-1.0
 74
     0
 49
1.0
 74
     0
 49
-1.0
 74
     0
  0
LTYPE
  5
40
330
5
100
AcDbSymbolTableRecord
100
AcDbLinetypeTableRecord
  2
PHANTOM
 70
     0
  3
Phantom
 72
    65
 73
     6
 40
13.0
 49
10.0
 74
     0
 49
-1.0
 74
     0
 49
0.0
 74
     0
 49
-1.0
 74
     0
 49
0.0
 74
     0
 49
-1.0
 74
     0
  0
LTYPE
  5
41
330
5
100
AcDbSymbolTableRecord
100
AcDbLinetypeTableRecord
  2
CENTER_DASH_DASH
 70
     0
  3
Center_Dash_Dash
 72
    65
 73
     6
 40
14.0
 49
9.0
 74
     0
 49
-1.0
 74
     0
 49
1.0
 74
     0
 49
-1.0
 74
     0
 49
1.0
 74
     0
 49
-1.0
 74
     0
  0
LTYPE
  5
42
330
5
100
AcDbSymbolTableRecord
100
AcDbLinetypeTableRecord
  2
CENTERX2
 70
     0
  3
CENTERX2
 72
    65
 73
     4
 40
22.0
 49
13.0
 74
     0
 49
-3.0
 74
     0
 49
3.0
 74
     0
 49
-3.0
 74
     0
  0
ENDTAB
  0
TABLE
  2
LAYER
  5
2
330
0
100
AcDbSymbolTable
 70
     2
  0
LAYER
  5
10
330
2
100
AcDbSymbolTableRecord
100
AcDbLayerTableRecord
  2
0
 70
     0
 62
     7
  6
Continuous
370
    -3
390
F
  0
LAYER
  5
43
330
2
100
AcDbSymbolTableRecord
100
AcDbLayerTableRecord
  2
1
 70
     0
 62
     7
  6
Continuous
370
    -3
390
F
  0
ENDTAB
  0
TABLE
  2
STYLE
  5
3
330
0
100
AcDbSymbolTable
 70
     2
  0
STYLE
  5
11
330
3
100
AcDbSymbolTableRecord
100
AcDbTextStyleTableRecord
  2
Standard
 70
     0
 40
0.0
 41
1.0
 50
0.0
 71
     0
 42
0.2
  3
txt
  4

  0
STYLE
  5
20F
330
3
100
AcDbSymbolTableRecord
100
AcDbTextStyleTableRecord
  2
CONVERTER_11
 70
     0
 40
0.0
 41
0.9
 50
0.0
 71
     0
 42
0.2
  3
txt.shx
  4

  0
ENDTAB
  0
TABLE
  2
VIEW
  5
6
330
0
100
AcDbSymbolTable
 70
     0
  0
ENDTAB
  0
TABLE
  2
UCS
  5
7
330
0
100
AcDbSymbolTable
 70
     0
  0
ENDTAB
  0
TABLE
  2
APPID
  5
9
330
0
100
AcDbSymbolTable
 70
     1
  0
APPID
  5
12
330
9
100
AcDbSymbolTableRecord
100
AcDbRegAppTableRecord
  2
ACAD
 70
     0
  0
ENDTAB
  0
TABLE
  2
DIMSTYLE
  5
A
330
0
100
AcDbSymbolTable
 70
     4
100
AcDbDimStyleTable
  0
DIMSTYLE
105
27
330
A
100
AcDbSymbolTableRecord
100
AcDbDimStyleTableRecord
  2
Standard
 70
     0
340
11
  0
DIMSTYLE
105
213
102
{ACAD_REACTORS
330
214
102
}
330
A
100
AcDbSymbolTableRecord
100
AcDbDimStyleTableRecord
  2
ME10_DIM_10
 70
     0
 41
10.0
 42
0.0
 44
2.0
 73
     0
 74
     0
 77
     1
 78
     8
140
10.0
147
2.0
172
     1
173
     1
176
     4
177
     4
178
     1
271
     2
340
20F
  0
DIMSTYLE
105
21E
102
{ACAD_REACTORS
330
21F
102
}
330
A
100
AcDbSymbolTableRecord
100
AcDbDimStyleTableRecord
  2
ME10_DIM_11
 70
     0
  3
DN<>
 41
10.0
 42
0.0
 44
2.0
 73
     0
 74
     0
 77
     1
 78
     8
140
10.0
147
2.0
172
     1
173
     1
176
     4
177
     4
178
     1
271
     0
340
20F
  0
DIMSTYLE
105
229
102
{ACAD_REACTORS
330
22A
102
}
330
A
100
AcDbSymbolTableRecord
100
AcDbDimStyleTableRecord
  2
ME10_DIM_12
 70
     0
  3
Ø<>
 41
10.0
 42
0.0
 44
2.0
 73
     0
 74
     0
 77
     1
 78
     8
140
10.0
147
2.0
172
     1
173
     1
176
     4
177
     4
178
     1
271
     2
340
20F
  0
ENDTAB
  0
TABLE
  2
BLOCK_RECORD
  5
1
330
0
100
AcDbSymbolTable
 70
     6
  0
BLOCK_RECORD
  5
1F
330
1
100
AcDbSymbolTableRecord
100
AcDbBlockTableRecord
  2
*Model_Space
340
22
  0
BLOCK_RECORD
  5
1B
330
1
100
AcDbSymbolTableRecord
100
AcDbBlockTableRecord
  2
*Paper_Space
340
1E
  0
BLOCK_RECORD
  5
23
330
1
100
AcDbSymbolTableRecord
100
AcDbBlockTableRecord
  2
*Paper_Space0
340
26
  0
BLOCK_RECORD
  5
44
330
1
100
AcDbSymbolTableRecord
100
AcDbBlockTableRecord
  2
HL62P_5
340
0
102
{BLKREFS
331
6A
102
}
  0
BLOCK_RECORD
  5
47
330
1
100
AcDbSymbolTableRecord
100
AcDbBlockTableRecord
  2
HL_62P_5_DN160_Dachablauf
340
0
102
{BLKREFS
331
6D
102
}
  0
BLOCK_RECORD
  5
209
330
1
100
AcDbSymbolTableRecord
100
AcDbBlockTableRecord
  2
*D3
340
0
  0
BLOCK_RECORD
  5
215
330
1
100
AcDbSymbolTableRecord
100
AcDbBlockTableRecord
  2
*D4
340
0
  0
BLOCK_RECORD
  5
220
330
1
100
AcDbSymbolTableRecord
100
AcDbBlockTableRecord
  2
*D5
340
0
  0
ENDTAB
  0
ENDSEC
  0
SECTION
  2
BLOCKS
  0
BLOCK
  5
20
330
1F
100
AcDbEntity
  8
0
100
AcDbBlockBegin
  2
*Model_Space
 70
     0
 10
0.0
 20
0.0
 30
0.0
  3
*Model_Space
  1

  0
ENDBLK
  5
21
330
1F
100
AcDbEntity
  8
0
100
AcDbBlockEnd
  0
BLOCK
  5
1C
330
1B
100
AcDbEntity
 67
     1
  8
0
100
AcDbBlockBegin
  2
*Paper_Space
 70
     0
 10
0.0
 20
0.0
 30
0.0
  3
*Paper_Space
  1

  0
ENDBLK
  5
1D
330
1B
100
AcDbEntity
 67
     1
  8
0
100
AcDbBlockEnd
  0
BLOCK
  5
24
330
23
100
AcDbEntity
  8
0
100
AcDbBlockBegin
  2
*Paper_Space0
 70
     0
 10
0.0
 20
0.0
 30
0.0
  3
*Paper_Space0
  1

  0
ENDBLK
  5
25
330
23
100
AcDbEntity
  8
0
100
AcDbBlockEnd
  0
BLOCK
  5
45
330
44
100
AcDbEntity
  8
0
100
AcDbBlockBegin
  2
HL62P_5
 70
     0
 10
436.8841979575141
 20
118.6469585756019
 30
0.0
  3
HL62P_5
  1

  0
POINT
  5
6E
330
44
100
AcDbEntity
  8
0
 62
     7
100
AcDbPoint
 10
269.859180564335
 20
156.500341092
 30
0.0
  0
POINT
  5
6F
330
44
100
AcDbEntity
  8
0
 62
     7
100
AcDbPoint
 10
629.859180564335
 20
156.500341092
 30
0.0
  0
POINT
  5
70
330
44
100
AcDbEntity
  8
0
 62
     7
100
AcDbPoint
 10
370.109183561935
 20
159.9999202054
 30
0.0
  0
POINT
  5
71
330
44
100
AcDbEntity
  8
0
 62
     7
100
AcDbPoint
 10
401.410598660635
 20
234.9999262054
 30
0.0
  0
POINT
  5
72
330
44
100
AcDbEntity
  8
0
 62
     7
100
AcDbPoint
 10
529.959180564335
 20
5.00000009199999
 30
0.0
  0
POINT
  5
73
330
44
100
AcDbEntity
  8
0
 62
     7
100
AcDbPoint
 10
369.759180564335
 20
5.00000009199999
 30
0.0
  0
POINT
  5
74
330
44
100
AcDbEntity
  8
0
 62
     7
100
AcDbPoint
 10
371.098926526535
 20
0.00000009199999
 30
0.0
  0
POINT
  5
75
330
44
100
AcDbEntity
  8
0
 62
     7
100
AcDbPoint
 10
287.859180564335
 20
159.9999202054
 30
0.0
  0
LWPOLYLINE
  5
76
330
44
100
AcDbEntity
  8
0
  6
Continuous
 62
     7
100
AcDbPolyline
 90
        2
 70
     0
 43
0.15
 10
472.052343844335
 20
235.0999228656
 10
472.052343844335
 20
235.0999228656
  0
LINE
  5
77
330
44
100
AcDbEntity
  8
0
  6
CENTERX2
 62
     7
100
AcDbLine
 10
449.859180564335
 20
3.00000009199999
 30
0.0
 11
449.859180564335
 21
236.6271277394
 31
0.0
  0
LWPOLYLINE
  5
78
330
44
100
AcDbEntity
  8
0
  6
Continuous
 62
     7
100
AcDbPolyline
 90
        2
 70
     0
 43
0.15
 10
373.841098233035
 20
158.9999236165999
 10
371.109186394935
 20
158.9999236165999
  0
LWPOLYLINE
  5
79
330
44
100
AcDbEntity
  8
0
  6
Continuous
 62
     7
100
AcDbPolyline
 90
        2
 70
     0
 43
0.15
 10
528.609177752335
 20
158.9999236165999
 10
525.877258463635
 20
158.9999236165999
  0
LWPOLYLINE
  5
7A
330
44
100
AcDbEntity
  8
0
  6
Continuous
 62
     7
100
AcDbPolyline
 90
        2
 70
     0
 43
0.15
 10
519.871755226435
 20
151.2999199331
 10
519.505149408135
 20
151.2999199331
  0
LWPOLYLINE
  5
7B
330
44
100
AcDbEntity
  8
0
  6
Continuous
 62
     7
100
AcDbPolyline
 90
        2
 70
     0
 43
0.15
 10
380.213237090835
 20
151.2999199331
 10
379.846623822035
 20
151.2999199331
  0
LWPOLYLINE
  5
7C
330
44
100
AcDbEntity
  8
0
  6
Continuous
 62
     7
100
AcDbPolyline
 90
        2
 70
     0
 43
0.15
 10
627.859181447835
 20
159.9999181926
 10
619.859180136535
 20
159.9999181926
  0
LWPOLYLINE
  5
7D
330
44
100
AcDbEntity
  8
0
  6
Continuous
 62
     7
100
AcDbPolyline
 90
        2
 70
     0
 43
0.15
 10
617.859176083335
 20
156.5003432333
 10
629.859185500935
 20
156.5003432333
  0
LWPOLYLINE
  5
7E
330
44
100
AcDbEntity
  8
0
  6
Continuous
 62
     7
100
AcDbPolyline
 90
        2
 70
     0
 43
0.15
 10
522.759183033235
 20
121.7019446194
 10
526.459178610635
 20
121.7019446194
  0
LWPOLYLINE
  5
7F
330
44
100
AcDbEntity
  8
0
  6
Continuous
 62
     7
100
AcDbPolyline
 90
        2
 70
     0
 43
0.15
 10
516.859180017235
 20
112.5000007450001
 10
520.259177966835
 20
112.5000007450001
  0
LWPOLYLINE
  5
80
330
44
100
AcDbEntity
  8
0
  6
Continuous
 62
     7
100
AcDbPolyline
 90
        2
 70
     0
 43
0.15
 10
611.859178825135
 20
159.9999181926
 10
529.609179778835
 20
159.9999181926
  0
LWPOLYLINE
  5
81
330
44
100
AcDbEntity
  8
0
  6
Continuous
 62
     7
100
AcDbPolyline
 90
        2
 70
     0
 43
0.15
 10
527.109182163035
 20
0.0
 10
528.619437201735
 20
0.0
  0
LWPOLYLINE
  5
82
330
44
100
AcDbEntity
  8
0
  6
Continuous
 62
     7
100
AcDbPolyline
 90
        2
 70
     0
 43
0.15
 10
513.359180374935
 20
73.00000265239998
 10
516.859180017235
 20
73.00000265239998
  0
LWPOLYLINE
  5
83
330
44
100
AcDbEntity
  8
0
  6
Continuous
 62
     7
100
AcDbPolyline
 90
        2
 70
     0
 43
0.15
 10
518.259181364335
 20
116.0000003874
 10
514.359182401435
 20
116.0000003874
  0
LWPOLYLINE
  5
84
330
44
100
AcDbEntity
  8
0
  6
Continuous
 62
     7
100
AcDbPolyline
 90
        2
 70
     0
 43
0.15
 10
526.859177931135
 20
125.2014897764001
 10
520.259177966835
 20
125.2014897764001
  0
LWPOLYLINE
  5
85
330
44
100
AcDbEntity
  8
0
  6
Continuous
 62
     7
100
AcDbPolyline
 90
        2
 70
     0
 43
0.15
 10
532.109177394635
 20
156.5003432333
 10
613.859182878335
 20
156.5003432333
  0
LWPOLYLINE
  5
86
330
44
100
AcDbEntity
  8
0
  6
Continuous
 62
     7
100
AcDbPolyline
 90
        2
 70
     0
 43
0.15
 10
279.859176560235
 20
159.9999181926
 10
271.859175248935
 20
159.9999181926
  0
LWPOLYLINE
  5
87
330
44
100
AcDbEntity
  8
0
  6
Continuous
 62
     7
100
AcDbPolyline
 90
        2
 70
     0
 43
0.15
 10
269.859186096935
 20
156.5003432333
 10
281.859180613335
 20
156.5003432333
  0
LWPOLYLINE
  5
88
330
44
100
AcDbEntity
  8
0
  6
Continuous
 62
     7
100
AcDbPolyline
 90
        2
 70
     0
 43
0.15
 10
516.859180017235
 20
73.00000265239998
 10
516.859180017235
 20
112.5000007450001
  0
LWPOLYLINE
  5
89
330
44
100
AcDbEntity
  8
0
  6
Continuous
 62
     7
100
AcDbPolyline
 90
        2
 70
     0
 43
0.15
 10
532.109162493535
 20
142.4000002444001
 10
532.109177394635
 20
156.5003432333
  0
LWPOLYLINE
  5
8A
330
44
100
AcDbEntity
  8
0
  6
Continuous
 62
     7
100
AcDbPolyline
 90
        2
 70
     0
 43
0.15
 10
528.609177752335
 20
158.9999236165999
 10
528.609133048835
 20
143.3018334209999
  0
LWPOLYLINE
  5
8B
330
44
100
AcDbEntity
  8
0
  6
Continuous
 62
     7
100
AcDbPolyline
 90
        2
 70
     0
 43
0.15
 10
524.609266503635
 20
136.4000029862
 10
524.609266503635
 20
135.5000026524
  0
LWPOLYLINE
  5
8C
330
44
100
AcDbEntity
  8
0
  6
Continuous
 62
     7
100
AcDbPolyline
 90
        2
 70
     0
 43
0.15
 10
524.609266503635
 20
135.5000026524
 10
525.359182341835
 20
135.0569166243
  0
LWPOLYLINE
  5
8D
330
44
100
AcDbEntity
  8
0
  6
Continuous
 62
     7
100
AcDbPolyline
 90
        2
 70
     0
 43
0.15
 10
375.959179087435
 20
135.5000026524
 10
375.1090901930349
 20
135.5000026524
  0
LWPOLYLINE
  5
8E
330
44
100
AcDbEntity
  8
0
  6
Continuous
 62
     7
100
AcDbPolyline
 90
        2
 70
     0
 43
0.15
 10
438.059198393435
 20
135.5000026524
 10
379.846623822035
 20
135.5000026524
  0
LWPOLYLINE
  5
8F
330
44
100
AcDbEntity
  8
0
  6
Continuous
 62
     7
100
AcDbPolyline
 90
        2
 70
     0
 43
0.15
 10
519.871755226435
 20
135.5000026524
 10
461.659277512635
 20
135.5000026524
  0
LWPOLYLINE
  5
90
330
44
100
AcDbEntity
  8
0
  6
Continuous
 62
     7
100
AcDbPolyline
 90
        2
 70
     0
 43
0.15
 10
524.609266503635
 20
135.5000026524
 10
523.7591776092349
 20
135.5000026524
  0
LWPOLYLINE
  5
91
330
44
100
AcDbEntity
  8
0
  6
Continuous
 62
     7
100
AcDbPolyline
 90
        2
 70
     0
 43
0.15
 10
525.359182341835
 20
135.0569166243
 10
525.359182341835
 20
130.7999975979001
  0
LWPOLYLINE
  5
92
330
44
100
AcDbEntity
  8
0
  6
Continuous
 62
     7
100
AcDbPolyline
 90
        2
 70
     0
 43
0.15
 10
375.959179087435
 20
135.0569166243
 10
374.359181805435
 20
135.0569166243
  0
LWPOLYLINE
  5
93
330
44
100
AcDbEntity
  8
0
  6
Continuous
 62
     7
100
AcDbPolyline
 90
        2
 70
     0
 43
0.15
 10
438.059198393435
 20
135.0569166243
 10
379.846623822035
 20
135.0569166243
  0
LWPOLYLINE
  5
94
330
44
100
AcDbEntity
  8
0
  6
Continuous
 62
     7
100
AcDbPolyline
 90
        2
 70
     0
 43
0.15
 10
519.871755226435
 20
135.0569166243
 10
461.659277512635
 20
135.0569166243
  0
LWPOLYLINE
  5
95
330
44
100
AcDbEntity
  8
0
  6
Continuous
 62
     7
100
AcDbPolyline
 90
        2
 70
     0
 43
0.15
 10
525.359182341835
 20
135.0569166243
 10
523.7591776092349
 20
135.0569166243
  0
LWPOLYLINE
  5
96
330
44
100
AcDbEntity
  8
0
  6
Continuous
 62
     7
100
AcDbPolyline
 90
        2
 70
     0
 43
0.15
 10
525.359182341835
 20
130.7999975979001
 10
526.859177931135
 20
129.8000030219
  0
LWPOLYLINE
  5
97
330
44
100
AcDbEntity
  8
0
  6
Continuous
 62
     7
100
AcDbPolyline
 90
        2
 70
     0
 43
0.15
 10
525.359182341835
 20
130.7999975979001
 10
374.359181805435
 20
130.7999975979001
  0
LWPOLYLINE
  5
98
330
44
100
AcDbEntity
  8
0
  6
Continuous
 62
     7
100
AcDbPolyline
 90
        2
 70
     0
 43
0.15
 10
519.2591833909349
 20
124.2014877498
 10
519.2591833909349
 20
117.000002414
  0
LWPOLYLINE
  5
99
330
44
100
AcDbEntity
  8
0
  6
Continuous
 62
     7
100
AcDbPolyline
 90
        2
 70
     0
 43
0.15
 10
279.859176560235
 20
159.9999181926
 10
287.859177871535
 20
159.9999181926
  0
LWPOLYLINE
  5
9A
330
44
100
AcDbEntity
  8
0
  6
Continuous
 62
     7
100
AcDbPolyline
 90
        2
 70
     0
 43
0.15
 10
281.859180613335
 20
157.9999215901
 10
279.859176560235
 20
159.9999181926
  0
LWPOLYLINE
  5
9B
330
44
100
AcDbEntity
  8
0
  6
Continuous
 62
     7
100
AcDbPolyline
 90
        2
 70
     0
 43
0.15
 10
519.2591833909349
 20
124.2014877498
 10
380.4591807563349
 20
124.2014877498
  0
LWPOLYLINE
  5
9C
330
44
100
AcDbEntity
  8
0
  6
Continuous
 62
     7
100
AcDbPolyline
 90
        2
 70
     0
 43
0.15
 10
373.259178086135
 20
121.7019446194
 10
376.959181114035
 20
121.7019446194
  0
LWPOLYLINE
  5
9D
330
44
100
AcDbEntity
  8
0
  6
Continuous
 62
     7
100
AcDbPolyline
 90
        2
 70
     0
 43
0.15
 10
379.459178729835
 20
112.5000007450001
 10
382.859184130035
 20
112.5000007450001
  0
LWPOLYLINE
  5
9E
330
44
100
AcDbEntity
  8
0
  6
Continuous
 62
     7
100
AcDbPolyline
 90
        2
 70
     0
 43
0.15
 10
370.109184368435
 20
159.9999181926
 10
287.859177871535
 20
159.9999181926
  0
LWPOLYLINE
  5
9F
330
44
100
AcDbEntity
  8
0
  6
Continuous
 62
     7
100
AcDbPolyline
 90
        2
 70
     0
 43
0.15
 10
371.098926945535
 20
0.0
 10
372.609181984235
 20
0.0
  0
LWPOLYLINE
  5
A0
330
44
100
AcDbEntity
  8
0
  6
Continuous
 62
     7
100
AcDbPolyline
 90
        2
 70
     0
 43
0.15
 10
382.859184130035
 20
112.5000007450001
 10
382.859184130035
 20
73.00000265239998
  0
LWPOLYLINE
  5
A1
330
44
100
AcDbEntity
  8
0
  6
Continuous
 62
     7
100
AcDbPolyline
 90
        2
 70
     0
 43
0.15
 10
382.859184130035
 20
73.00000265239998
 10
386.359180047035
 20
73.00000265239998
  0
LWPOLYLINE
  5
A2
330
44
100
AcDbEntity
  8
0
  6
Continuous
 62
     7
100
AcDbPolyline
 90
        2
 70
     0
 43
0.15
 10
385.359181745835
 20
116.0000003874
 10
381.459182782935
 20
116.0000003874
  0
LWPOLYLINE
  5
A3
330
44
100
AcDbEntity
  8
0
  6
Continuous
 62
     7
100
AcDbPolyline
 90
        2
 70
     0
 43
0.15
 10
380.4591807563349
 20
117.000002414
 10
380.4591807563349
 20
124.2014877498
  0
LWPOLYLINE
  5
A4
330
44
100
AcDbEntity
  8
0
  6
Continuous
 62
     7
100
AcDbPolyline
 90
        2
 70
     0
 43
0.15
 10
379.459178729835
 20
125.2014897764001
 10
372.859178765535
 20
125.2014897764001
  0
LWPOLYLINE
  5
A5
330
44
100
AcDbEntity
  8
0
  6
Continuous
 62
     7
100
AcDbPolyline
 90
        2
 70
     0
 43
0.15
 10
372.859178765535
 20
129.8000030219
 10
374.359181805435
 20
130.7999975979001
  0
LWPOLYLINE
  5
A6
330
44
100
AcDbEntity
  8
0
  6
Continuous
 62
     7
100
AcDbPolyline
 90
        2
 70
     0
 43
0.15
 10
374.359181805435
 20
130.7999975979001
 10
374.359181805435
 20
135.0569166243
  0
LWPOLYLINE
  5
A7
330
44
100
AcDbEntity
  8
0
  6
Continuous
 62
     7
100
AcDbPolyline
 90
        2
 70
     0
 43
0.15
 10
374.359181805435
 20
135.0569166243
 10
375.1090901930349
 20
135.5000026524
  0
LWPOLYLINE
  5
A8
330
44
100
AcDbEntity
  8
0
  6
Continuous
 62
     7
100
AcDbPolyline
 90
        2
 70
     0
 43
0.15
 10
375.1090901930349
 20
135.5000026524
 10
375.1090901930349
 20
136.4000029862
  0
LWPOLYLINE
  5
A9
330
44
100
AcDbEntity
  8
0
  6
Continuous
 62
     7
100
AcDbPolyline
 90
        2
 70
     0
 43
0.15
 10
371.109231098435
 20
143.3018334209999
 10
371.109186394935
 20
158.9999236165999
  0
LWPOLYLINE
  5
AA
330
44
100
AcDbEntity
  8
0
  6
Continuous
 62
     7
100
AcDbPolyline
 90
        2
 70
     0
 43
0.15
 10
287.859177871535
 20
159.9999181926
 10
285.859173818435
 20
157.9999215901
  0
LWPOLYLINE
  5
AB
330
44
100
AcDbEntity
  8
0
  6
Continuous
 62
     7
100
AcDbPolyline
 90
        2
 70
     0
 43
0.15
 10
285.859173818435
 20
156.5003432333
 10
367.609179302035
 20
156.5003432333
  0
LWPOLYLINE
  5
AC
330
44
100
AcDbEntity
  8
0
  6
Continuous
 62
     7
100
AcDbPolyline
 90
        2
 70
     0
 43
0.15
 10
367.609179302035
 20
156.5003432333
 10
367.609201653735
 20
142.4000002444001
  0
LWPOLYLINE
  5
AD
330
44
100
AcDbEntity
  8
0
  6
Continuous
 62
     7
100
AcDbPolyline
 90
        2
 70
     0
 43
0.15
 10
369.759178443735
 20
138.6000029742999
 10
369.759178443735
 20
4.99999895689999
  0
LWPOLYLINE
  5
AE
330
44
100
AcDbEntity
  8
0
  6
Continuous
 62
     7
100
AcDbPolyline
 90
        2
 70
     0
 43
0.15
 10
529.959178252935
 20
4.99999895689999
 10
529.959178252935
 20
138.6000029742999
  0
LWPOLYLINE
  5
AF
330
44
100
AcDbEntity
  8
0
  6
Continuous
 62
     7
100
AcDbPolyline
 90
        2
 70
     0
 43
0.15
 10
269.859186096935
 20
157.9999215901
 10
269.859186096935
 20
156.5003432333
  0
LWPOLYLINE
  5
B0
330
44
100
AcDbEntity
  8
0
  6
Continuous
 62
     7
100
AcDbPolyline
 90
        2
 70
     0
 43
0.15
 10
629.859185500935
 20
156.5003432333
 10
629.859185500935
 20
157.9999215901
  0
LWPOLYLINE
  5
B1
330
44
100
AcDbEntity
  8
0
  6
Continuous
 62
     7
100
AcDbPolyline
 90
        2
 70
     0
 43
0.15
 10
372.859178765535
 20
125.2014897764001
 10
372.859178765535
 20
129.8000030219
  0
LWPOLYLINE
  5
B2
330
44
100
AcDbEntity
  8
0
  6
Continuous
 62
     7
100
AcDbPolyline
 90
        2
 70
     0
 43
0.15
 10
526.859177931135
 20
129.8000030219
 10
526.859177931135
 20
125.2014897764001
  0
LWPOLYLINE
  5
B3
330
44
100
AcDbEntity
  8
0
  6
Continuous
 62
     7
100
AcDbPolyline
 90
        2
 70
     0
 43
0.15
 10
526.859177931135
 20
129.8000030219
 10
372.859178765535
 20
129.8000030219
  0
LWPOLYLINE
  5
B4
330
44
100
AcDbEntity
  8
0
  6
Continuous
 62
     7
100
AcDbPolyline
 90
        2
 70
     0
 43
0.15
 10
386.359180047035
 20
73.00000265239998
 10
386.359180047035
 20
114.9999983609
  0
LWPOLYLINE
  5
B5
330
44
100
AcDbEntity
  8
0
  6
Continuous
 62
     7
100
AcDbPolyline
 90
        2
 70
     0
 43
0.15
 10
513.359180374935
 20
114.9999983609
 10
513.359180374935
 20
73.00000265239998
  0
LWPOLYLINE
  5
B6
330
44
100
AcDbEntity
  8
0
  6
Continuous
 62
     7
100
AcDbPolyline
 90
        2
 70
     0
 43
0.15
 10
375.1090901930349
 20
136.4000029862
 10
371.109231098435
 20
143.3018334209999
  0
LWPOLYLINE
  5
B7
330
44
100
AcDbEntity
  8
0
  6
Continuous
 62
     7
100
AcDbPolyline
 90
        2
 70
     0
 43
0.15
 10
375.959179087435
 20
136.4000029862
 10
375.1090901930349
 20
136.4000029862
  0
LWPOLYLINE
  5
B8
330
44
100
AcDbEntity
  8
0
  6
Continuous
 62
     7
100
AcDbPolyline
 90
        2
 70
     0
 43
0.15
 10
438.059198393435
 20
136.4000029862
 10
379.846623822035
 20
136.4000029862
  0
LWPOLYLINE
  5
B9
330
44
100
AcDbEntity
  8
0
  6
Continuous
 62
     7
100
AcDbPolyline
 90
        2
 70
     0
 43
0.15
 10
519.871755226435
 20
136.4000029862
 10
461.659277512635
 20
136.4000029862
  0
LWPOLYLINE
  5
BA
330
44
100
AcDbEntity
  8
0
  6
Continuous
 62
     7
100
AcDbPolyline
 90
        2
 70
     0
 43
0.15
 10
524.609266503635
 20
136.4000029862
 10
523.7591776092349
 20
136.4000029862
  0
LWPOLYLINE
  5
BB
330
44
100
AcDbEntity
  8
0
  6
Continuous
 62
     7
100
AcDbPolyline
 90
        2
 70
     0
 43
0.15
 10
528.609133048835
 20
143.3018334209999
 10
524.609266503635
 20
136.4000029862
  0
LWPOLYLINE
  5
BC
330
44
100
AcDbEntity
  8
0
  6
Continuous
 62
     7
100
AcDbPolyline
 90
        2
 70
     0
 43
0.15
 10
373.841098233035
 20
143.3018334209999
 10
371.109231098435
 20
143.3018334209999
  0
LWPOLYLINE
  5
BD
330
44
100
AcDbEntity
  8
0
  6
Continuous
 62
     7
100
AcDbPolyline
 90
        2
 70
     0
 43
0.15
 10
438.059198393435
 20
143.3018334209999
 10
436.059198065535
 20
143.3018334209999
  0
LWPOLYLINE
  5
BE
330
44
100
AcDbEntity
  8
0
  6
Continuous
 62
     7
100
AcDbPolyline
 90
        2
 70
     0
 43
0.15
 10
463.659277840435
 20
143.3018334209999
 10
461.659277512635
 20
143.3018334209999
  0
LWPOLYLINE
  5
BF
330
44
100
AcDbEntity
  8
0
  6
Continuous
 62
     7
100
AcDbPolyline
 90
        2
 70
     0
 43
0.15
 10
528.609133048835
 20
143.3018334209999
 10
525.877258463635
 20
143.3018334209999
  0
LWPOLYLINE
  5
C0
330
44
100
AcDbEntity
  8
0
  6
Continuous
 62
     7
100
AcDbPolyline
 90
        2
 70
     0
 43
0.15
 10
613.859182878335
 20
157.9999215901
 10
611.859178825135
 20
159.9999181926
  0
LWPOLYLINE
  5
C1
330
44
100
AcDbEntity
  8
0
  6
Continuous
 62
     7
100
AcDbPolyline
 90
        2
 70
     0
 43
0.15
 10
619.859180136535
 20
159.9999181926
 10
617.859176083335
 20
157.9999215901
  0
LWPOLYLINE
  5
C2
330
44
100
AcDbEntity
  8
0
  6
Continuous
 62
     7
100
AcDbPolyline
 90
        2
 70
     0
 43
0.15
 10
611.859178825135
 20
159.9999181926
 10
619.859180136535
 20
159.9999181926
  0
LWPOLYLINE
  5
C3
330
44
100
AcDbEntity
  8
0
  6
Continuous
 62
     7
100
AcDbPolyline
 90
        2
 70
     0
 43
0.15
 10
613.859182878335
 20
156.5003432333
 10
617.859176083335
 20
156.5003432333
  0
LWPOLYLINE
  5
C4
330
44
100
AcDbEntity
  8
0
  6
Continuous
 62
     7
100
AcDbPolyline
 90
        2
 70
     0
 43
0.15
 10
617.859176083335
 20
156.5003432333
 10
617.859176083335
 20
157.9999215901
  0
LWPOLYLINE
  5
C5
330
44
100
AcDbEntity
  8
0
  6
Continuous
 62
     7
100
AcDbPolyline
 90
        2
 70
     0
 43
0.15
 10
617.859176083335
 20
157.9999215901
 10
613.859182878335
 20
157.9999215901
  0
LWPOLYLINE
  5
C6
330
44
100
AcDbEntity
  8
0
  6
Continuous
 62
     7
100
AcDbPolyline
 90
        2
 70
     0
 43
0.15
 10
613.859182878335
 20
157.9999215901
 10
613.859182878335
 20
156.5003432333
  0
LWPOLYLINE
  5
C7
330
44
100
AcDbEntity
  8
0
  6
Continuous
 62
     7
100
AcDbPolyline
 90
        2
 70
     0
 43
0.15
 10
281.859180613335
 20
156.5003432333
 10
285.859173818435
 20
156.5003432333
  0
LWPOLYLINE
  5
C8
330
44
100
AcDbEntity
  8
0
  6
Continuous
 62
     7
100
AcDbPolyline
 90
        2
 70
     0
 43
0.15
 10
285.859173818435
 20
156.5003432333
 10
285.859173818435
 20
157.9999215901
  0
LWPOLYLINE
  5
C9
330
44
100
AcDbEntity
  8
0
  6
Continuous
 62
     7
100
AcDbPolyline
 90
        2
 70
     0
 43
0.15
 10
285.859173818435
 20
157.9999215901
 10
281.859180613335
 20
157.9999215901
  0
LWPOLYLINE
  5
CA
330
44
100
AcDbEntity
  8
0
  6
Continuous
 62
     7
100
AcDbPolyline
 90
        2
 70
     0
 43
0.15
 10
281.859180613335
 20
157.9999215901
 10
281.859180613335
 20
156.5003432333
  0
LWPOLYLINE
  5
CB
330
44
100
AcDbEntity
  8
0
  6
Continuous
 62
     7
100
AcDbPolyline
 90
        2
 70
     0
 43
0.15
 10
369.759178443735
 20
4.99999895689999
 10
371.098926945535
 20
0.0
  0
LWPOLYLINE
  5
CC
330
44
100
AcDbEntity
  8
0
  6
Continuous
 62
     7
100
AcDbPolyline
 90
        2
 70
     0
 43
0.15
 10
528.619437201735
 20
0.0
 10
529.959178252935
 20
4.99999895689999
  0
LWPOLYLINE
  5
CD
330
44
100
AcDbEntity
  8
0
  6
Continuous
 62
     7
100
AcDbPolyline
 90
        2
 70
     0
 43
0.15
 10
513.359180374935
 20
114.9999983609
 10
386.359180047035
 20
114.9999983609
  0
LWPOLYLINE
  5
CE
330
44
100
AcDbEntity
  8
0
  6
Continuous
 62
     7
100
AcDbPolyline
 90
        2
 70
     0
 43
0.15
 10
385.359181745835
 20
116.0000003874
 10
514.359182401435
 20
116.0000003874
  0
LWPOLYLINE
  5
CF
330
44
100
AcDbEntity
  8
0
  6
Continuous
 62
     7
100
AcDbPolyline
 90
        2
 70
     0
 43
0.15
 10
380.4591807563349
 20
117.000002414
 10
519.2591833909349
 20
117.000002414
  0
LWPOLYLINE
  5
D0
330
44
100
AcDbEntity
  8
0
  6
Continuous
 62
     7
100
AcDbPolyline
 90
        2
 70
     0
 43
0.15
 10
376.959181114035
 20
121.7019446194
 10
376.959181114035
 20
114.9999983609
  0
LWPOLYLINE
  5
D1
330
44
100
AcDbEntity
  8
0
  6
Continuous
 62
     7
100
AcDbPolyline
 90
        2
 70
     0
 43
0.15
 10
522.759183033235
 20
114.9999983609
 10
522.759183033235
 20
121.7019446194
  0
LWPOLYLINE
  5
D2
330
44
100
AcDbEntity
  8
0
  6
Continuous
 62
     7
100
AcDbPolyline
 90
        2
 70
     0
 43
0.15
 10
526.459178610635
 20
121.7019446194
 10
527.109182163035
 20
0.0
  0
LWPOLYLINE
  5
D3
330
44
100
AcDbEntity
  8
0
  6
Continuous
 62
     7
100
AcDbPolyline
 90
        2
 70
     0
 43
0.15
 10
372.609181984235
 20
0.0
 10
373.259178086135
 20
121.7019446194
  0
LWPOLYLINE
  5
D4
330
44
100
AcDbEntity
  8
0
  6
Continuous
 62
     7
100
AcDbPolyline
 90
        2
 70
     0
 43
0.15
 10
527.109182163035
 20
0.0
 10
372.609181984235
 20
0.0
  0
LWPOLYLINE
  5
D5
330
44
100
AcDbEntity
  8
0
  6
Continuous
 62
     7
100
AcDbPolyline
 90
        2
 70
     0
 43
0.15
 10
367.609201653735
 20
142.4000002444001
 10
369.759178443735
 20
138.6000029742999
  0
LWPOLYLINE
  5
D6
330
44
100
AcDbEntity
  8
0
  6
Continuous
 62
     7
100
AcDbPolyline
 90
        2
 70
     0
 43
0.15
 10
529.959178252935
 20
138.6000029742999
 10
532.109162493535
 20
142.4000002444001
  0
LWPOLYLINE
  5
D7
330
44
100
AcDbEntity
  8
0
  6
Continuous
 62
     7
100
AcDbPolyline
 90
        2
 70
     0
 43
0.15
 10
380.609183295535
 20
125.2014897764001
 10
519.109180851735
 20
125.2014897764001
  0
LWPOLYLINE
  5
D8
330
44
100
AcDbEntity
  8
0
  6
Continuous
 62
     7
100
AcDbPolyline
 90
        2
 70
     0
 43
0.15
 10
525.954483731535
 20
125.2014897764001
 10
519.109180851735
 20
125.2014897764001
  0
LWPOLYLINE
  5
D9
330
44
100
AcDbEntity
  8
0
  6
Continuous
 62
     7
100
AcDbPolyline
 90
        2
 70
     0
 43
0.15
 10
516.609183235935
 20
129.7014914453
 10
527.109182163035
 20
129.7014914453
  0
LWPOLYLINE
  5
DA
330
44
100
AcDbEntity
  8
0
  6
Continuous
 62
     7
100
AcDbPolyline
 90
        2
 70
     0
 43
0.15
 10
517.109184249235
 20
127.2014938295
 10
514.609179182835
 20
127.2014938295
  0
LWPOLYLINE
  5
DB
330
44
100
AcDbEntity
  8
0
  6
Continuous
 62
     7
100
AcDbPolyline
 90
        2
 70
     0
 43
0.15
 10
383.109180911335
 20
129.7014914453
 10
516.609183235935
 20
129.7014914453
  0
LWPOLYLINE
  5
DC
330
44
100
AcDbEntity
  8
0
  6
Continuous
 62
     7
100
AcDbPolyline
 90
        2
 70
     0
 43
0.15
 10
527.109182163035
 20
127.2014938295
 10
525.954483731535
 20
125.2014897764001
  0
LWPOLYLINE
  5
DD
330
44
100
AcDbEntity
  8
0
  6
Continuous
 62
     7
100
AcDbPolyline
 90
        2
 70
     0
 43
0.15
 10
385.109177513835
 20
127.2014938295
 10
382.609179898035
 20
127.2014938295
  0
LWPOLYLINE
  5
DE
330
44
100
AcDbEntity
  8
0
  6
Continuous
 62
     7
100
AcDbPolyline
 90
        2
 70
     0
 43
0.15
 10
372.609181984235
 20
129.7014914453
 10
383.109180911335
 20
129.7014914453
  0
LWPOLYLINE
  5
DF
330
44
100
AcDbEntity
  8
0
  6
Continuous
 62
     7
100
AcDbPolyline
 90
        2
 70
     0
 43
0.15
 10
373.763880415735
 20
125.2014897764001
 10
372.609181984235
 20
127.2014938295
  0
LWPOLYLINE
  5
E0
330
44
100
AcDbEntity
  8
0
  6
Continuous
 62
     7
100
AcDbPolyline
 90
        2
 70
     0
 43
0.15
 10
380.609183295535
 20
125.2014897764001
 10
373.763880415735
 20
125.2014897764001
  0
LWPOLYLINE
  5
E1
330
44
100
AcDbEntity
  8
0
  6
Continuous
 62
     7
100
AcDbPolyline
 90
        2
 70
     0
 43
0.15
 10
385.109177513835
 20
127.2014938295
 10
514.609179182835
 20
127.2014938295
  0
LWPOLYLINE
  5
E2
330
44
100
AcDbEntity
  8
0
  6
Continuous
 62
     7
100
AcDbPolyline
 90
        2
 70
     0
 43
0.15
 10
514.609179182835
 20
127.2014938295
 10
514.609179182835
 20
127.7014873922001
  0
LWPOLYLINE
  5
E3
330
44
100
AcDbEntity
  8
0
  6
Continuous
 62
     7
100
AcDbPolyline
 90
        2
 70
     0
 43
0.15
 10
385.109177513835
 20
127.7014873922001
 10
514.609179182835
 20
127.7014873922001
  0
LWPOLYLINE
  5
E4
330
44
100
AcDbEntity
  8
0
  6
Continuous
 62
     7
100
AcDbPolyline
 90
        2
 70
     0
 43
0.15
 10
385.109177513835
 20
127.7014873922001
 10
385.109177513835
 20
127.2014938295
  0
LWPOLYLINE
  5
E5
330
44
100
AcDbEntity
  8
0
  6
Continuous
 62
     7
100
AcDbPolyline
 90
        2
 70
     0
 43
0.15
 10
527.109182163035
 20
129.7014914453
 10
527.109182163035
 20
127.2014938295
  0
LWPOLYLINE
  5
E6
330
44
100
AcDbEntity
  8
0
  6
Continuous
 62
     7
100
AcDbPolyline
 90
        2
 70
     0
 43
0.15
 10
372.609181984235
 20
127.2014938295
 10
372.609181984235
 20
129.7014914453
  0
LWPOLYLINE
  5
E7
330
44
100
AcDbEntity
  8
0
  6
Continuous
 62
     7
100
AcDbPolyline
 90
        2
 70
     0
 43
0.15
 10
450.859180607735
 20
65.38282148539997
 10
450.859180607735
 20
59.48652885849998
  0
LWPOLYLINE
  5
E8
330
44
100
AcDbEntity
  8
0
  6
Continuous
 62
     7
100
AcDbPolyline
 90
        2
 70
     0
 43
0.15
 10
448.859180570935
 20
65.38282148539997
 10
448.859180570935
 20
59.48652885849998
  0
LWPOLYLINE
  5
E9
330
44
100
AcDbEntity
  8
0
  6
Continuous
 62
     7
100
AcDbPolyline
 90
        2
 70
     0
 43
0.15
 10
448.859180570935
 20
59.48652885849998
 10
450.859180607735
 20
59.48652885849998
  0
LWPOLYLINE
  5
EA
330
44
100
AcDbEntity
  8
0
  6
Continuous
 62
     7
100
AcDbPolyline
 90
        2
 70
     0
 43
0.15
 10
450.859180607735
 20
68.04433092469998
 10
450.859180607735
 20
65.38282148539997
  0
LWPOLYLINE
  5
EB
330
44
100
AcDbEntity
  8
0
  6
Continuous
 62
     7
100
AcDbPolyline
 90
        2
 70
     0
 43
0.15
 10
448.859180570935
 20
68.04433092469998
 10
448.859180570935
 20
65.38282148539997
  0
LWPOLYLINE
  5
EC
330
44
100
AcDbEntity
  8
0
  6
Continuous
 62
     7
100
AcDbPolyline
 90
        2
 70
     0
 43
0.15
 10
448.859180570935
 20
65.38282148539997
 10
450.859180607735
 20
65.38282148539997
  0
LWPOLYLINE
  5
ED
330
44
100
AcDbEntity
  8
0
  6
Continuous
 62
     7
100
AcDbPolyline
 90
        2
 70
     0
 43
0.15
 10
519.359177633135
 20
77.00000330799998
 10
517.109184249235
 20
77.00000330799998
  0
LWPOLYLINE
  5
EE
330
44
100
AcDbEntity
  8
0
  6
Continuous
 62
     7
100
AcDbPolyline
 90
        2
 70
     0
 43
0.15
 10
513.109183593535
 20
70.7000028342
 10
513.609177156235
 20
70.7000028342
  0
LWPOLYLINE
  5
EF
330
44
100
AcDbEntity
  8
0
  6
Continuous
 62
     7
100
AcDbPolyline
 90
        2
 70
     0
 43
0.15
 10
517.109184249235
 20
73.00000265239998
 10
513.109183593535
 20
73.00000265239998
  0
LWPOLYLINE
  5
F0
330
44
100
AcDbEntity
  8
0
  6
Continuous
 62
     7
100
AcDbPolyline
 90
        2
 70
     0
 43
0.15
 10
516.609183235935
 20
68.05094517769999
 10
516.609183235935
 20
65.38282148539997
  0
LWPOLYLINE
  5
F1
330
44
100
AcDbEntity
  8
0
  6
Continuous
 62
     7
100
AcDbPolyline
 90
        2
 70
     0
 43
0.15
 10
523.286602183135
 20
59.48652885849998
 10
524.610406442435
 20
60.9857086092
  0
LWPOLYLINE
  5
F2
330
44
100
AcDbEntity
  8
0
  6
Continuous
 62
     7
100
AcDbPolyline
 90
        2
 70
     0
 43
0.15
 10
516.609183235935
 20
65.38282148539997
 10
523.286602183135
 20
59.48652885849998
  0
LWPOLYLINE
  5
F3
330
44
100
AcDbEntity
  8
0
  6
Continuous
 62
     7
100
AcDbPolyline
 90
        2
 70
     0
 43
0.15
 10
513.609177156235
 20
70.7000028342
 10
516.609183235935
 20
68.05094517769999
  0
LWPOLYLINE
  5
F4
330
44
100
AcDbEntity
  8
0
  6
Continuous
 62
     7
100
AcDbPolyline
 90
        2
 70
     0
 43
0.15
 10
524.610406442435
 20
60.9857086092
 10
526.859177931135
 20
59.00000222030002
  0
LWPOLYLINE
  5
F5
330
44
100
AcDbEntity
  8
0
  6
Continuous
 62
     7
100
AcDbPolyline
 90
        2
 70
     0
 43
0.15
 10
517.109184249235
 20
77.00000330799998
 10
516.859180017235
 20
77.00000330799998
  0
LWPOLYLINE
  5
F6
330
44
100
AcDbEntity
  8
0
  6
Continuous
 62
     7
100
AcDbPolyline
 90
        2
 70
     0
 43
0.15
 10
517.109184249235
 20
77.00000330799998
 10
517.109184249235
 20
73.00000265239998
  0
LWPOLYLINE
  5
F7
330
44
100
AcDbEntity
  8
0
  6
Continuous
 62
     7
100
AcDbPolyline
 90
        2
 70
     0
 43
0.15
 10
382.609179898035
 20
77.00000330799998
 10
380.359179063635
 20
77.00000330799998
  0
LWPOLYLINE
  5
F8
330
44
100
AcDbEntity
  8
0
  6
Continuous
 62
     7
100
AcDbPolyline
 90
        2
 70
     0
 43
0.15
 10
386.109179540435
 20
70.7000028342
 10
386.609180553735
 20
70.7000028342
  0
LWPOLYLINE
  5
F9
330
44
100
AcDbEntity
  8
0
  6
Continuous
 62
     7
100
AcDbPolyline
 90
        2
 70
     0
 43
0.15
 10
383.109180911335
 20
68.05094517769999
 10
386.109179540435
 20
70.7000028342
  0
LWPOLYLINE
  5
FA
330
44
100
AcDbEntity
  8
0
  6
Continuous
 62
     7
100
AcDbPolyline
 90
        2
 70
     0
 43
0.15
 10
386.609180553735
 20
73.00000265239998
 10
382.609179898035
 20
73.00000265239998
  0
LWPOLYLINE
  5
FB
330
44
100
AcDbEntity
  8
0
  6
Continuous
 62
     7
100
AcDbPolyline
 90
        2
 70
     0
 43
0.15
 10
382.609179898035
 20
73.00000265239998
 10
382.609179898035
 20
77.00000330799998
  0
LWPOLYLINE
  5
FC
330
44
100
AcDbEntity
  8
0
  6
Continuous
 62
     7
100
AcDbPolyline
 90
        2
 70
     0
 43
0.15
 10
372.859178765535
 20
59.00000222030002
 10
375.107950254235
 20
60.9857086092
  0
LWPOLYLINE
  5
FD
330
44
100
AcDbEntity
  8
0
  6
Continuous
 62
     7
100
AcDbPolyline
 90
        2
 70
     0
 43
0.15
 10
375.107950254235
 20
60.9857086092
 10
376.431754513535
 20
59.48652885849998
  0
LWPOLYLINE
  5
FE
330
44
100
AcDbEntity
  8
0
  6
Continuous
 62
     7
100
AcDbPolyline
 90
        2
 70
     0
 43
0.15
 10
376.431754513535
 20
59.48652885849998
 10
383.109180911335
 20
65.38282148539997
  0
LWPOLYLINE
  5
FF
330
44
100
AcDbEntity
  8
0
  6
Continuous
 62
     7
100
AcDbPolyline
 90
        2
 70
     0
 43
0.15
 10
383.109180911335
 20
65.38282148539997
 10
383.109180911335
 20
68.05094517769999
  0
LWPOLYLINE
  5
100
330
44
100
AcDbEntity
  8
0
  6
Continuous
 62
     7
100
AcDbPolyline
 90
        2
 70
     0
 43
0.15
 10
386.609180553735
 20
70.7000028342
 10
386.609180553735
 20
73.00000265239998
  0
LWPOLYLINE
  5
101
330
44
100
AcDbEntity
  8
0
  6
Continuous
 62
     7
100
AcDbPolyline
 90
        2
 70
     0
 43
0.15
 10
513.109183593535
 20
70.7000028342
 10
386.609180553735
 20
70.7000028342
  0
LWPOLYLINE
  5
102
330
44
100
AcDbEntity
  8
0
  6
Continuous
 62
     7
100
AcDbPolyline
 90
        2
 70
     0
 43
0.15
 10
513.109183593535
 20
73.00000265239998
 10
513.109183593535
 20
70.7000028342
  0
LWPOLYLINE
  5
103
330
44
100
AcDbEntity
  8
0
  6
Continuous
 62
     7
100
AcDbPolyline
 90
        2
 70
     0
 43
0.15
 10
513.109183593535
 20
73.00000265239998
 10
386.609180553735
 20
73.00000265239998
  0
LWPOLYLINE
  5
104
330
44
100
AcDbEntity
  8
0
  6
Continuous
 62
     7
100
AcDbPolyline
 90
        2
 70
     0
 43
0.15
 10
372.859178765535
 20
61.66812591249999
 10
372.859178765535
 20
59.00000222030002
  0
LWPOLYLINE
  5
105
330
44
100
AcDbEntity
  8
0
  6
Continuous
 62
     7
100
AcDbPolyline
 90
        2
 70
     0
 43
0.15
 10
526.859177931135
 20
59.00000222030002
 10
526.859177931135
 20
61.66812591249999
  0
LWPOLYLINE
  5
106
330
44
100
AcDbEntity
  8
0
  6
Continuous
 62
     7
100
AcDbPolyline
 90
        2
 70
     0
 43
0.15
 10
526.859177931135
 20
59.00000222030002
 10
372.859178765535
 20
59.00000222030002
  0
LWPOLYLINE
  5
107
330
44
100
AcDbEntity
  8
0
  6
Continuous
 62
     7
100
AcDbPolyline
 90
        2
 70
     0
 43
0.15
 10
526.859177931135
 20
61.66812591249999
 10
519.359177633135
 20
68.29076819120002
  0
LWPOLYLINE
  5
108
330
44
100
AcDbEntity
  8
0
  6
Continuous
 62
     7
100
AcDbPolyline
 90
        2
 70
     0
 43
0.15
 10
380.359179063635
 20
68.29076819120002
 10
372.859178765535
 20
61.66812591249999
  0
LWPOLYLINE
  5
109
330
44
100
AcDbEntity
  8
0
  6
Continuous
 62
     7
100
AcDbPolyline
 90
        2
 70
     0
 43
0.15
 10
380.359179063635
 20
77.00000330799998
 10
380.359179063635
 20
68.29076819120002
  0
LWPOLYLINE
  5
10A
330
44
100
AcDbEntity
  8
0
  6
Continuous
 62
     7
100
AcDbPolyline
 90
        2
 70
     0
 43
0.15
 10
519.359177633135
 20
68.29076819120002
 10
519.359177633135
 20
77.00000330799998
  0
LWPOLYLINE
  5
10B
330
44
100
AcDbEntity
  8
0
  6
Continuous
 62
     7
100
AcDbPolyline
 90
        2
 70
     0
 43
0.15
 10
438.059198393435
 20
130.9999190271001
 10
438.059198393435
 20
151.2999199331
  0
LWPOLYLINE
  5
10C
330
44
100
AcDbEntity
  8
0
  6
Continuous
 62
     7
100
AcDbPolyline
 90
        2
 70
     0
 43
0.15
 10
438.059198393435
 20
130.9999190271001
 10
461.659277512635
 20
130.9999190271001
  0
LWPOLYLINE
  5
10D
330
44
100
AcDbEntity
  8
0
  6
Continuous
 62
     7
100
AcDbPolyline
 90
        2
 70
     0
 43
0.15
 10
461.659277512635
 20
151.2999199331
 10
461.659277512635
 20
130.9999190271001
  0
LWPOLYLINE
  5
10E
330
44
100
AcDbEntity
  8
0
  6
Continuous
 62
     7
100
AcDbPolyline
 90
        2
 70
     0
 43
0.15
 10
451.009180585735
 20
159.9999181926
 10
451.009180585735
 20
194.5999823511
  0
LWPOLYLINE
  5
10F
330
44
100
AcDbEntity
  8
0
  6
Continuous
 62
     7
100
AcDbPolyline
 90
        2
 70
     0
 43
0.15
 10
448.709180563835
 20
159.9999181926
 10
448.709180563835
 20
194.5999823511
  0
LWPOLYLINE
  5
110
330
44
100
AcDbEntity
  8
0
  6
Continuous
 62
     7
100
AcDbPolyline
 90
        2
 70
     0
 43
0.15
 10
449.630227128835
 20
159.9999181926
 10
450.088133991635
 20
159.9999181926
  0
LWPOLYLINE
  5
111
330
44
100
AcDbEntity
  8
0
  6
Continuous
 62
     7
100
AcDbPolyline
 90
        2
 70
     0
 43
0.15
 10
432.723349614935
 20
159.9999181926
 10
435.982758833935
 20
194.5999823511
  0
LWPOLYLINE
  5
112
330
44
100
AcDbEntity
  8
0
  6
Continuous
 62
     7
100
AcDbPolyline
 90
        2
 70
     0
 43
0.15
 10
431.391381381935
 20
159.9999181926
 10
431.833686961735
 20
159.9999181926
  0
LWPOLYLINE
  5
113
330
44
100
AcDbEntity
  8
0
  6
Continuous
 62
     7
100
AcDbPolyline
 90
        2
 70
     0
 43
0.15
 10
466.995012669735
 20
159.9999181926
 10
463.735602519335
 20
194.5999823511
  0
LWPOLYLINE
  5
114
330
44
100
AcDbEntity
  8
0
  6
Continuous
 62
     7
100
AcDbPolyline
 90
        2
 70
     0
 43
0.15
 10
467.884675322935
 20
159.9999181926
 10
468.326979040035
 20
159.9999181926
  0
LWPOLYLINE
  5
115
330
44
100
AcDbEntity
  8
0
  6
Continuous
 62
     7
100
AcDbPolyline
 90
        2
 70
     0
 43
0.15
 10
415.605294241435
 20
159.9999181926
 10
421.901992245435
 20
194.5999823511
  0
LWPOLYLINE
  5
116
330
44
100
AcDbEntity
  8
0
  6
Continuous
 62
     7
100
AcDbPolyline
 90
        2
 70
     0
 43
0.15
 10
414.411085381035
 20
159.9999181926
 10
414.807646258635
 20
159.9999181926
  0
LWPOLYLINE
  5
117
330
44
100
AcDbEntity
  8
0
  6
Continuous
 62
     7
100
AcDbPolyline
 90
        2
 70
     0
 43
0.15
 10
484.113066180535
 20
159.9999181926
 10
477.816370039135
 20
194.5999823511
  0
LWPOLYLINE
  5
118
330
44
100
AcDbEntity
  8
0
  6
Continuous
 62
     7
100
AcDbPolyline
 90
        2
 70
     0
 43
0.15
 10
484.910714163335
 20
159.9999181926
 10
485.307275040935
 20
159.9999181926
  0
LWPOLYLINE
  5
119
330
44
100
AcDbEntity
  8
0
  6
Continuous
 62
     7
100
AcDbPolyline
 90
        2
 70
     0
 43
0.15
 10
451.009180585735
 20
199.3201635778
 10
451.009180585735
 20
220.1999239623
  0
LWPOLYLINE
  5
11A
330
44
100
AcDbEntity
  8
0
  6
Continuous
 62
     7
100
AcDbPolyline
 90
        2
 70
     0
 43
0.15
 10
448.709180563835
 20
199.3201635778
 10
448.709180563835
 20
220.1999239623
  0
LWPOLYLINE
  5
11B
330
44
100
AcDbEntity
  8
0
  6
Continuous
 62
     7
100
AcDbPolyline
 90
        2
 70
     0
 43
0.15
 10
436.427410415235
 20
199.3201635778
 10
438.394334821835
 20
220.1999239623
  0
LWPOLYLINE
  5
11C
330
44
100
AcDbEntity
  8
0
  6
Continuous
 62
     7
100
AcDbPolyline
 90
        2
 70
     0
 43
0.15
 10
463.290950938035
 20
199.3201635778
 10
461.324026531435
 20
220.1999239623
  0
LWPOLYLINE
  5
11D
330
44
100
AcDbEntity
  8
0
  6
Continuous
 62
     7
100
AcDbPolyline
 90
        2
 70
     0
 43
0.15
 10
430.501718728735
 20
159.9999181926
 10
433.761128879035
 20
194.5999823511
  0
LWPOLYLINE
  5
11E
330
44
100
AcDbEntity
  8
0
  6
Continuous
 62
     7
100
AcDbPolyline
 90
        2
 70
     0
 43
0.15
 10
434.2057813917349
 20
199.3201635778
 10
436.172704867035
 20
220.1999239623
  0
LWPOLYLINE
  5
11F
330
44
100
AcDbEntity
  8
0
  6
Continuous
 62
     7
100
AcDbPolyline
 90
        2
 70
     0
 43
0.15
 10
430.184676035235
 20
199.9066881835
 10
432.096347867435
 20
220.1999239623
  0
LWPOLYLINE
  5
120
330
44
100
AcDbEntity
  8
0
  6
Continuous
 62
     7
100
AcDbPolyline
 90
        2
 70
     0
 43
0.15
 10
426.597217752535
 20
161.8242450058
 10
429.684771879435
 20
194.5999823511
  0
LWPOLYLINE
  5
121
330
44
100
AcDbEntity
  8
0
  6
Continuous
 62
     7
100
AcDbPolyline
 90
        2
 70
     0
 43
0.15
 10
427.423515080335
 20
159.9999181926
 10
426.597217752535
 20
161.8242450058
  0
LWPOLYLINE
  5
122
330
44
100
AcDbEntity
  8
0
  6
Continuous
 62
     7
100
AcDbPolyline
 90
        2
 70
     0
 43
0.15
 10
469.216641693235
 20
159.9999181926
 10
465.957232474235
 20
194.5999823511
  0
LWPOLYLINE
  5
123
330
44
100
AcDbEntity
  8
0
  6
Continuous
 62
     7
100
AcDbPolyline
 90
        2
 70
     0
 43
0.15
 10
472.294847204235
 20
159.9999181926
 10
473.121142669435
 20
161.8242450058
  0
LWPOLYLINE
  5
124
330
44
100
AcDbEntity
  8
0
  6
Continuous
 62
     7
100
AcDbPolyline
 90
        2
 70
     0
 43
0.15
 10
469.533684386735
 20
199.9066881835
 10
467.622012554535
 20
220.1999239623
  0
LWPOLYLINE
  5
125
330
44
100
AcDbEntity
  8
0
  6
Continuous
 62
     7
100
AcDbPolyline
 90
        2
 70
     0
 43
0.15
 10
473.121142669435
 20
161.8242450058
 10
470.033588542535
 20
194.5999823511
  0
LWPOLYLINE
  5
126
330
44
100
AcDbEntity
  8
0
  6
Continuous
 62
     7
100
AcDbPolyline
 90
        2
 70
     0
 43
0.15
 10
465.512579961535
 20
199.3201635778
 10
463.545656486335
 20
220.1999239623
  0
LWPOLYLINE
  5
127
330
44
100
AcDbEntity
  8
0
  6
Continuous
 62
     7
100
AcDbPolyline
 90
        2
 70
     0
 43
0.15
 10
400.821587725435
 20
159.9999181926
 10
409.726462050235
 20
194.5999823511
  0
LWPOLYLINE
  5
128
330
44
100
AcDbEntity
  8
0
  6
Continuous
 62
     7
100
AcDbPolyline
 90
        2
 70
     0
 43
0.15
 10
399.846519066835
 20
159.9999181926
 10
400.170310123735
 20
159.9999181926
  0
LWPOLYLINE
  5
129
330
44
100
AcDbEntity
  8
0
  6
Continuous
 62
     7
100
AcDbPolyline
 90
        2
 70
     0
 43
0.15
 10
498.896772696535
 20
159.9999181926
 10
489.991902097035
 20
194.5999823511
  0
LWPOLYLINE
  5
12A
330
44
100
AcDbEntity
  8
0
  6
Continuous
 62
     7
100
AcDbPolyline
 90
        2
 70
     0
 43
0.15
 10
499.548050298235
 20
159.9999181926
 10
499.871841355135
 20
159.9999181926
  0
LWPOLYLINE
  5
12B
330
44
100
AcDbEntity
  8
0
  6
Continuous
 62
     7
100
AcDbPolyline
 90
        2
 70
     0
 43
0.15
 10
422.760993896935
 20
199.3201635778
 10
426.560799314535
 20
220.1999239623
  0
LWPOLYLINE
  5
12C
330
44
100
AcDbEntity
  8
0
  6
Continuous
 62
     7
100
AcDbPolyline
 90
        2
 70
     0
 43
0.15
 10
476.957368387735
 20
199.3201635778
 10
473.157562970135
 20
220.1999239623
  0
LWPOLYLINE
  5
12D
330
44
100
AcDbEntity
  8
0
  6
Continuous
 62
     7
100
AcDbPolyline
 90
        2
 70
     0
 43
0.15
 10
413.613437398235
 20
159.9999181926
 10
419.910133539635
 20
194.5999823511
  0
LWPOLYLINE
  5
12E
330
44
100
AcDbEntity
  8
0
  6
Continuous
 62
     7
100
AcDbPolyline
 90
        2
 70
     0
 43
0.15
 10
420.769135191035
 20
199.3201635778
 10
424.568940608635
 20
220.1999239623
  0
LWPOLYLINE
  5
12F
330
44
100
AcDbEntity
  8
0
  6
Continuous
 62
     7
100
AcDbPolyline
 90
        2
 70
     0
 43
0.15
 10
413.000958694935
 20
199.9066881835
 10
416.694025232335
 20
220.1999239623
  0
LWPOLYLINE
  5
130
330
44
100
AcDbEntity
  8
0
  6
Continuous
 62
     7
100
AcDbPolyline
 90
        2
 70
     0
 43
0.15
 10
406.070518030735
 20
161.8242450058
 10
412.035214438035
 20
194.5999823511
  0
LWPOLYLINE
  5
131
330
44
100
AcDbEntity
  8
0
  6
Continuous
 62
     7
100
AcDbPolyline
 90
        2
 70
     0
 43
0.15
 10
407.666801198335
 20
159.9999181926
 10
406.070518030735
 20
161.8242450058
  0
LWPOLYLINE
  5
132
330
44
100
AcDbEntity
  8
0
  6
Continuous
 62
     7
100
AcDbPolyline
 90
        2
 70
     0
 43
0.15
 10
486.104923023735
 20
159.9999181926
 10
479.808228745035
 20
194.5999823511
  0
LWPOLYLINE
  5
133
330
44
100
AcDbEntity
  8
0
  6
Continuous
 62
     7
100
AcDbPolyline
 90
        2
 70
     0
 43
0.15
 10
492.051559223735
 20
159.9999181926
 10
493.647842391335
 20
161.8242450058
  0
LWPOLYLINE
  5
134
330
44
100
AcDbEntity
  8
0
  6
Continuous
 62
     7
100
AcDbPolyline
 90
        2
 70
     0
 43
0.15
 10
486.717401727035
 20
199.9066881835
 10
483.024335189635
 20
220.1999239623
  0
LWPOLYLINE
  5
135
330
44
100
AcDbEntity
  8
0
  6
Continuous
 62
     7
100
AcDbPolyline
 90
        2
 70
     0
 43
0.15
 10
493.647842391335
 20
161.8242450058
 10
487.683145983935
 20
194.5999823511
  0
LWPOLYLINE
  5
136
330
44
100
AcDbEntity
  8
0
  6
Continuous
 62
     7
100
AcDbPolyline
 90
        2
 70
     0
 43
0.15
 10
478.949225230935
 20
199.3201635778
 10
475.149421675935
 20
220.1999239623
  0
LWPOLYLINE
  5
137
330
44
100
AcDbEntity
  8
0
  6
Continuous
 62
     7
100
AcDbPolyline
 90
        2
 70
     0
 43
0.15
 10
410.941271766035
 20
199.3201635778
 10
416.315010472135
 20
220.1999239623
  0
LWPOLYLINE
  5
138
330
44
100
AcDbEntity
  8
0
  6
Continuous
 62
     7
100
AcDbPolyline
 90
        2
 70
     0
 43
0.15
 10
488.777088656035
 20
199.3201635778
 10
483.403353675135
 20
220.1999239623
  0
LWPOLYLINE
  5
139
330
44
100
AcDbEntity
  8
0
  6
Continuous
 62
     7
100
AcDbPolyline
 90
        2
 70
     0
 43
0.15
 10
389.379712476335
 20
159.9999181926
 10
400.285909606935
 20
194.5999823511
  0
LWPOLYLINE
  5
13A
330
44
100
AcDbEntity
  8
0
  6
Continuous
 62
     7
100
AcDbPolyline
 90
        2
 70
     0
 43
0.15
 10
388.690235747835
 20
159.9999181926
 10
388.919188364335
 20
159.9999181926
  0
LWPOLYLINE
  5
13B
330
44
100
AcDbEntity
  8
0
  6
Continuous
 62
     7
100
AcDbPolyline
 90
        2
 70
     0
 43
0.15
 10
510.338647945735
 20
159.9999181926
 10
499.4324508150349
 20
194.5999823511
  0
LWPOLYLINE
  5
13C
330
44
100
AcDbEntity
  8
0
  6
Continuous
 62
     7
100
AcDbPolyline
 90
        2
 70
     0
 43
0.15
 10
510.799172057635
 20
159.9999181926
 10
511.028124674135
 20
159.9999181926
  0
LWPOLYLINE
  5
13D
330
44
100
AcDbEntity
  8
0
  6
Continuous
 62
     7
100
AcDbPolyline
 90
        2
 70
     0
 43
0.15
 10
401.773742123435
 20
199.3201635778
 10
408.355197592535
 20
220.1999239623
  0
LWPOLYLINE
  5
13E
330
44
100
AcDbEntity
  8
0
  6
Continuous
 62
     7
100
AcDbPolyline
 90
        2
 70
     0
 43
0.15
 10
497.944618298535
 20
199.3201635778
 10
491.3631628294349
 20
220.1999239623
  0
LWPOLYLINE
  5
13F
330
44
100
AcDbEntity
  8
0
  6
Continuous
 62
     7
100
AcDbPolyline
 90
        2
 70
     0
 43
0.15
 10
388.229711635835
 20
159.9999181926
 10
399.135908766535
 20
194.5999823511
  0
LWPOLYLINE
  5
140
330
44
100
AcDbEntity
  8
0
  6
Continuous
 62
     7
100
AcDbPolyline
 90
        2
 70
     0
 43
0.15
 10
400.623745008235
 20
199.3201635778
 10
407.205200477435
 20
220.1999239623
  0
LWPOLYLINE
  5
141
330
44
100
AcDbEntity
  8
0
  6
Continuous
 62
     7
100
AcDbPolyline
 90
        2
 70
     0
 43
0.15
 10
511.488652511435
 20
159.9999181926
 10
500.582451655435
 20
194.5999823511
  0
LWPOLYLINE
  5
142
330
44
100
AcDbEntity
  8
0
  6
Continuous
 62
     7
100
AcDbPolyline
 90
        2
 70
     0
 43
0.15
 10
499.094619139035
 20
199.3201635778
 10
492.513159944535
 20
220.1999239623
  0
LWPOLYLINE
  5
143
330
44
100
AcDbEntity
  8
0
  6
Continuous
 62
     7
100
AcDbPolyline
 90
        2
 70
     0
 43
0.15
 10
382.059409006435
 20
159.9999181926
 10
394.223692550235
 20
194.5999823511
  0
LWPOLYLINE
  5
144
330
44
100
AcDbEntity
  8
0
  6
Continuous
 62
     7
100
AcDbPolyline
 90
        2
 70
     0
 43
0.15
 10
381.702511294635
 20
159.9999181926
 10
381.821027680235
 20
159.9999181926
  0
LWPOLYLINE
  5
145
330
44
100
AcDbEntity
  8
0
  6
Continuous
 62
     7
100
AcDbPolyline
 90
        2
 70
     0
 43
0.15
 10
517.658947690335
 20
159.9999181926
 10
505.494667871735
 20
194.5999823511
  0
LWPOLYLINE
  5
146
330
44
100
AcDbEntity
  8
0
  6
Continuous
 62
     7
100
AcDbPolyline
 90
        2
 70
     0
 43
0.15
 10
517.897336467035
 20
159.9999181926
 10
518.015852852635
 20
159.9999181926
  0
LWPOLYLINE
  5
147
330
44
100
AcDbEntity
  8
0
  6
Continuous
 62
     7
100
AcDbPolyline
 90
        2
 70
     0
 43
0.15
 10
379.846623822035
 20
143.2999186218
 10
380.213237090835
 20
143.2999186218
  0
LWPOLYLINE
  5
148
330
44
100
AcDbEntity
  8
0
  6
Continuous
 62
     7
100
AcDbPolyline
 90
        2
 70
     0
 43
0.15
 10
519.505149408135
 20
143.2999186218
 10
519.871755226435
 20
143.2999186218
  0
LWPOLYLINE
  5
149
330
44
100
AcDbEntity
  8
0
  6
Continuous
 62
     7
100
AcDbPolyline
 90
        2
 70
     0
 43
0.15
 10
463.659277840435
 20
143.2999186218
 10
463.659277840435
 20
151.2999199331
  0
LWPOLYLINE
  5
14A
330
44
100
AcDbEntity
  8
0
  6
Continuous
 62
     7
100
AcDbPolyline
 90
        2
 70
     0
 43
0.15
 10
463.659277840435
 20
143.2999186218
 10
519.505149408135
 20
143.2999186218
  0
LWPOLYLINE
  5
14B
330
44
100
AcDbEntity
  8
0
  6
Continuous
 62
     7
100
AcDbPolyline
 90
        2
 70
     0
 43
0.15
 10
519.505149408135
 20
151.2999199331
 10
519.505149408135
 20
143.2999186218
  0
LWPOLYLINE
  5
14C
330
44
100
AcDbEntity
  8
0
  6
Continuous
 62
     7
100
AcDbPolyline
 90
        2
 70
     0
 43
0.15
 10
380.213237090835
 20
143.2999186218
 10
380.213237090835
 20
151.2999199331
  0
LWPOLYLINE
  5
14D
330
44
100
AcDbEntity
  8
0
  6
Continuous
 62
     7
100
AcDbPolyline
 90
        2
 70
     0
 43
0.15
 10
380.213237090835
 20
143.2999186218
 10
436.059198065535
 20
143.2999186218
  0
LWPOLYLINE
  5
14E
330
44
100
AcDbEntity
  8
0
  6
Continuous
 62
     7
100
AcDbPolyline
 90
        2
 70
     0
 43
0.15
 10
436.059198065535
 20
151.2999199331
 10
436.059198065535
 20
143.2999186218
  0
LWPOLYLINE
  5
14F
330
44
100
AcDbEntity
  8
0
  6
Continuous
 62
     7
100
AcDbPolyline
 90
        2
 70
     0
 43
0.15
 10
395.883156641335
 20
199.3201635778
 10
403.223818822635
 20
220.1999239623
  0
LWPOLYLINE
  5
150
330
44
100
AcDbEntity
  8
0
  6
Continuous
 62
     7
100
AcDbPolyline
 90
        2
 70
     0
 43
0.15
 10
503.835203780735
 20
199.3201635778
 10
496.4945453246349
 20
220.1999239623
  0
LWPOLYLINE
  5
151
330
44
100
AcDbEntity
  8
0
  6
Continuous
 62
     7
100
AcDbPolyline
 90
        2
 70
     0
 43
0.15
 10
518.254234178835
 20
159.9999181926
 10
506.0899506350349
 20
194.5999823511
  0
LWPOLYLINE
  5
152
330
44
100
AcDbEntity
  8
0
  6
Continuous
 62
     7
100
AcDbPolyline
 90
        2
 70
     0
 43
0.15
 10
525.877258463635
 20
143.2999186218
 10
523.7591776092349
 20
143.2999186218
  0
LWPOLYLINE
  5
153
330
44
100
AcDbEntity
  8
0
  6
Continuous
 62
     7
100
AcDbPolyline
 90
        2
 70
     0
 43
0.15
 10
525.877258463635
 20
143.2999186218
 10
525.877258463635
 20
159.9999181926
  0
LWPOLYLINE
  5
154
330
44
100
AcDbEntity
  8
0
  6
Continuous
 62
     7
100
AcDbPolyline
 90
        2
 70
     0
 43
0.15
 10
504.430486543935
 20
199.3201635778
 10
497.089828087835
 20
220.1999239623
  0
LWPOLYLINE
  5
155
330
44
100
AcDbEntity
  8
0
  6
Continuous
 62
     7
100
AcDbPolyline
 90
        2
 70
     0
 43
0.15
 10
381.464129968435
 20
159.9999181926
 10
393.628409786935
 20
194.5999823511
  0
LWPOLYLINE
  5
156
330
44
100
AcDbEntity
  8
0
  6
Continuous
 62
     7
100
AcDbPolyline
 90
        2
 70
     0
 43
0.15
 10
395.287873878035
 20
199.3201635778
 10
402.628532334135
 20
220.1999239623
  0
LWPOLYLINE
  5
157
330
44
100
AcDbEntity
  8
0
  6
Continuous
 62
     7
100
AcDbPolyline
 90
        2
 70
     0
 43
0.15
 10
373.841098233035
 20
143.2999186218
 10
373.841098233035
 20
159.9999181926
  0
LWPOLYLINE
  5
158
330
44
100
AcDbEntity
  8
0
  6
Continuous
 62
     7
100
AcDbPolyline
 90
        2
 70
     0
 43
0.15
 10
375.959179087435
 20
143.2999186218
 10
373.841098233035
 20
143.2999186218
  0
LWPOLYLINE
  5
159
330
44
100
AcDbEntity
  8
0
  6
Continuous
 62
     7
100
AcDbPolyline
 90
        2
 70
     0
 43
0.15
 10
399.195241465135
 20
159.9999181926
 10
408.100115789935
 20
194.5999823511
  0
LWPOLYLINE
  5
15A
330
44
100
AcDbEntity
  8
0
  6
Continuous
 62
     7
100
AcDbPolyline
 90
        2
 70
     0
 43
0.15
 10
409.314925505635
 20
199.3201635778
 10
414.688664211835
 20
220.1999239623
  0
LWPOLYLINE
  5
15B
330
44
100
AcDbEntity
  8
0
  6
Continuous
 62
     7
100
AcDbPolyline
 90
        2
 70
     0
 43
0.15
 10
390.785432143935
 20
159.9999181926
 10
389.665092064935
 20
160.905290395
  0
LWPOLYLINE
  5
15C
330
44
100
AcDbEntity
  8
0
  6
Continuous
 62
     7
100
AcDbPolyline
 90
        2
 70
     0
 43
0.15
 10
500.523118956835
 20
159.9999181926
 10
491.6182446320349
 20
194.5999823511
  0
LWPOLYLINE
  5
15D
330
44
100
AcDbEntity
  8
0
  6
Continuous
 62
     7
100
AcDbPolyline
 90
        2
 70
     0
 43
0.15
 10
508.932928278035
 20
159.9999181926
 10
510.053268357035
 20
160.905290395
  0
LWPOLYLINE
  5
15E
330
44
100
AcDbEntity
  8
0
  6
Continuous
 62
     7
100
AcDbPolyline
 90
        2
 70
     0
 43
0.15
 10
490.403434916335
 20
199.3201635778
 10
485.029696210235
 20
220.1999239623
  0
LWPOLYLINE
  5
15F
330
44
100
AcDbEntity
  8
0
  6
Continuous
 62
     7
100
AcDbPolyline
 90
        2
 70
     0
 43
0.15
 10
472.965352891835
 20
235.0999228656
 10
473.356642483635
 20
235.0999228656
  0
LWPOLYLINE
  5
160
330
44
100
AcDbEntity
  8
0
  6
Continuous
 62
     7
100
AcDbPolyline
 90
        2
 70
     0
 43
0.15
 10
471.574102251735
 20
235.0999228656
 10
471.965391843435
 20
235.0999228656
  0
LWPOLYLINE
  5
161
330
44
100
AcDbEntity
  8
0
  6
Continuous
 62
     7
100
AcDbPolyline
 90
        2
 70
     0
 43
0.15
 10
462.934692113535
 20
235.0999228656
 10
462.487498952935
 20
235.0999228656
  0
LWPOLYLINE
  5
162
330
44
100
AcDbEntity
  8
0
  6
Continuous
 62
     7
100
AcDbPolyline
 90
        2
 70
     0
 43
0.15
 10
473.356642483635
 20
235.0999228656
 10
473.443594484535
 20
235.0999228656
  0
LWPOLYLINE
  5
163
330
44
100
AcDbEntity
  8
0
  6
Continuous
 62
     7
100
AcDbPolyline
 90
        2
 70
     0
 43
0.15
 10
473.356642483635
 20
235.0999228656
 10
473.356642483635
 20
234.9999211728
  0
LWPOLYLINE
  5
164
330
44
100
AcDbEntity
  8
0
  6
Continuous
 62
     7
100
AcDbPolyline
 90
        2
 70
     0
 43
0.15
 10
471.487148388235
 20
235.0999228656
 10
471.574102251735
 20
235.0999228656
  0
LWPOLYLINE
  5
165
330
44
100
AcDbEntity
  8
0
  6
Continuous
 62
     7
100
AcDbPolyline
 90
        2
 70
     0
 43
0.15
 10
471.574102251735
 20
235.0999228656
 10
471.574102251735
 20
234.9999211728
  0
LWPOLYLINE
  5
166
330
44
100
AcDbEntity
  8
0
  6
Continuous
 62
     7
100
AcDbPolyline
 90
        2
 70
     0
 43
0.15
 10
471.965391843435
 20
235.0999228656
 10
472.052343844335
 20
235.0999228656
  0
LWPOLYLINE
  5
167
330
44
100
AcDbEntity
  8
0
  6
Continuous
 62
     7
100
AcDbPolyline
 90
        2
 70
     0
 43
0.15
 10
471.965391843435
 20
235.0999228656
 10
471.965391843435
 20
234.9999211728
  0
LWPOLYLINE
  5
168
330
44
100
AcDbEntity
  8
0
  6
Continuous
 62
     7
100
AcDbPolyline
 90
        2
 70
     0
 43
0.15
 10
472.878399028335
 20
235.0999228656
 10
472.965352891835
 20
235.0999228656
  0
LWPOLYLINE
  5
169
330
44
100
AcDbEntity
  8
0
  6
Continuous
 62
     7
100
AcDbPolyline
 90
        2
 70
     0
 43
0.15
 10
472.965352891835
 20
235.0999228656
 10
472.965352891835
 20
234.9999211728
  0
LWPOLYLINE
  5
16A
330
44
100
AcDbEntity
  8
0
  6
Continuous
 62
     7
100
AcDbPolyline
 90
        2
 70
     0
 43
0.15
 10
463.065121977535
 20
235.0999228656
 10
462.934692113535
 20
235.0999228656
  0
LWPOLYLINE
  5
16B
330
44
100
AcDbEntity
  8
0
  6
Continuous
 62
     7
100
AcDbPolyline
 90
        2
 70
     0
 43
0.15
 10
462.934692113535
 20
235.0999228656
 10
462.934692113535
 20
234.9999211728
  0
LWPOLYLINE
  5
16C
330
44
100
AcDbEntity
  8
0
  6
Continuous
 62
     7
100
AcDbPolyline
 90
        2
 70
     0
 43
0.15
 10
472.052343844335
 20
235.0999228656
 10
472.052343844335
 20
234.9999211728
  0
LWPOLYLINE
  5
16D
330
44
100
AcDbEntity
  8
0
  6
Continuous
 62
     7
100
AcDbPolyline
 90
        2
 70
     0
 43
0.15
 10
379.359177037035
 20
152.2999219596
 10
520.359179659635
 20
152.2999219596
  0
LWPOLYLINE
  5
16E
330
44
100
AcDbEntity
  8
0
  6
Continuous
 62
     7
100
AcDbPolyline
 90
        2
 70
     0
 43
0.15
 10
518.015852852635
 20
159.9999181926
 10
520.358807130635
 20
159.9999181926
  0
LWPOLYLINE
  5
16F
330
44
100
AcDbEntity
  8
0
  6
Continuous
 62
     7
100
AcDbPolyline
 90
        2
 70
     0
 43
0.15
 10
511.028124674135
 20
159.9999181926
 10
517.897336467035
 20
159.9999181926
  0
LWPOLYLINE
  5
170
330
44
100
AcDbEntity
  8
0
  6
Continuous
 62
     7
100
AcDbPolyline
 90
        2
 70
     0
 43
0.15
 10
499.871841355135
 20
159.9999181926
 10
510.799172057635
 20
159.9999181926
  0
LWPOLYLINE
  5
171
330
44
100
AcDbEntity
  8
0
  6
Continuous
 62
     7
100
AcDbPolyline
 90
        2
 70
     0
 43
0.15
 10
485.307275040935
 20
159.9999181926
 10
499.548050298235
 20
159.9999181926
  0
LWPOLYLINE
  5
172
330
44
100
AcDbEntity
  8
0
  6
Continuous
 62
     7
100
AcDbPolyline
 90
        2
 70
     0
 43
0.15
 10
468.326979040035
 20
159.9999181926
 10
484.910714163335
 20
159.9999181926
  0
LWPOLYLINE
  5
173
330
44
100
AcDbEntity
  8
0
  6
Continuous
 62
     7
100
AcDbPolyline
 90
        2
 70
     0
 43
0.15
 10
450.088133991635
 20
159.9999181926
 10
467.884675322935
 20
159.9999181926
  0
LWPOLYLINE
  5
174
330
44
100
AcDbEntity
  8
0
  6
Continuous
 62
     7
100
AcDbPolyline
 90
        2
 70
     0
 43
0.15
 10
431.833686961735
 20
159.9999181926
 10
449.630227128835
 20
159.9999181926
  0
LWPOLYLINE
  5
175
330
44
100
AcDbEntity
  8
0
  6
Continuous
 62
     7
100
AcDbPolyline
 90
        2
 70
     0
 43
0.15
 10
414.807646258635
 20
159.9999181926
 10
431.391381381935
 20
159.9999181926
  0
LWPOLYLINE
  5
176
330
44
100
AcDbEntity
  8
0
  6
Continuous
 62
     7
100
AcDbPolyline
 90
        2
 70
     0
 43
0.15
 10
400.170310123735
 20
159.9999181926
 10
414.411085381035
 20
159.9999181926
  0
LWPOLYLINE
  5
177
330
44
100
AcDbEntity
  8
0
  6
Continuous
 62
     7
100
AcDbPolyline
 90
        2
 70
     0
 43
0.15
 10
388.919188364335
 20
159.9999181926
 10
399.846519066835
 20
159.9999181926
  0
LWPOLYLINE
  5
178
330
44
100
AcDbEntity
  8
0
  6
Continuous
 62
     7
100
AcDbPolyline
 90
        2
 70
     0
 43
0.15
 10
381.821027680235
 20
159.9999181926
 10
388.690235747835
 20
159.9999181926
  0
LWPOLYLINE
  5
179
330
44
100
AcDbEntity
  8
0
  6
Continuous
 62
     7
100
AcDbPolyline
 90
        2
 70
     0
 43
0.15
 10
379.359549566035
 20
159.9999181926
 10
381.702511294635
 20
159.9999181926
  0
LWPOLYLINE
  5
17A
330
44
100
AcDbEntity
  8
0
  6
Continuous
 62
     7
100
AcDbPolyline
 90
        2
 70
     0
 43
0.15
 10
479.288262038435
 20
235.0999228656
 10
479.312932773435
 20
235.0999228656
  0
LWPOLYLINE
  5
17B
330
44
100
AcDbEntity
  8
0
  6
Continuous
 62
     7
100
AcDbPolyline
 90
        2
 70
     0
 43
0.15
 10
479.312932773435
 20
235.0999228656
 10
479.312932773435
 20
234.9999211728
  0
LWPOLYLINE
  5
17C
330
44
100
AcDbEntity
  8
0
  6
Continuous
 62
     7
100
AcDbPolyline
 90
        2
 70
     0
 43
0.15
 10
519.871755226435
 20
130.9999190271001
 10
519.871755226435
 20
151.2999199331
  0
LWPOLYLINE
  5
17D
330
44
100
AcDbEntity
  8
0
  6
Continuous
 62
     7
100
AcDbPolyline
 90
        2
 70
     0
 43
0.15
 10
519.871755226435
 20
130.9999190271001
 10
520.8591806729349
 20
130.9999190271001
  0
LWPOLYLINE
  5
17E
330
44
100
AcDbEntity
  8
0
  6
Continuous
 62
     7
100
AcDbPolyline
 90
        2
 70
     0
 43
0.15
 10
378.859183474335
 20
130.9999190271001
 10
379.846623822035
 20
130.9999190271001
  0
LWPOLYLINE
  5
17F
330
44
100
AcDbEntity
  8
0
  6
Continuous
 62
     7
100
AcDbPolyline
 90
        2
 70
     0
 43
0.15
 10
379.846623822035
 20
151.2999199331
 10
379.846623822035
 20
130.9999190271001
  0
LWPOLYLINE
  5
180
330
44
100
AcDbEntity
  8
0
  6
Continuous
 62
     7
100
AcDbPolyline
 90
        2
 70
     0
 43
0.15
 10
506.059179737135
 20
194.5999823511
 10
393.659180684835
 20
194.5999823511
  0
LWPOLYLINE
  5
181
330
44
100
AcDbEntity
  8
0
  6
Continuous
 62
     7
100
AcDbPolyline
 90
        2
 70
     0
 43
0.15
 10
505.833933784535
 20
199.9066881835
 10
504.430486543935
 20
199.9066881835
  0
LWPOLYLINE
  5
182
330
44
100
AcDbEntity
  8
0
  6
Continuous
 62
     7
100
AcDbPolyline
 90
        2
 70
     0
 43
0.15
 10
504.430486543935
 20
199.9066881835
 10
504.430486543935
 20
199.3201635778
  0
LWPOLYLINE
  5
183
330
44
100
AcDbEntity
  8
0
  6
Continuous
 62
     7
100
AcDbPolyline
 90
        2
 70
     0
 43
0.15
 10
503.6289977868349
 20
199.9066881835
 10
499.094619139035
 20
199.9066881835
  0
LWPOLYLINE
  5
184
330
44
100
AcDbEntity
  8
0
  6
Continuous
 62
     7
100
AcDbPolyline
 90
        2
 70
     0
 43
0.15
 10
499.094619139035
 20
199.9066881835
 10
499.094619139035
 20
199.3201635778
  0
LWPOLYLINE
  5
185
330
44
100
AcDbEntity
  8
0
  6
Continuous
 62
     7
100
AcDbPolyline
 90
        2
 70
     0
 43
0.15
 10
497.759739591635
 20
199.9066881835
 10
490.403434916335
 20
199.9066881835
  0
LWPOLYLINE
  5
186
330
44
100
AcDbEntity
  8
0
  6
Continuous
 62
     7
100
AcDbPolyline
 90
        2
 70
     0
 43
0.15
 10
490.403434916335
 20
199.9066881835
 10
490.403434916335
 20
199.3201635778
  0
LWPOLYLINE
  5
187
330
44
100
AcDbEntity
  8
0
  6
Continuous
 62
     7
100
AcDbPolyline
 90
        2
 70
     0
 43
0.15
 10
488.626136167835
 20
199.9066881835
 10
478.949225230935
 20
199.9066881835
  0
LWPOLYLINE
  5
188
330
44
100
AcDbEntity
  8
0
  6
Continuous
 62
     7
100
AcDbPolyline
 90
        2
 70
     0
 43
0.15
 10
478.949225230935
 20
199.9066881835
 10
478.949225230935
 20
199.3201635778
  0
LWPOLYLINE
  5
189
330
44
100
AcDbEntity
  8
0
  6
Continuous
 62
     7
100
AcDbPolyline
 90
        2
 70
     0
 43
0.15
 10
476.957368387735
 20
199.9066881835
 10
465.512579961535
 20
199.9066881835
  0
LWPOLYLINE
  5
18A
330
44
100
AcDbEntity
  8
0
  6
Continuous
 62
     7
100
AcDbPolyline
 90
        2
 70
     0
 43
0.15
 10
465.512579961535
 20
199.9066881835
 10
465.512579961535
 20
199.3201635778
  0
LWPOLYLINE
  5
18B
330
44
100
AcDbEntity
  8
0
  6
Continuous
 62
     7
100
AcDbPolyline
 90
        2
 70
     0
 43
0.15
 10
463.290950938035
 20
199.9066881835
 10
451.009180585735
 20
199.9066881835
  0
LWPOLYLINE
  5
18C
330
44
100
AcDbEntity
  8
0
  6
Continuous
 62
     7
100
AcDbPolyline
 90
        2
 70
     0
 43
0.15
 10
448.709180563835
 20
199.9066881835
 10
436.427410415235
 20
199.9066881835
  0
LWPOLYLINE
  5
18D
330
44
100
AcDbEntity
  8
0
  6
Continuous
 62
     7
100
AcDbPolyline
 90
        2
 70
     0
 43
0.15
 10
434.2057813917349
 20
199.9066881835
 10
434.2057813917349
 20
199.3201635778
  0
LWPOLYLINE
  5
18E
330
44
100
AcDbEntity
  8
0
  6
Continuous
 62
     7
100
AcDbPolyline
 90
        2
 70
     0
 43
0.15
 10
434.2057813917349
 20
199.9066881835
 10
422.760993896935
 20
199.9066881835
  0
LWPOLYLINE
  5
18F
330
44
100
AcDbEntity
  8
0
  6
Continuous
 62
     7
100
AcDbPolyline
 90
        2
 70
     0
 43
0.15
 10
420.769135191035
 20
199.9066881835
 10
420.769135191035
 20
199.3201635778
  0
LWPOLYLINE
  5
190
330
44
100
AcDbEntity
  8
0
  6
Continuous
 62
     7
100
AcDbPolyline
 90
        2
 70
     0
 43
0.15
 10
420.769135191035
 20
199.9066881835
 10
411.092224254135
 20
199.9066881835
  0
LWPOLYLINE
  5
191
330
44
100
AcDbEntity
  8
0
  6
Continuous
 62
     7
100
AcDbPolyline
 90
        2
 70
     0
 43
0.15
 10
409.314925505635
 20
199.9066881835
 10
409.314925505635
 20
199.3201635778
  0
LWPOLYLINE
  5
192
330
44
100
AcDbEntity
  8
0
  6
Continuous
 62
     7
100
AcDbPolyline
 90
        2
 70
     0
 43
0.15
 10
409.314925505635
 20
199.9066881835
 10
401.958620830335
 20
199.9066881835
  0
LWPOLYLINE
  5
193
330
44
100
AcDbEntity
  8
0
  6
Continuous
 62
     7
100
AcDbPolyline
 90
        2
 70
     0
 43
0.15
 10
400.623745008235
 20
199.9066881835
 10
400.623745008235
 20
199.3201635778
  0
LWPOLYLINE
  5
194
330
44
100
AcDbEntity
  8
0
  6
Continuous
 62
     7
100
AcDbPolyline
 90
        2
 70
     0
 43
0.15
 10
400.623745008235
 20
199.9066881835
 10
396.089362635135
 20
199.9066881835
  0
LWPOLYLINE
  5
195
330
44
100
AcDbEntity
  8
0
  6
Continuous
 62
     7
100
AcDbPolyline
 90
        2
 70
     0
 43
0.15
 10
395.287873878035
 20
199.9066881835
 10
395.287873878035
 20
199.3201635778
  0
LWPOLYLINE
  5
196
330
44
100
AcDbEntity
  8
0
  6
Continuous
 62
     7
100
AcDbPolyline
 90
        2
 70
     0
 43
0.15
 10
395.287873878035
 20
199.9066881835
 10
393.884426637435
 20
199.9066881835
  0
LWPOLYLINE
  5
197
330
44
100
AcDbEntity
  8
0
  6
Continuous
 62
     7
100
AcDbPolyline
 90
        2
 70
     0
 43
0.15
 10
391.952945574135
 20
194.5999823511
 10
379.359549566035
 20
159.9999181926
  0
LWPOLYLINE
  5
198
330
44
100
AcDbEntity
  8
0
  6
Continuous
 62
     7
100
AcDbPolyline
 90
        2
 70
     0
 43
0.15
 10
498.307763322135
 20
220.1999239623
 10
401.4105970998349
 20
220.1999239623
  0
LWPOLYLINE
  5
199
330
44
100
AcDbEntity
  8
0
  6
Continuous
 62
     7
100
AcDbPolyline
 90
        2
 70
     0
 43
0.15
 10
401.4105970998349
 20
220.1999239623
 10
401.4105970998349
 20
220.5846868455
  0
LWPOLYLINE
  5
19A
330
44
100
AcDbEntity
  8
0
  6
Continuous
 62
     7
100
AcDbPolyline
 90
        2
 70
     0
 43
0.15
 10
401.4105970998349
 20
234.9999211728
 10
461.661444700235
 20
234.9999211728
  0
LWPOLYLINE
  5
19B
330
44
100
AcDbEntity
  8
0
  6
Continuous
 62
     7
100
AcDbPolyline
 90
        2
 70
     0
 43
0.15
 10
463.804223298035
 20
234.9999211728
 10
464.183085321335
 20
234.9999211728
  0
LWPOLYLINE
  5
19C
330
44
100
AcDbEntity
  8
0
  6
Continuous
 62
     7
100
AcDbPolyline
 90
        2
 70
     0
 43
0.15
 10
466.530819146835
 20
234.9999211728
 10
466.965586601635
 20
234.9999211728
  0
LWPOLYLINE
  5
19D
330
44
100
AcDbEntity
  8
0
  6
Continuous
 62
     7
100
AcDbPolyline
 90
        2
 70
     0
 43
0.15
 10
467.7481639226349
 20
234.9999211728
 10
468.835078834435
 20
234.9999211728
  0
LWPOLYLINE
  5
19E
330
44
100
AcDbEntity
  8
0
  6
Continuous
 62
     7
100
AcDbPolyline
 90
        2
 70
     0
 43
0.15
 10
469.6176580180349
 20
234.9999211728
 10
470.704571067235
 20
234.9999211728
  0
LWPOLYLINE
  5
19F
330
44
100
AcDbEntity
  8
0
  6
Continuous
 62
     7
100
AcDbPolyline
 90
        2
 70
     0
 43
0.15
 10
474.226171805435
 20
234.9999211728
 10
474.573985396835
 20
234.9999211728
  0
LWPOLYLINE
  5
1A0
330
44
100
AcDbEntity
  8
0
  6
Continuous
 62
     7
100
AcDbPolyline
 90
        2
 70
     0
 43
0.15
 10
476.486955492635
 20
234.9999211728
 10
476.965195222635
 20
234.9999211728
  0
LWPOLYLINE
  5
1A1
330
44
100
AcDbEntity
  8
0
  6
Continuous
 62
     7
100
AcDbPolyline
 90
        2
 70
     0
 43
0.15
 10
479.288262038435
 20
234.9999211728
 10
498.307763322135
 20
234.9999211728
  0
LWPOLYLINE
  5
1A2
330
44
100
AcDbEntity
  8
0
  6
Continuous
 62
     7
100
AcDbPolyline
 90
        2
 70
     0
 43
0.15
 10
471.487148388235
 20
234.9999211728
 10
472.052343844335
 20
234.9999211728
  0
LWPOLYLINE
  5
1A3
330
44
100
AcDbEntity
  8
0
  6
Continuous
 62
     7
100
AcDbPolyline
 90
        2
 70
     0
 43
0.15
 10
498.307763322135
 20
220.5846868455
 10
498.307763322135
 20
220.1999239623
  0
LWPOLYLINE
  5
1A4
330
44
100
AcDbEntity
  8
0
  6
Continuous
 62
     7
100
AcDbPolyline
 90
        2
 70
     0
 43
0.15
 10
375.459178074135
 20
130.9999190271001
 10
378.859183474335
 20
130.9999190271001
  0
LWPOLYLINE
  5
1A5
330
44
100
AcDbEntity
  8
0
  6
Continuous
 62
     7
100
AcDbPolyline
 90
        2
 70
     0
 43
0.15
 10
401.4105970998349
 20
220.5846868455
 10
393.659180684835
 20
199.287828058
  0
LWPOLYLINE
  5
1A6
330
44
100
AcDbEntity
  8
0
  6
Continuous
 62
     7
100
AcDbPolyline
 90
        2
 70
     0
 43
0.15
 10
472.878399028335
 20
234.9999211728
 10
473.443594484535
 20
234.9999211728
  0
LWPOLYLINE
  5
1A7
330
44
100
AcDbEntity
  8
0
  6
Continuous
 62
     7
100
AcDbPolyline
 90
        2
 70
     0
 43
0.15
 10
364.273718281535
 20
161.8242450058
 10
367.466284616735
 20
159.9999181926
  0
LWPOLYLINE
  5
1A8
330
44
100
AcDbEntity
  8
0
  6
Continuous
 62
     7
100
AcDbPolyline
 90
        2
 70
     0
 43
0.15
 10
379.359549566035
 20
159.9999181926
 10
379.359177037035
 20
159.9999181926
  0
LWPOLYLINE
  5
1A9
330
44
100
AcDbEntity
  8
0
  6
Continuous
 62
     7
100
AcDbPolyline
 90
        2
 70
     0
 43
0.15
 10
532.252079530535
 20
159.9999181926
 10
535.444645865735
 20
161.8242450058
  0
LWPOLYLINE
  5
1AA
330
44
100
AcDbEntity
  8
0
  6
Continuous
 62
     7
100
AcDbPolyline
 90
        2
 70
     0
 43
0.15
 10
387.315208746935
 20
225.1302264631
 10
364.273718281535
 20
161.8242450058
  0
LWPOLYLINE
  5
1AB
330
44
100
AcDbEntity
  8
0
  6
Continuous
 62
     7
100
AcDbPolyline
 90
        2
 70
     0
 43
0.15
 10
463.804223298035
 20
235.0999228656
 10
463.065121977535
 20
235.0999228656
  0
LWPOLYLINE
  5
1AC
330
44
100
AcDbEntity
  8
0
  6
Continuous
 62
     7
100
AcDbPolyline
 90
        2
 70
     0
 43
0.15
 10
462.487498952935
 20
235.0999228656
 10
461.661444700235
 20
235.0999228656
  0
LWPOLYLINE
  5
1AD
330
44
100
AcDbEntity
  8
0
  6
Continuous
 62
     7
100
AcDbPolyline
 90
        2
 70
     0
 43
0.15
 10
461.661444700235
 20
234.9999211728
 10
461.661444700235
 20
235.0999228656
  0
LWPOLYLINE
  5
1AE
330
44
100
AcDbEntity
  8
0
  6
Continuous
 62
     7
100
AcDbPolyline
 90
        2
 70
     0
 43
0.15
 10
463.804223298035
 20
235.0999228656
 10
463.804223298035
 20
234.9999211728
  0
LWPOLYLINE
  5
1AF
330
44
100
AcDbEntity
  8
0
  6
Continuous
 62
     7
100
AcDbPolyline
 90
        2
 70
     0
 43
0.15
 10
473.443594484535
 20
234.9999211728
 10
473.443594484535
 20
235.0999228656
  0
LWPOLYLINE
  5
1B0
330
44
100
AcDbEntity
  8
0
  6
Continuous
 62
     7
100
AcDbPolyline
 90
        2
 70
     0
 43
0.15
 10
462.487498952935
 20
234.9999211728
 10
462.487498952935
 20
235.0999228656
  0
LWPOLYLINE
  5
1B1
330
44
100
AcDbEntity
  8
0
  6
Continuous
 62
     7
100
AcDbPolyline
 90
        2
 70
     0
 43
0.15
 10
463.065121977535
 20
235.0999228656
 10
463.065121977535
 20
234.9999211728
  0
LWPOLYLINE
  5
1B2
330
44
100
AcDbEntity
  8
0
  6
Continuous
 62
     7
100
AcDbPolyline
 90
        2
 70
     0
 43
0.15
 10
462.487498952935
 20
234.9999211728
 10
463.065121977535
 20
234.9999211728
  0
LWPOLYLINE
  5
1B3
330
44
100
AcDbEntity
  8
0
  6
Continuous
 62
     7
100
AcDbPolyline
 90
        2
 70
     0
 43
0.15
 10
466.965586601635
 20
234.9999211728
 10
466.965586601635
 20
235.0999228656
  0
LWPOLYLINE
  5
1B4
330
44
100
AcDbEntity
  8
0
  6
Continuous
 62
     7
100
AcDbPolyline
 90
        2
 70
     0
 43
0.15
 10
467.7481639226349
 20
235.0999228656
 10
467.7481639226349
 20
234.9999211728
  0
LWPOLYLINE
  5
1B5
330
44
100
AcDbEntity
  8
0
  6
Continuous
 62
     7
100
AcDbPolyline
 90
        2
 70
     0
 43
0.15
 10
466.965586601635
 20
235.0999228656
 10
467.7481639226349
 20
235.0999228656
  0
LWPOLYLINE
  5
1B6
330
44
100
AcDbEntity
  8
0
  6
Continuous
 62
     7
100
AcDbPolyline
 90
        2
 70
     0
 43
0.15
 10
468.835078834435
 20
234.9999211728
 10
468.835078834435
 20
235.0999228656
  0
LWPOLYLINE
  5
1B7
330
44
100
AcDbEntity
  8
0
  6
Continuous
 62
     7
100
AcDbPolyline
 90
        2
 70
     0
 43
0.15
 10
469.6176580180349
 20
235.0999228656
 10
469.6176580180349
 20
234.9999211728
  0
LWPOLYLINE
  5
1B8
330
44
100
AcDbEntity
  8
0
  6
Continuous
 62
     7
100
AcDbPolyline
 90
        2
 70
     0
 43
0.15
 10
468.835078834435
 20
235.0999228656
 10
469.6176580180349
 20
235.0999228656
  0
LWPOLYLINE
  5
1B9
330
44
100
AcDbEntity
  8
0
  6
Continuous
 62
     7
100
AcDbPolyline
 90
        2
 70
     0
 43
0.15
 10
506.059179737135
 20
194.5999823511
 10
506.059179737135
 20
199.287828058
  0
LWPOLYLINE
  5
1BA
330
44
100
AcDbEntity
  8
0
  6
Continuous
 62
     7
100
AcDbPolyline
 90
        2
 70
     0
 43
0.15
 10
507.765418573235
 20
194.5999823511
 10
506.059179737135
 20
194.5999823511
  0
LWPOLYLINE
  5
1BB
330
44
100
AcDbEntity
  8
0
  6
Continuous
 62
     7
100
AcDbPolyline
 90
        2
 70
     0
 43
0.15
 10
520.358807130635
 20
159.9999181926
 10
507.765418573235
 20
194.5999823511
  0
LWPOLYLINE
  5
1BC
330
44
100
AcDbEntity
  8
0
  6
Continuous
 62
     7
100
AcDbPolyline
 90
        2
 70
     0
 43
0.15
 10
520.359179659635
 20
159.9999181926
 10
520.358807130635
 20
159.9999181926
  0
LWPOLYLINE
  5
1BD
330
44
100
AcDbEntity
  8
0
  6
Continuous
 62
     7
100
AcDbPolyline
 90
        2
 70
     0
 43
0.15
 10
520.359179659635
 20
159.9999181926
 10
520.359179659635
 20
152.2999219596
  0
LWPOLYLINE
  5
1BE
330
44
100
AcDbEntity
  8
0
  6
Continuous
 62
     7
100
AcDbPolyline
 90
        2
 70
     0
 43
0.15
 10
520.359179659635
 20
152.2999219596
 10
520.8591806729349
 20
152.2999219596
  0
LWPOLYLINE
  5
1BF
330
44
100
AcDbEntity
  8
0
  6
Continuous
 62
     7
100
AcDbPolyline
 90
        2
 70
     0
 43
0.15
 10
520.8591806729349
 20
152.2999219596
 10
520.8591806729349
 20
130.9999190271001
  0
LWPOLYLINE
  5
1C0
330
44
100
AcDbEntity
  8
0
  6
Continuous
 62
     7
100
AcDbPolyline
 90
        2
 70
     0
 43
0.15
 10
520.8591806729349
 20
130.9999190271001
 10
524.2591786225349
 20
130.9999190271001
  0
LWPOLYLINE
  5
1C1
330
44
100
AcDbEntity
  8
0
  6
Continuous
 62
     7
100
AcDbPolyline
 90
        2
 70
     0
 43
0.15
 10
523.7591776092349
 20
132.9999230802
 10
524.2591786225349
 20
132.9999230802
  0
LWPOLYLINE
  5
1C2
330
44
100
AcDbEntity
  8
0
  6
Continuous
 62
     7
100
AcDbPolyline
 90
        2
 70
     0
 43
0.15
 10
523.7591776092349
 20
159.9999181926
 10
523.7591776092349
 20
132.9999230802
  0
LWPOLYLINE
  5
1C3
330
44
100
AcDbEntity
  8
0
  6
Continuous
 62
     7
100
AcDbPolyline
 90
        2
 70
     0
 43
0.15
 10
532.252079530535
 20
159.9999181926
 10
523.7591776092349
 20
159.9999181926
  0
LWPOLYLINE
  5
1C4
330
44
100
AcDbEntity
  8
0
  6
Continuous
 62
     7
100
AcDbPolyline
 90
        2
 70
     0
 43
0.15
 10
535.444645865735
 20
161.8242450058
 10
512.403151675035
 20
225.1302264631
  0
LWPOLYLINE
  5
1C5
330
44
100
AcDbEntity
  8
0
  6
Continuous
 62
     7
100
AcDbPolyline
 90
        2
 70
     0
 43
0.15
 10
479.288262038435
 20
235.0999228656
 10
479.288262038435
 20
234.9999211728
  0
LWPOLYLINE
  5
1C6
330
44
100
AcDbEntity
  8
0
  6
Continuous
 62
     7
100
AcDbPolyline
 90
        2
 70
     0
 43
0.15
 10
479.288262038435
 20
235.0999228656
 10
476.965195222635
 20
235.0999228656
  0
LWPOLYLINE
  5
1C7
330
44
100
AcDbEntity
  8
0
  6
Continuous
 62
     7
100
AcDbPolyline
 90
        2
 70
     0
 43
0.15
 10
476.965195222635
 20
234.9999211728
 10
476.965195222635
 20
235.0999228656
  0
LWPOLYLINE
  5
1C8
330
44
100
AcDbEntity
  8
0
  6
Continuous
 62
     7
100
AcDbPolyline
 90
        2
 70
     0
 43
0.15
 10
476.486955492635
 20
235.0999228656
 10
476.486955492635
 20
234.9999211728
  0
LWPOLYLINE
  5
1C9
330
44
100
AcDbEntity
  8
0
  6
Continuous
 62
     7
100
AcDbPolyline
 90
        2
 70
     0
 43
0.15
 10
474.573985396835
 20
235.0999228656
 10
476.486955492635
 20
235.0999228656
  0
LWPOLYLINE
  5
1CA
330
44
100
AcDbEntity
  8
0
  6
Continuous
 62
     7
100
AcDbPolyline
 90
        2
 70
     0
 43
0.15
 10
474.573985396835
 20
234.9999211728
 10
474.573985396835
 20
235.0999228656
  0
LWPOLYLINE
  5
1CB
330
44
100
AcDbEntity
  8
0
  6
Continuous
 62
     7
100
AcDbPolyline
 90
        2
 70
     0
 43
0.15
 10
474.226171805435
 20
235.0999228656
 10
474.226171805435
 20
234.9999211728
  0
LWPOLYLINE
  5
1CC
330
44
100
AcDbEntity
  8
0
  6
Continuous
 62
     7
100
AcDbPolyline
 90
        2
 70
     0
 43
0.15
 10
474.226171805435
 20
235.0999228656
 10
473.443594484535
 20
235.0999228656
  0
LWPOLYLINE
  5
1CD
330
44
100
AcDbEntity
  8
0
  6
Continuous
 62
     7
100
AcDbPolyline
 90
        2
 70
     0
 43
0.15
 10
472.878399028335
 20
235.0999228656
 10
472.878399028335
 20
234.9999211728
  0
LWPOLYLINE
  5
1CE
330
44
100
AcDbEntity
  8
0
  6
Continuous
 62
     7
100
AcDbPolyline
 90
        2
 70
     0
 43
0.15
 10
472.878399028335
 20
235.0999228656
 10
472.052343844335
 20
235.0999228656
  0
LWPOLYLINE
  5
1CF
330
44
100
AcDbEntity
  8
0
  6
Continuous
 62
     7
100
AcDbPolyline
 90
        2
 70
     0
 43
0.15
 10
472.052343844335
 20
234.9999211728
 10
472.052343844335
 20
235.0999228656
  0
LWPOLYLINE
  5
1D0
330
44
100
AcDbEntity
  8
0
  6
Continuous
 62
     7
100
AcDbPolyline
 90
        2
 70
     0
 43
0.15
 10
471.487148388235
 20
235.0999228656
 10
471.487148388235
 20
234.9999211728
  0
LWPOLYLINE
  5
1D1
330
44
100
AcDbEntity
  8
0
  6
Continuous
 62
     7
100
AcDbPolyline
 90
        2
 70
     0
 43
0.15
 10
471.487148388235
 20
235.0999228656
 10
470.704571067235
 20
235.0999228656
  0
LWPOLYLINE
  5
1D2
330
44
100
AcDbEntity
  8
0
  6
Continuous
 62
     7
100
AcDbPolyline
 90
        2
 70
     0
 43
0.15
 10
470.704571067235
 20
234.9999211728
 10
470.704571067235
 20
235.0999228656
  0
LWPOLYLINE
  5
1D3
330
44
100
AcDbEntity
  8
0
  6
Continuous
 62
     7
100
AcDbPolyline
 90
        2
 70
     0
 43
0.15
 10
466.530819146835
 20
235.0999228656
 10
466.530819146835
 20
234.9999211728
  0
LWPOLYLINE
  5
1D4
330
44
100
AcDbEntity
  8
0
  6
Continuous
 62
     7
100
AcDbPolyline
 90
        2
 70
     0
 43
0.15
 10
466.530819146835
 20
235.0999228656
 10
464.183085321335
 20
235.0999228656
  0
LWPOLYLINE
  5
1D5
330
44
100
AcDbEntity
  8
0
  6
Continuous
 62
     7
100
AcDbPolyline
 90
        2
 70
     0
 43
0.15
 10
464.183085321335
 20
234.9999211728
 10
464.183085321335
 20
235.0999228656
  0
LWPOLYLINE
  5
1D6
330
44
100
AcDbEntity
  8
0
  6
Continuous
 62
     7
100
AcDbPolyline
 90
        2
 70
     0
 43
0.15
 10
375.959179087435
 20
159.9999181926
 10
367.466284616735
 20
159.9999181926
  0
LWPOLYLINE
  5
1D7
330
44
100
AcDbEntity
  8
0
  6
Continuous
 62
     7
100
AcDbPolyline
 90
        2
 70
     0
 43
0.15
 10
375.959179087435
 20
132.9999230802
 10
375.959179087435
 20
159.9999181926
  0
LWPOLYLINE
  5
1D8
330
44
100
AcDbEntity
  8
0
  6
Continuous
 62
     7
100
AcDbPolyline
 90
        2
 70
     0
 43
0.15
 10
375.459178074135
 20
132.9999230802
 10
375.959179087435
 20
132.9999230802
  0
LWPOLYLINE
  5
1D9
330
44
100
AcDbEntity
  8
0
  6
Continuous
 62
     7
100
AcDbPolyline
 90
        2
 70
     0
 43
0.15
 10
378.859183474335
 20
130.9999190271001
 10
378.859183474335
 20
152.2999219596
  0
LWPOLYLINE
  5
1DA
330
44
100
AcDbEntity
  8
0
  6
Continuous
 62
     7
100
AcDbPolyline
 90
        2
 70
     0
 43
0.15
 10
378.859183474335
 20
152.2999219596
 10
379.359177037035
 20
152.2999219596
  0
LWPOLYLINE
  5
1DB
330
44
100
AcDbEntity
  8
0
  6
Continuous
 62
     7
100
AcDbPolyline
 90
        2
 70
     0
 43
0.15
 10
379.359177037035
 20
152.2999219596
 10
379.359177037035
 20
159.9999181926
  0
LWPOLYLINE
  5
1DC
330
44
100
AcDbEntity
  8
0
  6
Continuous
 62
     7
100
AcDbPolyline
 90
        2
 70
     0
 43
0.15
 10
393.659180684835
 20
194.5999823511
 10
391.952945574135
 20
194.5999823511
  0
LWPOLYLINE
  5
1DD
330
44
100
AcDbEntity
  8
0
  6
Continuous
 62
     7
100
AcDbPolyline
 90
        2
 70
     0
 43
0.15
 10
393.659180684835
 20
199.287828058
 10
393.659180684835
 20
194.5999823511
  0
LWPOLYLINE
  5
1DE
330
44
100
AcDbEntity
  8
0
  6
Continuous
 62
     7
100
AcDbPolyline
 90
        2
 70
     0
 43
0.15
 10
506.059179737135
 20
199.287828058
 10
498.307763322135
 20
220.5846868455
  0
LWPOLYLINE
  5
1DF
330
44
100
AcDbEntity
  8
0
  6
Continuous
 62
     7
100
AcDbPolyline
 90
        2
 70
     0
 43
0.15
 10
529.609177566835
 20
159.9999202054
 42
0.41421268438055
 10
528.609177566839
 20
158.999923203055
 42
0.41421268438055
  0
LWPOLYLINE
  5
1E0
330
44
100
AcDbEntity
  8
0
  6
Continuous
 62
     7
100
AcDbPolyline
 90
        2
 70
     0
 43
0.15
 10
520.259180564335
 20
125.2014909637
 42
0.4142135623731
 10
519.259180564335
 20
124.2014909637
 42
0.4142135623731
  0
LWPOLYLINE
  5
1E1
330
44
100
AcDbEntity
  8
0
  6
Continuous
 62
     7
100
AcDbPolyline
 90
        2
 70
     0
 43
0.15
 10
271.859180564335
 20
159.9999202054
 42
0.4142135623731
 10
269.859180564335
 20
157.9999202054
 42
0.4142135623731
  0
LWPOLYLINE
  5
1E2
330
44
100
AcDbEntity
  8
0
  6
Continuous
 62
     7
100
AcDbPolyline
 90
        2
 70
     0
 43
0.15
 10
629.859180564335
 20
157.9999202054
 42
0.4142135623731
 10
627.859180564335
 20
159.9999202054
 42
0.4142135623731
  0
LWPOLYLINE
  5
1E3
330
44
100
AcDbEntity
  8
0
  6
Continuous
 62
     7
100
AcDbPolyline
 90
        2
 70
     0
 43
0.15
 10
380.459180564335
 20
124.2014909637
 42
0.4142135623731
 10
379.459180564335
 20
125.2014909637
 42
0.4142135623731
  0
LWPOLYLINE
  5
1E4
330
44
100
AcDbEntity
  8
0
  6
Continuous
 62
     7
100
AcDbPolyline
 90
        2
 70
     0
 43
0.15
 10
371.109183561931
 20
158.999923203055
 42
0.41421268438055
 10
370.109183561935
 20
159.9999202054
 42
0.41421268438055
  0
LWPOLYLINE
  5
1E5
330
44
100
AcDbEntity
  8
0
  6
Continuous
 62
     7
100
AcDbPolyline
 90
        2
 70
     0
 43
0.15
 10
520.259180564335
 20
112.500000092
 42
0.4142135623731
 10
522.759180564335
 20
115.000000092
 42
0.4142135623731
  0
LWPOLYLINE
  5
1E6
330
44
100
AcDbEntity
  8
0
  6
Continuous
 62
     7
100
AcDbPolyline
 90
        2
 70
     0
 43
0.15
 10
376.959180564335
 20
115.000000092
 42
0.4142135623731
 10
379.459180564335
 20
112.500000092
 42
0.4142135623731
  0
LWPOLYLINE
  5
1E7
330
44
100
AcDbEntity
  8
0
  6
Continuous
 62
     7
100
AcDbPolyline
 90
        2
 70
     0
 43
0.15
 10
386.359180564335
 20
115.000000092
 42
0.4142135623731
 10
385.359180564335
 20
116.000000092
 42
0.4142135623731
  0
LWPOLYLINE
  5
1E8
330
44
100
AcDbEntity
  8
0
  6
Continuous
 62
     7
100
AcDbPolyline
 90
        2
 70
     0
 43
0.15
 10
514.359180564335
 20
116.000000092
 42
0.4142135623731
 10
513.359180564335
 20
115.000000092
 42
0.4142135623731
  0
LWPOLYLINE
  5
1E9
330
44
100
AcDbEntity
  8
0
  6
Continuous
 62
     7
100
AcDbPolyline
 90
        2
 70
     0
 43
0.15
 10
380.459180564335
 20
117.000000092
 42
0.4142135623731
 10
381.459180564335
 20
116.000000092
 42
0.4142135623731
  0
LWPOLYLINE
  5
1EA
330
44
100
AcDbEntity
  8
0
  6
Continuous
 62
     7
100
AcDbPolyline
 90
        2
 70
     0
 43
0.15
 10
518.259180564335
 20
116.000000092
 42
0.4142135623731
 10
519.259180564335
 20
117.000000092
 42
0.4142135623731
  0
LWPOLYLINE
  5
1EB
330
44
100
AcDbEntity
  8
0
  6
Continuous
 62
     7
100
AcDbPolyline
 90
        2
 70
     0
 43
0.15
 10
519.109180564335
 20
125.2014909637
 42
0.4142135623731
 10
517.109180564335
 20
127.2014909637
 42
0.4142135623731
  0
LWPOLYLINE
  5
1EC
330
44
100
AcDbEntity
  8
0
  6
Continuous
 62
     7
100
AcDbPolyline
 90
        2
 70
     0
 43
0.15
 10
516.609180564335
 20
129.7014909637
 42
0.4142135623731
 10
514.609180564335
 20
127.7014909637
 42
0.4142135623731
  0
LWPOLYLINE
  5
1ED
330
44
100
AcDbEntity
  8
0
  6
Continuous
 62
     7
100
AcDbPolyline
 90
        2
 70
     0
 43
0.15
 10
385.109180564335
 20
127.7014909637
 42
0.4142135623731
 10
383.109180564335
 20
129.7014909637
 42
0.4142135623731
  0
LWPOLYLINE
  5
1EE
330
44
100
AcDbEntity
  8
0
  6
Continuous
 62
     7
100
AcDbPolyline
 90
        2
 70
     0
 43
0.15
 10
382.609180564335
 20
127.2014909637
 42
0.4142135623731
 10
380.609180564335
 20
125.2014909637
 42
0.4142135623731
  0
LWPOLYLINE
  5
1EF
330
44
100
AcDbEntity
  8
0
  6
Continuous
 62
     7
100
AcDbPolyline
 90
        2
 70
     0
 43
0.15
 10
401.410598660635
 20
234.9999262054
 42
0.31529878994921
 10
387.31520932887
 20
225.1302283004
 42
0.31529878994921
  0
LWPOLYLINE
  5
1F0
330
44
100
AcDbEntity
  8
0
  6
Continuous
 62
     7
100
AcDbPolyline
 90
        2
 70
     0
 43
0.15
 10
524.259180564335
 20
130.9999202054
 42
0.4142135623731
 10
525.259180564335
 20
131.9999202054
 42
0.4142135623731
  0
LWPOLYLINE
  5
1F1
330
44
100
AcDbEntity
  8
0
  6
Continuous
 62
     7
100
AcDbPolyline
 90
        2
 70
     0
 43
0.15
 10
525.259180564335
 20
131.9999202054
 42
0.4142135623731
 10
524.259180564335
 20
132.9999202054
 42
0.4142135623731
  0
LWPOLYLINE
  5
1F2
330
44
100
AcDbEntity
  8
0
  6
Continuous
 62
     7
100
AcDbPolyline
 90
        2
 70
     0
 43
0.15
 10
512.4031517998
 20
225.1302283004
 42
0.31529878994921
 10
498.307762468035
 20
234.9999262054
 42
0.31529878994921
  0
LWPOLYLINE
  5
1F3
330
44
100
AcDbEntity
  8
0
  6
Continuous
 62
     7
100
AcDbPolyline
 90
        2
 70
     0
 43
0.15
 10
375.459180564335
 20
132.9999202054
 42
0.4142135623731
 10
374.459180564335
 20
131.9999202054
 42
0.4142135623731
  0
LWPOLYLINE
  5
1F4
330
44
100
AcDbEntity
  8
0
  6
Continuous
 62
     7
100
AcDbPolyline
 90
        2
 70
     0
 43
0.15
 10
374.459180564335
 20
131.9999202054
 42
0.4142135623731
 10
375.459180564335
 20
130.9999202054
 42
0.4142135623731
  0
SPLINE
  5
1F5
330
44
100
AcDbEntity
  8
0
  6
Continuous
 62
     7
100
AcDbSpline
210
0.0
220
0.0
230
1.0
 70
    24
 71
     3
 72
     9
 73
     5
 74
     3
 42
0.0000000001
 43
0.0000000001
 44
0.00000001
 40
0.0
 40
0.0
 40
0.0
 40
0.0
 40
0.2976419018994534
 40
0.5952838037979973
 40
0.5952838037979973
 40
0.5952838037979973
 40
0.5952838037979973
 10
503.8352038128689
 20
199.32016335501
 30
0.0
 10
503.9344177801687
 20
199.3201633550137
 30
0.0
 10
504.1328457147679
 20
199.320163355021
 30
0.0
 10
504.3312736493674
 20
199.3201633550283
 30
0.0
 10
504.4304876166669
 20
199.320163355032
 30
0.0
 11
503.8352038128689
 21
199.32016335501
 31
0.0
 11
504.1328457147683
 21
199.320163355021
 31
0.0
 11
504.4304876166669
 21
199.320163355032
 31
0.0
  0
SPLINE
  5
1F6
330
44
100
AcDbEntity
  8
0
  6
Continuous
 62
     7
100
AcDbSpline
210
0.0
220
0.0
230
1.0
 70
    24
 71
     3
 72
     9
 73
     5
 74
     3
 42
0.0000000001
 43
0.0000000001
 44
0.00000001
 40
0.0
 40
0.0
 40
0.0
 40
0.0
 40
0.574999999886245
 40
1.149999999771865
 40
1.149999999771865
 40
1.149999999771865
 40
1.149999999771865
 10
497.944617523328
 20
199.3201633551711
 30
0.0
 10
498.1362841899568
 20
199.3201633551588
 30
0.0
 10
498.5196175232139
 20
199.320163355134
 30
0.0
 10
498.9029508564714
 20
199.3201633551093
 30
0.0
 10
499.0946175230999
 20
199.320163355097
 30
0.0
 11
497.944617523328
 21
199.3201633551711
 31
0.0
 11
498.5196175232143
 21
199.320163355134
 31
0.0
 11
499.0946175230999
 21
199.320163355097
 31
0.0
  0
SPLINE
  5
1F7
330
44
100
AcDbEntity
  8
0
  6
Continuous
 62
     7
100
AcDbSpline
210
0.0
220
0.0
230
1.0
 70
    24
 71
     3
 72
     9
 73
     5
 74
     3
 42
0.0000000001
 43
0.0000000001
 44
0.00000001
 40
0.0
 40
0.0
 40
0.0
 40
0.0
 40
0.8131727984503527
 40
1.626345596899966
 40
1.626345596899966
 40
1.626345596899966
 40
1.626345596899966
 10
488.77708816874
 20
199.320163354938
 30
0.0
 10
489.0481457682235
 20
199.3201633549458
 30
0.0
 10
489.59026096719
 20
199.3201633549614
 30
0.0
 10
490.1323761661567
 20
199.3201633549771
 30
0.0
 10
490.40343376564
 20
199.3201633549849
 30
0.0
 11
488.77708816874
 21
199.320163354938
 31
0.0
 11
489.5902609671904
 21
199.3201633549615
 31
0.0
 11
490.40343376564
 21
199.3201633549849
 31
0.0
  0
SPLINE
  5
1F8
330
44
100
AcDbEntity
  8
0
  6
Continuous
 62
     7
100
AcDbSpline
210
0.0
220
0.0
230
1.0
 70
    24
 71
     3
 72
     9
 73
     5
 74
     3
 42
0.0000000001
 43
0.0000000001
 44
0.00000001
 40
0.0
 40
0.0
 40
0.0
 40
0.0
 40
0.9959292143654466
 40
1.991858428731007
 40
1.991858428731007
 40
1.991858428731007
 40
1.991858428731007
 10
476.95736772685
 20
199.320163355026
 30
0.0
 10
477.2893441316385
 20
199.320163355027
 30
0.0
 10
477.9532969412154
 20
199.3201633550291
 30
0.0
 10
478.6172497507926
 20
199.3201633550304
 30
0.0
 10
478.949226155581
 20
199.320163355031
 30
0.0
 11
476.95736772685
 21
199.320163355026
 31
0.0
 11
477.9532969412155
 21
199.3201633550289
 31
0.0
 11
478.949226155581
 21
199.320163355031
 31
0.0
  0
SPLINE
  5
1F9
330
44
100
AcDbEntity
  8
0
  6
Continuous
 62
     7
100
AcDbSpline
210
0.0
220
0.0
230
1.0
 70
    24
 71
     3
 72
     9
 73
     5
 74
     3
 42
0.0000000001
 43
0.0000000001
 44
0.00000001
 40
0.0
 40
0.0
 40
0.0
 40
0.0
 40
1.110814700162393
 40
2.221629400323991
 40
2.221629400323991
 40
2.221629400323991
 40
2.221629400323991
 10
463.290950611649
 20
199.320163355058
 30
0.0
 10
463.6612221783698
 20
199.3201633550555
 30
0.0
 10
464.4017653118111
 20
199.3201633550505
 30
0.0
 10
465.1423084452525
 20
199.3201633550455
 30
0.0
 10
465.512580011973
 20
199.320163355043
 30
0.0
 11
463.290950611649
 21
199.320163355058
 31
0.0
 11
464.4017653118114
 21
199.3201633550505
 31
0.0
 11
465.512580011973
 21
199.320163355043
 31
0.0
  0
SPLINE
  5
1FA
330
44
100
AcDbEntity
  8
0
  6
Continuous
 62
     7
100
AcDbSpline
210
0.0
220
0.0
230
1.0
 70
    24
 71
     3
 72
     9
 73
     5
 74
     3
 42
0.0000000001
 43
0.0000000001
 44
0.00000001
 40
0.0
 40
0.0
 40
0.0
 40
0.0
 40
1.150000000029138
 40
2.300000000058958
 40
2.300000000058958
 40
2.300000000058958
 40
2.300000000058958
 10
448.709180564307
 20
199.320163355037
 30
0.0
 10
449.0925138976501
 20
199.320163355037
 30
0.0
 10
449.8591805643364
 20
199.320163355037
 30
0.0
 10
450.6258472310227
 20
199.320163355037
 30
0.0
 10
451.009180564366
 20
199.320163355037
 30
0.0
 11
448.709180564307
 21
199.320163355037
 31
0.0
 11
449.8591805643362
 21
199.320163355037
 31
0.0
 11
451.009180564366
 21
199.320163355037
 31
0.0
  0
SPLINE
  5
1FB
330
44
100
AcDbEntity
  8
0
  6
Continuous
 62
     7
100
AcDbSpline
210
0.0
220
0.0
230
1.0
 70
    24
 71
     3
 72
     9
 73
     5
 74
     3
 42
0.0000000001
 43
0.0000000001
 44
0.00000001
 40
0.0
 40
0.0
 40
0.0
 40
0.0
 40
1.110814700162052
 40
2.221629400324048
 40
2.221629400324048
 40
2.221629400324048
 40
2.221629400324048
 10
434.205781116699
 20
199.320163355043
 30
0.0
 10
434.5760526834196
 20
199.3201633550455
 30
0.0
 10
435.316595816861
 20
199.3201633550505
 30
0.0
 10
436.0571389503025
 20
199.3201633550562
 30
0.0
 10
436.427410517023
 20
199.320163355059
 30
0.0
 11
434.205781116699
 21
199.320163355043
 31
0.0
 11
435.316595816861
 21
199.3201633550507
 31
0.0
 11
436.427410517023
 21
199.320163355059
 31
0.0
  0
SPLINE
  5
1FC
330
44
100
AcDbEntity
  8
0
  6
Continuous
 62
     7
100
AcDbSpline
210
0.0
220
0.0
230
1.0
 70
    24
 71
     3
 72
     9
 73
     5
 74
     3
 42
0.0000000001
 43
0.0000000001
 44
0.00000001
 40
0.0
 40
0.0
 40
0.0
 40
0.0
 40
0.9959292143659582
 40
1.991858428731973
 40
1.991858428731973
 40
1.991858428731973
 40
1.991858428731973
 10
420.769134973091
 20
199.320163355031
 30
0.0
 10
421.1011113778796
 20
199.3201633550304
 30
0.0
 10
421.765064187457
 20
199.3201633550291
 30
0.0
 10
422.4290169970342
 20
199.320163355027
 30
0.0
 10
422.760993401823
 20
199.320163355026
 30
0.0
 11
420.769134973091
 21
199.320163355031
 31
0.0
 11
421.765064187457
 21
199.3201633550289
 31
0.0
 11
422.760993401823
 21
199.320163355026
 31
0.0
  0
SPLINE
  5
1FD
330
44
100
AcDbEntity
  8
0
  6
Continuous
 62
     7
100
AcDbSpline
210
0.0
220
0.0
230
1.0
 70
    24
 71
     3
 72
     9
 73
     5
 74
     3
 42
0.0000000001
 43
0.0000000001
 44
0.00000001
 40
0.0
 40
0.0
 40
0.0
 40
0.0
 40
0.8131727984500117
 40
1.626345596900023
 40
1.626345596900023
 40
1.626345596900023
 40
1.626345596900023
 10
409.314927363032
 20
199.3201633549849
 30
0.0
 10
409.5859849625153
 20
199.3201633549771
 30
0.0
 10
410.1281001614819
 20
199.3201633549614
 30
0.0
 10
410.6702153604487
 20
199.3201633549458
 30
0.0
 10
410.941272959932
 20
199.320163354938
 30
0.0
 11
409.314927363032
 21
199.3201633549849
 31
0.0
 11
410.128100161482
 21
199.3201633549615
 31
0.0
 11
410.941272959932
 21
199.320163354938
 31
0.0
  0
SPLINE
  5
1FE
330
44
100
AcDbEntity
  8
0
  6
Continuous
 62
     7
100
AcDbSpline
210
0.0
220
0.0
230
1.0
 70
    24
 71
     3
 72
     9
 73
     5
 74
     3
 42
0.0000000001
 43
0.0000000001
 44
0.00000001
 40
0.0
 40
0.0
 40
0.0
 40
0.0
 40
0.5749999998865292
 40
1.149999999773001
 40
1.149999999773001
 40
1.149999999773001
 40
1.149999999773001
 10
400.623743605572
 20
199.320163355097
 30
0.0
 10
400.8154102722008
 20
199.3201633551096
 30
0.0
 10
401.1987436054585
 20
199.3201633551346
 30
0.0
 10
401.5820769387161
 20
199.3201633551589
 30
0.0
 10
401.773743605345
 20
199.3201633551711
 30
0.0
 11
400.623743605572
 21
199.320163355097
 31
0.0
 11
401.1987436054585
 21
199.3201633551344
 31
0.0
 11
401.773743605345
 21
199.3201633551711
 31
0.0
  0
SPLINE
  5
1FF
330
44
100
AcDbEntity
  8
0
  6
Continuous
 62
     7
100
AcDbSpline
210
0.0
220
0.0
230
1.0
 70
    24
 71
     3
 72
     9
 73
     5
 74
     3
 42
0.0000000001
 43
0.0000000001
 44
0.00000001
 40
0.0
 40
0.0
 40
0.0
 40
0.0
 40
0.2976419018994534
 40
0.5952838037979973
 40
0.5952838037979973
 40
0.5952838037979973
 40
0.5952838037979973
 10
395.287873512005
 20
199.320163355031
 30
0.0
 10
395.3870874793048
 20
199.3201633550275
 30
0.0
 10
395.585515413904
 20
199.3201633550205
 30
0.0
 10
395.7839433485034
 20
199.3201633550142
 30
0.0
 10
395.883157315803
 20
199.320163355011
 30
0.0
 11
395.287873512005
 21
199.320163355031
 31
0.0
 11
395.5855154139044
 21
199.3201633550207
 31
0.0
 11
395.883157315803
 21
199.320163355011
 31
0.0
  0
DIMENSION
  5
214
330
44
100
AcDbEntity
  8
1
100
AcDbDimension
  2
*D3
 10
255.834210414093
 20
159.9999181926
 30
0.0
 11
248.834210414093
 21
80.1586282940515
 31
0.0
 70
    32
  1
<>
 71
     5
 42
-1.0
 53
90.0
  3
ME10_DIM_10
100
AcDbAlignedDimension
 13
372.609181984235
 23
0.0
 33
0.0
 14
271.859175248935
 24
159.9999181926
 34
0.0
 50
90.0
100
AcDbRotatedDimension
  0
DIMENSION
  5
21F
330
44
100
AcDbEntity
  8
1
100
AcDbDimension
  2
*D4
 10
369.759178443735
 20
-29.9051058120813
 30
0.0
 11
448.876761435108
 21
-22.9051058120813
 31
0.0
 70
    33
  1
<>
 71
     5
 42
-1.0
 53
0.00013888888889
  3
ME10_DIM_11
100
AcDbAlignedDimension
 13
529.959178252935
 23
4.99999895689999
 33
0.0
 14
369.759178443735
 24
4.99999895689999
 34
0.0
  0
DIMENSION
  5
22A
330
44
100
AcDbEntity
  8
1
100
AcDbDimension
  2
*D5
 10
269.8591801827766
 20
257.1990222102679
 30
0.0
 11
447.6316602789052
 21
264.19902289405
 31
0.0
 70
    33
  1
<>
 71
     5
 42
-1.0
 53
0.00013888888889
  3
ME10_DIM_12
100
AcDbAlignedDimension
 13
629.859185500935
 23
157.9999215901
 33
0.0
 14
269.859180564335
 24
157.9999202054
 34
0.0
  0
HATCH
  5
22B
330
44
100
AcDbEntity
  8
0
  6
Continuous
 62
     7
100
AcDbHatch
 10
0.0
 20
0.0
 30
0.0
210
0.0
220
0.0
230
1.0
  2
CUSTOM0
 70
     0
 71
     0
 91
        1
 92
        1
 93
      118
 72
     1
 10
506.059180564366
 20
199.287833105163
 11
506.059180564366
 21
194.5999857053371
 72
     1
 10
506.059180564366
 20
194.5999857053371
 11
507.765417124994
 21
194.5999857053371
 72
     1
 10
507.765417124994
 20
194.5999857053371
 11
520.358808792603
 21
159.9999192513201
 72
     1
 10
520.358808792603
 20
159.9999192513201
 11
520.3591805643659
 21
159.999920205351
 72
     1
 10
520.3591805643659
 20
159.999920205351
 11
520.3591805643659
 21
152.299920205351
 72
     1
 10
520.3591805643659
 20
152.299920205351
 11
520.8591805643659
 21
152.299920205351
 72
     1
 10
520.8591805643659
 20
152.299920205351
 11
520.8591805643659
 21
130.999920205351
 72
     1
 10
520.8591805643659
 20
130.999920205351
 11
524.259180564335
 21
130.9999202054
 72
     1
 10
524.259180564335
 20
130.9999202054
 11
524.457849895161
 21
131.01985362751
 72
     1
 10
524.457849895161
 20
131.01985362751
 11
524.648598906675
 21
131.078859211349
 72
     1
 10
524.648598906675
 20
131.078859211349
 11
524.823823037761
 21
131.174584590442
 72
     1
 10
524.823823037761
 20
131.174584590442
 11
524.9765366552659
 21
131.303213496004
 72
     1
 10
524.9765366552659
 20
131.303213496004
 11
525.100651549174
 21
131.4596178994831
 72
     1
 10
525.100651549174
 20
131.4596178994831
 11
525.191219650333
 21
131.637562450875
 72
     1
 10
525.191219650333
 20
131.637562450875
 11
525.244630294355
 21
131.829953062451
 72
     1
 10
525.244630294355
 20
131.829953062451
 11
525.259180564335
 21
131.9999202054
 72
     1
 10
525.259180564335
 20
131.9999202054
 11
525.239247142207
 21
132.1985895361461
 72
     1
 10
525.239247142207
 20
132.1985895361461
 11
525.180241558369
 21
132.38933854766
 72
     1
 10
525.180241558369
 20
132.38933854766
 11
525.084516179276
 21
132.564562678746
 72
     1
 10
525.084516179276
 20
132.564562678746
 11
524.955887273713
 21
132.717276296251
 72
     1
 10
524.955887273713
 20
132.717276296251
 11
524.799482870234
 21
132.841391190159
 72
     1
 10
524.799482870234
 20
132.841391190159
 11
524.621538318843
 21
132.931959291319
 72
     1
 10
524.621538318843
 20
132.931959291319
 11
524.429147707266
 21
132.98536993534
 72
     1
 10
524.429147707266
 20
132.98536993534
 11
524.259180564335
 21
132.9999202054
 72
     1
 10
524.259180564335
 20
132.9999202054
 11
523.759180564366
 21
132.999920205351
 72
     1
 10
523.759180564366
 20
132.999920205351
 11
523.759180564366
 21
159.999920205351
 72
     1
 10
523.759180564366
 20
159.999920205351
 11
532.252078382214
 21
159.999920205351
 72
     1
 10
532.252078382214
 20
159.999920205351
 11
535.4446453822139
 21
161.8242442053511
 72
     1
 10
535.4446453822139
 20
161.8242442053511
 11
512.4031517998
 21
225.1302283004
 72
     1
 10
512.4031517998
 20
225.1302283004
 11
511.102948769811
 21
227.82828538873
 72
     1
 10
511.102948769811
 20
227.82828538873
 11
509.292642039474
 21
230.2142505002809
 72
     1
 10
509.292642039474
 20
230.2142505002809
 11
507.044402825417
 21
232.193002735357
 72
     1
 10
507.044402825417
 20
232.193002735357
 11
504.447861330376
 21
233.685655486659
 72
     1
 10
504.447861330376
 20
233.685655486659
 11
501.6065334698969
 21
234.632701399332
 72
     1
 10
501.6065334698969
 20
234.632701399332
 11
498.63369401945
 21
234.996384741413
 72
     1
 10
498.63369401945
 20
234.996384741413
 11
498.307762468035
 21
234.9999262054
 72
     1
 10
498.307762468035
 20
234.9999262054
 11
479.28826260662
 21
234.999926205351
 72
     1
 10
479.28826260662
 20
234.999926205351
 11
479.28826260662
 21
235.099926205351
 72
     1
 10
479.28826260662
 20
235.099926205351
 11
476.965196087864
 21
235.099926205351
 72
     1
 10
476.965196087864
 20
235.099926205351
 11
476.965196087864
 21
234.999926205351
 72
     1
 10
476.965196087864
 20
234.999926205351
 11
476.486955155818
 21
234.999926205351
 72
     1
 10
476.486955155818
 20
234.999926205351
 11
476.486955155818
 21
235.099926205351
 72
     1
 10
476.486955155818
 20
235.099926205351
 11
474.573986155818
 21
235.099926205351
 72
     1
 10
474.573986155818
 20
235.099926205351
 11
474.573986155818
 21
234.999926205351
 72
     1
 10
474.573986155818
 20
234.999926205351
 11
474.226172349505
 21
234.999926205351
 72
     1
 10
474.226172349505
 20
234.999926205351
 11
474.226172349505
 21
235.099926205351
 72
     1
 10
474.226172349505
 20
235.099926205351
 11
473.443594655817
 21
235.099926205351
 72
     1
 10
473.443594655817
 20
235.099926205351
 11
473.443594655817
 21
234.999926205351
 72
     1
 10
473.443594655817
 20
234.999926205351
 11
472.878399155817
 21
234.999926205351
 72
     1
 10
472.878399155817
 20
234.999926205351
 11
472.878399155817
 21
235.099926205351
 72
     1
 10
472.878399155817
 20
235.099926205351
 11
472.052344458294
 21
235.099926205351
 72
     1
 10
472.052344458294
 20
235.099926205351
 11
472.052344458294
 21
234.999926205351
 72
     1
 10
472.052344458294
 20
234.999926205351
 11
471.487149155817
 21
234.999926205351
 72
     1
 10
471.487149155817
 20
234.999926205351
 11
471.487149155817
 21
235.099926205351
 72
     1
 10
471.487149155817
 20
235.099926205351
 11
470.704571155818
 21
235.099926205351
 72
     1
 10
470.704571155818
 20
235.099926205351
 11
470.704571155818
 21
234.999926205351
 72
     1
 10
470.704571155818
 20
234.999926205351
 11
469.617657155818
 21
234.999926205351
 72
     1
 10
469.617657155818
 20
234.999926205351
 11
469.617657155818
 21
235.099926205351
 72
     1
 10
469.617657155818
 20
235.099926205351
 11
468.835078155818
 21
235.099926205351
 72
     1
 10
468.835078155818
 20
235.099926205351
 11
468.835078155818
 21
234.999926205351
 72
     1
 10
468.835078155818
 20
234.999926205351
 11
467.748164155818
 21
234.999926205351
 72
     1
 10
467.748164155818
 20
234.999926205351
 11
467.748164155818
 21
235.099926205351
 72
     1
 10
467.748164155818
 20
235.099926205351
 11
466.965586155818
 21
235.099926205351
 72
     1
 10
466.965586155818
 20
235.099926205351
 11
466.965586155818
 21
234.999926205351
 72
     1
 10
466.965586155818
 20
234.999926205351
 11
466.530819655818
 21
234.999926205351
 72
     1
 10
466.530819655818
 20
234.999926205351
 11
466.530819655818
 21
235.099926205351
 72
     1
 10
466.530819655818
 20
235.099926205351
 11
464.183086155818
 21
235.099926205351
 72
     1
 10
464.183086155818
 20
235.099926205351
 11
464.183086155818
 21
234.999926205351
 72
     1
 10
464.183086155818
 20
234.999926205351
 11
463.804223155818
 21
234.999926205351
 72
     1
 10
463.804223155818
 20
234.999926205351
 11
463.804223155818
 21
235.099926205351
 72
     1
 10
463.804223155818
 20
235.099926205351
 11
463.065121655818
 21
235.099926205351
 72
     1
 10
463.065121655818
 20
235.099926205351
 11
463.065121655818
 21
234.999926205351
 72
     1
 10
463.065121655818
 20
234.999926205351
 11
462.487499155818
 21
234.999926205351
 72
     1
 10
462.487499155818
 20
234.999926205351
 11
462.487499155818
 21
235.099926205351
 72
     1
 10
462.487499155818
 20
235.099926205351
 11
461.661445155818
 21
235.099926205351
 72
     1
 10
461.661445155818
 20
235.099926205351
 11
461.661445155818
 21
234.999926205351
 72
     1
 10
461.661445155818
 20
234.999926205351
 11
401.410598660635
 21
234.9999262054
 72
     1
 10
401.410598660635
 20
234.9999262054
 11
398.430558698726
 21
234.70092487297
 72
     1
 10
398.430558698726
 20
234.70092487297
 11
395.569323526022
 21
233.8158411153951
 72
     1
 10
395.569323526022
 20
233.8158411153951
 11
392.940961559726
 21
232.379960428997
 72
     1
 10
392.940961559726
 20
232.379960428997
 11
390.650257297159
 21
230.450526845559
 72
     1
 10
390.650257297159
 20
230.450526845559
 11
388.788533888533
 21
228.1044607933741
 72
     1
 10
388.788533888533
 20
228.1044607933741
 11
387.430012371143
 21
225.435292522502
 72
     1
 10
387.430012371143
 20
225.435292522502
 11
387.31520932887
 21
225.1302283004
 72
     1
 10
387.31520932887
 20
225.1302283004
 11
364.273715746518
 21
161.8242442053511
 72
     1
 10
364.273715746518
 20
161.8242442053511
 11
367.466282746518
 21
159.999920205351
 72
     1
 10
367.466282746518
 20
159.999920205351
 11
375.959180564366
 21
159.999920205351
 72
     1
 10
375.959180564366
 20
159.999920205351
 11
375.959180564366
 21
132.999920205351
 72
     1
 10
375.959180564366
 20
132.999920205351
 11
375.459180564335
 21
132.9999202054
 72
     1
 10
375.459180564335
 20
132.9999202054
 11
375.260511233571
 21
132.979986783193
 72
     1
 10
375.260511233571
 20
132.979986783193
 11
375.069762222057
 21
132.920981199354
 72
     1
 10
375.069762222057
 20
132.920981199354
 11
374.894538090971
 21
132.8252558202611
 72
     1
 10
374.894538090971
 20
132.8252558202611
 11
374.741824473466
 21
132.696626914699
 72
     1
 10
374.741824473466
 20
132.696626914699
 11
374.617709579558
 21
132.54022251122
 72
     1
 10
374.617709579558
 20
132.54022251122
 11
374.527141478399
 21
132.362277959828
 72
     1
 10
374.527141478399
 20
132.362277959828
 11
374.473730834377
 21
132.169887348252
 72
     1
 10
374.473730834377
 20
132.169887348252
 11
374.459180564335
 21
131.9999202054
 72
     1
 10
374.459180564335
 20
131.9999202054
 11
374.479113986525
 21
131.801250874556
 72
     1
 10
374.479113986525
 20
131.801250874556
 11
374.538119570363
 21
131.610501863043
 72
     1
 10
374.538119570363
 20
131.610501863043
 11
374.633844949456
 21
131.435277731956
 72
     1
 10
374.633844949456
 20
131.435277731956
 11
374.762473855019
 21
131.282564114452
 72
     1
 10
374.762473855019
 20
131.282564114452
 11
374.918878258498
 21
131.158449220544
 72
     1
 10
374.918878258498
 20
131.158449220544
 11
375.096822809889
 21
131.0678811193839
 72
     1
 10
375.096822809889
 20
131.0678811193839
 11
375.289213421466
 21
131.014470475363
 72
     1
 10
375.289213421466
 20
131.014470475363
 11
375.459180564335
 21
130.9999202054
 72
     1
 10
375.459180564335
 20
130.9999202054
 11
378.859180564366
 21
130.999920205351
 72
     1
 10
378.859180564366
 20
130.999920205351
 11
378.859180564366
 21
152.299920205351
 72
     1
 10
378.859180564366
 20
152.299920205351
 11
379.359180564366
 21
152.299920205351
 72
     1
 10
379.359180564366
 20
152.299920205351
 11
379.359180564366
 21
159.999920205351
 72
     1
 10
379.359180564366
 20
159.999920205351
 11
379.359552336129
 21
159.9999192513201
 72
     1
 10
379.359552336129
 20
159.9999192513201
 11
391.952944003738
 21
194.5999857053371
 72
     1
 10
391.952944003738
 20
194.5999857053371
 11
393.659180564366
 21
194.5999857053371
 72
     1
 10
393.659180564366
 20
194.5999857053371
 11
393.659180564366
 21
199.287833105163
 72
     1
 10
393.659180564366
 20
199.287833105163
 11
401.410598660652
 21
220.584683733113
 72
     1
 10
401.410598660652
 20
220.584683733113
 11
401.410598660652
 21
220.199926205351
 72
     1
 10
401.410598660652
 20
220.199926205351
 11
498.30776246808
 21
220.199926205351
 72
     1
 10
498.30776246808
 20
220.199926205351
 11
498.30776246808
 21
220.584683733113
 72
     1
 10
498.30776246808
 20
220.584683733113
 11
506.059180564366
 21
199.287833105163
 97
        0
 75
     1
 76
     2
 52
0.0
 41
1.0
 77
     0
 78
     1
 53
44.99999999999998
 43
0.0
 44
0.0
 45
-4.490128060534577
 46
0.0000000000000018
 79
     0
 98
        1
 10
0.0
 20
0.0
  0
HATCH
  5
22C
330
44
100
AcDbEntity
  8
0
  6
Continuous
 62
     7
100
AcDbHatch
 10
0.0
 20
0.0
 30
0.0
210
0.0
220
0.0
230
1.0
  2
CUSTOM1
 70
     0
 71
     0
 91
        1
 92
        1
 93
       13
 72
     1
 10
383.109180564366
 20
68.05094548826497
 11
386.109180564366
 21
70.70000209203897
 72
     1
 10
386.109180564366
 20
70.70000209203897
 11
386.609180564366
 21
70.70000209203897
 72
     1
 10
386.609180564366
 20
70.70000209203897
 11
386.609180564366
 21
73.00000209203898
 72
     1
 10
386.609180564366
 20
73.00000209203898
 11
382.609180564366
 21
73.00000209203898
 72
     1
 10
382.609180564366
 20
73.00000209203898
 11
382.609180564366
 21
77.00000209203898
 72
     1
 10
382.609180564366
 20
77.00000209203898
 11
380.359180564366
 21
77.00000209203898
 72
     1
 10
380.359180564366
 20
77.00000209203898
 11
380.359180564366
 21
68.29076831393701
 72
     1
 10
380.359180564366
 20
68.29076831393701
 11
372.859180564366
 21
61.668126804503
 72
     1
 10
372.859180564366
 20
61.668126804503
 11
372.859180564366
 21
59.00000209203898
 72
     1
 10
372.859180564366
 20
59.00000209203898
 11
375.107951041591
 21
60.98570885305998
 72
     1
 10
375.107951041591
 20
60.98570885305998
 11
376.431755548938
 21
59.48652853491001
 72
     1
 10
376.431755548938
 20
59.48652853491001
 11
383.109180564366
 21
65.38282081268397
 72
     1
 10
383.109180564366
 20
65.38282081268397
 11
383.109180564366
 21
68.05094548826497
 97
        0
 75
     1
 76
     2
 52
0.0
 41
1.0
 77
     0
 78
     1
 53
44.99999999999998
 43
0.0
 44
0.0
 45
-4.490128060534577
 46
0.0000000000000018
 79
     0
 98
        1
 10
0.0
 20
0.0
  0
HATCH
  5
22D
330
44
100
AcDbEntity
  8
0
  6
Continuous
 62
     7
100
AcDbHatch
 10
0.0
 20
0.0
 30
0.0
210
0.0
220
0.0
230
1.0
  2
CUSTOM2
 70
     0
 71
     0
 91
        1
 92
        1
 93
       13
 72
     1
 10
513.1091805643659
 20
73.00000209203802
 11
513.1091805643659
 21
70.700002092038
 72
     1
 10
513.1091805643659
 20
70.700002092038
 11
513.6091805643659
 21
70.700002092038
 72
     1
 10
513.6091805643659
 20
70.700002092038
 11
516.6091805643659
 21
68.05094548826497
 72
     1
 10
516.6091805643659
 20
68.05094548826497
 11
516.6091805643659
 21
65.38282081268397
 72
     1
 10
516.6091805643659
 20
65.38282081268397
 11
523.286605579794
 21
59.48652853491001
 72
     1
 10
523.286605579794
 20
59.48652853491001
 11
524.610410087142
 21
60.98570885305901
 72
     1
 10
524.610410087142
 20
60.98570885305901
 11
526.8591805643659
 21
59.00000209203802
 72
     1
 10
526.8591805643659
 20
59.00000209203802
 11
526.8591805643659
 21
61.66812680450198
 72
     1
 10
526.8591805643659
 20
61.66812680450198
 11
519.3591805643659
 21
68.29076831393598
 72
     1
 10
519.3591805643659
 20
68.29076831393598
 11
519.3591805643659
 21
77.00000209203802
 72
     1
 10
519.3591805643659
 20
77.00000209203802
 11
517.1091805643659
 21
77.00000209203802
 72
     1
 10
517.1091805643659
 20
77.00000209203802
 11
517.1091805643659
 21
73.00000209203802
 72
     1
 10
517.1091805643659
 20
73.00000209203802
 11
513.1091805643659
 21
73.00000209203802
 97
        0
 75
     1
 76
     2
 52
0.0
 41
1.0
 77
     0
 78
     1
 53
44.99999999999998
 43
0.0
 44
0.0
 45
-4.490128060534577
 46
0.0000000000000018
 79
     0
 98
        1
 10
0.0
 20
0.0
  0
HATCH
  5
22E
330
44
100
AcDbEntity
  8
0
  6
Continuous
 62
     7
100
AcDbHatch
 10
0.0
 20
0.0
 30
0.0
210
0.0
220
0.0
230
1.0
  2
CUSTOM3
 70
     0
 71
     0
 91
        1
 92
        1
 93
       22
 72
     1
 10
382.609180564335
 20
127.2014909637
 11
385.109180564366
 21
127.2014909636961
 72
     1
 10
385.109180564366
 20
127.2014909636961
 11
385.109180564335
 21
127.7014909637
 72
     1
 10
385.109180564335
 20
127.7014909637
 11
385.069313720049
 21
128.098829625287
 72
     1
 10
385.069313720049
 20
128.098829625287
 11
384.951302552372
 21
128.4803276483141
 72
     1
 10
384.951302552372
 20
128.4803276483141
 11
384.759851794185
 21
128.830775910486
 72
     1
 10
384.759851794185
 20
128.830775910486
 11
384.50259398306
 21
129.1362031454951
 72
     1
 10
384.50259398306
 20
129.1362031454951
 11
384.189785176102
 21
129.384432933312
 72
     1
 10
384.189785176102
 20
129.384432933312
 11
383.833896073319
 21
129.565569135631
 72
     1
 10
383.833896073319
 20
129.565569135631
 11
383.449114850167
 21
129.672390423673
 72
     1
 10
383.449114850167
 20
129.672390423673
 11
383.109180564335
 21
129.7014909637
 72
     1
 10
383.109180564335
 20
129.7014909637
 11
372.609180564366
 21
129.7014909636961
 72
     1
 10
372.609180564366
 20
129.7014909636961
 11
372.609180564366
 21
127.2014909636961
 72
     1
 10
372.609180564366
 20
127.2014909636961
 11
373.763880564366
 21
125.2014909636961
 72
     1
 10
373.763880564366
 20
125.2014909636961
 11
380.609180564335
 21
125.2014909637
 72
     1
 10
380.609180564335
 20
125.2014909637
 11
380.649047408684
 21
125.598829625287
 72
     1
 10
380.649047408684
 20
125.598829625287
 11
380.76705857636
 21
125.9803276483141
 72
     1
 10
380.76705857636
 20
125.9803276483141
 11
380.958509334547
 21
126.330775910486
 72
     1
 10
380.958509334547
 20
126.330775910486
 11
381.215767145672
 21
126.6362031454951
 72
     1
 10
381.215767145672
 20
126.6362031454951
 11
381.52857595263
 21
126.884432933312
 72
     1
 10
381.52857595263
 20
126.884432933312
 11
381.884465055413
 21
127.065569135631
 72
     1
 10
381.884465055413
 20
127.065569135631
 11
382.269246278566
 21
127.172390423673
 72
     1
 10
382.269246278566
 20
127.172390423673
 11
382.609180564335
 21
127.2014909637
 97
        0
 75
     1
 76
     2
 52
0.0
 41
1.0
 77
     0
 78
     1
 53
44.99999999999998
 43
0.0
 44
0.0
 45
-4.490128060534577
 46
0.0000000000000018
 79
     0
 98
        1
 10
0.0
 20
0.0
  0
HATCH
  5
22F
330
44
100
AcDbEntity
  8
0
  6
Continuous
 62
     7
100
AcDbHatch
 10
0.0
 20
0.0
 30
0.0
210
0.0
220
0.0
230
1.0
  2
CUSTOM4
 70
     0
 71
     0
 91
        1
 92
        1
 93
       22
 72
     1
 10
514.6091805643659
 20
127.2014909636961
 11
517.109180564335
 21
127.2014909637
 72
     1
 10
517.109180564335
 20
127.2014909637
 11
517.506519225956
 21
127.161624119379
 72
     1
 10
517.506519225956
 20
127.161624119379
 11
517.888017248983
 21
127.043612951702
 72
     1
 10
517.888017248983
 20
127.043612951702
 11
518.2384655111559
 21
126.852162193516
 72
     1
 10
518.2384655111559
 20
126.852162193516
 11
518.5438927461649
 21
126.594904382391
 72
     1
 10
518.5438927461649
 20
126.594904382391
 11
518.792122533982
 21
126.282095575433
 72
     1
 10
518.792122533982
 20
126.282095575433
 11
518.9732587363
 21
125.92620647265
 72
     1
 10
518.9732587363
 20
125.92620647265
 11
519.080080024343
 21
125.541425249497
 72
     1
 10
519.080080024343
 20
125.541425249497
 11
519.109180564335
 21
125.2014909637
 72
     1
 10
519.109180564335
 20
125.2014909637
 11
525.954480564366
 21
125.2014909636961
 72
     1
 10
525.954480564366
 20
125.2014909636961
 11
527.1091805643659
 21
127.2014909636961
 72
     1
 10
527.1091805643659
 20
127.2014909636961
 11
527.1091805643659
 21
129.7014909636961
 72
     1
 10
527.1091805643659
 20
129.7014909636961
 11
516.609180564335
 21
129.7014909637
 72
     1
 10
516.609180564335
 20
129.7014909637
 11
516.211841902776
 21
129.661624119379
 72
     1
 10
516.211841902776
 20
129.661624119379
 11
515.830343879749
 21
129.543612951702
 72
     1
 10
515.830343879749
 20
129.543612951702
 11
515.479895617576
 21
129.352162193516
 72
     1
 10
515.479895617576
 20
129.352162193516
 11
515.1744683825669
 21
129.094904382391
 72
     1
 10
515.1744683825669
 20
129.094904382391
 11
514.92623859475
 21
128.782095575433
 72
     1
 10
514.92623859475
 20
128.782095575433
 11
514.745102392431
 21
128.42620647265
 72
     1
 10
514.745102392431
 20
128.42620647265
 11
514.638281104389
 21
128.041425249497
 72
     1
 10
514.638281104389
 20
128.041425249497
 11
514.609180564335
 21
127.7014909637
 72
     1
 10
514.609180564335
 20
127.7014909637
 11
514.6091805643659
 21
127.2014909636961
 97
        0
 75
     1
 76
     2
 52
0.0
 41
1.0
 77
     0
 78
     1
 53
44.99999999999998
 43
0.0
 44
0.0
 45
-4.490128060534577
 46
0.0000000000000018
 79
     0
 98
        1
 10
0.0
 20
0.0
  0
HATCH
  5
230
330
44
100
AcDbEntity
  8
0
  6
Continuous
 62
     7
100
AcDbHatch
 10
0.0
 20
0.0
 30
0.0
210
0.0
220
0.0
230
1.0
  2
CUSTOM5
 70
     0
 71
     0
 91
        1
 92
        1
 93
       13
 72
     1
 10
279.8591805643659
 20
159.999920205351
 11
271.859180564335
 21
159.9999202054
 72
     1
 10
271.859180564335
 20
159.9999202054
 11
271.4618419027758
 21
159.960053361034
 72
     1
 10
271.4618419027758
 20
159.960053361034
 11
271.0803438797487
 21
159.842042193357
 72
     1
 10
271.0803438797487
 20
159.842042193357
 11
270.7298956175759
 21
159.650591435171
 72
     1
 10
270.7298956175759
 20
159.650591435171
 11
270.4244683825669
 21
159.393333624046
 72
     1
 10
270.4244683825669
 20
159.393333624046
 11
270.1762385947502
 21
159.0805248170881
 72
     1
 10
270.1762385947502
 20
159.0805248170881
 11
269.9951023924315
 21
158.724635714305
 72
     1
 10
269.9951023924315
 20
158.724635714305
 11
269.888281104389
 21
158.339854491152
 72
     1
 10
269.888281104389
 20
158.339854491152
 11
269.859180564335
 21
157.9999202054
 72
     1
 10
269.859180564335
 20
157.9999202054
 11
269.859180564335
 21
156.500341092
 72
     1
 10
269.859180564335
 20
156.500341092
 11
281.8591805643659
 21
156.500341092038
 72
     1
 10
281.8591805643659
 20
156.500341092038
 11
281.8591805643659
 21
157.999920205351
 72
     1
 10
281.8591805643659
 20
157.999920205351
 11
279.8591805643659
 21
159.999920205351
 97
        0
 75
     1
 76
     2
 52
0.0
 41
1.0
 77
     0
 78
     1
 53
44.99999999999998
 43
0.0
 44
0.0
 45
-4.490128060534577
 46
0.0000000000000018
 79
     0
 98
        1
 10
0.0
 20
0.0
  0
HATCH
  5
231
330
44
100
AcDbEntity
  8
0
  6
Continuous
 62
     7
100
AcDbHatch
 10
0.0
 20
0.0
 30
0.0
210
0.0
220
0.0
230
1.0
  2
CUSTOM6
 70
     0
 71
     0
 91
        1
 92
        1
 93
       66
 72
     1
 10
373.259180564366
 20
121.7019420920391
 11
376.959180564366
 21
121.7019420920391
 72
     1
 10
376.959180564366
 20
121.7019420920391
 11
376.959180564335
 21
115.000000092
 72
     1
 10
376.959180564335
 20
115.000000092
 11
377.009014119763
 21
114.503326765051
 72
     1
 10
377.009014119763
 20
114.503326765051
 11
377.156528079359
 21
114.026454236267
 72
     1
 10
377.156528079359
 20
114.026454236267
 11
377.395841527092
 21
113.588393908551
 72
     1
 10
377.395841527092
 20
113.588393908551
 11
377.717413790998
 21
113.20660986479
 72
     1
 10
377.717413790998
 20
113.20660986479
 11
378.108424799696
 21
112.8963226300189
 72
     1
 10
378.108424799696
 20
112.8963226300189
 11
378.553286178174
 21
112.66990237712
 72
     1
 10
378.553286178174
 20
112.66990237712
 11
379.034262707115
 21
112.536375767067
 72
     1
 10
379.034262707115
 20
112.536375767067
 11
379.459180564335
 21
112.500000092
 72
     1
 10
379.459180564335
 20
112.500000092
 11
382.859180564366
 21
112.500000092039
 72
     1
 10
382.859180564366
 20
112.500000092039
 11
382.859180564366
 21
73.00000209203802
 72
     1
 10
382.859180564366
 20
73.00000209203802
 11
386.359180564366
 21
73.00000209203802
 72
     1
 10
386.359180564366
 20
73.00000209203802
 11
386.359180564335
 21
115.000000092
 72
     1
 10
386.359180564335
 20
115.000000092
 11
386.339247142207
 21
115.1986694228339
 72
     1
 10
386.339247142207
 20
115.1986694228339
 11
386.280241558369
 21
115.389418434347
 72
     1
 10
386.280241558369
 20
115.389418434347
 11
386.184516179276
 21
115.564642565434
 72
     1
 10
386.184516179276
 20
115.564642565434
 11
386.055887273713
 21
115.717356182938
 72
     1
 10
386.055887273713
 20
115.717356182938
 11
385.899482870234
 21
115.841471076846
 72
     1
 10
385.899482870234
 20
115.841471076846
 11
385.721538318843
 21
115.932039178006
 72
     1
 10
385.721538318843
 20
115.932039178006
 11
385.529147707266
 21
115.985449822027
 72
     1
 10
385.529147707266
 20
115.985449822027
 11
385.359180564335
 21
116.000000092
 72
     1
 10
385.359180564335
 20
116.000000092
 11
381.459180564335
 21
116.000000092
 72
     1
 10
381.459180564335
 20
116.000000092
 11
381.260511233571
 21
116.0199335141971
 72
     1
 10
381.260511233571
 20
116.0199335141971
 11
381.069762222057
 21
116.078939098036
 72
     1
 10
381.069762222057
 20
116.078939098036
 11
380.894538090971
 21
116.174664477129
 72
     1
 10
380.894538090971
 20
116.174664477129
 11
380.741824473466
 21
116.303293382691
 72
     1
 10
380.741824473466
 20
116.303293382691
 11
380.617709579558
 21
116.45969778617
 72
     1
 10
380.617709579558
 20
116.45969778617
 11
380.527141478399
 21
116.637642337562
 72
     1
 10
380.527141478399
 20
116.637642337562
 11
380.473730834377
 21
116.830032949138
 72
     1
 10
380.473730834377
 20
116.830032949138
 11
380.459180564335
 21
117.000000092
 72
     1
 10
380.459180564335
 20
117.000000092
 11
380.459180564335
 21
124.2014909637
 72
     1
 10
380.459180564335
 20
124.2014909637
 11
380.439247142207
 21
124.400160294491
 72
     1
 10
380.439247142207
 20
124.400160294491
 11
380.380241558369
 21
124.5909093060051
 72
     1
 10
380.380241558369
 20
124.5909093060051
 11
380.284516179276
 21
124.766133437091
 72
     1
 10
380.284516179276
 20
124.766133437091
 11
380.155887273713
 21
124.9188470545959
 72
     1
 10
380.155887273713
 20
124.9188470545959
 11
379.999482870234
 21
125.042961948504
 72
     1
 10
379.999482870234
 20
125.042961948504
 11
379.821538318843
 21
125.133530049664
 72
     1
 10
379.821538318843
 20
125.133530049664
 11
379.629147707266
 21
125.1869406936851
 72
     1
 10
379.629147707266
 20
125.1869406936851
 11
379.459180564335
 21
125.2014909637
 72
     1
 10
379.459180564335
 20
125.2014909637
 11
372.859180564366
 21
125.2014909636961
 72
     1
 10
372.859180564366
 20
125.2014909636961
 11
372.859180564366
 21
129.800000092038
 72
     1
 10
372.859180564366
 20
129.800000092038
 11
374.359180564366
 21
130.800000092038
 72
     1
 10
374.359180564366
 20
130.800000092038
 11
374.359180564366
 21
135.056918963696
 72
     1
 10
374.359180564366
 20
135.056918963696
 11
375.109092200512
 21
135.500000092038
 72
     1
 10
375.109092200512
 20
135.500000092038
 11
375.109092200512
 21
136.400000092039
 72
     1
 10
375.109092200512
 20
136.400000092039
 11
371.109230618287
 21
143.301832525313
 72
     1
 10
371.109230618287
 20
143.301832525313
 11
371.109183561931
 21
158.999923203055
 72
     1
 10
371.109183561931
 20
158.999923203055
 11
371.08924954424
 21
159.198592474048
 72
     1
 10
371.08924954424
 20
159.198592474048
 11
371.030243388602
 21
159.389341308682
 72
     1
 10
371.030243388602
 20
159.389341308682
 11
370.934517484248
 21
159.564565152816
 72
     1
 10
370.934517484248
 20
159.564565152816
 11
370.805888120903
 21
159.717278384735
 72
     1
 10
370.805888120903
 20
159.717278384735
 11
370.649483345371
 21
159.841392809796
 72
     1
 10
370.649483345371
 20
159.841392809796
 11
370.471538522488
 21
159.9319603775381
 72
     1
 10
370.471538522488
 20
159.9319603775381
 11
370.279147750806
 21
159.985370444838
 72
     1
 10
370.279147750806
 20
159.985370444838
 11
370.109183561935
 21
159.9999202054
 72
     1
 10
370.109183561935
 20
159.9999202054
 11
287.859180564335
 21
159.9999202054
 72
     1
 10
287.859180564335
 20
159.9999202054
 11
285.8591805643659
 21
157.999920205351
 72
     1
 10
285.8591805643659
 20
157.999920205351
 11
285.8591805643659
 21
156.500341092038
 72
     1
 10
285.8591805643659
 20
156.500341092038
 11
367.609180564366
 21
156.500341092038
 72
     1
 10
367.609180564366
 20
156.500341092038
 11
367.609199564366
 21
142.400000092039
 72
     1
 10
367.609199564366
 20
142.400000092039
 11
369.759180564366
 21
138.600000092039
 72
     1
 10
369.759180564366
 20
138.600000092039
 11
369.759180564335
 21
5.000000091999993
 72
     1
 10
369.759180564335
 20
5.000000091999993
 11
371.098926526535
 21
0.0000000919999934
 72
     1
 10
371.098926526535
 20
0.0000000919999934
 11
372.609180564366
 21
0.000000092038988
 72
     1
 10
372.609180564366
 20
0.000000092038988
 11
373.259180564366
 21
121.7019420920391
 97
        0
 75
     1
 76
     2
 52
0.0
 41
1.0
 77
     0
 78
     1
 53
44.99999999999998
 43
0.0
 44
0.0
 45
-4.490128060534577
 46
0.0000000000000018
 79
     0
 98
        1
 10
0.0
 20
0.0
  0
HATCH
  5
232
330
44
100
AcDbEntity
  8
0
  6
Continuous
 62
     7
100
AcDbHatch
 10
0.0
 20
0.0
 30
0.0
210
0.0
220
0.0
230
1.0
  2
CUSTOM7
 70
     0
 71
     0
 91
        1
 92
        1
 93
       66
 72
     1
 10
520.259180564335
 20
112.500000092
 11
520.755853891354
 21
112.549833647435
 72
     1
 10
520.755853891354
 20
112.549833647435
 11
521.232726420138
 21
112.697347607031
 72
     1
 10
521.232726420138
 20
112.697347607031
 11
521.670786747854
 21
112.936661054764
 72
     1
 10
521.670786747854
 20
112.936661054764
 11
522.052570791615
 21
113.258233318671
 72
     1
 10
522.052570791615
 20
113.258233318671
 11
522.362858026386
 21
113.649244327368
 72
     1
 10
522.362858026386
 20
113.649244327368
 11
522.589278279284
 21
114.094105705847
 72
     1
 10
522.589278279284
 20
114.094105705847
 11
522.722804889337
 21
114.575082234788
 72
     1
 10
522.722804889337
 20
114.575082234788
 11
522.759180564335
 21
115.000000092
 72
     1
 10
522.759180564335
 20
115.000000092
 11
522.759180564366
 21
121.7019420920391
 72
     1
 10
522.759180564366
 20
121.7019420920391
 11
526.459180564366
 21
121.7019420920391
 72
     1
 10
526.459180564366
 20
121.7019420920391
 11
527.1091805643659
 21
0.000000092038988
 72
     1
 10
527.1091805643659
 20
0.000000092038988
 11
528.6194346022099
 21
0.000000092038988
 72
     1
 10
528.6194346022099
 20
0.000000092038988
 11
529.959180564335
 21
5.000000091999993
 72
     1
 10
529.959180564335
 20
5.000000091999993
 11
529.959180564366
 21
138.600000092039
 72
     1
 10
529.959180564366
 20
138.600000092039
 11
532.109161564366
 21
142.400000092039
 72
     1
 10
532.109161564366
 20
142.400000092039
 11
532.1091805643659
 21
156.500341092038
 72
     1
 10
532.1091805643659
 20
156.500341092038
 11
613.8591805643659
 21
156.500341092038
 72
     1
 10
613.8591805643659
 20
156.500341092038
 11
613.8591805643659
 21
157.999920205351
 72
     1
 10
613.8591805643659
 20
157.999920205351
 11
611.8591805643659
 21
159.999920205351
 72
     1
 10
611.8591805643659
 20
159.999920205351
 11
529.609177566835
 21
159.9999202054
 72
     1
 10
529.609177566835
 20
159.9999202054
 11
529.410508235991
 21
159.979986783193
 72
     1
 10
529.410508235991
 20
159.979986783193
 11
529.219759224478
 21
159.920981199354
 72
     1
 10
529.219759224478
 20
159.920981199354
 11
529.044535093391
 21
159.8252558202611
 72
     1
 10
529.044535093391
 20
159.8252558202611
 11
528.891821475887
 21
159.696626914699
 72
     1
 10
528.891821475887
 20
159.696626914699
 11
528.767706581979
 21
159.54022251122
 72
     1
 10
528.767706581979
 20
159.54022251122
 11
528.6771384808189
 21
159.362277959828
 72
     1
 10
528.6771384808189
 20
159.362277959828
 11
528.623727836798
 21
159.169887348252
 72
     1
 10
528.623727836798
 20
159.169887348252
 11
528.609177566839
 21
158.999923203055
 72
     1
 10
528.609177566839
 20
158.999923203055
 11
528.609130510445
 21
143.301832525313
 72
     1
 10
528.609130510445
 20
143.301832525313
 11
524.60926892822
 21
136.400000092039
 72
     1
 10
524.60926892822
 20
136.400000092039
 11
524.60926892822
 21
135.500000092038
 72
     1
 10
524.60926892822
 20
135.500000092038
 11
525.3591805643659
 21
135.056918963696
 72
     1
 10
525.3591805643659
 20
135.056918963696
 11
525.3591805643659
 21
130.800000092038
 72
     1
 10
525.3591805643659
 20
130.800000092038
 11
526.8591805643659
 21
129.800000092038
 72
     1
 10
526.8591805643659
 20
129.800000092038
 11
526.8591805643659
 21
125.2014909636961
 72
     1
 10
526.8591805643659
 20
125.2014909636961
 11
520.259180564335
 21
125.2014909637
 72
     1
 10
520.259180564335
 20
125.2014909637
 11
520.060511233571
 21
125.181557541538
 72
     1
 10
520.060511233571
 20
125.181557541538
 11
519.869762222057
 21
125.122551957699
 72
     1
 10
519.869762222057
 20
125.122551957699
 11
519.694538090971
 21
125.026826578606
 72
     1
 10
519.694538090971
 20
125.026826578606
 11
519.5418244734669
 21
124.898197673044
 72
     1
 10
519.5418244734669
 20
124.898197673044
 11
519.4177095795579
 21
124.741793269565
 72
     1
 10
519.4177095795579
 20
124.741793269565
 11
519.327141478399
 21
124.563848718173
 72
     1
 10
519.327141478399
 20
124.563848718173
 11
519.273730834378
 21
124.371458106597
 72
     1
 10
519.273730834378
 20
124.371458106597
 11
519.259180564335
 21
124.2014909637
 72
     1
 10
519.259180564335
 20
124.2014909637
 11
519.259180564335
 21
117.000000092
 72
     1
 10
519.259180564335
 20
117.000000092
 11
519.239247142207
 21
116.801330761243
 72
     1
 10
519.239247142207
 20
116.801330761243
 11
519.180241558369
 21
116.61058174973
 72
     1
 10
519.180241558369
 20
116.61058174973
 11
519.084516179276
 21
116.435357618643
 72
     1
 10
519.084516179276
 20
116.435357618643
 11
518.955887273713
 21
116.282644001139
 72
     1
 10
518.955887273713
 20
116.282644001139
 11
518.799482870234
 21
116.158529107231
 72
     1
 10
518.799482870234
 20
116.158529107231
 11
518.621538318843
 21
116.067961006071
 72
     1
 10
518.621538318843
 20
116.067961006071
 11
518.429147707266
 21
116.01455036205
 72
     1
 10
518.429147707266
 20
116.01455036205
 11
518.259180564335
 21
116.000000092
 72
     1
 10
518.259180564335
 20
116.000000092
 11
514.359180564335
 21
116.000000092
 72
     1
 10
514.359180564335
 20
116.000000092
 11
514.160511233571
 21
115.98006666988
 72
     1
 10
514.160511233571
 20
115.98006666988
 11
513.9697622220569
 21
115.921061086041
 72
     1
 10
513.9697622220569
 20
115.921061086041
 11
513.794538090971
 21
115.825335706948
 72
     1
 10
513.794538090971
 20
115.825335706948
 11
513.6418244734659
 21
115.6967068013859
 72
     1
 10
513.6418244734659
 20
115.6967068013859
 11
513.517709579558
 21
115.540302397907
 72
     1
 10
513.517709579558
 20
115.540302397907
 11
513.427141478399
 21
115.362357846515
 72
     1
 10
513.427141478399
 20
115.362357846515
 11
513.3737308343769
 21
115.169967234939
 72
     1
 10
513.3737308343769
 20
115.169967234939
 11
513.359180564335
 21
115.000000092
 72
     1
 10
513.359180564335
 20
115.000000092
 11
513.3591805643659
 21
73.00000209203802
 72
     1
 10
513.3591805643659
 20
73.00000209203802
 11
516.8591805643659
 21
73.00000209203802
 72
     1
 10
516.8591805643659
 20
73.00000209203802
 11
516.8591805643659
 21
112.500000092039
 72
     1
 10
516.8591805643659
 20
112.500000092039
 11
520.259180564335
 21
112.500000092
 97
        0
 75
     1
 76
     2
 52
0.0
 41
1.0
 77
     0
 78
     1
 53
44.99999999999998
 43
0.0
 44
0.0
 45
-4.490128060534577
 46
0.0000000000000018
 79
     0
 98
        1
 10
0.0
 20
0.0
  0
HATCH
  5
233
330
44
100
AcDbEntity
  8
0
  6
Continuous
 62
     7
100
AcDbHatch
 10
0.0
 20
0.0
 30
0.0
210
0.0
220
0.0
230
1.0
  2
CUSTOM8
 70
     0
 71
     0
 91
        1
 92
        1
 93
       13
 72
     1
 10
629.859180564335
 20
156.500341092
 11
629.859180564335
 21
157.9999202054
 72
     1
 10
629.859180564335
 20
157.9999202054
 11
629.819313720048
 21
158.397258866942
 72
     1
 10
629.819313720048
 20
158.397258866942
 11
629.701302552372
 21
158.778756889969
 72
     1
 10
629.701302552372
 20
158.778756889969
 11
629.509851794185
 21
159.129205152141
 72
     1
 10
629.509851794185
 20
159.129205152141
 11
629.25259398306
 21
159.43463238715
 72
     1
 10
629.25259398306
 20
159.43463238715
 11
628.939785176102
 21
159.682862174967
 72
     1
 10
628.939785176102
 20
159.682862174967
 11
628.583896073319
 21
159.863998377286
 72
     1
 10
628.583896073319
 20
159.863998377286
 11
628.199114850166
 21
159.970819665328
 72
     1
 10
628.199114850166
 20
159.970819665328
 11
627.859180564335
 21
159.9999202054
 72
     1
 10
627.859180564335
 20
159.9999202054
 11
619.8591805643659
 21
159.999920205351
 72
     1
 10
619.8591805643659
 20
159.999920205351
 11
617.8591805643659
 21
157.999920205351
 72
     1
 10
617.8591805643659
 20
157.999920205351
 11
617.8591805643659
 21
156.500341092038
 72
     1
 10
617.8591805643659
 20
156.500341092038
 11
629.859180564335
 21
156.500341092
 97
        0
 75
     1
 76
     2
 52
0.0
 41
1.0
 77
     0
 78
     1
 53
44.99999999999998
 43
0.0
 44
0.0
 45
-4.490128060534577
 46
0.0000000000000018
 79
     0
 98
        1
 10
0.0
 20
0.0
  0
ENDBLK
  5
46
330
44
100
AcDbEntity
  8
0
100
AcDbBlockEnd
  0
BLOCK
  5
6B
330
47
100
AcDbEntity
  8
0
100
AcDbBlockBegin
  2
HL_62P_5_DN160_Dachablauf
 70
     0
 10
436.8841979575141
 20
118.6469585756019
 30
0.0
  3
HL_62P_5_DN160_Dachablauf
  1

  0
INSERT
  5
6A
330
47
100
AcDbEntity
  8
0
100
AcDbBlockReference
  2
HL62P_5
 10
436.8841979575141
 20
118.6469585756019
 30
0.0
  0
ENDBLK
  5
6C
330
47
100
AcDbEntity
  8
0
100
AcDbBlockEnd
  0
BLOCK
  5
211
330
209
100
AcDbEntity
  8
0
100
AcDbBlockBegin
  2
*D3
 70
     1
 10
0.0
 20
0.0
 30
0.0
  3
*D3
  1

  0
LINE
  5
20A
330
209
100
AcDbEntity
  8
1
  6
Continuous
 62
     4
100
AcDbLine
 10
255.834210414093
 20
159.9999181926
 30
0.0
 11
255.834210414093
 21
0.0
 31
0.0
  0
LINE
  5
20B
330
209
100
AcDbEntity
  8
1
  6
Continuous
 62
     4
100
AcDbLine
 10
372.609181984235
 20
0.0
 30
0.0
 11
253.834210414093
 21
0.0
 31
0.0
  0
LINE
  5
20C
330
209
100
AcDbEntity
  8
1
  6
Continuous
 62
     4
100
AcDbLine
 10
271.859175248935
 20
159.9999181926
 30
0.0
 11
253.834210414093
 21
159.9999181926
 31
0.0
  0
SOLID
  5
20D
330
209
100
AcDbEntity
  8
1
 62
     4
100
AcDbTrace
 10
257.1507353899669
 20
149.9999181926
 30
0.0
 11
254.517685438219
 21
149.9999181926
 31
0.0
 12
255.834210414093
 22
159.9999181926
 32
0.0
 13
255.834210414093
 23
159.9999181926
 33
0.0
  0
SOLID
  5
20E
330
209
100
AcDbEntity
  8
1
 62
     4
100
AcDbTrace
 10
254.517685438219
 20
10.0
 30
0.0
 11
257.1507353899669
 21
10.0
 31
0.0
 12
255.834210414093
 22
0.0
 32
0.0
 13
255.834210414093
 23
0.0
 33
0.0
  0
MTEXT
  5
210
330
209
100
AcDbEntity
  8
1
 62
     1
100
AcDbMText
 10
253.834210414093
 20
69.6586282940515
 30
0.0
 40
10.0
 41
0.0
 71
     7
 72
     1
  1
160
  7
CONVERTER_11
 11
0.0
 21
1.0
 31
0.0
 73
     1
 44
0.60024009603842
  0
ENDBLK
  5
212
330
209
100
AcDbEntity
  8
0
100
AcDbBlockEnd
  0
BLOCK
  5
21C
330
215
100
AcDbEntity
  8
0
100
AcDbBlockBegin
  2
*D4
 70
     1
 10
0.0
 20
0.0
 30
0.0
  3
*D4
  1

  0
LINE
  5
216
330
215
100
AcDbEntity
  8
1
  6
Continuous
 62
     4
100
AcDbLine
 10
369.759178443735
 20
-29.9051058120813
 30
0.0
 11
529.959178252935
 21
-29.9051058120813
 31
0.0
  0
LINE
  5
217
330
215
100
AcDbEntity
  8
1
  6
Continuous
 62
     4
100
AcDbLine
 10
529.959178252935
 20
4.99999895689999
 30
0.0
 11
529.959178252935
 21
-31.9051058120813
 31
0.0
  0
LINE
  5
218
330
215
100
AcDbEntity
  8
1
  6
Continuous
 62
     4
100
AcDbLine
 10
369.759178443735
 20
4.99999895689999
 30
0.0
 11
369.759178443735
 21
-31.9051058120813
 31
0.0
  0
SOLID
  5
219
330
215
100
AcDbEntity
  8
1
 62
     4
100
AcDbTrace
 10
379.759178443735
 20
-28.58858083620734
 30
0.0
 11
379.759178443735
 21
-31.22163078795526
 31
0.0
 12
369.759178443735
 22
-29.9051058120813
 32
0.0
 13
369.759178443735
 23
-29.9051058120813
 33
0.0
  0
SOLID
  5
21A
330
215
100
AcDbEntity
  8
1
 62
     4
100
AcDbTrace
 10
519.959178252935
 20
-31.22163078795526
 30
0.0
 11
519.959178252935
 21
-28.58858083620734
 31
0.0
 12
529.959178252935
 22
-29.9051058120813
 32
0.0
 13
529.959178252935
 23
-29.9051058120813
 33
0.0
  0
MTEXT
  5
21B
330
215
100
AcDbEntity
  8
1
 62
     1
100
AcDbMText
 10
432.9767614351562
 20
-27.90514556680315
 30
0.0
 40
10.0
 41
0.0
 71
     7
 72
     1
  1
\C1;DN\C1;160
  7
CONVERTER_11
 11
0.9999999999970619
 21
2.424068405545306E-6
 31
0.0
 73
     1
 44
0.60024009603842
  0
ENDBLK
  5
21D
330
215
100
AcDbEntity
  8
0
100
AcDbBlockEnd
  0
BLOCK
  5
227
330
220
100
AcDbEntity
  8
0
100
AcDbBlockBegin
  2
*D5
 70
     1
 10
0.0
 20
0.0
 30
0.0
  3
*D5
  1

  0
LINE
  5
221
330
220
100
AcDbEntity
  8
1
  6
Continuous
 62
     4
100
AcDbLine
 10
269.8591801827766
 20
257.1990222102679
 30
0.0
 11
629.8591851193767
 21
257.1990235949679
 31
0.0
  0
LINE
  5
222
330
220
100
AcDbEntity
  8
1
  6
Continuous
 62
     4
100
AcDbLine
 10
629.859185500935
 20
157.9999215901
 30
0.0
 11
629.8591851116839
 21
259.1990235949679
 31
0.0
  0
LINE
  5
223
330
220
100
AcDbEntity
  8
1
  6
Continuous
 62
     4
100
AcDbLine
 10
269.859180564335
 20
157.9999202054
 30
0.0
 11
269.8591801750838
 21
259.1990222102679
 31
0.0
  0
SOLID
  5
224
330
220
100
AcDbEntity
  8
1
 62
     4
100
AcDbTrace
 10
279.8591801777128
 20
258.5155472246055
 30
0.0
 11
279.8591801878405
 21
255.8824972728576
 31
0.0
 12
269.8591801827766
 22
257.1990222102679
 32
0.0
 13
269.8591801827766
 23
257.1990222102679
 33
0.0
  0
SOLID
  5
225
330
220
100
AcDbEntity
  8
1
 62
     4
100
AcDbTrace
 10
619.8591851244405
 20
255.8824985806303
 30
0.0
 11
619.8591851143128
 21
258.5155485323782
 31
0.0
 12
629.8591851193767
 22
257.1990235949679
 32
0.0
 13
629.8591851193767
 23
257.1990235949679
 33
0.0
  0
MTEXT
  5
226
330
220
100
AcDbEntity
  8
1
 62
     1
100
AcDbMText
 10
425.2316602789534
 20
259.1989831393282
 30
0.0
 40
10.0
 41
0.0
 71
     7
 72
     1
  1
\C1;%%c\C1;360
  7
CONVERTER_11
 11
0.9999999999970619
 21
2.424068405545306E-6
 31
0.0
 73
     1
 44
0.60024009603842
  0
ENDBLK
  5
228
330
220
100
AcDbEntity
  8
0
100
AcDbBlockEnd
  0
ENDSEC
  0
SECTION
  2
ENTITIES
  0
INSERT
  5
6D
330
1F
100
AcDbEntity
  8
0
100
AcDbBlockReference
  2
HL_62P_5_DN160_Dachablauf
 10
436.8841979575141
 20
118.6469585756019
 30
0.0
  0
ENDSEC
  0
SECTION
  2
OBJECTS
  0
DICTIONARY
  5
C
330
0
100
AcDbDictionary
281
     1
  3
ACAD_GROUP
350
D
  3
ACAD_LAYOUT
350
1A
  3
ACAD_MLEADERSTYLE
350
236
  3
ACAD_MLINESTYLE
350
17
  3
ACAD_PLOTSETTINGS
350
19
  3
ACAD_PLOTSTYLENAME
350
E
  3
ACAD_SCALELIST
350
48
  3
ACAD_VISUALSTYLE
350
2A
  3
AcDbVariableDictionary
350
234
  0
DICTIONARY
  5
D
102
{ACAD_REACTORS
330
C
102
}
330
C
100
AcDbDictionary
281
     1
  0
DICTIONARY
  5
1A
102
{ACAD_REACTORS
330
C
102
}
330
C
100
AcDbDictionary
281
     1
  3
Layout1
350
1E
  3
Layout2
350
26
  3
Model
350
22
  0
DICTIONARY
  5
236
102
{ACAD_REACTORS
330
C
102
}
330
C
100
AcDbDictionary
281
     1
  0
DICTIONARY
  5
17
102
{ACAD_REACTORS
330
C
102
}
330
C
100
AcDbDictionary
281
     1
  3
Standard
350
18
  0
DICTIONARY
  5
19
102
{ACAD_REACTORS
330
C
102
}
330
C
100
AcDbDictionary
281
     1
  0
ACDBDICTIONARYWDFLT
  5
E
102
{ACAD_REACTORS
330
C
102
}
330
C
100
AcDbDictionary
281
     1
  3
Normal
350
F
100
AcDbDictionaryWithDefault
340
F
  0
DICTIONARY
  5
48
102
{ACAD_REACTORS
330
C
102
}
330
C
100
AcDbDictionary
281
     1
  3
A0
350
49
  3
A1
350
4A
  3
A2
350
4B
  3
A3
350
4C
  3
A4
350
4D
  3
A5
350
4E
  3
A6
350
4F
  3
A7
350
50
  3
A8
350
51
  3
A9
350
52
  3
B0
350
53
  3
B1
350
54
  3
B2
350
55
  3
B3
350
56
  3
B4
350
57
  3
B5
350
58
  3
B6
350
59
  3
B7
350
5A
  3
B8
350
5B
  3
B9
350
5C
  3
C0
350
5D
  3
C1
350
5E
  3
C2
350
5F
  3
C3
350
60
  3
C4
350
61
  3
C5
350
62
  3
C6
350
63
  3
C7
350
64
  3
C8
350
65
  3
C9
350
66
  3
D0
350
67
  3
D1
350
68
  3
D2
350
69
  0
DICTIONARY
  5
2A
102
{ACAD_REACTORS
330
C
102
}
330
C
100
AcDbDictionary
281
     1
  3
2dWireframe
350
2F
  3
3D Hidden
350
31
  3
3dWireframe
350
30
  3
Basic
350
32
  3
Brighten
350
36
  3
ColorChange
350
3A
  3
Conceptual
350
34
  3
Dim
350
35
  3
Facepattern
350
39
  3
Flat
350
2B
  3
FlatWithEdges
350
2C
  3
Gouraud
350
2D
  3
GouraudWithEdges
350
2E
  3
Linepattern
350
38
  3
Realistic
350
33
  3
Thicken
350
37
  0
DICTIONARY
  5
234
102
{ACAD_REACTORS
330
C
102
}
330
C
100
AcDbDictionary
281
     1
  3
CANNOSCALE
350
237
  0
LAYOUT
  5
1E
102
{ACAD_REACTORS
330
1A
102
}
330
1A
100
AcDbPlotSettings
  1

  2
none_device
  4

  6

 40
0.0
 41
0.0
 42
0.0
 43
0.0
 44
0.0
 45
0.0
 46
0.0
 47
0.0
 48
0.0
 49
0.0
140
0.0
141
0.0
142
1.0
143
1.0
 70
   688
 72
     0
 73
     0
 74
     5
  7

 75
    16
147
1.0
148
0.0
149
0.0
100
AcDbLayout
  1
Layout1
 70
     1
 71
     1
 10
0.0
 20
0.0
 11
12.0
 21
9.0
 12
0.0
 22
0.0
 32
0.0
 14
1.00000000000000E+20
 24
1.00000000000000E+20
 34
1.00000000000000E+20
 15
-1.00000000000000E+20
 25
-1.00000000000000E+20
 35
-1.00000000000000E+20
146
0.0
 13
0.0
 23
0.0
 33
0.0
 16
1.0
 26
0.0
 36
0.0
 17
0.0
 27
1.0
 37
0.0
 76
     0
330
1B
  0
LAYOUT
  5
26
102
{ACAD_REACTORS
330
1A
102
}
330
1A
100
AcDbPlotSettings
  1

  2
none_device
  4

  6

 40
0.0
 41
0.0
 42
0.0
 43
0.0
 44
0.0
 45
0.0
 46
0.0
 47
0.0
 48
0.0
 49
0.0
140
0.0
141
0.0
142
1.0
143
1.0
 70
   688
 72
     0
 73
     0
 74
     5
  7

 75
    16
147
1.0
148
0.0
149
0.0
100
AcDbLayout
  1
Layout2
 70
     1
 71
     2
 10
0.0
 20
0.0
 11
0.0
 21
0.0
 12
0.0
 22
0.0
 32
0.0
 14
0.0
 24
0.0
 34
0.0
 15
0.0
 25
0.0
 35
0.0
146
0.0
 13
0.0
 23
0.0
 33
0.0
 16
1.0
 26
0.0
 36
0.0
 17
0.0
 27
1.0
 37
0.0
 76
     0
330
23
  0
LAYOUT
  5
22
102
{ACAD_REACTORS
330
1A
102
}
330
1A
100
AcDbPlotSettings
  1

  2
none_device
  4

  6

 40
0.0
 41
0.0
 42
0.0
 43
0.0
 44
0.0
 45
0.0
 46
0.0
 47
0.0
 48
0.0
 49
0.0
140
0.0
141
0.0
142
1.0
143
1.0
 70
  1712
 72
     0
 73
     0
 74
     0
  7

 75
     0
147
1.0
148
0.0
149
0.0
100
AcDbLayout
  1
Model
 70
     1
 71
     0
 10
0.0
 20
0.0
 11
12.0
 21
9.0
 12
0.0
 22
0.0
 32
0.0
 14
243.834210414093
 24
-31.9051058120813
 34
0.0
 15
629.9341855009351
 25
269.199022963285
 35
0.0
146
0.0
 13
0.0
 23
0.0
 33
0.0
 16
1.0
 26
0.0
 36
0.0
 17
0.0
 27
1.0
 37
0.0
 76
     0
330
1F
331
29
  0
MLINESTYLE
  5
18
102
{ACAD_REACTORS
330
17
102
}
330
17
100
AcDbMlineStyle
  2
Standard
 70
     0
  3

 62
   256
 51
90.0
 52
90.0
 71
     2
 49
0.5
 62
   256
  6
BYLAYER
 49
-0.5
 62
   256
  6
BYLAYER
  0
ACDBPLACEHOLDER
  5
F
102
{ACAD_REACTORS
330
E
102
}
330
E
  0
SCALE
  5
49
102
{ACAD_REACTORS
330
48
102
}
330
48
100
AcDbScale
 70
     0
300
1:1
140
1.0
141
1.0
290
     1
  0
SCALE
  5
4A
102
{ACAD_REACTORS
330
48
102
}
330
48
100
AcDbScale
 70
     0
300
1:2
140
1.0
141
2.0
290
     0
  0
SCALE
  5
4B
102
{ACAD_REACTORS
330
48
102
}
330
48
100
AcDbScale
 70
     0
300
1:4
140
1.0
141
4.0
290
     0
  0
SCALE
  5
4C
102
{ACAD_REACTORS
330
48
102
}
330
48
100
AcDbScale
 70
     0
300
1:5
140
1.0
141
5.0
290
     0
  0
SCALE
  5
4D
102
{ACAD_REACTORS
330
48
102
}
330
48
100
AcDbScale
 70
     0
300
1:8
140
1.0
141
8.0
290
     0
  0
SCALE
  5
4E
102
{ACAD_REACTORS
330
48
102
}
330
48
100
AcDbScale
 70
     0
300
1:10
140
1.0
141
10.0
290
     0
  0
SCALE
  5
4F
102
{ACAD_REACTORS
330
48
102
}
330
48
100
AcDbScale
 70
     0
300
1:16
140
1.0
141
16.0
290
     0
  0
SCALE
  5
50
102
{ACAD_REACTORS
330
48
102
}
330
48
100
AcDbScale
 70
     0
300
1:20
140
1.0
141
20.0
290
     0
  0
SCALE
  5
51
102
{ACAD_REACTORS
330
48
102
}
330
48
100
AcDbScale
 70
     0
300
1:30
140
1.0
141
30.0
290
     0
  0
SCALE
  5
52
102
{ACAD_REACTORS
330
48
102
}
330
48
100
AcDbScale
 70
     0
300
1:40
140
1.0
141
40.0
290
     0
  0
SCALE
  5
53
102
{ACAD_REACTORS
330
48
102
}
330
48
100
AcDbScale
 70
     0
300
1:50
140
1.0
141
50.0
290
     0
  0
SCALE
  5
54
102
{ACAD_REACTORS
330
48
102
}
330
48
100
AcDbScale
 70
     0
300
1:100
140
1.0
141
100.0
290
     0
  0
SCALE
  5
55
102
{ACAD_REACTORS
330
48
102
}
330
48
100
AcDbScale
 70
     0
300
2:1
140
2.0
141
1.0
290
     0
  0
SCALE
  5
56
102
{ACAD_REACTORS
330
48
102
}
330
48
100
AcDbScale
 70
     0
300
4:1
140
4.0
141
1.0
290
     0
  0
SCALE
  5
57
102
{ACAD_REACTORS
330
48
102
}
330
48
100
AcDbScale
 70
     0
300
8:1
140
8.0
141
1.0
290
     0
  0
SCALE
  5
58
102
{ACAD_REACTORS
330
48
102
}
330
48
100
AcDbScale
 70
     0
300
10:1
140
10.0
141
1.0
290
     0
  0
SCALE
  5
59
102
{ACAD_REACTORS
330
48
102
}
330
48
100
AcDbScale
 70
     0
300
100:1
140
100.0
141
1.0
290
     0
  0
SCALE
  5
5A
102
{ACAD_REACTORS
330
48
102
}
330
48
100
AcDbScale
 70
     0
300
1/128" = 1'-0"
140
0.0078125
141
12.0
290
     0
  0
SCALE
  5
5B
102
{ACAD_REACTORS
330
48
102
}
330
48
100
AcDbScale
 70
     0
300
1/64" = 1'-0"
140
0.015625
141
12.0
290
     0
  0
SCALE
  5
5C
102
{ACAD_REACTORS
330
48
102
}
330
48
100
AcDbScale
 70
     0
300
1/32" = 1'-0"
140
0.03125
141
12.0
290
     0
  0
SCALE
  5
5D
102
{ACAD_REACTORS
330
48
102
}
330
48
100
AcDbScale
 70
     0
300
1/16" = 1'-0"
140
0.0625
141
12.0
290
     0
  0
SCALE
  5
5E
102
{ACAD_REACTORS
330
48
102
}
330
48
100
AcDbScale
 70
     0
300
3/32" = 1'-0"
140
0.09375
141
12.0
290
     0
  0
SCALE
  5
5F
102
{ACAD_REACTORS
330
48
102
}
330
48
100
AcDbScale
 70
     0
300
1/8" = 1'-0"
140
0.125
141
12.0
290
     0
  0
SCALE
  5
60
102
{ACAD_REACTORS
330
48
102
}
330
48
100
AcDbScale
 70
     0
300
3/16" = 1'-0"
140
0.1875
141
12.0
290
     0
  0
SCALE
  5
61
102
{ACAD_REACTORS
330
48
102
}
330
48
100
AcDbScale
 70
     0
300
1/4" = 1'-0"
140
0.25
141
12.0
290
     0
  0
SCALE
  5
62
102
{ACAD_REACTORS
330
48
102
}
330
48
100
AcDbScale
 70
     0
300
3/8" = 1'-0"
140
0.375
141
12.0
290
     0
  0
SCALE
  5
63
102
{ACAD_REACTORS
330
48
102
}
330
48
100
AcDbScale
 70
     0
300
1/2" = 1'-0"
140
0.5
141
12.0
290
     0
  0
SCALE
  5
64
102
{ACAD_REACTORS
330
48
102
}
330
48
100
AcDbScale
 70
     0
300
3/4" = 1'-0"
140
0.75
141
12.0
290
     0
  0
SCALE
  5
65
102
{ACAD_REACTORS
330
48
102
}
330
48
100
AcDbScale
 70
     0
300
1" = 1'-0"
140
1.0
141
12.0
290
     0
  0
SCALE
  5
66
102
{ACAD_REACTORS
330
48
102
}
330
48
100
AcDbScale
 70
     0
300
1-1/2" = 1'-0"
140
1.5
141
12.0
290
     0
  0
SCALE
  5
67
102
{ACAD_REACTORS
330
48
102
}
330
48
100
AcDbScale
 70
     0
300
3" = 1'-0"
140
3.0
141
12.0
290
     0
  0
SCALE
  5
68
102
{ACAD_REACTORS
330
48
102
}
330
48
100
AcDbScale
 70
     0
300
6" = 1'-0"
140
6.0
141
12.0
290
     0
  0
SCALE
  5
69
102
{ACAD_REACTORS
330
48
102
}
330
48
100
AcDbScale
 70
     0
300
1'-0" = 1'-0"
140
12.0
141
12.0
290
     0
  0
VISUALSTYLE
  5
2F
102
{ACAD_REACTORS
330
2A
102
}
330
2A
100
AcDbVisualStyle
  2
2dWireframe
 70
     4
 71
     0
 72
     2
 73
     0
 90
        0
 40
-0.6
 41
-30.0
 62
     5
 63
     7
 74
     1
 91
        4
 64
     7
 65
   257
 75
     1
175
     1
 42
1.0
 92
        0
 66
   257
 43
1.0
 76
     1
 77
     6
 78
     2
 67
     7
 79
     5
170
     0
171
     0
290
     0
174
     0
 93
        1
 44
0.0
173
     0
291
     0
 45
0.0
1001
ACAD
1000
AcDbSavedByObjectVersion
1070
     0
  0
VISUALSTYLE
  5
31
102
{ACAD_REACTORS
330
2A
102
}
330
2A
100
AcDbVisualStyle
  2
3D Hidden
 70
     6
 71
     1
 72
     2
 73
     2
 90
        0
 40
-0.6
 41
-30.0
 62
     5
 63
     7
 74
     2
 91
        2
 64
     7
 65
   257
 75
     2
175
     1
 42
40.0
 92
        0
 66
   257
 43
1.0
 76
     1
 77
     6
 78
     2
 67
     7
 79
     3
170
     0
171
     0
290
     0
174
     0
 93
        1
 44
0.0
173
     0
291
     0
 45
0.0
1001
ACAD
1000
AcDbSavedByObjectVersion
1070
     0
  0
VISUALSTYLE
  5
30
102
{ACAD_REACTORS
330
2A
102
}
330
2A
100
AcDbVisualStyle
  2
3dWireframe
 70
     5
 71
     0
 72
     2
 73
     0
 90
        0
 40
-0.6
 41
-30.0
 62
     5
 63
     7
 74
     1
 91
        4
 64
     7
 65
   257
 75
     1
175
     1
 42
1.0
 92
        0
 66
   257
 43
1.0
 76
     1
 77
     6
 78
     2
 67
     7
 79
     5
170
     0
171
     0
290
     0
174
     0
 93
        1
 44
0.0
173
     0
291
     0
 45
0.0
1001
ACAD
1000
AcDbSavedByObjectVersion
1070
     0
  0
VISUALSTYLE
  5
32
102
{ACAD_REACTORS
330
2A
102
}
330
2A
100
AcDbVisualStyle
  2
Basic
 70
     7
 71
     1
 72
     0
 73
     1
 90
        0
 40
-0.6
 41
-30.0
 62
     5
 63
     7
 74
     0
 91
        4
 64
     7
 65
   257
 75
     1
175
     1
 42
1.0
 92
        8
 66
     7
 43
1.0
 76
     1
 77
     6
 78
     2
 67
     7
 79
     5
170
     0
171
     0
290
     0
174
     0
 93
        1
 44
0.0
173
     0
291
     1
 45
0.0
1001
ACAD
1000
AcDbSavedByObjectVersion
1070
     0
  0
VISUALSTYLE
  5
36
102
{ACAD_REACTORS
330
2A
102
}
330
2A
100
AcDbVisualStyle
  2
Brighten
 70
    12
 71
     2
 72
     2
 73
     0
 90
        0
 40
-0.6
 41
-30.0
 62
     5
 63
     7
 74
     1
 91
        4
 64
     7
 65
   257
 75
     1
175
     1
 42
1.0
 92
        8
 66
     7
 43
1.0
 76
     1
 77
     6
 78
     2
 67
     7
 79
     5
170
     0
171
     0
290
     0
174
     0
 93
        1
 44
50.0
173
     0
291
     1
 45
0.0
1001
ACAD
1000
AcDbSavedByObjectVersion
1070
     0
  0
VISUALSTYLE
  5
3A
102
{ACAD_REACTORS
330
2A
102
}
330
2A
100
AcDbVisualStyle
  2
ColorChange
 70
    16
 71
     2
 72
     2
 73
     3
 90
        0
 40
-0.6
 41
-30.0
 62
     5
 63
     8
 74
     1
 91
        4
 64
     7
 65
   257
 75
     1
175
     1
 42
1.0
 92
        8
 66
     8
 43
1.0
 76
     1
 77
     6
 78
     2
 67
     7
 79
     5
170
     0
171
     0
290
     0
174
     0
 93
        1
 44
0.0
173
     0
291
     1
 45
0.0
1001
ACAD
1000
AcDbSavedByObjectVersion
1070
     0
  0
VISUALSTYLE
  5
34
102
{ACAD_REACTORS
330
2A
102
}
330
2A
100
AcDbVisualStyle
  2
Conceptual
 70
     9
 71
     3
 72
     2
 73
     0
 90
        0
 40
-0.6
 41
-30.0
 62
     5
 63
     7
 74
     2
 91
        2
 64
     7
 65
   257
 75
     1
175
     1
 42
40.0
 92
        8
 66
     7
 43
1.0
 76
     1
 77
     6
 78
     2
 67
     7
 79
     3
170
     0
171
     0
290
     0
174
     0
 93
        1
 44
0.0
173
     0
291
     0
 45
0.0
1001
ACAD
1000
AcDbSavedByObjectVersion
1070
     0
  0
VISUALSTYLE
  5
35
102
{ACAD_REACTORS
330
2A
102
}
330
2A
100
AcDbVisualStyle
  2
Dim
 70
    11
 71
     2
 72
     2
 73
     0
 90
        0
 40
-0.6
 41
-30.0
 62
     5
 63
     7
 74
     1
 91
        4
 64
     7
 65
   257
 75
     1
175
     1
 42
1.0
 92
        8
 66
     7
 43
1.0
 76
     1
 77
     6
 78
     2
 67
     7
 79
     5
170
     0
171
     0
290
     0
174
     0
 93
        1
 44
-50.0
173
     0
291
     1
 45
0.0
1001
ACAD
1000
AcDbSavedByObjectVersion
1070
     0
  0
VISUALSTYLE
  5
39
102
{ACAD_REACTORS
330
2A
102
}
330
2A
100
AcDbVisualStyle
  2
Facepattern
 70
    15
 71
     2
 72
     2
 73
     0
 90
        0
 40
-0.6
 41
-30.0
 62
     5
 63
     7
 74
     1
 91
        4
 64
     7
 65
   257
 75
     1
175
     1
 42
1.0
 92
        8
 66
     7
 43
1.0
 76
     1
 77
     6
 78
     2
 67
     7
 79
     5
170
     0
171
     0
290
     0
174
     0
 93
        1
 44
0.0
173
     0
291
     1
 45
0.0
1001
ACAD
1000
AcDbSavedByObjectVersion
1070
     0
  0
VISUALSTYLE
  5
2B
102
{ACAD_REACTORS
330
2A
102
}
330
2A
100
AcDbVisualStyle
  2
Flat
 70
     0
 71
     2
 72
     1
 73
     1
 90
        2
 40
-0.6
 41
30.0
 62
     5
 63
     7
 74
     0
 91
        4
 64
     7
 65
   257
 75
     1
175
     1
 42
1.0
 92
        8
 66
     7
 43
1.0
 76
     1
 77
     6
 78
     2
 67
     7
 79
     5
170
     0
171
     0
290
     0
174
     0
 93
       13
 44
0.0
173
     0
291
     1
 45
0.0
1001
ACAD
1000
AcDbSavedByObjectVersion
1070
     0
  0
VISUALSTYLE
  5
2C
102
{ACAD_REACTORS
330
2A
102
}
330
2A
100
AcDbVisualStyle
  2
FlatWithEdges
 70
     1
 71
     2
 72
     1
 73
     1
 90
        2
 40
-0.6
 41
30.0
 62
     5
 63
     7
 74
     1
 91
        4
 64
     7
 65
   257
 75
     1
175
     1
 42
1.0
 92
        0
 66
   257
 43
1.0
 76
     1
 77
     6
 78
     2
 67
     7
 79
     5
170
     0
171
     0
290
     0
174
     0
 93
       13
 44
0.0
173
     0
291
     1
 45
0.0
1001
ACAD
1000
AcDbSavedByObjectVersion
1070
     0
  0
VISUALSTYLE
  5
2D
102
{ACAD_REACTORS
330
2A
102
}
330
2A
100
AcDbVisualStyle
  2
Gouraud
 70
     2
 71
     2
 72
     2
 73
     1
 90
        2
 40
-0.6
 41
30.0
 62
     5
 63
     7
 74
     0
 91
        4
 64
     7
 65
   257
 75
     1
175
     1
 42
1.0
 92
        0
 66
     7
 43
1.0
 76
     1
 77
     6
 78
     2
 67
     7
 79
     5
170
     0
171
     0
290
     0
174
     0
 93
       13
 44
0.0
173
     0
291
     1
 45
0.0
1001
ACAD
1000
AcDbSavedByObjectVersion
1070
     0
  0
VISUALSTYLE
  5
2E
102
{ACAD_REACTORS
330
2A
102
}
330
2A
100
AcDbVisualStyle
  2
GouraudWithEdges
 70
     3
 71
     2
 72
     2
 73
     1
 90
        2
 40
-0.6
 41
30.0
 62
     5
 63
     7
 74
     1
 91
        4
 64
     7
 65
   257
 75
     1
175
     1
 42
1.0
 92
        0
 66
   257
 43
1.0
 76
     1
 77
     6
 78
     2
 67
     7
 79
     5
170
     0
171
     0
290
     0
174
     0
 93
       13
 44
0.0
173
     0
291
     1
 45
0.0
1001
ACAD
1000
AcDbSavedByObjectVersion
1070
     0
  0
VISUALSTYLE
  5
38
102
{ACAD_REACTORS
330
2A
102
}
330
2A
100
AcDbVisualStyle
  2
Linepattern
 70
    14
 71
     2
 72
     2
 73
     0
 90
        0
 40
-0.6
 41
-30.0
 62
     5
 63
     7
 74
     1
 91
        4
 64
     7
 65
   257
 75
     7
175
     7
 42
1.0
 92
        8
 66
     7
 43
1.0
 76
     1
 77
     6
 78
     2
 67
     7
 79
     5
170
     0
171
     0
290
     0
174
     0
 93
        1
 44
0.0
173
     0
291
     1
 45
0.0
1001
ACAD
1000
AcDbSavedByObjectVersion
1070
     0
  0
VISUALSTYLE
  5
33
102
{ACAD_REACTORS
330
2A
102
}
330
2A
100
AcDbVisualStyle
  2
Realistic
 70
     8
 71
     2
 72
     2
 73
     0
 90
        0
 40
-0.6
 41
-30.0
 62
     5
 63
     7
 74
     1
 91
        0
 64
     7
 65
   257
 75
     1
175
     1
 42
1.0
 92
        8
 66
     8
 43
1.0
 76
     1
 77
     6
 78
     2
 67
     7
 79
     5
170
     0
171
     0
290
     0
174
     0
 93
       13
 44
0.0
173
     0
291
     0
 45
0.0
1001
ACAD
1000
AcDbSavedByObjectVersion
1070
     0
  0
VISUALSTYLE
  5
37
102
{ACAD_REACTORS
330
2A
102
}
330
2A
100
AcDbVisualStyle
  2
Thicken
 70
    13
 71
     2
 72
     2
 73
     0
 90
        0
 40
-0.6
 41
-30.0
 62
     5
 63
     7
 74
     1
 91
        4
 64
     7
 65
   257
 75
     1
175
     1
 42
1.0
 92
       12
 66
     7
 43
1.0
 76
     1
 77
     6
 78
     2
 67
     7
 79
     5
170
     0
171
     0
290
     0
174
     0
 93
        1
 44
0.0
173
     0
291
     1
 45
0.0
1001
ACAD
1000
AcDbSavedByObjectVersion
1070
     0
  0
DICTIONARYVAR
  5
237
102
{ACAD_REACTORS
330
234
102
}
330
234
100
DictionaryVariables
280
     0
  1
1:1
  0
ENDSEC
  0
EOF
