  0
SECTION
  2
HEADER
  9
$ACADVER
  1
AC1014
  9
$ACADMAINTVER
 70
             0
  9
$DWGCODEPAGE
  3
ANSI_1252
  9
$INSBASE
 10
0.0
 20
0.0
 30
0.0
  9
$EXTMIN
 10
-249.79709499999981
 20
-236.22113100000001
 30
0.0
  9
$EXTMAX
 10
249.7970960000001
 20
113.2785662947102
 30
0.0
  9
$LIMMIN
 10
0.0
 20
0.0
  9
$LIMMAX
 10
0.0
 20
0.0
  9
$ORTHOMODE
 70
             0
  9
$REGENMODE
 70
             1
  9
$FILLMODE
 70
             1
  9
$QTEXTMODE
 70
             0
  9
$MIRRTEXT
 70
             1
  9
$DRAGMODE
 70
             2
  9
$LTSCALE
 40
1.0
  9
$OSMODE
 70
             0
  9
$ATTMODE
 70
             1
  9
$TEXTSIZE
 40
0.2
  9
$TRACEWID
 40
0.05
  9
$TEXTSTYLE
  7
STANDARD
  9
$CLAYER
  8
0
  9
$CELTYPE
  6
CONTINUOUS
  9
$CECOLOR
 62
           256
  9
$CELTSCALE
 40
1.0
  9
$DELOBJ
 70
             1
  9
$DISPSILH
 70
             0
  9
$DIMSCALE
 40
1.0
  9
$DIMASZ
 40
0.18
  9
$DIMEXO
 40
0.0625
  9
$DIMDLI
 40
0.38
  9
$DIMRND
 40
0.0
  9
$DIMDLE
 40
0.0
  9
$DIMEXE
 40
0.18
  9
$DIMTP
 40
0.0
  9
$DIMTM
 40
0.0
  9
$DIMTXT
 40
0.18
  9
$DIMCEN
 40
0.09
  9
$DIMTSZ
 40
0.0
  9
$DIMTOL
 70
             0
  9
$DIMLIM
 70
             0
  9
$DIMTIH
 70
             1
  9
$DIMTOH
 70
             1
  9
$DIMSE1
 70
             0
  9
$DIMSE2
 70
             0
  9
$DIMTAD
 70
             0
  9
$DIMZIN
 70
             0
  9
$DIMBLK
  1

  9
$DIMASO
 70
             1
  9
$DIMSHO
 70
             1
  9
$DIMPOST
  1

  9
$DIMAPOST
  1

  9
$DIMALT
 70
             0
  9
$DIMALTD
 70
             2
  9
$DIMALTF
 40
25.4
  9
$DIMLFAC
 40
1.0
  9
$DIMTOFL
 70
             0
  9
$DIMTVP
 40
0.0
  9
$DIMTIX
 70
             0
  9
$DIMSOXD
 70
             0
  9
$DIMSAH
 70
             0
  9
$DIMBLK1
  1

  9
$DIMBLK2
  1

  9
$DIMSTYLE
  2
STANDARD
  9
$DIMCLRD
 70
             0
  9
$DIMCLRE
 70
             0
  9
$DIMCLRT
 70
             0
  9
$DIMTFAC
 40
1.0
  9
$DIMGAP
 40
0.09
  9
$DIMJUST
 70
             0
  9
$DIMSD1
 70
             0
  9
$DIMSD2
 70
             0
  9
$DIMTOLJ
 70
             1
  9
$DIMTZIN
 70
             0
  9
$DIMALTZ
 70
             0
  9
$DIMALTTZ
 70
             0
  9
$DIMFIT
 70
             3
  9
$DIMUPT
 70
             0
  9
$DIMUNIT
 70
             2
  9
$DIMDEC
 70
             4
  9
$DIMTDEC
 70
             4
  9
$DIMALTU
 70
             2
  9
$DIMALTTD
 70
             2
  9
$DIMTXSTY
  7
STANDARD
  9
$DIMAUNIT
 70
             0
  9
$LUNITS
 70
             2
  9
$LUPREC
 70
             4
  9
$SKETCHINC
 40
0.1
  9
$FILLETRAD
 40
0.0
  9
$AUNITS
 70
             0
  9
$AUPREC
 70
             0
  9
$MENU
  1
acad
  9
$ELEVATION
 40
0.0
  9
$PELEVATION
 40
0.0
  9
$THICKNESS
 40
0.0
  9
$LIMCHECK
 70
             0
  9
$BLIPMODE
 70
             1
  9
$CHAMFERA
 40
0.0
  9
$CHAMFERB
 40
0.0
  9
$CHAMFERC
 40
0.0
  9
$CHAMFERD
 40
0.0
  9
$SKPOLY
 70
             0
  9
$TDCREATE
 40
0.000000000
  9
$TDUPDATE
 40
0.000000000
  9
$TDINDWG
 40
0.0000000000
  9
$TDUSRTIMER
 40
0.0000000000
  9
$USRTIMER
 70
             1
  9
$ANGBASE
 50
0.0
  9
$ANGDIR
 70
             0
  9
$PDMODE
 70
             0
  9
$PDSIZE
 40
0.0
  9
$PLINEWID
 40
0.0
  9
$COORDS
 70
             0
  9
$SPLFRAME
 70
             0
  9
$SPLINETYPE
 70
             6
  9
$SPLINESEGS
 70
             8
  9
$ATTDIA
 70
             0
  9
$ATTREQ
 70
             1
  9
$HANDLING
 70
             1
  9
$HANDSEED
  5
12A
  9
$SURFTAB1
 70
             6
  9
$SURFTAB2
 70
             6
  9
$SURFTYPE
 70
             6
  9
$SURFU
 70
             6
  9
$SURFV
 70
             6
  9
$UCSNAME
  2

  9
$UCSORG
 10
0.0
 20
0.0
 30
0.0
  9
$UCSXDIR
 10
1.0
 20
0.0
 30
0.0
  9
$UCSYDIR
 10
0.0
 20
1.0
 30
0.0
  9
$PUCSNAME
  2

  9
$PUCSORG
 10
0.0
 20
0.0
 30
0.0
  9
$PUCSXDIR
 10
1.0
 20
0.0
 30
0.0
  9
$PUCSYDIR
 10
0.0
 20
1.0
 30
0.0
  9
$USERI1
 70
             0
  9
$USERI2
 70
             0
  9
$USERI3
 70
             0
  9
$USERI4
 70
             0
  9
$USERI5
 70
             0
  9
$USERR1
 40
12.01
  9
$USERR2
 40
0.0
  9
$USERR3
 40
0.0
  9
$USERR4
 40
0.0
  9
$USERR5
 40
0.0
  9
$WORLDVIEW
 70
             1
  9
$SHADEDGE
 70
             3
  9
$SHADEDIF
 70
            70
  9
$TILEMODE
 70
             1
  9
$MAXACTVP
 70
            16
  9
$PINSBASE
 10
0.0
 20
0.0
 30
0.0
  9
$PLIMCHECK
 70
             0
  9
$PEXTMIN
 10
1.00000000000000E+20
 20
1.00000000000000E+20
 30
1.00000000000000E+20
  9
$PEXTMAX
 10
-1.00000000000000E+20
 20
-1.00000000000000E+20
 30
-1.00000000000000E+20
  9
$PLIMMIN
 10
0.0
 20
0.0
  9
$PLIMMAX
 10
12.0
 20
9.0
  9
$UNITMODE
 70
             0
  9
$VISRETAIN
 70
             0
  9
$PLINEGEN
 70
             1
  9
$PSLTSCALE
 70
             0
  9
$TREEDEPTH
 70
          3020
  9
$PICKSTYLE
 70
             1
  9
$CMLSTYLE
  2
STANDARD
  9
$CMLJUST
 70
             0
  9
$CMLSCALE
 40
1.0
  9
$PROXYGRAPHICS
 70
             0
  9
$MEASUREMENT
 70
             1
  0
ENDSEC
  0
SECTION
  2
CLASSES
  0
CLASS
  1
LWPOLYLINE
  2
AcDbPolyline
  3
"AutoCAD"
 90
        0
280
             0
281
             1
  0
CLASS
  1
IMAGE
  2
AcDbRasterImage
  3
ISM
 90
      127
280
             0
281
             1
  0
CLASS
  1
OLE2FRAME
  2
AcDbOle2Frame
  3
""
 90
        0
280
             0
281
             1
  0
CLASS
  1
HATCH
  2
AcDbHatch
  3
"ACAD_SEDONA"
 90
        0
280
             0
281
             1
  0
CLASS
  1
DICTIONARYVAR
  2
AcDbDictionaryVar
  3
"AutoCAD"
 90
        0
280
             0
281
             0
  0
CLASS
  1
RASTERVARIABLES
  2
AcDbRasterVariables
  3
ISM
 90
        0
280
             0
281
             0
  0
CLASS
  1
IMAGEDEF
  2
AcDbRasterImageDef
  3
ISM
 90
        0
280
             0
281
             0
  0
CLASS
  1
IMAGEDEF_REACTOR
  2
AcDbRasterImageDefReactor
  3
ISM
 90
        1
280
             0
281
             0
  0
CLASS
  1
IDBUFFER
  2
AcDbIdBuffer
  3
"Acad"
 90
        0
280
             0
281
             0
  0
CLASS
  1
SPATIAL_FILTER
  2
AcDbSpatialFilter
  3
"Acad"
 90
        0
280
             0
281
             0
  0
CLASS
  1
XRECORD
  2
AcDbXrecord
  3
"<Built In>"
 90
        0
280
             0
281
             0
  0
CLASS
  1
SORTENTSTABLE
  2
AcDbSortentsTable
  3
"AutoCAD"
 90
        0
280
             0
281
             0
  0
CLASS
  1
LAYER_INDEX
  2
AcDbLayerIndex
  3
"Acad"
 90
        0
280
             0
281
             0
  0
CLASS
  1
SPATIAL_INDEX
  2
AcDbSpatialIndex
  3
"Acad"
 90
        0
280
             0
281
             0
  0
CLASS
  1
OBJECT_PTR
  2
CAseDLPNTableRecord
  3
"ASE-LPNTableRecord"
 90
        1
280
             0
281
             0
  0
CLASS
  1
LAYOUT
  2
AcDbLayout
  3
"AutoCAD 2000"
 90
        0
280
             0
281
             0
  0
CLASS
  1
PLOTSETTINGS
  2
AcDbPlotSettings
  3
"AutoCAD 2000"
 90
        0
280
             0
281
             0
  0
CLASS
  1
ACDBDICTIONARYWDFLT
  2
AcDbDictionaryWithDefault
  3
"AutoCAD 2000"
 90
        0
280
             0
281
             0
  0
CLASS
  1
ACDBPLACEHOLDER
  2
AcDbPlaceHolder
  3
"AutoCAD 2000"
 90
        0
280
             0
281
             0
  0
ENDSEC
  0
SECTION
  2
TABLES
  0
TABLE
  2
VPORT
  5
7
100
AcDbSymbolTable
 70
             1
  0
VPORT
  5
15
100
AcDbSymbolTableRecord
100
AcDbViewportTableRecord
  2
*ACTIVE
 70
             0
 10
0.0
 20
0.0
 11
1.0
 21
1.0
 12
0.00000050000014
 22
-61.47128235264491
 13
0.0
 23
0.0
 14
1.0
 24
1.0
 15
0.0
 25
0.0
 16
0.0
 26
0.0
 36
1.0
 17
0.0
 27
0.0
 37
0.0
 40
384.44966702418128
 41
1.60267857142857
 42
50.0
 43
0.0
 44
0.0
 50
0.0
 51
0.0
 71
             0
 72
           100
 73
             1
 74
             1
 75
             0
 76
             0
 77
             0
 78
             0
  0
ENDTAB
  0
TABLE
  2
LTYPE
  5
4
100
AcDbSymbolTable
 70
            11
  0
LTYPE
  5
11
100
AcDbSymbolTableRecord
100
AcDbLinetypeTableRecord
  2
BYBLOCK
 70
            64
  3

 72
            65
 73
             0
 40
0.0
  0
LTYPE
  5
12
100
AcDbSymbolTableRecord
100
AcDbLinetypeTableRecord
  2
BYLAYER
 70
            64
  3

 72
            65
 73
             0
 40
0.0
  0
LTYPE
  5
13
100
AcDbSymbolTableRecord
100
AcDbLinetypeTableRecord
  2
CONTINUOUS
 70
            64
  3
Solid line
 72
            65
 73
             0
 40
0.0
  0
LTYPE
  5
1D
100
AcDbSymbolTableRecord
100
AcDbLinetypeTableRecord
  2
DASHED
 70
            64
  3
Dashed
 72
            65
 73
             2
 40
15.0
 49
7.0
 74
             0
 49
-8.0
 74
             0
  0
LTYPE
  5
1E
100
AcDbSymbolTableRecord
100
AcDbLinetypeTableRecord
  2
DOTTED
 70
            64
  3
Dotted
 72
            65
 73
             2
 40
1.0
 49
0.0
 74
             0
 49
-1.0
 74
             0
  0
LTYPE
  5
1F
100
AcDbSymbolTableRecord
100
AcDbLinetypeTableRecord
  2
DOT_CENTER
 70
            64
  3
Dot_Center
 72
            65
 73
             4
 40
14.0
 49
12.0
 74
             0
 49
-1.0
 74
             0
 49
0.0
 74
             0
 49
-1.0
 74
             0
  0
LTYPE
  5
20
100
AcDbSymbolTableRecord
100
AcDbLinetypeTableRecord
  2
LONG_DASHED
 70
            64
  3
Long_Dashed
 72
            65
 73
             2
 40
15.0
 49
10.0
 74
             0
 49
-5.0
 74
             0
  0
LTYPE
  5
21
100
AcDbSymbolTableRecord
100
AcDbLinetypeTableRecord
  2
DASH_CENTER
 70
            64
  3
Dash_Center
 72
            65
 73
             4
 40
14.0
 49
11.0
 74
             0
 49
-1.0
 74
             0
 49
1.0
 74
             0
 49
-1.0
 74
             0
  0
LTYPE
  5
22
100
AcDbSymbolTableRecord
100
AcDbLinetypeTableRecord
  2
PHANTOM
 70
            64
  3
Phantom
 72
            65
 73
             6
 40
13.0
 49
10.0
 74
             0
 49
-1.0
 74
             0
 49
0.0
 74
             0
 49
-1.0
 74
             0
 49
0.0
 74
             0
 49
-1.0
 74
             0
  0
LTYPE
  5
23
100
AcDbSymbolTableRecord
100
AcDbLinetypeTableRecord
  2
CENTER_DASH_DASH
 70
            64
  3
Center_Dash_Dash
 72
            65
 73
             6
 40
14.0
 49
9.0
 74
             0
 49
-1.0
 74
             0
 49
1.0
 74
             0
 49
-1.0
 74
             0
 49
1.0
 74
             0
 49
-1.0
 74
             0
  0
LTYPE
  5
24
100
AcDbSymbolTableRecord
100
AcDbLinetypeTableRecord
  2
DASHDOT
 70
            64
  3
DASHDOT
 72
            65
 73
             4
 40
16.0
 49
10.0
 74
             0
 49
-3.0
 74
             0
 49
0.0
 74
             0
 49
-3.0
 74
             0
  0
ENDTAB
  0
TABLE
  2
LAYER
  5
2
100
AcDbSymbolTable
 70
             8
  0
LAYER
  5
14
100
AcDbSymbolTableRecord
100
AcDbLayerTableRecord
  2
0
 70
             0
 62
             7
  6
CONTINUOUS
  0
LAYER
  5
25
100
AcDbSymbolTableRecord
100
AcDbLayerTableRecord
  2
1
 70
             0
 62
             7
  6
CONTINUOUS
  0
LAYER
  5
26
100
AcDbSymbolTableRecord
100
AcDbLayerTableRecord
  2
LC-001-002-----0
 70
             0
 62
             7
  6
CONTINUOUS
  0
LAYER
  5
27
100
AcDbSymbolTableRecord
100
AcDbLayerTableRecord
  2
LC-002-002-RND-0
 70
             0
 62
             7
  6
CONTINUOUS
  0
LAYER
  5
28
100
AcDbSymbolTableRecord
100
AcDbLayerTableRecord
  2
LC-004-005-----0
 70
             0
 62
             7
  6
CONTINUOUS
  0
LAYER
  5
29
100
AcDbSymbolTableRecord
100
AcDbLayerTableRecord
  2
LC-006-001-----0
 70
             0
 62
             7
  6
CONTINUOUS
  0
LAYER
  5
2A
100
AcDbSymbolTableRecord
100
AcDbLayerTableRecord
  2
LC-007-001-RND-0
 70
             0
 62
             7
  6
CONTINUOUS
  0
LAYER
  5
2B
100
AcDbSymbolTableRecord
100
AcDbLayerTableRecord
  2
LC-008-003-----0
 70
             0
 62
             7
  6
CONTINUOUS
  0
ENDTAB
  0
TABLE
  2
STYLE
  5
3
100
AcDbSymbolTable
 70
             2
  0
STYLE
  5
17
100
AcDbSymbolTableRecord
100
AcDbTextStyleTableRecord
  2
STANDARD
 70
             0
 40
0.0
 41
1.0
 50
0.0
 71
             0
 42
0.0
  3
txt
  4

  0
STYLE
  5
F8
100
AcDbSymbolTableRecord
100
AcDbTextStyleTableRecord
  2
CONVERTER_1
 70
             0
 40
0.0
 41
0.9
 50
0.0
 71
             0
 42
0.0
  3
txt.shx
  4

  0
ENDTAB
  0
TABLE
  2
VIEW
  5
5
100
AcDbSymbolTable
 70
             0
  0
ENDTAB
  0
TABLE
  2
UCS
  5
6
100
AcDbSymbolTable
 70
             0
  0
ENDTAB
  0
TABLE
  2
APPID
  5
8
100
AcDbSymbolTable
 70
             1
  0
APPID
  5
16
100
AcDbSymbolTableRecord
100
AcDbRegAppTableRecord
  2
ACAD
 70
             0
  0
ENDTAB
  0
TABLE
  2
DIMSTYLE
  5
9
100
AcDbSymbolTable
 70
             6
  0
DIMSTYLE
105
18
100
AcDbSymbolTableRecord
100
AcDbDimStyleTableRecord
  2
STANDARD
 70
             0
  3

  4

  5

  6

  7

 40
1.0
 41
0.18
 42
0.0625
 43
0.38
 44
0.18
 45
0.0
 46
0.0
 47
0.0
 48
0.0
 71
             0
 72
             0
 73
             1
 74
             1
 75
             0
 76
             0
 77
             0
 78
             0
140
0.18
141
0.09
142
0.0
143
25.4
144
1.0
145
0.0
146
1.0
147
0.09
170
             0
171
             2
172
             0
173
             0
174
             0
175
             0
176
             0
177
             0
178
             0
270
             2
271
             4
272
             4
273
             2
274
             2
275
             0
280
             0
281
             0
282
             0
283
             1
284
             0
285
             0
286
             0
287
             3
288
             0
340
17
  0
DIMSTYLE
105
FB
100
AcDbSymbolTableRecord
100
AcDbDimStyleTableRecord
  2
ME10_DIM_0
 70
             0
  3
Ø<>
  4

  5

  6

  7

 40
1.0
 41
10.0
 42
0.0
 43
0.38
 44
2.0
 45
0.0
 46
0.0
 47
0.0
 48
0.0
 71
             0
 72
             0
 73
             0
 74
             0
 75
             0
 76
             0
 77
             1
 78
             8
140
10.0
141
0.09
142
0.0
143
25.4
144
1.0
145
0.0
146
1.0
147
0.625
170
             0
171
             2
172
             1
173
             1
174
             0
175
             0
176
             4
177
             4
178
             1
270
             2
271
             2
272
             4
273
             2
274
             2
275
             0
280
             0
281
             0
282
             0
283
             1
284
             0
285
             0
286
             0
287
             3
288
             0
340
F8
  0
DIMSTYLE
105
106
100
AcDbSymbolTableRecord
100
AcDbDimStyleTableRecord
  2
ME10_DIM_1
 70
             0
  3
Ø<>
  4

  5

  6

  7

 40
1.0
 41
10.0
 42
0.0
 43
0.38
 44
2.0
 45
0.0
 46
0.0
 47
0.0
 48
0.0
 71
             0
 72
             0
 73
             0
 74
             0
 75
             0
 76
             0
 77
             1
 78
             8
140
10.0
141
0.09
142
0.0
143
25.4
144
1.0
145
0.0
146
1.0
147
0.625
170
             0
171
             2
172
             1
173
             1
174
             0
175
             0
176
             4
177
             4
178
             1
270
             2
271
             2
272
             4
273
             2
274
             2
275
             0
280
             0
281
             0
282
             0
283
             1
284
             0
285
             0
286
             0
287
             3
288
             0
340
F8
  0
DIMSTYLE
105
111
100
AcDbSymbolTableRecord
100
AcDbDimStyleTableRecord
  2
ME10_DIM_2
 70
             0
  3
DN<>
  4

  5

  6

  7

 40
1.0
 41
10.0
 42
0.0
 43
0.38
 44
2.0
 45
0.0
 46
0.0
 47
0.0
 48
0.0
 71
             0
 72
             0
 73
             0
 74
             0
 75
             0
 76
             0
 77
             1
 78
             8
140
10.0
141
0.09
142
0.0
143
25.4
144
1.0
145
0.0
146
1.0
147
0.625
170
             0
171
             2
172
             1
173
             1
174
             0
175
             0
176
             4
177
             4
178
             1
270
             2
271
             2
272
             4
273
             2
274
             2
275
             0
280
             0
281
             0
282
             0
283
             1
284
             0
285
             0
286
             0
287
             3
288
             0
340
F8
  0
DIMSTYLE
105
11C
100
AcDbSymbolTableRecord
100
AcDbDimStyleTableRecord
  2
ME10_DIM_3
 70
             0
  3

  4

  5

  6

  7

 40
1.0
 41
10.0
 42
0.0
 43
0.38
 44
2.0
 45
0.0
 46
0.0
 47
0.0
 48
0.0
 71
             0
 72
             0
 73
             0
 74
             0
 75
             0
 76
             0
 77
             1
 78
             8
140
10.0
141
0.09
142
0.0
143
25.4
144
1.0
145
0.0
146
1.0
147
0.625
170
             0
171
             2
172
             1
173
             1
174
             0
175
             0
176
             4
177
             4
178
             1
270
             2
271
             2
272
             4
273
             2
274
             2
275
             0
280
             0
281
             0
282
             0
283
             1
284
             0
285
             0
286
             0
287
             3
288
             0
340
F8
  0
DIMSTYLE
105
127
100
AcDbSymbolTableRecord
100
AcDbDimStyleTableRecord
  2
ME10_DIM_4
 70
             0
  3
Ø<>
  4

  5

  6

  7

 40
1.0
 41
10.0
 42
0.0
 43
0.38
 44
2.0
 45
0.0
 46
0.0
 47
0.0
 48
0.0
 71
             0
 72
             0
 73
             0
 74
             0
 75
             0
 76
             0
 77
             1
 78
             8
140
10.0
141
0.09
142
0.0
143
25.4
144
1.0
145
0.0
146
1.0
147
0.625
170
             0
171
             2
172
             1
173
             1
174
             0
175
             0
176
             4
177
             4
178
             1
270
             2
271
             2
272
             4
273
             2
274
             2
275
             0
280
             0
281
             0
282
             0
283
             1
284
             0
285
             0
286
             0
287
             3
288
             0
340
F8
  0
ENDTAB
  0
TABLE
  2
BLOCK_RECORD
  5
1
100
AcDbSymbolTable
 70
             7
  0
BLOCK_RECORD
  5
A
100
AcDbSymbolTableRecord
100
AcDbBlockTableRecord
  2
*MODEL_SPACE
  0
BLOCK_RECORD
  5
B
100
AcDbSymbolTableRecord
100
AcDbBlockTableRecord
  2
*PAPER_SPACE
  0
BLOCK_RECORD
  5
2C
100
AcDbSymbolTableRecord
100
AcDbBlockTableRecord
  2
TOP
  0
BLOCK_RECORD
  5
2E
100
AcDbSymbolTableRecord
100
AcDbBlockTableRecord
  2
062_1E_LAUBFANGKORB
  0
BLOCK_RECORD
  5
F1
100
AcDbSymbolTableRecord
100
AcDbBlockTableRecord
  2
*D2
  0
BLOCK_RECORD
  5
FD
100
AcDbSymbolTableRecord
100
AcDbBlockTableRecord
  2
*D3
  0
BLOCK_RECORD
  5
108
100
AcDbSymbolTableRecord
100
AcDbBlockTableRecord
  2
*D4
  0
BLOCK_RECORD
  5
113
100
AcDbSymbolTableRecord
100
AcDbBlockTableRecord
  2
*D5
  0
BLOCK_RECORD
  5
11E
100
AcDbSymbolTableRecord
100
AcDbBlockTableRecord
  2
*D6
  0
ENDTAB
  0
ENDSEC
  0
SECTION
  2
BLOCKS
  0
BLOCK
  5
D
100
AcDbEntity
  8
0
100
AcDbBlockBegin
  2
*MODEL_SPACE
 70
             0
 10
0.0
 20
0.0
 30
0.0
  3
*MODEL_SPACE
  1

  0
ENDBLK
  5
E
100
AcDbEntity
  8
0
100
AcDbBlockEnd
  0
BLOCK
  5
F
100
AcDbEntity
 67
             1
  8
0
100
AcDbBlockBegin
  2
*PAPER_SPACE
 70
             0
 10
0.0
 20
0.0
 30
0.0
  3
*PAPER_SPACE
  1

  0
ENDBLK
  5
10
100
AcDbEntity
 67
             1
  8
0
100
AcDbBlockEnd
  0
BLOCK
  5
2D
100
AcDbEntity
  8
0
100
AcDbBlockBegin
  2
TOP
 70
             0
 10
740.68229115029101
 20
-45.13171381708099
 30
0.0
  3
TOP
  1

  0
ARC
  5
A6
100
AcDbEntity
  8
LC-007-001-RND-0
  6
CONTINUOUS
 62
             7
100
AcDbCircle
 10
-96.48554599999989
 20
-7.81053100000002
 40
1.50000000000006
100
AcDbArc
 50
2.99999999998361
 51
86.00000299999958
  0
ARC
  5
A5
100
AcDbEntity
  8
LC-002-002-RND-0
  6
CONTINUOUS
 62
             7
100
AcDbCircle
 10
-91.77549699999986
 20
-12.20068400000002
 40
2.99999999999994
100
AcDbArc
 50
-176.99999999999656
 51
-90.0
  0
ARC
  5
A4
100
AcDbEntity
  8
LC-002-002-RND-0
  6
CONTINUOUS
 62
             7
100
AcDbCircle
 10
-91.49929299999985
 20
-17.20068400000002
 40
2.0
100
AcDbArc
 50
0.0
 51
90.0
  0
ARC
  5
A3
100
AcDbEntity
  8
LC-002-002-RND-0
  6
CONTINUOUS
 62
             7
100
AcDbCircle
 10
-81.08514799999989
 20
-32.10825199999999
 40
4.99999999999994
100
AcDbArc
 50
-154.00000000000432
 51
-108.09293599999862
  0
ARC
  5
A2
100
AcDbEntity
  8
LC-002-002-RND-0
  6
CONTINUOUS
 62
             7
100
AcDbCircle
 10
-81.74999999999989
 20
-38.729153
 40
1.5
100
AcDbArc
 50
0.0
 51
71.90706399998487
  0
ARC
  5
A1
100
AcDbEntity
  8
LC-002-002-RND-0
  6
CONTINUOUS
 62
             7
100
AcDbCircle
 10
-84.49929299999985
 20
-25.10821800000002
 40
5.0
100
AcDbArc
 50
180.0
 51
-154.00000000000421
  0
ARC
  5
A0
100
AcDbEntity
  8
LC-007-001-RND-0
  6
CONTINUOUS
 62
             7
100
AcDbCircle
 10
96.48554700000011
 20
-7.81053100000002
 40
1.49999999999965
100
AcDbArc
 50
93.99999700001342
 51
177.0000000000164
  0
ARC
  5
9F
100
AcDbEntity
  8
LC-002-002-RND-0
  6
CONTINUOUS
 62
             7
100
AcDbCircle
 10
91.7754970000002
 20
-12.20068400000002
 40
3.0
100
AcDbArc
 50
-90.0
 51
-3.00000000000322
  0
ARC
  5
9E
100
AcDbEntity
  8
LC-002-002-RND-0
  6
CONTINUOUS
 62
             7
100
AcDbCircle
 10
91.49929300000019
 20
-17.20068400000002
 40
2.0
100
AcDbArc
 50
90.0
 51
180.0
  0
ARC
  5
9D
100
AcDbEntity
  8
LC-002-002-RND-0
  6
CONTINUOUS
 62
             7
100
AcDbCircle
 10
81.08514900000012
 20
-32.10825199999999
 40
5.00000000000052
100
AcDbArc
 50
-71.90706400000138
 51
-25.99999999999513
  0
ARC
  5
9C
100
AcDbEntity
  8
LC-002-002-RND-0
  6
CONTINUOUS
 62
             7
100
AcDbCircle
 10
81.75000000000011
 20
-38.729153
 40
1.50000000000001
100
AcDbArc
 50
108.09293600001101
 51
180.0
  0
ARC
  5
9B
100
AcDbEntity
  8
LC-002-002-RND-0
  6
CONTINUOUS
 62
             7
100
AcDbCircle
 10
84.49929300000019
 20
-25.10821800000002
 40
4.99999999999993
100
AcDbArc
 50
-25.99999999999523
 51
0.0
  0
ARC
  5
9A
100
AcDbEntity
  8
LC-002-002-RND-0
  6
CONTINUOUS
 62
             7
100
AcDbCircle
 10
72.4996960000002
 20
-97.600684
 40
8.0
100
AcDbArc
 50
-90.0
 51
0.0
  0
ARC
  5
99
100
AcDbEntity
  8
LC-002-002-RND-0
  6
CONTINUOUS
 62
             7
100
AcDbCircle
 10
-72.49950499999989
 20
-97.60088300000001
 40
8.00000000000002
100
AcDbArc
 50
-179.99984300000276
 51
-89.59598199999964
  0
ARC
  5
98
100
AcDbEntity
  8
LC-002-002-RND-0
  6
CONTINUOUS
 62
             7
100
AcDbCircle
 10
-114.69922199999991
 20
-178.101336
 40
46.5
100
AcDbArc
 50
-90.0
 51
0.0
  0
ARC
  5
97
100
AcDbEntity
  8
LC-002-002-RND-0
  6
CONTINUOUS
 62
             7
100
AcDbCircle
 10
-114.69922199999991
 20
-178.101336
 40
40.0
100
AcDbArc
 50
-90.0
 51
0.0
  0
LINE
  5
96
100
AcDbEntity
  8
LC-001-002-----0
  6
CONTINUOUS
 62
             7
100
AcDbLine
 10
-150.75174299999981
 20
-3.00045699999998
 11
-111.1964289999999
 21
-3.690898
  0
LINE
  5
95
100
AcDbEntity
  8
LC-001-002-----0
  6
CONTINUOUS
 62
             7
100
AcDbLine
 10
-111.1964289999999
 20
-3.690898
 11
-109.48980399999979
 21
-5.39752300000003
  0
LINE
  5
94
100
AcDbEntity
  8
LC-006-001-----0
  6
CONTINUOUS
 62
             7
100
AcDbLine
 10
-109.48980399999979
 20
-5.39752300000003
 11
-96.38091199999985
 21
-6.314185
  0
LINE
  5
93
100
AcDbEntity
  8
LC-001-002-----0
  6
CONTINUOUS
 62
             7
100
AcDbLine
 10
-95.01373399999989
 20
-7.73339700000002
 11
-94.7713849999999
 21
-12.35769199999998
  0
LINE
  5
92
100
AcDbEntity
  8
LC-001-002-----0
  6
CONTINUOUS
 62
             7
100
AcDbLine
 10
-80.24999999999989
 20
-95.600684
 11
0.00009300000022
 21
-95.600684
  0
LINE
  5
91
100
AcDbEntity
  8
LC-001-002-----0
  6
CONTINUOUS
 62
             7
100
AcDbLine
 10
-62.49999999999989
 20
-159.100684
 11
-61.29422799999986
 21
-163.600684
  0
LINE
  5
90
100
AcDbEntity
  8
LC-001-002-----0
  6
CONTINUOUS
 62
             7
100
AcDbLine
 10
-82.63794399999983
 20
-36.86102199999999
 11
-81.28416099999981
 21
-37.30332199999998
  0
LINE
  5
8F
100
AcDbEntity
  8
LC-001-002-----0
  6
CONTINUOUS
 62
             7
100
AcDbLine
 10
-150.75174299999981
 20
0.0
 11
-150.75174299999981
 21
-3.00045699999998
  0
LINE
  5
8E
100
AcDbEntity
  8
LC-001-002-----0
  6
CONTINUOUS
 62
             7
100
AcDbLine
 10
-62.49999999999989
 20
-108.100684
 11
-62.49999999999989
 21
-159.100684
  0
LINE
  5
8D
100
AcDbEntity
  8
LC-001-002-----0
  6
CONTINUOUS
 62
             7
100
AcDbLine
 10
-91.77549699999986
 20
-15.20068400000002
 11
-91.49929299999985
 21
-15.20068400000002
  0
LINE
  5
8C
100
AcDbEntity
  8
LC-001-002-----0
  6
CONTINUOUS
 62
             7
100
AcDbLine
 10
0.00000000000011
 20
-163.600684
 11
-61.29422799999986
 21
-163.600684
  0
LINE
  5
8B
100
AcDbEntity
  8
LC-001-002-----0
  6
CONTINUOUS
 62
             7
100
AcDbLine
 10
-89.49929299999985
 20
-25.10821800000002
 11
-89.49929299999985
 21
-17.20068400000002
  0
LINE
  5
8A
100
AcDbEntity
  8
LC-001-002-----0
  6
CONTINUOUS
 62
             7
100
AcDbLine
 10
-88.99326299999984
 20
-27.30007299999999
 11
-85.57911799999988
 21
-34.30010800000002
  0
LINE
  5
89
100
AcDbEntity
  8
LC-001-002-----0
  6
CONTINUOUS
 62
             7
100
AcDbLine
 10
-80.24999999999989
 20
-38.729153
 11
-80.24999999999989
 21
-95.600684
  0
LINE
  5
88
100
AcDbEntity
  8
LC-008-003-----0
  6
CONTINUOUS
 62
             2
100
AcDbLine
 10
-80.91377899999986
 20
-37.424331
 11
-80.24999999999989
 21
-37.64119700000003
  0
LINE
  5
87
100
AcDbEntity
  8
LC-001-002-----0
  6
CONTINUOUS
 62
             7
100
AcDbLine
 10
150.7517430000002
 20
-3.00045699999998
 11
111.19643000000011
 21
-3.690898
  0
LINE
  5
86
100
AcDbEntity
  8
LC-001-002-----0
  6
CONTINUOUS
 62
             7
100
AcDbLine
 10
111.19643000000011
 20
-3.690898
 11
109.4898050000002
 21
-5.39752300000003
  0
LINE
  5
85
100
AcDbEntity
  8
LC-006-001-----0
  6
CONTINUOUS
 62
             7
100
AcDbLine
 10
109.4898050000002
 20
-5.39752300000003
 11
96.38091300000008
 21
-6.314185
  0
LINE
  5
84
100
AcDbEntity
  8
LC-001-002-----0
  6
CONTINUOUS
 62
             7
100
AcDbLine
 10
95.01373500000011
 20
-7.73339700000002
 11
94.77138600000023
 21
-12.35769199999998
  0
LINE
  5
83
100
AcDbEntity
  8
LC-001-002-----0
  6
CONTINUOUS
 62
             7
100
AcDbLine
 10
80.25000000000011
 20
-95.600684
 11
0.00009300000022
 21
-95.600684
  0
LINE
  5
82
100
AcDbEntity
  8
LC-001-002-----0
  6
CONTINUOUS
 62
             7
100
AcDbLine
 10
62.50000000000011
 20
-159.100684
 11
61.29422900000019
 21
-163.600684
  0
LINE
  5
81
100
AcDbEntity
  8
LC-001-002-----0
  6
CONTINUOUS
 62
             7
100
AcDbLine
 10
82.63794500000017
 20
-36.86102199999999
 11
81.28416100000015
 21
-37.30332199999998
  0
LINE
  5
80
100
AcDbEntity
  8
LC-001-002-----0
  6
CONTINUOUS
 62
             7
100
AcDbLine
 10
150.7517430000002
 20
0.0
 11
150.7517430000002
 21
-3.00045699999998
  0
LINE
  5
7F
100
AcDbEntity
  8
LC-001-002-----0
  6
CONTINUOUS
 62
             7
100
AcDbLine
 10
62.50000000000011
 20
-108.100684
 11
62.50000000000011
 21
-159.100684
  0
LINE
  5
7E
100
AcDbEntity
  8
LC-001-002-----0
  6
CONTINUOUS
 62
             7
100
AcDbLine
 10
91.7754970000002
 20
-15.20068400000002
 11
91.49929300000019
 21
-15.20068400000002
  0
LINE
  5
7D
100
AcDbEntity
  8
LC-001-002-----0
  6
CONTINUOUS
 62
             7
100
AcDbLine
 10
0.00000000000011
 20
-163.600684
 11
61.29422900000019
 21
-163.600684
  0
LINE
  5
7C
100
AcDbEntity
  8
LC-001-002-----0
  6
CONTINUOUS
 62
             7
100
AcDbLine
 10
89.49929300000019
 20
-25.10821800000002
 11
89.49929300000019
 21
-17.20068400000002
  0
LINE
  5
7B
100
AcDbEntity
  8
LC-001-002-----0
  6
CONTINUOUS
 62
             7
100
AcDbLine
 10
88.99326400000007
 20
-27.30007299999999
 11
85.57911900000011
 21
-34.30010800000002
  0
LINE
  5
7A
100
AcDbEntity
  8
LC-001-002-----0
  6
CONTINUOUS
 62
             7
100
AcDbLine
 10
80.25000000000011
 20
-38.729153
 11
80.25000000000011
 21
-95.600684
  0
LINE
  5
79
100
AcDbEntity
  8
LC-001-002-----0
  6
CONTINUOUS
 62
             7
100
AcDbLine
 10
249.7970960000001
 20
4.69999999999999
 11
-249.79709499999981
 21
4.69999999999999
  0
LINE
  5
78
100
AcDbEntity
  8
LC-001-002-----0
  6
CONTINUOUS
 62
             7
100
AcDbLine
 10
150.7517430000002
 20
0.0
 11
-249.79709499999981
 21
0.0
  0
LINE
  5
77
100
AcDbEntity
  8
LC-001-002-----0
  6
CONTINUOUS
 62
             7
100
AcDbLine
 10
-249.79709499999981
 20
4.69999999999999
 11
-249.79709499999981
 21
0.0
  0
LINE
  5
76
100
AcDbEntity
  8
LC-001-002-----0
  6
CONTINUOUS
 62
             7
100
AcDbLine
 10
249.7970960000001
 20
4.69999999999999
 11
249.7970960000001
 21
0.0
  0
LINE
  5
75
100
AcDbEntity
  8
LC-001-002-----0
  6
CONTINUOUS
 62
             7
100
AcDbLine
 10
150.66971700000011
 20
0.0
 11
249.7970960000001
 21
0.0
  0
LINE
  5
74
100
AcDbEntity
  8
LC-001-002-----0
  6
CONTINUOUS
 62
             7
100
AcDbLine
 10
-80.5003039999998
 20
-95.600684
 11
-77.5003039999998
 21
-95.600684
  0
LINE
  5
73
100
AcDbEntity
  8
LC-001-002-----0
  6
CONTINUOUS
 62
             7
100
AcDbLine
 10
-80.5003039999998
 20
-97.600684
 11
-80.5003039999998
 21
-95.600684
  0
LINE
  5
72
100
AcDbEntity
  8
LC-001-002-----0
  6
CONTINUOUS
 62
             7
100
AcDbLine
 10
80.4996960000002
 20
-97.600684
 11
80.4996960000002
 21
-95.600684
  0
LINE
  5
71
100
AcDbEntity
  8
LC-001-002-----0
  6
CONTINUOUS
 62
             7
100
AcDbLine
 10
80.4996960000002
 20
-95.600684
 11
77.4996960000002
 21
-95.600684
  0
LINE
  5
70
100
AcDbEntity
  8
LC-001-002-----0
  6
CONTINUOUS
 62
             7
100
AcDbLine
 10
-72.55591599999991
 20
-105.600684
 11
0.00010700000018
 21
-105.600684
  0
LINE
  5
6F
100
AcDbEntity
  8
LC-001-002-----0
  6
CONTINUOUS
 62
             7
100
AcDbLine
 10
-67.49289599999986
 20
-105.600684
 11
-67.49289599999986
 21
-108.100684
  0
LINE
  5
6E
100
AcDbEntity
  8
LC-001-002-----0
  6
CONTINUOUS
 62
             7
100
AcDbLine
 10
-67.49289599999986
 20
-108.100684
 11
0.00011000000018
 21
-108.100684
  0
LINE
  5
6D
100
AcDbEntity
  8
LC-001-002-----0
  6
CONTINUOUS
 62
             7
100
AcDbLine
 10
0.00011000000018
 20
-108.100684
 11
67.49228900000014
 21
-108.100684
  0
LINE
  5
6C
100
AcDbEntity
  8
LC-001-002-----0
  6
CONTINUOUS
 62
             7
100
AcDbLine
 10
67.49228900000014
 20
-108.100684
 11
67.49228900000014
 21
-105.600684
  0
LINE
  5
6B
100
AcDbEntity
  8
LC-001-002-----0
  6
CONTINUOUS
 62
             7
100
AcDbLine
 10
0.00010700000018
 20
-105.600684
 11
72.4996960000002
 21
-105.600684
  0
LINE
  5
6A
100
AcDbEntity
  8
LC-001-002-----0
  6
CONTINUOUS
 62
             7
100
AcDbLine
 10
-189.11776699999979
 20
-224.96773300000001
 11
-189.11776699999979
 21
-224.96773300000001
  0
LINE
  5
69
100
AcDbEntity
  8
LC-001-002-----0
  6
DASHDOT
 62
             2
100
AcDbLine
 10
-117.9992219999998
 20
-208.56174200000001
 11
-117.9992219999998
 21
-236.22113100000001
  0
LINE
  5
68
100
AcDbEntity
  8
LC-001-002-----0
  6
DASHDOT
 62
             2
100
AcDbLine
 10
-115.9992219999998
 20
-208.56174200000001
 11
-115.9992219999998
 21
-236.22113100000001
  0
LINE
  5
67
100
AcDbEntity
  8
LC-001-002-----0
  6
CONTINUOUS
 62
             7
100
AcDbLine
 10
-117.9992219999998
 20
-224.601336
 11
-170.36803099999989
 21
-224.601336
  0
LINE
  5
66
100
AcDbEntity
  8
LC-001-002-----0
  6
CONTINUOUS
 62
             7
100
AcDbLine
 10
-117.9992219999998
 20
-218.101336
 11
-170.36803099999989
 21
-218.101336
  0
LINE
  5
65
100
AcDbEntity
  8
LC-001-002-----0
  6
CONTINUOUS
 62
             7
100
AcDbLine
 10
-170.36803099999989
 20
-218.101336
 11
-170.36803099999989
 21
-224.601336
  0
LINE
  5
64
100
AcDbEntity
  8
LC-001-002-----0
  6
CONTINUOUS
 62
             7
100
AcDbLine
 10
-170.36803099999989
 20
-219.099278
 11
-195.11484299999981
 21
-217.80235200000001
  0
LINE
  5
63
100
AcDbEntity
  8
LC-001-002-----0
  6
CONTINUOUS
 62
             7
100
AcDbLine
 10
-170.36803099999989
 20
-220.601336
 11
-195.28336499999989
 21
-219.295579
  0
LINE
  5
62
100
AcDbEntity
  8
LC-001-002-----0
  6
CONTINUOUS
 62
             7
100
AcDbLine
 10
-170.36803099999989
 20
-220.601336
 11
-195.36803099999989
 21
-220.601336
  0
LINE
  5
61
100
AcDbEntity
  8
LC-001-002-----0
  6
CONTINUOUS
 62
             7
100
AcDbLine
 10
-170.36803099999989
 20
-222.101336
 11
-195.36803099999989
 21
-222.101336
  0
LINE
  5
60
100
AcDbEntity
  8
LC-001-002-----0
  6
CONTINUOUS
 62
             7
100
AcDbLine
 10
-170.36803099999989
 20
-222.101336
 11
-195.28336499999989
 21
-223.407093
  0
LINE
  5
5F
100
AcDbEntity
  8
LC-001-002-----0
  6
CONTINUOUS
 62
             7
100
AcDbLine
 10
-170.36803099999989
 20
-223.60339500000001
 11
-195.11484299999981
 21
-224.90031999999999
  0
LINE
  5
5E
100
AcDbEntity
  8
LC-001-002-----0
  6
CONTINUOUS
 62
             7
100
AcDbLine
 10
-195.14292999999989
 20
-224.65144900000001
 11
-202.1571469999999
 21
-225.019049
  0
LINE
  5
5D
100
AcDbEntity
  8
LC-001-002-----0
  6
CONTINUOUS
 62
             7
100
AcDbLine
 10
-195.25527799999989
 20
-223.65596500000001
 11
-202.25631899999991
 21
-224.022874
  0
LINE
  5
5C
100
AcDbEntity
  8
LC-001-002-----0
  6
CONTINUOUS
 62
             7
100
AcDbLine
 10
-195.36803099999989
 20
-221.851336
 11
-202.36803099999989
 21
-221.851336
  0
LINE
  5
5B
100
AcDbEntity
  8
LC-001-002-----0
  6
CONTINUOUS
 62
             7
100
AcDbLine
 10
-195.36803099999989
 20
-220.851336
 11
-202.36803099999989
 21
-220.851336
  0
LINE
  5
5A
100
AcDbEntity
  8
LC-001-002-----0
  6
CONTINUOUS
 62
             7
100
AcDbLine
 10
-195.25527799999989
 20
-219.046708
 11
-202.25631899999991
 21
-218.679799
  0
LINE
  5
59
100
AcDbEntity
  8
LC-001-002-----0
  6
CONTINUOUS
 62
             7
100
AcDbLine
 10
-195.14292999999989
 20
-218.05122299999999
 11
-202.1571469999999
 21
-217.68362400000001
  0
LINE
  5
58
100
AcDbEntity
  8
LC-001-002-----0
  6
CONTINUOUS
 62
             7
100
AcDbLine
 10
-195.11484299999981
 20
-217.80235200000001
 11
-195.28336499999989
 21
-219.295579
  0
LINE
  5
57
100
AcDbEntity
  8
LC-001-002-----0
  6
CONTINUOUS
 62
             7
100
AcDbLine
 10
-195.36803099999989
 20
-220.601336
 11
-195.36803099999989
 21
-222.101336
  0
LINE
  5
56
100
AcDbEntity
  8
LC-001-002-----0
  6
CONTINUOUS
 62
             7
100
AcDbLine
 10
-195.11484299999981
 20
-224.90031999999999
 11
-195.28336499999989
 21
-223.407093
  0
LINE
  5
55
100
AcDbEntity
  8
LC-001-002-----0
  6
CONTINUOUS
 62
             7
100
AcDbLine
 10
-202.1571469999999
 20
-225.019049
 11
-202.25631899999991
 21
-224.022874
  0
LINE
  5
54
100
AcDbEntity
  8
LC-001-002-----0
  6
CONTINUOUS
 62
             7
100
AcDbLine
 10
-202.36803099999989
 20
-220.851336
 11
-202.36803099999989
 21
-221.851336
  0
LINE
  5
53
100
AcDbEntity
  8
LC-001-002-----0
  6
CONTINUOUS
 62
             7
100
AcDbLine
 10
-202.1571469999999
 20
-217.68362400000001
 11
-202.25631899999991
 21
-218.679799
  0
LINE
  5
52
100
AcDbEntity
  8
LC-001-002-----0
  6
CONTINUOUS
 62
             7
100
AcDbLine
 10
-114.69922199999991
 20
-218.101336
 11
-115.9992219999998
 21
-218.101336
  0
LINE
  5
51
100
AcDbEntity
  8
LC-001-002-----0
  6
CONTINUOUS
 62
             7
100
AcDbLine
 10
-114.69922199999991
 20
-224.601336
 11
-115.9992219999998
 21
-224.601336
  0
LINE
  5
50
100
AcDbEntity
  8
LC-001-002-----0
  6
CONTINUOUS
 62
             7
100
AcDbLine
 10
-74.69922199999985
 20
-136.52831599999999
 11
-74.69922199999985
 21
-178.101336
  0
LINE
  5
4F
100
AcDbEntity
  8
LC-001-002-----0
  6
CONTINUOUS
 62
             7
100
AcDbLine
 10
-68.19922199999985
 20
-136.52831599999999
 11
-68.19922199999985
 21
-178.101336
  0
LINE
  5
4E
100
AcDbEntity
  8
LC-001-002-----0
  6
DASHDOT
 62
             2
100
AcDbLine
 10
-77.37100799999985
 20
-136.52831599999999
 11
-65.58657499999981
 21
-136.52831599999999
  0
LINE
  5
4D
100
AcDbEntity
  8
LC-001-002-----0
  6
DASHDOT
 62
             2
100
AcDbLine
 10
-77.37100799999985
 20
-135.02831599999999
 11
-65.58657499999981
 21
-135.02831599999999
  0
LINE
  5
4C
100
AcDbEntity
  8
LC-001-002-----0
  6
CONTINUOUS
 62
             7
100
AcDbLine
 10
-74.69922199999985
 20
-105.292518
 11
-74.69922199999985
 21
-135.02831599999999
  0
LINE
  5
4B
100
AcDbEntity
  8
LC-001-002-----0
  6
CONTINUOUS
 62
             7
100
AcDbLine
 10
-62.49999999999989
 20
-159.100684
 11
62.50000000000011
 21
-159.100684
  0
LINE
  5
4A
100
AcDbEntity
  8
LC-001-002-----0
  6
CONTINUOUS
 62
             7
100
AcDbLine
 10
-68.19922199999985
 20
-105.600684
 11
-68.19922199999985
 21
-135.02831599999999
  0
LINE
  5
49
100
AcDbEntity
  8
LC-001-002-----0
  6
CONTINUOUS
 62
             7
100
AcDbLine
 10
-150.75174299999981
 20
-3.00045699999998
 11
150.7517430000002
 21
-3.00045699999998
  0
LINE
  5
48
100
AcDbEntity
  8
LC-001-002-----0
  6
CONTINUOUS
 62
             7
100
AcDbLine
 10
111.19643000000011
 20
-3.690898
 11
-111.1964289999999
 21
-3.690898
  0
LINE
  5
47
100
AcDbEntity
  8
LC-001-002-----0
  6
CONTINUOUS
 62
             7
100
AcDbLine
 10
-109.48980399999979
 20
-5.39752300000003
 11
109.4898050000002
 21
-5.39752300000003
  0
LINE
  5
46
100
AcDbEntity
  8
LC-001-002-----0
  6
CONTINUOUS
 62
             7
100
AcDbLine
 10
96.38091300000008
 20
-6.314185
 11
-95.41567099999986
 21
-6.314185
  0
LINE
  5
45
100
AcDbEntity
  8
LC-001-002-----0
  6
CONTINUOUS
 62
             7
100
AcDbLine
 10
-91.77549699999986
 20
-15.20068400000002
 11
91.49929300000019
 21
-15.20068400000002
  0
LINE
  5
44
100
AcDbEntity
  8
LC-001-002-----0
  6
CONTINUOUS
 62
             7
100
AcDbLine
 10
89.49929300000019
 20
-25.10821800000002
 11
-89.49929299999985
 21
-25.10821800000002
  0
LINE
  5
43
100
AcDbEntity
  8
LC-001-002-----0
  6
CONTINUOUS
 62
             7
100
AcDbLine
 10
-81.96105199999988
 20
-37.08217200000001
 11
81.28416100000015
 21
-37.08217200000001
  0
LINE
  5
42
100
AcDbEntity
  8
1
  6
PHANTOM
 62
             2
100
AcDbLine
 10
0.0000000000001
 20
82.4307935232851
 11
0.00000000000011
 21
-167.694263152426
  0
POINT
  5
41
100
AcDbEntity
  8
LC-008-003-----0
 62
             7
100
AcDbPoint
 10
-62.49999999999989
 20
-159.100684
  0
POINT
  5
40
100
AcDbEntity
  8
LC-008-003-----0
 62
             7
100
AcDbPoint
 10
62.50000000000011
 20
-159.100684
  0
POINT
  5
3F
100
AcDbEntity
  8
LC-008-003-----0
 62
             7
100
AcDbPoint
 10
-80.24999999999989
 20
-95.600684
  0
POINT
  5
3E
100
AcDbEntity
  8
LC-008-003-----0
 62
             7
100
AcDbPoint
 10
80.25000000000011
 20
-95.600684
  0
POINT
  5
3D
100
AcDbEntity
  8
LC-008-003-----0
 62
             7
100
AcDbPoint
 10
-94.7713849999999
 20
-12.35769199999998
  0
POINT
  5
3C
100
AcDbEntity
  8
LC-008-003-----0
 62
             7
100
AcDbPoint
 10
94.77138600000023
 20
-12.35769199999998
  0
POINT
  5
3B
100
AcDbEntity
  8
LC-008-003-----0
 62
             7
100
AcDbPoint
 10
-150.75174299999981
 20
-3.00045699999998
  0
POINT
  5
3A
100
AcDbEntity
  8
LC-008-003-----0
 62
             7
100
AcDbPoint
 10
150.7517430000002
 20
-3.00045699999998
  0
POINT
  5
39
100
AcDbEntity
  8
LC-008-003-----0
 62
             7
100
AcDbPoint
 10
-249.79709499999981
 20
4.69999999999999
  0
POINT
  5
38
100
AcDbEntity
  8
LC-008-003-----0
 62
             7
100
AcDbPoint
 10
249.7970960000001
 20
4.69999999999999
  0
POINT
  5
37
100
AcDbEntity
  8
LC-008-003-----0
 62
             7
100
AcDbPoint
 10
-150.75174299999981
 20
-3.00045699999998
  0
POINT
  5
36
100
AcDbEntity
  8
LC-008-003-----0
 62
             7
100
AcDbPoint
 10
-72.5003039999998
 20
-105.600684
  0
POINT
  5
35
100
AcDbEntity
  8
LC-008-003-----0
 62
             7
100
AcDbPoint
 10
-72.5003039999998
 20
-105.600684
  0
POINT
  5
34
100
AcDbEntity
  8
LC-008-003-----0
 62
             7
100
AcDbPoint
 10
-59.79999999999984
 20
-163.600684
  0
ENDBLK
  5
A7
100
AcDbEntity
  8
0
100
AcDbBlockEnd
  0
BLOCK
  5
2F
100
AcDbEntity
  8
0
100
AcDbBlockBegin
  2
062_1E_LAUBFANGKORB
 70
             0
 10
-85.58588999999995
 20
122.100729
 30
0.0
  3
062_1E_LAUBFANGKORB
  1

  0
ARC
  5
EE
100
AcDbEntity
  8
LC-002-002-RND-0
  6
CONTINUOUS
 62
             7
100
AcDbCircle
 10
48.44848100000013
 20
63.18600499999997
 40
14.99999999999944
100
AcDbArc
 50
20.00015699999916
 51
90.00007900000145
  0
ARC
  5
ED
100
AcDbEntity
  8
LC-002-002-RND-0
  6
CONTINUOUS
 62
             7
100
AcDbCircle
 10
-48.44872999999984
 20
63.18587199999996
 40
15.00000000000029
100
AcDbArc
 50
90.00007900000142
 51
160.00000000000074
  0
LINE
  5
EC
100
AcDbEntity
  8
LC-001-002-----0
  6
CONTINUOUS
 62
             7
100
AcDbLine
 10
-3.30545899999981
 20
63.38593399999996
 11
-3.30545899999981
 21
78.18593400000009
  0
LINE
  5
EB
100
AcDbEntity
  8
LC-001-002-----0
  6
CONTINUOUS
 62
             7
100
AcDbLine
 10
3.30520900000022
 20
63.38594299999994
 11
3.30516800000021
 21
78.18594299999998
  0
LINE
  5
EA
100
AcDbEntity
  8
LC-001-002-----0
  6
CONTINUOUS
 62
             7
100
AcDbLine
 10
-48.44875099999979
 20
78.18587199999999
 11
47.56150500000013
 21
78.18600399999998
  0
LINE
  5
E9
100
AcDbEntity
  8
LC-001-002-----0
  6
CONTINUOUS
 62
             7
100
AcDbLine
 10
42.48673400000018
 20
74.10086399999999
 11
40.99985500000014
 21
78.18599499999999
  0
LINE
  5
E8
100
AcDbEntity
  8
LC-001-002-----0
  6
CONTINUOUS
 62
             7
100
AcDbLine
 10
44.83959900000014
 20
73.68599699999999
 11
42.48673400000018
 21
74.10086399999999
  0
LINE
  5
E7
100
AcDbEntity
  8
LC-001-002-----0
  6
CONTINUOUS
 62
             7
100
AcDbLine
 10
-42.48701299999982
 20
74.10074699999998
 11
-41.00014499999986
 21
78.18588300000009
  0
LINE
  5
E6
100
AcDbEntity
  8
LC-001-002-----0
  6
CONTINUOUS
 62
             7
100
AcDbLine
 10
-44.83987799999989
 20
73.68587399999998
 11
-42.48701299999982
 21
74.10074699999998
  0
LINE
  5
E5
100
AcDbEntity
  8
LC-001-002-----0
  6
CONTINUOUS
 62
             7
100
AcDbLine
 10
-48.58877199999984
 20
63.38587200000001
 11
48.58852200000013
 21
63.38600500000001
  0
LINE
  5
E4
100
AcDbEntity
  8
LC-001-002-----0
  6
CONTINUOUS
 62
             7
100
AcDbLine
 10
85.58552100000009
 20
5.01043199999998
 11
62.54385600000012
 21
68.31634600000001
  0
LINE
  5
E3
100
AcDbEntity
  8
LC-001-002-----0
  6
CONTINUOUS
 62
             7
100
AcDbLine
 10
-85.58561099999986
 20
5.01019800000001
 11
-62.54411999999991
 21
68.31617399999999
  0
LINE
  5
E2
100
AcDbEntity
  8
LC-001-002-----0
  6
CONTINUOUS
 62
             7
100
AcDbLine
 10
69.94866300000012
 20
4.69999999999999
 11
43.20171900000014
 21
78.18599799999998
  0
LINE
  5
E1
100
AcDbEntity
  8
LC-001-002-----0
  6
CONTINUOUS
 62
             7
100
AcDbLine
 10
-69.94868199999985
 20
4.69999999999999
 11
-43.20200999999986
 21
78.18587899999999
  0
LINE
  5
E0
100
AcDbEntity
  8
LC-001-002-----0
  6
CONTINUOUS
 62
             7
100
AcDbLine
 10
85.04226800000015
 20
4.69999999999999
 11
85.58552100000009
 21
5.01043199999998
  0
LINE
  5
DF
100
AcDbEntity
  8
LC-001-002-----0
  6
CONTINUOUS
 62
             7
100
AcDbLine
 10
56.19555600000012
 20
42.48602799999998
 11
56.19556800000021
 21
38.122927
  0
LINE
  5
DE
100
AcDbEntity
  8
LC-001-002-----0
  6
CONTINUOUS
 62
             7
100
AcDbLine
 10
-85.0427649999998
 20
4.69999999999999
 11
-85.58561099999986
 21
5.01019800000001
  0
LINE
  5
DD
100
AcDbEntity
  8
LC-001-002-----0
  6
CONTINUOUS
 62
             7
100
AcDbLine
 10
57.99199900000019
 20
37.806173
 11
56.19556800000021
 21
38.122927
  0
LINE
  5
DC
100
AcDbEntity
  8
LC-001-002-----0
  6
CONTINUOUS
 62
             7
100
AcDbLine
 10
1.15021800000011
 20
63.38593999999995
 11
1.15021800000011
 21
42.48587399999997
  0
LINE
  5
DB
100
AcDbEntity
  8
LC-001-002-----0
  6
CONTINUOUS
 62
             7
100
AcDbLine
 10
-1.14978199999985
 20
63.38593699999996
 11
-1.14978199999985
 21
42.48587399999997
  0
LINE
  5
DA
100
AcDbEntity
  8
LC-001-002-----0
  6
CONTINUOUS
 62
             7
100
AcDbLine
 10
-56.19574899999986
 20
42.48587399999997
 11
-56.19574899999986
 21
38.122773
  0
LINE
  5
D9
100
AcDbEntity
  8
LC-001-002-----0
  6
CONTINUOUS
 62
             7
100
AcDbLine
 10
-57.89269399999978
 20
37.823556
 11
-56.19574899999986
 21
38.122773
  0
LINE
  5
D8
100
AcDbEntity
  8
LC-001-002-----0
  6
CONTINUOUS
 62
             7
100
AcDbLine
 10
-56.19574899999986
 20
42.48587399999997
 11
56.19555600000012
 21
42.48587399999997
  0
LINE
  5
D7
100
AcDbEntity
  8
LC-001-002-----0
  6
CONTINUOUS
 62
             7
100
AcDbLine
 10
-57.89269399999978
 20
37.823556
 11
57.89251400000012
 21
37.823556
  0
LINE
  5
D6
100
AcDbEntity
  8
LC-001-002-----0
  6
CONTINUOUS
 62
             7
100
AcDbLine
 10
-1.14978199999985
 20
37.823556
 11
-1.14978199999985
 21
4.69999999999999
  0
LINE
  5
D5
100
AcDbEntity
  8
LC-001-002-----0
  6
CONTINUOUS
 62
             7
100
AcDbLine
 10
1.15021800000011
 20
37.823556
 11
1.15021800000011
 21
4.69999999999999
  0
LINE
  5
D4
100
AcDbEntity
  8
LC-001-002-----0
  6
CONTINUOUS
 62
             7
100
AcDbLine
 10
-51.6067969999998
 20
42.48587399999997
 11
-43.00000699999987
 21
63.38587999999999
  0
LINE
  5
D3
100
AcDbEntity
  8
LC-001-002-----0
  6
CONTINUOUS
 62
             7
100
AcDbLine
 10
-59.9124079999998
 20
4.69999999999999
 11
-47.6826319999999
 21
37.823556
  0
LINE
  5
D2
100
AcDbEntity
  8
LC-001-002-----0
  6
CONTINUOUS
 62
             7
100
AcDbLine
 10
-33.92639999999983
 20
4.69999999999999
 11
-26.8655379999999
 21
37.823556
  0
LINE
  5
D1
100
AcDbEntity
  8
LC-001-002-----0
  6
CONTINUOUS
 62
             7
100
AcDbLine
 10
-35.91825899999981
 20
4.69999999999999
 11
-28.85739599999988
 21
37.823556
  0
LINE
  5
D0
100
AcDbEntity
  8
LC-001-002-----0
  6
CONTINUOUS
 62
             7
100
AcDbLine
 10
-19.18783699999983
 20
4.69999999999999
 11
-15.53286699999978
 21
37.823556
  0
LINE
  5
CF
100
AcDbEntity
  8
LC-001-002-----0
  6
CONTINUOUS
 62
             7
100
AcDbLine
 10
-16.96620799999982
 20
4.69999999999999
 11
-13.31123799999989
 21
37.823556
  0
LINE
  5
CE
100
AcDbEntity
  8
LC-001-002-----0
  6
CONTINUOUS
 62
             7
100
AcDbLine
 10
-61.06240799999989
 20
4.69999999999999
 11
-48.83263199999988
 21
37.823556
  0
LINE
  5
CD
100
AcDbEntity
  8
LC-001-002-----0
  6
CONTINUOUS
 62
             7
100
AcDbLine
 10
-52.20207999999991
 20
42.48587399999997
 11
-43.59529099999986
 21
63.38587899999999
  0
LINE
  5
CC
100
AcDbEntity
  8
LC-001-002-----0
  6
CONTINUOUS
 62
             7
100
AcDbLine
 10
-48.57375299999978
 20
4.69999999999999
 11
-38.57075399999985
 21
37.823556
  0
LINE
  5
CB
100
AcDbEntity
  8
LC-001-002-----0
  6
CONTINUOUS
 62
             7
100
AcDbLine
 10
-50.20089499999983
 20
4.69999999999999
 11
-40.21532599999989
 21
37.823556
  0
LINE
  5
CA
100
AcDbEntity
  8
LC-001-002-----0
  6
CONTINUOUS
 62
             7
100
AcDbLine
 10
-47.11122499999988
 20
42.48587399999997
 11
-39.39458799999989
 21
63.38588499999997
  0
LINE
  5
C9
100
AcDbEntity
  8
LC-001-002-----0
  6
CONTINUOUS
 62
             7
100
AcDbLine
 10
-45.96122599999978
 20
42.48587399999997
 11
-38.24458799999991
 21
63.38588599999997
  0
LINE
  5
C8
100
AcDbEntity
  8
LC-001-002-----0
  6
CONTINUOUS
 62
             7
100
AcDbLine
 10
-67.16732099999979
 20
4.69999999999999
 11
-53.52677599999981
 21
37.823556
  0
LINE
  5
C7
100
AcDbEntity
  8
LC-001-002-----0
  6
CONTINUOUS
 62
             7
100
AcDbLine
 10
-67.76260499999989
 20
4.69999999999999
 11
-54.12205999999981
 21
37.823556
  0
LINE
  5
C6
100
AcDbEntity
  8
LC-001-002-----0
  6
CONTINUOUS
 62
             7
100
AcDbLine
 10
-38.80980299999987
 20
42.48587399999997
 11
-32.50919299999987
 21
63.38589399999995
  0
LINE
  5
C5
100
AcDbEntity
  8
LC-001-002-----0
  6
CONTINUOUS
 62
             7
100
AcDbLine
 10
-37.16277799999989
 20
42.48587399999997
 11
-30.8511699999998
 21
63.38589599999995
  0
LINE
  5
C4
100
AcDbEntity
  8
LC-001-002-----0
  6
CONTINUOUS
 62
             7
100
AcDbLine
 10
-27.86354199999983
 20
42.48587399999997
 11
-23.40833599999985
 21
63.38590700000003
  0
LINE
  5
C3
100
AcDbEntity
  8
LC-001-002-----0
  6
CONTINUOUS
 62
             7
100
AcDbLine
 10
-25.87168399999985
 20
42.48587399999997
 11
-21.41647799999987
 21
63.38590900000003
  0
LINE
  5
C2
100
AcDbEntity
  8
LC-001-002-----0
  6
CONTINUOUS
 62
             7
100
AcDbLine
 10
-15.01840999999979
 20
42.48587399999997
 11
-12.71222499999988
 21
63.385921
  0
LINE
  5
C1
100
AcDbEntity
  8
LC-001-002-----0
  6
CONTINUOUS
 62
             7
100
AcDbLine
 10
-12.7967809999999
 20
42.48587399999997
 11
-10.49059599999987
 21
63.38592399999999
  0
LINE
  5
C0
100
AcDbEntity
  8
LC-001-002-----0
  6
CONTINUOUS
 62
             7
100
AcDbLine
 10
16.96612400000015
 20
4.69999999999999
 11
13.31105800000012
 21
37.82359200000002
  0
LINE
  5
BF
100
AcDbEntity
  8
LC-001-002-----0
  6
CONTINUOUS
 62
             7
100
AcDbLine
 10
19.18775400000016
 20
4.69999999999999
 11
15.53268700000012
 21
37.823599
  0
LINE
  5
BE
100
AcDbEntity
  8
LC-001-002-----0
  6
CONTINUOUS
 62
             7
100
AcDbLine
 10
12.79658800000016
 20
42.48590899999999
 11
10.49034600000016
 21
63.38595300000003
  0
LINE
  5
BD
100
AcDbEntity
  8
LC-001-002-----0
  6
CONTINUOUS
 62
             7
100
AcDbLine
 10
15.01821800000016
 20
42.48591499999998
 11
12.71197500000017
 21
63.38595600000002
  0
LINE
  5
BC
100
AcDbEntity
  8
LC-001-002-----0
  6
CONTINUOUS
 62
             7
100
AcDbLine
 10
25.87149100000022
 20
42.48594400000002
 11
21.41622800000016
 21
63.38596799999999
  0
LINE
  5
BB
100
AcDbEntity
  8
LC-001-002-----0
  6
CONTINUOUS
 62
             7
100
AcDbLine
 10
27.86334900000009
 20
42.48595
 11
23.40808600000014
 21
63.38597099999998
  0
LINE
  5
BA
100
AcDbEntity
  8
LC-001-002-----0
  6
CONTINUOUS
 62
             7
100
AcDbLine
 10
37.16258600000015
 20
42.485975
 11
30.8509200000002
 21
63.38598099999996
  0
LINE
  5
B9
100
AcDbEntity
  8
LC-001-002-----0
  6
CONTINUOUS
 62
             7
100
AcDbLine
 10
38.80961100000013
 20
42.48597999999998
 11
32.50894300000016
 21
63.38598299999995
  0
LINE
  5
B8
100
AcDbEntity
  8
LC-001-002-----0
  6
CONTINUOUS
 62
             7
100
AcDbLine
 10
35.91819000000021
 20
4.69999999999999
 11
28.85721600000022
 21
37.82363499999997
  0
LINE
  5
B7
100
AcDbEntity
  8
LC-001-002-----0
  6
CONTINUOUS
 62
             7
100
AcDbLine
 10
33.92633100000012
 20
4.69999999999999
 11
26.86535800000013
 21
37.82362999999998
  0
LINE
  5
B6
100
AcDbEntity
  8
LC-001-002-----0
  6
CONTINUOUS
 62
             7
100
AcDbLine
 10
48.57370400000013
 20
4.69999999999999
 11
38.57057400000019
 21
37.82366200000001
  0
LINE
  5
B5
100
AcDbEntity
  8
LC-001-002-----0
  6
CONTINUOUS
 62
             7
100
AcDbLine
 10
50.20084700000018
 20
4.69999999999999
 11
40.21514600000012
 21
37.823666
  0
LINE
  5
B4
100
AcDbEntity
  8
LC-001-002-----0
  6
CONTINUOUS
 62
             7
100
AcDbLine
 10
59.9123800000001
 20
4.69999999999999
 11
47.68245200000013
 21
37.82368700000001
  0
LINE
  5
B3
100
AcDbEntity
  8
LC-001-002-----0
  6
CONTINUOUS
 62
             7
100
AcDbLine
 10
61.06238100000019
 20
4.69999999999999
 11
48.83245200000022
 21
37.82369
  0
LINE
  5
B2
100
AcDbEntity
  8
LC-001-002-----0
  6
CONTINUOUS
 62
             7
100
AcDbLine
 10
45.96103300000016
 20
42.48599999999999
 11
38.24433800000008
 21
63.38599100000005
  0
LINE
  5
B1
100
AcDbEntity
  8
LC-001-002-----0
  6
CONTINUOUS
 62
             7
100
AcDbLine
 10
47.11103200000014
 20
42.48600299999998
 11
39.39433800000018
 21
63.38599300000004
  0
LINE
  5
B0
100
AcDbEntity
  8
LC-001-002-----0
  6
CONTINUOUS
 62
             7
100
AcDbLine
 10
51.60660400000018
 20
42.48601500000001
 11
42.99975700000016
 21
63.38599800000003
  0
LINE
  5
AF
100
AcDbEntity
  8
LC-001-002-----0
  6
CONTINUOUS
 62
             7
100
AcDbLine
 10
51.60660400000018
 20
42.48601500000001
 11
42.99975700000016
 21
63.38599800000003
  0
LINE
  5
AE
100
AcDbEntity
  8
LC-001-002-----0
  6
CONTINUOUS
 62
             7
100
AcDbLine
 10
52.20188700000017
 20
42.486017
 11
43.59504100000015
 21
63.38599900000003
  0
LINE
  5
AD
100
AcDbEntity
  8
LC-001-002-----0
  6
CONTINUOUS
 62
             7
100
AcDbLine
 10
67.16730800000016
 20
4.69999999999999
 11
53.52659600000015
 21
37.82370299999997
  0
LINE
  5
AC
100
AcDbEntity
  8
LC-001-002-----0
  6
CONTINUOUS
 62
             7
100
AcDbLine
 10
67.76259200000015
 20
4.69999999999999
 11
54.12188000000015
 21
37.82370400000002
  0
LINE
  5
AB
100
AcDbEntity
  8
LC-004-005-----0
  6
CONTINUOUS
 62
             2
100
AcDbLine
 10
-57.71853299999987
 20
38.30205799999999
 11
-56.19574899999986
 21
39.82484299999999
  0
LINE
  5
AA
100
AcDbEntity
  8
LC-004-005-----0
  6
CONTINUOUS
 62
             2
100
AcDbLine
 10
57.78720400000009
 20
37.84228300000001
 11
57.85945700000013
 21
37.914537
  0
LINE
  5
A9
100
AcDbEntity
  8
LC-004-005-----0
  6
CONTINUOUS
 62
             2
100
AcDbLine
 10
56.19556600000021
 20
39.079072
 11
57.10469800000021
 21
39.988204
  0
LINE
  5
A8
100
AcDbEntity
  8
LC-004-005-----0
  6
CONTINUOUS
 62
             2
100
AcDbLine
 10
56.19555800000012
 20
41.90749199999999
 11
56.34993800000018
 21
42.06187199999999
  0
ENDBLK
  5
EF
100
AcDbEntity
  8
0
100
AcDbBlockEnd
  0
BLOCK
  5
F2
100
AcDbEntity
  8
0
100
AcDbBlockBegin
  2
*D2
 70
             1
 10
0.0
 20
0.0
 30
0.0
  3
*D2
  1

  0
LINE
  5
F3
100
AcDbEntity
  8
0
  6
CONTINUOUS
 62
             4
100
AcDbLine
 10
-94.77138560426351
 20
-234.18604966858101
 11
94.7713856042641
 21
-234.18604966858101
  0
LINE
  5
F4
100
AcDbEntity
  8
0
  6
CONTINUOUS
 62
             4
100
AcDbLine
 10
94.7713856042641
 20
-12.35769186872901
 11
94.7713856042641
 21
-236.18604966858101
  0
LINE
  5
F5
100
AcDbEntity
  8
0
  6
CONTINUOUS
 62
             4
100
AcDbLine
 10
-94.77138560426351
 20
-12.35769186872901
 11
-94.77138560426351
 21
-236.18604966858101
  0
SOLID
  5
F6
100
AcDbEntity
  8
0
 62
             4
100
AcDbTrace
 10
-84.77138560426351
 20
-232.86952469270705
 11
-84.77138560426351
 21
-235.50257464445497
 12
-94.77138560426351
 22
-234.18604966858101
 13
-94.77138560426351
 23
-234.18604966858101
  0
SOLID
  5
F7
100
AcDbEntity
  8
0
 62
             4
100
AcDbTrace
 10
84.7713856042641
 20
-235.50257464445497
 11
84.7713856042641
 21
-232.86952469270705
 12
94.7713856042641
 22
-234.18604966858101
 13
94.7713856042641
 23
-234.18604966858101
  0
MTEXT
  5
F9
100
AcDbEntity
  8
0
 62
             1
100
AcDbMText
 10
-27.73155338673721
 20
-232.18606954594193
 30
0.0
 40
10.0
 41
0.0
 71
             7
 72
             1
  1
\C1;Ø\C1;190
  7
CONVERTER_1
 11
0.99999999999706
 21
0.00000242406841
 31
0.0
  0
ENDBLK
  5
FA
100
AcDbEntity
  8
0
100
AcDbBlockEnd
  0
BLOCK
  5
FE
100
AcDbEntity
  8
0
100
AcDbBlockBegin
  2
*D3
 70
             1
 10
0.0
 20
0.0
 30
0.0
  3
*D3
  1

  0
LINE
  5
FF
100
AcDbEntity
  8
0
  6
CONTINUOUS
 62
             4
100
AcDbLine
 10
-80.4995049999699
 20
-208.93303913882201
 11
80.4996960000002
 21
-208.93303913882201
  0
LINE
  5
100
100
AcDbEntity
  8
0
  6
CONTINUOUS
 62
             4
100
AcDbLine
 10
80.4996960000002
 20
-97.60068400000002
 11
80.4996960000002
 21
-210.93303913882201
  0
LINE
  5
101
100
AcDbEntity
  8
0
  6
CONTINUOUS
 62
             4
100
AcDbLine
 10
-80.4995049999699
 20
-97.60090492133502
 11
-80.4995049999699
 21
-210.93303913882201
  0
SOLID
  5
102
100
AcDbEntity
  8
0
 62
             4
100
AcDbTrace
 10
-70.4995049999699
 20
-207.61651416294805
 11
-70.4995049999699
 21
-210.24956411469597
 12
-80.4995049999699
 22
-208.93303913882201
 13
-80.4995049999699
 23
-208.93303913882201
  0
SOLID
  5
103
100
AcDbEntity
  8
0
 62
             4
100
AcDbTrace
 10
70.4996960000002
 20
-210.24956411469597
 11
70.4996960000002
 21
-207.61651416294805
 12
80.4996960000002
 22
-208.93303913882201
 13
80.4996960000002
 23
-208.93303913882201
  0
MTEXT
  5
104
100
AcDbEntity
  8
0
 62
             1
100
AcDbMText
 10
11.44754168941149
 20
-206.93305901618294
 30
0.0
 40
10.0
 41
0.0
 71
             7
 72
             1
  1
\C1;Ø\C1;161
  7
CONVERTER_1
 11
0.99999999999706
 21
0.00000242406841
 31
0.0
  0
ENDBLK
  5
105
100
AcDbEntity
  8
0
100
AcDbBlockEnd
  0
BLOCK
  5
109
100
AcDbEntity
  8
0
100
AcDbBlockBegin
  2
*D4
 70
             1
 10
0.0
 20
0.0
 30
0.0
  3
*D4
  1

  0
LINE
  5
10A
100
AcDbEntity
  8
0
  6
CONTINUOUS
 62
             4
100
AcDbLine
 10
-62.4999999999999
 20
-184.48171148302299
 11
62.50000000000011
 21
-184.48171148302299
  0
LINE
  5
10B
100
AcDbEntity
  8
0
  6
CONTINUOUS
 62
             4
100
AcDbLine
 10
62.50000000000011
 20
-159.100684
 11
62.50000000000011
 21
-186.48171148302299
  0
LINE
  5
10C
100
AcDbEntity
  8
0
  6
CONTINUOUS
 62
             4
100
AcDbLine
 10
-62.4999999999999
 20
-159.100684
 11
-62.4999999999999
 21
-186.48171148302299
  0
SOLID
  5
10D
100
AcDbEntity
  8
0
 62
             4
100
AcDbTrace
 10
-52.4999999999999
 20
-183.16518650714903
 11
-52.4999999999999
 21
-185.79823645889695
 12
-62.4999999999999
 22
-184.48171148302299
 13
-62.4999999999999
 23
-184.48171148302299
  0
SOLID
  5
10E
100
AcDbEntity
  8
0
 62
             4
100
AcDbTrace
 10
52.50000000000011
 20
-185.79823645889695
 11
52.50000000000011
 21
-183.16518650714903
 12
62.50000000000011
 22
-184.48171148302299
 13
62.50000000000011
 23
-184.48171148302299
  0
MTEXT
  5
10F
100
AcDbEntity
  8
0
 62
             1
100
AcDbMText
 10
-17.57017182070292
 20
-182.48175123774485
 30
0.0
 40
10.0
 41
0.0
 71
             7
 72
             1
  1
\C1;DN\C1;125
  7
CONVERTER_1
 11
0.99999999999706
 21
0.00000242406841
 31
0.0
  0
ENDBLK
  5
110
100
AcDbEntity
  8
0
100
AcDbBlockEnd
  0
BLOCK
  5
114
100
AcDbEntity
  8
0
100
AcDbBlockBegin
  2
*D5
 70
             1
 10
0.0
 20
0.0
 30
0.0
  3
*D5
  1

  0
LINE
  5
115
100
AcDbEntity
  8
0
  6
CONTINUOUS
 62
             4
100
AcDbLine
 10
-160.75174299999989
 20
-105.600684
 11
-160.75174299999989
 21
-3.00045699999998
  0
LINE
  5
116
100
AcDbEntity
  8
0
  6
CONTINUOUS
 62
             4
100
AcDbLine
 10
-150.75174299999981
 20
-3.00045699999998
 11
-162.75174299999989
 21
-3.00045699999998
  0
LINE
  5
117
100
AcDbEntity
  8
0
  6
CONTINUOUS
 62
             4
100
AcDbLine
 10
-72.55591599999991
 20
-105.600684
 11
-162.75174299999989
 21
-105.600684
  0
SOLID
  5
118
100
AcDbEntity
  8
0
 62
             4
100
AcDbTrace
 10
-162.06826797587385
 20
-95.600684
 11
-159.43521802412593
 21
-95.600684
 12
-160.75174299999989
 22
-105.600684
 13
-160.75174299999989
 23
-105.600684
  0
SOLID
  5
119
100
AcDbEntity
  8
0
 62
             4
100
AcDbTrace
 10
-159.43521802412593
 20
-13.00045699999998
 11
-162.06826797587385
 21
-13.00045699999998
 12
-160.75174299999989
 22
-3.00045699999998
 13
-160.75174299999989
 23
-3.00045699999998
  0
MTEXT
  5
11A
100
AcDbEntity
  8
0
 62
             1
100
AcDbMText
 10
-162.75174299999989
 20
-64.54331667663746
 30
0.0
 40
10.0
 41
0.0
 71
             7
 72
             1
  1
103
  7
CONVERTER_1
 11
0.0
 21
1.0
 31
0.0
  0
ENDBLK
  5
11B
100
AcDbEntity
  8
0
100
AcDbBlockEnd
  0
BLOCK
  5
11F
100
AcDbEntity
  8
0
100
AcDbBlockBegin
  2
*D6
 70
             1
 10
0.0
 20
0.0
 30
0.0
  3
*D6
  1

  0
LINE
  5
120
100
AcDbEntity
  8
0
  6
CONTINUOUS
 62
             4
100
AcDbLine
 10
-249.79709499999984
 20
101.2785662947102
 11
249.79709600000015
 21
101.2785662947102
  0
LINE
  5
121
100
AcDbEntity
  8
0
  6
CONTINUOUS
 62
             4
100
AcDbLine
 10
249.79709600000015
 20
4.7
 11
249.79709600000015
 21
103.2785662947102
  0
LINE
  5
122
100
AcDbEntity
  8
0
  6
CONTINUOUS
 62
             4
100
AcDbLine
 10
-249.79709499999984
 20
4.7
 11
-249.79709499999984
 21
103.2785662947102
  0
SOLID
  5
123
100
AcDbEntity
  8
0
 62
             4
100
AcDbTrace
 10
-239.79709499999984
 20
102.59509127058416
 11
-239.79709499999984
 21
99.96204131883624
 12
-249.79709499999984
 22
101.2785662947102
 13
-249.79709499999984
 23
101.2785662947102
  0
SOLID
  5
124
100
AcDbEntity
  8
0
 62
             4
100
AcDbTrace
 10
239.79709600000015
 20
99.96204131883624
 11
239.79709600000015
 21
102.59509127058416
 12
249.79709600000015
 22
101.2785662947102
 13
249.79709600000015
 23
101.2785662947102
  0
MTEXT
  5
125
100
AcDbEntity
  8
0
 62
             1
100
AcDbMText
 10
-13.58202278815576
 20
103.27854641734928
 30
0.0
 40
10.0
 41
0.0
 71
             7
 72
             1
  1
\C1;Ø\C1;500
  7
CONVERTER_1
 11
0.99999999999706
 21
0.00000242406841
 31
0.0
  0
ENDBLK
  5
126
100
AcDbEntity
  8
0
100
AcDbBlockEnd
  0
ENDSEC
  0
SECTION
  2
ENTITIES
  0
DIMENSION
  5
128
100
AcDbEntity
  8
1
100
AcDbDimension
  2
*D6
 10
-249.79709499999984
 20
101.2785662947102
 11
0.61797721182015
 21
108.2785662947102
 31
0.0
 53
0.00013888888889
  1
Ø500
  3
ME10_DIM_4
100
AcDbAlignedDimension
 13
249.7970960000001
 23
4.69999999999999
 14
-249.79709499999981
 24
4.69999999999999
100
AcDbRotatedDimension
  0
DIMENSION
  5
11D
100
AcDbEntity
  8
1
100
AcDbDimension
  2
*D5
 10
-160.75174299999989
 20
-105.600684
 11
-167.75174299999989
 21
-54.04331667663746
 31
0.0
 53
-90.0
  1
103
  3
ME10_DIM_3
100
AcDbAlignedDimension
 13
-150.75174299999981
 23
-3.00045699999998
 14
-72.55591599999991
 24
-105.600684
 50
-90.0
100
AcDbRotatedDimension
  0
DIMENSION
  5
112
100
AcDbEntity
  8
1
100
AcDbDimension
  2
*D4
 10
-62.4999999999999
 20
-184.48171148302299
 11
-1.67017182075111
 21
-177.48171148302299
 31
0.0
 53
0.00013888888889
  1
<>
  3
ME10_DIM_2
100
AcDbAlignedDimension
 13
62.50000000000011
 23
-159.100684
 14
-62.49999999999989
 24
-159.100684
100
AcDbRotatedDimension
  0
DIMENSION
  5
107
100
AcDbEntity
  8
1
100
AcDbDimension
  2
*D3
 10
-80.4995049999699
 20
-208.93303913882201
 11
22.6475416893874
 21
-201.93303913882201
 31
0.0
 53
0.00013888888889
  1
<>
  3
ME10_DIM_1
100
AcDbAlignedDimension
 13
80.4996960000002
 23
-97.600684
 14
-80.49950499996987
 24
-97.60090492133503
100
AcDbRotatedDimension
  0
DIMENSION
  5
FC
100
AcDbEntity
  8
1
100
AcDbDimension
  2
*D2
 10
-94.77138560426351
 20
-234.18604966858101
 11
-15.0315533867613
 21
-227.18604966858101
 31
0.0
 53
0.00013888888889
  1
Ø190
  3
ME10_DIM_0
100
AcDbAlignedDimension
 13
94.77138560426408
 23
-12.35769186872903
 14
-94.77138560426351
 24
-12.35769186872903
100
AcDbRotatedDimension
  0
INSERT
  5
32
100
AcDbEntity
  8
0
100
AcDbBlockReference
  2
TOP
 10
740.68229115029101
 20
-45.13171381708099
  0
INSERT
  5
33
100
AcDbEntity
  8
1
100
AcDbBlockReference
  2
062_1E_LAUBFANGKORB
 10
-85.58588999999995
 20
122.100729
  0
ENDSEC
  0
SECTION
  2
OBJECTS
  0
DICTIONARY
  5
19
100
AcDbDictionary
  3
ACAD_GROUP
350
1A
  3
ACAD_MLINESTYLE
350
1B
  0
DICTIONARY
  5
1A
102
{ACAD_REACTORS
330
19
102
}
100
AcDbDictionary
  0
DICTIONARY
  5
1B
102
{ACAD_REACTORS
330
19
102
}
100
AcDbDictionary
  3
STANDARD
350
1C
  0
MLINESTYLE
  5
1C
102
{ACAD_REACTORS
330
1B
102
}
100
AcDbMlineStyle
  2
STANDARD
 70
             0
  3

 62
             0
 51
90.0
 52
90.0
 71
             2
 49
0.5
 62
           256
  6
BYLAYER
 49
-0.5
 62
           256
  6
BYLAYER
  0
ENDSEC
  0
EOF
