  0
SECTION
  2
HEADER
  9
$ACADVER
  1
AC1015
  9
$ACADMAINTVER
 70
     6
  9
$DWGCODEPAGE
  3
ANSI_1252
  9
$INSBASE
 10
0.0
 20
0.0
 30
0.0
  9
$EXTMIN
 10
-235.5249968244499
 20
-919.0532626743479
 30
0.0
  9
$EXTMAX
 10
244.377508000855
 20
209.9741473305381
 30
0.0
  9
$LIMMIN
 10
0.0
 20
0.0
  9
$LIMMAX
 10
12.0
 20
9.0
  9
$ORTHOMODE
 70
     0
  9
$REGENMODE
 70
     1
  9
$FILLMODE
 70
     1
  9
$QTEXTMODE
 70
     0
  9
$MIRRTEXT
 70
     1
  9
$LTSCALE
 40
1.0
  9
$ATTMODE
 70
     1
  9
$TEXTSIZE
 40
0.2
  9
$TRACEWID
 40
0.05
  9
$TEXTSTYLE
  7
Standard
  9
$CLAYER
  8
0
  9
$CELTYPE
  6
ByLayer
  9
$CECOLOR
 62
   256
  9
$CELTSCALE
 40
1.0
  9
$DISPSILH
 70
     0
  9
$DIMSCALE
 40
1.0
  9
$DIMASZ
 40
0.18
  9
$DIMEXO
 40
0.0625
  9
$DIMDLI
 40
0.38
  9
$DIMRND
 40
0.0
  9
$DIMDLE
 40
0.0
  9
$DIMEXE
 40
0.18
  9
$DIMTP
 40
0.0
  9
$DIMTM
 40
0.0
  9
$DIMTXT
 40
0.18
  9
$DIMCEN
 40
0.09
  9
$DIMTSZ
 40
0.0
  9
$DIMTOL
 70
     0
  9
$DIMLIM
 70
     0
  9
$DIMTIH
 70
     1
  9
$DIMTOH
 70
     1
  9
$DIMSE1
 70
     0
  9
$DIMSE2
 70
     0
  9
$DIMTAD
 70
     0
  9
$DIMZIN
 70
     0
  9
$DIMBLK
  1

  9
$DIMASO
 70
     1
  9
$DIMSHO
 70
     1
  9
$DIMPOST
  1

  9
$DIMAPOST
  1

  9
$DIMALT
 70
     0
  9
$DIMALTD
 70
     2
  9
$DIMALTF
 40
25.4
  9
$DIMLFAC
 40
1.0
  9
$DIMTOFL
 70
     0
  9
$DIMTVP
 40
0.0
  9
$DIMTIX
 70
     0
  9
$DIMSOXD
 70
     0
  9
$DIMSAH
 70
     0
  9
$DIMBLK1
  1

  9
$DIMBLK2
  1

  9
$DIMSTYLE
  2
Standard
  9
$DIMCLRD
 70
     0
  9
$DIMCLRE
 70
     0
  9
$DIMCLRT
 70
     0
  9
$DIMTFAC
 40
1.0
  9
$DIMGAP
 40
0.09
  9
$DIMJUST
 70
     0
  9
$DIMSD1
 70
     0
  9
$DIMSD2
 70
     0
  9
$DIMTOLJ
 70
     1
  9
$DIMTZIN
 70
     0
  9
$DIMALTZ
 70
     0
  9
$DIMALTTZ
 70
     0
  9
$DIMUPT
 70
     0
  9
$DIMDEC
 70
     4
  9
$DIMTDEC
 70
     4
  9
$DIMALTU
 70
     2
  9
$DIMALTTD
 70
     2
  9
$DIMTXSTY
  7
Standard
  9
$DIMAUNIT
 70
     0
  9
$DIMADEC
 70
     0
  9
$DIMALTRND
 40
0.0
  9
$DIMAZIN
 70
     0
  9
$DIMDSEP
 70
    46
  9
$DIMATFIT
 70
     3
  9
$DIMFRAC
 70
     0
  9
$DIMLDRBLK
  1

  9
$DIMLUNIT
 70
     2
  9
$DIMLWD
 70
    -2
  9
$DIMLWE
 70
    -2
  9
$DIMTMOVE
 70
     0
  9
$LUNITS
 70
     2
  9
$LUPREC
 70
     4
  9
$SKETCHINC
 40
0.1
  9
$FILLETRAD
 40
0.5
  9
$AUNITS
 70
     0
  9
$AUPREC
 70
     0
  9
$MENU
  1
.
  9
$ELEVATION
 40
0.0
  9
$PELEVATION
 40
0.0
  9
$THICKNESS
 40
0.0
  9
$LIMCHECK
 70
     0
  9
$CHAMFERA
 40
0.5
  9
$CHAMFERB
 40
0.5
  9
$CHAMFERC
 40
1.0
  9
$CHAMFERD
 40
0.0
  9
$SKPOLY
 70
     0
  9
$TDCREATE
 40
2454720.693592014
  9
$TDUCREATE
 40
2454720.610258681
  9
$TDUPDATE
 40
2454720.693592025
  9
$TDUUPDATE
 40
2454720.610258692
  9
$TDINDWG
 40
0.0000000116
  9
$TDUSRTIMER
 40
0.0000000116
  9
$USRTIMER
 70
     1
  9
$ANGBASE
 50
0.0
  9
$ANGDIR
 70
     0
  9
$PDMODE
 70
     0
  9
$PDSIZE
 40
0.0
  9
$PLINEWID
 40
0.0
  9
$SPLFRAME
 70
     0
  9
$SPLINETYPE
 70
     6
  9
$SPLINESEGS
 70
     8
  9
$HANDSEED
  5
38C
  9
$SURFTAB1
 70
     6
  9
$SURFTAB2
 70
     6
  9
$SURFTYPE
 70
     6
  9
$SURFU
 70
     6
  9
$SURFV
 70
     6
  9
$UCSBASE
  2

  9
$UCSNAME
  2

  9
$UCSORG
 10
0.0
 20
0.0
 30
0.0
  9
$UCSXDIR
 10
1.0
 20
0.0
 30
0.0
  9
$UCSYDIR
 10
0.0
 20
1.0
 30
0.0
  9
$UCSORTHOREF
  2

  9
$UCSORTHOVIEW
 70
     0
  9
$UCSORGTOP
 10
0.0
 20
0.0
 30
0.0
  9
$UCSORGBOTTOM
 10
0.0
 20
0.0
 30
0.0
  9
$UCSORGLEFT
 10
0.0
 20
0.0
 30
0.0
  9
$UCSORGRIGHT
 10
0.0
 20
0.0
 30
0.0
  9
$UCSORGFRONT
 10
0.0
 20
0.0
 30
0.0
  9
$UCSORGBACK
 10
0.0
 20
0.0
 30
0.0
  9
$PUCSBASE
  2

  9
$PUCSNAME
  2

  9
$PUCSORG
 10
0.0
 20
0.0
 30
0.0
  9
$PUCSXDIR
 10
1.0
 20
0.0
 30
0.0
  9
$PUCSYDIR
 10
0.0
 20
1.0
 30
0.0
  9
$PUCSORTHOREF
  2

  9
$PUCSORTHOVIEW
 70
     0
  9
$PUCSORGTOP
 10
0.0
 20
0.0
 30
0.0
  9
$PUCSORGBOTTOM
 10
0.0
 20
0.0
 30
0.0
  9
$PUCSORGLEFT
 10
0.0
 20
0.0
 30
0.0
  9
$PUCSORGRIGHT
 10
0.0
 20
0.0
 30
0.0
  9
$PUCSORGFRONT
 10
0.0
 20
0.0
 30
0.0
  9
$PUCSORGBACK
 10
0.0
 20
0.0
 30
0.0
  9
$USERI1
 70
     0
  9
$USERI2
 70
     0
  9
$USERI3
 70
     0
  9
$USERI4
 70
     0
  9
$USERI5
 70
     0
  9
$USERR1
 40
15.5
  9
$USERR2
 40
0.0
  9
$USERR3
 40
0.0
  9
$USERR4
 40
0.0
  9
$USERR5
 40
0.0
  9
$WORLDVIEW
 70
     1
  9
$SHADEDGE
 70
     3
  9
$SHADEDIF
 70
    70
  9
$TILEMODE
 70
     1
  9
$MAXACTVP
 70
    64
  9
$PINSBASE
 10
0.0
 20
0.0
 30
0.0
  9
$PLIMCHECK
 70
     0
  9
$PEXTMIN
 10
1.00000000000000E+20
 20
1.00000000000000E+20
 30
1.00000000000000E+20
  9
$PEXTMAX
 10
-1.00000000000000E+20
 20
-1.00000000000000E+20
 30
-1.00000000000000E+20
  9
$PLIMMIN
 10
0.0
 20
0.0
  9
$PLIMMAX
 10
12.0
 20
9.0
  9
$UNITMODE
 70
     0
  9
$VISRETAIN
 70
     1
  9
$PLINEGEN
 70
     0
  9
$PSLTSCALE
 70
     1
  9
$TREEDEPTH
 70
  3020
  9
$CMLSTYLE
  2
Standard
  9
$CMLJUST
 70
     0
  9
$CMLSCALE
 40
1.0
  9
$PROXYGRAPHICS
 70
     1
  9
$MEASUREMENT
 70
     1
  9
$CELWEIGHT
370
    -1
  9
$ENDCAPS
280
     0
  9
$JOINSTYLE
280
     0
  9
$LWDISPLAY
290
     0
  9
$INSUNITS
 70
     1
  9
$HYPERLINKBASE
  1

  9
$STYLESHEET
  1

  9
$XEDIT
290
     1
  9
$CEPSNTYPE
380
     0
  9
$PSTYLEMODE
290
     1
  9
$FINGERPRINTGUID
  2
{B2EF0810-9A2C-4253-8293-6523D901999B}
  9
$VERSIONGUID
  2
{FAEB1C32-E019-11D5-929B-00C0DF256EC4}
  9
$EXTNAMES
290
     1
  9
$PSVPSCALE
 40
0.0
  9
$OLESTARTUP
290
     0
  0
ENDSEC
  0
SECTION
  2
CLASSES
  0
CLASS
  1
ACDBDICTIONARYWDFLT
  2
AcDbDictionaryWithDefault
  3
ObjectDBX Classes
 90
        0
280
     0
281
     0
  0
CLASS
  1
VISUALSTYLE
  2
AcDbVisualStyle
  3
ObjectDBX Classes
 90
     4095
280
     0
281
     0
  0
CLASS
  1

  2
exOdDbCircle
  3

 90
        0
280
     0
281
     1
  0
CLASS
  1
ACDBPLACEHOLDER
  2
AcDbPlaceHolder
  3
ObjectDBX Classes
 90
        0
280
     0
281
     0
  0
CLASS
  1
LAYOUT
  2
AcDbLayout
  3
ObjectDBX Classes
 90
        0
280
     0
281
     0
  0
ENDSEC
  0
SECTION
  2
TABLES
  0
TABLE
  2
VPORT
  5
8
330
0
100
AcDbSymbolTable
 70
     1
  0
VPORT
  5
29
330
8
100
AcDbSymbolTableRecord
100
AcDbViewportTableRecord
  2
*Active
 70
     0
 10
0.0
 20
0.0
 11
1.0
 21
1.0
 12
4.42625558820255
 22
-354.5395576719049
 13
0.0
 23
0.0
 14
0.5
 24
0.5
 15
0.5
 25
0.5
 16
0.0
 26
0.0
 36
1.0
 17
0.0
 27
0.0
 37
0.0
 40
1241.930151005375
 41
1.60267857142857
 42
50.0
 43
0.0
 44
0.0
 50
0.0
 51
0.0
 71
     0
 72
   100
 73
     1
 74
     3
 75
     0
 76
     0
 77
     0
 78
     0
281
     0
 65
     1
110
0.0
120
0.0
130
0.0
111
1.0
121
0.0
131
0.0
112
0.0
122
1.0
132
0.0
 79
     0
146
0.0
  0
ENDTAB
  0
TABLE
  2
LTYPE
  5
5
330
0
100
AcDbSymbolTable
 70
     9
  0
LTYPE
  5
14
330
5
100
AcDbSymbolTableRecord
100
AcDbLinetypeTableRecord
  2
ByBlock
 70
     0
  3

 72
    65
 73
     0
 40
0.0
  0
LTYPE
  5
15
330
5
100
AcDbSymbolTableRecord
100
AcDbLinetypeTableRecord
  2
ByLayer
 70
     0
  3

 72
    65
 73
     0
 40
0.0
  0
LTYPE
  5
16
330
5
100
AcDbSymbolTableRecord
100
AcDbLinetypeTableRecord
  2
Continuous
 70
     0
  3
Solid line
 72
    65
 73
     0
 40
0.0
  0
LTYPE
  5
3B
330
5
100
AcDbSymbolTableRecord
100
AcDbLinetypeTableRecord
  2
DASHED
 70
     0
  3
Dashed
 72
    65
 73
     2
 40
15.0
 49
7.0
 74
     0
 49
-8.0
 74
     0
  0
LTYPE
  5
3C
330
5
100
AcDbSymbolTableRecord
100
AcDbLinetypeTableRecord
  2
DOTTED
 70
     0
  3
Dotted
 72
    65
 73
     2
 40
1.0
 49
0.0
 74
     0
 49
-1.0
 74
     0
  0
LTYPE
  5
3D
330
5
100
AcDbSymbolTableRecord
100
AcDbLinetypeTableRecord
  2
DOT_CENTER
 70
     0
  3
Dot_Center
 72
    65
 73
     4
 40
14.0
 49
12.0
 74
     0
 49
-1.0
 74
     0
 49
0.0
 74
     0
 49
-1.0
 74
     0
  0
LTYPE
  5
3E
330
5
100
AcDbSymbolTableRecord
100
AcDbLinetypeTableRecord
  2
LONG_DASHED
 70
     0
  3
Long_Dashed
 72
    65
 73
     2
 40
15.0
 49
10.0
 74
     0
 49
-5.0
 74
     0
  0
LTYPE
  5
3F
330
5
100
AcDbSymbolTableRecord
100
AcDbLinetypeTableRecord
  2
DASH_CENTER
 70
     0
  3
Dash_Center
 72
    65
 73
     4
 40
14.0
 49
11.0
 74
     0
 49
-1.0
 74
     0
 49
1.0
 74
     0
 49
-1.0
 74
     0
  0
LTYPE
  5
40
330
5
100
AcDbSymbolTableRecord
100
AcDbLinetypeTableRecord
  2
PHANTOM
 70
     0
  3
Phantom
 72
    65
 73
     6
 40
13.0
 49
10.0
 74
     0
 49
-1.0
 74
     0
 49
0.0
 74
     0
 49
-1.0
 74
     0
 49
0.0
 74
     0
 49
-1.0
 74
     0
  0
LTYPE
  5
41
330
5
100
AcDbSymbolTableRecord
100
AcDbLinetypeTableRecord
  2
CENTER_DASH_DASH
 70
     0
  3
Center_Dash_Dash
 72
    65
 73
     6
 40
14.0
 49
9.0
 74
     0
 49
-1.0
 74
     0
 49
1.0
 74
     0
 49
-1.0
 74
     0
 49
1.0
 74
     0
 49
-1.0
 74
     0
  0
LTYPE
  5
42
330
5
100
AcDbSymbolTableRecord
100
AcDbLinetypeTableRecord
  2
DASHDOT_3
 70
     0
  3
DASHDOT_3
 72
    65
 73
     4
 40
16.0
 49
10.0
 74
     0
 49
-3.0
 74
     0
 49
0.0
 74
     0
 49
-3.0
 74
     0
  0
ENDTAB
  0
TABLE
  2
LAYER
  5
2
330
0
100
AcDbSymbolTable
 70
     6
  0
LAYER
  5
10
330
2
100
AcDbSymbolTableRecord
100
AcDbLayerTableRecord
  2
0
 70
     0
 62
     7
  6
Continuous
370
    -3
390
F
  0
LAYER
  5
43
330
2
100
AcDbSymbolTableRecord
100
AcDbLayerTableRecord
  2
1
 70
     0
 62
     7
  6
Continuous
370
    -3
390
F
  0
LAYER
  5
44
330
2
100
AcDbSymbolTableRecord
100
AcDbLayerTableRecord
  2
LC-001-002-----0
 70
     0
 62
     7
  6
Continuous
370
    -3
390
F
  0
LAYER
  5
45
330
2
100
AcDbSymbolTableRecord
100
AcDbLayerTableRecord
  2
LC-002-002-RND-0
 70
     0
 62
     7
  6
Continuous
370
    -3
390
F
  0
LAYER
  5
46
330
2
100
AcDbSymbolTableRecord
100
AcDbLayerTableRecord
  2
LC-009-006-MLN-0
 70
     0
 62
     7
  6
Continuous
370
    -3
390
F
  0
LAYER
  5
47
330
2
100
AcDbSymbolTableRecord
100
AcDbLayerTableRecord
  2
LC-012-200-----0
 70
     0
 62
     7
  6
Continuous
370
    -3
390
F
  0
ENDTAB
  0
TABLE
  2
STYLE
  5
3
330
0
100
AcDbSymbolTable
 70
     2
  0
STYLE
  5
11
330
3
100
AcDbSymbolTableRecord
100
AcDbTextStyleTableRecord
  2
Standard
 70
     0
 40
0.0
 41
1.0
 50
0.0
 71
     0
 42
0.2
  3
txt
  4

  0
STYLE
  5
32B
330
3
100
AcDbSymbolTableRecord
100
AcDbTextStyleTableRecord
  2
CONVERTER_11
 70
     0
 40
0.0
 41
0.9
 50
0.0
 71
     0
 42
0.2
  3
txt.shx
  4

  0
ENDTAB
  0
TABLE
  2
VIEW
  5
6
330
0
100
AcDbSymbolTable
 70
     0
  0
ENDTAB
  0
TABLE
  2
UCS
  5
7
330
0
100
AcDbSymbolTable
 70
     0
  0
ENDTAB
  0
TABLE
  2
APPID
  5
9
330
0
100
AcDbSymbolTable
 70
     1
  0
APPID
  5
12
330
9
100
AcDbSymbolTableRecord
100
AcDbRegAppTableRecord
  2
ACAD
 70
     0
  0
ENDTAB
  0
TABLE
  2
DIMSTYLE
  5
A
330
0
100
AcDbSymbolTable
 70
    10
100
AcDbDimStyleTable
  0
DIMSTYLE
105
27
330
A
100
AcDbSymbolTableRecord
100
AcDbDimStyleTableRecord
  2
Standard
 70
     0
340
11
  0
DIMSTYLE
105
32F
102
{ACAD_REACTORS
330
330
102
}
330
A
100
AcDbSymbolTableRecord
100
AcDbDimStyleTableRecord
  2
ME10_DIM_10
 70
     0
 41
12.0
 42
0.0
 44
2.0
 73
     0
 74
     0
 77
     1
 78
     8
140
12.0
147
2.0
172
     1
173
     1
176
     4
177
     4
178
     1
271
     0
340
32B
  0
DIMSTYLE
105
33A
102
{ACAD_REACTORS
330
33B
102
}
330
A
100
AcDbSymbolTableRecord
100
AcDbDimStyleTableRecord
  2
ME10_DIM_11
 70
     0
  3
500x<>
 41
12.0
 42
0.0
 44
2.0
 73
     0
 74
     0
 77
     1
 78
     8
140
12.0
147
2.0
172
     1
173
     1
176
     4
177
     4
178
     1
271
     2
340
32B
  0
DIMSTYLE
105
345
102
{ACAD_REACTORS
330
346
102
}
330
A
100
AcDbSymbolTableRecord
100
AcDbDimStyleTableRecord
  2
ME10_DIM_12
 70
     0
 41
12.0
 42
0.0
 44
2.0
 73
     0
 74
     0
 77
     1
 78
     8
140
12.0
147
2.0
172
     1
173
     1
176
     4
177
     4
178
     1
271
     2
340
32B
  0
DIMSTYLE
105
350
102
{ACAD_REACTORS
330
351
102
}
330
A
100
AcDbSymbolTableRecord
100
AcDbDimStyleTableRecord
  2
ME10_DIM_13
 70
     0
  3
(<>)
 41
12.0
 42
0.0
 44
2.0
 73
     0
 74
     0
 77
     1
 78
     8
140
12.0
147
2.0
172
     1
173
     1
176
     4
177
     4
178
     1
271
     2
340
32B
  0
DIMSTYLE
105
35C
102
{ACAD_REACTORS
330
35D
102
}
330
A
100
AcDbSymbolTableRecord
100
AcDbDimStyleTableRecord
  2
ME10_DIM_14
 70
     0
  3
DN<>
 41
12.0
 42
0.0
 44
2.0
 73
     0
 74
     0
 77
     1
 78
     8
140
12.0
147
2.0
172
     1
173
     1
176
     4
177
     4
178
     1
271
     2
340
32B
  0
DIMSTYLE
105
368
102
{ACAD_REACTORS
330
369
102
}
330
A
100
AcDbSymbolTableRecord
100
AcDbDimStyleTableRecord
  2
ME10_DIM_15
 70
     0
  3
Ø<>
 41
12.0
 42
0.0
 44
2.0
 73
     0
 74
     0
 77
     1
 78
     8
140
12.0
147
2.0
172
     1
173
     1
176
     4
177
     4
178
     1
271
     2
340
32B
  0
DIMSTYLE
105
373
102
{ACAD_REACTORS
330
374
102
}
330
A
100
AcDbSymbolTableRecord
100
AcDbDimStyleTableRecord
  2
ME10_DIM_16
 70
     0
  3
284x<>
 41
12.0
 42
0.0
 44
2.0
 73
     0
 74
     0
 77
     1
 78
     8
140
12.0
147
2.0
172
     1
173
     1
176
     4
177
     4
178
     1
271
     2
340
32B
  0
DIMSTYLE
105
37E
102
{ACAD_REACTORS
330
37F
102
}
330
A
100
AcDbSymbolTableRecord
100
AcDbDimStyleTableRecord
  2
ME10_DIM_17
 70
     0
  3
360x<>
 41
12.0
 42
0.0
 44
2.0
 73
     0
 74
     0
 77
     1
 78
     8
140
12.0
147
2.0
172
     1
173
     1
176
     4
177
     4
178
     1
271
     2
340
32B
  0
DIMSTYLE
105
389
102
{ACAD_REACTORS
330
38A
102
}
330
A
100
AcDbSymbolTableRecord
100
AcDbDimStyleTableRecord
  2
ME10_DIM_18
 70
     0
  3
378x<>
 41
12.0
 42
0.0
 44
2.0
 73
     0
 74
     0
 77
     1
 78
     8
140
12.0
147
2.0
172
     1
173
     1
176
     4
177
     4
178
     1
271
     2
340
32B
  0
ENDTAB
  0
TABLE
  2
BLOCK_RECORD
  5
1
330
0
100
AcDbSymbolTable
 70
    14
  0
BLOCK_RECORD
  5
1F
330
1
100
AcDbSymbolTableRecord
100
AcDbBlockTableRecord
  2
*Model_Space
340
22
  0
BLOCK_RECORD
  5
1B
330
1
100
AcDbSymbolTableRecord
100
AcDbBlockTableRecord
  2
*Paper_Space
340
1E
  0
BLOCK_RECORD
  5
23
330
1
100
AcDbSymbolTableRecord
100
AcDbBlockTableRecord
  2
*Paper_Space0
340
26
  0
BLOCK_RECORD
  5
48
330
1
100
AcDbSymbolTableRecord
100
AcDbBlockTableRecord
  2
Draufsicht
340
0
102
{BLKREFS
331
56
102
}
  0
BLOCK_RECORD
  5
4B
330
1
100
AcDbSymbolTableRecord
100
AcDbBlockTableRecord
  2
Körper
340
0
102
{BLKREFS
331
52
102
}
  0
BLOCK_RECORD
  5
4E
330
1
100
AcDbSymbolTableRecord
100
AcDbBlockTableRecord
  2
060_1E_Laubfangkorb
340
0
102
{BLKREFS
331
53
102
}
  0
BLOCK_RECORD
  5
51
330
1
100
AcDbSymbolTableRecord
100
AcDbBlockTableRecord
  2
TOP
340
0
102
{BLKREFS
331
57
102
}
  0
BLOCK_RECORD
  5
325
330
1
100
AcDbSymbolTableRecord
100
AcDbBlockTableRecord
  2
*D5
340
0
  0
BLOCK_RECORD
  5
331
330
1
100
AcDbSymbolTableRecord
100
AcDbBlockTableRecord
  2
*D6
340
0
  0
BLOCK_RECORD
  5
33C
330
1
100
AcDbSymbolTableRecord
100
AcDbBlockTableRecord
  2
*D7
340
0
  0
BLOCK_RECORD
  5
347
330
1
100
AcDbSymbolTableRecord
100
AcDbBlockTableRecord
  2
*D8
340
0
  0
BLOCK_RECORD
  5
352
330
1
100
AcDbSymbolTableRecord
100
AcDbBlockTableRecord
  2
*D9
340
0
  0
BLOCK_RECORD
  5
35E
330
1
100
AcDbSymbolTableRecord
100
AcDbBlockTableRecord
  2
*D10
340
0
  0
BLOCK_RECORD
  5
36A
330
1
100
AcDbSymbolTableRecord
100
AcDbBlockTableRecord
  2
*D11
340
0
  0
BLOCK_RECORD
  5
375
330
1
100
AcDbSymbolTableRecord
100
AcDbBlockTableRecord
  2
*D12
340
0
  0
BLOCK_RECORD
  5
380
330
1
100
AcDbSymbolTableRecord
100
AcDbBlockTableRecord
  2
*D13
340
0
  0
ENDTAB
  0
ENDSEC
  0
SECTION
  2
BLOCKS
  0
BLOCK
  5
20
330
1F
100
AcDbEntity
  8
0
100
AcDbBlockBegin
  2
*Model_Space
 70
     0
 71
     0
 10
0.0
 20
0.0
 30
0.0
  3
*Model_Space
  1

  0
ENDBLK
  5
21
330
1F
100
AcDbEntity
  8
0
100
AcDbBlockEnd
  0
BLOCK
  5
1C
330
1B
100
AcDbEntity
 67
     1
  8
0
100
AcDbBlockBegin
  2
*Paper_Space
 70
     0
 71
     0
 10
0.0
 20
0.0
 30
0.0
  3
*Paper_Space
  1

  0
ENDBLK
  5
1D
330
1B
100
AcDbEntity
 67
     1
  8
0
100
AcDbBlockEnd
  0
BLOCK
  5
24
330
23
100
AcDbEntity
  8
0
100
AcDbBlockBegin
  2
*Paper_Space0
 70
     0
 71
     0
 10
0.0
 20
0.0
 30
0.0
  3
*Paper_Space0
  1

  0
ENDBLK
  5
25
330
23
100
AcDbEntity
  8
0
100
AcDbBlockEnd
  0
BLOCK
  5
49
330
48
100
AcDbEntity
  8
0
100
AcDbBlockBegin
  2
Draufsicht
 70
     0
 71
     0
 10
-223.2674590608513
 20
-1304.59386640053
 30
0.0
  3
Draufsicht
  1

  0
POINT
  5
58
330
48
100
AcDbEntity
  8
LC-012-200-----0
 62
     7
100
AcDbPoint
 10
-129.5
 20
-557.5543077798357
 30
0.0
  0
POINT
  5
59
330
48
100
AcDbEntity
  8
LC-012-200-----0
 62
     7
100
AcDbPoint
 10
129.5
 20
-557.5543037798379
 30
0.0
  0
POINT
  5
5A
330
48
100
AcDbEntity
  8
LC-012-200-----0
 62
     7
100
AcDbPoint
 10
-129.5
 20
-816.5543127798373
 30
0.0
  0
POINT
  5
5B
330
48
100
AcDbEntity
  8
LC-012-200-----0
 62
     7
100
AcDbPoint
 10
129.5
 20
-816.5543127798373
 30
0.0
  0
POINT
  5
5C
330
48
100
AcDbEntity
  8
0
 62
     7
100
AcDbPoint
 10
-180.0
 20
-517.0541066566657
 30
0.0
  0
POINT
  5
5D
330
48
100
AcDbEntity
  8
0
 62
     7
100
AcDbPoint
 10
180.0
 20
-517.0541066566657
 30
0.0
  0
POINT
  5
5E
330
48
100
AcDbEntity
  8
0
 62
     7
100
AcDbPoint
 10
188.999613
 20
-508.0539187798349
 30
0.0
  0
LINE
  5
5F
330
48
100
AcDbEntity
  8
1
  6
Continuous
 62
     7
100
AcDbLine
 10
-51.9273763219644
 20
-609.071307429549
 30
0.0
 11
-41.57121873335927
 21
-603.0921770579989
 31
0.0
  0
LINE
  5
60
330
48
100
AcDbEntity
  8
1
  6
Continuous
 62
     7
100
AcDbLine
 10
41.57192367803873
 20
-603.0925840579985
 30
0.0
 11
51.92808126664022
 21
-609.0717144295486
 31
0.0
  0
LINE
  5
61
330
48
100
AcDbEntity
  8
1
  6
Continuous
 62
     7
100
AcDbLine
 10
93.4992999999995
 20
-681.0759914082846
 30
0.0
 11
93.4992999999995
 21
-693.0342521513885
 31
0.0
  0
LINE
  5
62
330
48
100
AcDbEntity
  8
1
  6
Continuous
 62
     7
100
AcDbLine
 10
51.9273763219644
 20
-765.038122130125
 30
0.0
 11
41.57121873335927
 21
-771.0172525016751
 31
0.0
  0
LINE
  5
63
330
48
100
AcDbEntity
  8
1
  6
Continuous
 62
     7
100
AcDbLine
 10
-41.57192367803509
 20
-771.0168455016756
 30
0.0
 11
-51.92808126664022
 21
-765.0377151301218
 31
0.0
  0
LINE
  5
64
330
48
100
AcDbEntity
  8
1
  6
Continuous
 62
     7
100
AcDbLine
 10
-42.07121873335927
 20
-602.226151654213
 30
0.0
 11
-52.4273763219644
 21
-608.2052820257668
 31
0.0
  0
LINE
  5
65
330
48
100
AcDbEntity
  8
1
  6
Continuous
 62
     7
100
AcDbLine
 10
52.42808126664022
 20
-608.2056890257663
 30
0.0
 11
42.07192367803873
 21
-602.2265586542126
 31
0.0
  0
LINE
  5
66
330
48
100
AcDbEntity
  8
1
  6
Continuous
 62
     7
100
AcDbLine
 10
94.4992999999995
 20
-693.0342521513885
 30
0.0
 11
94.4992999999995
 21
-681.0759914082846
 31
0.0
  0
LINE
  5
67
330
48
100
AcDbEntity
  8
1
  6
Continuous
 62
     7
100
AcDbLine
 10
42.07121873335927
 20
-771.8832779054574
 30
0.0
 11
52.4273763219644
 21
-765.9041475339072
 31
0.0
  0
LINE
  5
68
330
48
100
AcDbEntity
  8
1
  6
Continuous
 62
     7
100
AcDbLine
 10
-52.42808126664022
 20
-765.9037405339077
 30
0.0
 11
-42.07192367803509
 21
-771.8828709054578
 31
0.0
  0
LINE
  5
69
330
48
100
AcDbEntity
  8
1
  6
Continuous
 62
     7
100
AcDbLine
 10
-93.4992999999995
 20
-693.0334381513858
 30
0.0
 11
-93.4992999999995
 21
-681.0751774082855
 31
0.0
  0
LINE
  5
6A
330
48
100
AcDbEntity
  8
1
  6
Continuous
 62
     7
100
AcDbLine
 10
-94.4992999999995
 20
-681.0751774082855
 30
0.0
 11
-94.4992999999995
 21
-693.0334381513858
 31
0.0
  0
LINE
  5
6B
330
48
100
AcDbEntity
  8
LC-001-002-----0
  6
DASHDOT_3
 62
     2
100
AcDbLine
 10
-189.0
 20
-687.0543287798355
 30
0.0
 11
189.0
 21
-687.0539717798383
 31
0.0
  0
LINE
  5
6C
330
48
100
AcDbEntity
  8
LC-001-002-----0
  6
DASHDOT_3
 62
     2
100
AcDbLine
 10
0.0
 20
-498.0547147798352
 30
0.0
 11
0.0
 21
-876.0547147798352
 31
0.0
  0
LINE
  5
6D
330
48
100
AcDbEntity
  8
LC-001-002-----0
  6
DASHED
 62
     7
100
AcDbLine
 10
-178.99957
 20
-876.0554887798353
 30
0.0
 11
179.0004300000001
 21
-876.0539407798351
 31
0.0
  0
LINE
  5
6E
330
48
100
AcDbEntity
  8
LC-001-002-----0
  6
DASHED
 62
     7
100
AcDbLine
 10
188.999613
 20
-508.0539187798349
 30
0.0
 11
189.0003870000001
 21
-866.0539187798349
 31
0.0
  0
LINE
  5
6F
330
48
100
AcDbEntity
  8
LC-001-002-----0
  6
DASHED
 62
     7
100
AcDbLine
 10
-179.0004310000004
 20
-498.0554887798353
 30
0.0
 11
178.9995689999996
 21
-498.0539407798351
 31
0.0
  0
LINE
  5
70
330
48
100
AcDbEntity
  8
LC-001-002-----0
  6
DASHED
 62
     7
100
AcDbLine
 10
-189.0003870000001
 20
-508.0555107798355
 30
0.0
 11
-188.999613
 21
-866.0555107798355
 31
0.0
  0
LINE
  5
71
330
48
100
AcDbEntity
  8
LC-001-002-----0
  6
Continuous
 62
     7
100
AcDbLine
 10
-85.59250999999858
 20
-685.9047147798374
 30
0.0
 11
-43.18492599999809
 21
-685.9047147798374
 31
0.0
  0
LINE
  5
72
330
48
100
AcDbEntity
  8
LC-001-002-----0
  6
Continuous
 62
     7
100
AcDbLine
 10
-85.59250999999858
 20
-688.2047147798366
 30
0.0
 11
-43.18492599999809
 21
-688.2047147798366
 31
0.0
  0
LINE
  5
73
330
48
100
AcDbEntity
  8
LC-001-002-----0
  6
Continuous
 62
     7
100
AcDbLine
 10
-63.36325700000089
 20
-688.2047147798366
 30
0.0
 11
-3.30591199999981
 21
-688.2047147798366
 31
0.0
  0
LINE
  5
74
330
48
100
AcDbEntity
  8
LC-001-002-----0
  6
Continuous
 62
     7
100
AcDbLine
 10
-39.94241200000033
 20
-685.9047147798374
 30
0.0
 11
-3.30591199999981
 21
-685.9047147798374
 31
0.0
  0
LINE
  5
75
330
48
100
AcDbEntity
  8
LC-001-002-----0
  6
Continuous
 62
     7
100
AcDbLine
 10
-82.37838199999896
 20
-663.7909887798378
 30
0.0
 11
-41.41580099999919
 21
-674.766879779836
 31
0.0
  0
LINE
  5
76
330
48
100
AcDbEntity
  8
LC-001-002-----0
  6
Continuous
 62
     7
100
AcDbLine
 10
-82.97366599999805
 20
-666.0126187798378
 30
0.0
 11
-42.01108499999828
 21
-676.9885087798357
 31
0.0
  0
LINE
  5
77
330
48
100
AcDbEntity
  8
LC-001-002-----0
  6
Continuous
 62
     7
100
AcDbLine
 10
-74.70031899999958
 20
-645.2545067798383
 30
0.0
 11
-37.97427400000015
 21
-666.4582987798349
 31
0.0
  0
LINE
  5
78
330
48
100
AcDbEntity
  8
LC-001-002-----0
  6
Continuous
 62
     7
100
AcDbLine
 10
-73.55031899999813
 20
-643.2626477798367
 30
0.0
 11
-36.8242739999987
 21
-664.466439779837
 31
0.0
  0
LINE
  5
79
330
48
100
AcDbEntity
  8
LC-001-002-----0
  6
Continuous
 62
     7
100
AcDbLine
 10
-59.70994000000064
 20
-625.7186637798368
 30
0.0
 11
-29.7232499999991
 21
-655.705354779835
 31
0.0
  0
LINE
  5
7A
330
48
100
AcDbEntity
  8
LC-001-002-----0
  6
Continuous
 62
     7
100
AcDbLine
 10
-61.33628599999793
 20
-627.3450097798377
 30
0.0
 11
-31.34959499999968
 21
-657.3316997798356
 31
0.0
  0
LINE
  5
7B
330
48
100
AcDbEntity
  8
LC-001-002-----0
  6
Continuous
 62
     7
100
AcDbLine
 10
-41.80044300000009
 20
-612.3546307798351
 30
0.0
 11
-20.59665099999984
 21
-649.0806757798382
 31
0.0
  0
LINE
  5
7C
330
48
100
AcDbEntity
  8
LC-001-002-----0
  6
Continuous
 62
     7
100
AcDbLine
 10
-43.79230200000166
 20
-613.5046307798366
 30
0.0
 11
-22.58850999999777
 21
-650.230675779836
 31
0.0
  0
LINE
  5
7D
330
48
100
AcDbEntity
  8
LC-001-002-----0
  6
Continuous
 62
     7
100
AcDbLine
 10
-23.26396100000056
 20
-604.6765677798358
 30
0.0
 11
-12.2880699999987
 21
-645.6391487798355
 31
0.0
  0
LINE
  5
7E
330
48
100
AcDbEntity
  8
LC-001-002-----0
  6
Continuous
 62
     7
100
AcDbLine
 10
-21.04233100000056
 20
-604.0812837798367
 30
0.0
 11
-10.06644099999903
 21
-645.0438647798364
 31
0.0
  0
LINE
  5
7F
330
48
100
AcDbEntity
  8
LC-001-002-----0
  6
Continuous
 62
     7
100
AcDbLine
 10
-27.43044699999882
 20
-657.9981577798353
 30
0.0
 11
-1.52452899999844
 21
-683.9040757798357
 31
0.0
  0
LINE
  5
80
330
48
100
AcDbEntity
  8
LC-001-002-----0
  6
Continuous
 62
     7
100
AcDbLine
 10
-29.05679199999941
 20
-659.6245037798362
 30
0.0
 11
-3.15087399999902
 21
-685.5304207798363
 31
0.0
  0
LINE
  5
81
330
48
100
AcDbEntity
  8
LC-001-002-----0
  6
Continuous
 62
     7
100
AcDbLine
 10
1.14976500000194
 20
-679.0708457798355
 30
0.0
 11
1.14976500000194
 21
-683.7490377798349
 31
0.0
  0
LINE
  5
82
330
48
100
AcDbEntity
  8
LC-001-002-----0
  6
Continuous
 62
     7
100
AcDbLine
 10
-1.15023500000098
 20
-646.8689537798382
 30
0.0
 11
-1.15023500000098
 21
-653.0708457798355
 31
0.0
  0
LINE
  5
83
330
48
100
AcDbEntity
  8
LC-001-002-----0
  6
Continuous
 62
     7
100
AcDbLine
 10
29.05632200000036
 20
-659.6245037798362
 30
0.0
 11
3.15040399999998
 21
-685.5304207798363
 31
0.0
  0
LINE
  5
84
330
48
100
AcDbEntity
  8
LC-001-002-----0
  6
Continuous
 62
     7
100
AcDbLine
 10
27.42997599999944
 20
-657.9981577798353
 30
0.0
 11
1.5240589999994
 21
-683.9040757798357
 31
0.0
  0
LINE
  5
85
330
48
100
AcDbEntity
  8
LC-001-002-----0
  6
Continuous
 62
     7
100
AcDbLine
 10
-74.70031899999958
 20
-728.8549227798358
 30
0.0
 11
-37.97427400000015
 21
-707.6511307798355
 31
0.0
  0
LINE
  5
86
330
48
100
AcDbEntity
  8
LC-001-002-----0
  6
Continuous
 62
     7
100
AcDbLine
 10
39.94194200000129
 20
-688.2047147798366
 30
0.0
 11
3.30544200000077
 21
-688.2047147798366
 31
0.0
  0
LINE
  5
87
330
48
100
AcDbEntity
  8
LC-001-002-----0
  6
Continuous
 62
     7
100
AcDbLine
 10
39.94194200000129
 20
-685.9047147798374
 30
0.0
 11
3.30544200000077
 21
-685.9047147798374
 31
0.0
  0
LINE
  5
88
330
48
100
AcDbEntity
  8
LC-001-002-----0
  6
Continuous
 62
     7
100
AcDbLine
 10
21.04186100000152
 20
-604.0812837798367
 30
0.0
 11
10.06597099999999
 21
-645.0438647798364
 31
0.0
  0
LINE
  5
89
330
48
100
AcDbEntity
  8
LC-001-002-----0
  6
Continuous
 62
     7
100
AcDbLine
 10
23.26349000000118
 20
-604.6765677798358
 30
0.0
 11
12.28759999999966
 21
-645.6391487798355
 31
0.0
  0
LINE
  5
8A
330
48
100
AcDbEntity
  8
LC-001-002-----0
  6
Continuous
 62
     7
100
AcDbLine
 10
41.79997300000105
 20
-612.3546307798351
 30
0.0
 11
20.5961810000008
 21
-649.0806757798382
 31
0.0
  0
LINE
  5
8B
330
48
100
AcDbEntity
  8
LC-001-002-----0
  6
Continuous
 62
     7
100
AcDbLine
 10
43.79183099999864
 20
-613.5046307798366
 30
0.0
 11
22.58803900000203
 21
-650.230675779836
 31
0.0
  0
LINE
  5
8C
330
48
100
AcDbEntity
  8
LC-001-002-----0
  6
Continuous
 62
     7
100
AcDbLine
 10
59.7094700000016
 20
-625.7186637798368
 30
0.0
 11
29.72278000000006
 21
-655.705354779835
 31
0.0
  0
LINE
  5
8D
330
48
100
AcDbEntity
  8
LC-001-002-----0
  6
Continuous
 62
     7
100
AcDbLine
 10
61.33581599999889
 20
-627.3450097798377
 30
0.0
 11
31.34912500000064
 21
-657.3316997798356
 31
0.0
  0
LINE
  5
8E
330
48
100
AcDbEntity
  8
LC-001-002-----0
  6
Continuous
 62
     7
100
AcDbLine
 10
74.69984900000054
 20
-645.2545067798383
 30
0.0
 11
37.97380400000111
 21
-666.4582987798349
 31
0.0
  0
LINE
  5
8F
330
48
100
AcDbEntity
  8
LC-001-002-----0
  6
Continuous
 62
     7
100
AcDbLine
 10
73.54984899999909
 20
-643.2626477798367
 30
0.0
 11
36.82380399999965
 21
-664.466439779837
 31
0.0
  0
LINE
  5
90
330
48
100
AcDbEntity
  8
LC-001-002-----0
  6
Continuous
 62
     7
100
AcDbLine
 10
82.37791199999992
 20
-663.7909887798378
 30
0.0
 11
41.41533100000015
 21
-674.766879779836
 31
0.0
  0
LINE
  5
91
330
48
100
AcDbEntity
  8
LC-001-002-----0
  6
Continuous
 62
     7
100
AcDbLine
 10
82.973195999999
 20
-666.0126187798378
 30
0.0
 11
42.01061499999923
 21
-676.9885087798357
 31
0.0
  0
LINE
  5
92
330
48
100
AcDbEntity
  8
LC-001-002-----0
  6
Continuous
 62
     7
100
AcDbLine
 10
85.59203999999954
 20
-685.9047147798374
 30
0.0
 11
43.18445499999871
 21
-685.9047147798374
 31
0.0
  0
LINE
  5
93
330
48
100
AcDbEntity
  8
LC-001-002-----0
  6
Continuous
 62
     7
100
AcDbLine
 10
85.59203999999954
 20
-688.2047147798366
 30
0.0
 11
43.18445499999871
 21
-688.2047147798366
 31
0.0
  0
LINE
  5
94
330
48
100
AcDbEntity
  8
LC-001-002-----0
  6
Continuous
 62
     7
100
AcDbLine
 10
-82.97366599999805
 20
-708.0968107798362
 30
0.0
 11
-42.01108499999828
 21
-697.1209207798383
 31
0.0
  0
LINE
  5
95
330
48
100
AcDbEntity
  8
LC-001-002-----0
  6
Continuous
 62
     7
100
AcDbLine
 10
-82.37838199999896
 20
-710.3184397798359
 30
0.0
 11
-41.41580099999919
 21
-699.342549779838
 31
0.0
  0
LINE
  5
96
330
48
100
AcDbEntity
  8
LC-001-002-----0
  6
Continuous
 62
     7
100
AcDbLine
 10
-73.55031899999813
 20
-730.8467817798373
 30
0.0
 11
-36.8242739999987
 21
-709.6429887798367
 31
0.0
  0
LINE
  5
97
330
48
100
AcDbEntity
  8
LC-001-002-----0
  6
Continuous
 62
     7
100
AcDbLine
 10
-61.33628599999793
 20
-746.7644197798363
 30
0.0
 11
-31.34959499999968
 21
-716.7777297798384
 31
0.0
  0
LINE
  5
98
330
48
100
AcDbEntity
  8
LC-001-002-----0
  6
Continuous
 62
     7
100
AcDbLine
 10
-59.70994000000064
 20
-748.3907657798372
 30
0.0
 11
-29.7232499999991
 21
-718.4040747798354
 31
0.0
  0
LINE
  5
99
330
48
100
AcDbEntity
  8
LC-001-002-----0
  6
Continuous
 62
     7
100
AcDbLine
 10
-43.79230200000166
 20
-760.6047987798374
 30
0.0
 11
-22.58850999999777
 21
-723.878753779838
 31
0.0
  0
LINE
  5
9A
330
48
100
AcDbEntity
  8
LC-001-002-----0
  6
Continuous
 62
     7
100
AcDbLine
 10
-41.80044300000009
 20
-761.7547987798353
 30
0.0
 11
-20.59665099999984
 21
-725.0287537798358
 31
0.0
  0
LINE
  5
9B
330
48
100
AcDbEntity
  8
LC-001-002-----0
  6
Continuous
 62
     7
100
AcDbLine
 10
-23.26396100000056
 20
-769.4328617798383
 30
0.0
 11
-12.2880699999987
 21
-728.4702807798385
 31
0.0
  0
LINE
  5
9C
330
48
100
AcDbEntity
  8
LC-001-002-----0
  6
Continuous
 62
     7
100
AcDbLine
 10
-21.04233100000056
 20
-770.0281457798374
 30
0.0
 11
-10.06644099999903
 21
-729.0655647798376
 31
0.0
  0
LINE
  5
9D
330
48
100
AcDbEntity
  8
LC-001-002-----0
  6
Continuous
 62
     7
100
AcDbLine
 10
1.14976500000194
 20
-772.6469897798379
 30
0.0
 11
1.14976500000194
 21
-730.2394057798374
 31
0.0
  0
LINE
  5
9E
330
48
100
AcDbEntity
  8
LC-001-002-----0
  6
Continuous
 62
     7
100
AcDbLine
 10
-1.15023500000098
 20
-772.6469897798379
 30
0.0
 11
-1.15023500000098
 21
-730.2394057798374
 31
0.0
  0
LINE
  5
9F
330
48
100
AcDbEntity
  8
LC-001-002-----0
  6
Continuous
 62
     7
100
AcDbLine
 10
23.26349000000118
 20
-769.4328617798383
 30
0.0
 11
12.28759999999966
 21
-728.4702807798385
 31
0.0
  0
LINE
  5
A0
330
48
100
AcDbEntity
  8
LC-001-002-----0
  6
Continuous
 62
     7
100
AcDbLine
 10
21.04186100000152
 20
-770.0281457798374
 30
0.0
 11
10.06597099999999
 21
-729.0655647798376
 31
0.0
  0
LINE
  5
A1
330
48
100
AcDbEntity
  8
LC-001-002-----0
  6
Continuous
 62
     7
100
AcDbLine
 10
41.79997300000105
 20
-761.7547987798353
 30
0.0
 11
20.5961810000008
 21
-725.0287537798358
 31
0.0
  0
LINE
  5
A2
330
48
100
AcDbEntity
  8
LC-001-002-----0
  6
Continuous
 62
     7
100
AcDbLine
 10
43.79183099999864
 20
-760.6047987798374
 30
0.0
 11
22.58803900000203
 21
-723.878753779838
 31
0.0
  0
LINE
  5
A3
330
48
100
AcDbEntity
  8
LC-001-002-----0
  6
Continuous
 62
     7
100
AcDbLine
 10
59.7094700000016
 20
-748.3907657798372
 30
0.0
 11
29.72278000000006
 21
-718.4040747798354
 31
0.0
  0
LINE
  5
A4
330
48
100
AcDbEntity
  8
LC-001-002-----0
  6
Continuous
 62
     7
100
AcDbLine
 10
61.33581599999889
 20
-746.7644197798363
 30
0.0
 11
31.34912500000064
 21
-716.7777297798384
 31
0.0
  0
LINE
  5
A5
330
48
100
AcDbEntity
  8
LC-001-002-----0
  6
Continuous
 62
     7
100
AcDbLine
 10
82.973195999999
 20
-708.0968107798362
 30
0.0
 11
42.01061499999923
 21
-697.1209207798383
 31
0.0
  0
LINE
  5
A6
330
48
100
AcDbEntity
  8
LC-001-002-----0
  6
Continuous
 62
     7
100
AcDbLine
 10
82.37791199999992
 20
-710.3184397798359
 30
0.0
 11
41.41533100000015
 21
-699.342549779838
 31
0.0
  0
LINE
  5
A7
330
48
100
AcDbEntity
  8
LC-001-002-----0
  6
Continuous
 62
     7
100
AcDbLine
 10
74.69984900000054
 20
-728.8549227798358
 30
0.0
 11
37.97380400000111
 21
-707.6511307798355
 31
0.0
  0
LINE
  5
A8
330
48
100
AcDbEntity
  8
LC-001-002-----0
  6
Continuous
 62
     7
100
AcDbLine
 10
73.54984899999909
 20
-730.8467817798373
 30
0.0
 11
36.82380399999965
 21
-709.6429887798367
 31
0.0
  0
LINE
  5
A9
330
48
100
AcDbEntity
  8
LC-001-002-----0
  6
Continuous
 62
     7
100
AcDbLine
 10
-29.05679199999941
 20
-714.4849257798378
 30
0.0
 11
-3.15087399999902
 21
-688.5790087798377
 31
0.0
  0
LINE
  5
AA
330
48
100
AcDbEntity
  8
LC-001-002-----0
  6
Continuous
 62
     7
100
AcDbLine
 10
-27.43044699999882
 20
-716.1112717798351
 30
0.0
 11
-1.52452899999844
 21
-690.2053537798383
 31
0.0
  0
LINE
  5
AB
330
48
100
AcDbEntity
  8
LC-001-002-----0
  6
Continuous
 62
     7
100
AcDbLine
 10
27.42997599999944
 20
-716.1112717798351
 30
0.0
 11
1.5240589999994
 21
-690.2053537798383
 31
0.0
  0
LINE
  5
AC
330
48
100
AcDbEntity
  8
LC-001-002-----0
  6
Continuous
 62
     7
100
AcDbLine
 10
29.05632200000036
 20
-714.4849257798378
 30
0.0
 11
3.15040399999998
 21
-688.5790087798377
 31
0.0
  0
LINE
  5
AD
330
48
100
AcDbEntity
  8
LC-001-002-----0
  6
Continuous
 62
     7
100
AcDbLine
 10
-1.15023500000098
 20
-726.996891779836
 30
0.0
 11
-1.15023500000098
 21
-721.0385837798349
 31
0.0
  0
LINE
  5
AE
330
48
100
AcDbEntity
  8
LC-001-002-----0
  6
Continuous
 62
     7
100
AcDbLine
 10
1.14976500000194
 20
-726.996891779836
 30
0.0
 11
1.14976500000194
 21
-721.0385837798349
 31
0.0
  0
LINE
  5
AF
330
48
100
AcDbEntity
  8
LC-001-002-----0
  6
Continuous
 62
     7
100
AcDbLine
 10
2.19976500000121
 20
-678.0708457798355
 30
0.0
 11
2.19976500000121
 21
-654.0708457798355
 31
0.0
  0
LINE
  5
B0
330
48
100
AcDbEntity
  8
LC-001-002-----0
  6
Continuous
 62
     7
100
AcDbLine
 10
-1.20023500000025
 20
-653.0708457798355
 30
0.0
 11
-1.15023500000098
 21
-653.0708457798355
 31
0.0
  0
LINE
  5
B1
330
48
100
AcDbEntity
  8
LC-001-002-----0
  6
Continuous
 62
     7
100
AcDbLine
 10
-2.20023500000025
 20
-678.0708457798355
 30
0.0
 11
-2.20023500000025
 21
-654.0708457798355
 31
0.0
  0
LINE
  5
B2
330
48
100
AcDbEntity
  8
LC-001-002-----0
  6
Continuous
 62
     7
100
AcDbLine
 10
1.14976500000194
 20
-653.0708457798355
 30
0.0
 11
1.19976500000121
 21
-653.0708457798355
 31
0.0
  0
LINE
  5
B3
330
48
100
AcDbEntity
  8
LC-001-002-----0
  6
Continuous
 62
     7
100
AcDbLine
 10
-1.20023500000025
 20
-679.0708457798355
 30
0.0
 11
-1.15023500000098
 21
-679.0708457798355
 31
0.0
  0
LINE
  5
B4
330
48
100
AcDbEntity
  8
LC-001-002-----0
  6
Continuous
 62
     7
100
AcDbLine
 10
1.19976500000121
 20
-679.0708457798355
 30
0.0
 11
1.14976500000194
 21
-679.0708457798355
 31
0.0
  0
LINE
  5
B5
330
48
100
AcDbEntity
  8
LC-001-002-----0
  6
Continuous
 62
     7
100
AcDbLine
 10
-1.15023500000098
 20
-679.0708457798355
 30
0.0
 11
-1.15023500000098
 21
-683.7490377798349
 31
0.0
  0
LINE
  5
B6
330
48
100
AcDbEntity
  8
LC-001-002-----0
  6
Continuous
 62
     7
100
AcDbLine
 10
1.14976500000194
 20
-646.8689537798382
 30
0.0
 11
1.14976500000194
 21
-653.0708457798355
 31
0.0
  0
LINE
  5
B7
330
48
100
AcDbEntity
  8
LC-001-002-----0
  6
Continuous
 62
     7
100
AcDbLine
 10
2.19976500000121
 20
-696.0385837798349
 30
0.0
 11
2.19976500000121
 21
-720.0385837798349
 31
0.0
  0
LINE
  5
B8
330
48
100
AcDbEntity
  8
LC-001-002-----0
  6
Continuous
 62
     7
100
AcDbLine
 10
-1.20023500000025
 20
-721.0385837798349
 30
0.0
 11
-1.15023500000098
 21
-721.0385837798349
 31
0.0
  0
LINE
  5
B9
330
48
100
AcDbEntity
  8
LC-001-002-----0
  6
Continuous
 62
     7
100
AcDbLine
 10
-2.20023500000025
 20
-696.0385837798349
 30
0.0
 11
-2.20023500000025
 21
-720.0385837798349
 31
0.0
  0
LINE
  5
BA
330
48
100
AcDbEntity
  8
LC-001-002-----0
  6
Continuous
 62
     7
100
AcDbLine
 10
1.14976500000194
 20
-721.0385837798349
 30
0.0
 11
1.19976500000121
 21
-721.0385837798349
 31
0.0
  0
LINE
  5
BB
330
48
100
AcDbEntity
  8
LC-001-002-----0
  6
Continuous
 62
     7
100
AcDbLine
 10
-1.20023500000025
 20
-695.0385837798349
 30
0.0
 11
-1.15023500000098
 21
-695.0385837798349
 31
0.0
  0
LINE
  5
BC
330
48
100
AcDbEntity
  8
LC-001-002-----0
  6
Continuous
 62
     7
100
AcDbLine
 10
1.19976500000121
 20
-695.0385837798349
 30
0.0
 11
1.14976500000194
 21
-695.0385837798349
 31
0.0
  0
LINE
  5
BD
330
48
100
AcDbEntity
  8
LC-001-002-----0
  6
Continuous
 62
     7
100
AcDbLine
 10
-1.15023500000098
 20
-695.0385837798349
 30
0.0
 11
-1.15023500000098
 21
-690.3603917798355
 31
0.0
  0
LINE
  5
BE
330
48
100
AcDbEntity
  8
LC-001-002-----0
  6
Continuous
 62
     7
100
AcDbLine
 10
1.14976500000194
 20
-695.0385837798349
 30
0.0
 11
1.14976500000194
 21
-690.3603917798355
 31
0.0
  0
LINE
  5
BF
330
48
100
AcDbEntity
  8
LC-001-002-----0
  6
Continuous
 62
     7
100
AcDbLine
 10
-74.06627899999876
 20
-675.2547147798359
 30
0.0
 11
-72.04022400000031
 21
-675.2547147798359
 31
0.0
  0
LINE
  5
C0
330
48
100
AcDbEntity
  8
LC-001-002-----0
  6
Continuous
 62
     7
100
AcDbLine
 10
-74.06627899999876
 20
-698.8547147798381
 30
0.0
 11
-72.04022400000031
 21
-698.8547147798381
 31
0.0
  0
LINE
  5
C1
330
48
100
AcDbEntity
  8
LC-001-002-----0
  6
Continuous
 62
     7
100
AcDbLine
 10
11.79976499999975
 20
-612.9883987798385
 30
0.0
 11
11.79976499999975
 21
-615.014725779838
 31
0.0
  0
LINE
  5
C2
330
48
100
AcDbEntity
  8
LC-001-002-----0
  6
Continuous
 62
     7
100
AcDbLine
 10
-11.80023499999879
 20
-612.9884737798384
 30
0.0
 11
-11.80023499999879
 21
-615.014725779838
 31
0.0
  0
LINE
  5
C3
330
48
100
AcDbEntity
  8
LC-001-002-----0
  6
Continuous
 62
     7
100
AcDbLine
 10
74.06627799999842
 20
-698.8547147798381
 30
0.0
 11
72.03975400000127
 21
-698.8547147798381
 31
0.0
  0
LINE
  5
C4
330
48
100
AcDbEntity
  8
LC-001-002-----0
  6
Continuous
 62
     7
100
AcDbLine
 10
74.06627799999842
 20
-675.2547147798359
 30
0.0
 11
72.03975400000127
 21
-675.2547147798359
 31
0.0
  0
LINE
  5
C5
330
48
100
AcDbEntity
  8
LC-001-002-----0
  6
Continuous
 62
     7
100
AcDbLine
 10
-11.80023499999879
 20
-761.1209557798356
 30
0.0
 11
-11.80023499999879
 21
-759.094703779836
 31
0.0
  0
LINE
  5
C6
330
48
100
AcDbEntity
  8
LC-001-002-----0
  6
Continuous
 62
     7
100
AcDbLine
 10
11.79976499999975
 20
-761.1210307798356
 30
0.0
 11
11.79976499999975
 21
-759.094703779836
 31
0.0
  0
LINE
  5
C7
330
48
100
AcDbEntity
  8
LC-001-002-----0
  6
Continuous
 62
     7
100
AcDbLine
 10
-1.15023500000098
 20
-601.4624397798361
 30
0.0
 11
-1.15023500000098
 21
-643.8700237798366
 31
0.0
  0
LINE
  5
C8
330
48
100
AcDbEntity
  8
LC-001-002-----0
  6
Continuous
 62
     7
100
AcDbLine
 10
1.14976500000194
 20
-601.4624397798361
 30
0.0
 11
1.14976500000194
 21
-643.8700237798366
 31
0.0
  0
LINE
  5
C9
330
48
100
AcDbEntity
  8
LC-001-002-----0
  6
Continuous
 62
     7
100
AcDbLine
 10
-124.75
 20
-554.8118947798357
 30
0.0
 11
-129.5
 21
-552.0694807798354
 31
0.0
  0
LINE
  5
CA
330
48
100
AcDbEntity
  8
LC-001-002-----0
  6
Continuous
 62
     7
100
AcDbLine
 10
-129.5
 20
-552.0694807798354
 30
0.0
 11
-134.25
 21
-554.8118947798357
 31
0.0
  0
LINE
  5
CB
330
48
100
AcDbEntity
  8
LC-001-002-----0
  6
Continuous
 62
     7
100
AcDbLine
 10
-134.25
 20
-554.8118947798357
 30
0.0
 11
-134.25
 21
-560.2967217798359
 31
0.0
  0
LINE
  5
CC
330
48
100
AcDbEntity
  8
LC-001-002-----0
  6
Continuous
 62
     7
100
AcDbLine
 10
-134.25
 20
-560.2967217798359
 30
0.0
 11
-129.5
 21
-563.0391357798362
 31
0.0
  0
LINE
  5
CD
330
48
100
AcDbEntity
  8
LC-001-002-----0
  6
Continuous
 62
     7
100
AcDbLine
 10
-129.5
 20
-563.0391357798362
 30
0.0
 11
-124.75
 21
-560.2967217798359
 31
0.0
  0
LINE
  5
CE
330
48
100
AcDbEntity
  8
LC-009-006-MLN-0
  6
DASHDOT_3
 62
     7
100
AcDbLine
 10
-143.0000089999994
 20
-557.5543037798379
 30
0.0
 11
-116.0
 21
-557.5543037798379
 31
0.0
  0
LINE
  5
CF
330
48
100
AcDbEntity
  8
LC-009-006-MLN-0
  6
DASHDOT_3
 62
     7
100
AcDbLine
 10
-129.5000049999981
 20
-544.0542997798366
 30
0.0
 11
-129.5000049999981
 21
-571.0543077798357
 31
0.0
  0
LINE
  5
D0
330
48
100
AcDbEntity
  8
LC-001-002-----0
  6
DASHED
 62
     7
100
AcDbLine
 10
-170.0
 20
-867.0540671929921
 30
0.0
 11
0.0
 21
-867.0540671929921
 31
0.0
  0
LINE
  5
D1
330
48
100
AcDbEntity
  8
LC-001-002-----0
  6
DASHED
 62
     7
100
AcDbLine
 10
-180.0
 20
-857.0540671929921
 30
0.0
 11
-180.0
 21
-517.0541066566657
 31
0.0
  0
LINE
  5
D2
330
48
100
AcDbEntity
  8
LC-001-002-----0
  6
DASHED
 62
     7
100
AcDbLine
 10
-170.0
 20
-507.0541066566657
 30
0.0
 11
0.0
 21
-507.0541066566657
 31
0.0
  0
LINE
  5
D3
330
48
100
AcDbEntity
  8
LC-009-006-MLN-0
  6
DASHDOT_3
 62
     7
100
AcDbLine
 10
143.0000079999991
 20
-557.5543037798379
 30
0.0
 11
116.0
 21
-557.5543037798379
 31
0.0
  0
LINE
  5
D4
330
48
100
AcDbEntity
  8
LC-009-006-MLN-0
  6
DASHDOT_3
 62
     7
100
AcDbLine
 10
129.5000040000014
 20
-544.0542997798366
 30
0.0
 11
129.5000040000014
 21
-571.0543077798357
 31
0.0
  0
LINE
  5
D5
330
48
100
AcDbEntity
  8
LC-001-002-----0
  6
DASHED
 62
     7
100
AcDbLine
 10
170.0
 20
-867.0540671929921
 30
0.0
 11
0.0
 21
-867.0540671929921
 31
0.0
  0
LINE
  5
D6
330
48
100
AcDbEntity
  8
LC-001-002-----0
  6
DASHED
 62
     7
100
AcDbLine
 10
180.0
 20
-857.0540671929921
 30
0.0
 11
180.0
 21
-517.0541066566657
 31
0.0
  0
LINE
  5
D7
330
48
100
AcDbEntity
  8
LC-001-002-----0
  6
DASHED
 62
     7
100
AcDbLine
 10
170.0
 20
-507.0541066566657
 30
0.0
 11
0.0
 21
-507.0541066566657
 31
0.0
  0
LINE
  5
D8
330
48
100
AcDbEntity
  8
LC-009-006-MLN-0
  6
DASHDOT_3
 62
     7
100
AcDbLine
 10
-129.5000049999981
 20
-830.0543167798351
 30
0.0
 11
-129.5000049999981
 21
-803.0543077798357
 31
0.0
  0
LINE
  5
D9
330
48
100
AcDbEntity
  8
LC-009-006-MLN-0
  6
DASHDOT_3
 62
     7
100
AcDbLine
 10
143.0000079999991
 20
-816.5543127798373
 30
0.0
 11
116.0
 21
-816.5543127798373
 31
0.0
  0
LINE
  5
DA
330
48
100
AcDbEntity
  8
LC-009-006-MLN-0
  6
DASHDOT_3
 62
     7
100
AcDbLine
 10
129.5000040000014
 20
-830.0543167798351
 30
0.0
 11
129.5000040000014
 21
-803.0543077798357
 31
0.0
  0
LINE
  5
DB
330
48
100
AcDbEntity
  8
LC-001-002-----0
  6
DASHDOT_3
 62
     7
100
AcDbLine
 10
0.0
 20
-809.0543077798357
 30
0.0
 11
0.0
 21
-809.0543077798357
 31
0.0
  0
LINE
  5
DC
330
48
100
AcDbEntity
  8
LC-001-002-----0
  6
DASHDOT_3
 62
     7
100
AcDbLine
 10
0.0
 20
-565.0543077798357
 30
0.0
 11
0.0
 21
-565.0543077798357
 31
0.0
  0
LINE
  5
DD
330
48
100
AcDbEntity
  8
LC-001-002-----0
  6
Continuous
 62
     7
100
AcDbLine
 10
-124.75
 20
-560.2967217798359
 30
0.0
 11
-124.75
 21
-554.8118947798357
 31
0.0
  0
LINE
  5
DE
330
48
100
AcDbEntity
  8
LC-001-002-----0
  6
Continuous
 62
     7
100
AcDbLine
 10
134.25
 20
-554.811890779838
 30
0.0
 11
129.5
 21
-552.0694767798377
 31
0.0
  0
LINE
  5
DF
330
48
100
AcDbEntity
  8
LC-001-002-----0
  6
Continuous
 62
     7
100
AcDbLine
 10
129.5
 20
-552.0694767798377
 30
0.0
 11
124.75
 21
-554.811890779838
 31
0.0
  0
LINE
  5
E0
330
48
100
AcDbEntity
  8
LC-001-002-----0
  6
Continuous
 62
     7
100
AcDbLine
 10
124.75
 20
-554.811890779838
 30
0.0
 11
124.75
 21
-560.2967177798382
 31
0.0
  0
LINE
  5
E1
330
48
100
AcDbEntity
  8
LC-001-002-----0
  6
Continuous
 62
     7
100
AcDbLine
 10
124.75
 20
-560.2967177798382
 30
0.0
 11
129.5
 21
-563.0391317798349
 31
0.0
  0
LINE
  5
E2
330
48
100
AcDbEntity
  8
LC-001-002-----0
  6
Continuous
 62
     7
100
AcDbLine
 10
129.5
 20
-563.0391317798349
 30
0.0
 11
134.25
 21
-560.2967177798382
 31
0.0
  0
LINE
  5
E3
330
48
100
AcDbEntity
  8
LC-001-002-----0
  6
Continuous
 62
     7
100
AcDbLine
 10
134.25
 20
-560.2967177798382
 30
0.0
 11
134.25
 21
-554.811890779838
 31
0.0
  0
LINE
  5
E4
330
48
100
AcDbEntity
  8
LC-001-002-----0
  6
Continuous
 62
     7
100
AcDbLine
 10
-124.75
 20
-813.8118987798371
 30
0.0
 11
-129.5
 21
-811.0694847798368
 31
0.0
  0
LINE
  5
E5
330
48
100
AcDbEntity
  8
LC-001-002-----0
  6
Continuous
 62
     7
100
AcDbLine
 10
-129.5
 20
-811.0694847798368
 30
0.0
 11
-134.25
 21
-813.8118987798371
 31
0.0
  0
LINE
  5
E6
330
48
100
AcDbEntity
  8
LC-001-002-----0
  6
Continuous
 62
     7
100
AcDbLine
 10
-134.25
 20
-813.8118987798371
 30
0.0
 11
-134.25
 21
-819.2967257798373
 31
0.0
  0
LINE
  5
E7
330
48
100
AcDbEntity
  8
LC-001-002-----0
  6
Continuous
 62
     7
100
AcDbLine
 10
-134.25
 20
-819.2967257798373
 30
0.0
 11
-129.5
 21
-822.0391397798376
 31
0.0
  0
LINE
  5
E8
330
48
100
AcDbEntity
  8
LC-001-002-----0
  6
Continuous
 62
     7
100
AcDbLine
 10
-129.5
 20
-822.0391397798376
 30
0.0
 11
-124.75
 21
-819.2967257798373
 31
0.0
  0
LINE
  5
E9
330
48
100
AcDbEntity
  8
LC-001-002-----0
  6
Continuous
 62
     7
100
AcDbLine
 10
-124.75
 20
-819.2967257798373
 30
0.0
 11
-124.75
 21
-813.8118987798371
 31
0.0
  0
LINE
  5
EA
330
48
100
AcDbEntity
  8
LC-009-006-MLN-0
  6
DASHDOT_3
 62
     7
100
AcDbLine
 10
-114.75
 20
-816.5543127798373
 30
0.0
 11
-144.25
 21
-816.5543127798373
 31
0.0
  0
LINE
  5
EB
330
48
100
AcDbEntity
  8
LC-001-002-----0
  6
Continuous
 62
     7
100
AcDbLine
 10
134.25
 20
-813.8118987798371
 30
0.0
 11
129.5
 21
-811.0694847798368
 31
0.0
  0
LINE
  5
EC
330
48
100
AcDbEntity
  8
LC-001-002-----0
  6
Continuous
 62
     7
100
AcDbLine
 10
129.5
 20
-811.0694847798368
 30
0.0
 11
124.75
 21
-813.8118987798371
 31
0.0
  0
LINE
  5
ED
330
48
100
AcDbEntity
  8
LC-001-002-----0
  6
Continuous
 62
     7
100
AcDbLine
 10
124.75
 20
-813.8118987798371
 30
0.0
 11
124.75
 21
-819.2967257798373
 31
0.0
  0
LINE
  5
EE
330
48
100
AcDbEntity
  8
LC-001-002-----0
  6
Continuous
 62
     7
100
AcDbLine
 10
124.75
 20
-819.2967257798373
 30
0.0
 11
129.5
 21
-822.0391397798376
 31
0.0
  0
LINE
  5
EF
330
48
100
AcDbEntity
  8
LC-001-002-----0
  6
Continuous
 62
     7
100
AcDbLine
 10
129.5
 20
-822.0391397798376
 30
0.0
 11
134.25
 21
-819.2967257798373
 31
0.0
  0
LINE
  5
F0
330
48
100
AcDbEntity
  8
LC-001-002-----0
  6
Continuous
 62
     7
100
AcDbLine
 10
134.25
 20
-819.2967257798373
 30
0.0
 11
134.25
 21
-813.8118987798371
 31
0.0
  0
LINE
  5
F1
330
48
100
AcDbEntity
  8
LC-009-006-MLN-0
  6
DASHDOT_3
 62
     7
100
AcDbLine
 10
129.5
 20
-801.8043127798373
 30
0.0
 11
129.5
 21
-831.3043127798373
 31
0.0
  0
LINE
  5
F2
330
48
100
AcDbEntity
  8
LC-001-002-----0
  6
Continuous
 62
     7
100
AcDbLine
 10
-232.0
 20
-455.0532626743479
 30
0.0
 11
232.0
 21
-455.0532626743479
 31
0.0
  0
LINE
  5
F3
330
48
100
AcDbEntity
  8
LC-001-002-----0
  6
Continuous
 62
     7
100
AcDbLine
 10
-232.0
 20
-919.0532626743479
 30
0.0
 11
232.0
 21
-919.0532626743479
 31
0.0
  0
LINE
  5
F4
330
48
100
AcDbEntity
  8
LC-001-002-----0
  6
Continuous
 62
     7
100
AcDbLine
 10
-232.0
 20
-919.0532626743479
 30
0.0
 11
-232.0
 21
-455.0532626743479
 31
0.0
  0
LINE
  5
F5
330
48
100
AcDbEntity
  8
LC-001-002-----0
  6
Continuous
 62
     7
100
AcDbLine
 10
232.0
 20
-919.0532626743479
 30
0.0
 11
232.0
 21
-455.0532626743479
 31
0.0
  0
ARC
  5
F6
330
48
100
AcDbEntity
  8
LC-001-002-----0
  6
Continuous
 62
     7
100
AcDbCircle
 10
-46.99929752766184
 20
-605.648729541881
 30
0.0
 40
6.000000000000089
100
AcDbArc
 50
25.21980815278972
 51
34.7801918471995
  0
ARC
  5
F7
330
48
100
AcDbEntity
  8
LC-001-002-----0
  6
Continuous
 62
     7
100
AcDbCircle
 10
47.00000247233766
 20
-605.6491365418806
 30
0.0
 40
6.000000000000715
100
AcDbArc
 50
-34.78019184719957
 51
-25.21980815282121
  0
ARC
  5
F8
330
48
100
AcDbEntity
  8
LC-001-002-----0
  6
Continuous
 62
     7
100
AcDbCircle
 10
93.9992999999995
 20
-687.0551217798347
 30
0.0
 40
6.000000000003055
100
AcDbArc
 50
-94.78019184719672
 51
-85.21980815280328
  0
ARC
  5
F9
330
48
100
AcDbEntity
  8
LC-001-002-----0
  6
Continuous
 62
     7
100
AcDbCircle
 10
46.99929752766184
 20
-768.4607000177893
 30
0.0
 40
6.000000000001639
100
AcDbArc
 50
-154.7801918471789
 51
-145.2198081528005
  0
ARC
  5
FA
330
48
100
AcDbEntity
  8
LC-001-002-----0
  6
Continuous
 62
     7
100
AcDbCircle
 10
-47.00000247233766
 20
-768.4602930177898
 30
0.0
 40
6.000000000000715
100
AcDbArc
 50
145.2198081528005
 51
154.7801918472102
  0
ARC
  5
FB
330
48
100
AcDbEntity
  8
LC-001-002-----0
  6
Continuous
 62
     7
100
AcDbCircle
 10
-46.99929752766184
 20
-605.648729541881
 30
0.0
 40
6.000000000001632
100
AcDbArc
 50
-154.7801918471788
 51
-145.2198081528005
  0
ARC
  5
FC
330
48
100
AcDbEntity
  8
LC-001-002-----0
  6
Continuous
 62
     7
100
AcDbCircle
 10
47.00000247233766
 20
-605.6491365418806
 30
0.0
 40
5.999999999997739
100
AcDbArc
 50
145.2198081527807
 51
154.7801918471955
  0
ARC
  5
FD
330
48
100
AcDbEntity
  8
LC-001-002-----0
  6
Continuous
 62
     7
100
AcDbCircle
 10
93.9992999999995
 20
-687.0551217798347
 30
0.0
 40
5.999999999999431
100
AcDbArc
 50
85.2198081528004
 51
94.78019184719962
  0
ARC
  5
FE
330
48
100
AcDbEntity
  8
LC-001-002-----0
  6
Continuous
 62
     7
100
AcDbCircle
 10
46.99929752766184
 20
-768.4607000177893
 30
0.0
 40
6.000000000000083
100
AcDbArc
 50
25.21980815278975
 51
34.780191847171
  0
ARC
  5
FF
330
48
100
AcDbEntity
  8
LC-001-002-----0
  6
Continuous
 62
     7
100
AcDbCircle
 10
-47.00000247233766
 20
-768.4602930177898
 30
0.0
 40
6.000000000000727
100
AcDbArc
 50
-34.7801918471995
 51
-25.21980815282115
  0
ARC
  5
100
330
48
100
AcDbEntity
  8
LC-001-002-----0
  6
Continuous
 62
     7
100
AcDbCircle
 10
-46.99929752766184
 20
-605.648729541881
 30
0.0
 40
6.00000000000072
100
AcDbArc
 50
-145.2198081528005
 51
20.40543700000883
  0
ARC
  5
101
330
48
100
AcDbEntity
  8
LC-001-002-----0
  6
Continuous
 62
     7
100
AcDbCircle
 10
-46.99929752766184
 20
-605.648729541881
 30
0.0
 40
6.000000000001632
100
AcDbArc
 50
-154.7801918471788
 51
-145.2198081528005
  0
ARC
  5
102
330
48
100
AcDbEntity
  8
LC-001-002-----0
  6
Continuous
 62
     7
100
AcDbCircle
 10
47.00000247233766
 20
-605.6491365418806
 30
0.0
 40
5.999999999996798
100
AcDbArc
 50
154.7801918471955
 51
-39.59456299998985
  0
ARC
  5
103
330
48
100
AcDbEntity
  8
LC-001-002-----0
  6
Continuous
 62
     7
100
AcDbCircle
 10
47.00000247233766
 20
-605.6491365418806
 30
0.0
 40
5.999999999997739
100
AcDbArc
 50
145.2198081527807
 51
154.7801918471955
  0
ARC
  5
104
330
48
100
AcDbEntity
  8
LC-001-002-----0
  6
Continuous
 62
     7
100
AcDbCircle
 10
93.9992999999995
 20
-687.0551217798347
 30
0.0
 40
5.999999999999431
100
AcDbArc
 50
94.78019184719962
 51
-99.59456299999253
  0
ARC
  5
105
330
48
100
AcDbEntity
  8
LC-001-002-----0
  6
Continuous
 62
     7
100
AcDbCircle
 10
93.9992999999995
 20
-687.0551217798347
 30
0.0
 40
5.999999999999431
100
AcDbArc
 50
85.2198081528004
 51
94.78019184719962
  0
ARC
  5
106
330
48
100
AcDbEntity
  8
LC-001-002-----0
  6
Continuous
 62
     7
100
AcDbCircle
 10
46.99929752766184
 20
-768.4607000177893
 30
0.0
 40
5.999999999998646
100
AcDbArc
 50
34.780191847171
 51
-159.5945629999912
  0
ARC
  5
107
330
48
100
AcDbEntity
  8
LC-001-002-----0
  6
Continuous
 62
     7
100
AcDbCircle
 10
46.99929752766184
 20
-768.4607000177893
 30
0.0
 40
6.000000000000083
100
AcDbArc
 50
25.21980815278975
 51
34.780191847171
  0
ARC
  5
108
330
48
100
AcDbEntity
  8
LC-001-002-----0
  6
Continuous
 62
     7
100
AcDbCircle
 10
-47.00000247233766
 20
-768.4602930177898
 30
0.0
 40
6.000000000001639
100
AcDbArc
 50
-25.21980815282115
 51
140.4054370000147
  0
ARC
  5
109
330
48
100
AcDbEntity
  8
LC-001-002-----0
  6
Continuous
 62
     7
100
AcDbCircle
 10
-47.00000247233766
 20
-768.4602930177898
 30
0.0
 40
6.000000000000727
100
AcDbArc
 50
-34.7801918471995
 51
-25.21980815282115
  0
ARC
  5
10A
330
48
100
AcDbEntity
  8
LC-001-002-----0
  6
Continuous
 62
     7
100
AcDbCircle
 10
-46.99929752766184
 20
-605.648729541881
 30
0.0
 40
6.000000000000258
100
AcDbArc
 50
-159.5945629999912
 51
-154.7801918471788
  0
ARC
  5
10B
330
48
100
AcDbEntity
  8
LC-001-002-----0
  6
Continuous
 62
     7
100
AcDbCircle
 10
-46.99929752766184
 20
-605.648729541881
 30
0.0
 40
6.000000000001632
100
AcDbArc
 50
-154.7801918471788
 51
-145.2198081528005
  0
ARC
  5
10C
330
48
100
AcDbEntity
  8
LC-001-002-----0
  6
Continuous
 62
     7
100
AcDbCircle
 10
47.00000247233766
 20
-605.6491365418806
 30
0.0
 40
5.999999999999036
100
AcDbArc
 50
140.4054370000148
 51
145.2198081527807
  0
ARC
  5
10D
330
48
100
AcDbEntity
  8
LC-001-002-----0
  6
Continuous
 62
     7
100
AcDbCircle
 10
47.00000247233766
 20
-605.6491365418806
 30
0.0
 40
5.999999999997739
100
AcDbArc
 50
145.2198081527807
 51
154.7801918471955
  0
ARC
  5
10E
330
48
100
AcDbEntity
  8
LC-001-002-----0
  6
Continuous
 62
     7
100
AcDbCircle
 10
93.9992999999995
 20
-687.0551217798347
 30
0.0
 40
5.999999999999102
100
AcDbArc
 50
80.40543700000167
 51
85.2198081528004
  0
ARC
  5
10F
330
48
100
AcDbEntity
  8
LC-001-002-----0
  6
Continuous
 62
     7
100
AcDbCircle
 10
93.9992999999995
 20
-687.0551217798347
 30
0.0
 40
5.999999999999431
100
AcDbArc
 50
85.2198081528004
 51
94.78019184719962
  0
ARC
  5
110
330
48
100
AcDbEntity
  8
LC-001-002-----0
  6
Continuous
 62
     7
100
AcDbCircle
 10
46.99929752766184
 20
-768.4607000177893
 30
0.0
 40
5.999999999998989
100
AcDbArc
 50
20.40543699997628
 51
25.21980815278975
  0
ARC
  5
111
330
48
100
AcDbEntity
  8
LC-001-002-----0
  6
Continuous
 62
     7
100
AcDbCircle
 10
46.99929752766184
 20
-768.4607000177893
 30
0.0
 40
6.000000000000083
100
AcDbArc
 50
25.21980815278975
 51
34.780191847171
  0
ARC
  5
112
330
48
100
AcDbEntity
  8
LC-001-002-----0
  6
Continuous
 62
     7
100
AcDbCircle
 10
-47.00000247233766
 20
-768.4602930177898
 30
0.0
 40
6.000000000001354
100
AcDbArc
 50
-39.59456300001192
 51
-34.7801918471995
  0
ARC
  5
113
330
48
100
AcDbEntity
  8
LC-001-002-----0
  6
Continuous
 62
     7
100
AcDbCircle
 10
-47.00000247233766
 20
-768.4602930177898
 30
0.0
 40
6.000000000000727
100
AcDbArc
 50
-34.7801918471995
 51
-25.21980815282115
  0
ARC
  5
114
330
48
100
AcDbEntity
  8
LC-001-002-----0
  6
Continuous
 62
     7
100
AcDbCircle
 10
-46.99929752766184
 20
-605.648729541881
 30
0.0
 40
6.00000000000072
100
AcDbArc
 50
-145.2198081528005
 51
20.40543700000883
  0
ARC
  5
115
330
48
100
AcDbEntity
  8
LC-001-002-----0
  6
Continuous
 62
     7
100
AcDbCircle
 10
47.00000247233766
 20
-605.6491365418806
 30
0.0
 40
5.999999999996798
100
AcDbArc
 50
154.7801918471955
 51
-39.59456299998985
  0
ARC
  5
116
330
48
100
AcDbEntity
  8
LC-001-002-----0
  6
Continuous
 62
     7
100
AcDbCircle
 10
93.9992999999995
 20
-687.0551217798347
 30
0.0
 40
5.999999999999431
100
AcDbArc
 50
94.78019184719962
 51
-99.59456299999253
  0
ARC
  5
117
330
48
100
AcDbEntity
  8
LC-001-002-----0
  6
Continuous
 62
     7
100
AcDbCircle
 10
46.99929752766184
 20
-768.4607000177893
 30
0.0
 40
5.999999999998646
100
AcDbArc
 50
34.780191847171
 51
-159.5945629999912
  0
ARC
  5
118
330
48
100
AcDbEntity
  8
LC-001-002-----0
  6
Continuous
 62
     7
100
AcDbCircle
 10
-47.00000247233766
 20
-768.4602930177898
 30
0.0
 40
6.000000000001639
100
AcDbArc
 50
-25.21980815282115
 51
140.4054370000147
  0
ARC
  5
119
330
48
100
AcDbEntity
  8
LC-001-002-----0
  6
Continuous
 62
     7
100
AcDbCircle
 10
-46.99929752766184
 20
-605.648729541881
 30
0.0
 40
6.000000000000727
100
AcDbArc
 50
34.7801918471995
 51
-159.5945629999912
  0
ARC
  5
11A
330
48
100
AcDbEntity
  8
LC-001-002-----0
  6
Continuous
 62
     7
100
AcDbCircle
 10
47.00000247233766
 20
-605.6491365418806
 30
0.0
 40
6.000000000001626
100
AcDbArc
 50
-25.21980815282121
 51
140.4054370000148
  0
ARC
  5
11B
330
48
100
AcDbEntity
  8
LC-001-002-----0
  6
Continuous
 62
     7
100
AcDbCircle
 10
93.9992999999995
 20
-687.0551217798347
 30
0.0
 40
6.000000000003055
100
AcDbArc
 50
-85.21980815280328
 51
80.40543700000167
  0
ARC
  5
11C
330
48
100
AcDbEntity
  8
LC-001-002-----0
  6
Continuous
 62
     7
100
AcDbCircle
 10
46.99929752766184
 20
-768.4607000177893
 30
0.0
 40
6.000000000000727
100
AcDbArc
 50
-145.2198081528005
 51
20.40543699997628
  0
ARC
  5
11D
330
48
100
AcDbEntity
  8
LC-001-002-----0
  6
Continuous
 62
     7
100
AcDbCircle
 10
-47.00000247233766
 20
-768.4602930177898
 30
0.0
 40
6.000000000000076
100
AcDbArc
 50
154.7801918472102
 51
-39.59456300001192
  0
ARC
  5
11E
330
48
100
AcDbEntity
  8
LC-001-002-----0
  6
Continuous
 62
     7
100
AcDbCircle
 10
-93.9992999999995
 20
-687.0543077798357
 30
0.0
 40
5.999999999999102
100
AcDbArc
 50
80.40543700000167
 51
85.2198081528004
  0
ARC
  5
11F
330
48
100
AcDbEntity
  8
LC-001-002-----0
  6
Continuous
 62
     7
100
AcDbCircle
 10
-93.9992999999995
 20
-687.0543077798357
 30
0.0
 40
5.999999999999431
100
AcDbArc
 50
-94.78019184719962
 51
-85.2198081528004
  0
ARC
  5
120
330
48
100
AcDbEntity
  8
LC-001-002-----0
  6
Continuous
 62
     7
100
AcDbCircle
 10
-93.9992999999995
 20
-687.0543077798357
 30
0.0
 40
5.999999999999431
100
AcDbArc
 50
85.2198081528004
 51
94.78019184719962
  0
ARC
  5
121
330
48
100
AcDbEntity
  8
LC-001-002-----0
  6
Continuous
 62
     7
100
AcDbCircle
 10
-93.9992999999995
 20
-687.0543077798357
 30
0.0
 40
6.000000000002689
100
AcDbArc
 50
-99.59456299999253
 51
-94.78019184719962
  0
ARC
  5
122
330
48
100
AcDbEntity
  8
LC-002-002-RND-0
  6
DASHED
 62
     7
100
AcDbCircle
 10
-179.0003870000001
 20
-508.0554887798353
 30
0.0
 40
9.999999999999089
100
AcDbArc
 50
90.0002480000038
 51
-179.9998759999875
  0
ARC
  5
123
330
48
100
AcDbEntity
  8
LC-002-002-RND-0
  6
DASHED
 62
     7
100
AcDbCircle
 10
178.999613
 20
-508.0539407798351
 30
0.0
 40
10.0000000000052
100
AcDbArc
 50
0.00012399999196
 51
90.00024800002497
  0
ARC
  5
124
330
48
100
AcDbEntity
  8
LC-002-002-RND-0
  6
DASHED
 62
     7
100
AcDbCircle
 10
179.0003870000001
 20
-866.0539407798351
 30
0.0
 40
10.00000000000273
100
AcDbArc
 50
-89.99975199997503
 51
0.00012399999164
  0
ARC
  5
125
330
48
100
AcDbEntity
  8
LC-002-002-RND-0
  6
DASHED
 62
     7
100
AcDbCircle
 10
-178.999613
 20
-866.0554887798353
 30
0.0
 40
10.00000000000151
100
AcDbArc
 50
-179.9998759999875
 51
-89.99975199999555
  0
ARC
  5
126
330
48
100
AcDbEntity
  8
LC-001-002-----0
  6
Continuous
 62
     7
100
AcDbCircle
 10
-0.00023499999952
 20
-687.0547147798352
 30
0.0
 40
3.500000000000681
100
AcDbArc
 50
64.18208999999611
 51
70.81790999999527
  0
ARC
  5
127
330
48
100
AcDbEntity
  8
LC-001-002-----0
  6
Continuous
 62
     7
100
AcDbCircle
 10
-0.00023499999952
 20
-687.0547147798352
 30
0.0
 40
3.499999999998411
100
AcDbArc
 50
19.18209000000472
 51
25.8179099999503
  0
ARC
  5
128
330
48
100
AcDbEntity
  8
LC-001-002-----0
  6
Continuous
 62
     7
100
AcDbCircle
 10
-0.00023499999952
 20
-687.0547147798352
 30
0.0
 40
3.500000000000682
100
AcDbArc
 50
-25.81791000000391
 51
-19.18209000000472
  0
ARC
  5
129
330
48
100
AcDbEntity
  8
LC-001-002-----0
  6
Continuous
 62
     7
100
AcDbCircle
 10
-0.00023499999952
 20
-687.0547147798352
 30
0.0
 40
3.500000000001847
100
AcDbArc
 50
-70.81791000001483
 51
-64.18208999999611
  0
ARC
  5
12A
330
48
100
AcDbEntity
  8
LC-001-002-----0
  6
Continuous
 62
     7
100
AcDbCircle
 10
-0.00023499999952
 20
-687.0547147798352
 30
0.0
 40
3.500000000000682
100
AcDbArc
 50
-115.8179100000039
 51
-109.1820899999852
  0
ARC
  5
12B
330
48
100
AcDbEntity
  8
LC-001-002-----0
  6
Continuous
 62
     7
100
AcDbCircle
 10
-0.00023499999952
 20
-687.0547147798352
 30
0.0
 40
3.499999999998411
100
AcDbArc
 50
-160.8179099999953
 51
-154.1820899999961
  0
ARC
  5
12C
330
48
100
AcDbEntity
  8
LC-001-002-----0
  6
Continuous
 62
     7
100
AcDbCircle
 10
-0.00023499999952
 20
-687.0547147798352
 30
0.0
 40
3.499999999999097
100
AcDbArc
 50
154.1820900000497
 51
160.8179099999953
  0
ARC
  5
12D
330
48
100
AcDbEntity
  8
LC-001-002-----0
  6
Continuous
 62
     7
100
AcDbCircle
 10
-0.00023499999952
 20
-687.0547147798352
 30
0.0
 40
85.59999999999954
100
AcDbArc
 50
164.2302320000015
 51
165.7697680000001
  0
ARC
  5
12E
330
48
100
AcDbEntity
  8
LC-001-002-----0
  6
Continuous
 62
     7
100
AcDbCircle
 10
-0.00023499999952
 20
-687.0547147798352
 30
0.0
 40
85.59999999999923
100
AcDbArc
 50
149.2302319999992
 51
150.769768000001
  0
ARC
  5
12F
330
48
100
AcDbEntity
  8
LC-001-002-----0
  6
Continuous
 62
     7
100
AcDbCircle
 10
-0.00023499999952
 20
-687.0547147798352
 30
0.0
 40
85.5999999999989
100
AcDbArc
 50
179.2302320000016
 51
-179.2302319999991
  0
ARC
  5
130
330
48
100
AcDbEntity
  8
LC-001-002-----0
  6
Continuous
 62
     7
100
AcDbCircle
 10
-0.00023499999952
 20
-687.0547147798352
 30
0.0
 40
85.60000000000028
100
AcDbArc
 50
-165.7697680000001
 51
-164.2302319999992
  0
ARC
  5
131
330
48
100
AcDbEntity
  8
LC-001-002-----0
  6
Continuous
 62
     7
100
AcDbCircle
 10
-0.00023499999952
 20
-687.0547147798352
 30
0.0
 40
85.60000000000089
100
AcDbArc
 50
-150.7697679999989
 51
-149.2302319999992
  0
ARC
  5
132
330
48
100
AcDbEntity
  8
LC-001-002-----0
  6
Continuous
 62
     7
100
AcDbCircle
 10
-0.00023499999952
 20
-687.0547147798352
 30
0.0
 40
85.60000000000201
100
AcDbArc
 50
-135.7697679999989
 51
-134.2302319999994
  0
ARC
  5
133
330
48
100
AcDbEntity
  8
LC-001-002-----0
  6
Continuous
 62
     7
100
AcDbCircle
 10
-0.00023499999952
 20
-687.0547147798352
 30
0.0
 40
85.60000000000235
100
AcDbArc
 50
-120.7697679999996
 51
-119.2302320000011
  0
ARC
  5
134
330
48
100
AcDbEntity
  8
LC-001-002-----0
  6
Continuous
 62
     7
100
AcDbCircle
 10
-0.00023499999952
 20
-687.0547147798352
 30
0.0
 40
85.60000000000052
100
AcDbArc
 50
-105.7697680000008
 51
-104.2302319999999
  0
ARC
  5
135
330
48
100
AcDbEntity
  8
LC-001-002-----0
  6
Continuous
 62
     7
100
AcDbCircle
 10
-0.00023499999952
 20
-687.0547147798352
 30
0.0
 40
85.60000000000258
100
AcDbArc
 50
-90.76976800000081
 51
-89.23023199999919
  0
ARC
  5
136
330
48
100
AcDbEntity
  8
LC-001-002-----0
  6
Continuous
 62
     7
100
AcDbCircle
 10
-0.00023499999952
 20
-687.0547147798352
 30
0.0
 40
85.59999999999687
100
AcDbArc
 50
134.2302320000011
 51
135.7697680000006
  0
ARC
  5
137
330
48
100
AcDbEntity
  8
LC-001-002-----0
  6
Continuous
 62
     7
100
AcDbCircle
 10
-0.00023499999952
 20
-687.0547147798352
 30
0.0
 40
85.59999999999772
100
AcDbArc
 50
119.2302320000023
 51
120.7697680000008
  0
ARC
  5
138
330
48
100
AcDbEntity
  8
LC-001-002-----0
  6
Continuous
 62
     7
100
AcDbCircle
 10
-0.00023499999952
 20
-687.0547147798352
 30
0.0
 40
85.59999999999675
100
AcDbArc
 50
104.2302320000005
 51
105.7697680000008
  0
ARC
  5
139
330
48
100
AcDbEntity
  8
LC-001-002-----0
  6
Continuous
 62
     7
100
AcDbCircle
 10
-0.00023499999952
 20
-687.0547147798352
 30
0.0
 40
85.59999999999894
100
AcDbArc
 50
89.23023199999916
 51
90.76976800000084
  0
ARC
  5
13A
330
48
100
AcDbEntity
  8
LC-001-002-----0
  6
Continuous
 62
     7
100
AcDbCircle
 10
-0.00023499999952
 20
-687.0547147798352
 30
0.0
 40
85.60000000000052
100
AcDbArc
 50
74.23023199999919
 51
75.76976799999952
  0
ARC
  5
13B
330
48
100
AcDbEntity
  8
LC-001-002-----0
  6
Continuous
 62
     7
100
AcDbCircle
 10
-0.00023499999952
 20
-687.0547147798352
 30
0.0
 40
85.59999999999923
100
AcDbArc
 50
59.23023199999918
 51
60.76976799999886
  0
ARC
  5
13C
330
48
100
AcDbEntity
  8
LC-001-002-----0
  6
Continuous
 62
     7
100
AcDbCircle
 10
-0.00023499999952
 20
-687.0547147798352
 30
0.0
 40
85.59999999999947
100
AcDbArc
 50
44.2302319999994
 51
45.7697679999989
  0
ARC
  5
13D
330
48
100
AcDbEntity
  8
LC-001-002-----0
  6
Continuous
 62
     7
100
AcDbCircle
 10
-0.00023499999952
 20
-687.0547147798352
 30
0.0
 40
85.59999999999911
100
AcDbArc
 50
29.230231999999
 51
30.76976800000082
  0
ARC
  5
13E
330
48
100
AcDbEntity
  8
LC-001-002-----0
  6
Continuous
 62
     7
100
AcDbCircle
 10
-0.00023499999952
 20
-687.0547147798352
 30
0.0
 40
85.60000000000028
100
AcDbArc
 50
14.2302319999999
 51
15.76976799999848
  0
ARC
  5
13F
330
48
100
AcDbEntity
  8
LC-001-002-----0
  6
Continuous
 62
     7
100
AcDbCircle
 10
-0.00023499999952
 20
-687.0547147798352
 30
0.0
 40
85.59999999999894
100
AcDbArc
 50
-0.76976800000084
 51
0.76976799999841
  0
ARC
  5
140
330
48
100
AcDbEntity
  8
LC-001-002-----0
  6
Continuous
 62
     7
100
AcDbCircle
 10
-0.00023499999952
 20
-687.0547147798352
 30
0.0
 40
85.60000000000028
100
AcDbArc
 50
-75.76976800000011
 51
-74.23023199999919
  0
ARC
  5
141
330
48
100
AcDbEntity
  8
LC-001-002-----0
  6
Continuous
 62
     7
100
AcDbCircle
 10
-0.00023499999952
 20
-687.0547147798352
 30
0.0
 40
85.60000000000089
100
AcDbArc
 50
-60.76976799999886
 51
-59.23023200000043
  0
ARC
  5
142
330
48
100
AcDbEntity
  8
LC-001-002-----0
  6
Continuous
 62
     7
100
AcDbCircle
 10
-0.00023499999952
 20
-687.0547147798352
 30
0.0
 40
85.59999999999947
100
AcDbArc
 50
-45.7697680000006
 51
-44.23023200000115
  0
ARC
  5
143
330
48
100
AcDbEntity
  8
LC-001-002-----0
  6
Continuous
 62
     7
100
AcDbCircle
 10
-0.00023499999952
 20
-687.0547147798352
 30
0.0
 40
85.59999999999923
100
AcDbArc
 50
-30.76976800000082
 51
-29.23023200000113
  0
ARC
  5
144
330
48
100
AcDbEntity
  8
LC-001-002-----0
  6
Continuous
 62
     7
100
AcDbCircle
 10
-0.00023499999952
 20
-687.0547147798352
 30
0.0
 40
85.60000000000052
100
AcDbArc
 50
-15.76976800000082
 51
-14.2302319999999
  0
ARC
  5
145
330
48
100
AcDbEntity
  8
LC-001-002-----0
  6
Continuous
 62
     7
100
AcDbCircle
 10
-0.00023499999952
 20
-687.0547147798352
 30
0.0
 40
3.499999999998411
100
AcDbArc
 50
109.1820900000047
 51
115.8179100000039
  0
ARC
  5
146
330
48
100
AcDbEntity
  8
LC-001-002-----0
  6
Continuous
 62
     7
100
AcDbCircle
 10
-0.00023499999952
 20
-687.0547147798352
 30
0.0
 40
40.99999999999806
100
AcDbArc
 50
138.0811330000016
 51
176.9188670000035
  0
ARC
  5
147
330
48
100
AcDbEntity
  8
LC-002-002-RND-0
  6
Continuous
 62
     7
100
AcDbCircle
 10
-39.94241200000033
 20
-684.9047147798374
 30
0.0
 40
0.9999999999999203
100
AcDbArc
 50
176.9188670000083
 51
-90.0
  0
ARC
  5
148
330
48
100
AcDbEntity
  8
LC-002-002-RND-0
  6
Continuous
 62
     7
100
AcDbCircle
 10
-39.94241200000033
 20
-689.2047147798366
 30
0.0
 40
1.0
100
AcDbArc
 50
90.0
 51
-176.9188670000083
  0
ARC
  5
149
330
48
100
AcDbEntity
  8
LC-001-002-----0
  6
Continuous
 62
     7
100
AcDbCircle
 10
-0.00023499999952
 20
-687.0547147798352
 30
0.0
 40
44.83999999999912
100
AcDbArc
 50
166.4696110000027
 51
178.5303890000017
  0
ARC
  5
14A
330
48
100
AcDbEntity
  8
LC-002-002-RND-0
  6
Continuous
 62
     7
100
AcDbCircle
 10
-26.72334000000046
 20
-657.291050779837
 30
0.0
 40
0.9999999999977424
100
AcDbArc
 50
131.9188669999487
 51
-135.0000000000001
  0
ARC
  5
14B
330
48
100
AcDbEntity
  8
LC-002-002-RND-0
  6
Continuous
 62
     7
100
AcDbCircle
 10
-29.7638990000014
 20
-660.3316097798379
 30
0.0
 40
1.000000000002736
100
AcDbArc
 50
45.00000000000029
 51
138.0811329998968
  0
ARC
  5
14C
330
48
100
AcDbEntity
  8
LC-002-002-RND-0
  6
Continuous
 62
     7
100
AcDbCircle
 10
2.14976500000193
 20
-647.112537779838
 30
0.0
 40
0.9999999999997247
100
AcDbArc
 50
86.91886700021642
 51
180.0
  0
ARC
  5
14D
330
48
100
AcDbEntity
  8
LC-002-002-RND-0
  6
Continuous
 62
     7
100
AcDbCircle
 10
-2.15023500000098
 20
-647.112537779838
 30
0.0
 40
1.0
100
AcDbArc
 50
0.0
 51
93.08113299999174
  0
ARC
  5
14E
330
48
100
AcDbEntity
  8
LC-002-002-RND-0
  6
Continuous
 62
     7
100
AcDbCircle
 10
29.76342899999872
 20
-660.3316097798379
 30
0.0
 40
1.00000000000288
100
AcDbArc
 50
41.91886699996398
 51
134.9999999998523
  0
ARC
  5
14F
330
48
100
AcDbEntity
  8
LC-002-002-RND-0
  6
Continuous
 62
     7
100
AcDbCircle
 10
26.72286900000108
 20
-657.291050779837
 30
0.0
 40
0.9999999999975989
100
AcDbArc
 50
-44.99999999999986
 51
48.08113300005129
  0
ARC
  5
150
330
48
100
AcDbEntity
  8
LC-002-002-RND-0
  6
Continuous
 62
     7
100
AcDbCircle
 10
39.94194200000129
 20
-689.2047147798366
 30
0.0
 40
0.9999999999999203
100
AcDbArc
 50
-3.08113299999173
 51
90.0
  0
ARC
  5
151
330
48
100
AcDbEntity
  8
LC-002-002-RND-0
  6
Continuous
 62
     7
100
AcDbCircle
 10
39.94194200000129
 20
-684.9047147798374
 30
0.0
 40
1.0
100
AcDbArc
 50
-90.0
 51
3.08113299999173
  0
ARC
  5
152
330
48
100
AcDbEntity
  8
LC-001-002-----0
  6
Continuous
 62
     7
100
AcDbCircle
 10
-0.00023499999952
 20
-687.0547147798352
 30
0.0
 40
44.8399999999973
100
AcDbArc
 50
151.4696110000035
 51
163.5303890000005
  0
ARC
  5
153
330
48
100
AcDbEntity
  8
LC-001-002-----0
  6
Continuous
 62
     7
100
AcDbCircle
 10
-0.00023499999952
 20
-687.0547147798352
 30
0.0
 40
44.83999999999953
100
AcDbArc
 50
136.4696109999998
 51
148.5303890000028
  0
ARC
  5
154
330
48
100
AcDbEntity
  8
LC-001-002-----0
  6
Continuous
 62
     7
100
AcDbCircle
 10
-0.00023499999952
 20
-687.0547147798352
 30
0.0
 40
44.83999999999771
100
AcDbArc
 50
121.4696110000036
 51
133.4745849999999
  0
ARC
  5
155
330
48
100
AcDbEntity
  8
LC-001-002-----0
  6
Continuous
 62
     7
100
AcDbCircle
 10
-0.00023499999952
 20
-687.0547147798352
 30
0.0
 40
44.8399999999974
100
AcDbArc
 50
106.4696110000008
 51
118.5303890000006
  0
ARC
  5
156
330
48
100
AcDbEntity
  8
LC-001-002-----0
  6
Continuous
 62
     7
100
AcDbCircle
 10
-0.00023499999952
 20
-687.0547147798352
 30
0.0
 40
44.83999999999747
100
AcDbArc
 50
91.46961099999842
 51
103.5303890000018
  0
ARC
  5
157
330
48
100
AcDbEntity
  8
LC-001-002-----0
  6
Continuous
 62
     7
100
AcDbCircle
 10
-0.00023499999952
 20
-687.0547147798352
 30
0.0
 40
44.83999999999997
100
AcDbArc
 50
76.46961099999815
 51
88.53038900000158
  0
ARC
  5
158
330
48
100
AcDbEntity
  8
LC-001-002-----0
  6
Continuous
 62
     7
100
AcDbCircle
 10
-0.00023499999952
 20
-687.0547147798352
 30
0.0
 40
40.99999999999712
100
AcDbArc
 50
93.08113300000188
 51
131.9188670000022
  0
ARC
  5
159
330
48
100
AcDbEntity
  8
LC-001-002-----0
  6
Continuous
 62
     7
100
AcDbCircle
 10
-0.00023499999952
 20
-687.0547147798352
 30
0.0
 40
41.00000000000049
100
AcDbArc
 50
48.08113299999778
 51
86.9188670000032
  0
ARC
  5
15A
330
48
100
AcDbEntity
  8
LC-001-002-----0
  6
Continuous
 62
     7
100
AcDbCircle
 10
-0.00023499999952
 20
-687.0547147798352
 30
0.0
 40
41.00000000000056
100
AcDbArc
 50
3.08113299999653
 51
41.91886699999844
  0
ARC
  5
15B
330
48
100
AcDbEntity
  8
LC-001-002-----0
  6
Continuous
 62
     7
100
AcDbCircle
 10
-0.00023499999952
 20
-687.0547147798352
 30
0.0
 40
41.00000000000049
100
AcDbArc
 50
-41.91886700000222
 51
-3.08113300000161
  0
ARC
  5
15C
330
48
100
AcDbEntity
  8
LC-002-002-RND-0
  6
Continuous
 62
     7
100
AcDbCircle
 10
-29.7638990000014
 20
-713.7778197798361
 30
0.0
 40
1.000000000000173
100
AcDbArc
 50
-138.0811329998968
 51
-45.00000000000029
  0
ARC
  5
15D
330
48
100
AcDbEntity
  8
LC-002-002-RND-0
  6
Continuous
 62
     7
100
AcDbCircle
 10
-26.72334000000046
 20
-716.8183787798371
 30
0.0
 40
1.000000000000171
100
AcDbArc
 50
134.9999999998527
 51
-131.9188669999487
  0
ARC
  5
15E
330
48
100
AcDbEntity
  8
LC-002-002-RND-0
  6
Continuous
 62
     7
100
AcDbCircle
 10
29.76342899999872
 20
-713.7778197798361
 30
0.0
 40
1.000000000000164
100
AcDbArc
 50
-134.9999999998523
 51
-41.91886699996398
  0
ARC
  5
15F
330
48
100
AcDbEntity
  8
LC-002-002-RND-0
  6
Continuous
 62
     7
100
AcDbCircle
 10
26.72286900000108
 20
-716.8183787798371
 30
0.0
 40
0.9999999999977424
100
AcDbArc
 50
-48.08113300005129
 51
45.00000000014725
  0
ARC
  5
160
330
48
100
AcDbEntity
  8
LC-001-002-----0
  6
Continuous
 62
     7
100
AcDbCircle
 10
-0.00023499999952
 20
-687.0547147798352
 30
0.0
 40
41.00000000000076
100
AcDbArc
 50
-176.9188669999984
 51
-138.0811329999978
  0
ARC
  5
161
330
48
100
AcDbEntity
  8
LC-001-002-----0
  6
Continuous
 62
     7
100
AcDbCircle
 10
-0.00023499999952
 20
-687.0547147798352
 30
0.0
 40
41.00000000000056
100
AcDbArc
 50
-86.91886700000347
 51
-48.08113300000156
  0
ARC
  5
162
330
48
100
AcDbEntity
  8
LC-002-002-RND-0
  6
Continuous
 62
     7
100
AcDbCircle
 10
2.14976500000193
 20
-726.996891779836
 30
0.0
 40
0.9999999999999998
100
AcDbArc
 50
180.0
 51
-86.91886700021642
  0
ARC
  5
163
330
48
100
AcDbEntity
  8
LC-002-002-RND-0
  6
Continuous
 62
     7
100
AcDbCircle
 10
-2.15023500000098
 20
-726.996891779836
 30
0.0
 40
0.9999999999999203
100
AcDbArc
 50
-93.08113299999174
 51
0.0
  0
ARC
  5
164
330
48
100
AcDbEntity
  8
LC-001-002-----0
  6
Continuous
 62
     7
100
AcDbCircle
 10
-0.00023499999952
 20
-687.0547147798352
 30
0.0
 40
41.00000000000049
100
AcDbArc
 50
-131.9188670000022
 51
-93.08113300000161
  0
ARC
  5
165
330
48
100
AcDbEntity
  8
LC-001-002-----0
  6
Continuous
 62
     7
100
AcDbCircle
 10
-0.00023499999952
 20
-687.0547147798352
 30
0.0
 40
44.8400000000012
100
AcDbArc
 50
-178.5303889999971
 51
-166.4696109999982
  0
ARC
  5
166
330
48
100
AcDbEntity
  8
LC-001-002-----0
  6
Continuous
 62
     7
100
AcDbCircle
 10
-0.00023499999952
 20
-687.0547147798352
 30
0.0
 40
44.84000000000192
100
AcDbArc
 50
-163.5303889999961
 51
-151.4696109999994
  0
ARC
  5
167
330
48
100
AcDbEntity
  8
LC-001-002-----0
  6
Continuous
 62
     7
100
AcDbCircle
 10
-0.00023499999952
 20
-687.0547147798352
 30
0.0
 40
44.84000000000081
100
AcDbArc
 50
-148.5303889999989
 51
-136.4696109999998
  0
ARC
  5
168
330
48
100
AcDbEntity
  8
LC-001-002-----0
  6
Continuous
 62
     7
100
AcDbCircle
 10
-0.00023499999952
 20
-687.0547147798352
 30
0.0
 40
44.83999999999953
100
AcDbArc
 50
-133.5303890000002
 51
-121.4696110000011
  0
ARC
  5
169
330
48
100
AcDbEntity
  8
LC-001-002-----0
  6
Continuous
 62
     7
100
AcDbCircle
 10
-0.00023499999952
 20
-687.0547147798352
 30
0.0
 40
44.84000000000224
100
AcDbArc
 50
-118.5303889999984
 51
-106.4696109999995
  0
ARC
  5
16A
330
48
100
AcDbEntity
  8
LC-001-002-----0
  6
Continuous
 62
     7
100
AcDbCircle
 10
-0.00023499999952
 20
-687.0547147798352
 30
0.0
 40
44.84000000000351
100
AcDbArc
 50
-103.5303890000008
 51
-91.46961099999831
  0
ARC
  5
16B
330
48
100
AcDbEntity
  8
LC-001-002-----0
  6
Continuous
 62
     7
100
AcDbCircle
 10
-0.00023499999952
 20
-687.0547147798352
 30
0.0
 40
44.84000000000111
100
AcDbArc
 50
-88.5303890000017
 51
-76.46961099999923
  0
ARC
  5
16C
330
48
100
AcDbEntity
  8
LC-001-002-----0
  6
Continuous
 62
     7
100
AcDbCircle
 10
-0.00023499999952
 20
-687.0547147798352
 30
0.0
 40
44.84000000000089
100
AcDbArc
 50
-73.53038900000054
 51
-61.4696110000016
  0
ARC
  5
16D
330
48
100
AcDbEntity
  8
LC-001-002-----0
  6
Continuous
 62
     7
100
AcDbCircle
 10
-0.00023499999952
 20
-687.0547147798352
 30
0.0
 40
44.84000000000081
100
AcDbArc
 50
-58.53038899999888
 51
-46.46961099999983
  0
ARC
  5
16E
330
48
100
AcDbEntity
  8
LC-001-002-----0
  6
Continuous
 62
     7
100
AcDbCircle
 10
-0.00023499999952
 20
-687.0547147798352
 30
0.0
 40
44.83999999999953
100
AcDbArc
 50
-43.53038900000017
 51
-31.46961100000113
  0
ARC
  5
16F
330
48
100
AcDbEntity
  8
LC-001-002-----0
  6
Continuous
 62
     7
100
AcDbCircle
 10
-0.00023499999952
 20
-687.0547147798352
 30
0.0
 40
44.83999999999904
100
AcDbArc
 50
-28.53038900000061
 51
-16.46961100000393
  0
ARC
  5
170
330
48
100
AcDbEntity
  8
LC-001-002-----0
  6
Continuous
 62
     7
100
AcDbCircle
 10
-0.00023499999952
 20
-687.0547147798352
 30
0.0
 40
44.83999999999997
100
AcDbArc
 50
-13.53038900000185
 51
-1.46961100000295
  0
ARC
  5
171
330
48
100
AcDbEntity
  8
LC-001-002-----0
  6
Continuous
 62
     7
100
AcDbCircle
 10
-0.00023499999952
 20
-687.0547147798352
 30
0.0
 40
44.84000000000111
100
AcDbArc
 50
1.4696109999983
 51
13.53038899999733
  0
ARC
  5
172
330
48
100
AcDbEntity
  8
LC-001-002-----0
  6
Continuous
 62
     7
100
AcDbCircle
 10
-0.00023499999952
 20
-687.0547147798352
 30
0.0
 40
44.84000000000089
100
AcDbArc
 50
16.46961099999947
 51
28.53038899999653
  0
ARC
  5
173
330
48
100
AcDbEntity
  8
LC-001-002-----0
  6
Continuous
 62
     7
100
AcDbCircle
 10
-0.00023499999952
 20
-687.0547147798352
 30
0.0
 40
44.83999999999891
100
AcDbArc
 50
31.46961099999717
 51
43.53038900000017
  0
ARC
  5
174
330
48
100
AcDbEntity
  8
LC-001-002-----0
  6
Continuous
 62
     7
100
AcDbCircle
 10
-0.00023499999952
 20
-687.0547147798352
 30
0.0
 40
44.83999999999953
100
AcDbArc
 50
46.46961099999983
 51
58.53038899999645
  0
ARC
  5
175
330
48
100
AcDbEntity
  8
LC-001-002-----0
  6
Continuous
 62
     7
100
AcDbCircle
 10
-0.00023499999952
 20
-687.0547147798352
 30
0.0
 40
44.83999999999904
100
AcDbArc
 50
61.46961099999938
 51
73.53038899999922
  0
ARC
  5
176
330
48
100
AcDbEntity
  8
LC-002-002-RND-0
  6
Continuous
 62
     7
100
AcDbCircle
 10
1.19976500000121
 20
-654.0708457798355
 30
0.0
 40
0.9999999999999998
100
AcDbArc
 50
0.0
 51
90.0
  0
ARC
  5
177
330
48
100
AcDbEntity
  8
LC-002-002-RND-0
  6
Continuous
 62
     7
100
AcDbCircle
 10
-1.20023500000025
 20
-654.0708457798355
 30
0.0
 40
1.0
100
AcDbArc
 50
90.0
 51
180.0
  0
ARC
  5
178
330
48
100
AcDbEntity
  8
LC-002-002-RND-0
  6
Continuous
 62
     7
100
AcDbCircle
 10
-1.20023500000025
 20
-678.0708457798355
 30
0.0
 40
1.0
100
AcDbArc
 50
180.0
 51
-90.0
  0
ARC
  5
179
330
48
100
AcDbEntity
  8
LC-002-002-RND-0
  6
Continuous
 62
     7
100
AcDbCircle
 10
1.19976500000121
 20
-678.0708457798355
 30
0.0
 40
1.0
100
AcDbArc
 50
-90.0
 51
0.0
  0
ARC
  5
17A
330
48
100
AcDbEntity
  8
LC-002-002-RND-0
  6
Continuous
 62
     7
100
AcDbCircle
 10
1.19976500000121
 20
-720.0385837798349
 30
0.0
 40
1.0
100
AcDbArc
 50
-90.0
 51
0.0
  0
ARC
  5
17B
330
48
100
AcDbEntity
  8
LC-002-002-RND-0
  6
Continuous
 62
     7
100
AcDbCircle
 10
-1.20023500000025
 20
-720.0385837798349
 30
0.0
 40
1.0
100
AcDbArc
 50
180.0
 51
-90.0
  0
ARC
  5
17C
330
48
100
AcDbEntity
  8
LC-002-002-RND-0
  6
Continuous
 62
     7
100
AcDbCircle
 10
-1.20023500000025
 20
-696.0385837798349
 30
0.0
 40
1.0
100
AcDbArc
 50
90.0
 51
180.0
  0
ARC
  5
17D
330
48
100
AcDbEntity
  8
LC-002-002-RND-0
  6
Continuous
 62
     7
100
AcDbCircle
 10
1.19976500000121
 20
-696.0385837798349
 30
0.0
 40
0.9999999999999998
100
AcDbArc
 50
0.0
 51
90.0
  0
ARC
  5
17E
330
48
100
AcDbEntity
  8
LC-001-002-----0
  6
Continuous
 62
     7
100
AcDbCircle
 10
-0.00023499999952
 20
-687.0547147798352
 30
0.0
 40
70.50000000000004
100
AcDbArc
 50
165.9346530000019
 51
179.0653470000025
  0
ARC
  5
17F
330
48
100
AcDbEntity
  8
LC-001-002-----0
  6
Continuous
 62
     7
100
AcDbCircle
 10
-0.00023499999952
 20
-687.0547147798352
 30
0.0
 40
73.90000000000174
100
AcDbArc
 50
-179.1083519999982
 51
-170.811953999998
  0
ARC
  5
180
330
48
100
AcDbEntity
  8
LC-001-002-----0
  6
Continuous
 62
     7
100
AcDbCircle
 10
-0.00023499999952
 20
-687.0547147798352
 30
0.0
 40
73.00000000000009
100
AcDbArc
 50
165.9026420000015
 51
179.097358000001
  0
ARC
  5
181
330
48
100
AcDbEntity
  8
LC-001-002-----0
  6
Continuous
 62
     7
100
AcDbCircle
 10
-0.00023499999952
 20
-687.0547147798352
 30
0.0
 40
72.99999999999744
100
AcDbArc
 50
75.90264199999798
 51
89.09735800000092
  0
ARC
  5
182
330
48
100
AcDbEntity
  8
LC-001-002-----0
  6
Continuous
 62
     7
100
AcDbCircle
 10
-0.00023499999952
 20
-687.0547147798352
 30
0.0
 40
70.4999999999974
100
AcDbArc
 50
75.93465299999826
 51
89.06534699999949
  0
ARC
  5
183
330
48
100
AcDbEntity
  8
LC-001-002-----0
  6
Continuous
 62
     7
100
AcDbCircle
 10
-0.00023499999952
 20
-687.0547147798352
 30
0.0
 40
73.90000000000043
100
AcDbArc
 50
170.8119540000008
 51
179.1083520000011
  0
ARC
  5
184
330
48
100
AcDbEntity
  8
LC-001-002-----0
  6
Continuous
 62
     7
100
AcDbCircle
 10
0.0
 20
-687.0543077798357
 30
0.0
 40
59.50050099999819
100
AcDbArc
 50
166.1078940000014
 51
178.8929340000014
  0
ARC
  5
185
330
48
100
AcDbEntity
  8
LC-001-002-----0
  6
Continuous
 62
     7
100
AcDbCircle
 10
-0.00023499999952
 20
-687.0547147798352
 30
0.0
 40
73.89999999999803
100
AcDbArc
 50
90.89164799999898
 51
99.18804599999966
  0
ARC
  5
186
330
48
100
AcDbEntity
  8
LC-001-002-----0
  6
Continuous
 62
     7
100
AcDbCircle
 10
0.0
 20
-687.0543077798357
 30
0.0
 40
59.50050099999857
100
AcDbArc
 50
76.10757399999996
 51
88.89276899999922
  0
ARC
  5
187
330
48
100
AcDbEntity
  8
LC-001-002-----0
  6
Continuous
 62
     7
100
AcDbCircle
 10
-0.00023499999952
 20
-687.0547147798352
 30
0.0
 40
73.89999999999684
100
AcDbArc
 50
80.81195400000033
 51
89.10835200000103
  0
ARC
  5
188
330
48
100
AcDbEntity
  8
LC-001-002-----0
  6
Continuous
 62
     7
100
AcDbCircle
 10
-0.00023499999952
 20
-687.0547147798352
 30
0.0
 40
75.40000000000063
100
AcDbArc
 50
0.87390899999962
 51
9.00372499999971
  0
ARC
  5
189
330
48
100
AcDbEntity
  8
LC-001-002-----0
  6
Continuous
 62
     7
100
AcDbCircle
 10
-0.00023499999952
 20
-687.0547147798352
 30
0.0
 40
73.90000000000168
100
AcDbArc
 50
0.89164799999893
 51
9.18804599999921
  0
ARC
  5
18A
330
48
100
AcDbEntity
  8
LC-001-002-----0
  6
Continuous
 62
     7
100
AcDbCircle
 10
0.0
 20
-687.0547147798352
 30
0.0
 40
79.00004900000067
100
AcDbArc
 50
165.8341250000002
 51
179.1659190000003
  0
ARC
  5
18B
330
48
100
AcDbEntity
  8
LC-001-002-----0
  6
Continuous
 62
     7
100
AcDbCircle
 10
-0.00023499999952
 20
-687.0547147798352
 30
0.0
 40
73.90000000000101
100
AcDbArc
 50
-9.188046000002
 51
-0.89164800000175
  0
ARC
  5
18C
330
48
100
AcDbEntity
  8
LC-001-002-----0
  6
Continuous
 62
     7
100
AcDbCircle
 10
0.0
 20
-687.0547147798352
 30
0.0
 40
79.00004900000319
100
AcDbArc
 50
-104.1660829999991
 51
-90.83425200000127
  0
ARC
  5
18D
330
48
100
AcDbEntity
  8
LC-001-002-----0
  6
Continuous
 62
     7
100
AcDbCircle
 10
-0.00023499999952
 20
-687.0547147798352
 30
0.0
 40
73.90000000000168
100
AcDbArc
 50
-89.10835200000108
 51
-80.8119540000008
  0
ARC
  5
18E
330
48
100
AcDbEntity
  8
LC-001-002-----0
  6
Continuous
 62
     7
100
AcDbCircle
 10
0.0
 20
-687.0547147798352
 30
0.0
 40
75.00035699999984
100
AcDbArc
 50
165.8786120000015
 51
179.1214340000021
  0
ARC
  5
18F
330
48
100
AcDbEntity
  8
LC-001-002-----0
  6
Continuous
 62
     7
100
AcDbCircle
 10
-0.00023499999952
 20
-687.0547147798352
 30
0.0
 40
73.90000000000043
100
AcDbArc
 50
-99.18804599999922
 51
-90.89164799999892
  0
ARC
  5
190
330
48
100
AcDbEntity
  8
LC-001-002-----0
  6
Continuous
 62
     7
100
AcDbCircle
 10
-0.00023499999952
 20
-687.0547147798352
 30
0.0
 40
70.50000000000092
100
AcDbArc
 50
-104.065347000001
 51
-90.93465300000047
  0
ARC
  5
191
330
48
100
AcDbEntity
  8
LC-001-002-----0
  6
Continuous
 62
     7
100
AcDbCircle
 10
-0.00023499999952
 20
-687.0547147798352
 30
0.0
 40
73.00000000000097
100
AcDbArc
 50
-104.0973580000013
 51
-90.90264199999905
  0
ARC
  5
192
330
48
100
AcDbEntity
  8
LC-001-002-----0
  6
Continuous
 62
     7
100
AcDbCircle
 10
-0.00023499999952
 20
-687.0547147798352
 30
0.0
 40
70.50000000000092
100
AcDbArc
 50
-14.06534700000101
 51
-0.93465300000046
  0
ARC
  5
193
330
48
100
AcDbEntity
  8
LC-001-002-----0
  6
Continuous
 62
     7
100
AcDbCircle
 10
-0.00023499999952
 20
-687.0547147798352
 30
0.0
 40
73.00000000000097
100
AcDbArc
 50
-14.09735800000133
 51
-0.90264200000194
  0
ARC
  5
194
330
48
100
AcDbEntity
  8
LC-001-002-----0
  6
DASHED
 62
     7
100
AcDbCircle
 10
-0.00023499999952
 20
-687.0547147798352
 30
0.0
 40
78.39999999999873
100
AcDbArc
 50
134.1595339999993
 51
135.8404660000008
  0
ARC
  5
195
330
48
100
AcDbEntity
  8
LC-001-002-----0
  6
Continuous
 62
     7
100
AcDbCircle
 10
0.0
 20
-687.0547147798352
 30
0.0
 40
79.0000490000001
100
AcDbArc
 50
-134.1660389999986
 51
-120.8342289999997
  0
ARC
  5
196
330
48
100
AcDbEntity
  8
LC-001-002-----0
  6
Continuous
 62
     7
100
AcDbCircle
 10
0.0
 20
-687.0543077798357
 30
0.0
 40
59.5005009999993
100
AcDbArc
 50
-58.89293400000044
 51
-46.10789400000035
  0
ARC
  5
197
330
48
100
AcDbEntity
  8
LC-001-002-----0
  6
Continuous
 62
     7
100
AcDbCircle
 10
0.0
 20
-687.0543077798357
 30
0.0
 40
63.00057099999933
100
AcDbArc
 50
166.0463360000009
 51
178.9544460000027
  0
ARC
  5
198
330
48
100
AcDbEntity
  8
LC-001-002-----0
  6
Continuous
 62
     7
100
AcDbCircle
 10
0.0
 20
-687.0547147798352
 30
0.0
 40
75.00035700000235
100
AcDbArc
 50
-104.1216080000008
 51
-90.87874500000096
  0
ARC
  5
199
330
48
100
AcDbEntity
  8
LC-001-002-----0
  6
Continuous
 62
     7
100
AcDbCircle
 10
0.0
 20
-687.0543077798357
 30
0.0
 40
59.50050100000049
100
AcDbArc
 50
-103.8926600000006
 51
-91.10768299999926
  0
ARC
  5
19A
330
48
100
AcDbEntity
  8
LC-001-002-----0
  6
Continuous
 62
     7
100
AcDbCircle
 10
-0.00023499999952
 20
-687.0547147798352
 30
0.0
 40
72.99999999999977
100
AcDbArc
 50
150.9026420000011
 51
164.0973579999998
  0
ARC
  5
19B
330
48
100
AcDbEntity
  8
LC-001-002-----0
  6
Continuous
 62
     7
100
AcDbCircle
 10
-0.00023499999952
 20
-687.0547147798352
 30
0.0
 40
70.49999999999801
100
AcDbArc
 50
150.9346530000014
 51
164.0653470000027
  0
ARC
  5
19C
330
48
100
AcDbEntity
  8
LC-001-002-----0
  6
Continuous
 62
     7
100
AcDbCircle
 10
-0.00023499999952
 20
-687.0547147798352
 30
0.0
 40
70.49999999999962
100
AcDbArc
 50
135.9346529999994
 51
149.0653469999993
  0
ARC
  5
19D
330
48
100
AcDbEntity
  8
LC-001-002-----0
  6
Continuous
 62
     7
100
AcDbCircle
 10
-0.00023499999952
 20
-687.0547147798352
 30
0.0
 40
72.99999999999642
100
AcDbArc
 50
135.9026420000011
 51
149.0973580000011
  0
ARC
  5
19E
330
48
100
AcDbEntity
  8
LC-001-002-----0
  6
Continuous
 62
     7
100
AcDbCircle
 10
-0.00023499999952
 20
-687.0547147798352
 30
0.0
 40
70.49999999999874
100
AcDbArc
 50
120.9346530000007
 51
134.0653470000006
  0
ARC
  5
19F
330
48
100
AcDbEntity
  8
LC-001-002-----0
  6
Continuous
 62
     7
100
AcDbCircle
 10
-0.00023499999952
 20
-687.0547147798352
 30
0.0
 40
72.99999999999798
100
AcDbArc
 50
120.9026420000004
 51
134.097358000001
  0
ARC
  5
1A0
330
48
100
AcDbEntity
  8
LC-001-002-----0
  6
Continuous
 62
     7
100
AcDbCircle
 10
-0.00023499999952
 20
-687.0547147798352
 30
0.0
 40
70.49999999999721
100
AcDbArc
 50
105.9346530000009
 51
119.0653470000012
  0
ARC
  5
1A1
330
48
100
AcDbEntity
  8
LC-001-002-----0
  6
Continuous
 62
     7
100
AcDbCircle
 10
-0.00023499999952
 20
-687.0547147798352
 30
0.0
 40
73.00000000000036
100
AcDbArc
 50
105.9026420000002
 51
119.097357999999
  0
ARC
  5
1A2
330
48
100
AcDbEntity
  8
LC-001-002-----0
  6
Continuous
 62
     7
100
AcDbCircle
 10
-0.00023499999952
 20
-687.0547147798352
 30
0.0
 40
70.49999999999773
100
AcDbArc
 50
90.93465300000051
 51
104.0653470000017
  0
ARC
  5
1A3
330
48
100
AcDbEntity
  8
LC-001-002-----0
  6
Continuous
 62
     7
100
AcDbCircle
 10
-0.00023499999952
 20
-687.0547147798352
 30
0.0
 40
72.9999999999981
100
AcDbArc
 50
90.90264199999909
 51
104.097358000002
  0
ARC
  5
1A4
330
48
100
AcDbEntity
  8
LC-001-002-----0
  6
Continuous
 62
     7
100
AcDbCircle
 10
-0.00023499999952
 20
-687.0547147798352
 30
0.0
 40
70.49999999999979
100
AcDbArc
 50
60.93465299999875
 51
74.06534699999906
  0
ARC
  5
1A5
330
48
100
AcDbEntity
  8
LC-001-002-----0
  6
Continuous
 62
     7
100
AcDbCircle
 10
-0.00023499999952
 20
-687.0547147798352
 30
0.0
 40
70.49999999999962
100
AcDbArc
 50
45.93465299999941
 51
59.06534699999928
  0
ARC
  5
1A6
330
48
100
AcDbEntity
  8
LC-001-002-----0
  6
Continuous
 62
     7
100
AcDbCircle
 10
-0.00023499999952
 20
-687.0547147798352
 30
0.0
 40
70.49999999999874
100
AcDbArc
 50
30.93465300000073
 51
44.0653470000006
  0
ARC
  5
1A7
330
48
100
AcDbEntity
  8
LC-001-002-----0
  6
Continuous
 62
     7
100
AcDbCircle
 10
-0.00023499999952
 20
-687.0547147798352
 30
0.0
 40
72.99999999999977
100
AcDbArc
 50
60.90264200000106
 51
74.09735799999979
  0
ARC
  5
1A8
330
48
100
AcDbEntity
  8
LC-001-002-----0
  6
Continuous
 62
     7
100
AcDbCircle
 10
-0.00023499999952
 20
-687.0547147798352
 30
0.0
 40
72.99999999999895
100
AcDbArc
 50
45.90264199999902
 51
59.0973579999996
  0
ARC
  5
1A9
330
48
100
AcDbEntity
  8
LC-001-002-----0
  6
Continuous
 62
     7
100
AcDbCircle
 10
-0.00023499999952
 20
-687.0547147798352
 30
0.0
 40
72.99999999999798
100
AcDbArc
 50
30.90264200000039
 51
44.09735799999893
  0
ARC
  5
1AA
330
48
100
AcDbEntity
  8
LC-001-002-----0
  6
Continuous
 62
     7
100
AcDbCircle
 10
-0.00023499999952
 20
-687.0547147798352
 30
0.0
 40
70.49999999999972
100
AcDbArc
 50
15.93465299999728
 51
29.06534699999867
  0
ARC
  5
1AB
330
48
100
AcDbEntity
  8
LC-001-002-----0
  6
Continuous
 62
     7
100
AcDbCircle
 10
-0.00023499999952
 20
-687.0547147798352
 30
0.0
 40
73.00000000000036
100
AcDbArc
 50
15.90264200000022
 51
29.09735799999895
  0
ARC
  5
1AC
330
48
100
AcDbEntity
  8
LC-001-002-----0
  6
Continuous
 62
     7
100
AcDbCircle
 10
-0.00023499999952
 20
-687.0547147798352
 30
0.0
 40
70.50000000000131
100
AcDbArc
 50
0.93465299999751
 51
14.06534699999814
  0
ARC
  5
1AD
330
48
100
AcDbEntity
  8
LC-001-002-----0
  6
Continuous
 62
     7
100
AcDbCircle
 10
-0.00023499999952
 20
-687.0547147798352
 30
0.0
 40
72.9999999999981
100
AcDbArc
 50
0.90264199999909
 51
14.09735799999856
  0
ARC
  5
1AE
330
48
100
AcDbEntity
  8
LC-001-002-----0
  6
Continuous
 62
     7
100
AcDbCircle
 10
-0.00023499999952
 20
-687.0547147798352
 30
0.0
 40
70.49999999999977
100
AcDbArc
 50
-29.06534700000126
 51
-15.93465300000012
  0
ARC
  5
1AF
330
48
100
AcDbEntity
  8
LC-001-002-----0
  6
Continuous
 62
     7
100
AcDbCircle
 10
-0.00023499999952
 20
-687.0547147798352
 30
0.0
 40
73.00000000000153
100
AcDbArc
 50
-29.09735800000145
 51
-15.90264200000022
  0
ARC
  5
1B0
330
48
100
AcDbEntity
  8
LC-001-002-----0
  6
Continuous
 62
     7
100
AcDbCircle
 10
-0.00023499999952
 20
-687.0547147798352
 30
0.0
 40
70.49999999999962
100
AcDbArc
 50
-44.0653470000006
 51
-30.93465300000073
  0
ARC
  5
1B1
330
48
100
AcDbEntity
  8
LC-001-002-----0
  6
Continuous
 62
     7
100
AcDbCircle
 10
-0.00023499999952
 20
-687.0547147798352
 30
0.0
 40
72.99999999999895
100
AcDbArc
 50
-44.09735800000098
 51
-30.90264200000284
  0
ARC
  5
1B2
330
48
100
AcDbEntity
  8
LC-001-002-----0
  6
Continuous
 62
     7
100
AcDbCircle
 10
-0.00023499999952
 20
-687.0547147798352
 30
0.0
 40
70.50000000000186
100
AcDbArc
 50
-59.06534700000081
 51
-45.93465300000146
  0
ARC
  5
1B3
330
48
100
AcDbEntity
  8
LC-001-002-----0
  6
Continuous
 62
     7
100
AcDbCircle
 10
-0.00023499999952
 20
-687.0547147798352
 30
0.0
 40
73.00000000000111
100
AcDbArc
 50
-59.09735800000107
 51
-45.90264200000101
  0
ARC
  5
1B4
330
48
100
AcDbEntity
  8
LC-001-002-----0
  6
Continuous
 62
     7
100
AcDbCircle
 10
-0.00023499999952
 20
-687.0547147798352
 30
0.0
 40
70.50000000000071
100
AcDbArc
 50
-74.06534699999989
 51
-60.9346530000002
  0
ARC
  5
1B5
330
48
100
AcDbEntity
  8
LC-001-002-----0
  6
Continuous
 62
     7
100
AcDbCircle
 10
-0.00023499999952
 20
-687.0547147798352
 30
0.0
 40
73.00000000000036
100
AcDbArc
 50
-74.09735799999979
 51
-60.90264200000106
  0
ARC
  5
1B6
330
48
100
AcDbEntity
  8
LC-001-002-----0
  6
Continuous
 62
     7
100
AcDbCircle
 10
-0.00023499999952
 20
-687.0547147798352
 30
0.0
 40
70.50000000000136
100
AcDbArc
 50
-89.06534699999953
 51
-75.93465299999899
  0
ARC
  5
1B7
330
48
100
AcDbEntity
  8
LC-001-002-----0
  6
Continuous
 62
     7
100
AcDbCircle
 10
-0.00023499999952
 20
-687.0547147798352
 30
0.0
 40
73.00000000000173
100
AcDbArc
 50
-89.09735800000095
 51
-75.90264199999866
  0
ARC
  5
1B8
330
48
100
AcDbEntity
  8
LC-001-002-----0
  6
Continuous
 62
     7
100
AcDbCircle
 10
-0.00023499999952
 20
-687.0547147798352
 30
0.0
 40
70.50000000000296
100
AcDbArc
 50
-119.0653469999998
 51
-105.9346530000001
  0
ARC
  5
1B9
330
48
100
AcDbEntity
  8
LC-001-002-----0
  6
Continuous
 62
     7
100
AcDbCircle
 10
-0.00023499999952
 20
-687.0547147798352
 30
0.0
 40
72.99999999999977
100
AcDbArc
 50
-119.097357999999
 51
-105.9026420000002
  0
ARC
  5
1BA
330
48
100
AcDbEntity
  8
LC-001-002-----0
  6
Continuous
 62
     7
100
AcDbCircle
 10
-0.00023499999952
 20
-687.0547147798352
 30
0.0
 40
70.50000000000223
100
AcDbArc
 50
-134.0653469999986
 51
-120.9346529999992
  0
ARC
  5
1BB
330
48
100
AcDbEntity
  8
LC-001-002-----0
  6
Continuous
 62
     7
100
AcDbCircle
 10
-0.00023499999952
 20
-687.0547147798352
 30
0.0
 40
73.00000000000156
100
AcDbArc
 50
-134.097357999999
 51
-120.9026419999989
  0
ARC
  5
1BC
330
48
100
AcDbEntity
  8
LC-001-002-----0
  6
Continuous
 62
     7
100
AcDbCircle
 10
-0.00023499999952
 20
-687.0547147798352
 30
0.0
 40
70.49999999999874
100
AcDbArc
 50
-149.0653469999993
 51
-135.9346529999994
  0
ARC
  5
1BD
330
48
100
AcDbEntity
  8
LC-001-002-----0
  6
Continuous
 62
     7
100
AcDbCircle
 10
-0.00023499999952
 20
-687.0547147798352
 30
0.0
 40
73.00000000000298
100
AcDbArc
 50
-149.0973579999986
 51
-135.902641999999
  0
ARC
  5
1BE
330
48
100
AcDbEntity
  8
LC-001-002-----0
  6
Continuous
 62
     7
100
AcDbCircle
 10
-0.00023499999952
 20
-687.0547147798352
 30
0.0
 40
73.00000000000179
100
AcDbArc
 50
-179.0973579999981
 51
-165.9026419999987
  0
ARC
  5
1BF
330
48
100
AcDbEntity
  8
LC-001-002-----0
  6
Continuous
 62
     7
100
AcDbCircle
 10
-0.00023499999952
 20
-687.0547147798352
 30
0.0
 40
70.50000000000136
100
AcDbArc
 50
-179.0653469999995
 51
-165.934652999999
  0
ARC
  5
1C0
330
48
100
AcDbEntity
  8
LC-001-002-----0
  6
Continuous
 62
     7
100
AcDbCircle
 10
-0.00023499999952
 20
-687.0547147798352
 30
0.0
 40
73.00000000000036
100
AcDbArc
 50
-164.0973579999998
 51
-150.9026419999986
  0
ARC
  5
1C1
330
48
100
AcDbEntity
  8
LC-001-002-----0
  6
Continuous
 62
     7
100
AcDbCircle
 10
-0.00023499999952
 20
-687.0547147798352
 30
0.0
 40
70.50000000000071
100
AcDbArc
 50
-164.0653469999999
 51
-150.9346529999987
  0
ARC
  5
1C2
330
48
100
AcDbEntity
  8
LC-001-002-----0
  6
Continuous
 62
     7
100
AcDbCircle
 10
-0.00023499999952
 20
-687.0547147798352
 30
0.0
 40
56.19999999999881
100
AcDbArc
 50
151.1725040000006
 51
163.8274960000012
  0
ARC
  5
1C3
330
48
100
AcDbEntity
  8
LC-001-002-----0
  6
Continuous
 62
     7
100
AcDbCircle
 10
-0.00023499999952
 20
-687.0547147798352
 30
0.0
 40
57.89999999999972
100
AcDbArc
 50
151.138074000002
 51
163.8619260000015
  0
ARC
  5
1C4
330
48
100
AcDbEntity
  8
LC-001-002-----0
  6
Continuous
 62
     7
100
AcDbCircle
 10
-0.00023499999952
 20
-687.0547147798352
 30
0.0
 40
56.20000000000079
100
AcDbArc
 50
136.1725040000008
 51
148.8274960000024
  0
ARC
  5
1C5
330
48
100
AcDbEntity
  8
LC-001-002-----0
  6
Continuous
 62
     7
100
AcDbCircle
 10
-0.00023499999952
 20
-687.0547147798352
 30
0.0
 40
57.89999999999949
100
AcDbArc
 50
136.138074
 51
148.8619260000014
  0
ARC
  5
1C6
330
48
100
AcDbEntity
  8
LC-001-002-----0
  6
Continuous
 62
     7
100
AcDbCircle
 10
-0.00023499999952
 20
-687.0547147798352
 30
0.0
 40
56.19999999999812
100
AcDbArc
 50
121.1725040000027
 51
133.8274960000018
  0
ARC
  5
1C7
330
48
100
AcDbEntity
  8
LC-001-002-----0
  6
Continuous
 62
     7
100
AcDbCircle
 10
-0.00023499999952
 20
-687.0547147798352
 30
0.0
 40
57.90000000000124
100
AcDbArc
 50
121.1380740000017
 51
133.861926
  0
ARC
  5
1C8
330
48
100
AcDbEntity
  8
LC-001-002-----0
  6
Continuous
 62
     7
100
AcDbCircle
 10
-0.00023499999952
 20
-687.0547147798352
 30
0.0
 40
56.19999999999805
100
AcDbArc
 50
106.1725039999998
 51
118.8274959999994
  0
ARC
  5
1C9
330
48
100
AcDbEntity
  8
LC-001-002-----0
  6
Continuous
 62
     7
100
AcDbCircle
 10
-0.00023499999952
 20
-687.0547147798352
 30
0.0
 40
57.90000000000005
100
AcDbArc
 50
106.138074000002
 51
118.8619260000011
  0
ARC
  5
1CA
330
48
100
AcDbEntity
  8
LC-001-002-----0
  6
Continuous
 62
     7
100
AcDbCircle
 10
-0.00023499999952
 20
-687.0547147798352
 30
0.0
 40
56.20000000000017
100
AcDbArc
 50
91.17250399999854
 51
103.8274960000009
  0
ARC
  5
1CB
330
48
100
AcDbEntity
  8
LC-001-002-----0
  6
Continuous
 62
     7
100
AcDbCircle
 10
-0.00023499999952
 20
-687.0547147798352
 30
0.0
 40
57.90000000000016
100
AcDbArc
 50
91.13807400000056
 51
103.8619260000004
  0
ARC
  5
1CC
330
48
100
AcDbEntity
  8
LC-001-002-----0
  6
Continuous
 62
     7
100
AcDbCircle
 10
-0.00023499999952
 20
-687.0547147798352
 30
0.0
 40
56.19999999999951
100
AcDbArc
 50
76.17250399999911
 51
88.82749600000146
  0
ARC
  5
1CD
330
48
100
AcDbEntity
  8
LC-001-002-----0
  6
Continuous
 62
     7
100
AcDbCircle
 10
-0.00023499999952
 20
-687.0547147798352
 30
0.0
 40
57.89999999999793
100
AcDbArc
 50
76.13807399999965
 51
88.86192599999944
  0
ARC
  5
1CE
330
48
100
AcDbEntity
  8
LC-001-002-----0
  6
Continuous
 62
     7
100
AcDbCircle
 10
-0.00023499999952
 20
-687.0547147798352
 30
0.0
 40
57.89999999999972
100
AcDbArc
 50
61.13807400000204
 51
73.8619260000015
  0
ARC
  5
1CF
330
48
100
AcDbEntity
  8
LC-001-002-----0
  6
Continuous
 62
     7
100
AcDbCircle
 10
-0.00023499999952
 20
-687.0547147798352
 30
0.0
 40
56.19999999999881
100
AcDbArc
 50
61.17250400000059
 51
73.82749600000017
  0
ARC
  5
1D0
330
48
100
AcDbEntity
  8
LC-001-002-----0
  6
Continuous
 62
     7
100
AcDbCircle
 10
-0.00023499999952
 20
-687.0547147798352
 30
0.0
 40
57.89999999999949
100
AcDbArc
 50
46.13807400000003
 51
58.03764999999875
  0
ARC
  5
1D1
330
48
100
AcDbEntity
  8
LC-001-002-----0
  6
Continuous
 62
     7
100
AcDbCircle
 10
0.0
 20
-687.0547147798352
 30
0.0
 40
79.0000489999996
100
AcDbArc
 50
-14.16596300000062
 51
-0.83408099999965
  0
ARC
  5
1D2
330
48
100
AcDbEntity
  8
LC-001-002-----0
  6
Continuous
 62
     7
100
AcDbCircle
 10
0.0
 20
-687.0547147798352
 30
0.0
 40
75.00035700000117
100
AcDbArc
 50
-74.1216080000005
 51
-60.87872100000099
  0
ARC
  5
1D3
330
48
100
AcDbEntity
  8
LC-001-002-----0
  6
Continuous
 62
     7
100
AcDbCircle
 10
-0.00023499999952
 20
-687.0547147798352
 30
0.0
 40
56.19999999999816
100
AcDbArc
 50
46.17250399999818
 51
58.82749599999732
  0
ARC
  5
1D4
330
48
100
AcDbEntity
  8
LC-001-002-----0
  6
Continuous
 62
     7
100
AcDbCircle
 10
-0.00023499999952
 20
-687.0547147798352
 30
0.0
 40
57.89999999999935
100
AcDbArc
 50
31.1380739999986
 51
43.86192599999997
  0
ARC
  5
1D5
330
48
100
AcDbEntity
  8
LC-001-002-----0
  6
Continuous
 62
     7
100
AcDbCircle
 10
-0.00023499999952
 20
-687.0547147798352
 30
0.0
 40
56.19999999999936
100
AcDbArc
 50
31.17250399999759
 51
43.82749599999924
  0
ARC
  5
1D6
330
48
100
AcDbEntity
  8
LC-001-002-----0
  6
Continuous
 62
     7
100
AcDbCircle
 10
-0.00023499999952
 20
-687.0547147798352
 30
0.0
 40
57.89999999999904
100
AcDbArc
 50
16.1380739999985
 51
28.86192599999796
  0
ARC
  5
1D7
330
48
100
AcDbEntity
  8
LC-001-002-----0
  6
Continuous
 62
     7
100
AcDbCircle
 10
-0.00023499999952
 20
-687.0547147798352
 30
0.0
 40
56.19999999999806
100
AcDbArc
 50
16.17250399999984
 51
28.82749599999941
  0
ARC
  5
1D8
330
48
100
AcDbEntity
  8
LC-001-002-----0
  6
Continuous
 62
     7
100
AcDbCircle
 10
-0.00023499999952
 20
-687.0547147798352
 30
0.0
 40
57.90000000000009
100
AcDbArc
 50
1.13807399999696
 51
13.86192599999949
  0
ARC
  5
1D9
330
48
100
AcDbEntity
  8
LC-001-002-----0
  6
Continuous
 62
     7
100
AcDbCircle
 10
-0.00023499999952
 20
-687.0547147798352
 30
0.0
 40
56.20000000000017
100
AcDbArc
 50
1.17250399999854
 51
13.82749599999728
  0
ARC
  5
1DA
330
48
100
AcDbEntity
  8
LC-001-002-----0
  6
Continuous
 62
     7
100
AcDbCircle
 10
-0.00023499999952
 20
-687.0547147798352
 30
0.0
 40
56.19999999999951
100
AcDbArc
 50
-13.82749600000089
 51
-1.17250400000225
  0
ARC
  5
1DB
330
48
100
AcDbEntity
  8
LC-001-002-----0
  6
Continuous
 62
     7
100
AcDbCircle
 10
-0.00023499999952
 20
-687.0547147798352
 30
0.0
 40
57.90000000000146
100
AcDbArc
 50
-13.86192599999949
 51
-1.13807400000056
  0
ARC
  5
1DC
330
48
100
AcDbEntity
  8
LC-001-002-----0
  6
Continuous
 62
     7
100
AcDbCircle
 10
-0.00023499999952
 20
-687.0547147798352
 30
0.0
 40
57.90000000000148
100
AcDbArc
 50
-28.86192600000111
 51
-16.13807400000196
  0
ARC
  5
1DD
330
48
100
AcDbEntity
  8
LC-001-002-----0
  6
Continuous
 62
     7
100
AcDbCircle
 10
-0.00023499999952
 20
-687.0547147798352
 30
0.0
 40
56.20000000000056
100
AcDbArc
 50
-28.82749600000266
 51
-16.17250399999984
  0
ARC
  5
1DE
330
48
100
AcDbEntity
  8
LC-001-002-----0
  6
Continuous
 62
     7
100
AcDbCircle
 10
-0.00023499999952
 20
-687.0547147798352
 30
0.0
 40
57.89999999999949
100
AcDbArc
 50
-43.86192599999997
 51
-31.13807400000168
  0
ARC
  5
1DF
330
48
100
AcDbEntity
  8
LC-001-002-----0
  6
Continuous
 62
     7
100
AcDbCircle
 10
-0.00023499999952
 20
-687.0547147798352
 30
0.0
 40
56.20000000000079
100
AcDbArc
 50
-43.82749599999924
 51
-31.17250400000076
  0
ARC
  5
1E0
330
48
100
AcDbEntity
  8
LC-001-002-----0
  6
Continuous
 62
     7
100
AcDbCircle
 10
-0.00023499999952
 20
-687.0547147798352
 30
0.0
 40
57.89999999999936
100
AcDbArc
 50
-58.86192600000141
 51
-46.13807400000253
  0
ARC
  5
1E1
330
48
100
AcDbEntity
  8
LC-001-002-----0
  6
Continuous
 62
     7
100
AcDbCircle
 10
-0.00023499999952
 20
-687.0547147798352
 30
0.0
 40
56.20000000000123
100
AcDbArc
 50
-58.82749599999924
 51
-46.17250400000076
  0
ARC
  5
1E2
330
48
100
AcDbEntity
  8
LC-001-002-----0
  6
Continuous
 62
     7
100
AcDbCircle
 10
-0.00023499999952
 20
-687.0547147798352
 30
0.0
 40
57.90000000000253
100
AcDbArc
 50
-73.8619260000025
 51
-61.13807400000204
  0
ARC
  5
1E3
330
48
100
AcDbEntity
  8
LC-001-002-----0
  6
Continuous
 62
     7
100
AcDbCircle
 10
-0.00023499999952
 20
-687.0547147798352
 30
0.0
 40
56.20000000000154
100
AcDbArc
 50
-73.82749600000119
 51
-61.17250400000238
  0
ARC
  5
1E4
330
48
100
AcDbEntity
  8
LC-001-002-----0
  6
Continuous
 62
     7
100
AcDbCircle
 10
-0.00023499999952
 20
-687.0547147798352
 30
0.0
 40
56.20000000000017
100
AcDbArc
 50
-88.82749600000146
 51
-76.172504
  0
ARC
  5
1E5
330
48
100
AcDbEntity
  8
LC-001-002-----0
  6
Continuous
 62
     7
100
AcDbCircle
 10
-0.00023499999952
 20
-687.0547147798352
 30
0.0
 40
57.90000000000016
100
AcDbArc
 50
-88.86192599999944
 51
-76.13807400000051
  0
ARC
  5
1E6
330
48
100
AcDbEntity
  8
LC-001-002-----0
  6
Continuous
 62
     7
100
AcDbCircle
 10
-0.00023499999952
 20
-687.0547147798352
 30
0.0
 40
56.20000000000304
100
AcDbArc
 50
-103.827496
 51
-91.17250399999854
  0
ARC
  5
1E7
330
48
100
AcDbEntity
  8
LC-001-002-----0
  6
Continuous
 62
     7
100
AcDbCircle
 10
-0.00023499999952
 20
-687.0547147798352
 30
0.0
 40
57.90000000000146
100
AcDbArc
 50
-103.8619259999995
 51
-91.13807400000056
  0
ARC
  5
1E8
330
48
100
AcDbEntity
  8
LC-001-002-----0
  6
Continuous
 62
     7
100
AcDbCircle
 10
-0.00023499999952
 20
-687.0547147798352
 30
0.0
 40
56.200000000002
100
AcDbArc
 50
-118.8274959999976
 51
-106.1725039999988
  0
ARC
  5
1E9
330
48
100
AcDbEntity
  8
LC-001-002-----0
  6
Continuous
 62
     7
100
AcDbCircle
 10
-0.00023499999952
 20
-687.0547147798352
 30
0.0
 40
57.90000000000148
100
AcDbArc
 50
-118.8619260000011
 51
-106.138074000001
  0
ARC
  5
1EA
330
48
100
AcDbEntity
  8
LC-001-002-----0
  6
Continuous
 62
     7
100
AcDbCircle
 10
-0.00023499999952
 20
-687.0547147798352
 30
0.0
 40
56.20000000000079
100
AcDbArc
 50
-133.8274959999993
 51
-121.1725040000008
  0
ARC
  5
1EB
330
48
100
AcDbEntity
  8
LC-001-002-----0
  6
Continuous
 62
     7
100
AcDbCircle
 10
-0.00023499999952
 20
-687.0547147798352
 30
0.0
 40
57.90000000000212
100
AcDbArc
 50
-133.8619259999975
 51
-121.1380740000017
  0
ARC
  5
1EC
330
48
100
AcDbEntity
  8
LC-001-002-----0
  6
Continuous
 62
     7
100
AcDbCircle
 10
-0.00023499999952
 20
-687.0547147798352
 30
0.0
 40
56.20000000000124
100
AcDbArc
 50
-148.8274959999992
 51
-136.1725040000008
  0
ARC
  5
1ED
330
48
100
AcDbEntity
  8
LC-001-002-----0
  6
Continuous
 62
     7
100
AcDbCircle
 10
-0.00023499999952
 20
-687.0547147798352
 30
0.0
 40
57.90000000000123
100
AcDbArc
 50
-148.8619259999983
 51
-136.138074
  0
ARC
  5
1EE
330
48
100
AcDbEntity
  8
LC-001-002-----0
  6
Continuous
 62
     7
100
AcDbCircle
 10
-0.00023499999952
 20
-687.0547147798352
 30
0.0
 40
56.20000000000154
100
AcDbArc
 50
-163.8274960000012
 51
-151.1725039999973
  0
ARC
  5
1EF
330
48
100
AcDbEntity
  8
LC-001-002-----0
  6
Continuous
 62
     7
100
AcDbCircle
 10
-0.00023499999952
 20
-687.0547147798352
 30
0.0
 40
57.90000000000005
100
AcDbArc
 50
-163.861925999998
 51
-151.1380739999989
  0
ARC
  5
1F0
330
48
100
AcDbEntity
  8
LC-001-002-----0
  6
Continuous
 62
     7
100
AcDbCircle
 10
-0.00023499999952
 20
-687.0547147798352
 30
0.0
 40
56.20000000000024
100
AcDbArc
 50
-178.8274959999978
 51
-166.1725039999991
  0
ARC
  5
1F1
330
48
100
AcDbEntity
  8
LC-001-002-----0
  6
Continuous
 62
     7
100
AcDbCircle
 10
-0.00023499999952
 20
-687.0547147798352
 30
0.0
 40
57.90000000000016
100
AcDbArc
 50
-178.8619259999994
 51
-166.1380740000005
  0
ARC
  5
1F2
330
48
100
AcDbEntity
  8
LC-001-002-----0
  6
Continuous
 62
     7
100
AcDbCircle
 10
-0.00023499999952
 20
-687.0547147798352
 30
0.0
 40
56.19999999999865
100
AcDbArc
 50
166.1725040000027
 51
178.8274960000015
  0
ARC
  5
1F3
330
48
100
AcDbEntity
  8
LC-001-002-----0
  6
Continuous
 62
     7
100
AcDbCircle
 10
-0.00023499999952
 20
-687.0547147798352
 30
0.0
 40
57.90000000000146
100
AcDbArc
 50
166.1380740000005
 51
178.8619260000031
  0
ARC
  5
1F4
330
48
100
AcDbEntity
  8
LC-001-002-----0
  6
Continuous
 62
     7
100
AcDbCircle
 10
0.0
 20
-687.0543077798357
 30
0.0
 40
63.00057100000038
100
AcDbArc
 50
-58.95444600000197
 51
-46.04633599999885
  0
ARC
  5
1F5
330
48
100
AcDbEntity
  8
LC-001-002-----0
  6
Continuous
 62
     7
100
AcDbCircle
 10
0.0
 20
-687.0543077798357
 30
0.0
 40
63.00057099999711
100
AcDbArc
 50
76.04603399999924
 51
88.95428999999852
  0
ARC
  5
1F6
330
48
100
AcDbEntity
  8
LC-001-002-----0
  6
Continuous
 62
     7
100
AcDbCircle
 10
0.0
 20
-687.0543077798357
 30
0.0
 40
59.50050100000017
100
AcDbArc
 50
151.1079090000018
 51
163.8929800000012
  0
ARC
  5
1F7
330
48
100
AcDbEntity
  8
LC-001-002-----0
  6
Continuous
 62
     7
100
AcDbCircle
 10
0.0
 20
-687.0543077798357
 30
0.0
 40
63.00057099999952
100
AcDbArc
 50
151.0463510000008
 51
163.9544880000007
  0
ARC
  5
1F8
330
48
100
AcDbEntity
  8
LC-001-002-----0
  6
Continuous
 62
     7
100
AcDbCircle
 10
0.0
 20
-687.0547147798352
 30
0.0
 40
75.00035699999871
100
AcDbArc
 50
150.8786550000019
 51
164.1214810000013
  0
ARC
  5
1F9
330
48
100
AcDbEntity
  8
LC-001-002-----0
  6
Continuous
 62
     7
100
AcDbCircle
 10
0.0
 20
-687.0547147798352
 30
0.0
 40
79.00004900000086
100
AcDbArc
 50
150.8341670000005
 51
164.1659629999999
  0
ARC
  5
1FA
330
48
100
AcDbEntity
  8
LC-001-002-----0
  6
Continuous
 62
     7
100
AcDbCircle
 10
0.0
 20
-687.0543077798357
 30
0.0
 40
63.00057099999765
100
AcDbArc
 50
136.0463360000012
 51
148.9545030000004
  0
ARC
  5
1FB
330
48
100
AcDbEntity
  8
LC-001-002-----0
  6
Continuous
 62
     7
100
AcDbCircle
 10
0.0
 20
-687.0543077798357
 30
0.0
 40
59.50050099999713
100
AcDbArc
 50
136.1078940000005
 51
148.8929950000003
  0
ARC
  5
1FC
330
48
100
AcDbEntity
  8
LC-001-002-----0
  6
Continuous
 62
     7
100
AcDbCircle
 10
0.0
 20
-687.0547147798352
 30
0.0
 40
75.00035699999934
100
AcDbArc
 50
135.8786920000017
 51
149.1215240000009
  0
ARC
  5
1FD
330
48
100
AcDbEntity
  8
LC-001-002-----0
  6
Continuous
 62
     7
100
AcDbCircle
 10
0.0
 20
-687.0547147798352
 30
0.0
 40
79.00004899999875
100
AcDbArc
 50
135.8342019999999
 51
149.166004000002
  0
ARC
  5
1FE
330
48
100
AcDbEntity
  8
LC-001-002-----0
  6
Continuous
 62
     7
100
AcDbCircle
 10
0.0
 20
-687.0547147798352
 30
0.0
 40
79.00004900000029
100
AcDbArc
 50
120.8342290000011
 51
134.1660390000004
  0
ARC
  5
1FF
330
48
100
AcDbEntity
  8
LC-001-002-----0
  6
Continuous
 62
     7
100
AcDbCircle
 10
0.0
 20
-687.0547147798352
 30
0.0
 40
75.000356999997
100
AcDbArc
 50
120.8787210000002
 51
134.1215609999997
  0
ARC
  5
200
330
48
100
AcDbEntity
  8
LC-001-002-----0
  6
Continuous
 62
     7
100
AcDbCircle
 10
0.0
 20
-687.0543077798357
 30
0.0
 40
63.00057100000068
100
AcDbArc
 50
121.0462940000005
 51
133.9544880000005
  0
ARC
  5
201
330
48
100
AcDbEntity
  8
LC-001-002-----0
  6
Continuous
 62
     7
100
AcDbCircle
 10
0.0
 20
-687.0543077798357
 30
0.0
 40
59.5005009999977
100
AcDbArc
 50
121.1078490000002
 51
133.8929800000002
  0
ARC
  5
202
330
48
100
AcDbEntity
  8
LC-001-002-----0
  6
Continuous
 62
     7
100
AcDbCircle
 10
0.0
 20
-687.0543077798357
 30
0.0
 40
63.00057099999914
100
AcDbArc
 50
106.046226
 51
118.954446000002
  0
ARC
  5
203
330
48
100
AcDbEntity
  8
LC-001-002-----0
  6
Continuous
 62
     7
100
AcDbCircle
 10
0.0
 20
-687.0543077798357
 30
0.0
 40
59.50050100000082
100
AcDbArc
 50
106.1077769999996
 51
118.8929340000015
  0
ARC
  5
204
330
48
100
AcDbEntity
  8
LC-001-002-----0
  6
Continuous
 62
     7
100
AcDbCircle
 10
0.0
 20
-687.0547147798352
 30
0.0
 40
75.00035699999866
100
AcDbArc
 50
105.8787389999992
 51
119.1215900000005
  0
ARC
  5
205
330
48
100
AcDbEntity
  8
LC-001-002-----0
  6
Continuous
 62
     7
100
AcDbCircle
 10
0.0
 20
-687.0547147798352
 30
0.0
 40
79.00004900000017
100
AcDbArc
 50
105.8342460000009
 51
119.1660660000005
  0
ARC
  5
206
330
48
100
AcDbEntity
  8
LC-001-002-----0
  6
Continuous
 62
     7
100
AcDbCircle
 10
0.0
 20
-687.0547147798352
 30
0.0
 40
79.0000489999988
100
AcDbArc
 50
90.83425200000131
 51
104.1660829999998
  0
ARC
  5
207
330
48
100
AcDbEntity
  8
LC-001-002-----0
  6
Continuous
 62
     7
100
AcDbCircle
 10
0.0
 20
-687.0547147798352
 30
0.0
 40
75.00035699999741
100
AcDbArc
 50
90.878745000001
 51
104.1216080000015
  0
ARC
  5
208
330
48
100
AcDbEntity
  8
LC-001-002-----0
  6
Continuous
 62
     7
100
AcDbCircle
 10
0.0
 20
-687.0543077798357
 30
0.0
 40
63.00057100000027
100
AcDbArc
 50
91.04613699999946
 51
103.9543779999989
  0
ARC
  5
209
330
48
100
AcDbEntity
  8
LC-001-002-----0
  6
Continuous
 62
     7
100
AcDbCircle
 10
0.0
 20
-687.0543077798357
 30
0.0
 40
59.50050099999928
100
AcDbArc
 50
91.10768299999926
 51
103.8928629999985
  0
ARC
  5
20A
330
48
100
AcDbEntity
  8
LC-001-002-----0
  6
Continuous
 62
     7
100
AcDbCircle
 10
0.0
 20
-687.0547147798352
 30
0.0
 40
75.0003569999987
100
AcDbArc
 50
75.87873899999963
 51
89.12161400000005
  0
ARC
  5
20B
330
48
100
AcDbEntity
  8
LC-001-002-----0
  6
Continuous
 62
     7
100
AcDbCircle
 10
0.0
 20
-687.0547147798352
 30
0.0
 40
79.00004900000104
100
AcDbArc
 50
75.83424599999877
 51
89.16608899999855
  0
ARC
  5
20C
330
48
100
AcDbEntity
  8
LC-001-002-----0
  6
Continuous
 62
     7
100
AcDbCircle
 10
0.0
 20
-687.0547147798352
 30
0.0
 40
79.00004900000035
100
AcDbArc
 50
60.8342289999985
 51
74.16608300000053
  0
ARC
  5
20D
330
48
100
AcDbEntity
  8
LC-001-002-----0
  6
Continuous
 62
     7
100
AcDbCircle
 10
0.0
 20
-687.0547147798352
 30
0.0
 40
75.0003569999971
100
AcDbArc
 50
60.87872099999964
 51
74.12160799999974
  0
ARC
  5
20E
330
48
100
AcDbEntity
  8
LC-001-002-----0
  6
Continuous
 62
     7
100
AcDbCircle
 10
0.0
 20
-687.0543077798357
 30
0.0
 40
63.00057100000047
100
AcDbArc
 50
61.04592399999994
 51
73.95418699999843
  0
ARC
  5
20F
330
48
100
AcDbEntity
  8
LC-001-002-----0
  6
Continuous
 62
     7
100
AcDbCircle
 10
0.0
 20
-687.0543077798357
 30
0.0
 40
59.50050099999992
100
AcDbArc
 50
61.10745699999907
 51
73.89266000000049
  0
ARC
  5
210
330
48
100
AcDbEntity
  8
LC-001-002-----0
  6
Continuous
 62
     7
100
AcDbCircle
 10
0.0
 20
-687.0547147798352
 30
0.0
 40
79.00004899999874
100
AcDbArc
 50
45.83420199999994
 51
59.16606599999837
  0
ARC
  5
211
330
48
100
AcDbEntity
  8
LC-001-002-----0
  6
Continuous
 62
     7
100
AcDbCircle
 10
0.0
 20
-687.0547147798352
 30
0.0
 40
75.00035699999925
100
AcDbArc
 50
45.87869199999783
 51
59.12158999999937
  0
ARC
  5
212
330
48
100
AcDbEntity
  8
LC-001-002-----0
  6
Continuous
 62
     7
100
AcDbCircle
 10
0.0
 20
-687.0543077798357
 30
0.0
 40
59.50050099999956
100
AcDbArc
 50
46.10733999999803
 51
58.89254300000024
  0
ARC
  5
213
330
48
100
AcDbEntity
  8
LC-001-002-----0
  6
Continuous
 62
     7
100
AcDbCircle
 10
0.0
 20
-687.0543077798357
 30
0.0
 40
63.0005709999984
100
AcDbArc
 50
46.04581299999967
 51
58.95407600000072
  0
ARC
  5
214
330
48
100
AcDbEntity
  8
LC-001-002-----0
  6
Continuous
 62
     7
100
AcDbCircle
 10
0.0
 20
-687.0543077798357
 30
0.0
 40
59.50050099999824
100
AcDbArc
 50
31.10723099999982
 51
43.89242599999822
  0
ARC
  5
215
330
48
100
AcDbEntity
  8
LC-001-002-----0
  6
Continuous
 62
     7
100
AcDbCircle
 10
0.0
 20
-687.0543077798357
 30
0.0
 40
63.00057099999923
100
AcDbArc
 50
31.04570999999935
 51
43.95396599999935
  0
ARC
  5
216
330
48
100
AcDbEntity
  8
LC-001-002-----0
  6
Continuous
 62
     7
100
AcDbCircle
 10
0.0
 20
-687.0547147798352
 30
0.0
 40
75.0003569999994
100
AcDbArc
 50
30.8786549999979
 51
44.12156099999964
  0
ARC
  5
217
330
48
100
AcDbEntity
  8
LC-001-002-----0
  6
Continuous
 62
     7
100
AcDbCircle
 10
0.0
 20
-687.0547147798352
 30
0.0
 40
79.00004900000006
100
AcDbArc
 50
30.83416699999897
 51
44.16603899999856
  0
ARC
  5
218
330
48
100
AcDbEntity
  8
LC-001-002-----0
  6
Continuous
 62
     7
100
AcDbCircle
 10
0.0
 20
-687.0547147798352
 30
0.0
 40
79.00004899999965
100
AcDbArc
 50
15.83412499999803
 51
29.16600399999809
  0
ARC
  5
219
330
48
100
AcDbEntity
  8
LC-001-002-----0
  6
Continuous
 62
     7
100
AcDbCircle
 10
0.0
 20
-687.0547147798352
 30
0.0
 40
75.000357
100
AcDbArc
 50
15.87861199999984
 51
29.12152399999994
  0
ARC
  5
21A
330
48
100
AcDbEntity
  8
LC-001-002-----0
  6
Continuous
 62
     7
100
AcDbCircle
 10
0.0
 20
-687.0543077798357
 30
0.0
 40
63.00057100000213
100
AcDbArc
 50
16.04562199999918
 51
28.95386299999707
  0
ARC
  5
21B
330
48
100
AcDbEntity
  8
LC-001-002-----0
  6
Continuous
 62
     7
100
AcDbCircle
 10
0.0
 20
-687.0543077798357
 30
0.0
 40
59.50050100000074
100
AcDbArc
 50
16.10713699999759
 51
28.8923169999988
  0
ARC
  5
21C
330
48
100
AcDbEntity
  8
LC-001-002-----0
  6
Continuous
 62
     7
100
AcDbCircle
 10
0.0
 20
-687.0543077798357
 30
0.0
 40
59.50050099999996
100
AcDbArc
 50
1.10706599999858
 51
13.89222299999911
  0
ARC
  5
21D
330
48
100
AcDbEntity
  8
LC-001-002-----0
  6
Continuous
 62
     7
100
AcDbCircle
 10
0.0
 20
-687.0543077798357
 30
0.0
 40
63.00057099999992
100
AcDbArc
 50
1.04555399999725
 51
13.95377399999793
  0
ARC
  5
21E
330
48
100
AcDbEntity
  8
LC-001-002-----0
  6
Continuous
 62
     7
100
AcDbCircle
 10
0.0
 20
-687.0547147798352
 30
0.0
 40
75.000356999999
100
AcDbArc
 50
0.87856599999789
 51
14.12148099999787
  0
ARC
  5
21F
330
48
100
AcDbEntity
  8
LC-001-002-----0
  6
Continuous
 62
     7
100
AcDbCircle
 10
0.0
 20
-687.0547147798352
 30
0.0
 40
79.00004900000089
100
AcDbArc
 50
0.83408099999965
 51
14.16596299999807
  0
ARC
  5
220
330
48
100
AcDbEntity
  8
LC-001-002-----0
  6
Continuous
 62
     7
100
AcDbCircle
 10
0.0
 20
-687.0547147798352
 30
0.0
 40
75.00035699999994
100
AcDbArc
 50
-14.12148100000056
 51
-0.87856600000067
  0
ARC
  5
221
330
48
100
AcDbEntity
  8
LC-001-002-----0
  6
Continuous
 62
     7
100
AcDbCircle
 10
0.0
 20
-687.0543077798357
 30
0.0
 40
63.00057099999996
100
AcDbArc
 50
-13.95448800000052
 51
-1.04629400000162
  0
ARC
  5
222
330
48
100
AcDbEntity
  8
LC-001-002-----0
  6
Continuous
 62
     7
100
AcDbCircle
 10
0.0
 20
-687.0543077798357
 30
0.0
 40
59.50050100000233
100
AcDbArc
 50
-13.89298000000187
 51
-1.10784900000161
  0
ARC
  5
223
330
48
100
AcDbEntity
  8
LC-001-002-----0
  6
Continuous
 62
     7
100
AcDbCircle
 10
0.0
 20
-687.0543077798357
 30
0.0
 40
59.50050099999988
100
AcDbArc
 50
-28.89299500000272
 51
-16.10789400000082
  0
ARC
  5
224
330
48
100
AcDbEntity
  8
LC-001-002-----0
  6
Continuous
 62
     7
100
AcDbCircle
 10
0.0
 20
-687.0543077798357
 30
0.0
 40
63.00057099999949
100
AcDbArc
 50
-28.95450300000046
 51
-16.04633600000237
  0
ARC
  5
225
330
48
100
AcDbEntity
  8
LC-001-002-----0
  6
Continuous
 62
     7
100
AcDbCircle
 10
0.0
 20
-687.0547147798352
 30
0.0
 40
75.00035700000048
100
AcDbArc
 50
-29.12152400000237
 51
-15.87861199999984
  0
ARC
  5
226
330
48
100
AcDbEntity
  8
LC-001-002-----0
  6
Continuous
 62
     7
100
AcDbCircle
 10
0.0
 20
-687.0547147798352
 30
0.0
 40
79.00004900000027
100
AcDbArc
 50
-29.16600400000039
 51
-15.83412500000057
  0
ARC
  5
227
330
48
100
AcDbEntity
  8
LC-001-002-----0
  6
Continuous
 62
     7
100
AcDbCircle
 10
0.0
 20
-687.0543077798357
 30
0.0
 40
59.50050099999964
100
AcDbArc
 50
-43.89298000000022
 51
-31.10790900000154
  0
ARC
  5
228
330
48
100
AcDbEntity
  8
LC-001-002-----0
  6
Continuous
 62
     7
100
AcDbCircle
 10
0.0
 20
-687.0543077798357
 30
0.0
 40
63.00057100000021
100
AcDbArc
 50
-43.95448800000053
 51
-31.0463510000001
  0
ARC
  5
229
330
48
100
AcDbEntity
  8
LC-001-002-----0
  6
Continuous
 62
     7
100
AcDbCircle
 10
0.0
 20
-687.0547147798352
 30
0.0
 40
75.0003570000007
100
AcDbArc
 50
-44.12156100000164
 51
-30.87865500000029
  0
ARC
  5
22A
330
48
100
AcDbEntity
  8
LC-001-002-----0
  6
Continuous
 62
     7
100
AcDbCircle
 10
0.0
 20
-687.0547147798352
 30
0.0
 40
79.00004900000265
100
AcDbArc
 50
-44.16603900000045
 51
-30.83416700000123
  0
ARC
  5
22B
330
48
100
AcDbEntity
  8
LC-001-002-----0
  6
Continuous
 62
     7
100
AcDbCircle
 10
0.0
 20
-687.0547147798352
 30
0.0
 40
75.00035700000205
100
AcDbArc
 50
-59.12159000000079
 51
-45.87869199999976
  0
ARC
  5
22C
330
48
100
AcDbEntity
  8
LC-001-002-----0
  6
Continuous
 62
     7
100
AcDbCircle
 10
0.0
 20
-687.0547147798352
 30
0.0
 40
79.00004900000255
100
AcDbArc
 50
-59.16606599999972
 51
-45.83420200000178
  0
ARC
  5
22D
330
48
100
AcDbEntity
  8
LC-001-002-----0
  6
Continuous
 62
     7
100
AcDbCircle
 10
0.0
 20
-687.0547147798352
 30
0.0
 40
79.0000489999999
100
AcDbArc
 50
-74.16608300000124
 51
-60.83422899999978
  0
ARC
  5
22E
330
48
100
AcDbEntity
  8
LC-001-002-----0
  6
Continuous
 62
     7
100
AcDbCircle
 10
0.0
 20
-687.0543077798357
 30
0.0
 40
63.00057100000212
100
AcDbArc
 50
-73.95437800000082
 51
-61.04629399999998
  0
ARC
  5
22F
330
48
100
AcDbEntity
  8
LC-001-002-----0
  6
Continuous
 62
     7
100
AcDbCircle
 10
0.0
 20
-687.0543077798357
 30
0.0
 40
59.50050100000175
100
AcDbArc
 50
-73.89286299999905
 51
-61.10784899999987
  0
ARC
  5
230
330
48
100
AcDbEntity
  8
LC-001-002-----0
  6
Continuous
 62
     7
100
AcDbCircle
 10
0.0
 20
-687.0543077798357
 30
0.0
 40
59.50050100000247
100
AcDbArc
 50
-88.8927689999993
 51
-76.10777700000173
  0
ARC
  5
231
330
48
100
AcDbEntity
  8
LC-001-002-----0
  6
Continuous
 62
     7
100
AcDbCircle
 10
0.0
 20
-687.0543077798357
 30
0.0
 40
63.00057099999886
100
AcDbArc
 50
-88.95428999999852
 51
-76.04622599999885
  0
ARC
  5
232
330
48
100
AcDbEntity
  8
LC-001-002-----0
  6
Continuous
 62
     7
100
AcDbCircle
 10
0.0
 20
-687.0547147798352
 30
0.0
 40
75.0003570000013
100
AcDbArc
 50
-89.1216140000001
 51
-75.87873900000031
  0
ARC
  5
233
330
48
100
AcDbEntity
  8
LC-001-002-----0
  6
Continuous
 62
     7
100
AcDbCircle
 10
0.0
 20
-687.0547147798352
 30
0.0
 40
79.00004900000097
100
AcDbArc
 50
-89.16608899999859
 51
-75.83424599999877
  0
ARC
  5
234
330
48
100
AcDbEntity
  8
LC-001-002-----0
  6
Continuous
 62
     7
100
AcDbCircle
 10
0.0
 20
-687.0543077798357
 30
0.0
 40
63.0005710000008
100
AcDbArc
 50
-103.9541870000003
 51
-91.04613699999946
  0
ARC
  5
235
330
48
100
AcDbEntity
  8
LC-001-002-----0
  6
Continuous
 62
     7
100
AcDbCircle
 10
0.0
 20
-687.0543077798357
 30
0.0
 40
59.50050099999992
100
AcDbArc
 50
-118.8925430000009
 51
-106.1075739999995
  0
ARC
  5
236
330
48
100
AcDbEntity
  8
LC-001-002-----0
  6
Continuous
 62
     7
100
AcDbCircle
 10
0.0
 20
-687.0543077798357
 30
0.0
 40
63.00057100000047
100
AcDbArc
 50
-118.9540760000001
 51
-106.0460339999991
  0
ARC
  5
237
330
48
100
AcDbEntity
  8
LC-001-002-----0
  6
Continuous
 62
     7
100
AcDbCircle
 10
0.0
 20
-687.0547147798352
 30
0.0
 40
75.00035700000015
100
AcDbArc
 50
-119.1215899999991
 51
-105.8787389999985
  0
ARC
  5
238
330
48
100
AcDbEntity
  8
LC-001-002-----0
  6
Continuous
 62
     7
100
AcDbCircle
 10
0.0
 20
-687.0547147798352
 30
0.0
 40
79.00004900000003
100
AcDbArc
 50
-119.1660660000005
 51
-105.8342460000009
  0
ARC
  5
239
330
48
100
AcDbEntity
  8
LC-001-002-----0
  6
Continuous
 62
     7
100
AcDbCircle
 10
0.0
 20
-687.0547147798352
 30
0.0
 40
75.00035700000078
100
AcDbArc
 50
-134.1215609999977
 51
-120.8787209999988
  0
ARC
  5
23A
330
48
100
AcDbEntity
  8
LC-001-002-----0
  6
Continuous
 62
     7
100
AcDbCircle
 10
0.0
 20
-687.0543077798357
 30
0.0
 40
63.00057099999822
100
AcDbArc
 50
-133.9539659999994
 51
-121.0459239999976
  0
ARC
  5
23B
330
48
100
AcDbEntity
  8
LC-001-002-----0
  6
Continuous
 62
     7
100
AcDbCircle
 10
0.0
 20
-687.0543077798357
 30
0.0
 40
59.50050100000017
100
AcDbArc
 50
-133.8924259999982
 51
-121.107456999998
  0
ARC
  5
23C
330
48
100
AcDbEntity
  8
LC-001-002-----0
  6
Continuous
 62
     7
100
AcDbCircle
 10
0.0
 20
-687.0547147798352
 30
0.0
 40
79.0000490000008
100
AcDbArc
 50
-149.1660039999998
 51
-135.8342019999981
  0
ARC
  5
23D
330
48
100
AcDbEntity
  8
LC-001-002-----0
  6
Continuous
 62
     7
100
AcDbCircle
 10
0.0
 20
-687.0547147798352
 30
0.0
 40
75.00035699999897
100
AcDbArc
 50
-149.1215239999985
 51
-135.8786919999998
  0
ARC
  5
23E
330
48
100
AcDbEntity
  8
LC-001-002-----0
  6
Continuous
 62
     7
100
AcDbCircle
 10
0.0
 20
-687.0543077798357
 30
0.0
 40
63.00057099999853
100
AcDbArc
 50
-148.9538629999998
 51
-136.0458129999997
  0
ARC
  5
23F
330
48
100
AcDbEntity
  8
LC-001-002-----0
  6
Continuous
 62
     7
100
AcDbCircle
 10
0.0
 20
-687.0543077798357
 30
0.0
 40
59.50050100000036
100
AcDbArc
 50
-148.8923169999987
 51
-136.107339999998
  0
ARC
  5
240
330
48
100
AcDbEntity
  8
LC-001-002-----0
  6
Continuous
 62
     7
100
AcDbCircle
 10
0.0
 20
-687.0543077798357
 30
0.0
 40
59.50050100000082
100
AcDbArc
 50
-163.8922230000004
 51
-151.1072309999998
  0
ARC
  5
241
330
48
100
AcDbEntity
  8
LC-001-002-----0
  6
Continuous
 62
     7
100
AcDbCircle
 10
0.0
 20
-687.0543077798357
 30
0.0
 40
63.00057099999914
100
AcDbArc
 50
-163.953774
 51
-151.0457100000007
  0
ARC
  5
242
330
48
100
AcDbEntity
  8
LC-001-002-----0
  6
Continuous
 62
     7
100
AcDbCircle
 10
0.0
 20
-687.0547147798352
 30
0.0
 40
75.00035700000164
100
AcDbArc
 50
-164.1214809999986
 51
-150.8786549999995
  0
ARC
  5
243
330
48
100
AcDbEntity
  8
LC-001-002-----0
  6
Continuous
 62
     7
100
AcDbCircle
 10
0.0
 20
-687.0547147798352
 30
0.0
 40
79.00004899999877
100
AcDbArc
 50
-164.1659629999999
 51
-150.8341670000005
  0
ARC
  5
244
330
48
100
AcDbEntity
  8
LC-001-002-----0
  6
Continuous
 62
     7
100
AcDbCircle
 10
0.0
 20
-687.0547147798352
 30
0.0
 40
79.00004900000089
100
AcDbArc
 50
-179.1659190000003
 51
-165.8341249999976
  0
ARC
  5
245
330
48
100
AcDbEntity
  8
LC-001-002-----0
  6
Continuous
 62
     7
100
AcDbCircle
 10
0.0
 20
-687.0547147798352
 30
0.0
 40
75.00035699999906
100
AcDbArc
 50
-179.1214339999993
 51
-165.8786119999988
  0
ARC
  5
246
330
48
100
AcDbEntity
  8
LC-001-002-----0
  6
Continuous
 62
     7
100
AcDbCircle
 10
0.0
 20
-687.0543077798357
 30
0.0
 40
63.0005709999984
100
AcDbArc
 50
-178.9537059999984
 51
-166.0456219999979
  0
ARC
  5
247
330
48
100
AcDbEntity
  8
LC-001-002-----0
  6
Continuous
 62
     7
100
AcDbCircle
 10
0.0
 20
-687.0543077798357
 30
0.0
 40
59.50050099999894
100
AcDbArc
 50
-178.8921509999984
 51
-166.1071369999981
  0
ARC
  5
248
330
48
100
AcDbEntity
  8
LC-001-002-----0
  6
DASHED
 62
     7
100
AcDbCircle
 10
0.0
 20
-687.0543077798357
 30
0.0
 40
142.0501739999994
100
AcDbArc
 50
178.4771690000003
 51
-178.4771690000003
  0
ARC
  5
249
330
48
100
AcDbEntity
  8
LC-001-002-----0
  6
DASHED
 62
     7
100
AcDbCircle
 10
0.0
 20
-687.0543077798357
 30
0.0
 40
142.0501739999994
100
AcDbArc
 50
88.4771690000003
 51
91.52283099999971
  0
ARC
  5
24A
330
48
100
AcDbEntity
  8
LC-002-002-RND-0
  6
DASHED
 62
     7
100
AcDbCircle
 10
170.0
 20
-517.0541066566657
 30
0.0
 40
10.0
100
AcDbArc
 50
0.0
 51
90.0
  0
ARC
  5
24B
330
48
100
AcDbEntity
  8
LC-002-002-RND-0
  6
DASHED
 62
     7
100
AcDbCircle
 10
170.0
 20
-857.0540671929921
 30
0.0
 40
10.0
100
AcDbArc
 50
-90.0
 51
0.0
  0
ARC
  5
24C
330
48
100
AcDbEntity
  8
LC-002-002-RND-0
  6
DASHED
 62
     7
100
AcDbCircle
 10
-170.0
 20
-857.0540671929921
 30
0.0
 40
10.0
100
AcDbArc
 50
180.0
 51
-90.0
  0
ARC
  5
24D
330
48
100
AcDbEntity
  8
LC-002-002-RND-0
  6
DASHED
 62
     7
100
AcDbCircle
 10
-170.0
 20
-517.0541066566657
 30
0.0
 40
10.0
100
AcDbArc
 50
90.0
 51
180.0
  0
ARC
  5
24E
330
48
100
AcDbEntity
  8
LC-001-002-----0
  6
Continuous
 62
     7
100
AcDbCircle
 10
-93.9992999999995
 20
-687.0543077798357
 30
0.0
 40
5.999999999999431
100
AcDbArc
 50
94.78019184719962
 51
-99.59456299999253
  0
ARC
  5
24F
330
48
100
AcDbEntity
  8
LC-001-002-----0
  6
Continuous
 62
     7
100
AcDbCircle
 10
-93.9992999999995
 20
-687.0543077798357
 30
0.0
 40
5.999999999999431
100
AcDbArc
 50
-85.2198081528004
 51
80.40543700000167
  0
CIRCLE
  5
250
330
48
100
AcDbEntity
  8
LC-001-002-----0
  6
Continuous
 62
     7
100
AcDbCircle
 10
-0.00023499999952
 20
-687.0547147798352
 30
0.0
 40
43.20000000000073
  0
CIRCLE
  5
251
330
48
100
AcDbEntity
  8
LC-001-002-----0
  6
Continuous
 62
     7
100
AcDbCircle
 10
0.0
 20
-687.0547147798352
 30
0.0
 40
124.5749289999985
  0
CIRCLE
  5
252
330
48
100
AcDbEntity
  8
LC-001-002-----0
  6
Continuous
 62
     7
100
AcDbCircle
 10
0.0
 20
-687.0547147798352
 30
0.0
 40
123.4566239999986
  0
CIRCLE
  5
253
330
48
100
AcDbEntity
  8
LC-001-002-----0
  6
Continuous
 62
     7
100
AcDbCircle
 10
0.0
 20
-687.0547147798352
 30
0.0
 40
101.8928789999991
  0
CIRCLE
  5
254
330
48
100
AcDbEntity
  8
LC-001-002-----0
  6
Continuous
 62
     7
100
AcDbCircle
 10
-0.00023499999952
 20
-687.0547147798352
 30
0.0
 40
139.5
  0
CIRCLE
  5
255
330
48
100
AcDbEntity
  8
LC-001-002-----0
  6
Continuous
 62
     7
100
AcDbCircle
 10
0.0
 20
-687.0543077798357
 30
0.0
 40
142.050174
  0
CIRCLE
  5
256
330
48
100
AcDbEntity
  8
LC-001-002-----0
  6
Continuous
 62
     7
100
AcDbCircle
 10
-129.5000049999981
 20
-557.5543077798357
 30
0.0
 40
9.000000000000014
  0
CIRCLE
  5
257
330
48
100
AcDbEntity
  8
LC-001-002-----0
  6
Continuous
 62
     7
100
AcDbCircle
 10
-129.5000049999981
 20
-557.5543037798379
 30
0.0
 40
3.500003999997816
  0
CIRCLE
  5
258
330
48
100
AcDbEntity
  8
LC-001-002-----0
  6
Continuous
 62
     7
100
AcDbCircle
 10
129.5000040000014
 20
-557.5543077798357
 30
0.0
 40
9.0
  0
CIRCLE
  5
259
330
48
100
AcDbEntity
  8
LC-001-002-----0
  6
Continuous
 62
     7
100
AcDbCircle
 10
129.5000040000014
 20
-557.5543037798379
 30
0.0
 40
3.500003999997688
  0
CIRCLE
  5
25A
330
48
100
AcDbEntity
  8
LC-001-002-----0
  6
Continuous
 62
     7
100
AcDbCircle
 10
-129.5000049999981
 20
-816.5543077798357
 30
0.0
 40
9.000000000000014
  0
CIRCLE
  5
25B
330
48
100
AcDbEntity
  8
LC-001-002-----0
  6
Continuous
 62
     7
100
AcDbCircle
 10
129.5000040000014
 20
-816.5543077798357
 30
0.0
 40
9.0
  0
CIRCLE
  5
25C
330
48
100
AcDbEntity
  8
LC-001-002-----0
  6
Continuous
 62
     7
100
AcDbCircle
 10
129.5000040000014
 20
-816.5543127798373
 30
0.0
 40
3.500003999997688
  0
CIRCLE
  5
25D
330
48
100
AcDbEntity
  8
LC-001-002-----0
  6
Continuous
 62
     7
100
AcDbCircle
 10
129.5
 20
-557.5543077798357
 30
0.0
 40
2.5
  0
CIRCLE
  5
25E
330
48
100
AcDbEntity
  8
LC-001-002-----0
  6
Continuous
 62
     7
100
AcDbCircle
 10
-129.5
 20
-557.5543077798357
 30
0.0
 40
2.5
  0
CIRCLE
  5
25F
330
48
100
AcDbEntity
  8
LC-001-002-----0
  6
Continuous
 62
     7
100
AcDbCircle
 10
-129.5
 20
-816.5543077798357
 30
0.0
 40
2.5
  0
CIRCLE
  5
260
330
48
100
AcDbEntity
  8
LC-001-002-----0
  6
Continuous
 62
     7
100
AcDbCircle
 10
129.5
 20
-816.5543077798357
 30
0.0
 40
2.5
  0
CIRCLE
  5
261
330
48
100
AcDbEntity
  8
LC-001-002-----0
  6
Continuous
 62
     7
100
AcDbCircle
 10
-129.5
 20
-557.5543077798357
 30
0.0
 40
4.75
  0
CIRCLE
  5
262
330
48
100
AcDbEntity
  8
LC-001-002-----0
  6
Continuous
 62
     7
100
AcDbCircle
 10
-129.5
 20
-557.5543077798357
 30
0.0
 40
8.0
  0
CIRCLE
  5
263
330
48
100
AcDbEntity
  8
LC-001-002-----0
  6
Continuous
 62
     7
100
AcDbCircle
 10
129.5
 20
-557.5543037798379
 30
0.0
 40
4.75
  0
CIRCLE
  5
264
330
48
100
AcDbEntity
  8
LC-001-002-----0
  6
Continuous
 62
     7
100
AcDbCircle
 10
129.5
 20
-557.5543037798379
 30
0.0
 40
8.0
  0
CIRCLE
  5
265
330
48
100
AcDbEntity
  8
LC-001-002-----0
  6
Continuous
 62
     7
100
AcDbCircle
 10
-129.5
 20
-816.5543127798373
 30
0.0
 40
4.75
  0
CIRCLE
  5
266
330
48
100
AcDbEntity
  8
LC-001-002-----0
  6
Continuous
 62
     7
100
AcDbCircle
 10
-129.5
 20
-816.5543127798373
 30
0.0
 40
8.0
  0
CIRCLE
  5
267
330
48
100
AcDbEntity
  8
LC-001-002-----0
  6
Continuous
 62
     7
100
AcDbCircle
 10
129.5
 20
-816.5543127798373
 30
0.0
 40
4.75
  0
CIRCLE
  5
268
330
48
100
AcDbEntity
  8
LC-001-002-----0
  6
Continuous
 62
     7
100
AcDbCircle
 10
129.5
 20
-816.5543127798373
 30
0.0
 40
8.0
  0
ENDBLK
  5
4A
330
48
100
AcDbEntity
  8
0
100
AcDbBlockEnd
  0
BLOCK
  5
4C
330
4B
100
AcDbEntity
  8
0
100
AcDbBlockBegin
  2
Körper
 70
     0
 71
     0
 10
28.82095726359901
 20
152.626221641628
 30
0.0
  3
Körper
  1

  0
POINT
  5
269
330
4B
100
AcDbEntity
  8
0
 62
     7
100
AcDbPoint
 10
-180.0000000000001
 20
1.0
 30
0.0
  0
POINT
  5
26A
330
4B
100
AcDbEntity
  8
0
 62
     7
100
AcDbPoint
 10
-186.9999995
 20
-97.5
 30
0.0
  0
POINT
  5
26B
330
4B
100
AcDbEntity
  8
0
 62
     7
100
AcDbPoint
 10
-142.0501745
 20
0.0
 30
0.0
  0
POINT
  5
26C
330
4B
100
AcDbEntity
  8
0
 62
     7
100
AcDbPoint
 10
-188.9999995
 20
-100.0
 30
0.0
  0
POINT
  5
26D
330
4B
100
AcDbEntity
  8
0
 62
     7
100
AcDbPoint
 10
55.0000005
 20
-336.49788
 30
0.0
  0
POINT
  5
26E
330
4B
100
AcDbEntity
  8
0
 62
     7
100
AcDbPoint
 10
-55.0000005
 20
-336.49788
 30
0.0
  0
POINT
  5
26F
330
4B
100
AcDbEntity
  8
0
 62
     7
100
AcDbPoint
 10
85.4999995
 20
-265.498651
 30
0.0
  0
POINT
  5
270
330
4B
100
AcDbEntity
  8
0
 62
     7
100
AcDbPoint
 10
-85.50007149999999
 20
-265.498651
 30
0.0
  0
POINT
  5
271
330
4B
100
AcDbEntity
  8
0
 62
     7
100
AcDbPoint
 10
188.9999995
 20
-100.0
 30
0.0
  0
POINT
  5
272
330
4B
100
AcDbEntity
  8
0
 62
     7
100
AcDbPoint
 10
77.49999949999999
 20
-270.498651
 30
0.0
  0
POINT
  5
273
330
4B
100
AcDbEntity
  8
0
 62
     7
100
AcDbPoint
 10
142.0501745000001
 20
0.0
 30
0.0
  0
POINT
  5
274
330
4B
100
AcDbEntity
  8
0
 62
     7
100
AcDbPoint
 10
186.9999995
 20
-97.5
 30
0.0
  0
POINT
  5
275
330
4B
100
AcDbEntity
  8
0
 62
     7
100
AcDbPoint
 10
179.9999999999999
 20
1.0
 30
0.0
  0
POINT
  5
276
330
4B
100
AcDbEntity
  8
0
 62
     7
100
AcDbPoint
 10
-145.58060182445
 20
0.00000000000003
 30
0.0
  0
POINT
  5
277
330
4B
100
AcDbEntity
  8
0
 62
     7
100
AcDbPoint
 10
145.5806018244501
 20
0.00000000000003
 30
0.0
  0
LINE
  5
278
330
4B
100
AcDbEntity
  8
1
  6
Continuous
 62
     7
100
AcDbLine
 10
-62.50067249999992
 20
-267.998651
 30
0.0
 11
62.5006935
 21
-267.998651
 31
0.0
  0
LINE
  5
279
330
4B
100
AcDbEntity
  8
1
  6
Continuous
 62
     7
100
AcDbLine
 10
-85.50007149999999
 20
-265.498651
 30
0.0
 11
85.49992850000001
 21
-265.498651
 31
0.0
  0
LINE
  5
27A
330
4B
100
AcDbEntity
  8
LC-001-002-----0
  6
Continuous
 62
     7
100
AcDbLine
 10
-188.9999995
 20
-100.0
 30
0.0
 11
-188.9999995
 21
-99.5
 31
0.0
  0
LINE
  5
27B
330
4B
100
AcDbEntity
  8
LC-001-002-----0
  6
Continuous
 62
     7
100
AcDbLine
 10
0.0
 20
-100.0
 30
0.0
 11
-188.9999995
 21
-100.0
 31
0.0
  0
LINE
  5
27C
330
4B
100
AcDbEntity
  8
LC-001-002-----0
  6
Continuous
 62
     7
100
AcDbLine
 10
-186.9999995
 20
-97.5
 30
0.0
 11
-137.5357035
 21
-97.5
 31
0.0
  0
LINE
  5
27D
330
4B
100
AcDbEntity
  8
LC-001-002-----0
  6
Continuous
 62
     7
100
AcDbLine
 10
-137.5357035
 20
-82.00001100000004
 30
0.0
 11
-142.0501745000001
 21
-82.000002
 31
0.0
  0
LINE
  5
27E
330
4B
100
AcDbEntity
  8
LC-001-002-----0
  6
Continuous
 62
     7
100
AcDbLine
 10
-142.0501745
 20
0.0
 30
0.0
 11
-142.0501745
 21
0.0
 31
0.0
  0
LINE
  5
27F
330
4B
100
AcDbEntity
  8
LC-001-002-----0
  6
Continuous
 62
     7
100
AcDbLine
 10
-142.0501745000001
 20
-82.000002
 30
0.0
 11
-142.0501745
 21
0.0
 31
0.0
  0
LINE
  5
280
330
4B
100
AcDbEntity
  8
LC-001-002-----0
  6
Continuous
 62
     7
100
AcDbLine
 10
-180.0000000000001
 20
1.0
 30
0.0
 11
-142.0501745
 21
0.0
 31
0.0
  0
LINE
  5
281
330
4B
100
AcDbEntity
  8
LC-001-002-----0
  6
Continuous
 62
     7
100
AcDbLine
 10
-178.0000000000001
 20
3.0
 30
0.0
 11
-140.9184065
 21
3.0
 31
0.0
  0
LINE
  5
282
330
4B
100
AcDbEntity
  8
LC-001-002-----0
  6
Continuous
 62
     7
100
AcDbLine
 10
0.00239568698359
 20
3.0
 30
0.0
 11
-140.9184065
 21
3.0
 31
0.0
  0
LINE
  5
283
330
4B
100
AcDbEntity
  8
1
  6
Continuous
 62
     7
100
AcDbLine
 10
0.0
 20
-97.5
 30
0.0
 11
-137.5357035
 21
-97.5
 31
0.0
  0
LINE
  5
284
330
4B
100
AcDbEntity
  8
1
  6
Continuous
 62
     7
100
AcDbLine
 10
0.0
 20
0.0
 30
0.0
 11
-142.0501745
 21
0.0
 31
0.0
  0
LINE
  5
285
330
4B
100
AcDbEntity
  8
1
  6
Continuous
 62
     7
100
AcDbLine
 10
0.0
 20
1.0
 30
0.0
 11
-180.0000000000001
 21
1.0
 31
0.0
  0
LINE
  5
286
330
4B
100
AcDbEntity
  8
1
  6
Continuous
 62
     7
100
AcDbLine
 10
0.0
 20
-82.00001100000004
 30
0.0
 11
-137.5357035
 21
-82.00001100000004
 31
0.0
  0
LINE
  5
287
330
4B
100
AcDbEntity
  8
LC-001-002-----0
  6
Continuous
 62
     7
100
AcDbLine
 10
-137.5357035
 20
-97.5
 30
0.0
 11
-137.5357035
 21
-82.00001100000004
 31
0.0
  0
LINE
  5
288
330
4B
100
AcDbEntity
  8
LC-001-002-----0
  6
Continuous
 62
     7
100
AcDbLine
 10
-85.49992850000001
 20
-100.0
 30
0.0
 11
-85.49992850000001
 21
-265.498651
 31
0.0
  0
LINE
  5
289
330
4B
100
AcDbEntity
  8
1
  6
Continuous
 62
     7
100
AcDbLine
 10
-62.50067249999992
 20
-274.997879
 30
0.0
 11
-62.50067249999992
 21
-267.998651
 31
0.0
  0
LINE
  5
28A
330
4B
100
AcDbEntity
  8
1
  6
Continuous
 62
     7
100
AcDbLine
 10
62.5006935
 20
-274.997879
 30
0.0
 11
62.5006935
 21
-267.998651
 31
0.0
  0
LINE
  5
28B
330
4B
100
AcDbEntity
  8
LC-001-002-----0
  6
Continuous
 62
     7
100
AcDbLine
 10
137.5357035
 20
-82.00001100000004
 30
0.0
 11
137.5357035
 21
-97.5
 31
0.0
  0
LINE
  5
28C
330
4B
100
AcDbEntity
  8
1
  6
Continuous
 62
     7
100
AcDbLine
 10
137.5357035
 20
-82.00001100000004
 30
0.0
 11
0.0
 21
-82.00001100000004
 31
0.0
  0
LINE
  5
28D
330
4B
100
AcDbEntity
  8
1
  6
Continuous
 62
     7
100
AcDbLine
 10
179.9999999999999
 20
1.0
 30
0.0
 11
0.0
 21
1.0
 31
0.0
  0
LINE
  5
28E
330
4B
100
AcDbEntity
  8
1
  6
Continuous
 62
     7
100
AcDbLine
 10
142.0501745000001
 20
0.0
 30
0.0
 11
0.0
 21
0.0
 31
0.0
  0
LINE
  5
28F
330
4B
100
AcDbEntity
  8
1
  6
PHANTOM
 62
     2
100
AcDbLine
 10
0.0
 20
80.67029283318607
 30
0.0
 11
-0.00000000000001
 21
-348.0547147798351
 31
0.0
  0
LINE
  5
290
330
4B
100
AcDbEntity
  8
1
  6
Continuous
 62
     7
100
AcDbLine
 10
-55.0000005
 20
-336.49788
 30
0.0
 11
55.0000005
 21
-336.49788
 31
0.0
  0
LINE
  5
291
330
4B
100
AcDbEntity
  8
1
  6
Continuous
 62
     7
100
AcDbLine
 10
-55.0000005
 20
-274.997879
 30
0.0
 11
55.0000005
 21
-274.997879
 31
0.0
  0
LINE
  5
292
330
4B
100
AcDbEntity
  8
1
  6
Continuous
 62
     7
100
AcDbLine
 10
137.5357035
 20
-97.5
 30
0.0
 11
0.0
 21
-97.5
 31
0.0
  0
LINE
  5
293
330
4B
100
AcDbEntity
  8
LC-001-002-----0
  6
Continuous
 62
     7
100
AcDbLine
 10
54.06217849999998
 20
-339.997881
 30
0.0
 11
55.0000005
 21
-336.49788
 31
0.0
  0
LINE
  5
294
330
4B
100
AcDbEntity
  8
LC-001-002-----0
  6
Continuous
 62
     7
100
AcDbLine
 10
55.0000005
 20
-274.997879
 30
0.0
 11
55.0000005
 21
-336.49788
 31
0.0
  0
LINE
  5
295
330
4B
100
AcDbEntity
  8
LC-001-002-----0
  6
Continuous
 62
     7
100
AcDbLine
 10
0.00062749999998
 20
-339.997881
 30
0.0
 11
54.06217849999998
 21
-339.997881
 31
0.0
  0
LINE
  5
296
330
4B
100
AcDbEntity
  8
LC-001-002-----0
  6
Continuous
 62
     7
100
AcDbLine
 10
-0.00062749999992
 20
-339.997881
 30
0.0
 11
-54.06217850000003
 21
-339.997881
 31
0.0
  0
LINE
  5
297
330
4B
100
AcDbEntity
  8
LC-001-002-----0
  6
Continuous
 62
     7
100
AcDbLine
 10
63.0999995
 20
-267.998651
 30
0.0
 11
62.99999949999999
 21
-267.998651
 31
0.0
  0
LINE
  5
298
330
4B
100
AcDbEntity
  8
LC-001-002-----0
  6
Continuous
 62
     7
100
AcDbLine
 10
-63.0000005
 20
-267.998651
 30
0.0
 11
-63.10000050000002
 21
-267.998651
 31
0.0
  0
LINE
  5
299
330
4B
100
AcDbEntity
  8
LC-001-002-----0
  6
Continuous
 62
     7
100
AcDbLine
 10
-77.5000005
 20
-267.998651
 30
0.0
 11
-69.5000005
 21
-267.998651
 31
0.0
  0
LINE
  5
29A
330
4B
100
AcDbEntity
  8
LC-001-002-----0
  6
Continuous
 62
     7
100
AcDbLine
 10
-77.5000005
 20
-267.998651
 30
0.0
 11
-83.0000005
 21
-267.998651
 31
0.0
  0
LINE
  5
29B
330
4B
100
AcDbEntity
  8
LC-001-002-----0
  6
Continuous
 62
     7
100
AcDbLine
 10
77.49999949999999
 20
-267.998651
 30
0.0
 11
82.9999995
 21
-267.998651
 31
0.0
  0
LINE
  5
29C
330
4B
100
AcDbEntity
  8
LC-001-002-----0
  6
Continuous
 62
     7
100
AcDbLine
 10
77.49999949999999
 20
-270.498651
 30
0.0
 11
77.49999949999999
 21
-267.998651
 31
0.0
  0
LINE
  5
29D
330
4B
100
AcDbEntity
  8
LC-001-002-----0
  6
Continuous
 62
     7
100
AcDbLine
 10
69.49999949999999
 20
-270.498651
 30
0.0
 11
77.49999949999999
 21
-270.498651
 31
0.0
  0
LINE
  5
29E
330
4B
100
AcDbEntity
  8
LC-001-002-----0
  6
Continuous
 62
     7
100
AcDbLine
 10
69.49999949999999
 20
-267.998651
 30
0.0
 11
69.49999949999999
 21
-270.498651
 31
0.0
  0
LINE
  5
29F
330
4B
100
AcDbEntity
  8
LC-001-002-----0
  6
Continuous
 62
     7
100
AcDbLine
 10
62.5007395
 20
-267.998651
 30
0.0
 11
69.49999949999999
 21
-267.998651
 31
0.0
  0
LINE
  5
2A0
330
4B
100
AcDbEntity
  8
LC-001-002-----0
  6
Continuous
 62
     7
100
AcDbLine
 10
-69.5000005
 20
-267.998651
 30
0.0
 11
-62.50074049999992
 21
-267.998651
 31
0.0
  0
LINE
  5
2A1
330
4B
100
AcDbEntity
  8
LC-001-002-----0
  6
Continuous
 62
     7
100
AcDbLine
 10
-69.5000005
 20
-270.498651
 30
0.0
 11
-69.5000005
 21
-267.998651
 31
0.0
  0
LINE
  5
2A2
330
4B
100
AcDbEntity
  8
LC-001-002-----0
  6
Continuous
 62
     7
100
AcDbLine
 10
-77.5000005
 20
-270.498651
 30
0.0
 11
-69.5000005
 21
-270.498651
 31
0.0
  0
LINE
  5
2A3
330
4B
100
AcDbEntity
  8
LC-001-002-----0
  6
Continuous
 62
     7
100
AcDbLine
 10
-77.5000005
 20
-267.998651
 30
0.0
 11
-77.5000005
 21
-270.498651
 31
0.0
  0
LINE
  5
2A4
330
4B
100
AcDbEntity
  8
LC-001-002-----0
  6
Continuous
 62
     7
100
AcDbLine
 10
69.49999949999999
 20
-267.998651
 30
0.0
 11
77.49999949999999
 21
-267.998651
 31
0.0
  0
LINE
  5
2A5
330
4B
100
AcDbEntity
  8
LC-001-002-----0
  6
Continuous
 62
     7
100
AcDbLine
 10
85.49992850000001
 20
-265.498651
 30
0.0
 11
85.49992850000001
 21
-100.0
 31
0.0
  0
LINE
  5
2A6
330
4B
100
AcDbEntity
  8
LC-001-002-----0
  6
Continuous
 62
     7
100
AcDbLine
 10
-55.0000005
 20
-274.997879
 30
0.0
 11
-55.0000005
 21
-336.49788
 31
0.0
  0
LINE
  5
2A7
330
4B
100
AcDbEntity
  8
LC-001-002-----0
  6
Continuous
 62
     7
100
AcDbLine
 10
62.5006935
 20
-274.997879
 30
0.0
 11
55.0000005
 21
-274.997879
 31
0.0
  0
LINE
  5
2A8
330
4B
100
AcDbEntity
  8
LC-001-002-----0
  6
Continuous
 62
     7
100
AcDbLine
 10
-55.0000005
 20
-274.997879
 30
0.0
 11
-62.50067249999992
 21
-274.997879
 31
0.0
  0
LINE
  5
2A9
330
4B
100
AcDbEntity
  8
LC-001-002-----0
  6
Continuous
 62
     7
100
AcDbLine
 10
-55.0000005
 20
-336.49788
 30
0.0
 11
-54.06217850000003
 21
-339.997881
 31
0.0
  0
LINE
  5
2AA
330
4B
100
AcDbEntity
  8
LC-001-002-----0
  6
Continuous
 62
     7
100
AcDbLine
 10
140.9184065
 20
3.0
 30
0.0
 11
-0.00239568698362
 21
3.0
 31
0.0
  0
LINE
  5
2AB
330
4B
100
AcDbEntity
  8
LC-001-002-----0
  6
Continuous
 62
     7
100
AcDbLine
 10
140.9184065
 20
3.0
 30
0.0
 11
177.9999999999999
 21
3.0
 31
0.0
  0
LINE
  5
2AC
330
4B
100
AcDbEntity
  8
LC-001-002-----0
  6
Continuous
 62
     7
100
AcDbLine
 10
142.0501745000001
 20
0.0
 30
0.0
 11
179.9999999999999
 21
1.0
 31
0.0
  0
LINE
  5
2AD
330
4B
100
AcDbEntity
  8
LC-001-002-----0
  6
Continuous
 62
     7
100
AcDbLine
 10
142.0501745000001
 20
0.0
 30
0.0
 11
142.0501745000001
 21
-82.000002
 31
0.0
  0
LINE
  5
2AE
330
4B
100
AcDbEntity
  8
LC-001-002-----0
  6
Continuous
 62
     7
100
AcDbLine
 10
142.0501745000001
 20
0.0
 30
0.0
 11
142.0501745000001
 21
0.0
 31
0.0
  0
LINE
  5
2AF
330
4B
100
AcDbEntity
  8
LC-001-002-----0
  6
Continuous
 62
     7
100
AcDbLine
 10
142.0501745000001
 20
-82.000002
 30
0.0
 11
137.5357035
 21
-82.00001100000004
 31
0.0
  0
LINE
  5
2B0
330
4B
100
AcDbEntity
  8
LC-001-002-----0
  6
Continuous
 62
     7
100
AcDbLine
 10
137.5357035
 20
-97.5
 30
0.0
 11
186.9999995
 21
-97.5
 31
0.0
  0
LINE
  5
2B1
330
4B
100
AcDbEntity
  8
LC-001-002-----0
  6
Continuous
 62
     7
100
AcDbLine
 10
-62.5017575
 20
-266.053177
 30
0.0
 11
-62.50075850000002
 21
-266.053177
 31
0.0
  0
LINE
  5
2B2
330
4B
100
AcDbEntity
  8
LC-001-002-----0
  6
Continuous
 62
     7
100
AcDbLine
 10
188.9999995
 20
-100.0
 30
0.0
 11
0.0
 21
-100.0
 31
0.0
  0
LINE
  5
2B3
330
4B
100
AcDbEntity
  8
LC-001-002-----0
  6
Continuous
 62
     7
100
AcDbLine
 10
188.9999995
 20
-99.5
 30
0.0
 11
188.9999995
 21
-100.0
 31
0.0
  0
LINE
  5
2B4
330
4B
100
AcDbEntity
  8
LC-001-002-----0
  6
Continuous
 62
     7
100
AcDbLine
 10
62.50175649999999
 20
-266.053177
 30
0.0
 11
62.50075849999999
 21
-266.053177
 31
0.0
  0
LINE
  5
2B5
330
4B
100
AcDbEntity
  8
LC-001-002-----0
  6
Continuous
 62
     7
100
AcDbLine
 10
-144.0962538244499
 20
5.00000000000003
 30
0.0
 11
-138.6012989308135
 21
3.0
 31
0.0
  0
LINE
  5
2B6
330
4B
100
AcDbEntity
  8
LC-001-002-----0
  6
Continuous
 62
     7
100
AcDbLine
 10
-144.4488338244499
 20
3.00000000000003
 30
0.0
 11
-181.5304273244502
 21
3.00000000000003
 31
0.0
  0
LINE
  5
2B7
330
4B
100
AcDbEntity
  8
LC-001-002-----0
  6
Continuous
 62
     7
100
AcDbLine
 10
-145.58060182445
 20
0.00000000000003
 30
0.0
 11
-145.58060182445
 21
0.00000000000003
 31
0.0
  0
LINE
  5
2B8
330
4B
100
AcDbEntity
  8
LC-001-002-----0
  6
Continuous
 62
     7
100
AcDbLine
 10
-144.0962538244499
 20
5.00000000000003
 30
0.0
 11
-235.5249968244499
 21
5.00000000000003
 31
0.0
  0
LINE
  5
2B9
330
4B
100
AcDbEntity
  8
LC-001-002-----0
  6
Continuous
 62
     7
100
AcDbLine
 10
-158.0926288244499
 20
3.00000000000003
 30
0.0
 11
-235.5249968244499
 21
3.00000000000003
 31
0.0
  0
LINE
  5
2BA
330
4B
100
AcDbEntity
  8
LC-001-002-----0
  6
Continuous
 62
     7
100
AcDbLine
 10
-235.5249968244499
 20
5.00000000000003
 30
0.0
 11
-235.5249968244499
 21
3.00000000000003
 31
0.0
  0
LINE
  5
2BB
330
4B
100
AcDbEntity
  8
LC-001-002-----0
  6
Continuous
 62
     7
100
AcDbLine
 10
235.5249968244499
 20
3.00000000000003
 30
0.0
 11
235.5249968244499
 21
5.00000000000003
 31
0.0
  0
LINE
  5
2BC
330
4B
100
AcDbEntity
  8
LC-001-002-----0
  6
Continuous
 62
     7
100
AcDbLine
 10
235.5249968244499
 20
3.00000000000003
 30
0.0
 11
158.09262882445
 21
3.00000000000003
 31
0.0
  0
LINE
  5
2BD
330
4B
100
AcDbEntity
  8
LC-001-002-----0
  6
Continuous
 62
     7
100
AcDbLine
 10
235.5249968244499
 20
5.00000000000003
 30
0.0
 11
144.09625382445
 21
5.00000000000003
 31
0.0
  0
LINE
  5
2BE
330
4B
100
AcDbEntity
  8
LC-001-002-----0
  6
Continuous
 62
     7
100
AcDbLine
 10
145.5806018244501
 20
0.00000000000003
 30
0.0
 11
145.5806018244501
 21
0.00000000000003
 31
0.0
  0
LINE
  5
2BF
330
4B
100
AcDbEntity
  8
LC-001-002-----0
  6
Continuous
 62
     7
100
AcDbLine
 10
181.53042732445
 20
3.00000000000003
 30
0.0
 11
144.44883382445
 21
3.00000000000003
 31
0.0
  0
LINE
  5
2C0
330
4B
100
AcDbEntity
  8
LC-001-002-----0
  6
Continuous
 62
     7
100
AcDbLine
 10
138.6012989308135
 20
3.0
 30
0.0
 11
144.09625382445
 21
5.00000000000003
 31
0.0
  0
ARC
  5
2C1
330
4B
100
AcDbEntity
  8
LC-002-002-RND-0
  6
Continuous
 62
     7
100
AcDbCircle
 10
-186.9999995
 20
-99.5
 30
0.0
 40
2.0
100
AcDbArc
 50
90.0
 51
180.0
  0
ARC
  5
2C2
330
4B
100
AcDbEntity
  8
LC-002-002-RND-0
  6
Continuous
 62
     7
100
AcDbCircle
 10
-178.0000000000001
 20
1.0
 30
0.0
 40
2.0
100
AcDbArc
 50
90.0
 51
180.0
  0
ARC
  5
2C3
330
4B
100
AcDbEntity
  8
LC-002-002-RND-0
  6
Continuous
 62
     7
100
AcDbCircle
 10
82.9999995
 20
-265.498651
 30
0.0
 40
2.5
100
AcDbArc
 50
-90.0
 51
0.0
  0
ARC
  5
2C4
330
4B
100
AcDbEntity
  8
LC-002-002-RND-0
  6
Continuous
 62
     7
100
AcDbCircle
 10
-83.0000005
 20
-265.498651
 30
0.0
 40
2.5
100
AcDbArc
 50
180.0
 51
-90.0
  0
ARC
  5
2C5
330
4B
100
AcDbEntity
  8
LC-002-002-RND-0
  6
Continuous
 62
     7
100
AcDbCircle
 10
177.9999999999999
 20
1.0
 30
0.0
 40
2.0
100
AcDbArc
 50
0.0
 51
90.0
  0
ARC
  5
2C6
330
4B
100
AcDbEntity
  8
LC-002-002-RND-0
  6
Continuous
 62
     7
100
AcDbCircle
 10
186.9999995
 20
-99.5
 30
0.0
 40
2.0
100
AcDbArc
 50
0.0
 51
90.0
  0
ENDBLK
  5
4D
330
4B
100
AcDbEntity
  8
0
100
AcDbBlockEnd
  0
BLOCK
  5
4F
330
4E
100
AcDbEntity
  8
0
100
AcDbBlockBegin
  2
060_1E_Laubfangkorb
 70
     0
 71
     0
 10
47.3008663873926
 20
-1202.544392321967
 30
0.0
  3
060_1E_Laubfangkorb
  1

  0
LINE
  5
2C7
330
4E
100
AcDbEntity
  8
1
  6
PHANTOM
 62
     2
100
AcDbLine
 10
0.000035531207
 20
-41.86285316379367
 30
0.0
 11
-0.00012475593101
 21
74.84218428447781
 31
0.0
  0
LINE
  5
2C8
330
4E
100
AcDbEntity
  8
LC-001-002-----0
  6
Continuous
 62
     7
100
AcDbLine
 10
-60.13864309129062
 20
11.50005554230808
 30
0.0
 11
-60.13864309129062
 21
3.0
 31
0.0
  0
LINE
  5
2C9
330
4E
100
AcDbEntity
  8
LC-001-002-----0
  6
Continuous
 62
     7
100
AcDbLine
 10
68.3495249087093
 20
3.0
 30
0.0
 11
68.3495249087093
 21
11.50005554230808
 31
0.0
  0
LINE
  5
2CA
330
4E
100
AcDbEntity
  8
LC-001-002-----0
  6
Continuous
 62
     7
100
AcDbLine
 10
59.62057890870999
 20
11.50005554230808
 30
0.0
 11
68.3495249087093
 21
11.50005554230808
 31
0.0
  0
LINE
  5
2CB
330
4E
100
AcDbEntity
  8
LC-001-002-----0
  6
Continuous
 62
     7
100
AcDbLine
 10
60.13821690871119
 20
11.50005554230808
 30
0.0
 11
60.13821690871119
 21
3.0
 31
0.0
  0
LINE
  5
2CC
330
4E
100
AcDbEntity
  8
LC-001-002-----0
  6
Continuous
 62
     7
100
AcDbLine
 10
59.62057890870999
 20
11.50005554230808
 30
0.0
 11
59.62057890870999
 21
3.0
 31
0.0
  0
LINE
  5
2CD
330
4E
100
AcDbEntity
  8
LC-001-002-----0
  6
Continuous
 62
     7
100
AcDbLine
 10
-59.62100509128942
 20
11.50005554230808
 30
0.0
 11
-59.62100509128942
 21
3.0
 31
0.0
  0
LINE
  5
2CE
330
4E
100
AcDbEntity
  8
LC-001-002-----0
  6
Continuous
 62
     7
100
AcDbLine
 10
0.99978690871208
 20
3.0
 30
0.0
 11
0.99978690871208
 21
11.50005554230808
 31
0.0
  0
LINE
  5
2CF
330
4E
100
AcDbEntity
  8
LC-001-002-----0
  6
Continuous
 62
     7
100
AcDbLine
 10
-1.00021309128792
 20
3.0
 30
0.0
 11
-1.00021309128792
 21
11.50005554230808
 31
0.0
  0
LINE
  5
2D0
330
4E
100
AcDbEntity
  8
LC-001-002-----0
  6
Continuous
 62
     7
100
AcDbLine
 10
-50.55333309128841
 20
11.50005554230808
 30
0.0
 11
-50.55333309128841
 21
3.0
 31
0.0
  0
LINE
  5
2D1
330
4E
100
AcDbEntity
  8
LC-001-002-----0
  6
Continuous
 62
     7
100
AcDbLine
 10
-43.12802409128992
 20
11.50005554230808
 30
0.0
 11
-50.55333309128841
 21
11.50005554230808
 31
0.0
  0
LINE
  5
2D2
330
4E
100
AcDbEntity
  8
LC-001-002-----0
  6
Continuous
 62
     7
100
AcDbLine
 10
-44.54223809129042
 20
11.50005554230808
 30
0.0
 11
-44.54223809129042
 21
3.0
 31
0.0
  0
LINE
  5
2D3
330
4E
100
AcDbEntity
  8
LC-001-002-----0
  6
Continuous
 62
     7
100
AcDbLine
 10
-43.12802409128992
 20
11.50005554230808
 30
0.0
 11
-43.12802409128992
 21
3.0
 31
0.0
  0
LINE
  5
2D4
330
4E
100
AcDbEntity
  8
LC-001-002-----0
  6
Continuous
 62
     7
100
AcDbLine
 10
50.55290590871229
 20
11.50005554230808
 30
0.0
 11
50.55290590871229
 21
3.0
 31
0.0
  0
LINE
  5
2D5
330
4E
100
AcDbEntity
  8
LC-001-002-----0
  6
Continuous
 62
     7
100
AcDbLine
 10
43.1275969087103
 20
11.50005554230808
 30
0.0
 11
50.55290590871229
 21
11.50005554230808
 31
0.0
  0
LINE
  5
2D6
330
4E
100
AcDbEntity
  8
LC-001-002-----0
  6
Continuous
 62
     7
100
AcDbLine
 10
44.5418109087106
 20
11.50005554230808
 30
0.0
 11
44.5418109087106
 21
3.0
 31
0.0
  0
LINE
  5
2D7
330
4E
100
AcDbEntity
  8
LC-001-002-----0
  6
Continuous
 62
     7
100
AcDbLine
 10
43.1275969087103
 20
11.50005554230808
 30
0.0
 11
43.1275969087103
 21
3.0
 31
0.0
  0
LINE
  5
2D8
330
4E
100
AcDbEntity
  8
LC-001-002-----0
  6
Continuous
 62
     7
100
AcDbLine
 10
-68.349952091289
 20
3.0
 30
0.0
 11
-68.349952091289
 21
11.50005554230808
 31
0.0
  0
LINE
  5
2D9
330
4E
100
AcDbEntity
  8
LC-001-002-----0
  6
Continuous
 62
     7
100
AcDbLine
 10
-19.21104609128892
 20
11.50005554230808
 30
0.0
 11
-19.21104609128892
 21
3.0
 31
0.0
  0
LINE
  5
2DA
330
4E
100
AcDbEntity
  8
LC-001-002-----0
  6
Continuous
 62
     7
100
AcDbLine
 10
-17.01083309128882
 20
11.50005554230808
 30
0.0
 11
-17.01083309128882
 21
3.0
 31
0.0
  0
LINE
  5
2DB
330
4E
100
AcDbEntity
  8
LC-001-002-----0
  6
Continuous
 62
     7
100
AcDbLine
 10
-15.0789810912909
 20
11.50005554230808
 30
0.0
 11
-15.0789810912909
 21
3.0
 31
0.0
  0
LINE
  5
2DC
330
4E
100
AcDbEntity
  8
LC-001-002-----0
  6
Continuous
 62
     7
100
AcDbLine
 10
0.99978690871208
 20
11.50005554230808
 30
0.0
 11
-1.00021309128792
 21
11.50005554230808
 31
0.0
  0
LINE
  5
2DD
330
4E
100
AcDbEntity
  8
LC-001-002-----0
  6
Continuous
 62
     7
100
AcDbLine
 10
-59.62100509128942
 20
11.50005554230808
 30
0.0
 11
-68.349952091289
 21
11.50005554230808
 31
0.0
  0
LINE
  5
2DE
330
4E
100
AcDbEntity
  8
LC-001-002-----0
  6
Continuous
 62
     7
100
AcDbLine
 10
-15.0789810912909
 20
11.50005554230808
 30
0.0
 11
-19.21104609128892
 21
11.50005554230808
 31
0.0
  0
LINE
  5
2DF
330
4E
100
AcDbEntity
  8
LC-001-002-----0
  6
Continuous
 62
     7
100
AcDbLine
 10
19.21061890870919
 20
11.50005554230808
 30
0.0
 11
19.21061890870919
 21
3.0
 31
0.0
  0
LINE
  5
2E0
330
4E
100
AcDbEntity
  8
LC-001-002-----0
  6
Continuous
 62
     7
100
AcDbLine
 10
17.01040590870909
 20
11.50005554230808
 30
0.0
 11
17.01040590870909
 21
3.0
 31
0.0
  0
LINE
  5
2E1
330
4E
100
AcDbEntity
  8
LC-001-002-----0
  6
Continuous
 62
     7
100
AcDbLine
 10
15.0785539087112
 20
11.50005554230808
 30
0.0
 11
15.0785539087112
 21
3.0
 31
0.0
  0
LINE
  5
2E2
330
4E
100
AcDbEntity
  8
LC-001-002-----0
  6
Continuous
 62
     7
100
AcDbLine
 10
15.0785539087112
 20
11.50005554230808
 30
0.0
 11
19.21061890870919
 21
11.50005554230808
 31
0.0
  0
LINE
  5
2E3
330
4E
100
AcDbEntity
  8
LC-001-002-----0
  6
Continuous
 62
     7
100
AcDbLine
 10
-3.3054320912895
 20
55.70011554230732
 30
0.0
 11
-3.3054320912895
 21
70.5001155423065
 31
0.0
  0
LINE
  5
2E4
330
4E
100
AcDbEntity
  8
LC-001-002-----0
  6
Continuous
 62
     7
100
AcDbLine
 10
3.3052349087113
 20
55.7001245423067
 30
0.0
 11
3.30519490871228
 21
70.5001245423096
 31
0.0
  0
LINE
  5
2E5
330
4E
100
AcDbEntity
  8
LC-001-002-----0
  6
Continuous
 62
     7
100
AcDbLine
 10
-83.51982720872263
 20
3.0
 30
0.0
 11
-62.54409309128891
 21
60.6303565423091
 31
0.0
  0
LINE
  5
2E6
330
4E
100
AcDbEntity
  8
LC-001-002-----0
  6
Continuous
 62
     7
100
AcDbLine
 10
83.51985854035945
 20
3.0
 30
0.0
 11
62.54388290870989
 21
60.63052754230881
 31
0.0
  0
LINE
  5
2E7
330
4E
100
AcDbEntity
  8
LC-001-002-----0
  6
Continuous
 62
     7
100
AcDbLine
 10
-48.44872409129022
 20
70.5000535423074
 30
0.0
 11
47.5615319087112
 21
70.5001855423084
 31
0.0
  0
LINE
  5
2E8
330
4E
100
AcDbEntity
  8
LC-001-002-----0
  6
Continuous
 62
     7
100
AcDbLine
 10
64.67621790871199
 20
11.50005554230808
 30
0.0
 11
43.20174590871028
 21
70.5001795423064
 31
0.0
  0
LINE
  5
2E9
330
4E
100
AcDbEntity
  8
LC-001-002-----0
  6
Continuous
 62
     7
100
AcDbLine
 10
42.48675990871129
 20
66.4150455423092
 30
0.0
 11
40.99988090871119
 21
70.50017654230902
 31
0.0
  0
LINE
  5
2EA
330
4E
100
AcDbEntity
  8
LC-001-002-----0
  6
Continuous
 62
     7
100
AcDbLine
 10
44.83962590871238
 20
66.0001785423097
 30
0.0
 11
42.48675990871129
 21
66.4150455423092
 31
0.0
  0
LINE
  5
2EB
330
4E
100
AcDbEntity
  8
LC-001-002-----0
  6
Continuous
 62
     7
100
AcDbLine
 10
-64.67622909128912
 20
11.50005554230808
 30
0.0
 11
-43.2019830912912
 21
70.5000615423065
 31
0.0
  0
LINE
  5
2EC
330
4E
100
AcDbEntity
  8
LC-001-002-----0
  6
Continuous
 62
     7
100
AcDbLine
 10
-42.4869860912884
 20
66.41492854230961
 30
0.0
 11
-41.00011909128881
 21
70.50006454230751
 31
0.0
  0
LINE
  5
2ED
330
4E
100
AcDbEntity
  8
LC-001-002-----0
  6
Continuous
 62
     7
100
AcDbLine
 10
-44.83985109128921
 20
66.0000555423081
 30
0.0
 11
-42.4869860912884
 21
66.41492854230961
 31
0.0
  0
LINE
  5
2EE
330
4E
100
AcDbEntity
  8
LC-001-002-----0
  6
Continuous
 62
     7
100
AcDbLine
 10
56.1955829087121
 20
34.80020954230851
 30
0.0
 11
56.1955949087089
 21
30.4371085423095
 31
0.0
  0
LINE
  5
2EF
330
4E
100
AcDbEntity
  8
LC-001-002-----0
  6
Continuous
 62
     7
100
AcDbLine
 10
57.9920259087114
 20
30.12035454231011
 30
0.0
 11
56.1955949087089
 21
30.4371085423095
 31
0.0
  0
LINE
  5
2F0
330
4E
100
AcDbEntity
  8
LC-001-002-----0
  6
Continuous
 62
     7
100
AcDbLine
 10
1.15024490871218
 20
55.70012154230932
 30
0.0
 11
1.15024490871218
 21
34.80005554230731
 31
0.0
  0
LINE
  5
2F1
330
4E
100
AcDbEntity
  8
LC-001-002-----0
  6
Continuous
 62
     7
100
AcDbLine
 10
-1.1497550912907
 20
55.7001185423083
 30
0.0
 11
-1.1497550912907
 21
34.80005554230731
 31
0.0
  0
LINE
  5
2F2
330
4E
100
AcDbEntity
  8
LC-001-002-----0
  6
Continuous
 62
     7
100
AcDbLine
 10
-56.1957220912889
 20
34.80005554230731
 30
0.0
 11
-56.1957220912889
 21
30.43695454230831
 31
0.0
  0
LINE
  5
2F3
330
4E
100
AcDbEntity
  8
LC-001-002-----0
  6
Continuous
 62
     7
100
AcDbLine
 10
-57.89266709128862
 20
30.13773754230861
 30
0.0
 11
-56.1957220912889
 21
30.43695454230831
 31
0.0
  0
LINE
  5
2F4
330
4E
100
AcDbEntity
  8
LC-001-002-----0
  6
Continuous
 62
     7
100
AcDbLine
 10
-48.5887450912895
 20
55.7000535423081
 30
0.0
 11
48.58854890871149
 21
55.7001865423095
 31
0.0
  0
LINE
  5
2F5
330
4E
100
AcDbEntity
  8
LC-001-002-----0
  6
Continuous
 62
     7
100
AcDbLine
 10
-56.1957220912889
 20
34.80005554230731
 30
0.0
 11
56.1955829087121
 21
34.80005554230731
 31
0.0
  0
LINE
  5
2F6
330
4E
100
AcDbEntity
  8
LC-001-002-----0
  6
Continuous
 62
     7
100
AcDbLine
 10
-57.89266709128862
 20
30.13773754230861
 30
0.0
 11
57.8925409087089
 21
30.13773754230861
 31
0.0
  0
LINE
  5
2F7
330
4E
100
AcDbEntity
  8
LC-001-002-----0
  6
Continuous
 62
     7
100
AcDbLine
 10
-1.1497550912907
 20
30.13773754230861
 30
0.0
 11
-1.1497550912907
 21
3.0
 31
0.0
  0
LINE
  5
2F8
330
4E
100
AcDbEntity
  8
LC-001-002-----0
  6
Continuous
 62
     7
100
AcDbLine
 10
1.15024490871218
 20
30.13773754230861
 30
0.0
 11
1.15024490871218
 21
3.0
 31
0.0
  0
LINE
  5
2F9
330
4E
100
AcDbEntity
  8
LC-001-002-----0
  6
Continuous
 62
     7
100
AcDbLine
 10
-51.60677009129071
 20
34.80005554230731
 30
0.0
 11
-42.99998009128902
 21
55.7000615423072
 31
0.0
  0
LINE
  5
2FA
330
4E
100
AcDbEntity
  8
LC-001-002-----0
  6
Continuous
 62
     7
100
AcDbLine
 10
-57.70231587021792
 20
3.0
 30
0.0
 11
-47.6826050912903
 21
30.13773754230861
 31
0.0
  0
LINE
  5
2FB
330
4E
100
AcDbEntity
  8
LC-001-002-----0
  6
Continuous
 62
     7
100
AcDbLine
 10
-32.65039234751231
 20
3.0
 30
0.0
 11
-26.86551109128851
 21
30.13773754230861
 31
0.0
  0
LINE
  5
2FC
330
4E
100
AcDbEntity
  8
LC-001-002-----0
  6
Continuous
 62
     7
100
AcDbLine
 10
-34.64225034751351
 20
3.0
 30
0.0
 11
-28.85736909128971
 21
30.13773754230861
 31
0.0
  0
LINE
  5
2FD
330
4E
100
AcDbEntity
  8
LC-001-002-----0
  6
Continuous
 62
     7
100
AcDbLine
 10
-17.58938809128881
 20
11.50005554230808
 30
0.0
 11
-15.53284009128842
 21
30.13773754230861
 31
0.0
  0
LINE
  5
2FE
330
4E
100
AcDbEntity
  8
LC-001-002-----0
  6
Continuous
 62
     7
100
AcDbLine
 10
-15.3677590912892
 20
11.50005554230808
 30
0.0
 11
-13.3112110912887
 21
30.13773754230861
 31
0.0
  0
LINE
  5
2FF
330
4E
100
AcDbEntity
  8
LC-001-002-----0
  6
Continuous
 62
     7
100
AcDbLine
 10
-58.8523160416498
 20
3.0
 30
0.0
 11
-48.83260509128812
 21
30.13773754230861
 31
0.0
  0
LINE
  5
300
330
4E
100
AcDbEntity
  8
LC-001-002-----0
  6
Continuous
 62
     7
100
AcDbLine
 10
-52.2020530912894
 20
34.80005554230731
 30
0.0
 11
-43.5952640912881
 21
55.70006054230692
 31
0.0
  0
LINE
  5
301
330
4E
100
AcDbEntity
  8
LC-001-002-----0
  6
Continuous
 62
     7
100
AcDbLine
 10
-44.19913009128942
 20
11.50005554230808
 30
0.0
 11
-38.57072709129062
 21
30.13773754230861
 31
0.0
  0
LINE
  5
302
330
4E
100
AcDbEntity
  8
LC-001-002-----0
  6
Continuous
 62
     7
100
AcDbLine
 10
-45.8338950912883
 20
11.50005554230808
 30
0.0
 11
-40.21529909128802
 21
30.13773754230861
 31
0.0
  0
LINE
  5
303
330
4E
100
AcDbEntity
  8
LC-001-002-----0
  6
Continuous
 62
     7
100
AcDbLine
 10
-47.1111980912909
 20
34.80005554230731
 30
0.0
 11
-39.39456109128952
 21
55.70006654230892
 31
0.0
  0
LINE
  5
304
330
4E
100
AcDbEntity
  8
LC-001-002-----0
  6
Continuous
 62
     7
100
AcDbLine
 10
-45.96119909128981
 20
34.80005554230731
 30
0.0
 11
-38.24456109128812
 21
55.7000675423092
 31
0.0
  0
LINE
  5
305
330
4E
100
AcDbEntity
  8
LC-001-002-----0
  6
Continuous
 62
     7
100
AcDbLine
 10
-61.20189609129082
 20
11.50005554230808
 30
0.0
 11
-53.52674909128911
 21
30.13773754230861
 31
0.0
  0
LINE
  5
306
330
4E
100
AcDbEntity
  8
LC-001-002-----0
  6
Continuous
 62
     7
100
AcDbLine
 10
-61.79717909128962
 20
11.50005554230808
 30
0.0
 11
-54.12203309128822
 21
30.13773754230861
 31
0.0
  0
LINE
  5
307
330
4E
100
AcDbEntity
  8
LC-001-002-----0
  6
Continuous
 62
     7
100
AcDbLine
 10
-38.80977709129081
 20
34.80005554230731
 30
0.0
 11
-32.5091670912887
 21
55.7000755423083
 31
0.0
  0
LINE
  5
308
330
4E
100
AcDbEntity
  8
LC-001-002-----0
  6
Continuous
 62
     7
100
AcDbLine
 10
-37.1627520912887
 20
34.80005554230731
 30
0.0
 11
-30.85114309128841
 21
55.700077542309
 31
0.0
  0
LINE
  5
309
330
4E
100
AcDbEntity
  8
LC-001-002-----0
  6
Continuous
 62
     7
100
AcDbLine
 10
-27.8635150912894
 20
34.80005554230731
 30
0.0
 11
-23.40831009129101
 21
55.70008854230912
 31
0.0
  0
LINE
  5
30A
330
4E
100
AcDbEntity
  8
LC-001-002-----0
  6
Continuous
 62
     7
100
AcDbLine
 10
-25.8716570912882
 20
34.80005554230731
 30
0.0
 11
-21.4164510912895
 21
55.70009054230971
 31
0.0
  0
LINE
  5
30B
330
4E
100
AcDbEntity
  8
LC-001-002-----0
  6
Continuous
 62
     7
100
AcDbLine
 10
-15.01838409129121
 20
34.80005554230731
 30
0.0
 11
-12.71219809128962
 21
55.7001025423065
 31
0.0
  0
LINE
  5
30C
330
4E
100
AcDbEntity
  8
LC-001-002-----0
  6
Continuous
 62
     7
100
AcDbLine
 10
-12.79675409129121
 20
34.80005554230731
 30
0.0
 11
-10.4905690912899
 21
55.70010554230751
 31
0.0
  0
LINE
  5
30D
330
4E
100
AcDbEntity
  8
LC-001-002-----0
  6
Continuous
 62
     7
100
AcDbLine
 10
15.36768790870988
 20
11.50005554230808
 30
0.0
 11
13.31108490870901
 21
30.1377735423098
 31
0.0
  0
LINE
  5
30E
330
4E
100
AcDbEntity
  8
LC-001-002-----0
  6
Continuous
 62
     7
100
AcDbLine
 10
17.58931790870989
 20
11.50005554230808
 30
0.0
 11
15.53271390871228
 21
30.1377805423086
 31
0.0
  0
LINE
  5
30F
330
4E
100
AcDbEntity
  8
LC-001-002-----0
  6
Continuous
 62
     7
100
AcDbLine
 10
12.79661490871078
 20
34.80009054230831
 30
0.0
 11
10.49037190871169
 21
55.70013454230642
 31
0.0
  0
LINE
  5
310
330
4E
100
AcDbEntity
  8
LC-001-002-----0
  6
Continuous
 62
     7
100
AcDbLine
 10
15.01824390871039
 20
34.8000965423067
 30
0.0
 11
12.7120019087117
 21
55.70013754230752
 31
0.0
  0
LINE
  5
311
330
4E
100
AcDbEntity
  8
LC-001-002-----0
  6
Continuous
 62
     7
100
AcDbLine
 10
25.87151790871138
 20
34.80012654230961
 30
0.0
 11
21.41625490871158
 21
55.70014954230791
 31
0.0
  0
LINE
  5
312
330
4E
100
AcDbEntity
  8
LC-001-002-----0
  6
Continuous
 62
     7
100
AcDbLine
 10
27.863375908709
 20
34.80013154230761
 30
0.0
 11
23.4081129087092
 21
55.7001525423089
 31
0.0
  0
LINE
  5
313
330
4E
100
AcDbEntity
  8
LC-001-002-----0
  6
Continuous
 62
     7
100
AcDbLine
 10
37.1626119087116
 20
34.80015754230911
 30
0.0
 11
30.85094690871048
 21
55.70016254230862
 31
0.0
  0
LINE
  5
314
330
4E
100
AcDbEntity
  8
LC-001-002-----0
  6
Continuous
 62
     7
100
AcDbLine
 10
38.80963690870999
 20
34.80016154230691
 30
0.0
 11
32.50896990871038
 21
55.7001645423093
 31
0.0
  0
LINE
  5
315
330
4E
100
AcDbEntity
  8
LC-001-002-----0
  6
Continuous
 62
     7
100
AcDbLine
 10
34.64221877572419
 20
3.0
 30
0.0
 11
28.85724290871011
 21
30.13781654230981
 31
0.0
  0
LINE
  5
316
330
4E
100
AcDbEntity
  8
LC-001-002-----0
  6
Continuous
 62
     7
100
AcDbLine
 10
32.65035892639691
 20
3.0
 30
0.0
 11
26.86538490870879
 21
30.13781154230821
 31
0.0
  0
LINE
  5
317
330
4E
100
AcDbEntity
  8
LC-001-002-----0
  6
Continuous
 62
     7
100
AcDbLine
 10
44.1990909087101
 20
11.50005554230808
 30
0.0
 11
38.5706009087109
 21
30.1378435423081
 31
0.0
  0
LINE
  5
318
330
4E
100
AcDbEntity
  8
LC-001-002-----0
  6
Continuous
 62
     7
100
AcDbLine
 10
45.83385690870929
 20
11.50005554230808
 30
0.0
 11
40.21517190871168
 21
30.1378475423094
 31
0.0
  0
LINE
  5
319
330
4E
100
AcDbEntity
  8
LC-001-002-----0
  6
Continuous
 62
     7
100
AcDbLine
 10
57.7023231103333
 20
3.0
 30
0.0
 11
47.68247890871058
 21
30.13786854230931
 31
0.0
  0
LINE
  5
31A
330
4E
100
AcDbEntity
  8
LC-001-002-----0
  6
Continuous
 62
     7
100
AcDbLine
 10
58.85232412608009
 20
3.0
 30
0.0
 11
48.83247790871178
 21
30.13787154230661
 31
0.0
  0
LINE
  5
31B
330
4E
100
AcDbEntity
  8
LC-001-002-----0
  6
Continuous
 62
     7
100
AcDbLine
 10
45.9610599087093
 20
34.80018154231
 30
0.0
 11
38.2443639087098
 21
55.70017254230839
 31
0.0
  0
LINE
  5
31C
330
4E
100
AcDbEntity
  8
LC-001-002-----0
  6
Continuous
 62
     7
100
AcDbLine
 10
47.11105890871039
 20
34.80018454230741
 30
0.0
 11
39.39436390871128
 21
55.7001745423091
 31
0.0
  0
LINE
  5
31D
330
4E
100
AcDbEntity
  8
LC-001-002-----0
  6
Continuous
 62
     7
100
AcDbLine
 10
51.6066309087102
 20
34.8001965423078
 30
0.0
 11
42.9997839087111
 21
55.7001795423071
 31
0.0
  0
LINE
  5
31E
330
4E
100
AcDbEntity
  8
LC-001-002-----0
  6
Continuous
 62
     7
100
AcDbLine
 10
51.6066309087102
 20
34.8001965423078
 30
0.0
 11
42.9997839087111
 21
55.7001795423071
 31
0.0
  0
LINE
  5
31F
330
4E
100
AcDbEntity
  8
LC-001-002-----0
  6
Continuous
 62
     7
100
AcDbLine
 10
52.20191390870899
 20
34.80019854230851
 30
0.0
 11
43.59506790871021
 21
55.70018054230749
 31
0.0
  0
LINE
  5
320
330
4E
100
AcDbEntity
  8
LC-001-002-----0
  6
Continuous
 62
     7
100
AcDbLine
 10
61.20188990871179
 20
11.50005554230808
 30
0.0
 11
53.5266229087094
 21
30.1378845423074
 31
0.0
  0
LINE
  5
321
330
4E
100
AcDbEntity
  8
LC-001-002-----0
  6
Continuous
 62
     7
100
AcDbLine
 10
61.79717390871079
 20
11.50005554230808
 30
0.0
 11
54.12190690871209
 21
30.1378855423077
 31
0.0
  0
LINE
  5
322
330
4E
100
AcDbEntity
  8
1
  6
Continuous
 62
     7
100
AcDbLine
 10
47.5615319087112
 20
70.5001855423084
 30
0.0
 11
48.4484862265592
 21
70.5001855423084
 31
0.0
  0
ARC
  5
323
330
4E
100
AcDbEntity
  8
LC-002-002-RND-0
  6
Continuous
 62
     7
100
AcDbCircle
 10
48.44850690870879
 20
55.5001865423088
 30
0.0
 40
14.99999999999947
100
AcDbArc
 50
20.00015699999149
 51
90.00007899999218
  0
ARC
  5
324
330
4E
100
AcDbEntity
  8
LC-002-002-RND-0
  6
Continuous
 62
     7
100
AcDbCircle
 10
-48.44870309129041
 20
55.5000535423074
 30
0.0
 40
14.99999999999968
100
AcDbArc
 50
90.00007899999221
 51
159.9999999999947
  0
ENDBLK
  5
50
330
4E
100
AcDbEntity
  8
0
100
AcDbBlockEnd
  0
BLOCK
  5
54
330
51
100
AcDbEntity
  8
0
100
AcDbBlockBegin
  2
TOP
 70
     0
 71
     0
 10
57.17775560137415
 20
-79.45640654988976
 30
0.0
  3
TOP
  1

  0
INSERT
  5
52
330
51
100
AcDbEntity
  8
1
100
AcDbBlockReference
  2
Körper
 10
28.82095726359901
 20
152.626221641628
 30
0.0
  0
INSERT
  5
53
330
51
100
AcDbEntity
  8
0
100
AcDbBlockReference
  2
060_1E_Laubfangkorb
 10
47.3008663873926
 20
-1202.544392321967
 30
0.0
  0
ENDBLK
  5
55
330
51
100
AcDbEntity
  8
0
100
AcDbBlockEnd
  0
BLOCK
  5
32D
330
325
100
AcDbEntity
  8
0
100
AcDbBlockBegin
  2
*D5
 70
     1
 71
     0
 10
0.0
 20
0.0
 30
0.0
  3
*D5
  1

  0
LINE
  5
326
330
325
100
AcDbEntity
  8
1
  6
Continuous
 62
     4
100
AcDbLine
 10
242.377508000855
 20
-270.498651
 30
0.0
 11
242.377508000855
 21
1.0
 31
0.0
  0
LINE
  5
327
330
325
100
AcDbEntity
  8
1
  6
Continuous
 62
     4
100
AcDbLine
 10
179.9999999999999
 20
1.0
 30
0.0
 11
244.377508000855
 21
1.0
 31
0.0
  0
LINE
  5
328
330
325
100
AcDbEntity
  8
1
  6
Continuous
 62
     4
100
AcDbLine
 10
77.4999995
 20
-270.498651
 30
0.0
 11
244.377508000855
 21
-270.498651
 31
0.0
  0
SOLID
  5
329
330
325
100
AcDbEntity
  8
1
 62
     4
100
AcDbTrace
 10
240.7976780298062
 20
-258.498651
 30
0.0
 11
243.9573379719037
 21
-258.498651
 31
0.0
 12
242.377508000855
 22
-270.498651
 32
0.0
 13
242.377508000855
 23
-270.498651
 33
0.0
  0
SOLID
  5
32A
330
325
100
AcDbEntity
  8
1
 62
     4
100
AcDbTrace
 10
243.9573379719037
 20
-11.0
 30
0.0
 11
240.7976780298062
 21
-11.0
 31
0.0
 12
242.377508000855
 22
1.0
 32
0.0
 13
242.377508000855
 23
1.0
 33
0.0
  0
MTEXT
  5
32C
330
325
100
AcDbEntity
  8
1
 62
     1
100
AcDbMText
 10
240.377508000855
 20
-147.277853551267
 30
0.0
 40
12.0
 41
0.0
 71
     7
 72
     1
  1
271
  7
CONVERTER_11
 11
0.0
 21
1.0
 31
0.0
 73
     1
 44
0.60024009603842
  0
ENDBLK
  5
32E
330
325
100
AcDbEntity
  8
0
100
AcDbBlockEnd
  0
BLOCK
  5
338
330
331
100
AcDbEntity
  8
0
100
AcDbBlockBegin
  2
*D6
 70
     1
 71
     0
 10
0.0
 20
0.0
 30
0.0
  3
*D6
  1

  0
LINE
  5
332
330
331
100
AcDbEntity
  8
1
  6
Continuous
 62
     4
100
AcDbLine
 10
-235.5249968244498
 20
195.9741473305381
 30
0.0
 11
235.5249968244499
 21
195.9741473305381
 31
0.0
  0
LINE
  5
333
330
331
100
AcDbEntity
  8
1
  6
Continuous
 62
     4
100
AcDbLine
 10
235.5249968244499
 20
5.0
 30
0.0
 11
235.5249968244499
 21
197.9741473305381
 31
0.0
  0
LINE
  5
334
330
331
100
AcDbEntity
  8
1
  6
Continuous
 62
     4
100
AcDbLine
 10
-235.5249968244498
 20
5.0
 30
0.0
 11
-235.5249968244498
 21
197.9741473305381
 31
0.0
  0
SOLID
  5
335
330
331
100
AcDbEntity
  8
1
 62
     4
100
AcDbTrace
 10
-223.5249968244498
 20
197.5539773015869
 30
0.0
 11
-223.5249968244498
 21
194.3943173594893
 31
0.0
 12
-235.5249968244498
 22
195.9741473305381
 32
0.0
 13
-235.5249968244498
 23
195.9741473305381
 33
0.0
  0
SOLID
  5
336
330
331
100
AcDbEntity
  8
1
 62
     4
100
AcDbTrace
 10
223.5249968244499
 20
194.3943173594893
 30
0.0
 11
223.5249968244499
 21
197.5539773015869
 31
0.0
 12
235.5249968244499
 22
195.9741473305381
 32
0.0
 13
235.5249968244499
 23
195.9741473305381
 33
0.0
  0
MTEXT
  5
337
330
331
100
AcDbEntity
  8
1
 62
     1
100
AcDbMText
 10
5.0931942860296
 20
197.9740519192057
 30
0.0
 40
12.0
 41
0.0
 71
     7
 72
     1
  1
\C1;500x\C1;500
  7
CONVERTER_11
 11
0.9999999999970619
 21
2.424068405545306E-6
 31
0.0
 73
     1
 44
0.60024009603842
  0
ENDBLK
  5
339
330
331
100
AcDbEntity
  8
0
100
AcDbBlockEnd
  0
BLOCK
  5
343
330
33C
100
AcDbEntity
  8
0
100
AcDbBlockBegin
  2
*D7
 70
     1
 71
     0
 10
0.0
 20
0.0
 30
0.0
  3
*D7
  1

  0
LINE
  5
33D
330
33C
100
AcDbEntity
  8
1
  6
Continuous
 62
     4
100
AcDbLine
 10
206.429049750142
 20
1.0
 30
0.0
 11
206.429049750142
 21
-97.5
 31
0.0
  0
LINE
  5
33E
330
33C
100
AcDbEntity
  8
1
  6
Continuous
 62
     4
100
AcDbLine
 10
186.9999995
 20
-97.5
 30
0.0
 11
208.429049750142
 21
-97.5
 31
0.0
  0
LINE
  5
33F
330
33C
100
AcDbEntity
  8
1
  6
Continuous
 62
     4
100
AcDbLine
 10
179.9999999999999
 20
1.0
 30
0.0
 11
208.429049750142
 21
1.0
 31
0.0
  0
SOLID
  5
340
330
33C
100
AcDbEntity
  8
1
 62
     4
100
AcDbTrace
 10
208.0088797211908
 20
-11.0
 30
0.0
 11
204.8492197790933
 21
-11.0
 31
0.0
 12
206.429049750142
 22
1.0
 32
0.0
 13
206.429049750142
 23
1.0
 33
0.0
  0
SOLID
  5
341
330
33C
100
AcDbEntity
  8
1
 62
     4
100
AcDbTrace
 10
204.8492197790933
 20
-85.5
 30
0.0
 11
208.0088797211908
 21
-85.5
 31
0.0
 12
206.429049750142
 22
-97.5
 32
0.0
 13
206.429049750142
 23
-97.5
 33
0.0
  0
MTEXT
  5
342
330
33C
100
AcDbEntity
  8
1
 62
     1
100
AcDbMText
 10
204.429049750142
 20
-80.08569197552599
 30
0.0
 40
12.0
 41
0.0
 71
     7
 72
     1
  1
100-160
  7
CONVERTER_11
 11
0.0
 21
1.0
 31
0.0
 73
     1
 44
0.60024009603842
  0
ENDBLK
  5
344
330
33C
100
AcDbEntity
  8
0
100
AcDbBlockEnd
  0
BLOCK
  5
34E
330
347
100
AcDbEntity
  8
0
100
AcDbBlockBegin
  2
*D8
 70
     1
 71
     0
 10
0.0
 20
0.0
 30
0.0
  3
*D8
  1

  0
LINE
  5
348
330
347
100
AcDbEntity
  8
1
  6
Continuous
 62
     4
100
AcDbLine
 10
198.9999995
 20
-270.498651
 30
0.0
 11
198.9999995
 21
-100.0
 31
0.0
  0
LINE
  5
349
330
347
100
AcDbEntity
  8
1
  6
Continuous
 62
     4
100
AcDbLine
 10
188.9999995
 20
-100.0
 30
0.0
 11
200.9999995
 21
-100.0
 31
0.0
  0
LINE
  5
34A
330
347
100
AcDbEntity
  8
1
  6
Continuous
 62
     4
100
AcDbLine
 10
77.4999995
 20
-270.498651
 30
0.0
 11
200.9999995
 21
-270.498651
 31
0.0
  0
SOLID
  5
34B
330
347
100
AcDbEntity
  8
1
 62
     4
100
AcDbTrace
 10
197.4201695289512
 20
-258.498651
 30
0.0
 11
200.5798294710488
 21
-258.498651
 31
0.0
 12
198.9999995
 22
-270.498651
 32
0.0
 13
198.9999995
 23
-270.498651
 33
0.0
  0
SOLID
  5
34C
330
347
100
AcDbEntity
  8
1
 62
     4
100
AcDbTrace
 10
200.5798294710488
 20
-112.0
 30
0.0
 11
197.4201695289512
 21
-112.0
 31
0.0
 12
198.9999995
 22
-100.0
 32
0.0
 13
198.9999995
 23
-100.0
 33
0.0
  0
MTEXT
  5
34D
330
347
100
AcDbEntity
  8
1
 62
     1
100
AcDbMText
 10
196.9999995
 20
-222.872919080979
 30
0.0
 40
12.0
 41
0.0
 71
     7
 72
     1
  1
\C1;(\C1;111-171\C1;)
  7
CONVERTER_11
 11
0.0
 21
1.0
 31
0.0
 73
     1
 44
0.60024009603842
  0
ENDBLK
  5
34F
330
347
100
AcDbEntity
  8
0
100
AcDbBlockEnd
  0
BLOCK
  5
35A
330
352
100
AcDbEntity
  8
0
100
AcDbBlockBegin
  2
*D9
 70
     1
 71
     0
 10
0.0
 20
0.0
 30
0.0
  3
*D9
  1

  0
LINE
  5
353
330
352
100
AcDbEntity
  8
1
  6
Continuous
 62
     4
100
AcDbLine
 10
55.00000049999998
 20
-361.476862633776
 30
0.0
 11
126.4504985876378
 21
-361.476862633776
 31
0.0
  0
LINE
  5
354
330
352
100
AcDbEntity
  8
1
  6
Continuous
 62
     4
100
AcDbLine
 10
-55.00000050000001
 20
-361.476862633776
 30
0.0
 11
55.00000049999998
 21
-361.476862633776
 31
0.0
  0
LINE
  5
355
330
352
100
AcDbEntity
  8
1
  6
Continuous
 62
     4
100
AcDbLine
 10
55.00000049999998
 20
-336.49788
 30
0.0
 11
55.00000049999998
 21
-363.476862633776
 31
0.0
  0
LINE
  5
356
330
352
100
AcDbEntity
  8
1
  6
Continuous
 62
     4
100
AcDbLine
 10
-55.00000050000001
 20
-336.49788
 30
0.0
 11
-55.00000050000001
 21
-363.476862633776
 31
0.0
  0
SOLID
  5
357
330
352
100
AcDbEntity
  8
1
 62
     4
100
AcDbTrace
 10
-43.00000050000001
 20
-359.8970326627273
 30
0.0
 11
-43.00000050000001
 21
-363.0566926048248
 31
0.0
 12
-55.00000050000001
 22
-361.476862633776
 32
0.0
 13
-55.00000050000001
 23
-361.476862633776
 33
0.0
  0
SOLID
  5
358
330
352
100
AcDbEntity
  8
1
 62
     4
100
AcDbTrace
 10
43.00000049999998
 20
-363.0566926048248
 30
0.0
 11
43.00000049999998
 21
-359.8970326627273
 31
0.0
 12
55.00000049999998
 22
-361.476862633776
 32
0.0
 13
55.00000049999998
 23
-361.476862633776
 33
0.0
  0
MTEXT
  5
359
330
352
100
AcDbEntity
  8
1
 62
     1
100
AcDbMText
 10
85.17049858769562
 20
-359.4769103394423
 30
0.0
 40
12.0
 41
0.0
 71
     7
 72
     1
  1
\C1;DN\C1;110
  7
CONVERTER_11
 11
0.9999999999970619
 21
2.424068405545306E-6
 31
0.0
 73
     1
 44
0.60024009603842
  0
ENDBLK
  5
35B
330
352
100
AcDbEntity
  8
0
100
AcDbBlockEnd
  0
BLOCK
  5
366
330
35E
100
AcDbEntity
  8
0
100
AcDbBlockBegin
  2
*D10
 70
     1
 71
     0
 10
0.0
 20
0.0
 30
0.0
  3
*D10
  1

  0
LINE
  5
35F
330
35E
100
AcDbEntity
  8
1
  6
Continuous
 62
     4
100
AcDbLine
 10
-85.5000005
 20
-397.163442102485
 30
0.0
 11
85.4999995
 21
-397.163442102485
 31
0.0
  0
LINE
  5
360
330
35E
100
AcDbEntity
  8
1
  6
Continuous
 62
     4
100
AcDbLine
 10
85.4999995
 20
-374.99382262412
 30
0.0
 11
85.4999995
 21
-399.163442102485
 31
0.0
  0
LINE
  5
361
330
35E
100
AcDbEntity
  8
1
  6
Continuous
 62
     4
100
AcDbLine
 10
85.4999995
 20
-265.498651
 30
0.0
 11
85.4999995
 21
-330.3855982882341
 31
0.0
  0
LINE
  5
362
330
35E
100
AcDbEntity
  8
1
  6
Continuous
 62
     4
100
AcDbLine
 10
-85.5000005
 20
-265.498651
 30
0.0
 11
-85.5000005
 21
-399.163442102485
 31
0.0
  0
SOLID
  5
363
330
35E
100
AcDbEntity
  8
1
 62
     4
100
AcDbTrace
 10
-73.5000005
 20
-395.5836121314363
 30
0.0
 11
-73.5000005
 21
-398.7432720735338
 31
0.0
 12
-85.5000005
 22
-397.163442102485
 32
0.0
 13
-85.5000005
 23
-397.163442102485
 33
0.0
  0
SOLID
  5
364
330
35E
100
AcDbEntity
  8
1
 62
     4
100
AcDbTrace
 10
73.4999995
 20
-398.7432720735338
 30
0.0
 11
73.4999995
 21
-395.5836121314363
 31
0.0
 12
85.4999995
 22
-397.163442102485
 32
0.0
 13
85.4999995
 23
-397.163442102485
 33
0.0
  0
MTEXT
  5
365
330
35E
100
AcDbEntity
  8
1
 62
     1
100
AcDbMText
 10
-22.39869772893485
 20
-395.1634898081513
 30
0.0
 40
12.0
 41
0.0
 71
     7
 72
     1
  1
\C1;\U+00d8\C1;171
  7
CONVERTER_11
 11
0.9999999999970619
 21
2.424068405545306E-6
 31
0.0
 73
     1
 44
0.60024009603842
  0
ENDBLK
  5
367
330
35E
100
AcDbEntity
  8
0
100
AcDbBlockEnd
  0
BLOCK
  5
371
330
36A
100
AcDbEntity
  8
0
100
AcDbBlockBegin
  2
*D11
 70
     1
 71
     0
 10
0.0
 20
0.0
 30
0.0
  3
*D11
  1

  0
LINE
  5
36B
330
36A
100
AcDbEntity
  8
1
  6
Continuous
 62
     4
100
AcDbLine
 10
-142.0501745000001
 20
94.828242533979
 30
0.0
 11
142.0501745000001
 21
94.828242533979
 31
0.0
  0
LINE
  5
36C
330
36A
100
AcDbEntity
  8
1
  6
Continuous
 62
     4
100
AcDbLine
 10
142.0501745000001
 20
0.0
 30
0.0
 11
142.0501745000001
 21
96.828242533979
 31
0.0
  0
LINE
  5
36D
330
36A
100
AcDbEntity
  8
1
  6
Continuous
 62
     4
100
AcDbLine
 10
-142.0501745000001
 20
0.0
 30
0.0
 11
-142.0501745000001
 21
96.828242533979
 31
0.0
  0
SOLID
  5
36E
330
36A
100
AcDbEntity
  8
1
 62
     4
100
AcDbTrace
 10
-130.0501745000001
 20
96.40807250502775
 30
0.0
 11
-130.0501745000001
 21
93.24841256293024
 31
0.0
 12
-142.0501745000001
 22
94.828242533979
 32
0.0
 13
-142.0501745000001
 23
94.828242533979
 33
0.0
  0
SOLID
  5
36F
330
36A
100
AcDbEntity
  8
1
 62
     4
100
AcDbTrace
 10
130.0501745000001
 20
93.24841256293024
 30
0.0
 11
130.0501745000001
 21
96.40807250502775
 31
0.0
 12
142.0501745000001
 22
94.828242533979
 32
0.0
 13
142.0501745000001
 23
94.828242533979
 33
0.0
  0
MTEXT
  5
370
330
36A
100
AcDbEntity
  8
1
 62
     1
100
AcDbMText
 10
-62.8642104991594
 20
96.82814712264656
 30
0.0
 40
12.0
 41
0.0
 71
     7
 72
     1
  1
\C1;284x\C1;284
  7
CONVERTER_11
 11
0.9999999999970619
 21
2.424068405545306E-6
 31
0.0
 73
     1
 44
0.60024009603842
  0
ENDBLK
  5
372
330
36A
100
AcDbEntity
  8
0
100
AcDbBlockEnd
  0
BLOCK
  5
37C
330
375
100
AcDbEntity
  8
0
100
AcDbBlockBegin
  2
*D12
 70
     1
 71
     0
 10
0.0
 20
0.0
 30
0.0
  3
*D12
  1

  0
LINE
  5
376
330
375
100
AcDbEntity
  8
1
  6
Continuous
 62
     4
100
AcDbLine
 10
-180.0000000000001
 20
128.0167425453491
 30
0.0
 11
179.9999999999999
 21
128.0167425453491
 31
0.0
  0
LINE
  5
377
330
375
100
AcDbEntity
  8
1
  6
Continuous
 62
     4
100
AcDbLine
 10
179.9999999999999
 20
1.0
 30
0.0
 11
179.9999999999999
 21
130.0167425453491
 31
0.0
  0
LINE
  5
378
330
375
100
AcDbEntity
  8
1
  6
Continuous
 62
     4
100
AcDbLine
 10
-180.0000000000001
 20
1.0
 30
0.0
 11
-180.0000000000001
 21
130.0167425453491
 31
0.0
  0
SOLID
  5
379
330
375
100
AcDbEntity
  8
1
 62
     4
100
AcDbTrace
 10
-168.0000000000001
 20
129.5965725163979
 30
0.0
 11
-168.0000000000001
 21
126.4369125743004
 31
0.0
 12
-180.0000000000001
 22
128.0167425453491
 32
0.0
 13
-180.0000000000001
 23
128.0167425453491
 33
0.0
  0
SOLID
  5
37A
330
375
100
AcDbEntity
  8
1
 62
     4
100
AcDbTrace
 10
167.9999999999999
 20
126.4369125743004
 30
0.0
 11
167.9999999999999
 21
129.5965725163979
 31
0.0
 12
179.9999999999999
 22
128.0167425453491
 32
0.0
 13
179.9999999999999
 23
128.0167425453491
 33
0.0
  0
MTEXT
  5
37B
330
375
100
AcDbEntity
  8
1
 62
     1
100
AcDbMText
 10
6.19629908407186
 20
130.0166471340167
 30
0.0
 40
12.0
 41
0.0
 71
     7
 72
     1
  1
\C1;360x\C1;360
  7
CONVERTER_11
 11
0.9999999999970619
 21
2.424068405545306E-6
 31
0.0
 73
     1
 44
0.60024009603842
  0
ENDBLK
  5
37D
330
375
100
AcDbEntity
  8
0
100
AcDbBlockEnd
  0
BLOCK
  5
387
330
380
100
AcDbEntity
  8
0
100
AcDbBlockBegin
  2
*D13
 70
     1
 71
     0
 10
0.0
 20
0.0
 30
0.0
  3
*D13
  1

  0
LINE
  5
381
330
380
100
AcDbEntity
  8
1
  6
Continuous
 62
     4
100
AcDbLine
 10
-188.9999995
 20
161.9954449379441
 30
0.0
 11
188.9999995
 21
161.9954449379441
 31
0.0
  0
LINE
  5
382
330
380
100
AcDbEntity
  8
1
  6
Continuous
 62
     4
100
AcDbLine
 10
188.9999995
 20
-100.0
 30
0.0
 11
188.9999995
 21
163.9954449379441
 31
0.0
  0
LINE
  5
383
330
380
100
AcDbEntity
  8
1
  6
Continuous
 62
     4
100
AcDbLine
 10
-188.9999995
 20
-100.0
 30
0.0
 11
-188.9999995
 21
163.9954449379441
 31
0.0
  0
SOLID
  5
384
330
380
100
AcDbEntity
  8
1
 62
     4
100
AcDbTrace
 10
-176.9999995
 20
163.5752749089928
 30
0.0
 11
-176.9999995
 21
160.4156149668953
 31
0.0
 12
-188.9999995
 22
161.9954449379441
 32
0.0
 13
-188.9999995
 23
161.9954449379441
 33
0.0
  0
SOLID
  5
385
330
380
100
AcDbEntity
  8
1
 62
     4
100
AcDbTrace
 10
176.9999995
 20
160.4156149668953
 30
0.0
 11
176.9999995
 21
163.5752749089928
 31
0.0
 12
188.9999995
 22
161.9954449379441
 32
0.0
 13
188.9999995
 23
161.9954449379441
 33
0.0
  0
MTEXT
  5
386
330
380
100
AcDbEntity
  8
1
 62
     1
100
AcDbMText
 10
-61.28380573671247
 20
163.9953495266116
 30
0.0
 40
12.0
 41
0.0
 71
     7
 72
     1
  1
\C1;378x\C1;378
  7
CONVERTER_11
 11
0.9999999999970619
 21
2.424068405545306E-6
 31
0.0
 73
     1
 44
0.60024009603842
  0
ENDBLK
  5
388
330
380
100
AcDbEntity
  8
0
100
AcDbBlockEnd
  0
ENDSEC
  0
SECTION
  2
ENTITIES
  0
INSERT
  5
56
330
1F
100
AcDbEntity
  8
1
100
AcDbBlockReference
  2
Draufsicht
 10
-223.2674590608513
 20
-1304.59386640053
 30
0.0
  0
INSERT
  5
57
330
1F
100
AcDbEntity
  8
0
100
AcDbBlockReference
  2
TOP
 10
57.17775560137415
 20
-79.45640654988976
 30
0.0
  0
DIMENSION
  5
330
330
1F
100
AcDbEntity
  8
1
100
AcDbDimension
  2
*D5
 10
242.377508000855
 20
-270.498651
 30
0.0
 11
234.377508000855
 21
-134.677853551267
 31
0.0
 70
    32
  1
<>
 71
     5
 42
-1.0
 53
90.0
  3
ME10_DIM_10
100
AcDbAlignedDimension
 13
179.9999999999999
 23
1.0
 33
0.0
 14
77.49999949999999
 24
-270.498651
 34
0.0
 50
90.0
100
AcDbRotatedDimension
  0
DIMENSION
  5
33B
330
1F
100
AcDbEntity
  8
1
100
AcDbDimension
  2
*D6
 10
-235.5249968244498
 20
195.9741473305381
 30
0.0
 11
36.05319428591395
 21
203.9741473305381
 31
0.0
 70
    32
  1
500x500
 71
     5
 42
-1.0
 53
0.00013888888889
  3
ME10_DIM_11
100
AcDbAlignedDimension
 13
235.5249968244499
 23
5.00000000000003
 33
0.0
 14
-235.5249968244499
 24
5.00000000000003
 34
0.0
100
AcDbRotatedDimension
  0
DIMENSION
  5
346
330
1F
100
AcDbEntity
  8
1
100
AcDbDimension
  2
*D7
 10
206.429049750142
 20
1.0
 30
0.0
 11
198.429049750142
 21
-48.28569197552599
 31
0.0
 70
    32
  1
100-160
 71
     5
 42
-1.0
 53
90.0
  3
ME10_DIM_12
100
AcDbAlignedDimension
 13
186.9999995
 23
-97.5
 33
0.0
 14
179.9999999999999
 24
1.0
 34
0.0
 50
90.0
100
AcDbRotatedDimension
  0
DIMENSION
  5
351
330
1F
100
AcDbEntity
  8
1
100
AcDbDimension
  2
*D8
 10
198.9999995
 20
-270.498651
 30
0.0
 11
190.9999995
 21
-186.632919080979
 31
0.0
 70
    32
  1
(111-171
 71
     5
 42
-1.0
 53
-90.0
  3
ME10_DIM_13
100
AcDbAlignedDimension
 13
188.9999995
 23
-100.0
 33
0.0
 14
77.49999949999999
 24
-270.498651
 34
0.0
 50
-90.0
100
AcDbRotatedDimension
  0
DIMENSION
  5
35D
330
1F
100
AcDbEntity
  8
1
100
AcDbDimension
  2
*D9
 10
-55.00000050000001
 20
-361.476862633776
 30
0.0
 11
102.4504985876378
 21
-353.476862633776
 31
0.0
 70
    32
  1
<>
 71
     5
 42
-1.0
 53
0.00013888888889
  3
ME10_DIM_14
100
AcDbAlignedDimension
 13
55.0000005
 23
-336.49788
 33
0.0
 14
-55.0000005
 24
-336.49788
 34
0.0
100
AcDbRotatedDimension
  0
DIMENSION
  5
369
330
1F
100
AcDbEntity
  8
1
100
AcDbDimension
  2
*D10
 10
-85.5000005
 20
-397.163442102485
 30
0.0
 11
0.88130227100733
 21
-389.163442102485
 31
0.0
 70
    32
  1
<>
 71
     5
 42
-1.0
 53
0.00013888888889
  3
ME10_DIM_15
100
AcDbAlignedDimension
 13
85.4999995
 23
-265.498651
 33
0.0
 14
-85.5000005
 24
-265.498651
 34
0.0
100
AcDbRotatedDimension
  0
DIMENSION
  5
374
330
1F
100
AcDbEntity
  8
1
100
AcDbDimension
  2
*D11
 10
-142.0501745000001
 20
94.828242533979
 30
0.0
 11
-31.90421049927504
 21
102.828242533979
 31
0.0
 70
    32
  1
284x284
 71
     5
 42
-1.0
 53
0.00013888888889
  3
ME10_DIM_16
100
AcDbAlignedDimension
 13
142.0501745000001
 23
0.0
 33
0.0
 14
-142.0501745
 24
0.0
 34
0.0
100
AcDbRotatedDimension
  0
DIMENSION
  5
37F
330
1F
100
AcDbEntity
  8
1
100
AcDbDimension
  2
*D12
 10
-180.0000000000001
 20
128.0167425453491
 30
0.0
 11
37.15629908395621
 21
136.0167425453491
 31
0.0
 70
    32
  1
<>
 71
     5
 42
-1.0
 53
0.00013888888889
  3
ME10_DIM_17
100
AcDbAlignedDimension
 13
179.9999999999999
 23
1.0
 33
0.0
 14
-180.0000000000001
 24
1.0
 34
0.0
100
AcDbRotatedDimension
  0
DIMENSION
  5
38A
330
1F
100
AcDbEntity
  8
1
100
AcDbDimension
  2
*D13
 10
-188.9999995
 20
161.9954449379441
 30
0.0
 11
-30.32380573682812
 21
169.9954449379441
 31
0.0
 70
    32
  1
<>
 71
     5
 42
-1.0
 53
0.00013888888889
  3
ME10_DIM_18
100
AcDbAlignedDimension
 13
188.9999995
 23
-100.0
 33
0.0
 14
-188.9999995
 24
-100.0
 34
0.0
100
AcDbRotatedDimension
  0
ENDSEC
  0
SECTION
  2
OBJECTS
  0
DICTIONARY
  5
C
330
0
100
AcDbDictionary
281
     1
  3
ACAD_GROUP
350
D
  3
ACAD_LAYOUT
350
1A
  3
ACAD_MLINESTYLE
350
17
  3
ACAD_PLOTSETTINGS
350
19
  3
ACAD_PLOTSTYLENAME
350
E
  3
ACAD_TABLESTYLE
350
38B
  3
ACAD_VISUALSTYLE
350
2A
  0
DICTIONARY
  5
D
102
{ACAD_REACTORS
330
C
102
}
330
C
100
AcDbDictionary
281
     1
  0
DICTIONARY
  5
1A
102
{ACAD_REACTORS
330
C
102
}
330
C
100
AcDbDictionary
281
     1
  3
Layout1
350
1E
  3
Layout2
350
26
  3
Model
350
22
  0
DICTIONARY
  5
17
102
{ACAD_REACTORS
330
C
102
}
330
C
100
AcDbDictionary
281
     1
  3
Standard
350
18
  0
DICTIONARY
  5
19
102
{ACAD_REACTORS
330
C
102
}
330
C
100
AcDbDictionary
281
     1
  0
ACDBDICTIONARYWDFLT
  5
E
102
{ACAD_REACTORS
330
C
102
}
330
C
100
AcDbDictionary
281
     1
  3
Normal
350
F
100
AcDbDictionaryWithDefault
340
F
  0
DICTIONARY
  5
38B
102
{ACAD_REACTORS
330
C
102
}
330
C
100
AcDbDictionary
281
     1
  0
DICTIONARY
  5
2A
102
{ACAD_REACTORS
330
C
102
}
330
C
100
AcDbDictionary
281
     1
  3
2dWireframe
350
2F
  3
3D Hidden
350
31
  3
3dWireframe
350
30
  3
Basic
350
32
  3
Brighten
350
36
  3
ColorChange
350
3A
  3
Conceptual
350
34
  3
Dim
350
35
  3
Facepattern
350
39
  3
Flat
350
2B
  3
FlatWithEdges
350
2C
  3
Gouraud
350
2D
  3
GouraudWithEdges
350
2E
  3
Linepattern
350
38
  3
Realistic
350
33
  3
Thicken
350
37
  0
LAYOUT
  5
1E
102
{ACAD_REACTORS
330
1A
102
}
330
1A
100
AcDbPlotSettings
  1

  2
none_device
  4

  6

 40
0.0
 41
0.0
 42
0.0
 43
0.0
 44
0.0
 45
0.0
 46
0.0
 47
0.0
 48
0.0
 49
0.0
140
0.0
141
0.0
142
1.0
143
1.0
 70
   688
 72
     0
 73
     0
 74
     5
  7

 75
    16
147
1.0
148
0.0
149
0.0
100
AcDbLayout
  1
Layout1
 70
     1
 71
     1
 10
0.0
 20
0.0
 11
12.0
 21
9.0
 12
0.0
 22
0.0
 32
0.0
 14
1.00000000000000E+20
 24
1.00000000000000E+20
 34
1.00000000000000E+20
 15
-1.00000000000000E+20
 25
-1.00000000000000E+20
 35
-1.00000000000000E+20
146
0.0
 13
0.0
 23
0.0
 33
0.0
 16
1.0
 26
0.0
 36
0.0
 17
0.0
 27
1.0
 37
0.0
 76
     0
330
1B
  0
LAYOUT
  5
26
102
{ACAD_REACTORS
330
1A
102
}
330
1A
100
AcDbPlotSettings
  1

  2
none_device
  4

  6

 40
0.0
 41
0.0
 42
0.0
 43
0.0
 44
0.0
 45
0.0
 46
0.0
 47
0.0
 48
0.0
 49
0.0
140
0.0
141
0.0
142
1.0
143
1.0
 70
   688
 72
     0
 73
     0
 74
     5
  7

 75
    16
147
1.0
148
0.0
149
0.0
100
AcDbLayout
  1
Layout2
 70
     1
 71
     2
 10
0.0
 20
0.0
 11
0.0
 21
0.0
 12
0.0
 22
0.0
 32
0.0
 14
0.0
 24
0.0
 34
0.0
 15
0.0
 25
0.0
 35
0.0
146
0.0
 13
0.0
 23
0.0
 33
0.0
 16
1.0
 26
0.0
 36
0.0
 17
0.0
 27
1.0
 37
0.0
 76
     0
330
23
  0
LAYOUT
  5
22
102
{ACAD_REACTORS
330
1A
102
}
330
1A
100
AcDbPlotSettings
  1

  2
none_device
  4

  6

 40
0.0
 41
0.0
 42
0.0
 43
0.0
 44
0.0
 45
0.0
 46
0.0
 47
0.0
 48
0.0
 49
0.0
140
0.0
141
0.0
142
1.0
143
1.0
 70
  1712
 72
     0
 73
     0
 74
     0
  7

 75
     0
147
1.0
148
0.0
149
0.0
100
AcDbLayout
  1
Model
 70
     1
 71
     0
 10
0.0
 20
0.0
 11
12.0
 21
9.0
 12
0.0
 22
0.0
 32
0.0
 14
-235.5249968244499
 24
-919.0532626743479
 34
0.0
 15
244.377508000855
 25
209.9741473305381
 35
0.0
146
0.0
 13
0.0
 23
0.0
 33
0.0
 16
1.0
 26
0.0
 36
0.0
 17
0.0
 27
1.0
 37
0.0
 76
     0
330
1F
331
29
  0
MLINESTYLE
  5
18
102
{ACAD_REACTORS
330
17
102
}
330
17
100
AcDbMlineStyle
  2
Standard
 70
     0
  3

 62
   256
 51
90.0
 52
90.0
 71
     2
 49
0.5
 62
   256
  6
BYLAYER
 49
-0.5
 62
   256
  6
BYLAYER
  0
ACDBPLACEHOLDER
  5
F
102
{ACAD_REACTORS
330
E
102
}
330
E
  0
VISUALSTYLE
  5
2F
102
{ACAD_REACTORS
330
2A
102
}
330
2A
100
AcDbVisualStyle
  2
2dWireframe
 70
     4
 71
     0
 72
     2
 73
     0
 90
        0
 40
-0.6
 41
-30.0
 62
     5
 63
     7
 74
     1
 91
        4
 64
     7
 65
   257
 75
     1
175
     1
 42
1.0
 92
        0
 66
   257
 43
1.0
 76
     1
 77
     6
 78
     2
 67
     7
 79
     5
170
     0
171
     0
290
     0
174
     0
 93
        1
 44
0.0
173
     0
291
     0
 45
0.0
1001
ACAD
1000
AcDbSavedByObjectVersion
1070
     0
  0
VISUALSTYLE
  5
31
102
{ACAD_REACTORS
330
2A
102
}
330
2A
100
AcDbVisualStyle
  2
3D Hidden
 70
     6
 71
     1
 72
     2
 73
     2
 90
        0
 40
-0.6
 41
-30.0
 62
     5
 63
     7
 74
     2
 91
        2
 64
     7
 65
   257
 75
     2
175
     1
 42
40.0
 92
        0
 66
   257
 43
1.0
 76
     1
 77
     6
 78
     2
 67
     7
 79
     3
170
     0
171
     0
290
     0
174
     0
 93
        1
 44
0.0
173
     0
291
     0
 45
0.0
1001
ACAD
1000
AcDbSavedByObjectVersion
1070
     0
  0
VISUALSTYLE
  5
30
102
{ACAD_REACTORS
330
2A
102
}
330
2A
100
AcDbVisualStyle
  2
3dWireframe
 70
     5
 71
     0
 72
     2
 73
     0
 90
        0
 40
-0.6
 41
-30.0
 62
     5
 63
     7
 74
     1
 91
        4
 64
     7
 65
   257
 75
     1
175
     1
 42
1.0
 92
        0
 66
   257
 43
1.0
 76
     1
 77
     6
 78
     2
 67
     7
 79
     5
170
     0
171
     0
290
     0
174
     0
 93
        1
 44
0.0
173
     0
291
     0
 45
0.0
1001
ACAD
1000
AcDbSavedByObjectVersion
1070
     0
  0
VISUALSTYLE
  5
32
102
{ACAD_REACTORS
330
2A
102
}
330
2A
100
AcDbVisualStyle
  2
Basic
 70
     7
 71
     1
 72
     0
 73
     1
 90
        0
 40
-0.6
 41
-30.0
 62
     5
 63
     7
 74
     0
 91
        4
 64
     7
 65
   257
 75
     1
175
     1
 42
1.0
 92
        8
 66
     7
 43
1.0
 76
     1
 77
     6
 78
     2
 67
     7
 79
     5
170
     0
171
     0
290
     0
174
     0
 93
        1
 44
0.0
173
     0
291
     1
 45
0.0
1001
ACAD
1000
AcDbSavedByObjectVersion
1070
     0
  0
VISUALSTYLE
  5
36
102
{ACAD_REACTORS
330
2A
102
}
330
2A
100
AcDbVisualStyle
  2
Brighten
 70
    12
 71
     2
 72
     2
 73
     0
 90
        0
 40
-0.6
 41
-30.0
 62
     5
 63
     7
 74
     1
 91
        4
 64
     7
 65
   257
 75
     1
175
     1
 42
1.0
 92
        8
 66
     7
 43
1.0
 76
     1
 77
     6
 78
     2
 67
     7
 79
     5
170
     0
171
     0
290
     0
174
     0
 93
        1
 44
50.0
173
     0
291
     1
 45
0.0
1001
ACAD
1000
AcDbSavedByObjectVersion
1070
     0
  0
VISUALSTYLE
  5
3A
102
{ACAD_REACTORS
330
2A
102
}
330
2A
100
AcDbVisualStyle
  2
ColorChange
 70
    16
 71
     2
 72
     2
 73
     3
 90
        0
 40
-0.6
 41
-30.0
 62
     5
 63
     8
 74
     1
 91
        4
 64
     7
 65
   257
 75
     1
175
     1
 42
1.0
 92
        8
 66
     8
 43
1.0
 76
     1
 77
     6
 78
     2
 67
     7
 79
     5
170
     0
171
     0
290
     0
174
     0
 93
        1
 44
0.0
173
     0
291
     1
 45
0.0
1001
ACAD
1000
AcDbSavedByObjectVersion
1070
     0
  0
VISUALSTYLE
  5
34
102
{ACAD_REACTORS
330
2A
102
}
330
2A
100
AcDbVisualStyle
  2
Conceptual
 70
     9
 71
     3
 72
     2
 73
     0
 90
        0
 40
-0.6
 41
-30.0
 62
     5
 63
     7
 74
     2
 91
        2
 64
     7
 65
   257
 75
     1
175
     1
 42
40.0
 92
        8
 66
     7
 43
1.0
 76
     1
 77
     6
 78
     2
 67
     7
 79
     3
170
     0
171
     0
290
     0
174
     0
 93
        1
 44
0.0
173
     0
291
     0
 45
0.0
1001
ACAD
1000
AcDbSavedByObjectVersion
1070
     0
  0
VISUALSTYLE
  5
35
102
{ACAD_REACTORS
330
2A
102
}
330
2A
100
AcDbVisualStyle
  2
Dim
 70
    11
 71
     2
 72
     2
 73
     0
 90
        0
 40
-0.6
 41
-30.0
 62
     5
 63
     7
 74
     1
 91
        4
 64
     7
 65
   257
 75
     1
175
     1
 42
1.0
 92
        8
 66
     7
 43
1.0
 76
     1
 77
     6
 78
     2
 67
     7
 79
     5
170
     0
171
     0
290
     0
174
     0
 93
        1
 44
-50.0
173
     0
291
     1
 45
0.0
1001
ACAD
1000
AcDbSavedByObjectVersion
1070
     0
  0
VISUALSTYLE
  5
39
102
{ACAD_REACTORS
330
2A
102
}
330
2A
100
AcDbVisualStyle
  2
Facepattern
 70
    15
 71
     2
 72
     2
 73
     0
 90
        0
 40
-0.6
 41
-30.0
 62
     5
 63
     7
 74
     1
 91
        4
 64
     7
 65
   257
 75
     1
175
     1
 42
1.0
 92
        8
 66
     7
 43
1.0
 76
     1
 77
     6
 78
     2
 67
     7
 79
     5
170
     0
171
     0
290
     0
174
     0
 93
        1
 44
0.0
173
     0
291
     1
 45
0.0
1001
ACAD
1000
AcDbSavedByObjectVersion
1070
     0
  0
VISUALSTYLE
  5
2B
102
{ACAD_REACTORS
330
2A
102
}
330
2A
100
AcDbVisualStyle
  2
Flat
 70
     0
 71
     2
 72
     1
 73
     1
 90
        2
 40
-0.6
 41
30.0
 62
     5
 63
     7
 74
     0
 91
        4
 64
     7
 65
   257
 75
     1
175
     1
 42
1.0
 92
        8
 66
     7
 43
1.0
 76
     1
 77
     6
 78
     2
 67
     7
 79
     5
170
     0
171
     0
290
     0
174
     0
 93
       13
 44
0.0
173
     0
291
     1
 45
0.0
1001
ACAD
1000
AcDbSavedByObjectVersion
1070
     0
  0
VISUALSTYLE
  5
2C
102
{ACAD_REACTORS
330
2A
102
}
330
2A
100
AcDbVisualStyle
  2
FlatWithEdges
 70
     1
 71
     2
 72
     1
 73
     1
 90
        2
 40
-0.6
 41
30.0
 62
     5
 63
     7
 74
     1
 91
        4
 64
     7
 65
   257
 75
     1
175
     1
 42
1.0
 92
        0
 66
   257
 43
1.0
 76
     1
 77
     6
 78
     2
 67
     7
 79
     5
170
     0
171
     0
290
     0
174
     0
 93
       13
 44
0.0
173
     0
291
     1
 45
0.0
1001
ACAD
1000
AcDbSavedByObjectVersion
1070
     0
  0
VISUALSTYLE
  5
2D
102
{ACAD_REACTORS
330
2A
102
}
330
2A
100
AcDbVisualStyle
  2
Gouraud
 70
     2
 71
     2
 72
     2
 73
     1
 90
        2
 40
-0.6
 41
30.0
 62
     5
 63
     7
 74
     0
 91
        4
 64
     7
 65
   257
 75
     1
175
     1
 42
1.0
 92
        0
 66
     7
 43
1.0
 76
     1
 77
     6
 78
     2
 67
     7
 79
     5
170
     0
171
     0
290
     0
174
     0
 93
       13
 44
0.0
173
     0
291
     1
 45
0.0
1001
ACAD
1000
AcDbSavedByObjectVersion
1070
     0
  0
VISUALSTYLE
  5
2E
102
{ACAD_REACTORS
330
2A
102
}
330
2A
100
AcDbVisualStyle
  2
GouraudWithEdges
 70
     3
 71
     2
 72
     2
 73
     1
 90
        2
 40
-0.6
 41
30.0
 62
     5
 63
     7
 74
     1
 91
        4
 64
     7
 65
   257
 75
     1
175
     1
 42
1.0
 92
        0
 66
   257
 43
1.0
 76
     1
 77
     6
 78
     2
 67
     7
 79
     5
170
     0
171
     0
290
     0
174
     0
 93
       13
 44
0.0
173
     0
291
     1
 45
0.0
1001
ACAD
1000
AcDbSavedByObjectVersion
1070
     0
  0
VISUALSTYLE
  5
38
102
{ACAD_REACTORS
330
2A
102
}
330
2A
100
AcDbVisualStyle
  2
Linepattern
 70
    14
 71
     2
 72
     2
 73
     0
 90
        0
 40
-0.6
 41
-30.0
 62
     5
 63
     7
 74
     1
 91
        4
 64
     7
 65
   257
 75
     7
175
     7
 42
1.0
 92
        8
 66
     7
 43
1.0
 76
     1
 77
     6
 78
     2
 67
     7
 79
     5
170
     0
171
     0
290
     0
174
     0
 93
        1
 44
0.0
173
     0
291
     1
 45
0.0
1001
ACAD
1000
AcDbSavedByObjectVersion
1070
     0
  0
VISUALSTYLE
  5
33
102
{ACAD_REACTORS
330
2A
102
}
330
2A
100
AcDbVisualStyle
  2
Realistic
 70
     8
 71
     2
 72
     2
 73
     0
 90
        0
 40
-0.6
 41
-30.0
 62
     5
 63
     7
 74
     1
 91
        0
 64
     7
 65
   257
 75
     1
175
     1
 42
1.0
 92
        8
 66
     8
 43
1.0
 76
     1
 77
     6
 78
     2
 67
     7
 79
     5
170
     0
171
     0
290
     0
174
     0
 93
       13
 44
0.0
173
     0
291
     0
 45
0.0
1001
ACAD
1000
AcDbSavedByObjectVersion
1070
     0
  0
VISUALSTYLE
  5
37
102
{ACAD_REACTORS
330
2A
102
}
330
2A
100
AcDbVisualStyle
  2
Thicken
 70
    13
 71
     2
 72
     2
 73
     0
 90
        0
 40
-0.6
 41
-30.0
 62
     5
 63
     7
 74
     1
 91
        4
 64
     7
 65
   257
 75
     1
175
     1
 42
1.0
 92
       12
 66
     7
 43
1.0
 76
     1
 77
     6
 78
     2
 67
     7
 79
     5
170
     0
171
     0
290
     0
174
     0
 93
        1
 44
0.0
173
     0
291
     1
 45
0.0
1001
ACAD
1000
AcDbSavedByObjectVersion
1070
     0
  0
ENDSEC
  0
EOF
