  0
SECTION
  2
HEADER
  9
$ACADVER
  1
AC1015
  9
$ACADMAINTVER
 70
     6
  9
$DWGCODEPAGE
  3
ANSI_1252
  9
$INSBASE
 10
0.0
 20
0.0
 30
0.0
  9
$EXTMIN
 10
-204.8234320736738
 20
-882.4409916671066
 30
0.0
  9
$EXTMAX
 10
257.384519552382
 20
217.9335605348933
 30
0.0
  9
$LIMMIN
 10
0.0
 20
0.0
  9
$LIMMAX
 10
12.0
 20
9.0
  9
$ORTHOMODE
 70
     0
  9
$REGENMODE
 70
     1
  9
$FILLMODE
 70
     1
  9
$QTEXTMODE
 70
     0
  9
$MIRRTEXT
 70
     1
  9
$LTSCALE
 40
1.0
  9
$ATTMODE
 70
     1
  9
$TEXTSIZE
 40
0.2
  9
$TRACEWID
 40
0.05
  9
$TEXTSTYLE
  7
Standard
  9
$CLAYER
  8
0
  9
$CELTYPE
  6
ByLayer
  9
$CECOLOR
 62
   256
  9
$CELTSCALE
 40
1.0
  9
$DISPSILH
 70
     0
  9
$DIMSCALE
 40
1.0
  9
$DIMASZ
 40
0.18
  9
$DIMEXO
 40
0.0625
  9
$DIMDLI
 40
0.38
  9
$DIMRND
 40
0.0
  9
$DIMDLE
 40
0.0
  9
$DIMEXE
 40
0.18
  9
$DIMTP
 40
0.0
  9
$DIMTM
 40
0.0
  9
$DIMTXT
 40
0.18
  9
$DIMCEN
 40
0.09
  9
$DIMTSZ
 40
0.0
  9
$DIMTOL
 70
     0
  9
$DIMLIM
 70
     0
  9
$DIMTIH
 70
     1
  9
$DIMTOH
 70
     1
  9
$DIMSE1
 70
     0
  9
$DIMSE2
 70
     0
  9
$DIMTAD
 70
     0
  9
$DIMZIN
 70
     0
  9
$DIMBLK
  1

  9
$DIMASO
 70
     1
  9
$DIMSHO
 70
     1
  9
$DIMPOST
  1

  9
$DIMAPOST
  1

  9
$DIMALT
 70
     0
  9
$DIMALTD
 70
     2
  9
$DIMALTF
 40
25.4
  9
$DIMLFAC
 40
1.0
  9
$DIMTOFL
 70
     0
  9
$DIMTVP
 40
0.0
  9
$DIMTIX
 70
     0
  9
$DIMSOXD
 70
     0
  9
$DIMSAH
 70
     0
  9
$DIMBLK1
  1

  9
$DIMBLK2
  1

  9
$DIMSTYLE
  2
Standard
  9
$DIMCLRD
 70
     0
  9
$DIMCLRE
 70
     0
  9
$DIMCLRT
 70
     0
  9
$DIMTFAC
 40
1.0
  9
$DIMGAP
 40
0.09
  9
$DIMJUST
 70
     0
  9
$DIMSD1
 70
     0
  9
$DIMSD2
 70
     0
  9
$DIMTOLJ
 70
     1
  9
$DIMTZIN
 70
     0
  9
$DIMALTZ
 70
     0
  9
$DIMALTTZ
 70
     0
  9
$DIMUPT
 70
     0
  9
$DIMDEC
 70
     4
  9
$DIMTDEC
 70
     4
  9
$DIMALTU
 70
     2
  9
$DIMALTTD
 70
     2
  9
$DIMTXSTY
  7
Standard
  9
$DIMAUNIT
 70
     0
  9
$DIMADEC
 70
     0
  9
$DIMALTRND
 40
0.0
  9
$DIMAZIN
 70
     0
  9
$DIMDSEP
 70
    46
  9
$DIMATFIT
 70
     3
  9
$DIMFRAC
 70
     0
  9
$DIMLDRBLK
  1

  9
$DIMLUNIT
 70
     2
  9
$DIMLWD
 70
    -2
  9
$DIMLWE
 70
    -2
  9
$DIMTMOVE
 70
     0
  9
$LUNITS
 70
     2
  9
$LUPREC
 70
     4
  9
$SKETCHINC
 40
0.1
  9
$FILLETRAD
 40
0.5
  9
$AUNITS
 70
     0
  9
$AUPREC
 70
     0
  9
$MENU
  1
.
  9
$ELEVATION
 40
0.0
  9
$PELEVATION
 40
0.0
  9
$THICKNESS
 40
0.0
  9
$LIMCHECK
 70
     0
  9
$CHAMFERA
 40
0.5
  9
$CHAMFERB
 40
0.5
  9
$CHAMFERC
 40
1.0
  9
$CHAMFERD
 40
0.0
  9
$SKPOLY
 70
     0
  9
$TDCREATE
 40
2454727.303411609
  9
$TDUCREATE
 40
2454727.220078276
  9
$TDUPDATE
 40
2454727.30341162
  9
$TDUUPDATE
 40
2454727.220078287
  9
$TDINDWG
 40
0.0000000116
  9
$TDUSRTIMER
 40
0.0000000116
  9
$USRTIMER
 70
     1
  9
$ANGBASE
 50
0.0
  9
$ANGDIR
 70
     0
  9
$PDMODE
 70
     0
  9
$PDSIZE
 40
0.0
  9
$PLINEWID
 40
0.0
  9
$SPLFRAME
 70
     0
  9
$SPLINETYPE
 70
     6
  9
$SPLINESEGS
 70
     8
  9
$HANDSEED
  5
38D
  9
$SURFTAB1
 70
     6
  9
$SURFTAB2
 70
     6
  9
$SURFTYPE
 70
     6
  9
$SURFU
 70
     6
  9
$SURFV
 70
     6
  9
$UCSBASE
  2

  9
$UCSNAME
  2

  9
$UCSORG
 10
0.0
 20
0.0
 30
0.0
  9
$UCSXDIR
 10
1.0
 20
0.0
 30
0.0
  9
$UCSYDIR
 10
0.0
 20
1.0
 30
0.0
  9
$UCSORTHOREF
  2

  9
$UCSORTHOVIEW
 70
     0
  9
$UCSORGTOP
 10
0.0
 20
0.0
 30
0.0
  9
$UCSORGBOTTOM
 10
0.0
 20
0.0
 30
0.0
  9
$UCSORGLEFT
 10
0.0
 20
0.0
 30
0.0
  9
$UCSORGRIGHT
 10
0.0
 20
0.0
 30
0.0
  9
$UCSORGFRONT
 10
0.0
 20
0.0
 30
0.0
  9
$UCSORGBACK
 10
0.0
 20
0.0
 30
0.0
  9
$PUCSBASE
  2

  9
$PUCSNAME
  2

  9
$PUCSORG
 10
0.0
 20
0.0
 30
0.0
  9
$PUCSXDIR
 10
1.0
 20
0.0
 30
0.0
  9
$PUCSYDIR
 10
0.0
 20
1.0
 30
0.0
  9
$PUCSORTHOREF
  2

  9
$PUCSORTHOVIEW
 70
     0
  9
$PUCSORGTOP
 10
0.0
 20
0.0
 30
0.0
  9
$PUCSORGBOTTOM
 10
0.0
 20
0.0
 30
0.0
  9
$PUCSORGLEFT
 10
0.0
 20
0.0
 30
0.0
  9
$PUCSORGRIGHT
 10
0.0
 20
0.0
 30
0.0
  9
$PUCSORGFRONT
 10
0.0
 20
0.0
 30
0.0
  9
$PUCSORGBACK
 10
0.0
 20
0.0
 30
0.0
  9
$USERI1
 70
     0
  9
$USERI2
 70
     0
  9
$USERI3
 70
     0
  9
$USERI4
 70
     0
  9
$USERI5
 70
     0
  9
$USERR1
 40
15.5
  9
$USERR2
 40
0.0
  9
$USERR3
 40
0.0
  9
$USERR4
 40
0.0
  9
$USERR5
 40
0.0
  9
$WORLDVIEW
 70
     1
  9
$SHADEDGE
 70
     3
  9
$SHADEDIF
 70
    70
  9
$TILEMODE
 70
     1
  9
$MAXACTVP
 70
    64
  9
$PINSBASE
 10
0.0
 20
0.0
 30
0.0
  9
$PLIMCHECK
 70
     0
  9
$PEXTMIN
 10
1.00000000000000E+20
 20
1.00000000000000E+20
 30
1.00000000000000E+20
  9
$PEXTMAX
 10
-1.00000000000000E+20
 20
-1.00000000000000E+20
 30
-1.00000000000000E+20
  9
$PLIMMIN
 10
0.0
 20
0.0
  9
$PLIMMAX
 10
12.0
 20
9.0
  9
$UNITMODE
 70
     0
  9
$VISRETAIN
 70
     1
  9
$PLINEGEN
 70
     0
  9
$PSLTSCALE
 70
     1
  9
$TREEDEPTH
 70
  3020
  9
$CMLSTYLE
  2
Standard
  9
$CMLJUST
 70
     0
  9
$CMLSCALE
 40
1.0
  9
$PROXYGRAPHICS
 70
     1
  9
$MEASUREMENT
 70
     1
  9
$CELWEIGHT
370
    -1
  9
$ENDCAPS
280
     0
  9
$JOINSTYLE
280
     0
  9
$LWDISPLAY
290
     0
  9
$INSUNITS
 70
     1
  9
$HYPERLINKBASE
  1

  9
$STYLESHEET
  1

  9
$XEDIT
290
     1
  9
$CEPSNTYPE
380
     0
  9
$PSTYLEMODE
290
     1
  9
$FINGERPRINTGUID
  2
{A47DC949-EC31-4661-B062-2839B15D1554}
  9
$VERSIONGUID
  2
{FAEB1C32-E019-11D5-929B-00C0DF256EC4}
  9
$EXTNAMES
290
     1
  9
$PSVPSCALE
 40
0.0
  9
$OLESTARTUP
290
     0
  0
ENDSEC
  0
SECTION
  2
CLASSES
  0
CLASS
  1
ACDBDICTIONARYWDFLT
  2
AcDbDictionaryWithDefault
  3
ObjectDBX Classes
 90
        0
280
     0
281
     0
  0
CLASS
  1
VISUALSTYLE
  2
AcDbVisualStyle
  3
ObjectDBX Classes
 90
     4095
280
     0
281
     0
  0
CLASS
  1

  2
exOdDbCircle
  3

 90
        0
280
     0
281
     1
  0
CLASS
  1
ACDBPLACEHOLDER
  2
AcDbPlaceHolder
  3
ObjectDBX Classes
 90
        0
280
     0
281
     0
  0
CLASS
  1
LAYOUT
  2
AcDbLayout
  3
ObjectDBX Classes
 90
        0
280
     0
281
     0
  0
ENDSEC
  0
SECTION
  2
TABLES
  0
TABLE
  2
VPORT
  5
8
330
0
100
AcDbSymbolTable
 70
     1
  0
VPORT
  5
29
330
8
100
AcDbSymbolTableRecord
100
AcDbViewportTableRecord
  2
*Active
 70
     0
 10
0.0
 20
0.0
 11
1.0
 21
1.0
 12
26.2805437393541
 22
-332.2537155661066
 13
0.0
 23
0.0
 14
0.5
 24
0.5
 15
0.5
 25
0.5
 16
0.0
 26
0.0
 36
1.0
 17
0.0
 27
0.0
 37
0.0
 40
1210.4120074222
 41
1.60267857142857
 42
50.0
 43
0.0
 44
0.0
 50
0.0
 51
0.0
 71
     0
 72
   100
 73
     1
 74
     3
 75
     0
 76
     0
 77
     0
 78
     0
281
     0
 65
     1
110
0.0
120
0.0
130
0.0
111
1.0
121
0.0
131
0.0
112
0.0
122
1.0
132
0.0
 79
     0
146
0.0
  0
ENDTAB
  0
TABLE
  2
LTYPE
  5
5
330
0
100
AcDbSymbolTable
 70
     9
  0
LTYPE
  5
14
330
5
100
AcDbSymbolTableRecord
100
AcDbLinetypeTableRecord
  2
ByBlock
 70
     0
  3

 72
    65
 73
     0
 40
0.0
  0
LTYPE
  5
15
330
5
100
AcDbSymbolTableRecord
100
AcDbLinetypeTableRecord
  2
ByLayer
 70
     0
  3

 72
    65
 73
     0
 40
0.0
  0
LTYPE
  5
16
330
5
100
AcDbSymbolTableRecord
100
AcDbLinetypeTableRecord
  2
Continuous
 70
     0
  3
Solid line
 72
    65
 73
     0
 40
0.0
  0
LTYPE
  5
3B
330
5
100
AcDbSymbolTableRecord
100
AcDbLinetypeTableRecord
  2
DASHED
 70
     0
  3
Dashed
 72
    65
 73
     2
 40
15.0
 49
7.0
 74
     0
 49
-8.0
 74
     0
  0
LTYPE
  5
3C
330
5
100
AcDbSymbolTableRecord
100
AcDbLinetypeTableRecord
  2
DOTTED
 70
     0
  3
Dotted
 72
    65
 73
     2
 40
1.0
 49
0.0
 74
     0
 49
-1.0
 74
     0
  0
LTYPE
  5
3D
330
5
100
AcDbSymbolTableRecord
100
AcDbLinetypeTableRecord
  2
DOT_CENTER
 70
     0
  3
Dot_Center
 72
    65
 73
     4
 40
14.0
 49
12.0
 74
     0
 49
-1.0
 74
     0
 49
0.0
 74
     0
 49
-1.0
 74
     0
  0
LTYPE
  5
3E
330
5
100
AcDbSymbolTableRecord
100
AcDbLinetypeTableRecord
  2
LONG_DASHED
 70
     0
  3
Long_Dashed
 72
    65
 73
     2
 40
15.0
 49
10.0
 74
     0
 49
-5.0
 74
     0
  0
LTYPE
  5
3F
330
5
100
AcDbSymbolTableRecord
100
AcDbLinetypeTableRecord
  2
DASH_CENTER
 70
     0
  3
Dash_Center
 72
    65
 73
     4
 40
14.0
 49
11.0
 74
     0
 49
-1.0
 74
     0
 49
1.0
 74
     0
 49
-1.0
 74
     0
  0
LTYPE
  5
40
330
5
100
AcDbSymbolTableRecord
100
AcDbLinetypeTableRecord
  2
PHANTOM
 70
     0
  3
Phantom
 72
    65
 73
     6
 40
13.0
 49
10.0
 74
     0
 49
-1.0
 74
     0
 49
0.0
 74
     0
 49
-1.0
 74
     0
 49
0.0
 74
     0
 49
-1.0
 74
     0
  0
LTYPE
  5
41
330
5
100
AcDbSymbolTableRecord
100
AcDbLinetypeTableRecord
  2
CENTER_DASH_DASH
 70
     0
  3
Center_Dash_Dash
 72
    65
 73
     6
 40
14.0
 49
9.0
 74
     0
 49
-1.0
 74
     0
 49
1.0
 74
     0
 49
-1.0
 74
     0
 49
1.0
 74
     0
 49
-1.0
 74
     0
  0
LTYPE
  5
42
330
5
100
AcDbSymbolTableRecord
100
AcDbLinetypeTableRecord
  2
DASHDOT
 70
     0
  3
DASHDOT
 72
    65
 73
     4
 40
16.0
 49
10.0
 74
     0
 49
-3.0
 74
     0
 49
0.0
 74
     0
 49
-3.0
 74
     0
  0
ENDTAB
  0
TABLE
  2
LAYER
  5
2
330
0
100
AcDbSymbolTable
 70
    11
  0
LAYER
  5
10
330
2
100
AcDbSymbolTableRecord
100
AcDbLayerTableRecord
  2
0
 70
     0
 62
     7
  6
Continuous
370
    -3
390
F
  0
LAYER
  5
43
330
2
100
AcDbSymbolTableRecord
100
AcDbLayerTableRecord
  2
1
 70
     0
 62
     7
  6
Continuous
370
    -3
390
F
  0
LAYER
  5
44
330
2
100
AcDbSymbolTableRecord
100
AcDbLayerTableRecord
  2
LC-001-002-----0
 70
     0
 62
     7
  6
Continuous
370
    -3
390
F
  0
LAYER
  5
45
330
2
100
AcDbSymbolTableRecord
100
AcDbLayerTableRecord
  2
LC-001-003-----0
 70
     0
 62
     7
  6
Continuous
370
    -3
390
F
  0
LAYER
  5
46
330
2
100
AcDbSymbolTableRecord
100
AcDbLayerTableRecord
  2
LC-002-002-RND-0
 70
     0
 62
     7
  6
Continuous
370
    -3
390
F
  0
LAYER
  5
47
330
2
100
AcDbSymbolTableRecord
100
AcDbLayerTableRecord
  2
LC-004-002-RND-0
 70
     0
 62
     7
  6
Continuous
370
    -3
390
F
  0
LAYER
  5
48
330
2
100
AcDbSymbolTableRecord
100
AcDbLayerTableRecord
  2
LC-005-002-----0
 70
     0
 62
     7
  6
Continuous
370
    -3
390
F
  0
LAYER
  5
49
330
2
100
AcDbSymbolTableRecord
100
AcDbLayerTableRecord
  2
LC-006-002-----0
 70
     0
 62
     7
  6
Continuous
370
    -3
390
F
  0
LAYER
  5
4A
330
2
100
AcDbSymbolTableRecord
100
AcDbLayerTableRecord
  2
LC-007-007-KH--0
 70
     0
 62
     7
  6
Continuous
370
    -3
390
F
  0
LAYER
  5
4B
330
2
100
AcDbSymbolTableRecord
100
AcDbLayerTableRecord
  2
LC-010-006-MLN-0
 70
     0
 62
     7
  6
Continuous
370
    -3
390
F
  0
LAYER
  5
4C
330
2
100
AcDbSymbolTableRecord
100
AcDbLayerTableRecord
  2
LC-013-200-----0
 70
     0
 62
     7
  6
Continuous
370
    -3
390
F
  0
ENDTAB
  0
TABLE
  2
STYLE
  5
3
330
0
100
AcDbSymbolTable
 70
     2
  0
STYLE
  5
11
330
3
100
AcDbSymbolTableRecord
100
AcDbTextStyleTableRecord
  2
Standard
 70
     0
 40
0.0
 41
1.0
 50
0.0
 71
     0
 42
0.2
  3
txt
  4

  0
STYLE
  5
339
330
3
100
AcDbSymbolTableRecord
100
AcDbTextStyleTableRecord
  2
CONVERTER_11
 70
     0
 40
0.0
 41
0.9
 50
0.0
 71
     0
 42
0.2
  3
txt.shx
  4

  0
ENDTAB
  0
TABLE
  2
VIEW
  5
6
330
0
100
AcDbSymbolTable
 70
     0
  0
ENDTAB
  0
TABLE
  2
UCS
  5
7
330
0
100
AcDbSymbolTable
 70
     0
  0
ENDTAB
  0
TABLE
  2
APPID
  5
9
330
0
100
AcDbSymbolTable
 70
     1
  0
APPID
  5
12
330
9
100
AcDbSymbolTableRecord
100
AcDbRegAppTableRecord
  2
ACAD
 70
     0
  0
ENDTAB
  0
TABLE
  2
DIMSTYLE
  5
A
330
0
100
AcDbSymbolTable
 70
     9
100
AcDbDimStyleTable
  0
DIMSTYLE
105
27
330
A
100
AcDbSymbolTableRecord
100
AcDbDimStyleTableRecord
  2
Standard
 70
     0
340
11
  0
DIMSTYLE
105
33D
102
{ACAD_REACTORS
330
33E
102
}
330
A
100
AcDbSymbolTableRecord
100
AcDbDimStyleTableRecord
  2
ME10_DIM_10
 70
     0
  3
378x<>
 41
12.0
 42
0.0
 44
2.0
 73
     0
 74
     0
 77
     1
 78
     8
140
12.0
147
2.0
172
     1
173
     1
176
     4
177
     4
178
     1
271
     2
340
339
  0
DIMSTYLE
105
348
102
{ACAD_REACTORS
330
349
102
}
330
A
100
AcDbSymbolTableRecord
100
AcDbDimStyleTableRecord
  2
ME10_DIM_11
 70
     0
  3
284x<>
 41
12.0
 42
0.0
 44
2.0
 73
     0
 74
     0
 77
     1
 78
     8
140
12.0
147
2.0
172
     1
173
     1
176
     4
177
     4
178
     1
271
     2
340
339
  0
DIMSTYLE
105
353
102
{ACAD_REACTORS
330
354
102
}
330
A
100
AcDbSymbolTableRecord
100
AcDbDimStyleTableRecord
  2
ME10_DIM_12
 70
     0
 41
12.0
 42
0.0
 44
2.0
 73
     0
 74
     0
 77
     1
 78
     8
140
12.0
147
2.0
172
     1
173
     1
176
     4
177
     4
178
     1
271
     2
340
339
  0
DIMSTYLE
105
35E
102
{ACAD_REACTORS
330
35F
102
}
330
A
100
AcDbSymbolTableRecord
100
AcDbDimStyleTableRecord
  2
ME10_DIM_13
 70
     0
  3
(<>)
 41
12.0
 42
0.0
 44
2.0
 73
     0
 74
     0
 77
     1
 78
     8
140
12.0
147
2.0
172
     1
173
     1
176
     4
177
     4
178
     1
271
     2
340
339
  0
DIMSTYLE
105
369
102
{ACAD_REACTORS
330
36A
102
}
330
A
100
AcDbSymbolTableRecord
100
AcDbDimStyleTableRecord
  2
ME10_DIM_14
 70
     0
  3
DN<>
 41
12.0
 42
0.0
 44
2.0
 73
     0
 74
     0
 77
     1
 78
     8
140
12.0
147
2.0
172
     1
173
     1
176
     4
177
     4
178
     1
271
     2
340
339
  0
DIMSTYLE
105
374
102
{ACAD_REACTORS
330
375
102
}
330
A
100
AcDbSymbolTableRecord
100
AcDbDimStyleTableRecord
  2
ME10_DIM_15
 70
     0
  3
Ø<>
 41
12.0
 42
0.0
 44
2.0
 73
     0
 74
     0
 77
     1
 78
     8
140
12.0
147
2.0
172
     1
173
     1
176
     4
177
     4
178
     1
271
     2
340
339
  0
DIMSTYLE
105
37F
102
{ACAD_REACTORS
330
380
102
}
330
A
100
AcDbSymbolTableRecord
100
AcDbDimStyleTableRecord
  2
ME10_DIM_16
 70
     0
  3
Ø<>
 41
12.0
 42
0.0
 44
2.0
 73
     0
 74
     0
 77
     1
 78
     8
140
12.0
147
2.0
172
     1
173
     1
176
     4
177
     4
178
     1
271
     2
340
339
  0
DIMSTYLE
105
38A
102
{ACAD_REACTORS
330
38B
102
}
330
A
100
AcDbSymbolTableRecord
100
AcDbDimStyleTableRecord
  2
ME10_DIM_17
 70
     0
 41
12.0
 42
0.0
 44
2.0
 73
     0
 74
     0
 77
     1
 78
     8
140
12.0
147
2.0
172
     1
173
     1
176
     4
177
     4
178
     1
271
     2
340
339
  0
ENDTAB
  0
TABLE
  2
BLOCK_RECORD
  5
1
330
0
100
AcDbSymbolTable
 70
    15
  0
BLOCK_RECORD
  5
1F
330
1
100
AcDbSymbolTableRecord
100
AcDbBlockTableRecord
  2
*Model_Space
340
22
  0
BLOCK_RECORD
  5
1B
330
1
100
AcDbSymbolTableRecord
100
AcDbBlockTableRecord
  2
*Paper_Space
340
1E
  0
BLOCK_RECORD
  5
23
330
1
100
AcDbSymbolTableRecord
100
AcDbBlockTableRecord
  2
*Paper_Space0
340
26
  0
BLOCK_RECORD
  5
4D
330
1
100
AcDbSymbolTableRecord
100
AcDbBlockTableRecord
  2
Senkschraube_M_6x25_DIN_965
340
0
102
{BLKREFS
331
5F
102
}
  0
BLOCK_RECORD
  5
50
330
1
100
AcDbSymbolTableRecord
100
AcDbBlockTableRecord
  2
Bauschutz_062_9E
340
0
102
{BLKREFS
331
60
102
}
  0
BLOCK_RECORD
  5
53
330
1
100
AcDbSymbolTableRecord
100
AcDbBlockTableRecord
  2
060_1E_Laubfangkorb
340
0
102
{BLKREFS
331
61
102
}
  0
BLOCK_RECORD
  5
56
330
1
100
AcDbSymbolTableRecord
100
AcDbBlockTableRecord
  2
PVC_Manschette
340
0
102
{BLKREFS
331
62
102
}
  0
BLOCK_RECORD
  5
59
330
1
100
AcDbSymbolTableRecord
100
AcDbBlockTableRecord
  2
Außenansicht
340
0
102
{BLKREFS
331
63
102
}
  0
BLOCK_RECORD
  5
5C
330
1
100
AcDbSymbolTableRecord
100
AcDbBlockTableRecord
  2
Körper
340
0
102
{BLKREFS
331
64
102
}
  0
BLOCK_RECORD
  5
333
330
1
100
AcDbSymbolTableRecord
100
AcDbBlockTableRecord
  2
*D7
340
0
  0
BLOCK_RECORD
  5
33F
330
1
100
AcDbSymbolTableRecord
100
AcDbBlockTableRecord
  2
*D8
340
0
  0
BLOCK_RECORD
  5
34A
330
1
100
AcDbSymbolTableRecord
100
AcDbBlockTableRecord
  2
*D9
340
0
  0
BLOCK_RECORD
  5
355
330
1
100
AcDbSymbolTableRecord
100
AcDbBlockTableRecord
  2
*D10
340
0
  0
BLOCK_RECORD
  5
360
330
1
100
AcDbSymbolTableRecord
100
AcDbBlockTableRecord
  2
*D11
340
0
  0
BLOCK_RECORD
  5
36B
330
1
100
AcDbSymbolTableRecord
100
AcDbBlockTableRecord
  2
*D12
340
0
  0
BLOCK_RECORD
  5
376
330
1
100
AcDbSymbolTableRecord
100
AcDbBlockTableRecord
  2
*D13
340
0
  0
BLOCK_RECORD
  5
381
330
1
100
AcDbSymbolTableRecord
100
AcDbBlockTableRecord
  2
*D14
340
0
  0
ENDTAB
  0
ENDSEC
  0
SECTION
  2
BLOCKS
  0
BLOCK
  5
20
330
1F
100
AcDbEntity
  8
0
100
AcDbBlockBegin
  2
*Model_Space
 70
     0
 71
     0
 10
0.0
 20
0.0
 30
0.0
  3
*Model_Space
  1

  0
ENDBLK
  5
21
330
1F
100
AcDbEntity
  8
0
100
AcDbBlockEnd
  0
BLOCK
  5
1C
330
1B
100
AcDbEntity
 67
     1
  8
0
100
AcDbBlockBegin
  2
*Paper_Space
 70
     0
 71
     0
 10
0.0
 20
0.0
 30
0.0
  3
*Paper_Space
  1

  0
ENDBLK
  5
1D
330
1B
100
AcDbEntity
 67
     1
  8
0
100
AcDbBlockEnd
  0
BLOCK
  5
24
330
23
100
AcDbEntity
  8
0
100
AcDbBlockBegin
  2
*Paper_Space0
 70
     0
 71
     0
 10
0.0
 20
0.0
 30
0.0
  3
*Paper_Space0
  1

  0
ENDBLK
  5
25
330
23
100
AcDbEntity
  8
0
100
AcDbBlockEnd
  0
BLOCK
  5
4E
330
4D
100
AcDbEntity
  8
0
100
AcDbBlockBegin
  2
Senkschraube_M_6x25_DIN_965
 70
     0
 71
     0
 10
256.2787917819369
 20
-852.2576276186664
 30
0.0
  3
Senkschraube_M_6x25_DIN_965
  1

  0
LINE
  5
65
330
4D
100
AcDbEntity
  8
1
  6
PHANTOM
 62
     2
100
AcDbLine
 10
-86.64531406819788
 20
-735.0493497511866
 30
0.0
 11
-76.16640668240746
 21
-728.9993497511873
 31
0.0
  0
LINE
  5
66
330
4D
100
AcDbEntity
  8
1
  6
PHANTOM
 62
     2
100
AcDbLine
 10
-78.38086037530115
 20
-737.2638034440854
 30
0.0
 11
-84.43086037530225
 21
-726.7848960582918
 31
0.0
  0
LINE
  5
67
330
4D
100
AcDbEntity
  8
1
  6
Continuous
 62
     7
100
AcDbLine
 10
-84.35223785684309
 20
-733.0210742548808
 30
0.0
 11
-82.92129160011382
 21
-732.1949170483623
 31
0.0
  0
LINE
  5
68
330
4D
100
AcDbEntity
  8
1
  6
Continuous
 62
     7
100
AcDbLine
 10
-83.74223785684433
 20
-734.0776252474957
 30
0.0
 11
-84.35223785684309
 21
-733.0210742548808
 31
0.0
  0
LINE
  5
69
330
4D
100
AcDbEntity
  8
1
  6
Continuous
 62
     7
100
AcDbLine
 10
-82.31129160011506
 20
-733.2514680409772
 30
0.0
 11
-83.74223785684433
 21
-734.0776252474957
 31
0.0
  0
LINE
  5
6A
330
4D
100
AcDbEntity
  8
1
  6
Continuous
 62
     7
100
AcDbLine
 10
-80.40913587161026
 20
-734.9707272327323
 30
0.0
 11
-81.23529307813055
 21
-733.539780976
 31
0.0
  0
LINE
  5
6B
330
4D
100
AcDbEntity
  8
1
  6
Continuous
 62
     7
100
AcDbLine
 10
-79.35258487899216
 20
-734.3607272327317
 30
0.0
 11
-80.40913587161026
 21
-734.9707272327323
 31
0.0
  0
LINE
  5
6C
330
4D
100
AcDbEntity
  8
1
  6
Continuous
 62
     7
100
AcDbLine
 10
-80.17874208551245
 20
-732.9297809759994
 30
0.0
 11
-79.35258487899216
 21
-734.3607272327317
 31
0.0
  0
LINE
  5
6D
330
4D
100
AcDbEntity
  8
1
  6
Continuous
 62
     7
100
AcDbLine
 10
-78.45948289376042
 20
-731.0276252474964
 30
0.0
 11
-79.89042915048958
 21
-731.8537824540149
 31
0.0
  0
LINE
  5
6E
330
4D
100
AcDbEntity
  8
1
  6
Continuous
 62
     7
100
AcDbLine
 10
-79.06948289375919
 20
-729.9710742548815
 30
0.0
 11
-78.45948289376042
 21
-731.0276252474964
 31
0.0
  0
LINE
  5
6F
330
4D
100
AcDbEntity
  8
1
  6
Continuous
 62
     7
100
AcDbLine
 10
-80.50042915048834
 20
-730.7972314614
 30
0.0
 11
-79.06948289375919
 21
-729.9710742548815
 31
0.0
  0
LINE
  5
70
330
4D
100
AcDbEntity
  8
1
  6
Continuous
 62
     7
100
AcDbLine
 10
-82.63297866509106
 20
-731.1189185263777
 30
0.0
 11
-83.45913587161135
 21
-729.6879722696453
 31
0.0
  0
LINE
  5
71
330
4D
100
AcDbEntity
  8
1
  6
Continuous
 62
     7
100
AcDbLine
 10
-83.45913587161135
 20
-729.6879722696453
 30
0.0
 11
-82.40258487899325
 21
-729.0779722696448
 31
0.0
  0
LINE
  5
72
330
4D
100
AcDbEntity
  8
1
  6
Continuous
 62
     7
100
AcDbLine
 10
-82.40258487899325
 20
-729.0779722696448
 30
0.0
 11
-81.57642767247296
 21
-730.5089185263771
 31
0.0
  0
LINE
  5
73
330
4D
100
AcDbEntity
  8
1
  6
PHANTOM
 62
     2
100
AcDbLine
 10
-86.64551729724792
 20
-634.9993497511873
 30
0.0
 11
-76.1666099114575
 21
-641.0493497511866
 31
0.0
  0
LINE
  5
74
330
4D
100
AcDbEntity
  8
1
  6
PHANTOM
 62
     2
100
AcDbLine
 10
-84.43106360435422
 20
-643.2638034440854
 30
0.0
 11
-78.38106360435313
 21
-632.7848960582918
 31
0.0
  0
LINE
  5
75
330
4D
100
AcDbEntity
  8
1
  6
Continuous
 62
     7
100
AcDbLine
 10
-83.74244108589619
 20
-635.9710742548815
 30
0.0
 11
-82.31149482916703
 21
-636.7972314614
 31
0.0
  0
LINE
  5
76
330
4D
100
AcDbEntity
  8
1
  6
Continuous
 62
     7
100
AcDbLine
 10
-84.35244108589495
 20
-637.0276252474964
 30
0.0
 11
-83.74244108589619
 21
-635.9710742548815
 31
0.0
  0
LINE
  5
77
330
4D
100
AcDbEntity
  8
1
  6
Continuous
 62
     7
100
AcDbLine
 10
-82.9214948291658
 20
-637.8537824540149
 30
0.0
 11
-84.35244108589495
 21
-637.0276252474964
 31
0.0
  0
LINE
  5
78
330
4D
100
AcDbEntity
  8
1
  6
Continuous
 62
     7
100
AcDbLine
 10
-83.45933910066321
 20
-640.3607272327317
 30
0.0
 11
-82.63318189414292
 21
-638.9297809759994
 31
0.0
  0
LINE
  5
79
330
4D
100
AcDbEntity
  8
1
  6
Continuous
 62
     7
100
AcDbLine
 10
-82.40278810804523
 20
-640.9707272327323
 30
0.0
 11
-83.45933910066321
 21
-640.3607272327317
 31
0.0
  0
LINE
  5
7A
330
4D
100
AcDbEntity
  8
1
  6
Continuous
 62
     7
100
AcDbLine
 10
-81.57663090152494
 20
-639.539780976
 30
0.0
 11
-82.40278810804523
 21
-640.9707272327323
 31
0.0
  0
LINE
  5
7B
330
4D
100
AcDbEntity
  8
1
  6
Continuous
 62
     7
100
AcDbLine
 10
-79.06968612281116
 20
-640.0776252474957
 30
0.0
 11
-80.50063237954032
 21
-639.2514680409772
 31
0.0
  0
LINE
  5
7C
330
4D
100
AcDbEntity
  8
1
  6
Continuous
 62
     7
100
AcDbLine
 10
-78.4596861228124
 20
-639.0210742548808
 30
0.0
 11
-79.06968612281116
 21
-640.0776252474957
 31
0.0
  0
LINE
  5
7D
330
4D
100
AcDbEntity
  8
1
  6
Continuous
 62
     7
100
AcDbLine
 10
-79.89063237954156
 20
-638.1949170483623
 30
0.0
 11
-78.4596861228124
 21
-639.0210742548808
 31
0.0
  0
LINE
  5
7E
330
4D
100
AcDbEntity
  8
1
  6
Continuous
 62
     7
100
AcDbLine
 10
-81.23549630718242
 20
-636.5089185263771
 30
0.0
 11
-80.40933910066212
 21
-635.0779722696448
 31
0.0
  0
LINE
  5
7F
330
4D
100
AcDbEntity
  8
1
  6
Continuous
 62
     7
100
AcDbLine
 10
-80.40933910066212
 20
-635.0779722696448
 30
0.0
 11
-79.35278810804414
 21
-635.6879722696453
 31
0.0
  0
LINE
  5
80
330
4D
100
AcDbEntity
  8
1
  6
Continuous
 62
     7
100
AcDbLine
 10
-79.35278810804414
 20
-635.6879722696453
 30
0.0
 11
-80.17894531456443
 21
-637.1189185263777
 31
0.0
  0
LINE
  5
81
330
4D
100
AcDbEntity
  8
1
  6
PHANTOM
 62
     2
100
AcDbLine
 10
0.00022273685925
 20
-584.9741737496673
 30
0.0
 11
0.00022273685924
 21
-597.0741737496659
 31
0.0
  0
LINE
  5
82
330
4D
100
AcDbEntity
  8
1
  6
PHANTOM
 62
     2
100
AcDbLine
 10
-6.04977726314366
 20
-591.0241737496666
 30
0.0
 11
6.05022273685852
 21
-591.0241737496666
 31
0.0
  0
LINE
  5
83
330
4D
100
AcDbEntity
  8
1
  6
Continuous
 62
     7
100
AcDbLine
 10
0.61022273685619
 20
-587.9741737496673
 30
0.0
 11
0.61022273685619
 21
-589.6264881627043
 31
0.0
  0
LINE
  5
84
330
4D
100
AcDbEntity
  8
1
  6
Continuous
 62
     7
100
AcDbLine
 10
-0.60977726314133
 20
-587.9741737496673
 30
0.0
 11
0.61022273685619
 21
-587.9741737496673
 31
0.0
  0
LINE
  5
85
330
4D
100
AcDbEntity
  8
1
  6
Continuous
 62
     7
100
AcDbLine
 10
-0.60977726314133
 20
-589.6264881627043
 30
0.0
 11
-0.60977726314133
 21
-587.9741737496673
 31
0.0
  0
LINE
  5
86
330
4D
100
AcDbEntity
  8
1
  6
Continuous
 62
     7
100
AcDbLine
 10
-3.04977726314366
 20
-590.414173749666
 30
0.0
 11
-1.39746285010308
 21
-590.414173749666
 31
0.0
  0
LINE
  5
87
330
4D
100
AcDbEntity
  8
1
  6
Continuous
 62
     7
100
AcDbLine
 10
-3.04977726314366
 20
-591.6341737496672
 30
0.0
 11
-3.04977726314366
 21
-590.414173749666
 31
0.0
  0
LINE
  5
88
330
4D
100
AcDbEntity
  8
1
  6
Continuous
 62
     7
100
AcDbLine
 10
-1.39746285010308
 20
-591.6341737496672
 30
0.0
 11
-3.04977726314366
 21
-591.6341737496672
 31
0.0
  0
LINE
  5
89
330
4D
100
AcDbEntity
  8
1
  6
Continuous
 62
     7
100
AcDbLine
 10
-0.60977726314134
 20
-594.0741737496659
 30
0.0
 11
-0.60977726314134
 21
-592.4218593366289
 31
0.0
  0
LINE
  5
8A
330
4D
100
AcDbEntity
  8
1
  6
Continuous
 62
     7
100
AcDbLine
 10
0.61022273685619
 20
-594.0741737496659
 30
0.0
 11
-0.60977726314134
 21
-594.0741737496659
 31
0.0
  0
LINE
  5
8B
330
4D
100
AcDbEntity
  8
1
  6
Continuous
 62
     7
100
AcDbLine
 10
0.61022273685619
 20
-592.4218593366289
 30
0.0
 11
0.61022273685619
 21
-594.0741737496659
 31
0.0
  0
LINE
  5
8C
330
4D
100
AcDbEntity
  8
1
  6
Continuous
 62
     7
100
AcDbLine
 10
1.39790832381793
 20
-590.414173749666
 30
0.0
 11
3.05022273685852
 21
-590.414173749666
 31
0.0
  0
LINE
  5
8D
330
4D
100
AcDbEntity
  8
1
  6
Continuous
 62
     7
100
AcDbLine
 10
3.05022273685852
 20
-590.414173749666
 30
0.0
 11
3.05022273685852
 21
-591.6341737496672
 31
0.0
  0
LINE
  5
8E
330
4D
100
AcDbEntity
  8
1
  6
Continuous
 62
     7
100
AcDbLine
 10
3.05022273685852
 20
-591.6341737496672
 30
0.0
 11
1.39790832381793
 21
-591.6341737496672
 31
0.0
  0
LINE
  5
8F
330
4D
100
AcDbEntity
  8
1
  6
PHANTOM
 62
     2
100
AcDbLine
 10
86.64616600001705
 20
-634.9989977481465
 30
0.0
 11
76.16725861422651
 21
-641.0489977481458
 31
0.0
  0
LINE
  5
90
330
4D
100
AcDbEntity
  8
1
  6
PHANTOM
 62
     2
100
AcDbLine
 10
78.38171230712032
 20
-632.7845440552478
 30
0.0
 11
84.43171230712142
 21
-643.2634514410413
 31
0.0
  0
LINE
  5
91
330
4D
100
AcDbEntity
  8
1
  6
Continuous
 62
     7
100
AcDbLine
 10
84.35308978866215
 20
-637.0272732444523
 30
0.0
 11
82.92214353193299
 21
-637.8534304509708
 31
0.0
  0
LINE
  5
92
330
4D
100
AcDbEntity
  8
1
  6
Continuous
 62
     7
100
AcDbLine
 10
83.74308978866338
 20
-635.9707222518375
 30
0.0
 11
84.35308978866215
 21
-637.0272732444523
 31
0.0
  0
LINE
  5
93
330
4D
100
AcDbEntity
  8
1
  6
Continuous
 62
     7
100
AcDbLine
 10
82.31214353193423
 20
-636.796879458356
 30
0.0
 11
83.74308978866338
 21
-635.9707222518375
 31
0.0
  0
LINE
  5
94
330
4D
100
AcDbEntity
  8
1
  6
Continuous
 62
     7
100
AcDbLine
 10
80.40998780342932
 20
-635.0776202666008
 30
0.0
 11
81.23614500994961
 21
-636.5085665233331
 31
0.0
  0
LINE
  5
95
330
4D
100
AcDbEntity
  8
1
  6
Continuous
 62
     7
100
AcDbLine
 10
79.35343681081133
 20
-635.6876202666014
 30
0.0
 11
80.40998780342932
 21
-635.0776202666008
 31
0.0
  0
LINE
  5
96
330
4D
100
AcDbEntity
  8
1
  6
Continuous
 62
     7
100
AcDbLine
 10
80.17959401733162
 20
-637.1185665233337
 30
0.0
 11
79.35343681081133
 21
-635.6876202666014
 31
0.0
  0
LINE
  5
97
330
4D
100
AcDbEntity
  8
1
  6
Continuous
 62
     7
100
AcDbLine
 10
78.4603348255796
 20
-639.0207222518368
 30
0.0
 11
79.89128108230875
 21
-638.1945650453183
 31
0.0
  0
LINE
  5
98
330
4D
100
AcDbEntity
  8
1
  6
Continuous
 62
     7
100
AcDbLine
 10
79.07033482557836
 20
-640.0772732444516
 30
0.0
 11
78.4603348255796
 21
-639.0207222518368
 31
0.0
  0
LINE
  5
99
330
4D
100
AcDbEntity
  8
1
  6
Continuous
 62
     7
100
AcDbLine
 10
80.50128108230751
 20
-639.2511160379331
 30
0.0
 11
79.07033482557836
 21
-640.0772732444516
 31
0.0
  0
LINE
  5
9A
330
4D
100
AcDbEntity
  8
1
  6
Continuous
 62
     7
100
AcDbLine
 10
82.63383059691012
 20
-638.9294289729554
 30
0.0
 11
83.45998780343041
 21
-640.3603752296877
 31
0.0
  0
LINE
  5
9B
330
4D
100
AcDbEntity
  8
1
  6
Continuous
 62
     7
100
AcDbLine
 10
83.45998780343041
 20
-640.3603752296877
 30
0.0
 11
82.40343681081242
 21
-640.9703752296883
 31
0.0
  0
LINE
  5
9C
330
4D
100
AcDbEntity
  8
1
  6
Continuous
 62
     7
100
AcDbLine
 10
82.40343681081242
 20
-640.9703752296883
 30
0.0
 11
81.57727960429213
 21
-639.539428972956
 31
0.0
  0
LINE
  5
9D
330
4D
100
AcDbEntity
  8
1
  6
PHANTOM
 62
     2
100
AcDbLine
 10
86.64636922906732
 20
-735.0489977481459
 30
0.0
 11
76.1674618432769
 21
-728.9989977481466
 31
0.0
  0
LINE
  5
9E
330
4D
100
AcDbEntity
  8
1
  6
PHANTOM
 62
     2
100
AcDbLine
 10
84.4319155361735
 20
-726.7845440552478
 30
0.0
 11
78.38191553617241
 21
-737.2634514410414
 31
0.0
  0
LINE
  5
9F
330
4D
100
AcDbEntity
  8
1
  6
Continuous
 62
     7
100
AcDbLine
 10
83.74329301771547
 20
-734.0772732444517
 30
0.0
 11
82.31234676098632
 21
-733.2511160379332
 31
0.0
  0
LINE
  5
A0
330
4D
100
AcDbEntity
  8
1
  6
Continuous
 62
     7
100
AcDbLine
 10
84.35329301771424
 20
-733.0207222518368
 30
0.0
 11
83.74329301771547
 21
-734.0772732444517
 31
0.0
  0
LINE
  5
A1
330
4D
100
AcDbEntity
  8
1
  6
Continuous
 62
     7
100
AcDbLine
 10
82.92234676098508
 20
-732.1945650453183
 30
0.0
 11
84.35329301771424
 21
-733.0207222518368
 31
0.0
  0
LINE
  5
A2
330
4D
100
AcDbEntity
  8
1
  6
Continuous
 62
     7
100
AcDbLine
 10
83.46019103248261
 20
-729.6876202666015
 30
0.0
 11
82.63403382596232
 21
-731.1185665233338
 31
0.0
  0
LINE
  5
A3
330
4D
100
AcDbEntity
  8
1
  6
Continuous
 62
     7
100
AcDbLine
 10
82.40364003986451
 20
-729.0776202666009
 30
0.0
 11
83.46019103248261
 21
-729.6876202666015
 31
0.0
  0
LINE
  5
A4
330
4D
100
AcDbEntity
  8
1
  6
Continuous
 62
     7
100
AcDbLine
 10
81.57748283334422
 20
-730.5085665233332
 30
0.0
 11
82.40364003986451
 21
-729.0776202666009
 31
0.0
  0
LINE
  5
A5
330
4D
100
AcDbEntity
  8
1
  6
Continuous
 62
     7
100
AcDbLine
 10
79.07053805463045
 20
-729.9707222518375
 30
0.0
 11
80.5014843113596
 21
-730.796879458356
 31
0.0
  0
LINE
  5
A6
330
4D
100
AcDbEntity
  8
1
  6
Continuous
 62
     7
100
AcDbLine
 10
78.46053805463168
 20
-731.0272732444524
 30
0.0
 11
79.07053805463045
 21
-729.9707222518375
 31
0.0
  0
LINE
  5
A7
330
4D
100
AcDbEntity
  8
1
  6
Continuous
 62
     7
100
AcDbLine
 10
79.89148431136084
 20
-731.8534304509709
 30
0.0
 11
78.46053805463168
 21
-731.0272732444524
 31
0.0
  0
LINE
  5
A8
330
4D
100
AcDbEntity
  8
1
  6
Continuous
 62
     7
100
AcDbLine
 10
81.23634823900181
 20
-733.5394289729561
 30
0.0
 11
80.41019103248152
 21
-734.9703752296884
 31
0.0
  0
LINE
  5
A9
330
4D
100
AcDbEntity
  8
1
  6
Continuous
 62
     7
100
AcDbLine
 10
80.41019103248152
 20
-734.9703752296884
 30
0.0
 11
79.35364003986342
 21
-734.3603752296879
 31
0.0
  0
LINE
  5
AA
330
4D
100
AcDbEntity
  8
1
  6
Continuous
 62
     7
100
AcDbLine
 10
79.35364003986342
 20
-734.3603752296879
 30
0.0
 11
80.17979724638371
 21
-732.9294289729555
 31
0.0
  0
LINE
  5
AB
330
4D
100
AcDbEntity
  8
1
  6
Continuous
 62
     7
100
AcDbLine
 10
-3.04937080503916
 20
-778.414173749666
 30
0.0
 11
-1.39705639199858
 21
-778.414173749666
 31
0.0
  0
LINE
  5
AC
330
4D
100
AcDbEntity
  8
1
  6
Continuous
 62
     7
100
AcDbLine
 10
-3.04937080503916
 20
-779.6341737496672
 30
0.0
 11
-3.04937080503916
 21
-778.414173749666
 31
0.0
  0
LINE
  5
AD
330
4D
100
AcDbEntity
  8
1
  6
Continuous
 62
     7
100
AcDbLine
 10
-1.39705639199858
 20
-779.6341737496672
 30
0.0
 11
-3.04937080503916
 21
-779.6341737496672
 31
0.0
  0
LINE
  5
AE
330
4D
100
AcDbEntity
  8
1
  6
Continuous
 62
     7
100
AcDbLine
 10
-0.60937080503683
 20
-777.6264881627043
 30
0.0
 11
-0.60937080503683
 21
-775.9741737496673
 31
0.0
  0
LINE
  5
AF
330
4D
100
AcDbEntity
  8
1
  6
Continuous
 62
     7
100
AcDbLine
 10
-0.60937080503683
 20
-775.9741737496673
 30
0.0
 11
0.61062919496069
 21
-775.9741737496673
 31
0.0
  0
LINE
  5
B0
330
4D
100
AcDbEntity
  8
1
  6
Continuous
 62
     7
100
AcDbLine
 10
0.61062919496069
 20
-775.9741737496673
 30
0.0
 11
0.61062919496069
 21
-777.6264881627043
 31
0.0
  0
LINE
  5
B1
330
4D
100
AcDbEntity
  8
1
  6
Continuous
 62
     7
100
AcDbLine
 10
1.39831478192244
 20
-778.414173749666
 30
0.0
 11
3.05062919496302
 21
-778.414173749666
 31
0.0
  0
LINE
  5
B2
330
4D
100
AcDbEntity
  8
1
  6
Continuous
 62
     7
100
AcDbLine
 10
3.05062919496302
 20
-778.414173749666
 30
0.0
 11
3.05062919496302
 21
-779.6341737496672
 31
0.0
  0
LINE
  5
B3
330
4D
100
AcDbEntity
  8
1
  6
Continuous
 62
     7
100
AcDbLine
 10
3.05062919496302
 20
-779.6341737496672
 30
0.0
 11
1.39831478192244
 21
-779.6341737496672
 31
0.0
  0
LINE
  5
B4
330
4D
100
AcDbEntity
  8
1
  6
Continuous
 62
     7
100
AcDbLine
 10
0.61062919496069
 20
-780.4218593366289
 30
0.0
 11
0.61062919496069
 21
-782.0741737496659
 31
0.0
  0
LINE
  5
B5
330
4D
100
AcDbEntity
  8
1
  6
Continuous
 62
     7
100
AcDbLine
 10
0.61062919496069
 20
-782.0741737496659
 30
0.0
 11
-0.60937080503683
 21
-782.0741737496659
 31
0.0
  0
LINE
  5
B6
330
4D
100
AcDbEntity
  8
1
  6
Continuous
 62
     7
100
AcDbLine
 10
-0.60937080503683
 20
-782.0741737496659
 30
0.0
 11
-0.60937080503683
 21
-780.4218593366289
 31
0.0
  0
LINE
  5
B7
330
4D
100
AcDbEntity
  8
1
  6
PHANTOM
 62
     2
100
AcDbLine
 10
6.05062919496302
 20
-779.0241737496666
 30
0.0
 11
-6.04937080503916
 21
-779.0241737496666
 31
0.0
  0
LINE
  5
B8
330
4D
100
AcDbEntity
  8
1
  6
PHANTOM
 62
     2
100
AcDbLine
 10
0.00062919496011
 20
-785.0741737496659
 30
0.0
 11
0.00062919496011
 21
-772.9741737496673
 31
0.0
  0
CIRCLE
  5
B9
330
4D
100
AcDbEntity
  8
1
  6
Continuous
 62
     7
100
AcDbCircle
 10
-81.40586037530261
 20
-732.024349751187
 30
0.0
 40
1.524999999997797
  0
CIRCLE
  5
BA
330
4D
100
AcDbEntity
  8
1
  6
Continuous
 62
     7
100
AcDbCircle
 10
-81.40586037530261
 20
-732.024349751187
 30
0.0
 40
5.499999999999959
  0
CIRCLE
  5
BB
330
4D
100
AcDbEntity
  8
1
  6
Continuous
 62
     7
100
AcDbCircle
 10
-81.40606360435277
 20
-638.024349751187
 30
0.0
 40
1.524999999997797
  0
CIRCLE
  5
BC
330
4D
100
AcDbEntity
  8
1
  6
Continuous
 62
     7
100
AcDbCircle
 10
-81.40606360435277
 20
-638.024349751187
 30
0.0
 40
5.499999999999959
  0
CIRCLE
  5
BD
330
4D
100
AcDbEntity
  8
1
  6
Continuous
 62
     7
100
AcDbCircle
 10
0.00022273685925
 20
-591.0241737496666
 30
0.0
 40
1.524999999997817
  0
CIRCLE
  5
BE
330
4D
100
AcDbEntity
  8
1
  6
Continuous
 62
     7
100
AcDbCircle
 10
0.00022273685925
 20
-591.0241737496666
 30
0.0
 40
5.5
  0
CIRCLE
  5
BF
330
4D
100
AcDbEntity
  8
1
  6
Continuous
 62
     7
100
AcDbCircle
 10
81.40671230712178
 20
-638.0239977481461
 30
0.0
 40
1.524999999997797
  0
CIRCLE
  5
C0
330
4D
100
AcDbEntity
  8
1
  6
Continuous
 62
     7
100
AcDbCircle
 10
81.40671230712178
 20
-638.0239977481461
 30
0.0
 40
5.499999999999959
  0
CIRCLE
  5
C1
330
4D
100
AcDbEntity
  8
1
  6
Continuous
 62
     7
100
AcDbCircle
 10
81.40691553617205
 20
-732.0239977481463
 30
0.0
 40
1.524999999997797
  0
CIRCLE
  5
C2
330
4D
100
AcDbEntity
  8
1
  6
Continuous
 62
     7
100
AcDbCircle
 10
81.40691553617205
 20
-732.0239977481463
 30
0.0
 40
5.499999999999959
  0
CIRCLE
  5
C3
330
4D
100
AcDbEntity
  8
1
  6
Continuous
 62
     7
100
AcDbCircle
 10
0.00062919496011
 20
-779.0241737496666
 30
0.0
 40
5.5
  0
CIRCLE
  5
C4
330
4D
100
AcDbEntity
  8
1
  6
Continuous
 62
     7
100
AcDbCircle
 10
0.00062919496011
 20
-779.0241737496666
 30
0.0
 40
1.524999999997817
  0
ENDBLK
  5
4F
330
4D
100
AcDbEntity
  8
0
100
AcDbBlockEnd
  0
BLOCK
  5
51
330
50
100
AcDbEntity
  8
0
100
AcDbBlockBegin
  2
Bauschutz_062_9E
 70
     0
 71
     0
 10
-646.596795999998
 20
-257.060702539733
 30
0.0
  3
Bauschutz_062_9E
  1

  0
LINE
  5
C5
330
50
100
AcDbEntity
  8
1
  6
Continuous
 62
     7
100
AcDbLine
 10
68.0
 20
213.9972974602679
 30
0.0
 11
-68.0
 21
213.9972974602679
 31
0.0
  0
LINE
  5
C6
330
50
100
AcDbEntity
  8
1
  6
Continuous
 62
     7
100
AcDbLine
 10
-78.75
 20
211.9972974602679
 30
0.0
 11
78.75
 21
211.9972974602679
 31
0.0
  0
LINE
  5
C7
330
50
100
AcDbEntity
  8
LC-006-002-----0
  6
Continuous
 62
     7
100
AcDbLine
 10
111.5
 20
213.9972974602679
 30
0.0
 11
111.5
 21
211.9972974602679
 31
0.0
  0
LINE
  5
C8
330
50
100
AcDbEntity
  8
LC-006-002-----0
  6
Continuous
 62
     7
100
AcDbLine
 10
111.5
 20
213.9972974602679
 30
0.0
 11
68.0
 21
213.9972974602679
 31
0.0
  0
LINE
  5
C9
330
50
100
AcDbEntity
  8
LC-006-002-----0
  6
Continuous
 62
     7
100
AcDbLine
 10
111.5
 20
211.9972974602679
 30
0.0
 11
78.75
 21
211.9972974602679
 31
0.0
  0
LINE
  5
CA
330
50
100
AcDbEntity
  8
LC-006-002-----0
  6
Continuous
 62
     7
100
AcDbLine
 10
78.75
 20
197.4972974602679
 30
0.0
 11
0.0
 21
197.4972974602679
 31
0.0
  0
LINE
  5
CB
330
50
100
AcDbEntity
  8
LC-006-002-----0
  6
Continuous
 62
     7
100
AcDbLine
 10
78.75
 20
197.4972974602679
 30
0.0
 11
78.75
 21
211.9972974602679
 31
0.0
  0
LINE
  5
CC
330
50
100
AcDbEntity
  8
LC-006-002-----0
  6
Continuous
 62
     7
100
AcDbLine
 10
-111.5
 20
213.9972974602679
 30
0.0
 11
-111.5
 21
211.9972974602679
 31
0.0
  0
LINE
  5
CD
330
50
100
AcDbEntity
  8
LC-006-002-----0
  6
Continuous
 62
     7
100
AcDbLine
 10
-111.5
 20
213.9972974602679
 30
0.0
 11
-68.0
 21
213.9972974602679
 31
0.0
  0
LINE
  5
CE
330
50
100
AcDbEntity
  8
LC-006-002-----0
  6
Continuous
 62
     7
100
AcDbLine
 10
-111.5
 20
211.9972974602679
 30
0.0
 11
-78.75
 21
211.9972974602679
 31
0.0
  0
LINE
  5
CF
330
50
100
AcDbEntity
  8
LC-006-002-----0
  6
Continuous
 62
     7
100
AcDbLine
 10
-78.75
 20
197.4972974602679
 30
0.0
 11
0.0
 21
197.4972974602679
 31
0.0
  0
LINE
  5
D0
330
50
100
AcDbEntity
  8
LC-006-002-----0
  6
Continuous
 62
     7
100
AcDbLine
 10
-78.75
 20
197.4972974602679
 30
0.0
 11
-78.75
 21
211.9972974602679
 31
0.0
  0
LINE
  5
D1
330
50
100
AcDbEntity
  8
LC-006-002-----0
  6
Continuous
 62
     7
100
AcDbLine
 10
68.0
 20
213.9972974602679
 30
0.0
 11
66.25
 21
215.9972974602679
 31
0.0
  0
LINE
  5
D2
330
50
100
AcDbEntity
  8
LC-006-002-----0
  6
Continuous
 62
     7
100
AcDbLine
 10
-68.0
 20
213.9972974602679
 30
0.0
 11
-66.25
 21
215.9972974602679
 31
0.0
  0
LINE
  5
D3
330
50
100
AcDbEntity
  8
1
  6
Continuous
 62
     7
100
AcDbLine
 10
-66.25
 20
215.9972974602679
 30
0.0
 11
0.0
 21
215.9972974602679
 31
0.0
  0
LINE
  5
D4
330
50
100
AcDbEntity
  8
1
  6
Continuous
 62
     7
100
AcDbLine
 10
66.25
 20
215.9972974602679
 30
0.0
 11
0.0
 21
215.9972974602679
 31
0.0
  0
LINE
  5
D5
330
50
100
AcDbEntity
  8
1
  6
PHANTOM
 62
     2
100
AcDbLine
 10
0.0
 20
194.6399630469969
 30
0.0
 11
0.0
 21
217.9335605348933
 31
0.0
  0
ENDBLK
  5
52
330
50
100
AcDbEntity
  8
0
100
AcDbBlockEnd
  0
BLOCK
  5
54
330
53
100
AcDbEntity
  8
0
100
AcDbBlockBegin
  2
060_1E_Laubfangkorb
 70
     0
 71
     0
 10
17.77195867930657
 20
-737.7826886263971
 30
0.0
  3
060_1E_Laubfangkorb
  1

  0
LINE
  5
D6
330
53
100
AcDbEntity
  8
1
  6
Continuous
 62
     7
100
AcDbLine
 10
47.56149637750296
 20
78.49676448539518
 30
0.0
 11
48.44845069535094
 21
78.49676448539518
 31
0.0
  0
LINE
  5
D7
330
53
100
AcDbEntity
  8
LC-001-002-----0
  6
Continuous
 62
     7
100
AcDbLine
 10
67.56203829286059
 20
5.49774368596421
 30
0.0
 11
54.12187137750389
 21
38.13446448539454
 31
0.0
  0
LINE
  5
D8
330
53
100
AcDbEntity
  8
LC-001-002-----0
  6
Continuous
 62
     7
100
AcDbLine
 10
66.96675460217611
 20
5.49774368596421
 30
0.0
 11
53.52658737750117
 21
38.1344634853942
 31
0.0
  0
LINE
  5
D9
330
53
100
AcDbEntity
  8
LC-001-002-----0
  6
Continuous
 62
     7
100
AcDbLine
 10
52.20187837750073
 20
42.79677748539527
 30
0.0
 11
43.59503237750196
 21
63.69675948539423
 31
0.0
  0
LINE
  5
DA
330
53
100
AcDbEntity
  8
LC-001-002-----0
  6
Continuous
 62
     7
100
AcDbLine
 10
51.60659537750198
 20
42.79677548539458
 30
0.0
 11
42.99974837750288
 21
63.69675848539391
 31
0.0
  0
LINE
  5
DB
330
53
100
AcDbEntity
  8
LC-001-002-----0
  6
Continuous
 62
     7
100
AcDbLine
 10
51.60659537750198
 20
42.79677548539458
 30
0.0
 11
42.99974837750288
 21
63.69675848539391
 31
0.0
  0
LINE
  5
DC
330
53
100
AcDbEntity
  8
LC-001-002-----0
  6
Continuous
 62
     7
100
AcDbLine
 10
47.11102337750218
 20
42.79676348539417
 30
0.0
 11
39.39432837750302
 21
63.69675348539585
 31
0.0
  0
LINE
  5
DD
330
53
100
AcDbEntity
  8
LC-001-002-----0
  6
Continuous
 62
     7
100
AcDbLine
 10
45.96102437750106
 20
42.79676048539678
 30
0.0
 11
38.24432837750155
 21
63.69675148539517
 31
0.0
  0
LINE
  5
DE
330
53
100
AcDbEntity
  8
LC-001-002-----0
  6
Continuous
 62
     7
100
AcDbLine
 10
60.88256880918922
 20
5.49774368596421
 30
0.0
 11
48.83244237750351
 21
38.13445048539342
 31
0.0
  0
LINE
  5
DF
330
53
100
AcDbEntity
  8
LC-001-002-----0
  6
Continuous
 62
     7
100
AcDbLine
 10
59.73256760944034
 20
5.49774368596421
 30
0.0
 11
47.6824433775024
 21
38.13444748539607
 31
0.0
  0
LINE
  5
E0
330
53
100
AcDbEntity
  8
LC-001-002-----0
  6
Continuous
 62
     7
100
AcDbLine
 10
50.05426952169487
 20
5.49694689687389
 30
0.0
 11
40.21513637750341
 21
38.13442648539622
 31
0.0
  0
LINE
  5
E1
330
53
100
AcDbEntity
  8
LC-001-002-----0
  6
Continuous
 62
     7
100
AcDbLine
 10
48.42686940753058
 20
5.49694689687389
 30
0.0
 11
38.57056537750269
 21
38.13442248539487
 31
0.0
  0
LINE
  5
E2
330
53
100
AcDbEntity
  8
LC-001-002-----0
  6
Continuous
 62
     7
100
AcDbLine
 10
33.82251147086878
 20
5.49774368596421
 30
0.0
 11
26.86534937750058
 21
38.13439048539495
 31
0.0
  0
LINE
  5
E3
330
53
100
AcDbEntity
  8
LC-001-002-----0
  6
Continuous
 62
     7
100
AcDbLine
 10
35.81437147894915
 20
5.49774368596421
 30
0.0
 11
28.85720737750181
 21
38.13439548539666
 31
0.0
  0
LINE
  5
E4
330
53
100
AcDbEntity
  8
LC-001-002-----0
  6
Continuous
 62
     7
100
AcDbLine
 10
38.80960137750172
 20
42.79674048539366
 30
0.0
 11
32.50893437750219
 21
63.69674348539611
 31
0.0
  0
LINE
  5
E5
330
53
100
AcDbEntity
  8
LC-001-002-----0
  6
Continuous
 62
     7
100
AcDbLine
 10
37.16257637750332
 20
42.79673648539593
 30
0.0
 11
30.85091137750224
 21
63.69674148539544
 31
0.0
  0
LINE
  5
E6
330
53
100
AcDbEntity
  8
LC-001-002-----0
  6
Continuous
 62
     7
100
AcDbLine
 10
27.86334037750077
 20
42.79671048539441
 30
0.0
 11
23.40807737750093
 21
63.69673148539567
 31
0.0
  0
LINE
  5
E7
330
53
100
AcDbEntity
  8
LC-001-002-----0
  6
Continuous
 62
     7
100
AcDbLine
 10
25.87148237750318
 20
42.79670548539635
 30
0.0
 11
21.41621937750334
 21
63.69672848539467
 31
0.0
  0
LINE
  5
E8
330
53
100
AcDbEntity
  8
LC-001-002-----0
  6
Continuous
 62
     7
100
AcDbLine
 10
15.01820837750222
 20
42.79667548539347
 30
0.0
 11
12.71196637750347
 21
63.69671648539423
 31
0.0
  0
LINE
  5
E9
330
53
100
AcDbEntity
  8
LC-001-002-----0
  6
Continuous
 62
     7
100
AcDbLine
 10
12.79657937750255
 20
42.79666948539509
 30
0.0
 11
10.49033637750346
 21
63.69671348539323
 31
0.0
  0
LINE
  5
EA
330
53
100
AcDbEntity
  8
LC-001-002-----0
  6
Continuous
 62
     7
100
AcDbLine
 10
19.13400818570186
 20
5.49774368596421
 30
0.0
 11
15.5326783775041
 21
38.13435948539536
 31
0.0
  0
LINE
  5
EB
330
53
100
AcDbEntity
  8
LC-001-002-----0
  6
Continuous
 62
     7
100
AcDbLine
 10
16.91237801477075
 20
5.49774368596421
 30
0.0
 11
13.3110493775008
 21
38.13435248539664
 31
0.0
  0
LINE
  5
EC
330
53
100
AcDbEntity
  8
LC-001-002-----0
  6
Continuous
 62
     7
100
AcDbLine
 10
-12.79678962249943
 20
42.79663448539414
 30
0.0
 11
-10.49060462249815
 21
63.69668448539431
 31
0.0
  0
LINE
  5
ED
330
53
100
AcDbEntity
  8
LC-001-002-----0
  6
Continuous
 62
     7
100
AcDbLine
 10
-15.01841962249943
 20
42.79663448539414
 30
0.0
 11
-12.71223362249787
 21
63.69668148539331
 31
0.0
  0
LINE
  5
EE
330
53
100
AcDbEntity
  8
LC-001-002-----0
  6
Continuous
 62
     7
100
AcDbLine
 10
-25.87169262249641
 20
42.79663448539414
 30
0.0
 11
-21.41648662249769
 21
63.69666948539651
 31
0.0
  0
LINE
  5
EF
330
53
100
AcDbEntity
  8
LC-001-002-----0
  6
Continuous
 62
     7
100
AcDbLine
 10
-27.86355062249765
 20
42.79663448539414
 30
0.0
 11
-23.40834562249926
 21
63.69666748539584
 31
0.0
  0
LINE
  5
F0
330
53
100
AcDbEntity
  8
LC-001-002-----0
  6
Continuous
 62
     7
100
AcDbLine
 10
-37.16278762249691
 20
42.79663448539414
 30
0.0
 11
-30.85117862249659
 21
63.69665648539576
 31
0.0
  0
LINE
  5
F1
330
53
100
AcDbEntity
  8
LC-001-002-----0
  6
Continuous
 62
     7
100
AcDbLine
 10
-38.80981262249894
 20
42.79663448539414
 30
0.0
 11
-32.50920262249689
 21
63.69665448539507
 31
0.0
  0
LINE
  5
F2
330
53
100
AcDbEntity
  8
LC-001-002-----0
  6
Continuous
 62
     7
100
AcDbLine
 10
-67.56206943243089
 20
5.49774368596421
 30
0.0
 11
-54.12206862249635
 21
38.13431648539537
 31
0.0
  0
LINE
  5
F3
330
53
100
AcDbEntity
  8
LC-001-002-----0
  6
Continuous
 62
     7
100
AcDbLine
 10
-66.96678718353925
 20
5.49774368596421
 30
0.0
 11
-53.52678462249727
 21
38.13431648539537
 31
0.0
  0
LINE
  5
F4
330
53
100
AcDbEntity
  8
LC-001-002-----0
  6
Continuous
 62
     7
100
AcDbLine
 10
-45.96123462249794
 20
42.79663448539414
 30
0.0
 11
-38.24459662249625
 21
63.696646485396
 31
0.0
  0
LINE
  5
F5
330
53
100
AcDbEntity
  8
LC-001-002-----0
  6
Continuous
 62
     7
100
AcDbLine
 10
-47.11123362249906
 20
42.79663448539414
 30
0.0
 11
-39.3945966224977
 21
63.69664548539566
 31
0.0
  0
LINE
  5
F6
330
53
100
AcDbEntity
  8
LC-001-002-----0
  6
Continuous
 62
     7
100
AcDbLine
 10
-50.05433682355281
 20
5.49694689687389
 30
0.0
 11
-40.21533462249622
 21
38.13431648539537
 31
0.0
  0
LINE
  5
F7
330
53
100
AcDbEntity
  8
LC-001-002-----0
  6
Continuous
 62
     7
100
AcDbLine
 10
-48.42693834779013
 20
5.49694689687389
 30
0.0
 11
-38.5707626224988
 21
38.13431648539537
 31
0.0
  0
LINE
  5
F8
330
53
100
AcDbEntity
  8
LC-001-002-----0
  6
Continuous
 62
     7
100
AcDbLine
 10
-52.20208862249761
 20
42.79663448539414
 30
0.0
 11
-43.59529962249631
 21
63.69663948539364
 31
0.0
  0
LINE
  5
F9
330
53
100
AcDbEntity
  8
LC-001-002-----0
  6
Continuous
 62
     7
100
AcDbLine
 10
-60.88261440350513
 20
5.49774368596421
 30
0.0
 11
-48.83264062249632
 21
38.13431648539537
 31
0.0
  0
LINE
  5
FA
330
53
100
AcDbEntity
  8
LC-001-002-----0
  6
Continuous
 62
     7
100
AcDbLine
 10
-16.91248193263573
 20
5.49774368596421
 30
0.0
 11
-13.31124662249692
 21
38.13431648539537
 31
0.0
  0
LINE
  5
FB
330
53
100
AcDbEntity
  8
LC-001-002-----0
  6
Continuous
 62
     7
100
AcDbLine
 10
-19.13411093263538
 20
5.49774368596421
 30
0.0
 11
-15.53287562249658
 21
38.13431648539537
 31
0.0
  0
LINE
  5
FC
330
53
100
AcDbEntity
  8
LC-001-002-----0
  6
Continuous
 62
     7
100
AcDbLine
 10
-35.81445835479802
 20
5.49774368596421
 30
0.0
 11
-28.85740462249793
 21
38.13431648539537
 31
0.0
  0
LINE
  5
FD
330
53
100
AcDbEntity
  8
LC-001-002-----0
  6
Continuous
 62
     7
100
AcDbLine
 10
-33.82260035479679
 20
5.49774368596421
 30
0.0
 11
-26.8655466224967
 21
38.13431648539537
 31
0.0
  0
LINE
  5
FE
330
53
100
AcDbEntity
  8
LC-001-002-----0
  6
Continuous
 62
     7
100
AcDbLine
 10
-59.73261419733806
 20
5.49774368596421
 30
0.0
 11
-47.6826406224985
 21
38.13431648539537
 31
0.0
  0
LINE
  5
FF
330
53
100
AcDbEntity
  8
LC-001-002-----0
  6
Continuous
 62
     7
100
AcDbLine
 10
-51.60680562249887
 20
42.79663448539414
 30
0.0
 11
-43.00001562249722
 21
63.69664048539397
 31
0.0
  0
LINE
  5
100
330
53
100
AcDbEntity
  8
LC-001-002-----0
  6
Continuous
 62
     7
100
AcDbLine
 10
1.15020937750398
 20
38.13431648539537
 30
0.0
 11
1.15020937750398
 21
5.49774368596421
 31
0.0
  0
LINE
  5
101
330
53
100
AcDbEntity
  8
LC-001-002-----0
  6
Continuous
 62
     7
100
AcDbLine
 10
-1.14979062249893
 20
38.13431648539537
 30
0.0
 11
-1.14979062249893
 21
5.49774368596421
 31
0.0
  0
LINE
  5
102
330
53
100
AcDbEntity
  8
LC-001-002-----0
  6
Continuous
 62
     7
100
AcDbLine
 10
-57.89270262249678
 20
38.13431648539537
 30
0.0
 11
57.89250537750067
 21
38.13431648539537
 31
0.0
  0
LINE
  5
103
330
53
100
AcDbEntity
  8
LC-001-002-----0
  6
Continuous
 62
     7
100
AcDbLine
 10
-56.1957576224971
 20
42.79663448539414
 30
0.0
 11
56.19554737750387
 21
42.79663448539414
 31
0.0
  0
LINE
  5
104
330
53
100
AcDbEntity
  8
LC-001-002-----0
  6
Continuous
 62
     7
100
AcDbLine
 10
-48.58878062249764
 20
63.69663248539489
 30
0.0
 11
48.5885133775033
 21
63.69676548539627
 31
0.0
  0
LINE
  5
105
330
53
100
AcDbEntity
  8
LC-001-002-----0
  6
Continuous
 62
     7
100
AcDbLine
 10
-57.89270262249678
 20
38.13431648539537
 30
0.0
 11
-56.1957576224971
 21
38.43353348539515
 31
0.0
  0
LINE
  5
106
330
53
100
AcDbEntity
  8
LC-001-002-----0
  6
Continuous
 62
     7
100
AcDbLine
 10
-56.1957576224971
 20
42.79663448539414
 30
0.0
 11
-56.1957576224971
 21
38.43353348539515
 31
0.0
  0
LINE
  5
107
330
53
100
AcDbEntity
  8
LC-001-002-----0
  6
Continuous
 62
     7
100
AcDbLine
 10
-1.14979062249893
 20
63.69669748539509
 30
0.0
 11
-1.14979062249893
 21
42.79663448539414
 31
0.0
  0
LINE
  5
108
330
53
100
AcDbEntity
  8
LC-001-002-----0
  6
Continuous
 62
     7
100
AcDbLine
 10
1.15020937750398
 20
63.69670048539609
 30
0.0
 11
1.15020937750398
 21
42.79663448539414
 31
0.0
  0
LINE
  5
109
330
53
100
AcDbEntity
  8
LC-001-002-----0
  6
Continuous
 62
     7
100
AcDbLine
 10
57.99199037750314
 20
38.11693348539684
 30
0.0
 11
56.19555937750065
 21
38.43368748539635
 31
0.0
  0
LINE
  5
10A
330
53
100
AcDbEntity
  8
LC-001-002-----0
  6
Continuous
 62
     7
100
AcDbLine
 10
56.19554737750387
 20
42.79678848539535
 30
0.0
 11
56.19555937750065
 21
38.43368748539635
 31
0.0
  0
LINE
  5
10B
330
53
100
AcDbEntity
  8
LC-001-002-----0
  6
Continuous
 62
     7
100
AcDbLine
 10
-44.83988662249736
 20
73.99663448539484
 30
0.0
 11
-42.48702162249661
 21
74.41150748539637
 31
0.0
  0
LINE
  5
10C
330
53
100
AcDbEntity
  8
LC-001-002-----0
  6
Continuous
 62
     7
100
AcDbLine
 10
-42.48702162249661
 20
74.41150748539637
 30
0.0
 11
-41.00015462249699
 21
78.49664348539424
 31
0.0
  0
LINE
  5
10D
330
53
100
AcDbEntity
  8
LC-001-002-----0
  6
Continuous
 62
     7
100
AcDbLine
 10
-69.77144418492125
 20
5.49774368596421
 30
0.0
 11
-43.20201862249938
 21
78.49664048539323
 31
0.0
  0
LINE
  5
10E
330
53
100
AcDbEntity
  8
LC-001-002-----0
  6
Continuous
 62
     7
100
AcDbLine
 10
44.8395903775041
 20
73.99675748539644
 30
0.0
 11
42.48672437750302
 21
74.41162448539596
 31
0.0
  0
LINE
  5
10F
330
53
100
AcDbEntity
  8
LC-001-002-----0
  6
Continuous
 62
     7
100
AcDbLine
 10
42.48672437750302
 20
74.41162448539596
 30
0.0
 11
40.99984537750299
 21
78.49675548539577
 31
0.0
  0
LINE
  5
110
330
53
100
AcDbEntity
  8
LC-001-002-----0
  6
Continuous
 62
     7
100
AcDbLine
 10
69.77140537234797
 20
5.49774368596421
 30
0.0
 11
43.20171037750207
 21
78.49675848539314
 31
0.0
  0
LINE
  5
111
330
53
100
AcDbEntity
  8
LC-001-002-----0
  6
Continuous
 62
     7
100
AcDbLine
 10
-48.44875962249839
 20
78.49663248539416
 30
0.0
 11
47.56149637750296
 21
78.49676448539518
 31
0.0
  0
LINE
  5
112
330
53
100
AcDbEntity
  8
LC-001-002-----0
  6
Continuous
 62
     7
100
AcDbLine
 10
85.52125244724148
 20
5.49774368596421
 30
0.0
 11
62.54384737750169
 21
68.62710648539559
 31
0.0
  0
LINE
  5
113
330
53
100
AcDbEntity
  8
LC-001-002-----0
  6
Continuous
 62
     7
100
AcDbLine
 10
-85.52127507241087
 20
5.49774368596421
 30
0.0
 11
-62.54412862249714
 21
68.6269354853959
 31
0.0
  0
LINE
  5
114
330
53
100
AcDbEntity
  8
LC-001-002-----0
  6
Continuous
 62
     7
100
AcDbLine
 10
3.30519937750307
 20
63.69670348539346
 30
0.0
 11
3.30515937750408
 21
78.49670348539637
 31
0.0
  0
LINE
  5
115
330
53
100
AcDbEntity
  8
LC-001-002-----0
  6
Continuous
 62
     7
100
AcDbLine
 10
-3.30546762249776
 20
63.69669448539407
 30
0.0
 11
-3.30546762249776
 21
78.4966944853933
 31
0.0
  0
LINE
  5
116
330
53
100
AcDbEntity
  8
1
  6
PHANTOM
 62
     2
100
AcDbLine
 10
-0.00000000000125
 20
-33.8662742207068
 30
0.0
 11
-0.00016028713924
 21
82.83876322756456
 31
0.0
  0
ARC
  5
117
330
53
100
AcDbEntity
  8
LC-002-002-RND-0
  6
Continuous
 62
     7
100
AcDbCircle
 10
-48.44873862249862
 20
63.49663248539417
 30
0.0
 40
14.99999999999969
100
AcDbArc
 50
90.00007899999213
 51
159.9999999999947
  0
ARC
  5
118
330
53
100
AcDbEntity
  8
LC-002-002-RND-0
  6
Continuous
 62
     7
100
AcDbCircle
 10
48.44847137750057
 20
63.49676548539554
 30
0.0
 40
14.99999999999948
100
AcDbArc
 50
20.00015699999175
 51
90.00007899999233
  0
ENDBLK
  5
55
330
53
100
AcDbEntity
  8
0
100
AcDbBlockEnd
  0
BLOCK
  5
57
330
56
100
AcDbEntity
  8
0
100
AcDbBlockBegin
  2
PVC_Manschette
 70
     0
 71
     0
 10
-1177.0
 20
-72.17514638699151
 30
0.0
  3
PVC_Manschette
  1

  0
LINE
  5
119
330
56
100
AcDbEntity
  8
1
  6
Continuous
 62
     7
100
AcDbLine
 10
0.00000000000006
 20
5.49694689687389
 30
0.0
 11
-174.9999999999998
 21
5.49694689687388
 31
0.0
  0
LINE
  5
11A
330
56
100
AcDbEntity
  8
1
  6
Continuous
 62
     7
100
AcDbLine
 10
-176.9999999999998
 20
2.99694689687389
 30
0.0
 11
-176.9999999999998
 21
3.49694689687388
 31
0.0
  0
LINE
  5
11B
330
56
100
AcDbEntity
  8
1
  6
Continuous
 62
     7
100
AcDbLine
 10
-176.9999999999998
 20
2.99694689687389
 30
0.0
 11
0.00000000000006
 21
2.99694689687389
 31
0.0
  0
LINE
  5
11C
330
56
100
AcDbEntity
  8
1
  6
Continuous
 62
     7
100
AcDbLine
 10
0.00000000000006
 20
2.99694689687389
 30
0.0
 11
176.9999999999999
 21
2.99694689687389
 31
0.0
  0
LINE
  5
11D
330
56
100
AcDbEntity
  8
1
  6
Continuous
 62
     7
100
AcDbLine
 10
176.9999999999999
 20
3.49694689687388
 30
0.0
 11
176.9999999999999
 21
2.99694689687389
 31
0.0
  0
LINE
  5
11E
330
56
100
AcDbEntity
  8
1
  6
Continuous
 62
     7
100
AcDbLine
 10
175.0
 20
5.49694689687388
 30
0.0
 11
0.00000000000006
 21
5.49694689687389
 31
0.0
  0
ARC
  5
11F
330
56
100
AcDbEntity
  8
1
  6
Continuous
 62
     7
100
AcDbCircle
 10
-174.9999999999998
 20
3.49694689687388
 30
0.0
 40
1.999999999999999
100
AcDbArc
 50
90.0
 51
180.0
  0
ARC
  5
120
330
56
100
AcDbEntity
  8
1
  6
Continuous
 62
     7
100
AcDbCircle
 10
175.0
 20
3.49694689687388
 30
0.0
 40
1.999999999999886
100
AcDbArc
 50
0.0
 51
90.0
  0
ENDBLK
  5
58
330
56
100
AcDbEntity
  8
0
100
AcDbBlockEnd
  0
BLOCK
  5
5A
330
59
100
AcDbEntity
  8
0
100
AcDbBlockBegin
  2
Außenansicht
 70
     0
 71
     0
 10
-29.52887217687594
 20
294.2094123499751
 30
0.0
  3
Außenansicht
  1

  0
POINT
  5
121
330
59
100
AcDbEntity
  8
LC-001-003-----0
 62
     7
100
AcDbPoint
 10
179.9999460000001
 20
-0.00354115579962
 30
0.0
  0
POINT
  5
122
330
59
100
AcDbEntity
  8
LC-001-003-----0
 62
     7
100
AcDbPoint
 10
187.0
 20
-100.003302003904
 30
0.0
  0
POINT
  5
123
330
59
100
AcDbEntity
  8
LC-001-003-----0
 62
     7
100
AcDbPoint
 10
180.0000000000001
 20
-0.00354115579962
 30
0.0
  0
POINT
  5
124
330
59
100
AcDbEntity
  8
LC-001-003-----0
 62
     7
100
AcDbPoint
 10
-179.9999999999997
 20
-0.00354115579962
 30
0.0
  0
POINT
  5
125
330
59
100
AcDbEntity
  8
LC-001-003-----0
 62
     7
100
AcDbPoint
 10
188.9999999999999
 20
-102.503302003904
 30
0.0
  0
POINT
  5
126
330
59
100
AcDbEntity
  8
LC-001-003-----0
 62
     7
100
AcDbPoint
 10
-188.9999999999997
 20
-102.503302003904
 30
0.0
  0
POINT
  5
127
330
59
100
AcDbEntity
  8
LC-001-003-----0
 62
     7
100
AcDbPoint
 10
85.50000000000007
 20
-268.001953003904
 30
0.0
  0
POINT
  5
128
330
59
100
AcDbEntity
  8
LC-001-003-----0
 62
     7
100
AcDbPoint
 10
-85.50007099999972
 20
-268.001953003904
 30
0.0
  0
POINT
  5
129
330
59
100
AcDbEntity
  8
LC-001-003-----0
 62
     7
100
AcDbPoint
 10
188.9999999999999
 20
-102.503302003904
 30
0.0
  0
POINT
  5
12A
330
59
100
AcDbEntity
  8
LC-001-003-----0
 62
     7
100
AcDbPoint
 10
77.50000000000007
 20
-273.0019530039039
 30
0.0
  0
POINT
  5
12B
330
59
100
AcDbEntity
  8
LC-001-003-----0
 62
     7
100
AcDbPoint
 10
142.0501750000002
 20
2.79240684420033
 30
0.0
  0
POINT
  5
12C
330
59
100
AcDbEntity
  8
LC-001-003-----0
 62
     7
100
AcDbPoint
 10
-142.0501739999997
 20
2.79240684420033
 30
0.0
  0
POINT
  5
12D
330
59
100
AcDbEntity
  8
LC-001-003-----0
 62
     7
100
AcDbPoint
 10
62.50000000000009
 20
-338.001182003904
 30
0.0
  0
POINT
  5
12E
330
59
100
AcDbEntity
  8
LC-001-003-----0
 62
     7
100
AcDbPoint
 10
-62.49999999999986
 20
-338.001182003904
 30
0.0
  0
LINE
  5
12F
330
59
100
AcDbEntity
  8
1
  6
PHANTOM
 62
     2
100
AcDbLine
 10
-0.00000000000011
 20
5.49774368596422
 30
0.0
 11
0.00000000000011
 21
-342.5011830039038
 31
0.0
  0
LINE
  5
130
330
59
100
AcDbEntity
  8
LC-005-002-----0
  6
Continuous
 62
     7
100
AcDbLine
 10
-62.49999999999986
 20
-338.001182003904
 30
0.0
 11
62.50000000000009
 21
-338.001182003904
 31
0.0
  0
LINE
  5
131
330
59
100
AcDbEntity
  8
LC-005-002-----0
  6
Continuous
 62
     7
100
AcDbLine
 10
0.00000000000011
 20
-0.0002761557998
 30
0.0
 11
-179.9999450000001
 21
-0.00354115579985
 31
0.0
  0
LINE
  5
132
330
59
100
AcDbEntity
  8
LC-005-002-----0
  6
Continuous
 62
     7
100
AcDbLine
 10
-179.9999999999997
 20
0.99649484420028
 30
0.0
 11
-179.9999999999997
 21
-0.00354115579962
 31
0.0
  0
LINE
  5
133
330
59
100
AcDbEntity
  8
LC-005-002-----0
  6
Continuous
 62
     7
100
AcDbLine
 10
0.00000000000011
 20
-0.0002761557998
 30
0.0
 11
179.9999460000001
 21
-0.00354115579962
 31
0.0
  0
LINE
  5
134
330
59
100
AcDbEntity
  8
LC-005-002-----0
  6
Continuous
 62
     7
100
AcDbLine
 10
180.0000000000001
 20
0.99649484420028
 30
0.0
 11
180.0000000000001
 21
-0.00354115579962
 31
0.0
  0
LINE
  5
135
330
59
100
AcDbEntity
  8
LC-005-002-----0
  6
Continuous
 62
     7
100
AcDbLine
 10
0.00000000000011
 20
2.9997238442002
 30
0.0
 11
178.0000369999997
 21
2.99649484420028
 31
0.0
  0
LINE
  5
136
330
59
100
AcDbEntity
  8
LC-005-002-----0
  6
Continuous
 62
     7
100
AcDbLine
 10
61.29422900000018
 20
-342.5011830039038
 30
0.0
 11
62.50000000000009
 21
-338.001182003904
 31
0.0
  0
LINE
  5
137
330
59
100
AcDbEntity
  8
LC-005-002-----0
  6
Continuous
 62
     7
100
AcDbLine
 10
62.50000000000009
 20
-277.5011810039039
 30
0.0
 11
62.50000000000009
 21
-338.001182003904
 31
0.0
  0
LINE
  5
138
330
59
100
AcDbEntity
  8
LC-005-002-----0
  6
Continuous
 62
     7
100
AcDbLine
 10
-188.9999999999997
 20
-102.003302003904
 30
0.0
 11
-188.9999999999997
 21
-102.503302003904
 31
0.0
  0
LINE
  5
139
330
59
100
AcDbEntity
  8
LC-005-002-----0
  6
Continuous
 62
     7
100
AcDbLine
 10
63.10000000000022
 20
-270.501953003904
 30
0.0
 11
63.00000000000008
 21
-270.501953003904
 31
0.0
  0
LINE
  5
13A
330
59
100
AcDbEntity
  8
LC-005-002-----0
  6
Continuous
 62
     7
100
AcDbLine
 10
83.65000000000016
 20
-268.001953003904
 30
0.0
 11
85.50000000000007
 21
-268.001953003904
 31
0.0
  0
LINE
  5
13B
330
59
100
AcDbEntity
  8
LC-005-002-----0
  6
Continuous
 62
     7
100
AcDbLine
 10
-62.99999999999986
 20
-270.501953003904
 30
0.0
 11
-63.09999999999977
 21
-270.501953003904
 31
0.0
  0
LINE
  5
13C
330
59
100
AcDbEntity
  8
LC-005-002-----0
  6
Continuous
 62
     7
100
AcDbLine
 10
-77.49999999999979
 20
-270.501953003904
 30
0.0
 11
-69.49999999999986
 21
-270.501953003904
 31
0.0
  0
LINE
  5
13D
330
59
100
AcDbEntity
  8
LC-005-002-----0
  6
Continuous
 62
     7
100
AcDbLine
 10
-77.49999999999979
 20
-270.501953003904
 30
0.0
 11
-82.9999999999998
 21
-270.501953003904
 31
0.0
  0
LINE
  5
13E
330
59
100
AcDbEntity
  8
LC-005-002-----0
  6
Continuous
 62
     7
100
AcDbLine
 10
77.50000000000007
 20
-270.501953003904
 30
0.0
 11
83.00000000000009
 21
-270.501953003904
 31
0.0
  0
LINE
  5
13F
330
59
100
AcDbEntity
  8
LC-005-002-----0
  6
Continuous
 62
     7
100
AcDbLine
 10
77.50000000000007
 20
-273.0019530039039
 30
0.0
 11
77.50000000000007
 21
-270.501953003904
 31
0.0
  0
LINE
  5
140
330
59
100
AcDbEntity
  8
LC-005-002-----0
  6
Continuous
 62
     7
100
AcDbLine
 10
69.50000000000009
 20
-273.0019530039039
 30
0.0
 11
77.50000000000007
 21
-273.0019530039039
 31
0.0
  0
LINE
  5
141
330
59
100
AcDbEntity
  8
LC-005-002-----0
  6
Continuous
 62
     7
100
AcDbLine
 10
69.50000000000009
 20
-270.501953003904
 30
0.0
 11
69.50000000000009
 21
-273.0019530039039
 31
0.0
  0
LINE
  5
142
330
59
100
AcDbEntity
  8
LC-005-002-----0
  6
Continuous
 62
     7
100
AcDbLine
 10
62.50074000000004
 20
-270.501953003904
 30
0.0
 11
69.50000000000009
 21
-270.501953003904
 31
0.0
  0
LINE
  5
143
330
59
100
AcDbEntity
  8
LC-005-002-----0
  6
Continuous
 62
     7
100
AcDbLine
 10
-69.49999999999986
 20
-270.501953003904
 30
0.0
 11
63.10000000000022
 21
-270.501953003904
 31
0.0
  0
LINE
  5
144
330
59
100
AcDbEntity
  8
LC-005-002-----0
  6
Continuous
 62
     7
100
AcDbLine
 10
-69.49999999999986
 20
-273.0019530039039
 30
0.0
 11
-69.49999999999986
 21
-270.501953003904
 31
0.0
  0
LINE
  5
145
330
59
100
AcDbEntity
  8
LC-005-002-----0
  6
Continuous
 62
     7
100
AcDbLine
 10
-77.49999999999979
 20
-273.0019530039039
 30
0.0
 11
-69.49999999999986
 21
-273.0019530039039
 31
0.0
  0
LINE
  5
146
330
59
100
AcDbEntity
  8
LC-005-002-----0
  6
Continuous
 62
     7
100
AcDbLine
 10
-77.49999999999979
 20
-270.501953003904
 30
0.0
 11
-77.49999999999979
 21
-273.0019530039039
 31
0.0
  0
LINE
  5
147
330
59
100
AcDbEntity
  8
LC-005-002-----0
  6
Continuous
 62
     7
100
AcDbLine
 10
69.50000000000009
 20
-270.501953003904
 30
0.0
 11
77.50000000000007
 21
-270.501953003904
 31
0.0
  0
LINE
  5
148
330
59
100
AcDbEntity
  8
LC-005-002-----0
  6
Continuous
 62
     7
100
AcDbLine
 10
85.49992900000014
 20
-268.001953003904
 30
0.0
 11
85.49992900000014
 21
-102.503302003904
 31
0.0
  0
LINE
  5
149
330
59
100
AcDbEntity
  8
LC-005-002-----0
  6
Continuous
 62
     7
100
AcDbLine
 10
-85.50007099999972
 20
-268.001953003904
 30
0.0
 11
-85.50293599999988
 21
-102.503302003904
 31
0.0
  0
LINE
  5
14A
330
59
100
AcDbEntity
  8
LC-005-002-----0
  6
Continuous
 62
     7
100
AcDbLine
 10
-85.50007099999972
 20
-268.001953003904
 30
0.0
 11
85.49992900000014
 21
-268.001953003904
 31
0.0
  0
LINE
  5
14B
330
59
100
AcDbEntity
  8
LC-005-002-----0
  6
Continuous
 62
     7
100
AcDbLine
 10
-188.9999999999997
 20
-102.503302003904
 30
0.0
 11
0.00000000000011
 21
-102.503302003904
 31
0.0
  0
LINE
  5
14C
330
59
100
AcDbEntity
  8
LC-005-002-----0
  6
Continuous
 62
     7
100
AcDbLine
 10
62.5000020000002
 20
-277.5011810039039
 30
0.0
 11
62.50067300000009
 21
-277.5011810039039
 31
0.0
  0
LINE
  5
14D
330
59
100
AcDbEntity
  8
LC-005-002-----0
  6
Continuous
 62
     7
100
AcDbLine
 10
62.50069400000016
 20
-277.5011810039039
 30
0.0
 11
62.50000000000009
 21
-277.5011810039039
 31
0.0
  0
LINE
  5
14E
330
59
100
AcDbEntity
  8
LC-005-002-----0
  6
Continuous
 62
     7
100
AcDbLine
 10
0.00000000000011
 20
-100.003302003904
 30
0.0
 11
-186.9999999999998
 21
-100.003302003904
 31
0.0
  0
LINE
  5
14F
330
59
100
AcDbEntity
  8
LC-005-002-----0
  6
Continuous
 62
     7
100
AcDbLine
 10
62.50074000000004
 20
-270.501948003904
 30
0.0
 11
62.50067300000009
 21
-277.5011810039039
 31
0.0
  0
LINE
  5
150
330
59
100
AcDbEntity
  8
LC-005-002-----0
  6
Continuous
 62
     7
100
AcDbLine
 10
142.0501750000002
 20
-0.00287215579961
 30
0.0
 11
142.0501750000002
 21
-84.503304003904
 31
0.0
  0
LINE
  5
151
330
59
100
AcDbEntity
  8
LC-005-002-----0
  6
Continuous
 62
     7
100
AcDbLine
 10
-62.49999999999986
 20
-277.5011810039039
 30
0.0
 11
-62.49999999999986
 21
-338.001182003904
 31
0.0
  0
LINE
  5
152
330
59
100
AcDbEntity
  8
LC-005-002-----0
  6
Continuous
 62
     7
100
AcDbLine
 10
-61.29422799999984
 20
-342.5011830039038
 30
0.0
 11
-62.49999999999986
 21
-338.001182003904
 31
0.0
  0
LINE
  5
153
330
59
100
AcDbEntity
  8
LC-005-002-----0
  6
Continuous
 62
     7
100
AcDbLine
 10
-61.29422799999984
 20
-342.5011830039038
 30
0.0
 11
61.29422900000018
 21
-342.5011830039038
 31
0.0
  0
LINE
  5
154
330
59
100
AcDbEntity
  8
LC-005-002-----0
  6
Continuous
 62
     7
100
AcDbLine
 10
142.0501750000002
 20
-84.503304003904
 30
0.0
 11
0.00000000000011
 21
-84.50356300390415
 31
0.0
  0
LINE
  5
155
330
59
100
AcDbEntity
  8
LC-005-002-----0
  6
Continuous
 62
     7
100
AcDbLine
 10
-62.50073999999981
 20
-270.501953003904
 30
0.0
 11
-62.50067199999975
 21
-277.5011810039039
 31
0.0
  0
LINE
  5
156
330
59
100
AcDbEntity
  8
LC-005-002-----0
  6
Continuous
 62
     7
100
AcDbLine
 10
-142.0501739999997
 20
-0.00287215579961
 30
0.0
 11
-142.0501739999997
 21
-84.503304003904
 31
0.0
  0
LINE
  5
157
330
59
100
AcDbEntity
  8
LC-005-002-----0
  6
Continuous
 62
     7
100
AcDbLine
 10
-142.0501739999997
 20
-84.503304003904
 30
0.0
 11
0.00000000000011
 21
-84.50356300390415
 31
0.0
  0
LINE
  5
158
330
59
100
AcDbEntity
  8
LC-005-002-----0
  6
Continuous
 62
     7
100
AcDbLine
 10
-137.5357029999998
 20
-84.5033130039041
 30
0.0
 11
-137.5357029999998
 21
-100.003302003904
 31
0.0
  0
LINE
  5
159
330
59
100
AcDbEntity
  8
LC-005-002-----0
  6
Continuous
 62
     7
100
AcDbLine
 10
0.00000000000011
 20
-100.003302003904
 30
0.0
 11
187.0
 21
-100.003302003904
 31
0.0
  0
LINE
  5
15A
330
59
100
AcDbEntity
  8
LC-005-002-----0
  6
Continuous
 62
     7
100
AcDbLine
 10
137.5357040000002
 20
-84.5033130039041
 30
0.0
 11
137.5357040000002
 21
-100.003302003904
 31
0.0
  0
LINE
  5
15B
330
59
100
AcDbEntity
  8
LC-005-002-----0
  6
Continuous
 62
     7
100
AcDbLine
 10
188.9999999999999
 20
-102.503302003904
 30
0.0
 11
0.00000000000011
 21
-102.503302003904
 31
0.0
  0
LINE
  5
15C
330
59
100
AcDbEntity
  8
LC-005-002-----0
  6
Continuous
 62
     7
100
AcDbLine
 10
188.9999999999999
 20
-102.003302003904
 30
0.0
 11
188.9999999999999
 21
-102.503302003904
 31
0.0
  0
LINE
  5
15D
330
59
100
AcDbEntity
  8
LC-005-002-----0
  6
Continuous
 62
     7
100
AcDbLine
 10
0.00000000000011
 20
2.9997238442002
 30
0.0
 11
-178.0000359999998
 21
2.99649484420028
 31
0.0
  0
ARC
  5
15E
330
59
100
AcDbEntity
  8
LC-004-002-RND-0
  6
Continuous
 62
     7
100
AcDbCircle
 10
-177.9999999999998
 20
0.99649484420028
 30
0.0
 40
1.999999999999912
100
AcDbArc
 50
90.00104700001033
 51
180.0
  0
ARC
  5
15F
330
59
100
AcDbEntity
  8
LC-004-002-RND-0
  6
Continuous
 62
     7
100
AcDbCircle
 10
178.0000000000001
 20
0.99649484420028
 30
0.0
 40
2.0
100
AcDbArc
 50
0.0
 51
89.99895299998968
  0
ARC
  5
160
330
59
100
AcDbEntity
  8
LC-004-002-RND-0
  6
Continuous
 62
     7
100
AcDbCircle
 10
-186.9999999999998
 20
-102.003302003904
 30
0.0
 40
2.0
100
AcDbArc
 50
90.0
 51
180.0
  0
ARC
  5
161
330
59
100
AcDbEntity
  8
LC-004-002-RND-0
  6
Continuous
 62
     7
100
AcDbCircle
 10
83.00000000000009
 20
-268.001953003904
 30
0.0
 40
2.5
100
AcDbArc
 50
-90.0
 51
0.0
  0
ARC
  5
162
330
59
100
AcDbEntity
  8
LC-004-002-RND-0
  6
Continuous
 62
     7
100
AcDbCircle
 10
-82.9999999999998
 20
-268.001953003904
 30
0.0
 40
2.500000000000043
100
AcDbArc
 50
180.0
 51
-90.0
  0
ARC
  5
163
330
59
100
AcDbEntity
  8
LC-004-002-RND-0
  6
Continuous
 62
     7
100
AcDbCircle
 10
187.0
 20
-102.003302003904
 30
0.0
 40
1.999999999999886
100
AcDbArc
 50
0.0
 51
90.0
  0
ENDBLK
  5
5B
330
59
100
AcDbEntity
  8
0
100
AcDbBlockEnd
  0
BLOCK
  5
5D
330
5C
100
AcDbEntity
  8
0
100
AcDbBlockBegin
  2
Körper
 70
     0
 71
     0
 10
-268.79612903409
 20
-427.176178667105
 30
0.0
  3
Körper
  1

  0
POINT
  5
164
330
5C
100
AcDbEntity
  8
0
 62
     7
100
AcDbPoint
 10
189.0000389659108
 20
-506.0233777496687
 30
0.0
  0
POINT
  5
165
330
5C
100
AcDbEntity
  8
0
 62
     7
100
AcDbPoint
 10
-188.9999610340892
 20
-506.0249697496693
 30
0.0
  0
POINT
  5
166
330
5C
100
AcDbEntity
  8
0
 62
     7
100
AcDbPoint
 10
-179.9995790340872
 20
-528.0237627496681
 30
0.0
  0
POINT
  5
167
330
5C
100
AcDbEntity
  8
LC-013-200-----0
 62
     7
100
AcDbPoint
 10
129.5004259659108
 20
-814.5237717496675
 30
0.0
  0
POINT
  5
168
330
5C
100
AcDbEntity
  8
LC-013-200-----0
 62
     7
100
AcDbPoint
 10
-129.4995740340892
 20
-814.5237717496675
 30
0.0
  0
POINT
  5
169
330
5C
100
AcDbEntity
  8
LC-013-200-----0
 62
     7
100
AcDbPoint
 10
129.5004259659108
 20
-555.5237627496681
 30
0.0
  0
POINT
  5
16A
330
5C
100
AcDbEntity
  8
LC-013-200-----0
 62
     7
100
AcDbPoint
 10
-129.4995740340892
 20
-555.5237667496694
 30
0.0
  0
LINE
  5
16B
330
5C
100
AcDbEntity
  8
1
  6
Continuous
 62
     7
100
AcDbLine
 10
-169.9988455835483
 20
-865.0237717496675
 30
0.0
 11
170.0004299659122
 21
-865.0237717496675
 31
0.0
  0
LINE
  5
16C
330
5C
100
AcDbEntity
  8
1
  6
Continuous
 62
     7
100
AcDbLine
 10
-169.9988455835483
 20
-505.0237627496681
 30
0.0
 11
71.64827996590975
 21
-505.0237627496681
 31
0.0
  0
LINE
  5
16D
330
5C
100
AcDbEntity
  8
1
  6
Continuous
 62
     7
100
AcDbLine
 10
-179.9988455835483
 20
-855.0237717496675
 30
0.0
 11
-179.9988455835483
 21
-515.0237627496681
 31
0.0
  0
LINE
  5
16E
330
5C
100
AcDbEntity
  8
1
  6
Continuous
 62
     7
100
AcDbLine
 10
180.0004299659122
 20
-515.0237627496681
 30
0.0
 11
180.0004299659122
 21
-855.0237717496675
 31
0.0
  0
LINE
  5
16F
330
5C
100
AcDbEntity
  8
LC-001-002-----0
  6
Continuous
 62
     7
100
AcDbLine
 10
170.0004299659122
 20
-505.0237627496681
 30
0.0
 11
71.64827996590975
 21
-505.0237627496681
 31
0.0
  0
LINE
  5
170
330
5C
100
AcDbEntity
  8
LC-010-006-MLN-0
  6
DASHDOT
 62
     2
100
AcDbLine
 10
-114.7495740340892
 20
-814.5237717496675
 30
0.0
 11
-144.2495740340892
 21
-814.5237717496675
 31
0.0
  0
LINE
  5
171
330
5C
100
AcDbEntity
  8
LC-001-002-----0
  6
DASHDOT
 62
     2
100
AcDbLine
 10
0.00042596591084
 20
-563.0237667496694
 30
0.0
 11
0.00042596591084
 21
-563.0237667496694
 31
0.0
  0
LINE
  5
172
330
5C
100
AcDbEntity
  8
LC-001-002-----0
  6
DASHDOT
 62
     3
100
AcDbLine
 10
0.00042596591084
 20
-807.0237667496694
 30
0.0
 11
0.00042596591084
 21
-807.0237667496694
 31
0.0
  0
LINE
  5
173
330
5C
100
AcDbEntity
  8
LC-010-006-MLN-0
  6
DASHDOT
 62
     2
100
AcDbLine
 10
129.5004299659122
 20
-828.0237757496689
 30
0.0
 11
129.5004299659122
 21
-801.0237667496694
 31
0.0
  0
LINE
  5
174
330
5C
100
AcDbEntity
  8
LC-010-006-MLN-0
  6
DASHDOT
 62
     2
100
AcDbLine
 10
143.0004339659099
 20
-814.5237717496675
 30
0.0
 11
116.0004259659108
 21
-814.5237717496675
 31
0.0
  0
LINE
  5
175
330
5C
100
AcDbEntity
  8
LC-010-006-MLN-0
  6
DASHDOT
 62
     2
100
AcDbLine
 10
-129.4995790340872
 20
-828.0237757496689
 30
0.0
 11
-129.4995790340872
 21
-801.0237667496694
 31
0.0
  0
LINE
  5
176
330
5C
100
AcDbEntity
  8
LC-010-006-MLN-0
  6
DASHDOT
 62
     2
100
AcDbLine
 10
129.5004299659122
 20
-542.0237587496704
 30
0.0
 11
129.5004299659122
 21
-569.0237667496694
 31
0.0
  0
LINE
  5
177
330
5C
100
AcDbEntity
  8
LC-010-006-MLN-0
  6
DASHDOT
 62
     2
100
AcDbLine
 10
143.0004339659099
 20
-555.5237627496681
 30
0.0
 11
116.0004259659108
 21
-555.5237627496681
 31
0.0
  0
LINE
  5
178
330
5C
100
AcDbEntity
  8
LC-010-006-MLN-0
  6
DASHDOT
 62
     2
100
AcDbLine
 10
-129.4995790340872
 20
-542.0237587496704
 30
0.0
 11
-129.4995790340872
 21
-569.0237667496694
 31
0.0
  0
LINE
  5
179
330
5C
100
AcDbEntity
  8
LC-010-006-MLN-0
  6
DASHDOT
 62
     2
100
AcDbLine
 10
-142.9995830340886
 20
-555.5237627496681
 30
0.0
 11
-115.9995740340892
 21
-555.5237627496681
 31
0.0
  0
LINE
  5
17A
330
5C
100
AcDbEntity
  8
1
  6
PHANTOM
 62
     2
100
AcDbLine
 10
0.0
 20
-488.0011820039035
 30
0.0
 11
0.00085278327606
 21
-882.4409916671066
 31
0.0
  0
LINE
  5
17B
330
5C
100
AcDbEntity
  8
1
  6
PHANTOM
 62
     2
100
AcDbLine
 10
-204.8234320736738
 20
-685.0250594126046
 30
0.0
 11
199.6979648082852
 21
-685.0233102530474
 31
0.0
  0
LINE
  5
17C
330
5C
100
AcDbEntity
  8
LC-001-002-----0
  6
Continuous
 62
     7
100
AcDbLine
 10
-39.9419860340895
 20
-686.1741737496704
 30
0.0
 11
-3.30548603408897
 21
-686.1741737496704
 31
0.0
  0
LINE
  5
17D
330
5C
100
AcDbEntity
  8
LC-001-002-----0
  6
Continuous
 62
     7
100
AcDbLine
 10
134.2504259659108
 20
-817.2661847496674
 30
0.0
 11
134.2504259659108
 21
-811.7813577496709
 31
0.0
  0
LINE
  5
17E
330
5C
100
AcDbEntity
  8
LC-001-002-----0
  6
Continuous
 62
     7
100
AcDbLine
 10
129.5004259659108
 20
-820.0085987496677
 30
0.0
 11
134.2504259659108
 21
-817.2661847496674
 31
0.0
  0
LINE
  5
17F
330
5C
100
AcDbEntity
  8
LC-001-002-----0
  6
Continuous
 62
     7
100
AcDbLine
 10
124.7504259659108
 20
-817.2661847496674
 30
0.0
 11
129.5004259659108
 21
-820.0085987496677
 31
0.0
  0
LINE
  5
180
330
5C
100
AcDbEntity
  8
LC-001-002-----0
  6
Continuous
 62
     7
100
AcDbLine
 10
124.7504259659108
 20
-811.7813577496709
 30
0.0
 11
124.7504259659108
 21
-817.2661847496674
 31
0.0
  0
LINE
  5
181
330
5C
100
AcDbEntity
  8
LC-001-002-----0
  6
Continuous
 62
     7
100
AcDbLine
 10
129.5004259659108
 20
-809.0389437496706
 30
0.0
 11
124.7504259659108
 21
-811.7813577496709
 31
0.0
  0
LINE
  5
182
330
5C
100
AcDbEntity
  8
LC-001-002-----0
  6
Continuous
 62
     7
100
AcDbLine
 10
134.2504259659108
 20
-811.7813577496709
 30
0.0
 11
129.5004259659108
 21
-809.0389437496706
 31
0.0
  0
LINE
  5
183
330
5C
100
AcDbEntity
  8
LC-001-002-----0
  6
Continuous
 62
     7
100
AcDbLine
 10
-124.7495740340892
 20
-817.2661847496674
 30
0.0
 11
-124.7495740340892
 21
-811.7813577496709
 31
0.0
  0
LINE
  5
184
330
5C
100
AcDbEntity
  8
LC-001-002-----0
  6
Continuous
 62
     7
100
AcDbLine
 10
-129.4995740340892
 20
-820.0085987496677
 30
0.0
 11
-124.7495740340892
 21
-817.2661847496674
 31
0.0
  0
LINE
  5
185
330
5C
100
AcDbEntity
  8
LC-001-002-----0
  6
Continuous
 62
     7
100
AcDbLine
 10
-134.2495740340892
 20
-817.2661847496674
 30
0.0
 11
-129.4995740340892
 21
-820.0085987496677
 31
0.0
  0
LINE
  5
186
330
5C
100
AcDbEntity
  8
LC-001-002-----0
  6
Continuous
 62
     7
100
AcDbLine
 10
-134.2495740340892
 20
-811.7813577496709
 30
0.0
 11
-134.2495740340892
 21
-817.2661847496674
 31
0.0
  0
LINE
  5
187
330
5C
100
AcDbEntity
  8
LC-001-002-----0
  6
Continuous
 62
     7
100
AcDbLine
 10
-129.4995740340892
 20
-809.0389437496706
 30
0.0
 11
-134.2495740340892
 21
-811.7813577496709
 31
0.0
  0
LINE
  5
188
330
5C
100
AcDbEntity
  8
LC-001-002-----0
  6
Continuous
 62
     7
100
AcDbLine
 10
-124.7495740340892
 20
-811.7813577496709
 30
0.0
 11
-129.4995740340892
 21
-809.0389437496706
 31
0.0
  0
LINE
  5
189
330
5C
100
AcDbEntity
  8
LC-001-002-----0
  6
Continuous
 62
     7
100
AcDbLine
 10
134.2504259659108
 20
-558.2661767496684
 30
0.0
 11
134.2504259659108
 21
-552.7813497496682
 31
0.0
  0
LINE
  5
18A
330
5C
100
AcDbEntity
  8
LC-001-002-----0
  6
Continuous
 62
     7
100
AcDbLine
 10
129.5004259659108
 20
-561.0085907496687
 30
0.0
 11
134.2504259659108
 21
-558.2661767496684
 31
0.0
  0
LINE
  5
18B
330
5C
100
AcDbEntity
  8
LC-001-002-----0
  6
Continuous
 62
     7
100
AcDbLine
 10
124.7504259659108
 20
-558.2661767496684
 30
0.0
 11
129.5004259659108
 21
-561.0085907496687
 31
0.0
  0
LINE
  5
18C
330
5C
100
AcDbEntity
  8
LC-001-002-----0
  6
Continuous
 62
     7
100
AcDbLine
 10
124.7504259659108
 20
-552.7813497496682
 30
0.0
 11
124.7504259659108
 21
-558.2661767496684
 31
0.0
  0
LINE
  5
18D
330
5C
100
AcDbEntity
  8
LC-001-002-----0
  6
Continuous
 62
     7
100
AcDbLine
 10
129.5004259659108
 20
-550.0389357496679
 30
0.0
 11
124.7504259659108
 21
-552.7813497496682
 31
0.0
  0
LINE
  5
18E
330
5C
100
AcDbEntity
  8
LC-001-002-----0
  6
Continuous
 62
     7
100
AcDbLine
 10
134.2504259659108
 20
-552.7813497496682
 30
0.0
 11
129.5004259659108
 21
-550.0389357496679
 31
0.0
  0
LINE
  5
18F
330
5C
100
AcDbEntity
  8
LC-001-002-----0
  6
Continuous
 62
     7
100
AcDbLine
 10
-124.7495740340892
 20
-558.2661807496697
 30
0.0
 11
-124.7495740340892
 21
-552.7813537496695
 31
0.0
  0
LINE
  5
190
330
5C
100
AcDbEntity
  8
LC-001-002-----0
  6
Continuous
 62
     7
100
AcDbLine
 10
-129.4995740340892
 20
-561.00859474967
 30
0.0
 11
-124.7495740340892
 21
-558.2661807496697
 31
0.0
  0
LINE
  5
191
330
5C
100
AcDbEntity
  8
LC-001-002-----0
  6
Continuous
 62
     7
100
AcDbLine
 10
-134.2495740340892
 20
-558.2661807496697
 30
0.0
 11
-129.4995740340892
 21
-561.00859474967
 31
0.0
  0
LINE
  5
192
330
5C
100
AcDbEntity
  8
LC-001-002-----0
  6
Continuous
 62
     7
100
AcDbLine
 10
-134.2495740340892
 20
-552.7813537496695
 30
0.0
 11
-134.2495740340892
 21
-558.2661807496697
 31
0.0
  0
LINE
  5
193
330
5C
100
AcDbEntity
  8
LC-001-002-----0
  6
Continuous
 62
     7
100
AcDbLine
 10
-129.4995740340892
 20
-550.0389397496692
 30
0.0
 11
-134.2495740340892
 21
-552.7813537496695
 31
0.0
  0
LINE
  5
194
330
5C
100
AcDbEntity
  8
LC-001-002-----0
  6
Continuous
 62
     7
100
AcDbLine
 10
-124.7495740340892
 20
-552.7813537496695
 30
0.0
 11
-129.4995740340892
 21
-550.0389397496692
 31
0.0
  0
LINE
  5
195
330
5C
100
AcDbEntity
  8
LC-001-002-----0
  6
Continuous
 62
     7
100
AcDbLine
 10
1.15019096591277
 20
-599.4318987496699
 30
0.0
 11
1.15019096591277
 21
-641.8394827496704
 31
0.0
  0
LINE
  5
196
330
5C
100
AcDbEntity
  8
LC-001-002-----0
  6
Continuous
 62
     7
100
AcDbLine
 10
-1.14980903409014
 20
-599.4318987496699
 30
0.0
 11
-1.14980903409014
 21
-641.8394827496704
 31
0.0
  0
LINE
  5
197
330
5C
100
AcDbEntity
  8
LC-001-002-----0
  6
Continuous
 62
     7
100
AcDbLine
 10
11.80019096591059
 20
-759.0904897496694
 30
0.0
 11
11.80019096591059
 21
-757.0641627496698
 31
0.0
  0
LINE
  5
198
330
5C
100
AcDbEntity
  8
LC-001-002-----0
  6
Continuous
 62
     7
100
AcDbLine
 10
-11.79980903408796
 20
-759.0904147496694
 30
0.0
 11
-11.79980903408796
 21
-757.0641627496698
 31
0.0
  0
LINE
  5
199
330
5C
100
AcDbEntity
  8
LC-001-002-----0
  6
Continuous
 62
     7
100
AcDbLine
 10
74.06670396590926
 20
-673.2241737496697
 30
0.0
 11
72.0401799659121
 21
-673.2241737496697
 31
0.0
  0
LINE
  5
19A
330
5C
100
AcDbEntity
  8
LC-001-002-----0
  6
Continuous
 62
     7
100
AcDbLine
 10
74.06670396590926
 20
-696.8241737496683
 30
0.0
 11
72.0401799659121
 21
-696.8241737496683
 31
0.0
  0
LINE
  5
19B
330
5C
100
AcDbEntity
  8
LC-001-002-----0
  6
Continuous
 62
     7
100
AcDbLine
 10
-11.79980903408796
 20
-610.9579327496685
 30
0.0
 11
-11.79980903408796
 21
-612.9841847496682
 31
0.0
  0
LINE
  5
19C
330
5C
100
AcDbEntity
  8
LC-001-002-----0
  6
Continuous
 62
     7
100
AcDbLine
 10
11.80019096591059
 20
-610.9578577496686
 30
0.0
 11
11.80019096591059
 21
-612.9841847496682
 31
0.0
  0
LINE
  5
19D
330
5C
100
AcDbEntity
  8
LC-001-002-----0
  6
Continuous
 62
     7
100
AcDbLine
 10
-74.06585303408792
 20
-696.8241737496683
 30
0.0
 11
-72.03979803408947
 21
-696.8241737496683
 31
0.0
  0
LINE
  5
19E
330
5C
100
AcDbEntity
  8
LC-001-002-----0
  6
Continuous
 62
     7
100
AcDbLine
 10
-74.06585303408792
 20
-673.2241737496697
 30
0.0
 11
-72.03979803408947
 21
-673.2241737496697
 31
0.0
  0
LINE
  5
19F
330
5C
100
AcDbEntity
  8
LC-001-002-----0
  6
Continuous
 62
     7
100
AcDbLine
 10
1.15019096591277
 20
-693.0080427496687
 30
0.0
 11
1.15019096591277
 21
-688.3298507496693
 31
0.0
  0
LINE
  5
1A0
330
5C
100
AcDbEntity
  8
LC-001-002-----0
  6
Continuous
 62
     7
100
AcDbLine
 10
-1.14980903409014
 20
-693.0080427496687
 30
0.0
 11
-1.14980903409014
 21
-688.3298507496693
 31
0.0
  0
LINE
  5
1A1
330
5C
100
AcDbEntity
  8
LC-001-002-----0
  6
Continuous
 62
     7
100
AcDbLine
 10
1.20019096591204
 20
-693.0080427496687
 30
0.0
 11
1.15019096591277
 21
-693.0080427496687
 31
0.0
  0
LINE
  5
1A2
330
5C
100
AcDbEntity
  8
LC-001-002-----0
  6
Continuous
 62
     7
100
AcDbLine
 10
-1.19980903408941
 20
-693.0080427496687
 30
0.0
 11
-1.14980903409014
 21
-693.0080427496687
 31
0.0
  0
LINE
  5
1A3
330
5C
100
AcDbEntity
  8
LC-001-002-----0
  6
Continuous
 62
     7
100
AcDbLine
 10
1.15019096591277
 20
-719.0080427496687
 30
0.0
 11
1.20019096591204
 21
-719.0080427496687
 31
0.0
  0
LINE
  5
1A4
330
5C
100
AcDbEntity
  8
LC-001-002-----0
  6
Continuous
 62
     7
100
AcDbLine
 10
-2.19980903408941
 20
-694.0080427496687
 30
0.0
 11
-2.19980903408941
 21
-718.0080427496687
 31
0.0
  0
LINE
  5
1A5
330
5C
100
AcDbEntity
  8
LC-001-002-----0
  6
Continuous
 62
     7
100
AcDbLine
 10
-1.19980903408941
 20
-719.0080427496687
 30
0.0
 11
-1.14980903409014
 21
-719.0080427496687
 31
0.0
  0
LINE
  5
1A6
330
5C
100
AcDbEntity
  8
LC-001-002-----0
  6
Continuous
 62
     7
100
AcDbLine
 10
2.20019096591204
 20
-694.0080427496687
 30
0.0
 11
2.20019096591204
 21
-718.0080427496687
 31
0.0
  0
LINE
  5
1A7
330
5C
100
AcDbEntity
  8
LC-001-002-----0
  6
Continuous
 62
     7
100
AcDbLine
 10
1.15019096591277
 20
-644.8384127496684
 30
0.0
 11
1.15019096591277
 21
-651.0403047496693
 31
0.0
  0
LINE
  5
1A8
330
5C
100
AcDbEntity
  8
LC-001-002-----0
  6
Continuous
 62
     7
100
AcDbLine
 10
-1.14980903409014
 20
-677.0403047496693
 30
0.0
 11
-1.14980903409014
 21
-681.7184967496687
 31
0.0
  0
LINE
  5
1A9
330
5C
100
AcDbEntity
  8
LC-001-002-----0
  6
Continuous
 62
     7
100
AcDbLine
 10
1.20019096591204
 20
-677.0403047496693
 30
0.0
 11
1.15019096591277
 21
-677.0403047496693
 31
0.0
  0
LINE
  5
1AA
330
5C
100
AcDbEntity
  8
LC-001-002-----0
  6
Continuous
 62
     7
100
AcDbLine
 10
-1.19980903408941
 20
-677.0403047496693
 30
0.0
 11
-1.14980903409014
 21
-677.0403047496693
 31
0.0
  0
LINE
  5
1AB
330
5C
100
AcDbEntity
  8
LC-001-002-----0
  6
Continuous
 62
     7
100
AcDbLine
 10
1.15019096591277
 20
-651.0403047496693
 30
0.0
 11
1.20019096591204
 21
-651.0403047496693
 31
0.0
  0
LINE
  5
1AC
330
5C
100
AcDbEntity
  8
LC-001-002-----0
  6
Continuous
 62
     7
100
AcDbLine
 10
-2.19980903408941
 20
-676.0403047496693
 30
0.0
 11
-2.19980903408941
 21
-652.0403047496693
 31
0.0
  0
LINE
  5
1AD
330
5C
100
AcDbEntity
  8
LC-001-002-----0
  6
Continuous
 62
     7
100
AcDbLine
 10
-1.19980903408941
 20
-651.0403047496693
 30
0.0
 11
-1.14980903409014
 21
-651.0403047496693
 31
0.0
  0
LINE
  5
1AE
330
5C
100
AcDbEntity
  8
LC-001-002-----0
  6
Continuous
 62
     7
100
AcDbLine
 10
2.20019096591204
 20
-676.0403047496693
 30
0.0
 11
2.20019096591204
 21
-652.0403047496693
 31
0.0
  0
LINE
  5
1AF
330
5C
100
AcDbEntity
  8
LC-001-002-----0
  6
Continuous
 62
     7
100
AcDbLine
 10
1.15019096591277
 20
-724.9663507496698
 30
0.0
 11
1.15019096591277
 21
-719.0080427496687
 31
0.0
  0
LINE
  5
1B0
330
5C
100
AcDbEntity
  8
LC-001-002-----0
  6
Continuous
 62
     7
100
AcDbLine
 10
-1.14980903409014
 20
-724.9663507496698
 30
0.0
 11
-1.14980903409014
 21
-719.0080427496687
 31
0.0
  0
LINE
  5
1B1
330
5C
100
AcDbEntity
  8
LC-001-002-----0
  6
Continuous
 62
     7
100
AcDbLine
 10
29.0567479659112
 20
-712.454384749668
 30
0.0
 11
3.15082996591082
 21
-686.5484677496679
 31
0.0
  0
LINE
  5
1B2
330
5C
100
AcDbEntity
  8
LC-001-002-----0
  6
Continuous
 62
     7
100
AcDbLine
 10
27.43040196591028
 20
-714.0807307496689
 30
0.0
 11
1.52448496591023
 21
-688.1748127496685
 31
0.0
  0
LINE
  5
1B3
330
5C
100
AcDbEntity
  8
LC-001-002-----0
  6
Continuous
 62
     7
100
AcDbLine
 10
-27.43002103408799
 20
-714.0807307496689
 30
0.0
 11
-1.5241030340876
 21
-688.1748127496685
 31
0.0
  0
LINE
  5
1B4
330
5C
100
AcDbEntity
  8
LC-001-002-----0
  6
Continuous
 62
     7
100
AcDbLine
 10
-29.05636603408857
 20
-712.454384749668
 30
0.0
 11
-3.15044803408819
 21
-686.5484677496679
 31
0.0
  0
LINE
  5
1B5
330
5C
100
AcDbEntity
  8
LC-001-002-----0
  6
Continuous
 62
     7
100
AcDbLine
 10
73.55027496590992
 20
-728.8162407496675
 30
0.0
 11
36.82422996591049
 21
-707.6124477496705
 31
0.0
  0
LINE
  5
1B6
330
5C
100
AcDbEntity
  8
LC-001-002-----0
  6
Continuous
 62
     7
100
AcDbLine
 10
74.70027496591138
 20
-726.8243817496696
 30
0.0
 11
37.97422996591195
 21
-705.6205897496693
 31
0.0
  0
LINE
  5
1B7
330
5C
100
AcDbEntity
  8
LC-001-002-----0
  6
Continuous
 62
     7
100
AcDbLine
 10
82.37833796591076
 20
-708.2878987496697
 30
0.0
 11
41.41575696591099
 21
-697.3120087496682
 31
0.0
  0
LINE
  5
1B8
330
5C
100
AcDbEntity
  8
LC-001-002-----0
  6
Continuous
 62
     7
100
AcDbLine
 10
82.97362196590984
 20
-706.06626974967
 30
0.0
 11
42.01104096591007
 21
-695.0903797496685
 31
0.0
  0
LINE
  5
1B9
330
5C
100
AcDbEntity
  8
LC-001-002-----0
  6
Continuous
 62
     7
100
AcDbLine
 10
61.33624196590972
 20
-744.7338787496701
 30
0.0
 11
31.34955096591148
 21
-714.7471887496686
 31
0.0
  0
LINE
  5
1BA
330
5C
100
AcDbEntity
  8
LC-001-002-----0
  6
Continuous
 62
     7
100
AcDbLine
 10
59.70989596591244
 20
-746.360224749671
 30
0.0
 11
29.72320596591089
 21
-716.3735337496691
 31
0.0
  0
LINE
  5
1BB
330
5C
100
AcDbEntity
  8
LC-001-002-----0
  6
Continuous
 62
     7
100
AcDbLine
 10
43.79225696590947
 20
-758.5742577496676
 30
0.0
 11
22.58846496591286
 21
-721.8482127496682
 31
0.0
  0
LINE
  5
1BC
330
5C
100
AcDbEntity
  8
LC-001-002-----0
  6
Continuous
 62
     7
100
AcDbLine
 10
41.80039896591188
 20
-759.724257749669
 30
0.0
 11
20.59660696591163
 21
-722.9982127496696
 31
0.0
  0
LINE
  5
1BD
330
5C
100
AcDbEntity
  8
LC-001-002-----0
  6
Continuous
 62
     7
100
AcDbLine
 10
21.04228696591235
 20
-767.9976047496712
 30
0.0
 11
10.06639696591083
 21
-727.0350237496677
 31
0.0
  0
LINE
  5
1BE
330
5C
100
AcDbEntity
  8
LC-001-002-----0
  6
Continuous
 62
     7
100
AcDbLine
 10
23.26391596591202
 20
-767.4023207496684
 30
0.0
 11
12.28802596591049
 21
-726.4397397496687
 31
0.0
  0
LINE
  5
1BF
330
5C
100
AcDbEntity
  8
LC-001-002-----0
  6
Continuous
 62
     7
100
AcDbLine
 10
-1.14980903409014
 20
-770.616448749668
 30
0.0
 11
-1.14980903409014
 21
-728.2088647496676
 31
0.0
  0
LINE
  5
1C0
330
5C
100
AcDbEntity
  8
LC-001-002-----0
  6
Continuous
 62
     7
100
AcDbLine
 10
1.15019096591277
 20
-770.616448749668
 30
0.0
 11
1.15019096591277
 21
-728.2088647496676
 31
0.0
  0
LINE
  5
1C1
330
5C
100
AcDbEntity
  8
LC-001-002-----0
  6
Continuous
 62
     7
100
AcDbLine
 10
-21.04190503408972
 20
-767.9976047496712
 30
0.0
 11
-10.0660150340882
 21
-727.0350237496677
 31
0.0
  0
LINE
  5
1C2
330
5C
100
AcDbEntity
  8
LC-001-002-----0
  6
Continuous
 62
     7
100
AcDbLine
 10
-23.26353503408973
 20
-767.4023207496684
 30
0.0
 11
-12.28764403408786
 21
-726.4397397496687
 31
0.0
  0
LINE
  5
1C3
330
5C
100
AcDbEntity
  8
LC-001-002-----0
  6
Continuous
 62
     7
100
AcDbLine
 10
-41.80001703408925
 20
-759.724257749669
 30
0.0
 11
-20.596225034089
 21
-722.9982127496696
 31
0.0
  0
LINE
  5
1C4
330
5C
100
AcDbEntity
  8
LC-001-002-----0
  6
Continuous
 62
     7
100
AcDbLine
 10
-43.79187603408718
 20
-758.5742577496676
 30
0.0
 11
-22.58808403409057
 21
-721.8482127496682
 31
0.0
  0
LINE
  5
1C5
330
5C
100
AcDbEntity
  8
LC-001-002-----0
  6
Continuous
 62
     7
100
AcDbLine
 10
-59.70951403408981
 20
-746.360224749671
 30
0.0
 11
-29.72282403408826
 21
-716.3735337496691
 31
0.0
  0
LINE
  5
1C6
330
5C
100
AcDbEntity
  8
LC-001-002-----0
  6
Continuous
 62
     7
100
AcDbLine
 10
-61.33586003408709
 20
-744.7338787496701
 30
0.0
 11
-31.34916903408885
 21
-714.7471887496686
 31
0.0
  0
LINE
  5
1C7
330
5C
100
AcDbEntity
  8
LC-001-002-----0
  6
Continuous
 62
     7
100
AcDbLine
 10
-73.54989303408729
 20
-728.8162407496675
 30
0.0
 11
-36.82384803408786
 21
-707.6124477496705
 31
0.0
  0
LINE
  5
1C8
330
5C
100
AcDbEntity
  8
LC-001-002-----0
  6
Continuous
 62
     7
100
AcDbLine
 10
-82.37795603408813
 20
-708.2878987496697
 30
0.0
 11
-41.41537503408836
 21
-697.3120087496682
 31
0.0
  0
LINE
  5
1C9
330
5C
100
AcDbEntity
  8
LC-001-002-----0
  6
Continuous
 62
     7
100
AcDbLine
 10
-82.97324003408721
 20
-706.06626974967
 30
0.0
 11
-42.01065903408744
 21
-695.0903797496685
 31
0.0
  0
LINE
  5
1CA
330
5C
100
AcDbEntity
  8
LC-001-002-----0
  6
Continuous
 62
     7
100
AcDbLine
 10
85.59246596591038
 20
-686.1741737496704
 30
0.0
 11
43.18488096590954
 21
-686.1741737496704
 31
0.0
  0
LINE
  5
1CB
330
5C
100
AcDbEntity
  8
LC-001-002-----0
  6
Continuous
 62
     7
100
AcDbLine
 10
85.59246596591038
 20
-683.8741737496675
 30
0.0
 11
43.18488096590954
 21
-683.8741737496675
 31
0.0
  0
LINE
  5
1CC
330
5C
100
AcDbEntity
  8
LC-001-002-----0
  6
Continuous
 62
     7
100
AcDbLine
 10
82.97362196590984
 20
-663.982077749668
 30
0.0
 11
42.01104096591007
 21
-674.9579677496695
 31
0.0
  0
LINE
  5
1CD
330
5C
100
AcDbEntity
  8
LC-001-002-----0
  6
Continuous
 62
     7
100
AcDbLine
 10
82.37833796591076
 20
-661.760447749668
 30
0.0
 11
41.41575696591099
 21
-672.7363387496698
 31
0.0
  0
LINE
  5
1CE
330
5C
100
AcDbEntity
  8
LC-001-002-----0
  6
Continuous
 62
     7
100
AcDbLine
 10
73.55027496590992
 20
-641.2321067496705
 30
0.0
 11
36.82422996591049
 21
-662.4358987496707
 31
0.0
  0
LINE
  5
1CF
330
5C
100
AcDbEntity
  8
LC-001-002-----0
  6
Continuous
 62
     7
100
AcDbLine
 10
74.70027496591138
 20
-643.2239657496684
 30
0.0
 11
37.97422996591195
 21
-664.4277577496687
 31
0.0
  0
LINE
  5
1D0
330
5C
100
AcDbEntity
  8
LC-001-002-----0
  6
Continuous
 62
     7
100
AcDbLine
 10
61.33624196590972
 20
-625.3144687496679
 30
0.0
 11
31.34955096591148
 21
-655.3011587496694
 31
0.0
  0
LINE
  5
1D1
330
5C
100
AcDbEntity
  8
LC-001-002-----0
  6
Continuous
 62
     7
100
AcDbLine
 10
59.70989596591244
 20
-623.6881227496706
 30
0.0
 11
29.72320596591089
 21
-653.6748137496688
 31
0.0
  0
LINE
  5
1D2
330
5C
100
AcDbEntity
  8
LC-001-002-----0
  6
Continuous
 62
     7
100
AcDbLine
 10
43.79225696590947
 20
-611.4740897496704
 30
0.0
 11
22.58846496591286
 21
-648.2001347496698
 31
0.0
  0
LINE
  5
1D3
330
5C
100
AcDbEntity
  8
LC-001-002-----0
  6
Continuous
 62
     7
100
AcDbLine
 10
41.80039896591188
 20
-610.3240897496689
 30
0.0
 11
20.59660696591163
 21
-647.0501347496684
 31
0.0
  0
LINE
  5
1D4
330
5C
100
AcDbEntity
  8
LC-001-002-----0
  6
Continuous
 62
     7
100
AcDbLine
 10
23.26391596591202
 20
-602.6460267496695
 30
0.0
 11
12.28802596591049
 21
-643.6086077496693
 31
0.0
  0
LINE
  5
1D5
330
5C
100
AcDbEntity
  8
LC-001-002-----0
  6
Continuous
 62
     7
100
AcDbLine
 10
21.04228696591235
 20
-602.0507427496705
 30
0.0
 11
10.06639696591083
 21
-643.0133237496702
 31
0.0
  0
LINE
  5
1D6
330
5C
100
AcDbEntity
  8
LC-001-002-----0
  6
Continuous
 62
     7
100
AcDbLine
 10
39.94236796591213
 20
-683.8741737496675
 30
0.0
 11
3.3058679659116
 21
-683.8741737496675
 31
0.0
  0
LINE
  5
1D7
330
5C
100
AcDbEntity
  8
LC-001-002-----0
  6
Continuous
 62
     7
100
AcDbLine
 10
39.94236796591213
 20
-686.1741737496704
 30
0.0
 11
3.3058679659116
 21
-686.1741737496704
 31
0.0
  0
LINE
  5
1D8
330
5C
100
AcDbEntity
  8
LC-001-002-----0
  6
Continuous
 62
     7
100
AcDbLine
 10
-74.69989303408875
 20
-726.8243817496696
 30
0.0
 11
-37.97384803408932
 21
-705.6205897496693
 31
0.0
  0
LINE
  5
1D9
330
5C
100
AcDbEntity
  8
LC-001-002-----0
  6
Continuous
 62
     7
100
AcDbLine
 10
27.43040196591028
 20
-655.9676167496691
 30
0.0
 11
1.52448496591023
 21
-681.8735347496695
 31
0.0
  0
LINE
  5
1DA
330
5C
100
AcDbEntity
  8
LC-001-002-----0
  6
Continuous
 62
     7
100
AcDbLine
 10
29.0567479659112
 20
-657.59396274967
 30
0.0
 11
3.15082996591082
 21
-683.4998797496701
 31
0.0
  0
LINE
  5
1DB
330
5C
100
AcDbEntity
  8
LC-001-002-----0
  6
Continuous
 62
     7
100
AcDbLine
 10
-1.14980903409014
 20
-644.8384127496684
 30
0.0
 11
-1.14980903409014
 21
-651.0403047496693
 31
0.0
  0
LINE
  5
1DC
330
5C
100
AcDbEntity
  8
LC-001-002-----0
  6
Continuous
 62
     7
100
AcDbLine
 10
1.15019096591277
 20
-677.0403047496693
 30
0.0
 11
1.15019096591277
 21
-681.7184967496687
 31
0.0
  0
LINE
  5
1DD
330
5C
100
AcDbEntity
  8
LC-001-002-----0
  6
Continuous
 62
     7
100
AcDbLine
 10
-29.05636603408857
 20
-657.59396274967
 30
0.0
 11
-3.15044803408819
 21
-683.4998797496701
 31
0.0
  0
LINE
  5
1DE
330
5C
100
AcDbEntity
  8
LC-001-002-----0
  6
Continuous
 62
     7
100
AcDbLine
 10
-27.43002103408799
 20
-655.9676167496691
 30
0.0
 11
-1.5241030340876
 21
-681.8735347496695
 31
0.0
  0
LINE
  5
1DF
330
5C
100
AcDbEntity
  8
LC-001-002-----0
  6
Continuous
 62
     7
100
AcDbLine
 10
-21.04190503408972
 20
-602.0507427496705
 30
0.0
 11
-10.0660150340882
 21
-643.0133237496702
 31
0.0
  0
LINE
  5
1E0
330
5C
100
AcDbEntity
  8
LC-001-002-----0
  6
Continuous
 62
     7
100
AcDbLine
 10
-23.26353503408973
 20
-602.6460267496695
 30
0.0
 11
-12.28764403408786
 21
-643.6086077496693
 31
0.0
  0
LINE
  5
1E1
330
5C
100
AcDbEntity
  8
LC-001-002-----0
  6
Continuous
 62
     7
100
AcDbLine
 10
-43.79187603408718
 20
-611.4740897496704
 30
0.0
 11
-22.58808403409057
 21
-648.2001347496698
 31
0.0
  0
LINE
  5
1E2
330
5C
100
AcDbEntity
  8
LC-001-002-----0
  6
Continuous
 62
     7
100
AcDbLine
 10
-41.80001703408925
 20
-610.3240897496689
 30
0.0
 11
-20.596225034089
 21
-647.0501347496684
 31
0.0
  0
LINE
  5
1E3
330
5C
100
AcDbEntity
  8
LC-001-002-----0
  6
Continuous
 62
     7
100
AcDbLine
 10
-61.33586003408709
 20
-625.3144687496679
 30
0.0
 11
-31.34916903408885
 21
-655.3011587496694
 31
0.0
  0
LINE
  5
1E4
330
5C
100
AcDbEntity
  8
LC-001-002-----0
  6
Continuous
 62
     7
100
AcDbLine
 10
-59.70951403408981
 20
-623.6881227496706
 30
0.0
 11
-29.72282403408826
 21
-653.6748137496688
 31
0.0
  0
LINE
  5
1E5
330
5C
100
AcDbEntity
  8
LC-001-002-----0
  6
Continuous
 62
     7
100
AcDbLine
 10
-73.54989303408729
 20
-641.2321067496705
 30
0.0
 11
-36.82384803408786
 21
-662.4358987496707
 31
0.0
  0
LINE
  5
1E6
330
5C
100
AcDbEntity
  8
LC-001-002-----0
  6
Continuous
 62
     7
100
AcDbLine
 10
-74.69989303408875
 20
-643.2239657496684
 30
0.0
 11
-37.97384803408932
 21
-664.4277577496687
 31
0.0
  0
LINE
  5
1E7
330
5C
100
AcDbEntity
  8
LC-001-002-----0
  6
Continuous
 62
     7
100
AcDbLine
 10
-82.97324003408721
 20
-663.982077749668
 30
0.0
 11
-42.01065903408744
 21
-674.9579677496695
 31
0.0
  0
LINE
  5
1E8
330
5C
100
AcDbEntity
  8
LC-001-002-----0
  6
Continuous
 62
     7
100
AcDbLine
 10
-82.37795603408813
 20
-661.760447749668
 30
0.0
 11
-41.41537503408836
 21
-672.7363387496698
 31
0.0
  0
LINE
  5
1E9
330
5C
100
AcDbEntity
  8
LC-001-002-----0
  6
Continuous
 62
     7
100
AcDbLine
 10
-39.9419860340895
 20
-683.8741737496675
 30
0.0
 11
-3.30548603408897
 21
-683.8741737496675
 31
0.0
  0
LINE
  5
1EA
330
5C
100
AcDbEntity
  8
LC-001-002-----0
  6
Continuous
 62
     7
100
AcDbLine
 10
-63.36283103409005
 20
-686.1741737496704
 30
0.0
 11
-43.18450003408725
 21
-686.1741737496704
 31
0.0
  0
LINE
  5
1EB
330
5C
100
AcDbEntity
  8
LC-001-002-----0
  6
Continuous
 62
     7
100
AcDbLine
 10
-85.59208403408775
 20
-686.1741737496704
 30
0.0
 11
-43.18450003408725
 21
-686.1741737496704
 31
0.0
  0
LINE
  5
1EC
330
5C
100
AcDbEntity
  8
LC-001-002-----0
  6
Continuous
 62
     7
100
AcDbLine
 10
-85.59208403408775
 20
-683.8741737496675
 30
0.0
 11
-43.18450003408725
 21
-683.8741737496675
 31
0.0
  0
LINE
  5
1ED
330
5C
100
AcDbEntity
  8
LC-001-002-----0
  6
Continuous
 62
     7
100
AcDbLine
 10
-188.9999610340892
 20
-506.0249697496693
 30
0.0
 11
-188.9991870340891
 21
-864.0249697496693
 31
0.0
  0
LINE
  5
1EE
330
5C
100
AcDbEntity
  8
LC-001-002-----0
  6
Continuous
 62
     7
100
AcDbLine
 10
-179.0000050340896
 20
-496.0249477496691
 30
0.0
 11
178.9999949659105
 21
-496.0233997496689
 31
0.0
  0
LINE
  5
1EF
330
5C
100
AcDbEntity
  8
LC-007-007-KH--0
  6
DASHDOT
 62
     7
100
AcDbLine
 10
0.0002219659109
 20
-597.5249757496676
 30
0.0
 11
0.0002219659109
 21
-597.5249757496676
 31
0.0
  0
LINE
  5
1F0
330
5C
100
AcDbEntity
  8
LC-001-002-----0
  6
Continuous
 62
     7
100
AcDbLine
 10
189.0000389659108
 20
-506.0233777496687
 30
0.0
 11
189.0008129659109
 21
-864.0233777496687
 31
0.0
  0
LINE
  5
1F1
330
5C
100
AcDbEntity
  8
LC-001-002-----0
  6
Continuous
 62
     7
100
AcDbLine
 10
-178.9991440340891
 20
-874.0249477496691
 30
0.0
 11
179.0008559659109
 21
-874.0233997496689
 31
0.0
  0
LINE
  5
1F2
330
5C
100
AcDbEntity
  8
LC-007-007-KH--0
  6
DASHDOT
 62
     7
100
AcDbLine
 10
0.00038796591252
 20
-772.5222427496701
 30
0.0
 11
0.00038796591252
 21
-772.5222427496701
 31
0.0
  0
ARC
  5
1F3
330
5C
100
AcDbEntity
  8
LC-002-002-RND-0
  6
Continuous
 62
     7
100
AcDbCircle
 10
-169.9988455835483
 20
-515.0237627496681
 30
0.0
 40
10.0
100
AcDbArc
 50
90.0
 51
180.0
  0
ARC
  5
1F4
330
5C
100
AcDbEntity
  8
LC-002-002-RND-0
  6
Continuous
 62
     7
100
AcDbCircle
 10
-169.9988455835483
 20
-855.0237717496675
 30
0.0
 40
10.0
100
AcDbArc
 50
180.0
 51
-90.0
  0
ARC
  5
1F5
330
5C
100
AcDbEntity
  8
LC-002-002-RND-0
  6
Continuous
 62
     7
100
AcDbCircle
 10
170.0004299659122
 20
-855.0237717496675
 30
0.0
 40
10.0
100
AcDbArc
 50
-90.0
 51
0.0
  0
ARC
  5
1F6
330
5C
100
AcDbEntity
  8
LC-002-002-RND-0
  6
Continuous
 62
     7
100
AcDbCircle
 10
170.0004299659122
 20
-515.0237627496681
 30
0.0
 40
10.0
100
AcDbArc
 50
0.0
 51
90.0
  0
ARC
  5
1F7
330
5C
100
AcDbEntity
  8
LC-002-002-RND-0
  6
Continuous
 62
     7
100
AcDbCircle
 10
170.0004299659122
 20
-515.0237627496681
 30
0.0
 40
10.0
100
AcDbArc
 50
0.0
 51
90.0
  0
ARC
  5
1F8
330
5C
100
AcDbEntity
  8
LC-001-002-----0
  6
Continuous
 62
     7
100
AcDbCircle
 10
0.0002219659109
 20
-685.0249757496676
 30
0.0
 40
85.59999999999737
100
AcDbArc
 50
149.2302320000013
 51
150.769768000001
  0
ARC
  5
1F9
330
5C
100
AcDbEntity
  8
LC-001-002-----0
  6
Continuous
 62
     7
100
AcDbCircle
 10
129.5004259659108
 20
-814.5237717496675
 30
0.0
 40
8.000000000000263
100
AcDbArc
 50
174.0618800000003
 51
95.9387429999759
  0
ARC
  5
1FA
330
5C
100
AcDbEntity
  8
LC-001-002-----0
  6
Continuous
 62
     7
100
AcDbCircle
 10
-129.4995740340892
 20
-814.5237717496675
 30
0.0
 40
7.999999999996315
100
AcDbArc
 50
84.06450300000454
 51
5.93505399998409
  0
ARC
  5
1FB
330
5C
100
AcDbEntity
  8
LC-001-002-----0
  6
Continuous
 62
     7
100
AcDbCircle
 10
129.5004259659108
 20
-555.5237627496681
 30
0.0
 40
8.000000000003055
100
AcDbArc
 50
-95.95698200001898
 51
-174.0425719999874
  0
ARC
  5
1FC
330
5C
100
AcDbEntity
  8
LC-001-002-----0
  6
Continuous
 62
     7
100
AcDbCircle
 10
-129.4995740340892
 20
-555.5237667496694
 30
0.0
 40
8.000000000000288
100
AcDbArc
 50
-5.95432800000738
 51
-84.04629700000358
  0
ARC
  5
1FD
330
5C
100
AcDbEntity
  8
LC-001-002-----0
  6
Continuous
 62
     7
100
AcDbCircle
 10
129.5004299659122
 20
-814.5237667496694
 30
0.0
 40
9.00000000000042
100
AcDbArc
 50
-179.0549479999894
 51
89.05557500004242
  0
ARC
  5
1FE
330
5C
100
AcDbEntity
  8
LC-001-002-----0
  6
Continuous
 62
     7
100
AcDbCircle
 10
-129.4995790340872
 20
-814.5237667496694
 30
0.0
 40
9.000000000000886
100
AcDbArc
 50
90.94697400002134
 51
-0.94742100000283
  0
ARC
  5
1FF
330
5C
100
AcDbEntity
  8
LC-001-002-----0
  6
Continuous
 62
     7
100
AcDbCircle
 10
129.5004299659122
 20
-555.5237667496694
 30
0.0
 40
8.99999999999969
100
AcDbArc
 50
-89.06966700001537
 51
179.0701099999933
  0
ARC
  5
200
330
5C
100
AcDbEntity
  8
LC-001-002-----0
  6
Continuous
 62
     7
100
AcDbCircle
 10
-129.4995790340872
 20
-555.5237667496694
 30
0.0
 40
8.999999999999426
100
AcDbArc
 50
0.93225899998888
 51
-90.93288200001496
  0
ARC
  5
201
330
5C
100
AcDbEntity
  8
LC-001-002-----0
  6
Continuous
 62
     7
100
AcDbCircle
 10
0.00042596591084
 20
-685.0237667496694
 30
0.0
 40
59.50050099999886
100
AcDbArc
 50
-178.8921510000019
 51
-166.1071370000016
  0
ARC
  5
202
330
5C
100
AcDbEntity
  8
LC-001-002-----0
  6
Continuous
 62
     7
100
AcDbCircle
 10
0.00042596591084
 20
-685.0237667496694
 30
0.0
 40
63.0005709999984
100
AcDbArc
 50
-178.9537059999984
 51
-166.0456219999979
  0
ARC
  5
203
330
5C
100
AcDbEntity
  8
LC-001-002-----0
  6
Continuous
 62
     7
100
AcDbCircle
 10
0.00042596591084
 20
-685.024173749669
 30
0.0
 40
75.00035699999906
100
AcDbArc
 50
-179.1214339999993
 51
-165.8786119999988
  0
ARC
  5
204
330
5C
100
AcDbEntity
  8
LC-001-002-----0
  6
Continuous
 62
     7
100
AcDbCircle
 10
0.00042596591084
 20
-685.024173749669
 30
0.0
 40
79.00004900000089
100
AcDbArc
 50
-179.1659190000003
 51
-165.8341250000002
  0
ARC
  5
205
330
5C
100
AcDbEntity
  8
LC-001-002-----0
  6
Continuous
 62
     7
100
AcDbCircle
 10
0.00042596591084
 20
-685.024173749669
 30
0.0
 40
79.00004899999877
100
AcDbArc
 50
-164.1659629999999
 51
-150.8341670000005
  0
ARC
  5
206
330
5C
100
AcDbEntity
  8
LC-001-002-----0
  6
Continuous
 62
     7
100
AcDbCircle
 10
0.00042596591084
 20
-685.024173749669
 30
0.0
 40
75.00035700000164
100
AcDbArc
 50
-164.1214809999986
 51
-150.8786549999995
  0
ARC
  5
207
330
5C
100
AcDbEntity
  8
LC-001-002-----0
  6
Continuous
 62
     7
100
AcDbCircle
 10
0.00042596591084
 20
-685.0237667496694
 30
0.0
 40
63.00057099999914
100
AcDbArc
 50
-163.953774
 51
-151.0457100000007
  0
ARC
  5
208
330
5C
100
AcDbEntity
  8
LC-001-002-----0
  6
Continuous
 62
     7
100
AcDbCircle
 10
0.00042596591084
 20
-685.0237667496694
 30
0.0
 40
59.50050100000081
100
AcDbArc
 50
-163.8922230000004
 51
-151.1072309999998
  0
ARC
  5
209
330
5C
100
AcDbEntity
  8
LC-001-002-----0
  6
Continuous
 62
     7
100
AcDbCircle
 10
0.00042596591084
 20
-685.0237667496694
 30
0.0
 40
59.50050100000036
100
AcDbArc
 50
-148.8923169999987
 51
-136.107339999998
  0
ARC
  5
20A
330
5C
100
AcDbEntity
  8
LC-001-002-----0
  6
Continuous
 62
     7
100
AcDbCircle
 10
0.00042596591084
 20
-685.0237667496694
 30
0.0
 40
63.00057099999853
100
AcDbArc
 50
-148.9538629999998
 51
-136.0458129999997
  0
ARC
  5
20B
330
5C
100
AcDbEntity
  8
LC-001-002-----0
  6
Continuous
 62
     7
100
AcDbCircle
 10
0.00042596591084
 20
-685.024173749669
 30
0.0
 40
75.00035699999897
100
AcDbArc
 50
-149.1215239999985
 51
-135.8786919999998
  0
ARC
  5
20C
330
5C
100
AcDbEntity
  8
LC-001-002-----0
  6
Continuous
 62
     7
100
AcDbCircle
 10
0.00042596591084
 20
-685.024173749669
 30
0.0
 40
79.0000490000008
100
AcDbArc
 50
-149.1660039999998
 51
-135.8342019999999
  0
ARC
  5
20D
330
5C
100
AcDbEntity
  8
LC-001-002-----0
  6
Continuous
 62
     7
100
AcDbCircle
 10
0.00042596591084
 20
-685.0237667496694
 30
0.0
 40
59.50050100000017
100
AcDbArc
 50
-133.8924259999982
 51
-121.1074569999998
  0
ARC
  5
20E
330
5C
100
AcDbEntity
  8
LC-001-002-----0
  6
Continuous
 62
     7
100
AcDbCircle
 10
0.00042596591084
 20
-685.0237667496694
 30
0.0
 40
63.00057099999822
100
AcDbArc
 50
-133.9539659999994
 51
-121.0459239999993
  0
ARC
  5
20F
330
5C
100
AcDbEntity
  8
LC-001-002-----0
  6
Continuous
 62
     7
100
AcDbCircle
 10
0.00042596591084
 20
-685.024173749669
 30
0.0
 40
75.00035699999817
100
AcDbArc
 50
-134.1215609999997
 51
-120.8787209999988
  0
ARC
  5
210
330
5C
100
AcDbEntity
  8
LC-001-002-----0
  6
Continuous
 62
     7
100
AcDbCircle
 10
0.00042596591084
 20
-685.024173749669
 30
0.0
 40
79.00004900000003
100
AcDbArc
 50
-119.1660660000005
 51
-105.8342460000009
  0
ARC
  5
211
330
5C
100
AcDbEntity
  8
LC-001-002-----0
  6
Continuous
 62
     7
100
AcDbCircle
 10
0.00042596591084
 20
-685.024173749669
 30
0.0
 40
75.00035700000015
100
AcDbArc
 50
-119.1215899999991
 51
-105.8787389999992
  0
ARC
  5
212
330
5C
100
AcDbEntity
  8
LC-001-002-----0
  6
Continuous
 62
     7
100
AcDbCircle
 10
0.00042596591084
 20
-685.0237667496694
 30
0.0
 40
63.00057100000047
100
AcDbArc
 50
-118.954076
 51
-106.0460339999991
  0
ARC
  5
213
330
5C
100
AcDbEntity
  8
LC-001-002-----0
  6
Continuous
 62
     7
100
AcDbCircle
 10
0.00042596591084
 20
-685.0237667496694
 30
0.0
 40
59.50050099999992
100
AcDbArc
 50
-118.8925430000009
 51
-106.1075739999995
  0
ARC
  5
214
330
5C
100
AcDbEntity
  8
LC-001-002-----0
  6
Continuous
 62
     7
100
AcDbCircle
 10
0.00042596591084
 20
-685.0237667496694
 30
0.0
 40
63.0005710000008
100
AcDbArc
 50
-103.9541870000003
 51
-91.04613699999946
  0
ARC
  5
215
330
5C
100
AcDbEntity
  8
LC-001-002-----0
  6
Continuous
 62
     7
100
AcDbCircle
 10
0.00042596591084
 20
-685.024173749669
 30
0.0
 40
79.00004900000097
100
AcDbArc
 50
-89.16608899999859
 51
-75.83424599999877
  0
ARC
  5
216
330
5C
100
AcDbEntity
  8
LC-001-002-----0
  6
Continuous
 62
     7
100
AcDbCircle
 10
0.00042596591084
 20
-685.024173749669
 30
0.0
 40
75.0003570000013
100
AcDbArc
 50
-89.1216140000001
 51
-75.87873899999963
  0
ARC
  5
217
330
5C
100
AcDbEntity
  8
LC-001-002-----0
  6
Continuous
 62
     7
100
AcDbCircle
 10
0.00042596591084
 20
-685.0237667496694
 30
0.0
 40
63.00057099999886
100
AcDbArc
 50
-88.95428999999852
 51
-76.04622599999887
  0
ARC
  5
218
330
5C
100
AcDbEntity
  8
LC-001-002-----0
  6
Continuous
 62
     7
100
AcDbCircle
 10
0.00042596591084
 20
-685.0237667496694
 30
0.0
 40
59.50050099999883
100
AcDbArc
 50
-88.89276899999922
 51
-76.1077770000009
  0
ARC
  5
219
330
5C
100
AcDbEntity
  8
LC-001-002-----0
  6
Continuous
 62
     7
100
AcDbCircle
 10
0.00042596591084
 20
-685.0237667496694
 30
0.0
 40
59.50050099999825
100
AcDbArc
 50
-73.89286299999807
 51
-61.10784899999987
  0
ARC
  5
21A
330
5C
100
AcDbEntity
  8
LC-001-002-----0
  6
Continuous
 62
     7
100
AcDbCircle
 10
0.00042596591084
 20
-685.0237667496694
 30
0.0
 40
63.00057099999862
100
AcDbArc
 50
-73.9543779999999
 51
-61.04629399999838
  0
ARC
  5
21B
330
5C
100
AcDbEntity
  8
LC-001-002-----0
  6
Continuous
 62
     7
100
AcDbCircle
 10
0.00042596591084
 20
-685.024173749669
 30
0.0
 40
79.0000489999999
100
AcDbArc
 50
-74.16608300000124
 51
-60.8342290000008
  0
ARC
  5
21C
330
5C
100
AcDbEntity
  8
LC-001-002-----0
  6
Continuous
 62
     7
100
AcDbCircle
 10
0.00042596591084
 20
-685.024173749669
 30
0.0
 40
79.00004899999944
100
AcDbArc
 50
-59.16606599999837
 51
-45.83420199999995
  0
ARC
  5
21D
330
5C
100
AcDbEntity
  8
LC-001-002-----0
  6
Continuous
 62
     7
100
AcDbCircle
 10
0.00042596591084
 20
-685.024173749669
 30
0.0
 40
75.00035699999894
100
AcDbArc
 50
-59.12158999999937
 51
-45.87869199999975
  0
ARC
  5
21E
330
5C
100
AcDbEntity
  8
LC-001-002-----0
  6
Continuous
 62
     7
100
AcDbCircle
 10
0.00042596591084
 20
-685.024173749669
 30
0.0
 40
79.00004900000265
100
AcDbArc
 50
-44.16603900000045
 51
-30.83416699999897
  0
ARC
  5
21F
330
5C
100
AcDbEntity
  8
LC-001-002-----0
  6
Continuous
 62
     7
100
AcDbCircle
 10
0.00042596591084
 20
-685.024173749669
 30
0.0
 40
75.0003570000007
100
AcDbArc
 50
-44.12156100000164
 51
-30.87865500000029
  0
ARC
  5
220
330
5C
100
AcDbEntity
  8
LC-001-002-----0
  6
Continuous
 62
     7
100
AcDbCircle
 10
0.00042596591084
 20
-685.0237667496694
 30
0.0
 40
63.0005710000002
100
AcDbArc
 50
-43.95448800000053
 51
-31.0463510000001
  0
ARC
  5
221
330
5C
100
AcDbEntity
  8
LC-001-002-----0
  6
Continuous
 62
     7
100
AcDbCircle
 10
0.00042596591084
 20
-685.0237667496694
 30
0.0
 40
59.50050099999964
100
AcDbArc
 50
-43.89298000000022
 51
-31.10790900000154
  0
ARC
  5
222
330
5C
100
AcDbEntity
  8
LC-001-002-----0
  6
Continuous
 62
     7
100
AcDbCircle
 10
0.00042596591084
 20
-685.024173749669
 30
0.0
 40
79.00004900000027
100
AcDbArc
 50
-29.16600400000039
 51
-15.83412500000057
  0
ARC
  5
223
330
5C
100
AcDbEntity
  8
LC-001-002-----0
  6
Continuous
 62
     7
100
AcDbCircle
 10
0.00042596591084
 20
-685.024173749669
 30
0.0
 40
75.00035699999871
100
AcDbArc
 50
-29.12152399999994
 51
-15.87861199999984
  0
ARC
  5
224
330
5C
100
AcDbEntity
  8
LC-001-002-----0
  6
Continuous
 62
     7
100
AcDbCircle
 10
0.00042596591084
 20
-685.0237667496694
 30
0.0
 40
63.0005709999995
100
AcDbArc
 50
-28.95450300000046
 51
-16.04633599999919
  0
ARC
  5
225
330
5C
100
AcDbEntity
  8
LC-001-002-----0
  6
Continuous
 62
     7
100
AcDbCircle
 10
0.00042596591084
 20
-685.0237667496694
 30
0.0
 40
59.50050099999812
100
AcDbArc
 50
-28.89299499999966
 51
-16.10789400000082
  0
ARC
  5
226
330
5C
100
AcDbEntity
  8
LC-001-002-----0
  6
Continuous
 62
     7
100
AcDbCircle
 10
0.00042596591084
 20
-685.0237667496694
 30
0.0
 40
59.50050100000147
100
AcDbArc
 50
-13.89297999999847
 51
-1.10784899999811
  0
ARC
  5
227
330
5C
100
AcDbEntity
  8
LC-001-002-----0
  6
Continuous
 62
     7
100
AcDbCircle
 10
0.00042596591084
 20
-685.0237667496694
 30
0.0
 40
63.00057099999995
100
AcDbArc
 50
-13.95448800000052
 51
-1.04629400000162
  0
ARC
  5
228
330
5C
100
AcDbEntity
  8
LC-001-002-----0
  6
Continuous
 62
     7
100
AcDbCircle
 10
0.00042596591084
 20
-685.024173749669
 30
0.0
 40
75.00035699999994
100
AcDbArc
 50
-14.12148100000056
 51
-0.87856600000067
  0
ARC
  5
229
330
5C
100
AcDbEntity
  8
LC-001-002-----0
  6
Continuous
 62
     7
100
AcDbCircle
 10
0.00042596591084
 20
-685.024173749669
 30
0.0
 40
79.00004900000089
100
AcDbArc
 50
0.83408099999965
 51
14.16596300000062
  0
ARC
  5
22A
330
5C
100
AcDbEntity
  8
LC-001-002-----0
  6
Continuous
 62
     7
100
AcDbCircle
 10
0.00042596591084
 20
-685.024173749669
 30
0.0
 40
75.00035699999906
100
AcDbArc
 50
0.87856600000067
 51
14.12148100000056
  0
ARC
  5
22B
330
5C
100
AcDbEntity
  8
LC-001-002-----0
  6
Continuous
 62
     7
100
AcDbCircle
 10
0.00042596591084
 20
-685.0237667496694
 30
0.0
 40
63.00057099999999
100
AcDbArc
 50
1.04555400000056
 51
13.95377400000114
  0
ARC
  5
22C
330
5C
100
AcDbEntity
  8
LC-001-002-----0
  6
Continuous
 62
     7
100
AcDbCircle
 10
0.00042596591084
 20
-685.0237667496694
 30
0.0
 40
59.50050100000003
100
AcDbArc
 50
1.10706600000208
 51
13.89222299999911
  0
ARC
  5
22D
330
5C
100
AcDbEntity
  8
LC-001-002-----0
  6
Continuous
 62
     7
100
AcDbCircle
 10
0.00042596591084
 20
-685.0237667496694
 30
0.0
 40
59.50050100000174
100
AcDbArc
 50
16.10713700000096
 51
28.89231700000187
  0
ARC
  5
22E
330
5C
100
AcDbEntity
  8
LC-001-002-----0
  6
Continuous
 62
     7
100
AcDbCircle
 10
0.00042596591084
 20
-685.0237667496694
 30
0.0
 40
63.00057100000212
100
AcDbArc
 50
16.04562199999918
 51
28.95386299999996
  0
ARC
  5
22F
330
5C
100
AcDbEntity
  8
LC-001-002-----0
  6
Continuous
 62
     7
100
AcDbCircle
 10
0.00042596591084
 20
-685.024173749669
 30
0.0
 40
75.000357
100
AcDbArc
 50
15.87861199999984
 51
29.12152399999994
  0
ARC
  5
230
330
5C
100
AcDbEntity
  8
LC-001-002-----0
  6
Continuous
 62
     7
100
AcDbCircle
 10
0.00042596591084
 20
-685.024173749669
 30
0.0
 40
79.00004900000064
100
AcDbArc
 50
15.83412500000057
 51
29.16600400000039
  0
ARC
  5
231
330
5C
100
AcDbEntity
  8
LC-001-002-----0
  6
Continuous
 62
     7
100
AcDbCircle
 10
0.00042596591084
 20
-685.024173749669
 30
0.0
 40
79.00004900000006
100
AcDbArc
 50
30.83416699999897
 51
44.16603899999856
  0
ARC
  5
232
330
5C
100
AcDbEntity
  8
LC-001-002-----0
  6
Continuous
 62
     7
100
AcDbCircle
 10
0.00042596591084
 20
-685.024173749669
 30
0.0
 40
75.00035700000126
100
AcDbArc
 50
30.87865500000029
 51
44.12156099999965
  0
ARC
  5
233
330
5C
100
AcDbEntity
  8
LC-001-002-----0
  6
Continuous
 62
     7
100
AcDbCircle
 10
0.00042596591084
 20
-685.0237667496694
 30
0.0
 40
63.00057099999923
100
AcDbArc
 50
31.04570999999935
 51
43.95396600000173
  0
ARC
  5
234
330
5C
100
AcDbEntity
  8
LC-001-002-----0
  6
Continuous
 62
     7
100
AcDbCircle
 10
0.00042596591084
 20
-685.0237667496694
 30
0.0
 40
59.50050099999824
100
AcDbArc
 50
31.10723099999982
 51
43.89242599999822
  0
ARC
  5
235
330
5C
100
AcDbEntity
  8
LC-001-002-----0
  6
Continuous
 62
     7
100
AcDbCircle
 10
0.00042596591084
 20
-685.0237667496694
 30
0.0
 40
63.0005709999984
100
AcDbArc
 50
46.04581299999967
 51
58.95407599999788
  0
ARC
  5
236
330
5C
100
AcDbEntity
  8
LC-001-002-----0
  6
Continuous
 62
     7
100
AcDbCircle
 10
0.00042596591084
 20
-685.0237667496694
 30
0.0
 40
59.50050099999956
100
AcDbArc
 50
46.10733999999803
 51
58.89254300000025
  0
ARC
  5
237
330
5C
100
AcDbEntity
  8
LC-001-002-----0
  6
Continuous
 62
     7
100
AcDbCircle
 10
0.00042596591084
 20
-685.024173749669
 30
0.0
 40
75.00035700000187
100
AcDbArc
 50
45.87869199999975
 51
59.12158999999937
  0
ARC
  5
238
330
5C
100
AcDbEntity
  8
LC-001-002-----0
  6
Continuous
 62
     7
100
AcDbCircle
 10
0.00042596591084
 20
-685.024173749669
 30
0.0
 40
79.00004899999874
100
AcDbArc
 50
45.83420199999995
 51
59.16606599999837
  0
ARC
  5
239
330
5C
100
AcDbEntity
  8
LC-001-002-----0
  6
Continuous
 62
     7
100
AcDbCircle
 10
0.00042596591084
 20
-685.0237667496694
 30
0.0
 40
59.50050099999992
100
AcDbArc
 50
61.10745699999907
 51
73.89266000000049
  0
ARC
  5
23A
330
5C
100
AcDbEntity
  8
LC-001-002-----0
  6
Continuous
 62
     7
100
AcDbCircle
 10
0.00042596591084
 20
-685.0237667496694
 30
0.0
 40
63.00057100000047
100
AcDbArc
 50
61.04592399999996
 51
73.95418699999841
  0
ARC
  5
23B
330
5C
100
AcDbEntity
  8
LC-001-002-----0
  6
Continuous
 62
     7
100
AcDbCircle
 10
0.00042596591084
 20
-685.024173749669
 30
0.0
 40
75.00035700000028
100
AcDbArc
 50
60.878721000001
 51
74.1216080000005
  0
ARC
  5
23C
330
5C
100
AcDbEntity
  8
LC-001-002-----0
  6
Continuous
 62
     7
100
AcDbCircle
 10
0.00042596591084
 20
-685.024173749669
 30
0.0
 40
79.00004899999857
100
AcDbArc
 50
60.8342290000008
 51
74.16608300000124
  0
ARC
  5
23D
330
5C
100
AcDbEntity
  8
LC-001-002-----0
  6
Continuous
 62
     7
100
AcDbCircle
 10
0.00042596591084
 20
-685.024173749669
 30
0.0
 40
79.00004900000104
100
AcDbArc
 50
75.83424599999877
 51
89.16608899999859
  0
ARC
  5
23E
330
5C
100
AcDbEntity
  8
LC-001-002-----0
  6
Continuous
 62
     7
100
AcDbCircle
 10
0.00042596591084
 20
-685.024173749669
 30
0.0
 40
75.0003569999987
100
AcDbArc
 50
75.87873899999963
 51
89.1216140000001
  0
ARC
  5
23F
330
5C
100
AcDbEntity
  8
LC-001-002-----0
  6
Continuous
 62
     7
100
AcDbCircle
 10
0.00042596591084
 20
-685.0237667496694
 30
0.0
 40
59.50050099999928
100
AcDbArc
 50
91.10768299999926
 51
103.8928629999984
  0
ARC
  5
240
330
5C
100
AcDbEntity
  8
LC-001-002-----0
  6
Continuous
 62
     7
100
AcDbCircle
 10
0.00042596591084
 20
-685.0237667496694
 30
0.0
 40
63.00057100000027
100
AcDbArc
 50
91.04613699999946
 51
103.9543779999989
  0
ARC
  5
241
330
5C
100
AcDbEntity
  8
LC-001-002-----0
  6
Continuous
 62
     7
100
AcDbCircle
 10
0.00042596591084
 20
-685.024173749669
 30
0.0
 40
75.00035700000105
100
AcDbArc
 50
90.87874500000096
 51
104.1216080000015
  0
ARC
  5
242
330
5C
100
AcDbEntity
  8
LC-001-002-----0
  6
Continuous
 62
     7
100
AcDbCircle
 10
0.00042596591084
 20
-685.024173749669
 30
0.0
 40
79.0000489999988
100
AcDbArc
 50
90.83425200000131
 51
104.1660829999998
  0
ARC
  5
243
330
5C
100
AcDbEntity
  8
LC-001-002-----0
  6
Continuous
 62
     7
100
AcDbCircle
 10
0.00042596591084
 20
-685.024173749669
 30
0.0
 40
79.00004900000019
100
AcDbArc
 50
105.8342460000009
 51
119.1660660000005
  0
ARC
  5
244
330
5C
100
AcDbEntity
  8
LC-001-002-----0
  6
Continuous
 62
     7
100
AcDbCircle
 10
0.00042596591084
 20
-685.024173749669
 30
0.0
 40
75.00035699999867
100
AcDbArc
 50
105.8787389999992
 51
119.1215899999991
  0
ARC
  5
245
330
5C
100
AcDbEntity
  8
LC-001-002-----0
  6
Continuous
 62
     7
100
AcDbCircle
 10
0.00042596591084
 20
-685.0237667496694
 30
0.0
 40
59.50050100000081
100
AcDbArc
 50
106.1077769999996
 51
118.8929339999998
  0
ARC
  5
246
330
5C
100
AcDbEntity
  8
LC-001-002-----0
  6
Continuous
 62
     7
100
AcDbCircle
 10
0.00042596591084
 20
-685.0237667496694
 30
0.0
 40
63.00057099999914
100
AcDbArc
 50
106.0462260000001
 51
118.954446000002
  0
ARC
  5
247
330
5C
100
AcDbEntity
  8
LC-001-002-----0
  6
Continuous
 62
     7
100
AcDbCircle
 10
0.00042596591084
 20
-685.0237667496694
 30
0.0
 40
59.5005009999977
100
AcDbArc
 50
121.1078490000002
 51
133.8929800000002
  0
ARC
  5
248
330
5C
100
AcDbEntity
  8
LC-001-002-----0
  6
Continuous
 62
     7
100
AcDbCircle
 10
0.00042596591084
 20
-685.0237667496694
 30
0.0
 40
63.00057100000068
100
AcDbArc
 50
121.0462940000005
 51
133.9544880000005
  0
ARC
  5
249
330
5C
100
AcDbEntity
  8
LC-001-002-----0
  6
Continuous
 62
     7
100
AcDbCircle
 10
0.00042596591084
 20
-685.024173749669
 30
0.0
 40
75.00035700000012
100
AcDbArc
 50
120.8787209999988
 51
134.1215609999997
  0
ARC
  5
24A
330
5C
100
AcDbEntity
  8
LC-001-002-----0
  6
Continuous
 62
     7
100
AcDbCircle
 10
0.00042596591084
 20
-685.024173749669
 30
0.0
 40
79.00004900000029
100
AcDbArc
 50
120.8342290000011
 51
134.1660389999986
  0
ARC
  5
24B
330
5C
100
AcDbEntity
  8
LC-001-002-----0
  6
Continuous
 62
     7
100
AcDbCircle
 10
0.00042596591084
 20
-685.024173749669
 30
0.0
 40
79.00004899999874
100
AcDbArc
 50
135.8342019999999
 51
149.1660039999998
  0
ARC
  5
24C
330
5C
100
AcDbEntity
  8
LC-001-002-----0
  6
Continuous
 62
     7
100
AcDbCircle
 10
0.00042596591084
 20
-685.024173749669
 30
0.0
 40
75.00035699999934
100
AcDbArc
 50
135.8786920000017
 51
149.1215239999985
  0
ARC
  5
24D
330
5C
100
AcDbEntity
  8
LC-001-002-----0
  6
Continuous
 62
     7
100
AcDbCircle
 10
0.00042596591084
 20
-685.0237667496694
 30
0.0
 40
59.50050099999965
100
AcDbArc
 50
136.1078939999979
 51
148.8929950000003
  0
ARC
  5
24E
330
5C
100
AcDbEntity
  8
LC-001-002-----0
  6
Continuous
 62
     7
100
AcDbCircle
 10
0.00042596591084
 20
-685.0237667496694
 30
0.0
 40
63.00057100000018
100
AcDbArc
 50
136.0463359999989
 51
148.9545030000004
  0
ARC
  5
24F
330
5C
100
AcDbEntity
  8
LC-001-002-----0
  6
Continuous
 62
     7
100
AcDbCircle
 10
0.00042596591084
 20
-685.024173749669
 30
0.0
 40
79.00004900000086
100
AcDbArc
 50
150.8341670000005
 51
164.1659629999999
  0
ARC
  5
250
330
5C
100
AcDbEntity
  8
LC-001-002-----0
  6
Continuous
 62
     7
100
AcDbCircle
 10
0.00042596591084
 20
-685.024173749669
 30
0.0
 40
75.00035700000049
100
AcDbArc
 50
150.8786549999995
 51
164.1214810000013
  0
ARC
  5
251
330
5C
100
AcDbEntity
  8
LC-001-002-----0
  6
Continuous
 62
     7
100
AcDbCircle
 10
0.00042596591084
 20
-685.0237667496694
 30
0.0
 40
63.00057099999951
100
AcDbArc
 50
151.0463510000008
 51
163.9544880000007
  0
ARC
  5
252
330
5C
100
AcDbEntity
  8
LC-001-002-----0
  6
Continuous
 62
     7
100
AcDbCircle
 10
0.00042596591084
 20
-685.0237667496694
 30
0.0
 40
59.50050100000193
100
AcDbArc
 50
151.1079089999987
 51
163.8929799999978
  0
ARC
  5
253
330
5C
100
AcDbEntity
  8
LC-001-002-----0
  6
Continuous
 62
     7
100
AcDbCircle
 10
0.00042596591084
 20
-685.0237667496694
 30
0.0
 40
63.00057100000063
100
AcDbArc
 50
76.04603400000003
 51
88.95428999999852
  0
ARC
  5
254
330
5C
100
AcDbEntity
  8
LC-001-002-----0
  6
Continuous
 62
     7
100
AcDbCircle
 10
0.00042596591084
 20
-685.0237667496694
 30
0.0
 40
63.00057100000038
100
AcDbArc
 50
-58.95444600000197
 51
-46.04633599999885
  0
ARC
  5
255
330
5C
100
AcDbEntity
  8
LC-001-002-----0
  6
Continuous
 62
     7
100
AcDbCircle
 10
0.00019096591132
 20
-685.024173749669
 30
0.0
 40
57.90000000000146
100
AcDbArc
 50
166.1380740000005
 51
178.8619259999994
  0
ARC
  5
256
330
5C
100
AcDbEntity
  8
LC-001-002-----0
  6
Continuous
 62
     7
100
AcDbCircle
 10
0.00019096591132
 20
-685.024173749669
 30
0.0
 40
56.19999999999951
100
AcDbArc
 50
166.1725039999991
 51
178.8274960000015
  0
ARC
  5
257
330
5C
100
AcDbEntity
  8
LC-001-002-----0
  6
Continuous
 62
     7
100
AcDbCircle
 10
0.00019096591132
 20
-685.024173749669
 30
0.0
 40
57.90000000000015
100
AcDbArc
 50
-178.8619259999994
 51
-166.1380740000005
  0
ARC
  5
258
330
5C
100
AcDbEntity
  8
LC-001-002-----0
  6
Continuous
 62
     7
100
AcDbCircle
 10
0.00019096591132
 20
-685.024173749669
 30
0.0
 40
56.20000000000017
100
AcDbArc
 50
-178.8274960000015
 51
-166.1725039999991
  0
ARC
  5
259
330
5C
100
AcDbEntity
  8
LC-001-002-----0
  6
Continuous
 62
     7
100
AcDbCircle
 10
0.00019096591132
 20
-685.024173749669
 30
0.0
 40
57.90000000000006
100
AcDbArc
 50
-163.861925999998
 51
-151.1380739999989
  0
ARC
  5
25A
330
5C
100
AcDbEntity
  8
LC-001-002-----0
  6
Continuous
 62
     7
100
AcDbCircle
 10
0.00019096591132
 20
-685.024173749669
 30
0.0
 40
56.20000000000154
100
AcDbArc
 50
-163.8274960000012
 51
-151.1725040000006
  0
ARC
  5
25B
330
5C
100
AcDbEntity
  8
LC-001-002-----0
  6
Continuous
 62
     7
100
AcDbCircle
 10
0.00019096591132
 20
-685.024173749669
 30
0.0
 40
57.90000000000124
100
AcDbArc
 50
-148.8619259999983
 51
-136.138074
  0
ARC
  5
25C
330
5C
100
AcDbEntity
  8
LC-001-002-----0
  6
Continuous
 62
     7
100
AcDbCircle
 10
0.00019096591132
 20
-685.024173749669
 30
0.0
 40
56.20000000000123
100
AcDbArc
 50
-148.8274959999992
 51
-136.1725040000008
  0
ARC
  5
25D
330
5C
100
AcDbEntity
  8
LC-001-002-----0
  6
Continuous
 62
     7
100
AcDbCircle
 10
0.00019096591132
 20
-685.024173749669
 30
0.0
 40
57.89999999999949
100
AcDbArc
 50
-133.861926
 51
-121.1380740000017
  0
ARC
  5
25E
330
5C
100
AcDbEntity
  8
LC-001-002-----0
  6
Continuous
 62
     7
100
AcDbCircle
 10
0.00019096591132
 20
-685.024173749669
 30
0.0
 40
56.20000000000079
100
AcDbArc
 50
-133.8274959999993
 51
-121.1725040000008
  0
ARC
  5
25F
330
5C
100
AcDbEntity
  8
LC-001-002-----0
  6
Continuous
 62
     7
100
AcDbCircle
 10
0.00019096591132
 20
-685.024173749669
 30
0.0
 40
57.90000000000148
100
AcDbArc
 50
-118.8619260000011
 51
-106.138074000002
  0
ARC
  5
260
330
5C
100
AcDbEntity
  8
LC-001-002-----0
  6
Continuous
 62
     7
100
AcDbCircle
 10
0.00019096591132
 20
-685.024173749669
 30
0.0
 40
56.19999999999881
100
AcDbArc
 50
-118.8274959999994
 51
-106.1725039999988
  0
ARC
  5
261
330
5C
100
AcDbEntity
  8
LC-001-002-----0
  6
Continuous
 62
     7
100
AcDbCircle
 10
0.00019096591132
 20
-685.024173749669
 30
0.0
 40
57.90000000000146
100
AcDbArc
 50
-103.8619259999995
 51
-91.13807400000056
  0
ARC
  5
262
330
5C
100
AcDbEntity
  8
LC-001-002-----0
  6
Continuous
 62
     7
100
AcDbCircle
 10
0.00019096591132
 20
-685.024173749669
 30
0.0
 40
56.19999999999951
100
AcDbArc
 50
-103.8274960000009
 51
-91.17250399999854
  0
ARC
  5
263
330
5C
100
AcDbEntity
  8
LC-001-002-----0
  6
Continuous
 62
     7
100
AcDbCircle
 10
0.00019096591132
 20
-685.024173749669
 30
0.0
 40
57.90000000000016
100
AcDbArc
 50
-88.86192599999944
 51
-76.13807400000053
  0
ARC
  5
264
330
5C
100
AcDbEntity
  8
LC-001-002-----0
  6
Continuous
 62
     7
100
AcDbCircle
 10
0.00019096591132
 20
-685.024173749669
 30
0.0
 40
56.20000000000017
100
AcDbArc
 50
-88.82749600000146
 51
-76.17250399999912
  0
ARC
  5
265
330
5C
100
AcDbEntity
  8
LC-001-002-----0
  6
Continuous
 62
     7
100
AcDbCircle
 10
0.00019096591132
 20
-685.024173749669
 30
0.0
 40
56.20000000000154
100
AcDbArc
 50
-73.82749600000119
 51
-61.17250400000059
  0
ARC
  5
266
330
5C
100
AcDbEntity
  8
LC-001-002-----0
  6
Continuous
 62
     7
100
AcDbCircle
 10
0.00019096591132
 20
-685.024173749669
 30
0.0
 40
57.89999999999904
100
AcDbArc
 50
-73.86192600000149
 51
-61.13807400000204
  0
ARC
  5
267
330
5C
100
AcDbEntity
  8
LC-001-002-----0
  6
Continuous
 62
     7
100
AcDbCircle
 10
0.00019096591132
 20
-685.024173749669
 30
0.0
 40
56.19999999999935
100
AcDbArc
 50
-58.82749600000241
 51
-46.17250400000076
  0
ARC
  5
268
330
5C
100
AcDbEntity
  8
LC-001-002-----0
  6
Continuous
 62
     7
100
AcDbCircle
 10
0.00019096591132
 20
-685.024173749669
 30
0.0
 40
57.89999999999936
100
AcDbArc
 50
-58.86192600000141
 51
-46.13807400000002
  0
ARC
  5
269
330
5C
100
AcDbEntity
  8
LC-001-002-----0
  6
Continuous
 62
     7
100
AcDbCircle
 10
0.00019096591132
 20
-685.024173749669
 30
0.0
 40
56.20000000000079
100
AcDbArc
 50
-43.82749599999924
 51
-31.17250400000077
  0
ARC
  5
26A
330
5C
100
AcDbEntity
  8
LC-001-002-----0
  6
Continuous
 62
     7
100
AcDbCircle
 10
0.00019096591132
 20
-685.024173749669
 30
0.0
 40
57.89999999999949
100
AcDbArc
 50
-43.86192599999998
 51
-31.13807400000168
  0
ARC
  5
26B
330
5C
100
AcDbEntity
  8
LC-001-002-----0
  6
Continuous
 62
     7
100
AcDbCircle
 10
0.00019096591132
 20
-685.024173749669
 30
0.0
 40
56.19999999999882
100
AcDbArc
 50
-28.82749599999941
 51
-16.17250399999984
  0
ARC
  5
26C
330
5C
100
AcDbEntity
  8
LC-001-002-----0
  6
Continuous
 62
     7
100
AcDbCircle
 10
0.00019096591132
 20
-685.024173749669
 30
0.0
 40
57.90000000000148
100
AcDbArc
 50
-28.86192600000111
 51
-16.13807400000196
  0
ARC
  5
26D
330
5C
100
AcDbEntity
  8
LC-001-002-----0
  6
Continuous
 62
     7
100
AcDbCircle
 10
0.00019096591132
 20
-685.024173749669
 30
0.0
 40
57.90000000000146
100
AcDbArc
 50
-13.86192599999949
 51
-1.13807400000056
  0
ARC
  5
26E
330
5C
100
AcDbEntity
  8
LC-001-002-----0
  6
Continuous
 62
     7
100
AcDbCircle
 10
0.00019096591132
 20
-685.024173749669
 30
0.0
 40
56.19999999999951
100
AcDbArc
 50
-13.82749600000089
 51
-1.17250399999854
  0
ARC
  5
26F
330
5C
100
AcDbEntity
  8
LC-001-002-----0
  6
Continuous
 62
     7
100
AcDbCircle
 10
0.00019096591132
 20
-685.024173749669
 30
0.0
 40
56.20000000000017
100
AcDbArc
 50
1.17250399999854
 51
13.82749600000089
  0
ARC
  5
270
330
5C
100
AcDbEntity
  8
LC-001-002-----0
  6
Continuous
 62
     7
100
AcDbCircle
 10
0.00019096591132
 20
-685.024173749669
 30
0.0
 40
57.90000000000015
100
AcDbArc
 50
1.13807400000056
 51
13.86192599999949
  0
ARC
  5
271
330
5C
100
AcDbEntity
  8
LC-001-002-----0
  6
Continuous
 62
     7
100
AcDbCircle
 10
0.00019096591132
 20
-685.024173749669
 30
0.0
 40
56.19999999999805
100
AcDbArc
 50
16.17250399999984
 51
28.82749599999941
  0
ARC
  5
272
330
5C
100
AcDbEntity
  8
LC-001-002-----0
  6
Continuous
 62
     7
100
AcDbCircle
 10
0.00019096591132
 20
-685.024173749669
 30
0.0
 40
57.89999999999905
100
AcDbArc
 50
16.1380739999985
 51
28.86192599999796
  0
ARC
  5
273
330
5C
100
AcDbEntity
  8
LC-001-002-----0
  6
Continuous
 62
     7
100
AcDbCircle
 10
0.00019096591132
 20
-685.024173749669
 30
0.0
 40
56.19999999999934
100
AcDbArc
 50
31.17250399999759
 51
43.82749599999924
  0
ARC
  5
274
330
5C
100
AcDbEntity
  8
LC-001-002-----0
  6
Continuous
 62
     7
100
AcDbCircle
 10
0.00019096591132
 20
-685.024173749669
 30
0.0
 40
57.89999999999936
100
AcDbArc
 50
31.1380739999986
 51
43.86192599999998
  0
ARC
  5
275
330
5C
100
AcDbEntity
  8
LC-001-002-----0
  6
Continuous
 62
     7
100
AcDbCircle
 10
0.00019096591132
 20
-685.024173749669
 30
0.0
 40
56.19999999999816
100
AcDbArc
 50
46.17250399999818
 51
58.82749600000241
  0
ARC
  5
276
330
5C
100
AcDbEntity
  8
LC-001-002-----0
  6
Continuous
 62
     7
100
AcDbCircle
 10
0.00042596591084
 20
-685.024173749669
 30
0.0
 40
75.00035700000117
100
AcDbArc
 50
-74.1216080000005
 51
-60.878721000001
  0
ARC
  5
277
330
5C
100
AcDbEntity
  8
LC-001-002-----0
  6
Continuous
 62
     7
100
AcDbCircle
 10
0.00042596591084
 20
-685.024173749669
 30
0.0
 40
79.0000489999996
100
AcDbArc
 50
-14.16596300000062
 51
-0.83408099999965
  0
ARC
  5
278
330
5C
100
AcDbEntity
  8
LC-001-002-----0
  6
Continuous
 62
     7
100
AcDbCircle
 10
0.00019096591132
 20
-685.024173749669
 30
0.0
 40
57.89999999999949
100
AcDbArc
 50
46.13807400000002
 51
58.03764999999875
  0
ARC
  5
279
330
5C
100
AcDbEntity
  8
LC-001-002-----0
  6
Continuous
 62
     7
100
AcDbCircle
 10
0.00019096591132
 20
-685.024173749669
 30
0.0
 40
56.19999999999881
100
AcDbArc
 50
61.17250400000059
 51
73.82749600000017
  0
ARC
  5
27A
330
5C
100
AcDbEntity
  8
LC-001-002-----0
  6
Continuous
 62
     7
100
AcDbCircle
 10
0.00019096591132
 20
-685.024173749669
 30
0.0
 40
57.89999999999972
100
AcDbArc
 50
61.13807400000204
 51
73.86192600000149
  0
ARC
  5
27B
330
5C
100
AcDbEntity
  8
LC-001-002-----0
  6
Continuous
 62
     7
100
AcDbCircle
 10
0.00019096591132
 20
-685.024173749669
 30
0.0
 40
57.90000000000146
100
AcDbArc
 50
76.13807400000053
 51
88.86192599999944
  0
ARC
  5
27C
330
5C
100
AcDbEntity
  8
LC-001-002-----0
  6
Continuous
 62
     7
100
AcDbCircle
 10
0.00019096591132
 20
-685.024173749669
 30
0.0
 40
56.19999999999951
100
AcDbArc
 50
76.17250399999912
 51
88.82749600000146
  0
ARC
  5
27D
330
5C
100
AcDbEntity
  8
LC-001-002-----0
  6
Continuous
 62
     7
100
AcDbCircle
 10
0.00019096591132
 20
-685.024173749669
 30
0.0
 40
57.90000000000016
100
AcDbArc
 50
91.13807400000056
 51
103.8619259999995
  0
ARC
  5
27E
330
5C
100
AcDbEntity
  8
LC-001-002-----0
  6
Continuous
 62
     7
100
AcDbCircle
 10
0.00019096591132
 20
-685.024173749669
 30
0.0
 40
56.20000000000017
100
AcDbArc
 50
91.17250399999854
 51
103.8274960000009
  0
ARC
  5
27F
330
5C
100
AcDbEntity
  8
LC-001-002-----0
  6
Continuous
 62
     7
100
AcDbCircle
 10
0.00019096591132
 20
-685.024173749669
 30
0.0
 40
57.90000000000005
100
AcDbArc
 50
106.138074000002
 51
118.8619260000011
  0
ARC
  5
280
330
5C
100
AcDbEntity
  8
LC-001-002-----0
  6
Continuous
 62
     7
100
AcDbCircle
 10
0.00019096591132
 20
-685.024173749669
 30
0.0
 40
56.19999999999805
100
AcDbArc
 50
106.1725039999998
 51
118.8274959999994
  0
ARC
  5
281
330
5C
100
AcDbEntity
  8
LC-001-002-----0
  6
Continuous
 62
     7
100
AcDbCircle
 10
0.00019096591132
 20
-685.024173749669
 30
0.0
 40
57.90000000000124
100
AcDbArc
 50
121.1380740000017
 51
133.861926
  0
ARC
  5
282
330
5C
100
AcDbEntity
  8
LC-001-002-----0
  6
Continuous
 62
     7
100
AcDbCircle
 10
0.00019096591132
 20
-685.024173749669
 30
0.0
 40
56.20000000000123
100
AcDbArc
 50
121.1725040000008
 51
133.8274960000018
  0
ARC
  5
283
330
5C
100
AcDbEntity
  8
LC-001-002-----0
  6
Continuous
 62
     7
100
AcDbCircle
 10
0.00019096591132
 20
-685.024173749669
 30
0.0
 40
57.89999999999949
100
AcDbArc
 50
136.138074
 51
148.8619260000014
  0
ARC
  5
284
330
5C
100
AcDbEntity
  8
LC-001-002-----0
  6
Continuous
 62
     7
100
AcDbCircle
 10
0.00019096591132
 20
-685.024173749669
 30
0.0
 40
56.20000000000079
100
AcDbArc
 50
136.1725040000008
 51
148.8274960000024
  0
ARC
  5
285
330
5C
100
AcDbEntity
  8
LC-001-002-----0
  6
Continuous
 62
     7
100
AcDbCircle
 10
0.00019096591132
 20
-685.024173749669
 30
0.0
 40
57.89999999999972
100
AcDbArc
 50
151.138074000002
 51
163.8619260000015
  0
ARC
  5
286
330
5C
100
AcDbEntity
  8
LC-001-002-----0
  6
Continuous
 62
     7
100
AcDbCircle
 10
0.00019096591132
 20
-685.024173749669
 30
0.0
 40
56.19999999999881
100
AcDbArc
 50
151.1725040000006
 51
163.8274960000012
  0
ARC
  5
287
330
5C
100
AcDbEntity
  8
LC-001-002-----0
  6
Continuous
 62
     7
100
AcDbCircle
 10
0.00019096591132
 20
-685.024173749669
 30
0.0
 40
70.50000000000071
100
AcDbArc
 50
-164.0653469999999
 51
-150.9346529999987
  0
ARC
  5
288
330
5C
100
AcDbEntity
  8
LC-001-002-----0
  6
Continuous
 62
     7
100
AcDbCircle
 10
0.00019096591132
 20
-685.024173749669
 30
0.0
 40
73.00000000000036
100
AcDbArc
 50
-164.0973579999998
 51
-150.9026420000011
  0
ARC
  5
289
330
5C
100
AcDbEntity
  8
LC-001-002-----0
  6
Continuous
 62
     7
100
AcDbCircle
 10
0.00019096591132
 20
-685.024173749669
 30
0.0
 40
70.50000000000136
100
AcDbArc
 50
-179.0653469999995
 51
-165.934652999999
  0
ARC
  5
28A
330
5C
100
AcDbEntity
  8
LC-001-002-----0
  6
Continuous
 62
     7
100
AcDbCircle
 10
0.00019096591132
 20
-685.024173749669
 30
0.0
 40
73.00000000000179
100
AcDbArc
 50
-179.0973579999981
 51
-165.9026419999987
  0
ARC
  5
28B
330
5C
100
AcDbEntity
  8
LC-001-002-----0
  6
Continuous
 62
     7
100
AcDbCircle
 10
0.00019096591132
 20
-685.024173749669
 30
0.0
 40
72.99999999999798
100
AcDbArc
 50
-149.0973579999996
 51
-135.902641999999
  0
ARC
  5
28C
330
5C
100
AcDbEntity
  8
LC-001-002-----0
  6
Continuous
 62
     7
100
AcDbCircle
 10
0.00019096591132
 20
-685.024173749669
 30
0.0
 40
70.49999999999874
100
AcDbArc
 50
-149.0653469999993
 51
-135.9346529999994
  0
ARC
  5
28D
330
5C
100
AcDbEntity
  8
LC-001-002-----0
  6
Continuous
 62
     7
100
AcDbCircle
 10
0.00019096591132
 20
-685.024173749669
 30
0.0
 40
73.00000000000156
100
AcDbArc
 50
-134.097357999999
 51
-120.9026419999989
  0
ARC
  5
28E
330
5C
100
AcDbEntity
  8
LC-001-002-----0
  6
Continuous
 62
     7
100
AcDbCircle
 10
0.00019096591132
 20
-685.024173749669
 30
0.0
 40
70.49999999999963
100
AcDbArc
 50
-134.0653470000006
 51
-120.9346530000007
  0
ARC
  5
28F
330
5C
100
AcDbEntity
  8
LC-001-002-----0
  6
Continuous
 62
     7
100
AcDbCircle
 10
0.00019096591132
 20
-685.024173749669
 30
0.0
 40
72.99999999999977
100
AcDbArc
 50
-119.097357999999
 51
-105.9026420000002
  0
ARC
  5
290
330
5C
100
AcDbEntity
  8
LC-001-002-----0
  6
Continuous
 62
     7
100
AcDbCircle
 10
0.00019096591132
 20
-685.024173749669
 30
0.0
 40
70.49999999999979
100
AcDbArc
 50
-119.0653470000012
 51
-105.9346530000001
  0
ARC
  5
291
330
5C
100
AcDbEntity
  8
LC-001-002-----0
  6
Continuous
 62
     7
100
AcDbCircle
 10
0.00019096591132
 20
-685.024173749669
 30
0.0
 40
73.00000000000173
100
AcDbArc
 50
-89.09735800000095
 51
-75.90264199999868
  0
ARC
  5
292
330
5C
100
AcDbEntity
  8
LC-001-002-----0
  6
Continuous
 62
     7
100
AcDbCircle
 10
0.00019096591132
 20
-685.024173749669
 30
0.0
 40
70.50000000000136
100
AcDbArc
 50
-89.06534699999953
 51
-75.93465299999899
  0
ARC
  5
293
330
5C
100
AcDbEntity
  8
LC-001-002-----0
  6
Continuous
 62
     7
100
AcDbCircle
 10
0.00019096591132
 20
-685.024173749669
 30
0.0
 40
73.00000000000036
100
AcDbArc
 50
-74.09735799999977
 51
-60.90264200000104
  0
ARC
  5
294
330
5C
100
AcDbEntity
  8
LC-001-002-----0
  6
Continuous
 62
     7
100
AcDbCircle
 10
0.00019096591132
 20
-685.024173749669
 30
0.0
 40
70.50000000000071
100
AcDbArc
 50
-74.06534699999989
 51
-60.93465299999875
  0
ARC
  5
295
330
5C
100
AcDbEntity
  8
LC-001-002-----0
  6
Continuous
 62
     7
100
AcDbCircle
 10
0.00019096591132
 20
-685.024173749669
 30
0.0
 40
73.00000000000111
100
AcDbArc
 50
-59.09735800000107
 51
-45.90264200000101
  0
ARC
  5
296
330
5C
100
AcDbEntity
  8
LC-001-002-----0
  6
Continuous
 62
     7
100
AcDbCircle
 10
0.00019096591132
 20
-685.024173749669
 30
0.0
 40
70.49999999999874
100
AcDbArc
 50
-59.06534699999928
 51
-45.9346529999994
  0
ARC
  5
297
330
5C
100
AcDbEntity
  8
LC-001-002-----0
  6
Continuous
 62
     7
100
AcDbCircle
 10
0.00019096591132
 20
-685.024173749669
 30
0.0
 40
72.99999999999895
100
AcDbArc
 50
-44.09735800000098
 51
-30.9026420000004
  0
ARC
  5
298
330
5C
100
AcDbEntity
  8
LC-001-002-----0
  6
Continuous
 62
     7
100
AcDbCircle
 10
0.00019096591132
 20
-685.024173749669
 30
0.0
 40
70.49999999999963
100
AcDbArc
 50
-44.06534700000059
 51
-30.93465300000073
  0
ARC
  5
299
330
5C
100
AcDbEntity
  8
LC-001-002-----0
  6
Continuous
 62
     7
100
AcDbCircle
 10
0.00019096591132
 20
-685.024173749669
 30
0.0
 40
72.99999999999977
100
AcDbArc
 50
-29.09735799999895
 51
-15.90264200000022
  0
ARC
  5
29A
330
5C
100
AcDbEntity
  8
LC-001-002-----0
  6
Continuous
 62
     7
100
AcDbCircle
 10
0.00019096591132
 20
-685.024173749669
 30
0.0
 40
70.49999999999979
100
AcDbArc
 50
-29.06534700000125
 51
-15.93465300000012
  0
ARC
  5
29B
330
5C
100
AcDbEntity
  8
LC-001-002-----0
  6
Continuous
 62
     7
100
AcDbCircle
 10
0.00019096591132
 20
-685.024173749669
 30
0.0
 40
72.9999999999981
100
AcDbArc
 50
0.90264199999909
 51
14.09735800000133
  0
ARC
  5
29C
330
5C
100
AcDbEntity
  8
LC-001-002-----0
  6
Continuous
 62
     7
100
AcDbCircle
 10
0.00019096591132
 20
-685.024173749669
 30
0.0
 40
70.50000000000136
100
AcDbArc
 50
0.93465300000046
 51
14.06534700000101
  0
ARC
  5
29D
330
5C
100
AcDbEntity
  8
LC-001-002-----0
  6
Continuous
 62
     7
100
AcDbCircle
 10
0.00019096591132
 20
-685.024173749669
 30
0.0
 40
73.00000000000036
100
AcDbArc
 50
15.90264200000022
 51
29.09735799999895
  0
ARC
  5
29E
330
5C
100
AcDbEntity
  8
LC-001-002-----0
  6
Continuous
 62
     7
100
AcDbCircle
 10
0.00019096591132
 20
-685.024173749669
 30
0.0
 40
70.50000000000071
100
AcDbArc
 50
15.93465300000012
 51
29.06534700000125
  0
ARC
  5
29F
330
5C
100
AcDbEntity
  8
LC-001-002-----0
  6
Continuous
 62
     7
100
AcDbCircle
 10
0.00019096591132
 20
-685.024173749669
 30
0.0
 40
72.99999999999798
100
AcDbArc
 50
30.9026420000004
 51
44.09735800000098
  0
ARC
  5
2A0
330
5C
100
AcDbEntity
  8
LC-001-002-----0
  6
Continuous
 62
     7
100
AcDbCircle
 10
0.00019096591132
 20
-685.024173749669
 30
0.0
 40
72.99999999999895
100
AcDbArc
 50
45.90264199999902
 51
59.0973579999996
  0
ARC
  5
2A1
330
5C
100
AcDbEntity
  8
LC-001-002-----0
  6
Continuous
 62
     7
100
AcDbCircle
 10
0.00019096591132
 20
-685.024173749669
 30
0.0
 40
72.99999999999977
100
AcDbArc
 50
60.90264200000104
 51
74.09735799999977
  0
ARC
  5
2A2
330
5C
100
AcDbEntity
  8
LC-001-002-----0
  6
Continuous
 62
     7
100
AcDbCircle
 10
0.00019096591132
 20
-685.024173749669
 30
0.0
 40
70.49999999999874
100
AcDbArc
 50
30.93465300000073
 51
44.06534700000059
  0
ARC
  5
2A3
330
5C
100
AcDbEntity
  8
LC-001-002-----0
  6
Continuous
 62
     7
100
AcDbCircle
 10
0.00019096591132
 20
-685.024173749669
 30
0.0
 40
70.49999999999963
100
AcDbArc
 50
45.9346529999994
 51
59.06534699999928
  0
ARC
  5
2A4
330
5C
100
AcDbEntity
  8
LC-001-002-----0
  6
Continuous
 62
     7
100
AcDbCircle
 10
0.00019096591132
 20
-685.024173749669
 30
0.0
 40
70.49999999999979
100
AcDbArc
 50
60.93465299999875
 51
74.06534699999989
  0
ARC
  5
2A5
330
5C
100
AcDbEntity
  8
LC-001-002-----0
  6
Continuous
 62
     7
100
AcDbCircle
 10
0.00019096591132
 20
-685.024173749669
 30
0.0
 40
72.9999999999981
100
AcDbArc
 50
90.90264199999909
 51
104.0973580000013
  0
ARC
  5
2A6
330
5C
100
AcDbEntity
  8
LC-001-002-----0
  6
Continuous
 62
     7
100
AcDbCircle
 10
0.00019096591132
 20
-685.024173749669
 30
0.0
 40
70.50000000000136
100
AcDbArc
 50
90.93465300000047
 51
104.065347000001
  0
ARC
  5
2A7
330
5C
100
AcDbEntity
  8
LC-001-002-----0
  6
Continuous
 62
     7
100
AcDbCircle
 10
0.00019096591132
 20
-685.024173749669
 30
0.0
 40
73.00000000000036
100
AcDbArc
 50
105.9026420000002
 51
119.097357999999
  0
ARC
  5
2A8
330
5C
100
AcDbEntity
  8
LC-001-002-----0
  6
Continuous
 62
     7
100
AcDbCircle
 10
0.00019096591132
 20
-685.024173749669
 30
0.0
 40
70.50000000000071
100
AcDbArc
 50
105.9346530000001
 51
119.0653470000012
  0
ARC
  5
2A9
330
5C
100
AcDbEntity
  8
LC-001-002-----0
  6
Continuous
 62
     7
100
AcDbCircle
 10
0.00019096591132
 20
-685.024173749669
 30
0.0
 40
72.99999999999798
100
AcDbArc
 50
120.9026420000004
 51
134.097358000001
  0
ARC
  5
2AA
330
5C
100
AcDbEntity
  8
LC-001-002-----0
  6
Continuous
 62
     7
100
AcDbCircle
 10
0.00019096591132
 20
-685.024173749669
 30
0.0
 40
70.49999999999874
100
AcDbArc
 50
120.9346530000007
 51
134.0653470000006
  0
ARC
  5
2AB
330
5C
100
AcDbEntity
  8
LC-001-002-----0
  6
Continuous
 62
     7
100
AcDbCircle
 10
0.00019096591132
 20
-685.024173749669
 30
0.0
 40
72.99999999999895
100
AcDbArc
 50
135.902641999999
 51
149.0973579999996
  0
ARC
  5
2AC
330
5C
100
AcDbEntity
  8
LC-001-002-----0
  6
Continuous
 62
     7
100
AcDbCircle
 10
0.00019096591132
 20
-685.024173749669
 30
0.0
 40
70.49999999999963
100
AcDbArc
 50
135.9346529999994
 51
149.0653469999993
  0
ARC
  5
2AD
330
5C
100
AcDbEntity
  8
LC-001-002-----0
  6
Continuous
 62
     7
100
AcDbCircle
 10
0.00019096591132
 20
-685.024173749669
 30
0.0
 40
70.49999999999979
100
AcDbArc
 50
150.9346529999987
 51
164.0653469999999
  0
ARC
  5
2AE
330
5C
100
AcDbEntity
  8
LC-001-002-----0
  6
Continuous
 62
     7
100
AcDbCircle
 10
0.00019096591132
 20
-685.024173749669
 30
0.0
 40
72.99999999999977
100
AcDbArc
 50
150.9026420000011
 51
164.0973579999998
  0
ARC
  5
2AF
330
5C
100
AcDbEntity
  8
LC-001-002-----0
  6
Continuous
 62
     7
100
AcDbCircle
 10
0.00042596591084
 20
-685.0237667496694
 30
0.0
 40
59.50050100000049
100
AcDbArc
 50
-103.8926600000006
 51
-91.10768299999926
  0
ARC
  5
2B0
330
5C
100
AcDbEntity
  8
LC-001-002-----0
  6
Continuous
 62
     7
100
AcDbCircle
 10
0.00042596591084
 20
-685.024173749669
 30
0.0
 40
75.00035699999881
100
AcDbArc
 50
-104.1216080000015
 51
-90.87874500000096
  0
ARC
  5
2B1
330
5C
100
AcDbEntity
  8
LC-001-002-----0
  6
Continuous
 62
     7
100
AcDbCircle
 10
0.00042596591084
 20
-685.0237667496694
 30
0.0
 40
63.00057099999932
100
AcDbArc
 50
166.0463360000009
 51
178.9544459999995
  0
ARC
  5
2B2
330
5C
100
AcDbEntity
  8
LC-001-002-----0
  6
Continuous
 62
     7
100
AcDbCircle
 10
0.00042596591084
 20
-685.0237667496694
 30
0.0
 40
59.5005009999993
100
AcDbArc
 50
-58.89293400000043
 51
-46.10789399999792
  0
ARC
  5
2B3
330
5C
100
AcDbEntity
  8
LC-001-002-----0
  6
Continuous
 62
     7
100
AcDbCircle
 10
0.00042596591084
 20
-685.024173749669
 30
0.0
 40
79.0000490000001
100
AcDbArc
 50
-134.1660389999986
 51
-120.8342290000011
  0
ARC
  5
2B4
330
5C
100
AcDbEntity
  8
LC-001-002-----0
  6
Continuous
 62
     7
100
AcDbCircle
 10
0.00019096591132
 20
-685.024173749669
 30
0.0
 40
73.00000000000097
100
AcDbArc
 50
-14.09735800000133
 51
-0.90264200000194
  0
ARC
  5
2B5
330
5C
100
AcDbEntity
  8
LC-001-002-----0
  6
Continuous
 62
     7
100
AcDbCircle
 10
0.00019096591132
 20
-685.024173749669
 30
0.0
 40
70.50000000000092
100
AcDbArc
 50
-14.06534700000101
 51
-0.93465300000046
  0
ARC
  5
2B6
330
5C
100
AcDbEntity
  8
LC-001-002-----0
  6
Continuous
 62
     7
100
AcDbCircle
 10
0.00019096591132
 20
-685.024173749669
 30
0.0
 40
73.00000000000097
100
AcDbArc
 50
-104.0973580000013
 51
-90.90264199999905
  0
ARC
  5
2B7
330
5C
100
AcDbEntity
  8
LC-001-002-----0
  6
Continuous
 62
     7
100
AcDbCircle
 10
0.00019096591132
 20
-685.024173749669
 30
0.0
 40
70.50000000000092
100
AcDbArc
 50
-104.065347000001
 51
-90.93465300000047
  0
ARC
  5
2B8
330
5C
100
AcDbEntity
  8
LC-001-002-----0
  6
Continuous
 62
     7
100
AcDbCircle
 10
0.00019096591132
 20
-685.024173749669
 30
0.0
 40
73.90000000000043
100
AcDbArc
 50
-99.18804599999922
 51
-90.89164799999892
  0
ARC
  5
2B9
330
5C
100
AcDbEntity
  8
LC-001-002-----0
  6
Continuous
 62
     7
100
AcDbCircle
 10
0.00042596591084
 20
-685.024173749669
 30
0.0
 40
75.00035699999984
100
AcDbArc
 50
165.8786120000015
 51
179.1214339999993
  0
ARC
  5
2BA
330
5C
100
AcDbEntity
  8
LC-001-002-----0
  6
Continuous
 62
     7
100
AcDbCircle
 10
0.00019096591132
 20
-685.024173749669
 30
0.0
 40
73.90000000000168
100
AcDbArc
 50
-89.10835200000108
 51
-80.81195400000078
  0
ARC
  5
2BB
330
5C
100
AcDbEntity
  8
LC-001-002-----0
  6
Continuous
 62
     7
100
AcDbCircle
 10
0.00042596591084
 20
-685.024173749669
 30
0.0
 40
79.00004899999966
100
AcDbArc
 50
-104.1660829999998
 51
-90.83425200000131
  0
ARC
  5
2BC
330
5C
100
AcDbEntity
  8
LC-001-002-----0
  6
Continuous
 62
     7
100
AcDbCircle
 10
0.00019096591132
 20
-685.024173749669
 30
0.0
 40
73.90000000000043
100
AcDbArc
 50
-9.18804599999921
 51
-0.89164799999893
  0
ARC
  5
2BD
330
5C
100
AcDbEntity
  8
LC-001-002-----0
  6
Continuous
 62
     7
100
AcDbCircle
 10
0.00042596591084
 20
-685.024173749669
 30
0.0
 40
79.00004900000067
100
AcDbArc
 50
165.8341250000002
 51
179.1659190000003
  0
ARC
  5
2BE
330
5C
100
AcDbEntity
  8
LC-001-002-----0
  6
Continuous
 62
     7
100
AcDbCircle
 10
0.00019096591132
 20
-685.024173749669
 30
0.0
 40
73.90000000000168
100
AcDbArc
 50
0.89164799999893
 51
9.18804599999921
  0
ARC
  5
2BF
330
5C
100
AcDbEntity
  8
LC-001-002-----0
  6
Continuous
 62
     7
100
AcDbCircle
 10
0.00019096591132
 20
-685.024173749669
 30
0.0
 40
73.90000000000043
100
AcDbArc
 50
80.81195400000078
 51
89.10835200000108
  0
ARC
  5
2C0
330
5C
100
AcDbEntity
  8
LC-001-002-----0
  6
Continuous
 62
     7
100
AcDbCircle
 10
0.00042596591084
 20
-685.0237667496694
 30
0.0
 40
59.50050099999858
100
AcDbArc
 50
76.10757399999994
 51
88.89276899999922
  0
ARC
  5
2C1
330
5C
100
AcDbEntity
  8
LC-001-002-----0
  6
Continuous
 62
     7
100
AcDbCircle
 10
0.00019096591132
 20
-685.024173749669
 30
0.0
 40
73.90000000000168
100
AcDbArc
 50
90.89164799999892
 51
99.18804599999922
  0
ARC
  5
2C2
330
5C
100
AcDbEntity
  8
LC-001-002-----0
  6
Continuous
 62
     7
100
AcDbCircle
 10
0.00042596591084
 20
-685.0237667496694
 30
0.0
 40
59.50050099999905
100
AcDbArc
 50
166.107893999998
 51
178.8929339999979
  0
ARC
  5
2C3
330
5C
100
AcDbEntity
  8
LC-001-002-----0
  6
Continuous
 62
     7
100
AcDbCircle
 10
0.00019096591132
 20
-685.024173749669
 30
0.0
 40
73.90000000000043
100
AcDbArc
 50
170.8119540000008
 51
179.1083520000011
  0
ARC
  5
2C4
330
5C
100
AcDbEntity
  8
LC-001-002-----0
  6
Continuous
 62
     7
100
AcDbCircle
 10
0.00019096591132
 20
-685.024173749669
 30
0.0
 40
70.50000000000092
100
AcDbArc
 50
75.93465299999899
 51
89.06534699999953
  0
ARC
  5
2C5
330
5C
100
AcDbEntity
  8
LC-001-002-----0
  6
Continuous
 62
     7
100
AcDbCircle
 10
0.00019096591132
 20
-685.024173749669
 30
0.0
 40
73.00000000000097
100
AcDbArc
 50
75.90264199999868
 51
89.09735800000092
  0
ARC
  5
2C6
330
5C
100
AcDbEntity
  8
LC-001-002-----0
  6
Continuous
 62
     7
100
AcDbCircle
 10
0.00019096591132
 20
-685.024173749669
 30
0.0
 40
73.00000000000097
100
AcDbArc
 50
165.9026419999987
 51
179.097358000001
  0
ARC
  5
2C7
330
5C
100
AcDbEntity
  8
LC-001-002-----0
  6
Continuous
 62
     7
100
AcDbCircle
 10
0.00019096591132
 20
-685.024173749669
 30
0.0
 40
73.90000000000168
100
AcDbArc
 50
-179.1083520000011
 51
-170.8119540000008
  0
ARC
  5
2C8
330
5C
100
AcDbEntity
  8
LC-001-002-----0
  6
Continuous
 62
     7
100
AcDbCircle
 10
0.00019096591132
 20
-685.024173749669
 30
0.0
 40
70.50000000000092
100
AcDbArc
 50
165.934652999999
 51
179.0653469999995
  0
ARC
  5
2C9
330
5C
100
AcDbEntity
  8
LC-002-002-RND-0
  6
Continuous
 62
     7
100
AcDbCircle
 10
1.20019096591204
 20
-694.0080427496687
 30
0.0
 40
0.9999999999999998
100
AcDbArc
 50
0.0
 51
90.0
  0
ARC
  5
2CA
330
5C
100
AcDbEntity
  8
LC-002-002-RND-0
  6
Continuous
 62
     7
100
AcDbCircle
 10
-1.19980903408941
 20
-694.0080427496687
 30
0.0
 40
1.0
100
AcDbArc
 50
90.0
 51
180.0
  0
ARC
  5
2CB
330
5C
100
AcDbEntity
  8
LC-002-002-RND-0
  6
Continuous
 62
     7
100
AcDbCircle
 10
-1.19980903408941
 20
-718.0080427496687
 30
0.0
 40
0.9999999999999998
100
AcDbArc
 50
180.0
 51
-90.0
  0
ARC
  5
2CC
330
5C
100
AcDbEntity
  8
LC-002-002-RND-0
  6
Continuous
 62
     7
100
AcDbCircle
 10
1.20019096591204
 20
-718.0080427496687
 30
0.0
 40
1.0
100
AcDbArc
 50
-90.0
 51
0.0
  0
ARC
  5
2CD
330
5C
100
AcDbEntity
  8
LC-002-002-RND-0
  6
Continuous
 62
     7
100
AcDbCircle
 10
1.20019096591204
 20
-676.0403047496693
 30
0.0
 40
1.0
100
AcDbArc
 50
-90.0
 51
0.0
  0
ARC
  5
2CE
330
5C
100
AcDbEntity
  8
LC-002-002-RND-0
  6
Continuous
 62
     7
100
AcDbCircle
 10
-1.19980903408941
 20
-676.0403047496693
 30
0.0
 40
0.9999999999999998
100
AcDbArc
 50
180.0
 51
-90.0
  0
ARC
  5
2CF
330
5C
100
AcDbEntity
  8
LC-002-002-RND-0
  6
Continuous
 62
     7
100
AcDbCircle
 10
-1.19980903408941
 20
-652.0403047496693
 30
0.0
 40
1.0
100
AcDbArc
 50
90.0
 51
180.0
  0
ARC
  5
2D0
330
5C
100
AcDbEntity
  8
LC-002-002-RND-0
  6
Continuous
 62
     7
100
AcDbCircle
 10
1.20019096591204
 20
-652.0403047496693
 30
0.0
 40
0.9999999999999998
100
AcDbArc
 50
0.0
 51
90.0
  0
ARC
  5
2D1
330
5C
100
AcDbEntity
  8
LC-001-002-----0
  6
Continuous
 62
     7
100
AcDbCircle
 10
0.00019096591132
 20
-685.024173749669
 30
0.0
 40
44.83999999999904
100
AcDbArc
 50
61.46961099999938
 51
73.53038900000053
  0
ARC
  5
2D2
330
5C
100
AcDbEntity
  8
LC-001-002-----0
  6
Continuous
 62
     7
100
AcDbCircle
 10
0.00019096591132
 20
-685.024173749669
 30
0.0
 40
44.83999999999953
100
AcDbArc
 50
46.46961099999983
 51
58.53038899999886
  0
ARC
  5
2D3
330
5C
100
AcDbEntity
  8
LC-001-002-----0
  6
Continuous
 62
     7
100
AcDbCircle
 10
0.00019096591132
 20
-685.024173749669
 30
0.0
 40
44.83999999999892
100
AcDbArc
 50
31.46961099999717
 51
43.53038900000016
  0
ARC
  5
2D4
330
5C
100
AcDbEntity
  8
LC-001-002-----0
  6
Continuous
 62
     7
100
AcDbCircle
 10
0.00019096591132
 20
-685.024173749669
 30
0.0
 40
44.84000000000089
100
AcDbArc
 50
16.46961099999947
 51
28.53038900000061
  0
ARC
  5
2D5
330
5C
100
AcDbEntity
  8
LC-001-002-----0
  6
Continuous
 62
     7
100
AcDbCircle
 10
0.00019096591132
 20
-685.024173749669
 30
0.0
 40
44.8400000000011
100
AcDbArc
 50
1.4696109999983
 51
13.53038900000185
  0
ARC
  5
2D6
330
5C
100
AcDbEntity
  8
LC-001-002-----0
  6
Continuous
 62
     7
100
AcDbCircle
 10
0.00019096591132
 20
-685.024173749669
 30
0.0
 40
44.83999999999997
100
AcDbArc
 50
-13.53038900000185
 51
-1.4696109999983
  0
ARC
  5
2D7
330
5C
100
AcDbEntity
  8
LC-001-002-----0
  6
Continuous
 62
     7
100
AcDbCircle
 10
0.00019096591132
 20
-685.024173749669
 30
0.0
 40
44.83999999999904
100
AcDbArc
 50
-28.53038900000061
 51
-16.46961099999947
  0
ARC
  5
2D8
330
5C
100
AcDbEntity
  8
LC-001-002-----0
  6
Continuous
 62
     7
100
AcDbCircle
 10
0.00019096591132
 20
-685.024173749669
 30
0.0
 40
44.83999999999954
100
AcDbArc
 50
-43.53038900000016
 51
-31.46961100000113
  0
ARC
  5
2D9
330
5C
100
AcDbEntity
  8
LC-001-002-----0
  6
Continuous
 62
     7
100
AcDbCircle
 10
0.00019096591132
 20
-685.024173749669
 30
0.0
 40
44.84000000000081
100
AcDbArc
 50
-58.53038899999886
 51
-46.46961099999983
  0
ARC
  5
2DA
330
5C
100
AcDbEntity
  8
LC-001-002-----0
  6
Continuous
 62
     7
100
AcDbCircle
 10
0.00019096591132
 20
-685.024173749669
 30
0.0
 40
44.84000000000089
100
AcDbArc
 50
-73.53038900000053
 51
-61.46961099999938
  0
ARC
  5
2DB
330
5C
100
AcDbEntity
  8
LC-001-002-----0
  6
Continuous
 62
     7
100
AcDbCircle
 10
0.00019096591132
 20
-685.024173749669
 30
0.0
 40
44.84000000000111
100
AcDbArc
 50
-88.5303890000017
 51
-76.46961099999814
  0
ARC
  5
2DC
330
5C
100
AcDbEntity
  8
LC-001-002-----0
  6
Continuous
 62
     7
100
AcDbCircle
 10
0.00019096591132
 20
-685.024173749669
 30
0.0
 40
44.83999999999997
100
AcDbArc
 50
-103.5303890000018
 51
-91.46961099999831
  0
ARC
  5
2DD
330
5C
100
AcDbEntity
  8
LC-001-002-----0
  6
Continuous
 62
     7
100
AcDbCircle
 10
0.00019096591132
 20
-685.024173749669
 30
0.0
 40
44.83999999999904
100
AcDbArc
 50
-118.5303890000006
 51
-106.4696109999995
  0
ARC
  5
2DE
330
5C
100
AcDbEntity
  8
LC-001-002-----0
  6
Continuous
 62
     7
100
AcDbCircle
 10
0.00019096591132
 20
-685.024173749669
 30
0.0
 40
44.83999999999953
100
AcDbArc
 50
-133.5303890000002
 51
-121.4696110000011
  0
ARC
  5
2DF
330
5C
100
AcDbEntity
  8
LC-001-002-----0
  6
Continuous
 62
     7
100
AcDbCircle
 10
0.00019096591132
 20
-685.024173749669
 30
0.0
 40
44.84000000000082
100
AcDbArc
 50
-148.5303889999989
 51
-136.4696109999998
  0
ARC
  5
2E0
330
5C
100
AcDbEntity
  8
LC-001-002-----0
  6
Continuous
 62
     7
100
AcDbCircle
 10
0.00019096591132
 20
-685.024173749669
 30
0.0
 40
44.84000000000089
100
AcDbArc
 50
-163.5303890000005
 51
-151.4696109999994
  0
ARC
  5
2E1
330
5C
100
AcDbEntity
  8
LC-001-002-----0
  6
Continuous
 62
     7
100
AcDbCircle
 10
0.00019096591132
 20
-685.024173749669
 30
0.0
 40
44.84000000000111
100
AcDbArc
 50
-178.5303890000017
 51
-166.4696109999982
  0
ARC
  5
2E2
330
5C
100
AcDbEntity
  8
LC-001-002-----0
  6
Continuous
 62
     7
100
AcDbCircle
 10
0.00019096591132
 20
-685.024173749669
 30
0.0
 40
41.00000000000049
100
AcDbArc
 50
-131.9188670000022
 51
-93.0811330000016
  0
ARC
  5
2E3
330
5C
100
AcDbEntity
  8
LC-002-002-RND-0
  6
Continuous
 62
     7
100
AcDbCircle
 10
-2.14980903409014
 20
-724.9663507496698
 30
0.0
 40
0.9999999999999203
100
AcDbArc
 50
-93.08113299999174
 51
0.0
  0
ARC
  5
2E4
330
5C
100
AcDbEntity
  8
LC-002-002-RND-0
  6
Continuous
 62
     7
100
AcDbCircle
 10
2.15019096591277
 20
-724.9663507496698
 30
0.0
 40
1.0
100
AcDbArc
 50
180.0
 51
-86.91886700021642
  0
ARC
  5
2E5
330
5C
100
AcDbEntity
  8
LC-001-002-----0
  6
Continuous
 62
     7
100
AcDbCircle
 10
0.00019096591132
 20
-685.024173749669
 30
0.0
 40
41.00000000000056
100
AcDbArc
 50
-86.91886700000347
 51
-48.08113300000155
  0
ARC
  5
2E6
330
5C
100
AcDbEntity
  8
LC-001-002-----0
  6
Continuous
 62
     7
100
AcDbCircle
 10
0.00019096591132
 20
-685.024173749669
 30
0.0
 40
41.00000000000076
100
AcDbArc
 50
-176.9188669999984
 51
-138.0811329999978
  0
ARC
  5
2E7
330
5C
100
AcDbEntity
  8
LC-002-002-RND-0
  6
Continuous
 62
     7
100
AcDbCircle
 10
26.72329496591192
 20
-714.7878377496709
 30
0.0
 40
0.9999999999977353
100
AcDbArc
 50
-48.08113300005174
 51
45.00000000014725
  0
ARC
  5
2E8
330
5C
100
AcDbEntity
  8
LC-002-002-RND-0
  6
Continuous
 62
     7
100
AcDbCircle
 10
29.76385496590956
 20
-711.7472787496699
 30
0.0
 40
0.9999999999975964
100
AcDbArc
 50
-135.0
 51
-41.9188669998093
  0
ARC
  5
2E9
330
5C
100
AcDbEntity
  8
LC-002-002-RND-0
  6
Continuous
 62
     7
100
AcDbCircle
 10
-26.72291403408963
 20
-714.7878377496709
 30
0.0
 40
1.000000000000164
100
AcDbArc
 50
134.9999999998523
 51
-131.9188669999482
  0
ARC
  5
2EA
330
5C
100
AcDbEntity
  8
LC-002-002-RND-0
  6
Continuous
 62
     7
100
AcDbCircle
 10
-29.76347303409057
 20
-711.7472787496699
 30
0.0
 40
0.9999999999977324
100
AcDbArc
 50
-138.0811330000513
 51
-44.99999999985247
  0
ARC
  5
2EB
330
5C
100
AcDbEntity
  8
LC-001-002-----0
  6
Continuous
 62
     7
100
AcDbCircle
 10
0.00019096591132
 20
-685.024173749669
 30
0.0
 40
41.00000000000049
100
AcDbArc
 50
-41.91886700000222
 51
-3.08113300000161
  0
ARC
  5
2EC
330
5C
100
AcDbEntity
  8
LC-001-002-----0
  6
Continuous
 62
     7
100
AcDbCircle
 10
0.00019096591132
 20
-685.024173749669
 30
0.0
 40
41.00000000000056
100
AcDbArc
 50
3.08113299999653
 51
41.91886699999845
  0
ARC
  5
2ED
330
5C
100
AcDbEntity
  8
LC-001-002-----0
  6
Continuous
 62
     7
100
AcDbCircle
 10
0.00019096591132
 20
-685.024173749669
 30
0.0
 40
41.00000000000049
100
AcDbArc
 50
48.08113299999778
 51
86.91886700000347
  0
ARC
  5
2EE
330
5C
100
AcDbEntity
  8
LC-001-002-----0
  6
Continuous
 62
     7
100
AcDbCircle
 10
0.00019096591132
 20
-685.024173749669
 30
0.0
 40
41.00000000000076
100
AcDbArc
 50
93.0811330000016
 51
131.9188670000022
  0
ARC
  5
2EF
330
5C
100
AcDbEntity
  8
LC-001-002-----0
  6
Continuous
 62
     7
100
AcDbCircle
 10
0.00019096591132
 20
-685.024173749669
 30
0.0
 40
44.83999999999997
100
AcDbArc
 50
76.46961099999814
 51
88.5303890000017
  0
ARC
  5
2F0
330
5C
100
AcDbEntity
  8
LC-001-002-----0
  6
Continuous
 62
     7
100
AcDbCircle
 10
0.00019096591132
 20
-685.024173749669
 30
0.0
 40
44.84000000000111
100
AcDbArc
 50
91.46961099999831
 51
103.5303890000018
  0
ARC
  5
2F1
330
5C
100
AcDbEntity
  8
LC-001-002-----0
  6
Continuous
 62
     7
100
AcDbCircle
 10
0.00019096591132
 20
-685.024173749669
 30
0.0
 40
44.84000000000089
100
AcDbArc
 50
106.4696109999995
 51
118.5303890000006
  0
ARC
  5
2F2
330
5C
100
AcDbEntity
  8
LC-001-002-----0
  6
Continuous
 62
     7
100
AcDbCircle
 10
0.00019096591132
 20
-685.024173749669
 30
0.0
 40
44.84000000000081
100
AcDbArc
 50
121.4696110000011
 51
133.4745849999999
  0
ARC
  5
2F3
330
5C
100
AcDbEntity
  8
LC-001-002-----0
  6
Continuous
 62
     7
100
AcDbCircle
 10
0.00019096591132
 20
-685.024173749669
 30
0.0
 40
44.83999999999953
100
AcDbArc
 50
136.4696109999998
 51
148.5303890000028
  0
ARC
  5
2F4
330
5C
100
AcDbEntity
  8
LC-001-002-----0
  6
Continuous
 62
     7
100
AcDbCircle
 10
0.00019096591132
 20
-685.024173749669
 30
0.0
 40
44.83999999999904
100
AcDbArc
 50
151.4696109999994
 51
163.5303890000005
  0
ARC
  5
2F5
330
5C
100
AcDbEntity
  8
LC-002-002-RND-0
  6
Continuous
 62
     7
100
AcDbCircle
 10
39.94236796591213
 20
-682.8741737496675
 30
0.0
 40
1.0
100
AcDbArc
 50
-90.0
 51
3.08113299978361
  0
ARC
  5
2F6
330
5C
100
AcDbEntity
  8
LC-002-002-RND-0
  6
Continuous
 62
     7
100
AcDbCircle
 10
39.94236796591213
 20
-687.1741737496704
 30
0.0
 40
0.9999999999999132
100
AcDbArc
 50
-3.08113299999175
 51
90.0
  0
ARC
  5
2F7
330
5C
100
AcDbEntity
  8
LC-002-002-RND-0
  6
Continuous
 62
     7
100
AcDbCircle
 10
26.72329496591192
 20
-655.2605097496707
 30
0.0
 40
0.9999999999975989
100
AcDbArc
 50
-44.99999999999986
 51
48.081133000191
  0
ARC
  5
2F8
330
5C
100
AcDbEntity
  8
LC-002-002-RND-0
  6
Continuous
 62
     7
100
AcDbCircle
 10
29.76385496590956
 20
-658.301068749668
 30
0.0
 40
1.000000000000442
100
AcDbArc
 50
41.9188669998093
 51
135.0
  0
ARC
  5
2F9
330
5C
100
AcDbEntity
  8
LC-002-002-RND-0
  6
Continuous
 62
     7
100
AcDbCircle
 10
-2.14980903409014
 20
-645.0819967496682
 30
0.0
 40
1.0
100
AcDbArc
 50
0.0
 51
93.08113299999174
  0
ARC
  5
2FA
330
5C
100
AcDbEntity
  8
LC-002-002-RND-0
  6
Continuous
 62
     7
100
AcDbCircle
 10
2.15019096591277
 20
-645.0819967496682
 30
0.0
 40
0.9999999999997247
100
AcDbArc
 50
86.91886700021642
 51
180.0
  0
ARC
  5
2FB
330
5C
100
AcDbEntity
  8
LC-002-002-RND-0
  6
Continuous
 62
     7
100
AcDbCircle
 10
-29.76347303409057
 20
-658.301068749668
 30
0.0
 40
1.000000000000171
100
AcDbArc
 50
44.99999999985247
 51
138.0811330000513
  0
ARC
  5
2FC
330
5C
100
AcDbEntity
  8
LC-002-002-RND-0
  6
Continuous
 62
     7
100
AcDbCircle
 10
-26.72291403408963
 20
-655.2605097496707
 30
0.0
 40
1.000000000000442
100
AcDbArc
 50
131.918866999809
 51
-134.9999999999997
  0
ARC
  5
2FD
330
5C
100
AcDbEntity
  8
LC-001-002-----0
  6
Continuous
 62
     7
100
AcDbCircle
 10
0.00019096591132
 20
-685.024173749669
 30
0.0
 40
44.83999999999997
100
AcDbArc
 50
166.4696109999982
 51
178.5303890000017
  0
ARC
  5
2FE
330
5C
100
AcDbEntity
  8
LC-002-002-RND-0
  6
Continuous
 62
     7
100
AcDbCircle
 10
-39.9419860340895
 20
-687.1741737496704
 30
0.0
 40
1.0
100
AcDbArc
 50
90.0
 51
-176.9188670000082
  0
ARC
  5
2FF
330
5C
100
AcDbEntity
  8
LC-002-002-RND-0
  6
Continuous
 62
     7
100
AcDbCircle
 10
-39.9419860340895
 20
-682.8741737496675
 30
0.0
 40
0.9999999999997176
100
AcDbArc
 50
176.9188670002164
 51
-90.0
  0
ARC
  5
300
330
5C
100
AcDbEntity
  8
LC-001-002-----0
  6
Continuous
 62
     7
100
AcDbCircle
 10
0.00019096591132
 20
-685.024173749669
 30
0.0
 40
41.00000000000049
100
AcDbArc
 50
138.0811329999978
 51
176.9188670000035
  0
ARC
  5
301
330
5C
100
AcDbEntity
  8
LC-001-002-----0
  6
Continuous
 62
     7
100
AcDbCircle
 10
0.00019096591132
 20
-685.024173749669
 30
0.0
 40
3.499999999998411
100
AcDbArc
 50
109.1820900000047
 51
115.8179100000039
  0
ARC
  5
302
330
5C
100
AcDbEntity
  8
LC-001-002-----0
  6
Continuous
 62
     7
100
AcDbCircle
 10
0.00019096591132
 20
-685.024173749669
 30
0.0
 40
85.60000000000052
100
AcDbArc
 50
-15.76976800000082
 51
-14.2302319999999
  0
ARC
  5
303
330
5C
100
AcDbEntity
  8
LC-001-002-----0
  6
Continuous
 62
     7
100
AcDbCircle
 10
0.00019096591132
 20
-685.024173749669
 30
0.0
 40
85.59999999999923
100
AcDbArc
 50
-30.76976800000082
 51
-29.23023200000113
  0
ARC
  5
304
330
5C
100
AcDbEntity
  8
LC-001-002-----0
  6
Continuous
 62
     7
100
AcDbCircle
 10
0.00019096591132
 20
-685.024173749669
 30
0.0
 40
85.59999999999948
100
AcDbArc
 50
-45.7697680000006
 51
-44.2302319999994
  0
ARC
  5
305
330
5C
100
AcDbEntity
  8
LC-001-002-----0
  6
Continuous
 62
     7
100
AcDbCircle
 10
0.00019096591132
 20
-685.024173749669
 30
0.0
 40
85.60000000000089
100
AcDbArc
 50
-60.76976799999888
 51
-59.23023200000043
  0
ARC
  5
306
330
5C
100
AcDbEntity
  8
LC-001-002-----0
  6
Continuous
 62
     7
100
AcDbCircle
 10
0.00019096591132
 20
-685.024173749669
 30
0.0
 40
85.60000000000028
100
AcDbArc
 50
-75.76976800000011
 51
-74.23023200000154
  0
ARC
  5
307
330
5C
100
AcDbEntity
  8
LC-001-002-----0
  6
Continuous
 62
     7
100
AcDbCircle
 10
0.00019096591132
 20
-685.024173749669
 30
0.0
 40
85.59999999999894
100
AcDbArc
 50
-0.76976800000084
 51
0.76976800000084
  0
ARC
  5
308
330
5C
100
AcDbEntity
  8
LC-001-002-----0
  6
Continuous
 62
     7
100
AcDbCircle
 10
0.00019096591132
 20
-685.024173749669
 30
0.0
 40
85.60000000000028
100
AcDbArc
 50
14.2302319999999
 51
15.76976799999848
  0
ARC
  5
309
330
5C
100
AcDbEntity
  8
LC-001-002-----0
  6
Continuous
 62
     7
100
AcDbCircle
 10
0.00019096591132
 20
-685.024173749669
 30
0.0
 40
85.59999999999911
100
AcDbArc
 50
29.230231999999
 51
30.76976800000082
  0
ARC
  5
30A
330
5C
100
AcDbEntity
  8
LC-001-002-----0
  6
Continuous
 62
     7
100
AcDbCircle
 10
0.00019096591132
 20
-685.024173749669
 30
0.0
 40
85.59999999999947
100
AcDbArc
 50
44.2302319999994
 51
45.7697680000006
  0
ARC
  5
30B
330
5C
100
AcDbEntity
  8
LC-001-002-----0
  6
Continuous
 62
     7
100
AcDbCircle
 10
0.00019096591132
 20
-685.024173749669
 30
0.0
 40
85.59999999999923
100
AcDbArc
 50
59.23023199999918
 51
60.76976799999888
  0
ARC
  5
30C
330
5C
100
AcDbEntity
  8
LC-001-002-----0
  6
Continuous
 62
     7
100
AcDbCircle
 10
0.00019096591132
 20
-685.024173749669
 30
0.0
 40
85.59999999999954
100
AcDbArc
 50
74.23023200000154
 51
75.76976800000011
  0
ARC
  5
30D
330
5C
100
AcDbEntity
  8
LC-001-002-----0
  6
Continuous
 62
     7
100
AcDbCircle
 10
0.00019096591132
 20
-685.024173749669
 30
0.0
 40
85.59999999999894
100
AcDbArc
 50
89.23023199999916
 51
90.76976800000084
  0
ARC
  5
30E
330
5C
100
AcDbEntity
  8
LC-001-002-----0
  6
Continuous
 62
     7
100
AcDbCircle
 10
0.00019096591132
 20
-685.024173749669
 30
0.0
 40
85.60000000000028
100
AcDbArc
 50
104.2302319999999
 51
105.7697680000008
  0
ARC
  5
30F
330
5C
100
AcDbEntity
  8
LC-001-002-----0
  6
Continuous
 62
     7
100
AcDbCircle
 10
0.00019096591132
 20
-685.024173749669
 30
0.0
 40
85.60000000000089
100
AcDbArc
 50
119.2302320000011
 51
120.7697680000008
  0
ARC
  5
310
330
5C
100
AcDbEntity
  8
LC-001-002-----0
  6
Continuous
 62
     7
100
AcDbCircle
 10
0.00019096591132
 20
-685.024173749669
 30
0.0
 40
85.59999999999948
100
AcDbArc
 50
134.2302319999994
 51
135.7697680000006
  0
ARC
  5
311
330
5C
100
AcDbEntity
  8
LC-001-002-----0
  6
Continuous
 62
     7
100
AcDbCircle
 10
0.00019096591132
 20
-685.024173749669
 30
0.0
 40
85.59999999999894
100
AcDbArc
 50
-90.76976800000084
 51
-89.23023199999916
  0
ARC
  5
312
330
5C
100
AcDbEntity
  8
LC-001-002-----0
  6
Continuous
 62
     7
100
AcDbCircle
 10
0.00019096591132
 20
-685.024173749669
 30
0.0
 40
85.60000000000052
100
AcDbArc
 50
-105.7697680000008
 51
-104.2302319999999
  0
ARC
  5
313
330
5C
100
AcDbEntity
  8
LC-001-002-----0
  6
Continuous
 62
     7
100
AcDbCircle
 10
0.00019096591132
 20
-685.024173749669
 30
0.0
 40
85.60000000000235
100
AcDbArc
 50
-120.7697679999996
 51
-119.2302320000011
  0
ARC
  5
314
330
5C
100
AcDbEntity
  8
LC-001-002-----0
  6
Continuous
 62
     7
100
AcDbCircle
 10
0.00019096591132
 20
-685.024173749669
 30
0.0
 40
85.59999999999947
100
AcDbArc
 50
-135.7697680000006
 51
-134.2302319999994
  0
ARC
  5
315
330
5C
100
AcDbEntity
  8
LC-001-002-----0
  6
Continuous
 62
     7
100
AcDbCircle
 10
0.00019096591132
 20
-685.024173749669
 30
0.0
 40
85.60000000000089
100
AcDbArc
 50
-150.7697679999989
 51
-149.2302319999992
  0
ARC
  5
316
330
5C
100
AcDbEntity
  8
LC-001-002-----0
  6
Continuous
 62
     7
100
AcDbCircle
 10
0.00019096591132
 20
-685.024173749669
 30
0.0
 40
85.60000000000028
100
AcDbArc
 50
-165.7697680000001
 51
-164.2302319999992
  0
ARC
  5
317
330
5C
100
AcDbEntity
  8
LC-001-002-----0
  6
Continuous
 62
     7
100
AcDbCircle
 10
0.00019096591132
 20
-685.024173749669
 30
0.0
 40
85.59999999999894
100
AcDbArc
 50
179.2302319999991
 51
-179.2302319999991
  0
ARC
  5
318
330
5C
100
AcDbEntity
  8
LC-001-002-----0
  6
Continuous
 62
     7
100
AcDbCircle
 10
0.00019096591132
 20
-685.024173749669
 30
0.0
 40
85.59999999999923
100
AcDbArc
 50
149.2302319999992
 51
150.769768000001
  0
ARC
  5
319
330
5C
100
AcDbEntity
  8
LC-001-002-----0
  6
Continuous
 62
     7
100
AcDbCircle
 10
0.00019096591132
 20
-685.024173749669
 30
0.0
 40
85.59999999999954
100
AcDbArc
 50
164.2302320000015
 51
165.7697680000001
  0
ARC
  5
31A
330
5C
100
AcDbEntity
  8
LC-001-002-----0
  6
Continuous
 62
     7
100
AcDbCircle
 10
0.00019096591132
 20
-685.024173749669
 30
0.0
 40
3.500000000000681
100
AcDbArc
 50
154.1820899999961
 51
160.8179099999953
  0
ARC
  5
31B
330
5C
100
AcDbEntity
  8
LC-001-002-----0
  6
Continuous
 62
     7
100
AcDbCircle
 10
0.00019096591132
 20
-685.024173749669
 30
0.0
 40
3.499999999998411
100
AcDbArc
 50
-160.8179099999953
 51
-154.1820899999961
  0
ARC
  5
31C
330
5C
100
AcDbEntity
  8
LC-001-002-----0
  6
Continuous
 62
     7
100
AcDbCircle
 10
0.00019096591132
 20
-685.024173749669
 30
0.0
 40
3.500000000000681
100
AcDbArc
 50
-115.8179100000039
 51
-109.1820900000047
  0
ARC
  5
31D
330
5C
100
AcDbEntity
  8
LC-001-002-----0
  6
Continuous
 62
     7
100
AcDbCircle
 10
0.00019096591132
 20
-685.024173749669
 30
0.0
 40
3.499999999998411
100
AcDbArc
 50
-70.81790999999528
 51
-64.18208999999611
  0
ARC
  5
31E
330
5C
100
AcDbEntity
  8
LC-001-002-----0
  6
Continuous
 62
     7
100
AcDbCircle
 10
0.00019096591132
 20
-685.024173749669
 30
0.0
 40
3.500000000000682
100
AcDbArc
 50
-25.81791000000391
 51
-19.18209000000472
  0
ARC
  5
31F
330
5C
100
AcDbEntity
  8
LC-001-002-----0
  6
Continuous
 62
     7
100
AcDbCircle
 10
0.00019096591132
 20
-685.024173749669
 30
0.0
 40
3.499999999998411
100
AcDbArc
 50
19.18209000000472
 51
25.81791000000391
  0
ARC
  5
320
330
5C
100
AcDbEntity
  8
LC-001-002-----0
  6
Continuous
 62
     7
100
AcDbCircle
 10
0.00019096591132
 20
-685.024173749669
 30
0.0
 40
3.500000000000682
100
AcDbArc
 50
64.18208999999611
 51
70.81790999999528
  0
ARC
  5
321
330
5C
100
AcDbEntity
  8
LC-002-002-RND-0
  6
Continuous
 62
     7
100
AcDbCircle
 10
-178.9991870340891
 20
-864.0249477496691
 30
0.0
 40
10.00000000000162
100
AcDbArc
 50
-179.9998759999875
 51
-89.99975199999638
  0
ARC
  5
322
330
5C
100
AcDbEntity
  8
LC-002-002-RND-0
  6
Continuous
 62
     7
100
AcDbCircle
 10
179.0008129659109
 20
-864.0233997496689
 30
0.0
 40
9.999999999999089
100
AcDbArc
 50
-89.9997519999752
 51
0.00012399999164
  0
ARC
  5
323
330
5C
100
AcDbEntity
  8
LC-002-002-RND-0
  6
Continuous
 62
     7
100
AcDbCircle
 10
179.0000389659108
 20
-506.0233997496689
 30
0.0
 40
10.00000000000523
100
AcDbArc
 50
0.00012399999196
 51
90.0002480000248
  0
ARC
  5
324
330
5C
100
AcDbEntity
  8
LC-002-002-RND-0
  6
Continuous
 62
     7
100
AcDbCircle
 10
-178.9999610340892
 20
-506.0249477496691
 30
0.0
 40
9.999999999999032
100
AcDbArc
 50
90.00024800000429
 51
-179.9998759999875
  0
CIRCLE
  5
325
330
5C
100
AcDbEntity
  8
LC-001-002-----0
  6
Continuous
 62
     7
100
AcDbCircle
 10
0.0002219659109
 20
-685.0249757496676
 30
0.0
 40
177.0
  0
CIRCLE
  5
326
330
5C
100
AcDbEntity
  8
LC-001-002-----0
  6
Continuous
 62
     7
100
AcDbCircle
 10
129.5004259659108
 20
-814.5237717496675
 30
0.0
 40
4.75
  0
CIRCLE
  5
327
330
5C
100
AcDbEntity
  8
LC-001-002-----0
  6
Continuous
 62
     7
100
AcDbCircle
 10
-129.4995740340892
 20
-814.5237717496675
 30
0.0
 40
4.749999999999986
  0
CIRCLE
  5
328
330
5C
100
AcDbEntity
  8
LC-001-002-----0
  6
Continuous
 62
     7
100
AcDbCircle
 10
129.5004259659108
 20
-555.5237627496681
 30
0.0
 40
4.75
  0
CIRCLE
  5
329
330
5C
100
AcDbEntity
  8
LC-001-002-----0
  6
Continuous
 62
     7
100
AcDbCircle
 10
-129.4995740340892
 20
-555.5237667496694
 30
0.0
 40
4.749999999999986
  0
CIRCLE
  5
32A
330
5C
100
AcDbEntity
  8
LC-001-002-----0
  6
Continuous
 62
     7
100
AcDbCircle
 10
129.5004259659108
 20
-814.5237667496694
 30
0.0
 40
2.5
  0
CIRCLE
  5
32B
330
5C
100
AcDbEntity
  8
LC-001-002-----0
  6
Continuous
 62
     7
100
AcDbCircle
 10
-129.4995740340892
 20
-814.5237667496694
 30
0.0
 40
2.499999999999986
  0
CIRCLE
  5
32C
330
5C
100
AcDbEntity
  8
LC-001-002-----0
  6
Continuous
 62
     7
100
AcDbCircle
 10
-129.4995740340892
 20
-555.5237667496694
 30
0.0
 40
2.499999999999986
  0
CIRCLE
  5
32D
330
5C
100
AcDbEntity
  8
LC-001-002-----0
  6
Continuous
 62
     7
100
AcDbCircle
 10
129.5004259659108
 20
-555.5237667496694
 30
0.0
 40
2.5
  0
CIRCLE
  5
32E
330
5C
100
AcDbEntity
  8
LC-001-002-----0
  6
Continuous
 62
     7
100
AcDbCircle
 10
129.5004299659122
 20
-814.5237717496675
 30
0.0
 40
3.500003999997716
  0
CIRCLE
  5
32F
330
5C
100
AcDbEntity
  8
LC-001-002-----0
  6
Continuous
 62
     7
100
AcDbCircle
 10
129.5004299659122
 20
-555.5237627496681
 30
0.0
 40
3.500003999997716
  0
CIRCLE
  5
330
330
5C
100
AcDbEntity
  8
LC-001-002-----0
  6
Continuous
 62
     7
100
AcDbCircle
 10
-129.4995790340872
 20
-555.5237627496681
 30
0.0
 40
3.500003999997688
  0
CIRCLE
  5
331
330
5C
100
AcDbEntity
  8
LC-001-002-----0
  6
Continuous
 62
     7
100
AcDbCircle
 10
0.00019096591132
 20
-685.024173749669
 30
0.0
 40
43.20000000000073
  0
CIRCLE
  5
332
330
5C
100
AcDbEntity
  8
LC-001-002-----0
  6
Continuous
 62
     7
100
AcDbCircle
 10
0.0002219659109
 20
-685.0249757496676
 30
0.0
 40
87.5
  0
ENDBLK
  5
5E
330
5C
100
AcDbEntity
  8
0
100
AcDbBlockEnd
  0
BLOCK
  5
33B
330
333
100
AcDbEntity
  8
0
100
AcDbBlockBegin
  2
*D7
 70
     1
 71
     0
 10
0.0
 20
0.0
 30
0.0
  3
*D7
  1

  0
LINE
  5
334
330
333
100
AcDbEntity
  8
1
  6
Continuous
 62
     4
100
AcDbLine
 10
-188.9999999999998
 20
146.5148221790131
 30
0.0
 11
189.0
 21
146.5148221790131
 31
0.0
  0
LINE
  5
335
330
333
100
AcDbEntity
  8
1
  6
Continuous
 62
     4
100
AcDbLine
 10
189.0
 20
-102.503302003904
 30
0.0
 11
189.0
 21
148.5148221790131
 31
0.0
  0
LINE
  5
336
330
333
100
AcDbEntity
  8
1
  6
Continuous
 62
     4
100
AcDbLine
 10
-188.9999999999998
 20
-102.503302003904
 30
0.0
 11
-188.9999999999998
 21
148.5148221790131
 31
0.0
  0
SOLID
  5
337
330
333
100
AcDbEntity
  8
1
 62
     4
100
AcDbTrace
 10
-176.9999999999998
 20
148.0946521500618
 30
0.0
 11
-176.9999999999998
 21
144.9349922079643
 31
0.0
 12
-188.9999999999998
 22
146.5148221790131
 32
0.0
 13
-188.9999999999998
 23
146.5148221790131
 33
0.0
  0
SOLID
  5
338
330
333
100
AcDbEntity
  8
1
 62
     4
100
AcDbTrace
 10
177.0
 20
144.9349922079643
 30
0.0
 11
177.0
 21
148.0946521500618
 31
0.0
 12
189.0
 22
146.5148221790131
 32
0.0
 13
189.0
 23
146.5148221790131
 33
0.0
  0
MTEXT
  5
33A
330
333
100
AcDbEntity
  8
1
 62
     1
100
AcDbMText
 10
-54.91364924960002
 20
148.5147267676807
 30
0.0
 40
12.0
 41
0.0
 71
     7
 72
     1
  1
\C1;378x\C1;378
  7
CONVERTER_11
 11
0.9999999999970619
 21
2.424068405545306E-6
 31
0.0
 73
     1
 44
0.60024009603842
  0
ENDBLK
  5
33C
330
333
100
AcDbEntity
  8
0
100
AcDbBlockEnd
  0
BLOCK
  5
346
330
33F
100
AcDbEntity
  8
0
100
AcDbBlockBegin
  2
*D8
 70
     1
 71
     0
 10
0.0
 20
0.0
 30
0.0
  3
*D8
  1

  0
LINE
  5
340
330
33F
100
AcDbEntity
  8
1
  6
Continuous
 62
     4
100
AcDbLine
 10
-142.0501739999998
 20
99.3184587947843
 30
0.0
 11
142.0501750000001
 21
99.3184587947843
 31
0.0
  0
LINE
  5
341
330
33F
100
AcDbEntity
  8
1
  6
Continuous
 62
     4
100
AcDbLine
 10
142.0501750000001
 20
-0.00287215579959
 30
0.0
 11
142.0501750000001
 21
101.3184587947843
 31
0.0
  0
LINE
  5
342
330
33F
100
AcDbEntity
  8
1
  6
Continuous
 62
     4
100
AcDbLine
 10
-142.0501739999998
 20
-0.00287215579959
 30
0.0
 11
-142.0501739999998
 21
101.3184587947843
 31
0.0
  0
SOLID
  5
343
330
33F
100
AcDbEntity
  8
1
 62
     4
100
AcDbTrace
 10
-130.0501739999998
 20
100.8982887658331
 30
0.0
 11
-130.0501739999998
 21
97.73862882373555
 31
0.0
 12
-142.0501739999998
 22
99.3184587947843
 32
0.0
 13
-142.0501739999998
 23
99.3184587947843
 33
0.0
  0
SOLID
  5
344
330
33F
100
AcDbEntity
  8
1
 62
     4
100
AcDbTrace
 10
130.0501750000001
 20
97.73862882373555
 30
0.0
 11
130.0501750000001
 21
100.8982887658331
 31
0.0
 12
142.0501750000001
 22
99.3184587947843
 32
0.0
 13
142.0501750000001
 23
99.3184587947843
 33
0.0
  0
MTEXT
  5
345
330
33F
100
AcDbEntity
  8
1
 62
     1
100
AcDbMText
 10
-59.58607436942418
 20
101.3183633834519
 30
0.0
 40
12.0
 41
0.0
 71
     7
 72
     1
  1
\C1;284x\C1;284
  7
CONVERTER_11
 11
0.9999999999970619
 21
2.424068405545306E-6
 31
0.0
 73
     1
 44
0.60024009603842
  0
ENDBLK
  5
347
330
33F
100
AcDbEntity
  8
0
100
AcDbBlockEnd
  0
BLOCK
  5
351
330
34A
100
AcDbEntity
  8
0
100
AcDbBlockBegin
  2
*D9
 70
     1
 71
     0
 10
0.0
 20
0.0
 30
0.0
  3
*D9
  1

  0
LINE
  5
34B
330
34A
100
AcDbEntity
  8
1
  6
Continuous
 62
     4
100
AcDbLine
 10
225.6739113855702
 20
-100.0033020039041
 30
0.0
 11
225.6739113855702
 21
-0.00354115579964
 31
0.0
  0
LINE
  5
34C
330
34A
100
AcDbEntity
  8
1
  6
Continuous
 62
     4
100
AcDbLine
 10
179.9999460000003
 20
-0.00354115579964
 30
0.0
 11
227.6739113855702
 21
-0.00354115579964
 31
0.0
  0
LINE
  5
34D
330
34A
100
AcDbEntity
  8
1
  6
Continuous
 62
     4
100
AcDbLine
 10
187.0000000000001
 20
-100.0033020039041
 30
0.0
 11
227.6739113855702
 21
-100.0033020039041
 31
0.0
  0
SOLID
  5
34E
330
34A
100
AcDbEntity
  8
1
 62
     4
100
AcDbTrace
 10
224.0940814145214
 20
-88.00330200390405
 30
0.0
 11
227.2537413566189
 21
-88.00330200390405
 31
0.0
 12
225.6739113855702
 22
-100.0033020039041
 32
0.0
 13
225.6739113855702
 23
-100.0033020039041
 33
0.0
  0
SOLID
  5
34F
330
34A
100
AcDbEntity
  8
1
 62
     4
100
AcDbTrace
 10
227.2537413566189
 20
-12.00354115579964
 30
0.0
 11
224.0940814145214
 21
-12.00354115579964
 31
0.0
 12
225.6739113855702
 22
-0.00354115579964
 32
0.0
 13
225.6739113855702
 23
-0.00354115579964
 33
0.0
  0
MTEXT
  5
350
330
34A
100
AcDbEntity
  8
1
 62
     1
100
AcDbMText
 10
223.6739113855702
 20
-80.28082988096597
 30
0.0
 40
12.0
 41
0.0
 71
     7
 72
     1
  1
100-160
  7
CONVERTER_11
 11
0.0
 21
1.0
 31
0.0
 73
     1
 44
0.60024009603842
  0
ENDBLK
  5
352
330
34A
100
AcDbEntity
  8
0
100
AcDbBlockEnd
  0
BLOCK
  5
35C
330
355
100
AcDbEntity
  8
0
100
AcDbBlockBegin
  2
*D10
 70
     1
 71
     0
 10
0.0
 20
0.0
 30
0.0
  3
*D10
  1

  0
LINE
  5
356
330
355
100
AcDbEntity
  8
1
  6
Continuous
 62
     4
100
AcDbLine
 10
207.19844076254
 20
-273.001953003904
 30
0.0
 11
207.19844076254
 21
-102.5033020039041
 31
0.0
  0
LINE
  5
357
330
355
100
AcDbEntity
  8
1
  6
Continuous
 62
     4
100
AcDbLine
 10
77.5000000000001
 20
-273.001953003904
 30
0.0
 11
209.19844076254
 21
-273.001953003904
 31
0.0
  0
LINE
  5
358
330
355
100
AcDbEntity
  8
1
  6
Continuous
 62
     4
100
AcDbLine
 10
189.0
 20
-102.5033020039041
 30
0.0
 11
209.19844076254
 21
-102.5033020039041
 31
0.0
  0
SOLID
  5
359
330
355
100
AcDbEntity
  8
1
 62
     4
100
AcDbTrace
 10
205.6186107914912
 20
-261.001953003904
 30
0.0
 11
208.7782707335888
 21
-261.001953003904
 31
0.0
 12
207.19844076254
 22
-273.001953003904
 32
0.0
 13
207.19844076254
 23
-273.001953003904
 33
0.0
  0
SOLID
  5
35A
330
355
100
AcDbEntity
  8
1
 62
     4
100
AcDbTrace
 10
208.7782707335888
 20
-114.5033020039041
 30
0.0
 11
205.6186107914912
 21
-114.5033020039041
 31
0.0
 12
207.19844076254
 22
-102.5033020039041
 32
0.0
 13
207.19844076254
 23
-102.5033020039041
 33
0.0
  0
MTEXT
  5
35B
330
355
100
AcDbEntity
  8
1
 62
     1
100
AcDbMText
 10
205.19844076254
 20
-229.8644025736699
 30
0.0
 40
12.0
 41
0.0
 71
     7
 72
     1
  1
\C1;(\C1;111-171\C1;)
  7
CONVERTER_11
 11
0.0
 21
1.0
 31
0.0
 73
     1
 44
0.60024009603842
  0
ENDBLK
  5
35D
330
355
100
AcDbEntity
  8
0
100
AcDbBlockEnd
  0
BLOCK
  5
367
330
360
100
AcDbEntity
  8
0
100
AcDbBlockBegin
  2
*D11
 70
     1
 71
     0
 10
0.0
 20
0.0
 30
0.0
  3
*D11
  1

  0
LINE
  5
361
330
360
100
AcDbEntity
  8
1
  6
Continuous
 62
     4
100
AcDbLine
 10
-62.4999999999998
 20
-372.1879774770279
 30
0.0
 11
62.50000000000009
 21
-372.1879774770279
 31
0.0
  0
LINE
  5
362
330
360
100
AcDbEntity
  8
1
  6
Continuous
 62
     4
100
AcDbLine
 10
62.50000000000009
 20
-338.0011820039039
 30
0.0
 11
62.50000000000009
 21
-374.1879774770279
 31
0.0
  0
LINE
  5
363
330
360
100
AcDbEntity
  8
1
  6
Continuous
 62
     4
100
AcDbLine
 10
-62.4999999999998
 20
-338.0011820039039
 30
0.0
 11
-62.4999999999998
 21
-374.1879774770279
 31
0.0
  0
SOLID
  5
364
330
360
100
AcDbEntity
  8
1
 62
     4
100
AcDbTrace
 10
-50.4999999999998
 20
-370.6081475059792
 30
0.0
 11
-50.4999999999998
 21
-373.7678074480767
 31
0.0
 12
-62.4999999999998
 22
-372.1879774770279
 32
0.0
 13
-62.4999999999998
 23
-372.1879774770279
 33
0.0
  0
SOLID
  5
365
330
360
100
AcDbEntity
  8
1
 62
     4
100
AcDbTrace
 10
50.50000000000009
 20
-373.7678074480767
 30
0.0
 11
50.50000000000009
 21
-370.6081475059792
 31
0.0
 12
62.50000000000009
 22
-372.1879774770279
 32
0.0
 13
62.50000000000009
 23
-372.1879774770279
 33
0.0
  0
MTEXT
  5
366
330
360
100
AcDbEntity
  8
1
 62
     1
100
AcDbMText
 10
-19.23016554047437
 20
-370.1880251826942
 30
0.0
 40
12.0
 41
0.0
 71
     7
 72
     1
  1
\C1;DN\C1;125
  7
CONVERTER_11
 11
0.9999999999970619
 21
2.424068405545306E-6
 31
0.0
 73
     1
 44
0.60024009603842
  0
ENDBLK
  5
368
330
360
100
AcDbEntity
  8
0
100
AcDbBlockEnd
  0
BLOCK
  5
372
330
36B
100
AcDbEntity
  8
0
100
AcDbBlockBegin
  2
*D12
 70
     1
 71
     0
 10
0.0
 20
0.0
 30
0.0
  3
*D12
  1

  0
LINE
  5
36C
330
36B
100
AcDbEntity
  8
1
  6
Continuous
 62
     4
100
AcDbLine
 10
-85.4999999999998
 20
-404.6725612761206
 30
0.0
 11
85.50000000000009
 21
-404.6725612761206
 31
0.0
  0
LINE
  5
36D
330
36B
100
AcDbEntity
  8
1
  6
Continuous
 62
     4
100
AcDbLine
 10
85.50000000000009
 20
-268.0019530039037
 30
0.0
 11
85.50000000000009
 21
-406.6725612761206
 31
0.0
  0
LINE
  5
36E
330
36B
100
AcDbEntity
  8
1
  6
Continuous
 62
     4
100
AcDbLine
 10
-85.4999999999998
 20
-268.0019530039037
 30
0.0
 11
-85.4999999999998
 21
-406.6725612761206
 31
0.0
  0
SOLID
  5
36F
330
36B
100
AcDbEntity
  8
1
 62
     4
100
AcDbTrace
 10
-73.4999999999998
 20
-403.0927313050718
 30
0.0
 11
-73.4999999999998
 21
-406.2523912471693
 31
0.0
 12
-85.4999999999998
 22
-404.6725612761206
 32
0.0
 13
-85.4999999999998
 23
-404.6725612761206
 33
0.0
  0
SOLID
  5
370
330
36B
100
AcDbEntity
  8
1
 62
     4
100
AcDbTrace
 10
73.50000000000009
 20
-406.2523912471693
 30
0.0
 11
73.50000000000009
 21
-403.0927313050718
 31
0.0
 12
85.50000000000009
 22
-404.6725612761206
 32
0.0
 13
85.50000000000009
 23
-404.6725612761206
 33
0.0
  0
MTEXT
  5
371
330
36B
100
AcDbEntity
  8
1
 62
     1
100
AcDbMText
 10
-26.5548624418191
 20
-402.6726089817868
 30
0.0
 40
12.0
 41
0.0
 71
     7
 72
     1
  1
\C1;\U+00d8\C1;171
  7
CONVERTER_11
 11
0.9999999999970619
 21
2.424068405545306E-6
 31
0.0
 73
     1
 44
0.60024009603842
  0
ENDBLK
  5
373
330
36B
100
AcDbEntity
  8
0
100
AcDbBlockEnd
  0
BLOCK
  5
37D
330
376
100
AcDbEntity
  8
0
100
AcDbBlockBegin
  2
*D13
 70
     1
 71
     0
 10
0.0
 20
0.0
 30
0.0
  3
*D13
  1

  0
LINE
  5
377
330
376
100
AcDbEntity
  8
1
  6
Continuous
 62
     4
100
AcDbLine
 10
176.9998351483862
 20
123.5253783749377
 30
0.0
 11
-177.0001648509459
 21
123.5248921778712
 31
0.0
  0
LINE
  5
378
330
376
100
AcDbEntity
  8
1
  6
Continuous
 62
     4
100
AcDbLine
 10
-176.9999999999997
 20
3.49694689687382
 30
0.0
 11
-177.0001675978219
 21
125.5248921778693
 31
0.0
  0
LINE
  5
379
330
376
100
AcDbEntity
  8
1
  6
Continuous
 62
     4
100
AcDbLine
 10
176.9999999999999
 20
3.49694689687382
 30
0.0
 11
176.9998324015102
 21
125.5253783749358
 31
0.0
  0
SOLID
  5
37A
330
376
100
AcDbEntity
  8
1
 62
     4
100
AcDbTrace
 10
164.9998373181961
 20
121.9455319226339
 30
0.0
 11
164.9998329785989
 21
125.1051918647285
 31
0.0
 12
176.9998351483862
 22
123.5253783749377
 32
0.0
 13
176.9998351483862
 23
123.5253783749377
 33
0.0
  0
SOLID
  5
37B
330
376
100
AcDbEntity
  8
1
 62
     4
100
AcDbTrace
 10
-165.0001670207558
 20
125.1047386301749
 30
0.0
 11
-165.0001626811587
 21
121.9450786880804
 31
0.0
 12
-177.0001648509459
 22
123.5248921778712
 32
0.0
 13
-177.0001648509459
 23
123.5248921778712
 33
0.0
  0
MTEXT
  5
37C
330
376
100
AcDbEntity
  8
1
 62
     1
100
AcDbMText
 10
-49.93208341831767
 20
125.5250460216044
 30
0.0
 40
12.0
 41
0.0
 71
     7
 72
     1
  1
\C1;\U+00d8\C1;354
  7
CONVERTER_11
 11
0.9999999999970619
 21
2.424068405545306E-6
 31
0.0
 73
     1
 44
0.60024009603842
  0
ENDBLK
  5
37E
330
376
100
AcDbEntity
  8
0
100
AcDbBlockEnd
  0
BLOCK
  5
388
330
381
100
AcDbEntity
  8
0
100
AcDbBlockBegin
  2
*D14
 70
     1
 71
     0
 10
0.0
 20
0.0
 30
0.0
  3
*D14
  1

  0
LINE
  5
382
330
381
100
AcDbEntity
  8
1
  6
Continuous
 62
     4
100
AcDbLine
 10
255.384519552382
 20
-273.0019530039039
 30
0.0
 11
255.384519552382
 21
-0.00354115579958
 31
0.0
  0
LINE
  5
383
330
381
100
AcDbEntity
  8
1
  6
Continuous
 62
     4
100
AcDbLine
 10
77.50000000000009
 20
-273.0019530039039
 30
0.0
 11
257.384519552382
 21
-273.0019530039039
 31
0.0
  0
LINE
  5
384
330
381
100
AcDbEntity
  8
1
  6
Continuous
 62
     4
100
AcDbLine
 10
179.9999460000001
 20
-0.00354115579958
 30
0.0
 11
257.384519552382
 21
-0.00354115579958
 31
0.0
  0
SOLID
  5
385
330
381
100
AcDbEntity
  8
1
 62
     4
100
AcDbTrace
 10
253.8046895813332
 20
-261.0019530039039
 30
0.0
 11
256.9643495234307
 21
-261.0019530039039
 31
0.0
 12
255.384519552382
 22
-273.0019530039039
 32
0.0
 13
255.384519552382
 23
-273.0019530039039
 33
0.0
  0
SOLID
  5
386
330
381
100
AcDbEntity
  8
1
 62
     4
100
AcDbTrace
 10
256.9643495234307
 20
-12.00354115579958
 30
0.0
 11
253.8046895813332
 21
-12.00354115579958
 31
0.0
 12
255.384519552382
 22
-0.00354115579958
 32
0.0
 13
255.384519552382
 23
-0.00354115579958
 33
0.0
  0
MTEXT
  5
387
330
381
100
AcDbEntity
  8
1
 62
     1
100
AcDbMText
 10
253.384519552382
 20
-149.729982002314
 30
0.0
 40
12.0
 41
0.0
 71
     7
 72
     1
  1
271
  7
CONVERTER_11
 11
0.0
 21
1.0
 31
0.0
 73
     1
 44
0.60024009603842
  0
ENDBLK
  5
389
330
381
100
AcDbEntity
  8
0
100
AcDbBlockEnd
  0
ENDSEC
  0
SECTION
  2
ENTITIES
  0
INSERT
  5
5F
330
1F
100
AcDbEntity
  8
1
100
AcDbBlockReference
  2
Senkschraube_M_6x25_DIN_965
 10
256.2787917819369
 20
-852.2576276186664
 30
0.0
  0
INSERT
  5
60
330
1F
100
AcDbEntity
  8
0
100
AcDbBlockReference
  2
Bauschutz_062_9E
 10
-646.596795999998
 20
-257.060702539733
 30
0.0
  0
INSERT
  5
61
330
1F
100
AcDbEntity
  8
0
100
AcDbBlockReference
  2
060_1E_Laubfangkorb
 10
17.77195867930657
 20
-737.7826886263971
 30
0.0
  0
INSERT
  5
62
330
1F
100
AcDbEntity
  8
1
100
AcDbBlockReference
  2
PVC_Manschette
 10
-1177.0
 20
-72.17514638699151
 30
0.0
  0
INSERT
  5
63
330
1F
100
AcDbEntity
  8
1
100
AcDbBlockReference
  2
Außenansicht
 10
-29.52887217687594
 20
294.2094123499751
 30
0.0
  0
INSERT
  5
64
330
1F
100
AcDbEntity
  8
1
100
AcDbBlockReference
  2
Körper
 10
-268.79612903409
 20
-427.176178667105
 30
0.0
  0
DIMENSION
  5
33E
330
1F
100
AcDbEntity
  8
1
100
AcDbDimension
  2
*D7
 10
-188.9999999999998
 20
146.5148221790131
 30
0.0
 11
-23.95364924971567
 21
154.5148221790131
 31
0.0
 70
    32
  1
<>
 71
     5
 42
-1.0
 53
0.00013888888889
  3
ME10_DIM_10
100
AcDbAlignedDimension
 13
188.9999999999999
 23
-102.503302003904
 33
0.0
 14
-188.9999999999997
 24
-102.503302003904
 34
0.0
 50
0.00000000000003
100
AcDbRotatedDimension
  0
DIMENSION
  5
349
330
1F
100
AcDbEntity
  8
1
100
AcDbDimension
  2
*D8
 10
-142.0501739999998
 20
99.3184587947843
 30
0.0
 11
-28.62607436953983
 21
107.3184587947843
 31
0.0
 70
    32
  1
284x284
 71
     5
 42
-1.0
 53
0.00013888888889
  3
ME10_DIM_11
100
AcDbAlignedDimension
 13
142.0501750000002
 23
-0.00287215579961
 33
0.0
 14
-142.0501739999997
 24
-0.00287215579961
 34
0.0
 50
0.00000000000003
100
AcDbRotatedDimension
  0
DIMENSION
  5
354
330
1F
100
AcDbEntity
  8
1
100
AcDbDimension
  2
*D9
 10
225.6739113855702
 20
-100.0033020039041
 30
0.0
 11
217.6739113855702
 21
-48.48082988096599
 31
0.0
 70
    32
  1
100-160
 71
     5
 42
-1.0
 53
-89.99999999999997
  3
ME10_DIM_12
100
AcDbAlignedDimension
 13
179.9999460000001
 23
-0.00354115579962
 33
0.0
 14
187.0
 24
-100.003302003904
 34
0.0
 50
-89.99999999999997
100
AcDbRotatedDimension
  0
DIMENSION
  5
35F
330
1F
100
AcDbEntity
  8
1
100
AcDbDimension
  2
*D10
 10
207.19844076254
 20
-273.001953003904
 30
0.0
 11
199.19844076254
 21
-193.6244025736699
 31
0.0
 70
    32
  1
(111-171
 71
     5
 42
-1.0
 53
-89.99999999999997
  3
ME10_DIM_13
100
AcDbAlignedDimension
 13
188.9999999999999
 23
-102.503302003904
 33
0.0
 14
77.50000000000007
 24
-273.0019530039039
 34
0.0
 50
-89.99999999999997
100
AcDbRotatedDimension
  0
DIMENSION
  5
36A
330
1F
100
AcDbEntity
  8
1
100
AcDbDimension
  2
*D11
 10
-62.4999999999998
 20
-372.1879774770279
 30
0.0
 11
-0.15016554053219
 21
-364.1879774770279
 31
0.0
 70
    32
  1
<>
 71
     5
 42
-1.0
 53
0.00013888888889
  3
ME10_DIM_14
100
AcDbAlignedDimension
 13
62.50000000000009
 23
-338.001182003904
 33
0.0
 14
-62.49999999999986
 24
-338.001182003904
 34
0.0
 50
0.00000000000003
100
AcDbRotatedDimension
  0
DIMENSION
  5
375
330
1F
100
AcDbEntity
  8
1
100
AcDbDimension
  2
*D12
 10
-85.4999999999998
 20
-404.6725612761206
 30
0.0
 11
-3.27486244187693
 21
-396.6725612761206
 31
0.0
 70
    32
  1
<>
 71
     5
 42
-1.0
 53
0.00013888888889
  3
ME10_DIM_15
100
AcDbAlignedDimension
 13
85.50000000000007
 23
-268.001953003904
 33
0.0
 14
-85.49999999999984
 24
-268.001953003904
 34
0.0
 50
0.00000000000003
100
AcDbRotatedDimension
  0
DIMENSION
  5
380
330
1F
100
AcDbEntity
  8
1
100
AcDbDimension
  2
*D13
 10
176.9998351483862
 20
123.5253783749377
 30
0.0
 11
-23.05209165901053
 21
131.5251036160188
 31
0.0
 70
    32
  1
<>
 71
     5
 42
-1.0
 53
0.00013888888889
  3
ME10_DIM_16
100
AcDbAlignedDimension
 13
-176.9999999999998
 23
3.49694689687388
 33
0.0
 14
176.9999999999999
 24
3.49694689687388
 34
0.0
 50
0.00007869220315
100
AcDbRotatedDimension
  0
DIMENSION
  5
38B
330
1F
100
AcDbEntity
  8
1
100
AcDbDimension
  2
*D14
 10
255.384519552382
 20
-273.0019530039039
 30
0.0
 11
247.384519552382
 21
-137.129982002314
 31
0.0
 70
    32
  1
271
 71
     5
 42
-1.0
 53
90.0
  3
ME10_DIM_17
100
AcDbAlignedDimension
 13
179.9999460000001
 23
-0.00354115579962
 33
0.0
 14
77.50000000000007
 24
-273.0019530039039
 34
0.0
 50
90.0
100
AcDbRotatedDimension
  0
ENDSEC
  0
SECTION
  2
OBJECTS
  0
DICTIONARY
  5
C
330
0
100
AcDbDictionary
281
     1
  3
ACAD_GROUP
350
D
  3
ACAD_LAYOUT
350
1A
  3
ACAD_MLINESTYLE
350
17
  3
ACAD_PLOTSETTINGS
350
19
  3
ACAD_PLOTSTYLENAME
350
E
  3
ACAD_TABLESTYLE
350
38C
  3
ACAD_VISUALSTYLE
350
2A
  0
DICTIONARY
  5
D
102
{ACAD_REACTORS
330
C
102
}
330
C
100
AcDbDictionary
281
     1
  0
DICTIONARY
  5
1A
102
{ACAD_REACTORS
330
C
102
}
330
C
100
AcDbDictionary
281
     1
  3
Layout1
350
1E
  3
Layout2
350
26
  3
Model
350
22
  0
DICTIONARY
  5
17
102
{ACAD_REACTORS
330
C
102
}
330
C
100
AcDbDictionary
281
     1
  3
Standard
350
18
  0
DICTIONARY
  5
19
102
{ACAD_REACTORS
330
C
102
}
330
C
100
AcDbDictionary
281
     1
  0
ACDBDICTIONARYWDFLT
  5
E
102
{ACAD_REACTORS
330
C
102
}
330
C
100
AcDbDictionary
281
     1
  3
Normal
350
F
100
AcDbDictionaryWithDefault
340
F
  0
DICTIONARY
  5
38C
102
{ACAD_REACTORS
330
C
102
}
330
C
100
AcDbDictionary
281
     1
  0
DICTIONARY
  5
2A
102
{ACAD_REACTORS
330
C
102
}
330
C
100
AcDbDictionary
281
     1
  3
2dWireframe
350
2F
  3
3D Hidden
350
31
  3
3dWireframe
350
30
  3
Basic
350
32
  3
Brighten
350
36
  3
ColorChange
350
3A
  3
Conceptual
350
34
  3
Dim
350
35
  3
Facepattern
350
39
  3
Flat
350
2B
  3
FlatWithEdges
350
2C
  3
Gouraud
350
2D
  3
GouraudWithEdges
350
2E
  3
Linepattern
350
38
  3
Realistic
350
33
  3
Thicken
350
37
  0
LAYOUT
  5
1E
102
{ACAD_REACTORS
330
1A
102
}
330
1A
100
AcDbPlotSettings
  1

  2
none_device
  4

  6

 40
0.0
 41
0.0
 42
0.0
 43
0.0
 44
0.0
 45
0.0
 46
0.0
 47
0.0
 48
0.0
 49
0.0
140
0.0
141
0.0
142
1.0
143
1.0
 70
   688
 72
     0
 73
     0
 74
     5
  7

 75
    16
147
1.0
148
0.0
149
0.0
100
AcDbLayout
  1
Layout1
 70
     1
 71
     1
 10
0.0
 20
0.0
 11
12.0
 21
9.0
 12
0.0
 22
0.0
 32
0.0
 14
1.00000000000000E+20
 24
1.00000000000000E+20
 34
1.00000000000000E+20
 15
-1.00000000000000E+20
 25
-1.00000000000000E+20
 35
-1.00000000000000E+20
146
0.0
 13
0.0
 23
0.0
 33
0.0
 16
1.0
 26
0.0
 36
0.0
 17
0.0
 27
1.0
 37
0.0
 76
     0
330
1B
  0
LAYOUT
  5
26
102
{ACAD_REACTORS
330
1A
102
}
330
1A
100
AcDbPlotSettings
  1

  2
none_device
  4

  6

 40
0.0
 41
0.0
 42
0.0
 43
0.0
 44
0.0
 45
0.0
 46
0.0
 47
0.0
 48
0.0
 49
0.0
140
0.0
141
0.0
142
1.0
143
1.0
 70
   688
 72
     0
 73
     0
 74
     5
  7

 75
    16
147
1.0
148
0.0
149
0.0
100
AcDbLayout
  1
Layout2
 70
     1
 71
     2
 10
0.0
 20
0.0
 11
0.0
 21
0.0
 12
0.0
 22
0.0
 32
0.0
 14
0.0
 24
0.0
 34
0.0
 15
0.0
 25
0.0
 35
0.0
146
0.0
 13
0.0
 23
0.0
 33
0.0
 16
1.0
 26
0.0
 36
0.0
 17
0.0
 27
1.0
 37
0.0
 76
     0
330
23
  0
LAYOUT
  5
22
102
{ACAD_REACTORS
330
1A
102
}
330
1A
100
AcDbPlotSettings
  1

  2
none_device
  4

  6

 40
0.0
 41
0.0
 42
0.0
 43
0.0
 44
0.0
 45
0.0
 46
0.0
 47
0.0
 48
0.0
 49
0.0
140
0.0
141
0.0
142
1.0
143
1.0
 70
  1712
 72
     0
 73
     0
 74
     0
  7

 75
     0
147
1.0
148
0.0
149
0.0
100
AcDbLayout
  1
Model
 70
     1
 71
     0
 10
0.0
 20
0.0
 11
12.0
 21
9.0
 12
0.0
 22
0.0
 32
0.0
 14
-204.8234320736738
 24
-882.4409916671066
 34
0.0
 15
257.384519552382
 25
217.9335605348933
 35
0.0
146
0.0
 13
0.0
 23
0.0
 33
0.0
 16
1.0
 26
0.0
 36
0.0
 17
0.0
 27
1.0
 37
0.0
 76
     0
330
1F
331
29
  0
MLINESTYLE
  5
18
102
{ACAD_REACTORS
330
17
102
}
330
17
100
AcDbMlineStyle
  2
Standard
 70
     0
  3

 62
   256
 51
90.0
 52
90.0
 71
     2
 49
0.5
 62
   256
  6
BYLAYER
 49
-0.5
 62
   256
  6
BYLAYER
  0
ACDBPLACEHOLDER
  5
F
102
{ACAD_REACTORS
330
E
102
}
330
E
  0
VISUALSTYLE
  5
2F
102
{ACAD_REACTORS
330
2A
102
}
330
2A
100
AcDbVisualStyle
  2
2dWireframe
 70
     4
 71
     0
 72
     2
 73
     0
 90
        0
 40
-0.6
 41
-30.0
 62
     5
 63
     7
 74
     1
 91
        4
 64
     7
 65
   257
 75
     1
175
     1
 42
1.0
 92
        0
 66
   257
 43
1.0
 76
     1
 77
     6
 78
     2
 67
     7
 79
     5
170
     0
171
     0
290
     0
174
     0
 93
        1
 44
0.0
173
     0
291
     0
 45
0.0
1001
ACAD
1000
AcDbSavedByObjectVersion
1070
     0
  0
VISUALSTYLE
  5
31
102
{ACAD_REACTORS
330
2A
102
}
330
2A
100
AcDbVisualStyle
  2
3D Hidden
 70
     6
 71
     1
 72
     2
 73
     2
 90
        0
 40
-0.6
 41
-30.0
 62
     5
 63
     7
 74
     2
 91
        2
 64
     7
 65
   257
 75
     2
175
     1
 42
40.0
 92
        0
 66
   257
 43
1.0
 76
     1
 77
     6
 78
     2
 67
     7
 79
     3
170
     0
171
     0
290
     0
174
     0
 93
        1
 44
0.0
173
     0
291
     0
 45
0.0
1001
ACAD
1000
AcDbSavedByObjectVersion
1070
     0
  0
VISUALSTYLE
  5
30
102
{ACAD_REACTORS
330
2A
102
}
330
2A
100
AcDbVisualStyle
  2
3dWireframe
 70
     5
 71
     0
 72
     2
 73
     0
 90
        0
 40
-0.6
 41
-30.0
 62
     5
 63
     7
 74
     1
 91
        4
 64
     7
 65
   257
 75
     1
175
     1
 42
1.0
 92
        0
 66
   257
 43
1.0
 76
     1
 77
     6
 78
     2
 67
     7
 79
     5
170
     0
171
     0
290
     0
174
     0
 93
        1
 44
0.0
173
     0
291
     0
 45
0.0
1001
ACAD
1000
AcDbSavedByObjectVersion
1070
     0
  0
VISUALSTYLE
  5
32
102
{ACAD_REACTORS
330
2A
102
}
330
2A
100
AcDbVisualStyle
  2
Basic
 70
     7
 71
     1
 72
     0
 73
     1
 90
        0
 40
-0.6
 41
-30.0
 62
     5
 63
     7
 74
     0
 91
        4
 64
     7
 65
   257
 75
     1
175
     1
 42
1.0
 92
        8
 66
     7
 43
1.0
 76
     1
 77
     6
 78
     2
 67
     7
 79
     5
170
     0
171
     0
290
     0
174
     0
 93
        1
 44
0.0
173
     0
291
     1
 45
0.0
1001
ACAD
1000
AcDbSavedByObjectVersion
1070
     0
  0
VISUALSTYLE
  5
36
102
{ACAD_REACTORS
330
2A
102
}
330
2A
100
AcDbVisualStyle
  2
Brighten
 70
    12
 71
     2
 72
     2
 73
     0
 90
        0
 40
-0.6
 41
-30.0
 62
     5
 63
     7
 74
     1
 91
        4
 64
     7
 65
   257
 75
     1
175
     1
 42
1.0
 92
        8
 66
     7
 43
1.0
 76
     1
 77
     6
 78
     2
 67
     7
 79
     5
170
     0
171
     0
290
     0
174
     0
 93
        1
 44
50.0
173
     0
291
     1
 45
0.0
1001
ACAD
1000
AcDbSavedByObjectVersion
1070
     0
  0
VISUALSTYLE
  5
3A
102
{ACAD_REACTORS
330
2A
102
}
330
2A
100
AcDbVisualStyle
  2
ColorChange
 70
    16
 71
     2
 72
     2
 73
     3
 90
        0
 40
-0.6
 41
-30.0
 62
     5
 63
     8
 74
     1
 91
        4
 64
     7
 65
   257
 75
     1
175
     1
 42
1.0
 92
        8
 66
     8
 43
1.0
 76
     1
 77
     6
 78
     2
 67
     7
 79
     5
170
     0
171
     0
290
     0
174
     0
 93
        1
 44
0.0
173
     0
291
     1
 45
0.0
1001
ACAD
1000
AcDbSavedByObjectVersion
1070
     0
  0
VISUALSTYLE
  5
34
102
{ACAD_REACTORS
330
2A
102
}
330
2A
100
AcDbVisualStyle
  2
Conceptual
 70
     9
 71
     3
 72
     2
 73
     0
 90
        0
 40
-0.6
 41
-30.0
 62
     5
 63
     7
 74
     2
 91
        2
 64
     7
 65
   257
 75
     1
175
     1
 42
40.0
 92
        8
 66
     7
 43
1.0
 76
     1
 77
     6
 78
     2
 67
     7
 79
     3
170
     0
171
     0
290
     0
174
     0
 93
        1
 44
0.0
173
     0
291
     0
 45
0.0
1001
ACAD
1000
AcDbSavedByObjectVersion
1070
     0
  0
VISUALSTYLE
  5
35
102
{ACAD_REACTORS
330
2A
102
}
330
2A
100
AcDbVisualStyle
  2
Dim
 70
    11
 71
     2
 72
     2
 73
     0
 90
        0
 40
-0.6
 41
-30.0
 62
     5
 63
     7
 74
     1
 91
        4
 64
     7
 65
   257
 75
     1
175
     1
 42
1.0
 92
        8
 66
     7
 43
1.0
 76
     1
 77
     6
 78
     2
 67
     7
 79
     5
170
     0
171
     0
290
     0
174
     0
 93
        1
 44
-50.0
173
     0
291
     1
 45
0.0
1001
ACAD
1000
AcDbSavedByObjectVersion
1070
     0
  0
VISUALSTYLE
  5
39
102
{ACAD_REACTORS
330
2A
102
}
330
2A
100
AcDbVisualStyle
  2
Facepattern
 70
    15
 71
     2
 72
     2
 73
     0
 90
        0
 40
-0.6
 41
-30.0
 62
     5
 63
     7
 74
     1
 91
        4
 64
     7
 65
   257
 75
     1
175
     1
 42
1.0
 92
        8
 66
     7
 43
1.0
 76
     1
 77
     6
 78
     2
 67
     7
 79
     5
170
     0
171
     0
290
     0
174
     0
 93
        1
 44
0.0
173
     0
291
     1
 45
0.0
1001
ACAD
1000
AcDbSavedByObjectVersion
1070
     0
  0
VISUALSTYLE
  5
2B
102
{ACAD_REACTORS
330
2A
102
}
330
2A
100
AcDbVisualStyle
  2
Flat
 70
     0
 71
     2
 72
     1
 73
     1
 90
        2
 40
-0.6
 41
30.0
 62
     5
 63
     7
 74
     0
 91
        4
 64
     7
 65
   257
 75
     1
175
     1
 42
1.0
 92
        8
 66
     7
 43
1.0
 76
     1
 77
     6
 78
     2
 67
     7
 79
     5
170
     0
171
     0
290
     0
174
     0
 93
       13
 44
0.0
173
     0
291
     1
 45
0.0
1001
ACAD
1000
AcDbSavedByObjectVersion
1070
     0
  0
VISUALSTYLE
  5
2C
102
{ACAD_REACTORS
330
2A
102
}
330
2A
100
AcDbVisualStyle
  2
FlatWithEdges
 70
     1
 71
     2
 72
     1
 73
     1
 90
        2
 40
-0.6
 41
30.0
 62
     5
 63
     7
 74
     1
 91
        4
 64
     7
 65
   257
 75
     1
175
     1
 42
1.0
 92
        0
 66
   257
 43
1.0
 76
     1
 77
     6
 78
     2
 67
     7
 79
     5
170
     0
171
     0
290
     0
174
     0
 93
       13
 44
0.0
173
     0
291
     1
 45
0.0
1001
ACAD
1000
AcDbSavedByObjectVersion
1070
     0
  0
VISUALSTYLE
  5
2D
102
{ACAD_REACTORS
330
2A
102
}
330
2A
100
AcDbVisualStyle
  2
Gouraud
 70
     2
 71
     2
 72
     2
 73
     1
 90
        2
 40
-0.6
 41
30.0
 62
     5
 63
     7
 74
     0
 91
        4
 64
     7
 65
   257
 75
     1
175
     1
 42
1.0
 92
        0
 66
     7
 43
1.0
 76
     1
 77
     6
 78
     2
 67
     7
 79
     5
170
     0
171
     0
290
     0
174
     0
 93
       13
 44
0.0
173
     0
291
     1
 45
0.0
1001
ACAD
1000
AcDbSavedByObjectVersion
1070
     0
  0
VISUALSTYLE
  5
2E
102
{ACAD_REACTORS
330
2A
102
}
330
2A
100
AcDbVisualStyle
  2
GouraudWithEdges
 70
     3
 71
     2
 72
     2
 73
     1
 90
        2
 40
-0.6
 41
30.0
 62
     5
 63
     7
 74
     1
 91
        4
 64
     7
 65
   257
 75
     1
175
     1
 42
1.0
 92
        0
 66
   257
 43
1.0
 76
     1
 77
     6
 78
     2
 67
     7
 79
     5
170
     0
171
     0
290
     0
174
     0
 93
       13
 44
0.0
173
     0
291
     1
 45
0.0
1001
ACAD
1000
AcDbSavedByObjectVersion
1070
     0
  0
VISUALSTYLE
  5
38
102
{ACAD_REACTORS
330
2A
102
}
330
2A
100
AcDbVisualStyle
  2
Linepattern
 70
    14
 71
     2
 72
     2
 73
     0
 90
        0
 40
-0.6
 41
-30.0
 62
     5
 63
     7
 74
     1
 91
        4
 64
     7
 65
   257
 75
     7
175
     7
 42
1.0
 92
        8
 66
     7
 43
1.0
 76
     1
 77
     6
 78
     2
 67
     7
 79
     5
170
     0
171
     0
290
     0
174
     0
 93
        1
 44
0.0
173
     0
291
     1
 45
0.0
1001
ACAD
1000
AcDbSavedByObjectVersion
1070
     0
  0
VISUALSTYLE
  5
33
102
{ACAD_REACTORS
330
2A
102
}
330
2A
100
AcDbVisualStyle
  2
Realistic
 70
     8
 71
     2
 72
     2
 73
     0
 90
        0
 40
-0.6
 41
-30.0
 62
     5
 63
     7
 74
     1
 91
        0
 64
     7
 65
   257
 75
     1
175
     1
 42
1.0
 92
        8
 66
     8
 43
1.0
 76
     1
 77
     6
 78
     2
 67
     7
 79
     5
170
     0
171
     0
290
     0
174
     0
 93
       13
 44
0.0
173
     0
291
     0
 45
0.0
1001
ACAD
1000
AcDbSavedByObjectVersion
1070
     0
  0
VISUALSTYLE
  5
37
102
{ACAD_REACTORS
330
2A
102
}
330
2A
100
AcDbVisualStyle
  2
Thicken
 70
    13
 71
     2
 72
     2
 73
     0
 90
        0
 40
-0.6
 41
-30.0
 62
     5
 63
     7
 74
     1
 91
        4
 64
     7
 65
   257
 75
     1
175
     1
 42
1.0
 92
       12
 66
     7
 43
1.0
 76
     1
 77
     6
 78
     2
 67
     7
 79
     5
170
     0
171
     0
290
     0
174
     0
 93
        1
 44
0.0
173
     0
291
     1
 45
0.0
1001
ACAD
1000
AcDbSavedByObjectVersion
1070
     0
  0
ENDSEC
  0
EOF
